  0
SECTION
  2
HEADER
  9
$ACADVER
  1
AC1015
  9
$ACADMAINTVER
 70
     6
  9
$DWGCODEPAGE
  3
ANSI_1252
  9
$INSBASE
 10
0.0
 20
0.0
 30
0.0
  9
$EXTMIN
 10
-6.99417415059054
 20
253.5432280514
 30
0.0
  9
$EXTMAX
 10
297.490669722316
 20
382.266998090504
 30
0.0
  9
$LIMMIN
 10
0.0
 20
0.0
  9
$LIMMAX
 10
12.0
 20
9.0
  9
$ORTHOMODE
 70
     0
  9
$REGENMODE
 70
     1
  9
$FILLMODE
 70
     1
  9
$QTEXTMODE
 70
     0
  9
$MIRRTEXT
 70
     1
  9
$LTSCALE
 40
1.0
  9
$ATTMODE
 70
     1
  9
$TEXTSIZE
 40
0.2
  9
$TRACEWID
 40
0.05
  9
$TEXTSTYLE
  7
Standard
  9
$CLAYER
  8
0
  9
$CELTYPE
  6
ByLayer
  9
$CECOLOR
 62
   256
  9
$CELTSCALE
 40
1.0
  9
$DISPSILH
 70
     0
  9
$DIMSCALE
 40
1.0
  9
$DIMASZ
 40
0.18
  9
$DIMEXO
 40
0.0625
  9
$DIMDLI
 40
0.38
  9
$DIMRND
 40
0.0
  9
$DIMDLE
 40
0.0
  9
$DIMEXE
 40
0.18
  9
$DIMTP
 40
0.0
  9
$DIMTM
 40
0.0
  9
$DIMTXT
 40
0.18
  9
$DIMCEN
 40
0.09
  9
$DIMTSZ
 40
0.0
  9
$DIMTOL
 70
     0
  9
$DIMLIM
 70
     0
  9
$DIMTIH
 70
     1
  9
$DIMTOH
 70
     1
  9
$DIMSE1
 70
     0
  9
$DIMSE2
 70
     0
  9
$DIMTAD
 70
     0
  9
$DIMZIN
 70
     0
  9
$DIMBLK
  1

  9
$DIMASO
 70
     1
  9
$DIMSHO
 70
     1
  9
$DIMPOST
  1

  9
$DIMAPOST
  1

  9
$DIMALT
 70
     0
  9
$DIMALTD
 70
     2
  9
$DIMALTF
 40
25.4
  9
$DIMLFAC
 40
1.0
  9
$DIMTOFL
 70
     0
  9
$DIMTVP
 40
0.0
  9
$DIMTIX
 70
     0
  9
$DIMSOXD
 70
     0
  9
$DIMSAH
 70
     0
  9
$DIMBLK1
  1

  9
$DIMBLK2
  1

  9
$DIMSTYLE
  2
Standard
  9
$DIMCLRD
 70
     0
  9
$DIMCLRE
 70
     0
  9
$DIMCLRT
 70
     0
  9
$DIMTFAC
 40
1.0
  9
$DIMGAP
 40
0.09
  9
$DIMJUST
 70
     0
  9
$DIMSD1
 70
     0
  9
$DIMSD2
 70
     0
  9
$DIMTOLJ
 70
     1
  9
$DIMTZIN
 70
     0
  9
$DIMALTZ
 70
     0
  9
$DIMALTTZ
 70
     0
  9
$DIMUPT
 70
     0
  9
$DIMDEC
 70
     4
  9
$DIMTDEC
 70
     4
  9
$DIMALTU
 70
     2
  9
$DIMALTTD
 70
     2
  9
$DIMTXSTY
  7
Standard
  9
$DIMAUNIT
 70
     0
  9
$DIMADEC
 70
     0
  9
$DIMALTRND
 40
0.0
  9
$DIMAZIN
 70
     0
  9
$DIMDSEP
 70
    46
  9
$DIMATFIT
 70
     3
  9
$DIMFRAC
 70
     0
  9
$DIMLDRBLK
  1

  9
$DIMLUNIT
 70
     2
  9
$DIMLWD
 70
    -2
  9
$DIMLWE
 70
    -2
  9
$DIMTMOVE
 70
     0
  9
$LUNITS
 70
     2
  9
$LUPREC
 70
     4
  9
$SKETCHINC
 40
0.1
  9
$FILLETRAD
 40
0.5
  9
$AUNITS
 70
     0
  9
$AUPREC
 70
     0
  9
$MENU
  1
.
  9
$ELEVATION
 40
0.0
  9
$PELEVATION
 40
0.0
  9
$THICKNESS
 40
0.0
  9
$LIMCHECK
 70
     0
  9
$CHAMFERA
 40
0.5
  9
$CHAMFERB
 40
0.5
  9
$CHAMFERC
 40
1.0
  9
$CHAMFERD
 40
0.0
  9
$SKPOLY
 70
     0
  9
$TDCREATE
 40
2456748.729162106
  9
$TDUCREATE
 40
2456748.645828773
  9
$TDUPDATE
 40
2456748.729162118
  9
$TDUUPDATE
 40
2456748.645828785
  9
$TDINDWG
 40
0.0000000116
  9
$TDUSRTIMER
 40
0.0000000116
  9
$USRTIMER
 70
     1
  9
$ANGBASE
 50
0.0
  9
$ANGDIR
 70
     0
  9
$PDMODE
 70
     0
  9
$PDSIZE
 40
0.0
  9
$PLINEWID
 40
0.0
  9
$SPLFRAME
 70
     0
  9
$SPLINETYPE
 70
     6
  9
$SPLINESEGS
 70
     8
  9
$HANDSEED
  5
158
  9
$SURFTAB1
 70
     6
  9
$SURFTAB2
 70
     6
  9
$SURFTYPE
 70
     6
  9
$SURFU
 70
     6
  9
$SURFV
 70
     6
  9
$UCSBASE
  2

  9
$UCSNAME
  2

  9
$UCSORG
 10
0.0
 20
0.0
 30
0.0
  9
$UCSXDIR
 10
1.0
 20
0.0
 30
0.0
  9
$UCSYDIR
 10
0.0
 20
1.0
 30
0.0
  9
$UCSORTHOREF
  2

  9
$UCSORTHOVIEW
 70
     0
  9
$UCSORGTOP
 10
0.0
 20
0.0
 30
0.0
  9
$UCSORGBOTTOM
 10
0.0
 20
0.0
 30
0.0
  9
$UCSORGLEFT
 10
0.0
 20
0.0
 30
0.0
  9
$UCSORGRIGHT
 10
0.0
 20
0.0
 30
0.0
  9
$UCSORGFRONT
 10
0.0
 20
0.0
 30
0.0
  9
$UCSORGBACK
 10
0.0
 20
0.0
 30
0.0
  9
$PUCSBASE
  2

  9
$PUCSNAME
  2

  9
$PUCSORG
 10
0.0
 20
0.0
 30
0.0
  9
$PUCSXDIR
 10
1.0
 20
0.0
 30
0.0
  9
$PUCSYDIR
 10
0.0
 20
1.0
 30
0.0
  9
$PUCSORTHOREF
  2

  9
$PUCSORTHOVIEW
 70
     0
  9
$PUCSORGTOP
 10
0.0
 20
0.0
 30
0.0
  9
$PUCSORGBOTTOM
 10
0.0
 20
0.0
 30
0.0
  9
$PUCSORGLEFT
 10
0.0
 20
0.0
 30
0.0
  9
$PUCSORGRIGHT
 10
0.0
 20
0.0
 30
0.0
  9
$PUCSORGFRONT
 10
0.0
 20
0.0
 30
0.0
  9
$PUCSORGBACK
 10
0.0
 20
0.0
 30
0.0
  9
$USERI1
 70
     0
  9
$USERI2
 70
     0
  9
$USERI3
 70
     0
  9
$USERI4
 70
     0
  9
$USERI5
 70
     0
  9
$USERR1
 40
16.5
  9
$USERR2
 40
0.0
  9
$USERR3
 40
0.0
  9
$USERR4
 40
0.0
  9
$USERR5
 40
0.0
  9
$WORLDVIEW
 70
     1
  9
$SHADEDGE
 70
     3
  9
$SHADEDIF
 70
    70
  9
$TILEMODE
 70
     1
  9
$MAXACTVP
 70
    64
  9
$PINSBASE
 10
0.0
 20
0.0
 30
0.0
  9
$PLIMCHECK
 70
     0
  9
$PEXTMIN
 10
1.00000000000000E+20
 20
1.00000000000000E+20
 30
1.00000000000000E+20
  9
$PEXTMAX
 10
-1.00000000000000E+20
 20
-1.00000000000000E+20
 30
-1.00000000000000E+20
  9
$PLIMMIN
 10
0.0
 20
0.0
  9
$PLIMMAX
 10
12.0
 20
9.0
  9
$UNITMODE
 70
     0
  9
$VISRETAIN
 70
     1
  9
$PLINEGEN
 70
     0
  9
$PSLTSCALE
 70
     1
  9
$TREEDEPTH
 70
  3020
  9
$CMLSTYLE
  2
Standard
  9
$CMLJUST
 70
     0
  9
$CMLSCALE
 40
1.0
  9
$PROXYGRAPHICS
 70
     1
  9
$MEASUREMENT
 70
     1
  9
$CELWEIGHT
370
    -1
  9
$ENDCAPS
280
     0
  9
$JOINSTYLE
280
     0
  9
$LWDISPLAY
290
     0
  9
$INSUNITS
 70
     1
  9
$HYPERLINKBASE
  1

  9
$STYLESHEET
  1

  9
$XEDIT
290
     1
  9
$CEPSNTYPE
380
     0
  9
$PSTYLEMODE
290
     1
  9
$FINGERPRINTGUID
  2
{45A94F32-357D-4FD9-B89A-ADD900BCABD2}
  9
$VERSIONGUID
  2
{FAEB1C32-E019-11D5-929B-00C0DF256EC4}
  9
$EXTNAMES
290
     1
  9
$PSVPSCALE
 40
0.0
  9
$OLESTARTUP
290
     0
  0
ENDSEC
  0
SECTION
  2
CLASSES
  0
CLASS
  1
ACDBDICTIONARYWDFLT
  2
AcDbDictionaryWithDefault
  3
ObjectDBX Classes
 90
        0
280
     0
281
     0
  0
CLASS
  1
VISUALSTYLE
  2
AcDbVisualStyle
  3
ObjectDBX Classes
 90
     4095
280
     0
281
     0
  0
CLASS
  1
SCALE
  2
AcDbScale
  3
ObjectDBX Classes
 90
     1153
280
     0
281
     0
  0
CLASS
  1

  2
exOdDbPolyline
  3

 90
        0
280
     0
281
     1
  0
CLASS
  1

  2
exOdDbCircle
  3

 90
        0
280
     0
281
     1
  0
CLASS
  1

  2
exOdDbSpline
  3

 90
        0
280
     0
281
     1
  0
CLASS
  1
DICTIONARYVAR
  2
AcDbDictionaryVar
  3
ObjectDBX Classes
 90
        0
280
     0
281
     0
  0
CLASS
  1
ACDBPLACEHOLDER
  2
AcDbPlaceHolder
  3
ObjectDBX Classes
 90
        0
280
     0
281
     0
  0
CLASS
  1
LAYOUT
  2
AcDbLayout
  3
ObjectDBX Classes
 90
        0
280
     0
281
     0
  0
ENDSEC
  0
SECTION
  2
TABLES
  0
TABLE
  2
VPORT
  5
8
330
0
100
AcDbSymbolTable
 70
     1
  0
VPORT
  5
29
330
8
100
AcDbSymbolTableRecord
100
AcDbViewportTableRecord
  2
*Active
 70
     0
 10
0.0
 20
0.0
 11
1.0
 21
1.0
 12
145.2482477858627
 22
317.905113070952
 13
0.0
 23
0.0
 14
0.5
 24
0.5
 15
0.5
 25
0.5
 16
0.0
 26
0.0
 36
1.0
 17
0.0
 27
0.0
 37
0.0
 40
208.9834694436886
 41
1.60267857142857
 42
50.0
 43
0.0
 44
0.0
 50
0.0
 51
0.0
 71
     0
 72
   100
 73
     1
 74
     3
 75
     0
 76
     0
 77
     0
 78
     0
281
     0
 65
     1
110
0.0
120
0.0
130
0.0
111
1.0
121
0.0
131
0.0
112
0.0
122
1.0
132
0.0
 79
     0
146
0.0
  0
ENDTAB
  0
TABLE
  2
LTYPE
  5
5
330
0
100
AcDbSymbolTable
 70
     8
  0
LTYPE
  5
14
330
5
100
AcDbSymbolTableRecord
100
AcDbLinetypeTableRecord
  2
ByBlock
 70
     0
  3

 72
    65
 73
     0
 40
0.0
  0
LTYPE
  5
15
330
5
100
AcDbSymbolTableRecord
100
AcDbLinetypeTableRecord
  2
ByLayer
 70
     0
  3

 72
    65
 73
     0
 40
0.0
  0
LTYPE
  5
16
330
5
100
AcDbSymbolTableRecord
100
AcDbLinetypeTableRecord
  2
Continuous
 70
     0
  3
Solid line
 72
    65
 73
     0
 40
0.0
  0
LTYPE
  5
3B
330
5
100
AcDbSymbolTableRecord
100
AcDbLinetypeTableRecord
  2
DASHED
 70
     0
  3
Dashed
 72
    65
 73
     2
 40
15.0
 49
7.0
 74
     0
 49
-8.0
 74
     0
  0
LTYPE
  5
3C
330
5
100
AcDbSymbolTableRecord
100
AcDbLinetypeTableRecord
  2
DOTTED
 70
     0
  3
Dotted
 72
    65
 73
     2
 40
1.0
 49
0.0
 74
     0
 49
-1.0
 74
     0
  0
LTYPE
  5
3D
330
5
100
AcDbSymbolTableRecord
100
AcDbLinetypeTableRecord
  2
DOT_CENTER
 70
     0
  3
Dot_Center
 72
    65
 73
     4
 40
14.0
 49
12.0
 74
     0
 49
-1.0
 74
     0
 49
0.0
 74
     0
 49
-1.0
 74
     0
  0
LTYPE
  5
3E
330
5
100
AcDbSymbolTableRecord
100
AcDbLinetypeTableRecord
  2
LONG_DASHED
 70
     0
  3
Long_Dashed
 72
    65
 73
     2
 40
15.0
 49
10.0
 74
     0
 49
-5.0
 74
     0
  0
LTYPE
  5
3F
330
5
100
AcDbSymbolTableRecord
100
AcDbLinetypeTableRecord
  2
DASH_CENTER
 70
     0
  3
Dash_Center
 72
    65
 73
     4
 40
14.0
 49
11.0
 74
     0
 49
-1.0
 74
     0
 49
1.0
 74
     0
 49
-1.0
 74
     0
  0
LTYPE
  5
40
330
5
100
AcDbSymbolTableRecord
100
AcDbLinetypeTableRecord
  2
PHANTOM
 70
     0
  3
Phantom
 72
    65
 73
     6
 40
13.0
 49
10.0
 74
     0
 49
-1.0
 74
     0
 49
0.0
 74
     0
 49
-1.0
 74
     0
 49
0.0
 74
     0
 49
-1.0
 74
     0
  0
LTYPE
  5
41
330
5
100
AcDbSymbolTableRecord
100
AcDbLinetypeTableRecord
  2
CENTER_DASH_DASH
 70
     0
  3
Center_Dash_Dash
 72
    65
 73
     6
 40
14.0
 49
9.0
 74
     0
 49
-1.0
 74
     0
 49
1.0
 74
     0
 49
-1.0
 74
     0
 49
1.0
 74
     0
 49
-1.0
 74
     0
  0
ENDTAB
  0
TABLE
  2
LAYER
  5
2
330
0
100
AcDbSymbolTable
 70
     6
  0
LAYER
  5
10
330
2
100
AcDbSymbolTableRecord
100
AcDbLayerTableRecord
  2
0
 70
     0
 62
     7
  6
Continuous
370
    -3
390
F
  0
LAYER
  5
42
330
2
100
AcDbSymbolTableRecord
100
AcDbLayerTableRecord
  2
1
 70
     0
 62
     7
  6
Continuous
370
    -3
390
F
  0
LAYER
  5
43
330
2
100
AcDbSymbolTableRecord
100
AcDbLayerTableRecord
  2
BEZUGSACHSEN
 70
     0
 62
     7
  6
Continuous
370
    -3
390
F
  0
LAYER
  5
44
330
2
100
AcDbSymbolTableRecord
100
AcDbLayerTableRecord
  2
DEFAULT_2
 70
     0
 62
     7
  6
Continuous
370
    -3
390
F
  0
LAYER
  5
45
330
2
100
AcDbSymbolTableRecord
100
AcDbLayerTableRecord
  2
FASEN
 70
     0
 62
     7
  6
Continuous
370
    -3
390
F
  0
LAYER
  5
46
330
2
100
AcDbSymbolTableRecord
100
AcDbLayerTableRecord
  2
RUNDUNGEN
 70
     0
 62
     7
  6
Continuous
370
    -3
390
F
  0
ENDTAB
  0
TABLE
  2
STYLE
  5
3
330
0
100
AcDbSymbolTable
 70
     2
  0
STYLE
  5
11
330
3
100
AcDbSymbolTableRecord
100
AcDbTextStyleTableRecord
  2
Standard
 70
     0
 40
0.0
 41
1.0
 50
0.0
 71
     0
 42
0.2
  3
txt
  4

  0
STYLE
  5
6D
330
3
100
AcDbSymbolTableRecord
100
AcDbTextStyleTableRecord
  2
CONVERTER_11
 70
     0
 40
0.0
 41
0.72
 50
0.0
 71
     0
 42
0.2
  3
txt.shx
  4

  0
ENDTAB
  0
TABLE
  2
VIEW
  5
6
330
0
100
AcDbSymbolTable
 70
     0
  0
ENDTAB
  0
TABLE
  2
UCS
  5
7
330
0
100
AcDbSymbolTable
 70
     0
  0
ENDTAB
  0
TABLE
  2
APPID
  5
9
330
0
100
AcDbSymbolTable
 70
     1
  0
APPID
  5
12
330
9
100
AcDbSymbolTableRecord
100
AcDbRegAppTableRecord
  2
ACAD
 70
     0
  0
ENDTAB
  0
TABLE
  2
DIMSTYLE
  5
A
330
0
100
AcDbSymbolTable
 70
     8
100
AcDbDimStyleTable
  0
DIMSTYLE
105
27
330
A
100
AcDbSymbolTableRecord
100
AcDbDimStyleTableRecord
  2
Standard
 70
     0
340
11
  0
DIMSTYLE
105
109
102
{ACAD_REACTORS
330
10A
102
}
330
A
100
AcDbSymbolTableRecord
100
AcDbDimStyleTableRecord
  2
ME10_DIM_10
 70
     0
  3
\U+2300<>
 41
3.5
 42
2.0
 44
2.0
 71
     1
 73
     0
 74
     0
 77
     1
 78
     8
140
3.5
146
0.7
147
2.0
172
     1
173
     1
176
     2
177
     2
178
     3
271
     2
272
     0
340
6D
  0
DIMSTYLE
105
114
102
{ACAD_REACTORS
330
115
102
}
330
A
100
AcDbSymbolTableRecord
100
AcDbDimStyleTableRecord
  2
ME10_DIM_11
 70
     0
  3
\U+2300<>
 41
3.5
 42
2.0
 44
2.0
 71
     1
 73
     0
 74
     0
 77
     1
 78
     8
140
3.5
146
0.7
147
2.0
172
     1
173
     1
176
     2
177
     2
178
     3
271
     2
272
     0
340
6D
  0
DIMSTYLE
105
11F
102
{ACAD_REACTORS
330
120
102
}
330
A
100
AcDbSymbolTableRecord
100
AcDbDimStyleTableRecord
  2
ME10_DIM_12
 70
     0
  3
\U+2300<>
 41
3.5
 42
2.0
 44
2.0
 71
     1
 73
     0
 74
     0
 77
     1
 78
     8
140
3.5
146
0.7
147
2.0
172
     1
173
     1
176
     2
177
     2
178
     3
271
     2
272
     0
340
6D
  0
DIMSTYLE
105
12A
102
{ACAD_REACTORS
330
12B
102
}
330
A
100
AcDbSymbolTableRecord
100
AcDbDimStyleTableRecord
  2
ME10_DIM_13
 70
     0
  3
<>
 41
3.5
 42
2.0
 44
2.0
 71
     1
 73
     0
 74
     0
 77
     1
 78
     8
140
3.5
146
0.7
147
2.0
172
     1
173
     1
176
     2
177
     2
178
     3
271
     2
272
     0
340
6D
  0
DIMSTYLE
105
135
102
{ACAD_REACTORS
330
136
102
}
330
A
100
AcDbSymbolTableRecord
100
AcDbDimStyleTableRecord
  2
ME10_DIM_14
 70
     0
  3
<>
 41
3.5
 42
2.0
 44
2.0
 71
     1
 73
     0
 74
     0
 77
     1
 78
     8
140
3.5
146
0.7
147
2.0
172
     1
173
     1
176
     2
177
     2
178
     3
271
     2
272
     0
340
6D
  0
DIMSTYLE
105
140
102
{ACAD_REACTORS
330
141
102
}
330
A
100
AcDbSymbolTableRecord
100
AcDbDimStyleTableRecord
  2
ME10_DIM_15
 70
     0
  3
<>
 41
3.5
 42
2.0
 44
2.0
 71
     1
 73
     0
 74
     0
 77
     1
 78
     8
140
3.5
146
0.7
147
2.0
172
     1
173
     1
176
     2
177
     2
178
     3
271
     2
272
     0
340
6D
  0
DIMSTYLE
105
152
102
{ACAD_REACTORS
330
153
102
}
330
A
100
AcDbSymbolTableRecord
100
AcDbDimStyleTableRecord
  2
ME10_DIM_16
 70
     0
  3
<>
 41
3.5
 42
2.0
 44
2.0
 71
     1
 73
     0
 74
     0
 77
     1
 78
     8
140
3.5
146
0.7
147
2.0
172
     1
173
     1
176
     2
177
     2
178
     3
271
     2
272
     0
340
6D
  0
ENDTAB
  0
TABLE
  2
BLOCK_RECORD
  5
1
330
0
100
AcDbSymbolTable
 70
    10
  0
BLOCK_RECORD
  5
1F
330
1
100
AcDbSymbolTableRecord
100
AcDbBlockTableRecord
  2
*Model_Space
340
22
  0
BLOCK_RECORD
  5
1B
330
1
100
AcDbSymbolTableRecord
100
AcDbBlockTableRecord
  2
*Paper_Space
340
1E
  0
BLOCK_RECORD
  5
23
330
1
100
AcDbSymbolTableRecord
100
AcDbBlockTableRecord
  2
*Paper_Space0
340
26
  0
BLOCK_RECORD
  5
47
330
1
100
AcDbSymbolTableRecord
100
AcDbBlockTableRecord
  2
Urheberrecht_DE-EN
340
0
102
{BLKREFS
331
6C
102
}
  0
BLOCK_RECORD
  5
100
330
1
100
AcDbSymbolTableRecord
100
AcDbBlockTableRecord
  2
*D2
340
0
  0
BLOCK_RECORD
  5
10B
330
1
100
AcDbSymbolTableRecord
100
AcDbBlockTableRecord
  2
*D3
340
0
  0
BLOCK_RECORD
  5
116
330
1
100
AcDbSymbolTableRecord
100
AcDbBlockTableRecord
  2
*D4
340
0
  0
BLOCK_RECORD
  5
121
330
1
100
AcDbSymbolTableRecord
100
AcDbBlockTableRecord
  2
*D5
340
0
  0
BLOCK_RECORD
  5
12C
330
1
100
AcDbSymbolTableRecord
100
AcDbBlockTableRecord
  2
*D6
340
0
  0
BLOCK_RECORD
  5
137
330
1
100
AcDbSymbolTableRecord
100
AcDbBlockTableRecord
  2
*D7
340
0
  0
BLOCK_RECORD
  5
142
330
1
100
AcDbSymbolTableRecord
100
AcDbBlockTableRecord
  2
*D8
340
0
102
{BLKREFS
331
148
102
}
  0
BLOCK_RECORD
  5
149
330
1
100
AcDbSymbolTableRecord
100
AcDbBlockTableRecord
  2
*D9
340
0
  0
ENDTAB
  0
ENDSEC
  0
SECTION
  2
BLOCKS
  0
BLOCK
  5
20
330
1F
100
AcDbEntity
  8
0
100
AcDbBlockBegin
  2
*Model_Space
 70
     0
 10
0.0
 20
0.0
 30
0.0
  3
*Model_Space
  1

  0
ENDBLK
  5
21
330
1F
100
AcDbEntity
  8
0
100
AcDbBlockEnd
  0
BLOCK
  5
1C
330
1B
100
AcDbEntity
 67
     1
  8
0
100
AcDbBlockBegin
  2
*Paper_Space
 70
     0
 10
0.0
 20
0.0
 30
0.0
  3
*Paper_Space
  1

  0
ENDBLK
  5
1D
330
1B
100
AcDbEntity
 67
     1
  8
0
100
AcDbBlockEnd
  0
BLOCK
  5
24
330
23
100
AcDbEntity
  8
0
100
AcDbBlockBegin
  2
*Paper_Space0
 70
     0
 10
0.0
 20
0.0
 30
0.0
  3
*Paper_Space0
  1

  0
ENDBLK
  5
25
330
23
100
AcDbEntity
  8
0
100
AcDbBlockEnd
  0
BLOCK
  5
48
330
47
100
AcDbEntity
  8
0
100
AcDbBlockBegin
  2
Urheberrecht_DE-EN
 70
     0
 10
7.00582584940946
 20
314.86259943517
 30
0.0
  3
Urheberrecht_DE-EN
  1

  0
MTEXT
  5
6E
330
47
100
AcDbEntity
  8
1
 62
     1
100
AcDbMText
 10
7.00582584940946
 20
314.86259943517
 30
0.0
 40
2.0
 41
0.0
 71
     7
 72
     1
  1
We own the copyright of this document. It \Pdetermined and may neither be copied or \Pmade accessible to outsiders without our\Ppermission.
  7
CONVERTER_11
 11
0.0
 21
1.0
 31
0.0
 73
     1
 44
0.90036014405762
  0
MTEXT
  5
6F
330
47
100
AcDbEntity
  8
1
 62
     1
100
AcDbMText
 10
7.00582584940946
 20
258.5732125178638
 30
0.0
 40
2.0
 41
0.0
 71
     7
 72
     1
  1
F\U+00fcr diese Unterlage behalten wir das Ur-\Pheberrecht. Sie darf nur f\U+00fcr den von uns \Pbestimmten Zweck benutzt und ohne unsere \PZustimmung weder vervielf\U+00e4ltigt noch\PDritten zug\U+00e4nglich gemacht werden.
  7
CONVERTER_11
 11
0.0
 21
1.0
 31
0.0
 73
     1
 44
0.90036014405762
  0
ENDBLK
  5
49
330
47
100
AcDbEntity
  8
0
100
AcDbBlockEnd
  0
BLOCK
  5
107
330
100
100
AcDbEntity
  8
0
100
AcDbBlockBegin
  2
*D2
 70
     1
 10
0.0
 20
0.0
 30
0.0
  3
*D2
  1

  0
LINE
  5
101
330
100
100
AcDbEntity
  8
1
  6
Continuous
 62
     2
100
AcDbLine
 10
277.902233335564
 20
312.5432280514
 30
0.0
 11
277.902233335564
 21
294.5432280514
 31
0.0
  0
LINE
  5
102
330
100
100
AcDbEntity
  8
1
  6
Continuous
 62
     2
100
AcDbLine
 10
267.7192518737
 20
312.5432280514
 30
0.0
 11
279.902233335564
 21
312.5432280514
 31
0.0
  0
LINE
  5
103
330
100
100
AcDbEntity
  8
1
  6
Continuous
 62
     2
100
AcDbLine
 10
267.7192518737
 20
294.5432280514
 30
0.0
 11
279.902233335564
 21
294.5432280514
 31
0.0
  0
SOLID
  5
104
330
100
100
AcDbEntity
  8
1
 62
     2
100
AcDbTrace
 10
278.3630170771199
 20
309.0432280514
 30
0.0
 11
277.4414495940081
 21
309.0432280514
 31
0.0
 12
277.902233335564
 22
312.5432280514
 32
0.0
 13
277.902233335564
 23
312.5432280514
 33
0.0
  0
SOLID
  5
105
330
100
100
AcDbEntity
  8
1
 62
     2
100
AcDbTrace
 10
277.4414495940081
 20
298.0432280514
 30
0.0
 11
278.3630170771199
 21
298.0432280514
 31
0.0
 12
277.902233335564
 22
294.5432280514
 32
0.0
 13
277.902233335564
 23
294.5432280514
 33
0.0
  0
MTEXT
  5
106
330
100
100
AcDbEntity
  8
1
 62
     3
100
AcDbMText
 10
275.902233335564
 20
295.391717780737
 30
0.0
 40
3.5
 41
0.0
 71
     7
 72
     1
  1
\C3;%%c\C3;\C3;18\C2;\H2.45;\S^ ;\C3;
  7
CONVERTER_11
 11
0.0
 21
1.0
 31
0.0
 73
     1
 44
0.60024009603842
  0
ENDBLK
  5
108
330
100
100
AcDbEntity
  8
0
100
AcDbBlockEnd
  0
BLOCK
  5
112
330
10B
100
AcDbEntity
  8
0
100
AcDbBlockBegin
  2
*D3
 70
     1
 10
0.0
 20
0.0
 30
0.0
  3
*D3
  1

  0
LINE
  5
10C
330
10B
100
AcDbEntity
  8
1
  6
Continuous
 62
     2
100
AcDbLine
 10
286.524015878089
 20
320.0432280514528
 30
0.0
 11
286.524015878089
 21
287.0432280513559
 31
0.0
  0
LINE
  5
10D
330
10B
100
AcDbEntity
  8
1
  6
Continuous
 62
     2
100
AcDbLine
 10
267.7192518737094
 20
320.0432280514528
 30
0.0
 11
288.524015878089
 21
320.0432280514528
 31
0.0
  0
LINE
  5
10E
330
10B
100
AcDbEntity
  8
1
  6
Continuous
 62
     2
100
AcDbLine
 10
267.7192518737
 20
287.0432280513559
 30
0.0
 11
288.524015878089
 21
287.0432280513559
 31
0.0
  0
SOLID
  5
10F
330
10B
100
AcDbEntity
  8
1
 62
     2
100
AcDbTrace
 10
286.9847996196449
 20
316.5432280514528
 30
0.0
 11
286.0632321365331
 21
316.5432280514528
 31
0.0
 12
286.524015878089
 22
320.0432280514528
 32
0.0
 13
286.524015878089
 23
320.0432280514528
 33
0.0
  0
SOLID
  5
110
330
10B
100
AcDbEntity
  8
1
 62
     2
100
AcDbTrace
 10
286.0632321365331
 20
290.5432280513559
 30
0.0
 11
286.9847996196449
 21
290.5432280513559
 31
0.0
 12
286.524015878089
 22
287.0432280513559
 32
0.0
 13
286.524015878089
 23
287.0432280513559
 33
0.0
  0
MTEXT
  5
111
330
10B
100
AcDbEntity
  8
1
 62
     3
100
AcDbMText
 10
284.524015878089
 20
295.144153431588
 30
0.0
 40
3.5
 41
0.0
 71
     7
 72
     1
  1
\C3;%%c\C3;\C3;33\C2;\H2.45;\S^ ;\C3;
  7
CONVERTER_11
 11
0.0
 21
1.0
 31
0.0
 73
     1
 44
0.60024009603842
  0
ENDBLK
  5
113
330
10B
100
AcDbEntity
  8
0
100
AcDbBlockEnd
  0
BLOCK
  5
11D
330
116
100
AcDbEntity
  8
0
100
AcDbBlockBegin
  2
*D4
 70
     1
 10
0.0
 20
0.0
 30
0.0
  3
*D4
  1

  0
LINE
  5
117
330
116
100
AcDbEntity
  8
1
  6
Continuous
 62
     2
100
AcDbLine
 10
295.490669722316
 20
324.5432280514
 30
0.0
 11
295.490669722316
 21
282.5432280514
 31
0.0
  0
LINE
  5
118
330
116
100
AcDbEntity
  8
1
  6
Continuous
 62
     2
100
AcDbLine
 10
210.5413305609
 20
324.5432280514
 30
0.0
 11
297.490669722316
 21
324.5432280514
 31
0.0
  0
LINE
  5
119
330
116
100
AcDbEntity
  8
1
  6
Continuous
 62
     2
100
AcDbLine
 10
210.5413305609
 20
282.5432280514
 30
0.0
 11
297.490669722316
 21
282.5432280514
 31
0.0
  0
SOLID
  5
11A
330
116
100
AcDbEntity
  8
1
 62
     2
100
AcDbTrace
 10
295.9514534638719
 20
321.0432280514
 30
0.0
 11
295.0298859807601
 21
321.0432280514
 31
0.0
 12
295.490669722316
 22
324.5432280514
 32
0.0
 13
295.490669722316
 23
324.5432280514
 33
0.0
  0
SOLID
  5
11B
330
116
100
AcDbEntity
  8
1
 62
     2
100
AcDbTrace
 10
295.0298859807601
 20
286.0432280514
 30
0.0
 11
295.9514534638719
 21
286.0432280514
 31
0.0
 12
295.490669722316
 22
282.5432280514
 32
0.0
 13
295.490669722316
 23
282.5432280514
 33
0.0
  0
MTEXT
  5
11C
330
116
100
AcDbEntity
  8
1
 62
     3
100
AcDbMText
 10
293.490669722316
 20
295.489024733289
 30
0.0
 40
3.5
 41
0.0
 71
     7
 72
     1
  1
\C3;%%c\C3;\C3;42\C2;\H2.45;\S^ ;\C3;
  7
CONVERTER_11
 11
0.0
 21
1.0
 31
0.0
 73
     1
 44
0.60024009603842
  0
ENDBLK
  5
11E
330
116
100
AcDbEntity
  8
0
100
AcDbBlockEnd
  0
BLOCK
  5
128
330
121
100
AcDbEntity
  8
0
100
AcDbBlockBegin
  2
*D5
 70
     1
 10
0.0
 20
0.0
 30
0.0
  3
*D5
  1

  0
LINE
  5
122
330
121
100
AcDbEntity
  8
1
  6
Continuous
 62
     2
100
AcDbLine
 10
265.7192518737
 20
362.282403419061
 30
0.0
 11
94.7192518737
 21
362.282403419061
 31
0.0
  0
LINE
  5
123
330
121
100
AcDbEntity
  8
1
  6
Continuous
 62
     2
100
AcDbLine
 10
265.7192518737
 20
321.1188375597
 30
0.0
 11
265.7192518737
 21
364.282403419061
 31
0.0
  0
LINE
  5
124
330
121
100
AcDbEntity
  8
1
  6
Continuous
 62
     2
100
AcDbLine
 10
94.7192518737
 20
355.5431911303
 30
0.0
 11
94.7192518737
 21
364.282403419061
 31
0.0
  0
SOLID
  5
125
330
121
100
AcDbEntity
  8
1
 62
     2
100
AcDbTrace
 10
262.2192518737
 20
361.8216196775051
 30
0.0
 11
262.2192518737
 21
362.7431871606169
 31
0.0
 12
265.7192518737
 22
362.282403419061
 32
0.0
 13
265.7192518737
 23
362.282403419061
 33
0.0
  0
SOLID
  5
126
330
121
100
AcDbEntity
  8
1
 62
     2
100
AcDbTrace
 10
98.2192518737
 20
362.7431871606169
 30
0.0
 11
98.2192518737
 21
361.8216196775051
 31
0.0
 12
94.7192518737
 22
362.282403419061
 32
0.0
 13
94.7192518737
 23
362.282403419061
 33
0.0
  0
MTEXT
  5
127
330
121
100
AcDbEntity
  8
1
 62
     3
100
AcDbMText
 10
180.715061018633
 20
364.282403419061
 30
0.0
 40
3.5
 41
0.0
 71
     7
 72
     1
  1
\C3;\C3;\C3;171\C2;\H2.45;\S^ ;\C3;
  7
CONVERTER_11
 11
0.9999999999970619
 21
2.424068405545306E-6
 31
0.0
 73
     1
 44
0.60024009603842
  0
ENDBLK
  5
129
330
121
100
AcDbEntity
  8
0
100
AcDbBlockEnd
  0
BLOCK
  5
133
330
12C
100
AcDbEntity
  8
0
100
AcDbBlockBegin
  2
*D6
 70
     1
 10
0.0
 20
0.0
 30
0.0
  3
*D6
  1

  0
LINE
  5
12D
330
12C
100
AcDbEntity
  8
1
  6
Continuous
 62
     2
100
AcDbLine
 10
265.7192518737
 20
369.179829453081
 30
0.0
 11
65.7192518737
 21
369.179829453081
 31
0.0
  0
LINE
  5
12E
330
12C
100
AcDbEntity
  8
1
  6
Continuous
 62
     2
100
AcDbLine
 10
265.7192518737
 20
321.1188375597
 30
0.0
 11
265.7192518737
 21
371.179829453081
 31
0.0
  0
LINE
  5
12F
330
12C
100
AcDbEntity
  8
1
  6
Continuous
 62
     2
100
AcDbLine
 10
65.7192518737
 20
355.5432280514
 30
0.0
 11
65.7192518737
 21
371.179829453081
 31
0.0
  0
SOLID
  5
130
330
12C
100
AcDbEntity
  8
1
 62
     2
100
AcDbTrace
 10
262.2192518737
 20
368.7190457115252
 30
0.0
 11
262.2192518737
 21
369.6406131946369
 31
0.0
 12
265.7192518737
 22
369.179829453081
 32
0.0
 13
265.7192518737
 23
369.179829453081
 33
0.0
  0
SOLID
  5
131
330
12C
100
AcDbEntity
  8
1
 62
     2
100
AcDbTrace
 10
69.2192518737
 20
369.6406131946369
 30
0.0
 11
69.2192518737
 21
368.7190457115252
 31
0.0
 12
65.7192518737
 22
369.179829453081
 32
0.0
 13
65.7192518737
 23
369.179829453081
 33
0.0
  0
MTEXT
  5
132
330
12C
100
AcDbEntity
  8
1
 62
     3
100
AcDbMText
 10
157.630862058917
 20
371.179829453081
 30
0.0
 40
3.5
 41
0.0
 71
     7
 72
     1
  1
\C3;\C3;\C3;200\C2;\H2.45;\S^ ;\C3;
  7
CONVERTER_11
 11
0.9999999999970619
 21
2.424068405545306E-6
 31
0.0
 73
     1
 44
0.60024009603842
  0
ENDBLK
  5
134
330
12C
100
AcDbEntity
  8
0
100
AcDbBlockEnd
  0
BLOCK
  5
13E
330
137
100
AcDbEntity
  8
0
100
AcDbBlockBegin
  2
*D7
 70
     1
 10
0.0
 20
0.0
 30
0.0
  3
*D7
  1

  0
LINE
  5
138
330
137
100
AcDbEntity
  8
1
  6
Continuous
 62
     2
100
AcDbLine
 10
265.7192518737
 20
376.766998090504
 30
0.0
 11
15.71925187369999
 21
376.766998090504
 31
0.0
  0
LINE
  5
139
330
137
100
AcDbEntity
  8
1
  6
Continuous
 62
     2
100
AcDbLine
 10
265.7192518737
 20
321.1188375597
 30
0.0
 11
265.7192518737
 21
378.766998090504
 31
0.0
  0
LINE
  5
13A
330
137
100
AcDbEntity
  8
1
  6
Continuous
 62
     2
100
AcDbLine
 10
15.71925187369999
 20
339.143419614
 30
0.0
 11
15.71925187369999
 21
378.766998090504
 31
0.0
  0
SOLID
  5
13B
330
137
100
AcDbEntity
  8
1
 62
     2
100
AcDbTrace
 10
262.2192518737
 20
376.3062143489481
 30
0.0
 11
262.2192518737
 21
377.2277818320599
 31
0.0
 12
265.7192518737
 22
376.766998090504
 32
0.0
 13
265.7192518737
 23
376.766998090504
 33
0.0
  0
SOLID
  5
13C
330
137
100
AcDbEntity
  8
1
 62
     2
100
AcDbTrace
 10
19.21925187369999
 20
377.2277818320599
 30
0.0
 11
19.21925187369999
 21
376.3062143489481
 31
0.0
 12
15.71925187369999
 22
376.766998090504
 32
0.0
 13
15.71925187369999
 23
376.766998090504
 33
0.0
  0
MTEXT
  5
13D
330
137
100
AcDbEntity
  8
1
 62
     3
100
AcDbMText
 10
145.38793084853
 20
378.766998090504
 30
0.0
 40
3.5
 41
0.0
 71
     7
 72
     1
  1
\C3;\C3;\C3;250\C2;\H2.45;\S^ ;\C3;
  7
CONVERTER_11
 11
0.9999999999970619
 21
2.424068405545306E-6
 31
0.0
 73
     1
 44
0.60024009603842
  0
ENDBLK
  5
13F
330
137
100
AcDbEntity
  8
0
100
AcDbBlockEnd
  0
BLOCK
  5
146
330
142
100
AcDbEntity
  8
0
100
AcDbBlockBegin
  2
*D8
 70
     1
 10
0.0
 20
0.0
 30
0.0
  3
*D8
  1

  0
LINE
  5
143
330
142
100
AcDbEntity
  8
1
  6
Continuous
 62
     2
100
AcDbLine
 10
111.2995499629723
 20
342.4712052277563
 30
0.0
 11
101.876144063602
 21
330.6494076461184
 31
0.0
  0
SOLID
  5
144
330
142
100
AcDbEntity
  8
1
 62
     2
100
AcDbTrace
 10
103.6974521063949
 20
333.67350398548
 30
0.0
 11
104.4180862666153
 21
333.0990711930208
 31
0.0
 12
101.876144063602
 22
330.6494076461184
 32
0.0
 13
101.876144063602
 23
330.6494076461184
 33
0.0
  0
MTEXT
  5
145
330
142
100
AcDbEntity
  8
1
 62
     3
100
AcDbMText
 10
104.0633932473486
 20
336.6019603029867
 30
0.0
 40
3.5
 41
0.0
 71
     7
 72
     1
  1
\C3; R\C3;\C3;19\C2;\H2.45;\S^ ;\C3;
  7
CONVERTER_11
 11
0.6233214636866249
 21
0.7819656980376848
 31
0.0
 73
     1
 44
0.60024009603842
  0
ENDBLK
  5
147
330
142
100
AcDbEntity
  8
0
100
AcDbBlockEnd
  0
BLOCK
  5
150
330
149
100
AcDbEntity
  8
0
100
AcDbBlockBegin
  2
*D9
 70
     1
 10
0.0
 20
0.0
 30
0.0
  3
*D9
  1

  0
LINE
  5
14A
330
149
100
AcDbEntity
  8
1
  6
Continuous
 62
     2
100
AcDbLine
 10
243.3759120535811
 20
324.5432280514
 30
0.0
 11
245.3759120535811
 21
324.5432280514
 31
0.0
  0
LINE
  5
14B
330
149
100
AcDbEntity
  8
1
  6
Continuous
 62
     2
100
AcDbLine
 10
210.5413305609001
 20
324.5432280514
 30
0.0
 11
243.3759120535811
 21
324.5432280514
 31
0.0
  0
ARC
  5
14C
330
149
100
AcDbEntity
  8
1
  6
Continuous
 62
     2
100
AcDbCircle
 10
208.5413305609001
 20
324.5432280514
 30
0.0
 40
34.83458149268106
100
AcDbArc
 50
346.8648211187484
 51
16.57237103913741
  0
SOLID
  5
14D
330
149
100
AcDbEntity
  8
1
 62
     2
100
AcDbTrace
 10
243.2760213106664
 20
318.2799448767718
 30
0.0
 11
242.3620847173557
 21
318.3982940607008
 31
0.0
 12
243.2685286642942
 22
321.8101382874411
 32
0.0
 13
243.2685286642942
 23
321.8101382874411
 33
0.0
  0
SOLID
  5
14E
330
149
100
AcDbEntity
  8
1
 62
     2
100
AcDbTrace
 10
242.7399525836136
 20
328.0156734734392
 30
0.0
 11
243.6603573853691
 21
328.0619511876678
 31
0.0
 12
243.3759120535811
 22
324.5432280514
 32
0.0
 13
243.3759120535811
 23
324.5432280514
 33
0.0
  0
MTEXT
  5
14F
330
149
100
AcDbEntity
  8
1
 62
     3
100
AcDbMText
 10
244.0080192821935
 20
335.0976872932486
 30
0.0
 40
3.5
 41
0.0
 71
     7
 72
     1
  1
\C3;\C3;\C3;4.5%%d\C2;\H2.45;\S^ ;\C3;
  7
CONVERTER_11
 11
0.1923593718493757
 21
-0.9813245498109754
 31
0.0
 73
     1
 44
0.60024009603842
  0
ENDBLK
  5
151
330
149
100
AcDbEntity
  8
0
100
AcDbBlockEnd
  0
ENDSEC
  0
SECTION
  2
ENTITIES
  0
INSERT
  5
6C
330
1F
100
AcDbEntity
  8
0
100
AcDbBlockReference
  2
Urheberrecht_DE-EN
 10
7.00582584940946
 20
314.86259943517
 30
0.0
  0
LINE
  5
70
330
1F
100
AcDbEntity
  8
BEZUGSACHSEN
  6
Continuous
 62
     7
100
AcDbLine
 10
15.7192518737
 20
269.9430364884
 30
0.0
 11
15.7192518737
 21
291.5332280514
 31
0.0
  0
LINE
  5
71
330
1F
100
AcDbEntity
  8
BEZUGSACHSEN
  6
Continuous
 62
     7
100
AcDbLine
 10
15.7192518737
 20
315.5532280514
 30
0.0
 11
15.7192518737
 21
337.143419614
 31
0.0
  0
LINE
  5
72
330
1F
100
AcDbEntity
  8
BEZUGSACHSEN
  6
Continuous
 62
     9
100
AcDbLine
 10
17.6191773889
 20
339.1409143197
 30
0.0
 11
17.6191773889
 21
319.2197604376
 31
0.0
  0
LINE
  5
73
330
1F
100
AcDbEntity
  8
BEZUGSACHSEN
  6
Continuous
 62
     9
100
AcDbLine
 10
17.6191773889
 20
287.8666956651
 30
0.0
 11
17.6191773889
 21
267.9455417831
 31
0.0
  0
LINE
  5
74
330
1F
100
AcDbEntity
  8
BEZUGSACHSEN
  6
Continuous
 62
     7
100
AcDbLine
 10
17.7192518737
 20
291.139588103
 30
0.0
 11
17.7192518737
 21
293.5332280514
 31
0.0
  0
LINE
  5
75
330
1F
100
AcDbEntity
  8
BEZUGSACHSEN
  6
Continuous
 62
     7
100
AcDbLine
 10
17.7192518737
 20
313.5532280514
 30
0.0
 11
17.7192518737
 21
315.9468679998
 31
0.0
  0
LINE
  5
76
330
1F
100
AcDbEntity
  8
BEZUGSACHSEN
  6
Continuous
 62
     9
100
AcDbLine
 10
23.7192518737
 20
287.184580464
 30
0.0
 11
23.7192518737
 21
293.5332280514
 31
0.0
  0
LINE
  5
77
330
1F
100
AcDbEntity
  8
BEZUGSACHSEN
  6
Continuous
 62
     9
100
AcDbLine
 10
23.7192518737
 20
313.5532280514
 30
0.0
 11
23.7192518737
 21
319.9018756388
 31
0.0
  0
LINE
  5
78
330
1F
100
AcDbEntity
  8
BEZUGSACHSEN
  6
Continuous
 62
     7
100
AcDbLine
 10
25.7192518737
 20
316.4128835772
 30
0.0
 11
25.7192518737
 21
290.6735725256
 31
0.0
  0
LINE
  5
79
330
1F
100
AcDbEntity
  8
BEZUGSACHSEN
  6
Continuous
 62
     7
100
AcDbLine
 10
16.9862048007
 20
288.5332280514
 30
0.0
 11
16.8650945493
 21
288.3008920559
 31
0.0
  0
LINE
  5
7A
330
1F
100
AcDbEntity
  8
BEZUGSACHSEN
  6
Continuous
 62
     7
100
AcDbLine
 10
16.8650945493
 20
318.7855640468
 30
0.0
 11
16.9862048007
 21
318.5532280514
 31
0.0
  0
LWPOLYLINE
  5
7B
330
1F
100
AcDbEntity
  8
BEZUGSACHSEN
  6
DOT_CENTER
 62
     7
100
AcDbPolyline
 90
        2
 70
     0
 43
0.25
 10
50.7192518737
 20
303.5432280514
 10
50.7192518737
 20
294.5432280514
  0
LWPOLYLINE
  5
7C
330
1F
100
AcDbEntity
  8
BEZUGSACHSEN
  6
DOT_CENTER
 62
     7
100
AcDbPolyline
 90
        2
 70
     0
 43
0.25
 10
50.7192518737
 20
303.5432280514
 10
50.7192518737
 20
312.5432280514
  0
LINE
  5
7D
330
1F
100
AcDbEntity
  8
BEZUGSACHSEN
  6
Continuous
 62
     7
100
AcDbLine
 10
15.7192518737
 20
291.5332280514
 30
0.0
 11
17.7192518737
 21
293.5332280514
 31
0.0
  0
LINE
  5
7E
330
1F
100
AcDbEntity
  8
BEZUGSACHSEN
  6
Continuous
 62
     7
100
AcDbLine
 10
17.7192518737
 20
313.5532280514
 30
0.0
 11
15.7192518737
 21
315.5532280514
 31
0.0
  0
LINE
  5
7F
330
1F
100
AcDbEntity
  8
BEZUGSACHSEN
  6
Continuous
 62
     7
100
AcDbLine
 10
63.2192518737
 20
341.4254780514
 30
0.0
 11
63.2192518737
 21
265.6609780514
 31
0.0
  0
LINE
  5
80
330
1F
100
AcDbEntity
  8
BEZUGSACHSEN
  6
Continuous
 62
     9
100
AcDbLine
 10
63.8384954877
 20
265.8269038777
 30
0.0
 11
63.8384954877
 21
341.2595522251
 31
0.0
  0
LINE
  5
81
330
1F
100
AcDbEntity
  8
BEZUGSACHSEN
  6
Continuous
 62
     9
100
AcDbLine
 10
64.0973145328
 20
265.8609780514
 30
0.0
 11
64.0973145328
 21
341.2254780514
 31
0.0
  0
LINE
  5
82
330
1F
100
AcDbEntity
  8
BEZUGSACHSEN
  6
Continuous
 62
     9
100
AcDbLine
 10
65.018680585
 20
265.8609780514
 30
0.0
 11
65.018680585
 21
341.2254780514
 31
0.0
  0
LINE
  5
83
330
1F
100
AcDbEntity
  8
BEZUGSACHSEN
  6
Continuous
 62
     7
100
AcDbLine
 10
65.7192518737
 20
353.5432280514
 30
0.0
 11
65.7192518737
 21
253.5432280514
 31
0.0
  0
LWPOLYLINE
  5
84
330
1F
100
AcDbEntity
  8
BEZUGSACHSEN
  6
DOT_CENTER
 62
     7
100
AcDbPolyline
 90
        2
 70
     0
 43
0.25
 10
72.7192518737
 20
345.6925999067
 10
72.7192518737
 20
356.5432280514
  0
LINE
  5
85
330
1F
100
AcDbEntity
  8
FASEN
  6
Continuous
 62
     9
100
AcDbLine
 10
78.6911257955
 20
271.6432280514
 30
0.0
 11
78.6911257955
 21
272.0432280514
 31
0.0
  0
LINE
  5
86
330
1F
100
AcDbEntity
  8
BEZUGSACHSEN
  6
Continuous
 62
     7
100
AcDbLine
 10
87.5942518737
 20
351.1658233156
 30
0.0
 11
88.9668471379
 21
353.5432280514
 31
0.0
  0
LINE
  5
87
330
1F
100
AcDbEntity
  8
BEZUGSACHSEN
  6
Continuous
 62
     7
100
AcDbLine
 10
87.5942518737
 20
255.9206327872
 30
0.0
 11
88.9668471379
 21
253.5432280514
 31
0.0
  0
LINE
  5
88
330
1F
100
AcDbEntity
  8
FASEN
  6
Continuous
 62
     9
100
AcDbLine
 10
80.7192518737
 20
293.9432280514
 30
0.0
 11
80.7192518737
 21
293.5432280514
 31
0.0
  0
LINE
  5
89
330
1F
100
AcDbEntity
  8
FASEN
  6
Continuous
 62
     9
100
AcDbLine
 10
80.7192518737
 20
313.1432280514
 30
0.0
 11
80.7192518737
 21
313.5432280514
 31
0.0
  0
LINE
  5
8A
330
1F
100
AcDbEntity
  8
0
  6
Continuous
 62
     7
100
AcDbLine
 10
82.4716566095
 20
353.5432280514
 30
0.0
 11
82.4716566095
 21
313.5432280514
 31
0.0
  0
LINE
  5
8B
330
1F
100
AcDbEntity
  8
0
  6
Continuous
 62
     7
100
AcDbLine
 10
82.4716566095
 20
293.5432280514
 30
0.0
 11
82.4716566095
 21
272.0432280514
 31
0.0
  0
LINE
  5
8C
330
1F
100
AcDbEntity
  8
0
  6
Continuous
 62
     7
100
AcDbLine
 10
82.4716566095
 20
264.7134714207
 30
0.0
 11
82.4716566095
 21
253.5432280514
 31
0.0
  0
LINE
  5
8D
330
1F
100
AcDbEntity
  8
0
  6
Continuous
 62
     7
100
AcDbLine
 10
83.8442518737
 20
351.1657898891
 30
0.0
 11
83.8442518737
 21
313.5432280514
 31
0.0
  0
LINE
  5
8E
330
1F
100
AcDbEntity
  8
0
  6
Continuous
 62
     7
100
AcDbLine
 10
83.8442518737
 20
293.5432280514
 30
0.0
 11
83.8442518737
 21
272.0432280514
 31
0.0
  0
LINE
  5
8F
330
1F
100
AcDbEntity
  8
0
  6
Continuous
 62
     7
100
AcDbLine
 10
83.8442518737
 20
255.9206703212
 30
0.0
 11
83.8442518737
 21
268.6612842982
 31
0.0
  0
LINE
  5
90
330
1F
100
AcDbEntity
  8
0
  6
Continuous
 62
     9
100
AcDbLine
 10
84.8442518737
 20
257.5432280514
 30
0.0
 11
84.8442518737
 21
270.0208474677
 31
0.0
  0
LINE
  5
91
330
1F
100
AcDbEntity
  8
0
  6
Continuous
 62
     9
100
AcDbLine
 10
84.8442518737
 20
272.0432280514
 30
0.0
 11
84.8442518737
 21
293.5432280514
 31
0.0
  0
LINE
  5
92
330
1F
100
AcDbEntity
  8
0
  6
Continuous
 62
     9
100
AcDbLine
 10
84.8442518737
 20
313.5432280514
 30
0.0
 11
84.8442518737
 21
349.5432280514
 31
0.0
  0
LINE
  5
93
330
1F
100
AcDbEntity
  8
0
  6
Continuous
 62
     9
100
AcDbLine
 10
86.5942518737
 20
257.5432280514
 30
0.0
 11
86.5942518737
 21
270.0208474677
 31
0.0
  0
LINE
  5
94
330
1F
100
AcDbEntity
  8
0
  6
Continuous
 62
     9
100
AcDbLine
 10
86.5942518737
 20
272.0432280514
 30
0.0
 11
86.5942518737
 21
293.5432280514
 31
0.0
  0
LINE
  5
95
330
1F
100
AcDbEntity
  8
0
  6
Continuous
 62
     9
100
AcDbLine
 10
86.5942518737
 20
313.5432280514
 30
0.0
 11
86.5942518737
 21
349.5432280514
 31
0.0
  0
LINE
  5
96
330
1F
100
AcDbEntity
  8
0
  6
Continuous
 62
     7
100
AcDbLine
 10
87.5942518737
 20
255.9206703212
 30
0.0
 11
87.5942518737
 21
268.6612842982
 31
0.0
  0
LINE
  5
97
330
1F
100
AcDbEntity
  8
0
  6
Continuous
 62
     7
100
AcDbLine
 10
87.5942518737
 20
272.0432280514
 30
0.0
 11
87.5942518737
 21
293.5432280514
 31
0.0
  0
LINE
  5
98
330
1F
100
AcDbEntity
  8
0
  6
Continuous
 62
     7
100
AcDbLine
 10
87.5942518737
 20
313.5432280514
 30
0.0
 11
87.5942518737
 21
351.1657898891
 31
0.0
  0
LINE
  5
99
330
1F
100
AcDbEntity
  8
0
  6
Continuous
 62
     7
100
AcDbLine
 10
88.9668471379
 20
353.5432280514
 30
0.0
 11
88.9668471379
 21
313.5432280514
 31
0.0
  0
LINE
  5
9A
330
1F
100
AcDbEntity
  8
0
  6
Continuous
 62
     7
100
AcDbLine
 10
88.9668471379
 20
293.5432280514
 30
0.0
 11
88.9668471379
 21
272.0432280514
 31
0.0
  0
LINE
  5
9B
330
1F
100
AcDbEntity
  8
0
  6
Continuous
 62
     7
100
AcDbLine
 10
88.9668471379
 20
264.7134714207
 30
0.0
 11
88.9668471379
 21
253.5432280514
 31
0.0
  0
LINE
  5
9C
330
1F
100
AcDbEntity
  8
0
  6
Continuous
 62
     7
100
AcDbLine
 10
94.7192518737
 20
353.5431911303
 30
0.0
 11
94.7192518737
 21
313.5432280514
 31
0.0
  0
LINE
  5
9D
330
1F
100
AcDbEntity
  8
0
  6
Continuous
 62
     7
100
AcDbLine
 10
94.7192518737
 20
293.5432280514
 30
0.0
 11
94.7192518737
 21
272.0432280514
 31
0.0
  0
LINE
  5
9E
330
1F
100
AcDbEntity
  8
0
  6
Continuous
 62
     7
100
AcDbLine
 10
94.7192518737
 20
264.7134714207
 30
0.0
 11
94.7192518737
 21
253.5432299192
 31
0.0
  0
LINE
  5
9F
330
1F
100
AcDbEntity
  8
FASEN
  6
Continuous
 62
     7
100
AcDbLine
 10
94.7192518737
 20
264.7134714207
 30
0.0
 11
94.7192518737
 21
272.0432280514
 31
0.0
  0
LINE
  5
A0
330
1F
100
AcDbEntity
  8
FASEN
  6
Continuous
 62
     7
100
AcDbLine
 10
94.7192518737
 20
293.5432280514
 30
0.0
 11
94.7192518737
 21
313.5432280514
 31
0.0
  0
LINE
  5
A1
330
1F
100
AcDbEntity
  8
BEZUGSACHSEN
  6
Continuous
 62
     9
100
AcDbLine
 10
15.7192518737
 20
290.0970440824
 30
0.0
 11
17.7192518737
 21
291.139588103
 31
0.0
  0
LINE
  5
A2
330
1F
100
AcDbEntity
  8
BEZUGSACHSEN
  6
Continuous
 62
     7
100
AcDbLine
 10
82.4716566095
 20
253.5432280514
 30
0.0
 11
65.7192518737
 21
253.5432280514
 31
0.0
  0
LINE
  5
A3
330
1F
100
AcDbEntity
  8
BEZUGSACHSEN
  6
Continuous
 62
     7
100
AcDbLine
 10
88.9668471379
 20
253.5432280514
 30
0.0
 11
94.7192518737
 21
253.5432280514
 31
0.0
  0
LINE
  5
A4
330
1F
100
AcDbEntity
  8
BEZUGSACHSEN
  6
Continuous
 62
     7
100
AcDbLine
 10
84.8442518737
 20
257.5432280514
 30
0.0
 11
86.5942518737
 21
257.5432280514
 31
0.0
  0
LINE
  5
A5
330
1F
100
AcDbEntity
  8
BEZUGSACHSEN
  6
Continuous
 62
     9
100
AcDbLine
 10
17.7192518737
 20
315.9468679998
 30
0.0
 11
15.7192518737
 21
316.9894120204
 31
0.0
  0
LINE
  5
A6
330
1F
100
AcDbEntity
  8
FASEN
  6
Continuous
 62
     7
100
AcDbLine
 10
71.1207378381
 20
264.7134714207
 30
0.0
 11
82.4716566095
 21
264.7134714207
 31
0.0
  0
LINE
  5
A7
330
1F
100
AcDbEntity
  8
0
  6
Continuous
 62
     7
100
AcDbLine
 10
88.9668471379
 20
264.7134714207
 30
0.0
 11
94.7192518737
 21
264.7134714207
 31
0.0
  0
LINE
  5
A8
330
1F
100
AcDbEntity
  8
BEZUGSACHSEN
  6
Continuous
 62
     7
100
AcDbLine
 10
65.018680585
 20
265.8609780514
 30
0.0
 11
64.0973145328
 21
265.8609780514
 31
0.0
  0
LINE
  5
A9
330
1F
100
AcDbEntity
  8
BEZUGSACHSEN
  6
Continuous
 62
     7
100
AcDbLine
 10
63.2192518737
 20
265.6609780514
 30
0.0
 11
17.6191773889
 21
267.9455417831
 31
0.0
  0
LINE
  5
AA
330
1F
100
AcDbEntity
  8
RUNDUNGEN
  6
Continuous
 62
     9
100
AcDbLine
 10
111.6527866169
 20
326.6194659671
 30
0.0
 11
111.6527866169
 21
280.4669901356
 31
0.0
  0
LINE
  5
AB
330
1F
100
AcDbEntity
  8
RUNDUNGEN
  6
Continuous
 62
     7
100
AcDbLine
 10
264.7977109694
 20
286.9707012093
 30
0.0
 11
208.5413305609
 21
282.5432280514
 31
0.0
  0
LINE
  5
AC
330
1F
100
AcDbEntity
  8
0
  6
Continuous
 62
     7
100
AcDbLine
 10
208.5413305609
 20
282.5432280514
 30
0.0
 11
264.7977109694
 21
286.9707012093
 31
0.0
  0
LINE
  5
AD
330
1F
100
AcDbEntity
  8
0
  6
Continuous
 62
     7
100
AcDbLine
 10
84.8442518737
 20
270.0208474677
 30
0.0
 11
86.5942518737
 21
270.0208474677
 31
0.0
  0
LINE
  5
AE
330
1F
100
AcDbEntity
  8
FASEN
  6
Continuous
 62
     7
100
AcDbLine
 10
78.6911257955
 20
271.6432280514
 30
0.0
 11
94.7192518737
 21
271.6432280514
 31
0.0
  0
LINE
  5
AF
330
1F
100
AcDbEntity
  8
0
  6
Continuous
 62
     7
100
AcDbLine
 10
78.6911257955
 20
272.0432280514
 30
0.0
 11
94.7192518737
 21
272.0432280514
 31
0.0
  0
LINE
  5
B0
330
1F
100
AcDbEntity
  8
BEZUGSACHSEN
  6
Continuous
 62
     7
100
AcDbLine
 10
82.4716566095
 20
253.5432280514
 30
0.0
 11
83.8442518737
 21
255.9206327872
 31
0.0
  0
LINE
  5
B1
330
1F
100
AcDbEntity
  8
0
  6
Continuous
 62
     7
100
AcDbLine
 10
208.5413305609
 20
282.5432280514
 30
0.0
 11
149.7192518737
 21
282.5432280514
 31
0.0
  0
LINE
  5
B2
330
1F
100
AcDbEntity
  8
BEZUGSACHSEN
  6
Continuous
 62
     7
100
AcDbLine
 10
82.4716566095
 20
353.5432280514
 30
0.0
 11
83.8442518737
 21
351.1658233156
 31
0.0
  0
LINE
  5
B3
330
1F
100
AcDbEntity
  8
BEZUGSACHSEN
  6
Continuous
 62
     7
100
AcDbLine
 10
63.8384954877
 20
265.8269038777
 30
0.0
 11
63.2192518737
 21
265.6609780514
 31
0.0
  0
LINE
  5
B4
330
1F
100
AcDbEntity
  8
BEZUGSACHSEN
  6
Continuous
 62
     9
100
AcDbLine
 10
25.2730978206
 20
288.5332280514
 30
0.0
 11
16.9862048007
 21
288.5332280514
 31
0.0
  0
LINE
  5
B5
330
1F
100
AcDbEntity
  8
BEZUGSACHSEN
  6
Continuous
 62
     7
100
AcDbLine
 10
23.7192518737
 20
293.5332280514
 30
0.0
 11
17.7192518737
 21
293.5332280514
 31
0.0
  0
LINE
  5
B6
330
1F
100
AcDbEntity
  8
0
  6
Continuous
 62
     7
100
AcDbLine
 10
80.7192518737
 20
293.5432280514
 30
0.0
 11
94.7192518737
 21
293.5432280514
 31
0.0
  0
LINE
  5
B7
330
1F
100
AcDbEntity
  8
FASEN
  6
Continuous
 62
     7
100
AcDbLine
 10
94.7192518737
 20
293.9432280514
 30
0.0
 11
80.7192518737
 21
293.9432280514
 31
0.0
  0
LWPOLYLINE
  5
B8
330
1F
100
AcDbEntity
  8
DEFAULT_2
  6
DASHED
 62
     8
100
AcDbPolyline
 90
        2
 70
     0
 43
0.35
 10
265.7192518737
 20
294.5432280514
 10
215.7192518737
 20
294.5432280514
  0
LWPOLYLINE
  5
B9
330
1F
100
AcDbEntity
  8
BEZUGSACHSEN
  6
DOT_CENTER
 62
     7
100
AcDbPolyline
 90
        2
 70
     0
 43
0.25
 10
268.7192518737
 20
303.5432280514
 10
12.7192518737
 20
303.5432280514
  0
LINE
  5
BA
330
1F
100
AcDbEntity
  8
0
  6
Continuous
 62
     9
100
AcDbLine
 10
149.7192518737
 20
324.5432280514
 30
0.0
 11
149.7192518737
 21
282.5432280514
 31
0.0
  0
LWPOLYLINE
  5
BB
330
1F
100
AcDbEntity
  8
DEFAULT_2
  6
DASHED
 62
     8
100
AcDbPolyline
 90
        2
 70
     0
 43
0.35
 10
265.7192518737
 20
312.5432280514
 10
215.7192518737
 20
312.5432280514
  0
LINE
  5
BC
330
1F
100
AcDbEntity
  8
FASEN
  6
Continuous
 62
     7
100
AcDbLine
 10
80.7192518737
 20
313.1432280514
 30
0.0
 11
94.7192518737
 21
313.1432280514
 31
0.0
  0
LINE
  5
BD
330
1F
100
AcDbEntity
  8
0
  6
Continuous
 62
     7
100
AcDbLine
 10
80.7192518737
 20
313.5432280514
 30
0.0
 11
94.7192518737
 21
313.5432280514
 31
0.0
  0
LINE
  5
BE
330
1F
100
AcDbEntity
  8
BEZUGSACHSEN
  6
Continuous
 62
     7
100
AcDbLine
 10
23.7192518737
 20
313.5532280514
 30
0.0
 11
17.7192518737
 21
313.5532280514
 31
0.0
  0
LINE
  5
BF
330
1F
100
AcDbEntity
  8
BEZUGSACHSEN
  6
Continuous
 62
     9
100
AcDbLine
 10
16.9862048007
 20
318.5532280514
 30
0.0
 11
25.2730978206
 21
318.5532280514
 31
0.0
  0
LINE
  5
C0
330
1F
100
AcDbEntity
  8
BEZUGSACHSEN
  6
Continuous
 62
     7
100
AcDbLine
 10
63.8384954877
 20
341.2595522251
 30
0.0
 11
63.2192518737
 21
341.4254780514
 31
0.0
  0
LINE
  5
C1
330
1F
100
AcDbEntity
  8
0
  6
Continuous
 62
     7
100
AcDbLine
 10
208.5413305609
 20
324.5432280514
 30
0.0
 11
149.7192518737
 21
324.5432280514
 31
0.0
  0
LINE
  5
C2
330
1F
100
AcDbEntity
  8
RUNDUNGEN
  6
Continuous
 62
     7
100
AcDbLine
 10
264.7977109694
 20
320.1157548935
 30
0.0
 11
208.5413305609
 21
324.5432280514
 31
0.0
  0
LINE
  5
C3
330
1F
100
AcDbEntity
  8
0
  6
Continuous
 62
     7
100
AcDbLine
 10
208.5413305609
 20
324.5432280514
 30
0.0
 11
264.7977109694
 21
320.1157548935
 31
0.0
  0
LINE
  5
C4
330
1F
100
AcDbEntity
  8
BEZUGSACHSEN
  6
Continuous
 62
     7
100
AcDbLine
 10
63.2192518737
 20
341.4254780514
 30
0.0
 11
17.6191773889
 21
339.1409143197
 31
0.0
  0
LINE
  5
C5
330
1F
100
AcDbEntity
  8
BEZUGSACHSEN
  6
Continuous
 62
     7
100
AcDbLine
 10
65.018680585
 20
341.2254780514
 30
0.0
 11
64.0973145328
 21
341.2254780514
 31
0.0
  0
LINE
  5
C6
330
1F
100
AcDbEntity
  8
BEZUGSACHSEN
  6
Continuous
 62
     7
100
AcDbLine
 10
84.8442518737
 20
349.5432280514
 30
0.0
 11
86.5942518737
 21
349.5432280514
 31
0.0
  0
LINE
  5
C7
330
1F
100
AcDbEntity
  8
BEZUGSACHSEN
  6
Continuous
 62
     7
100
AcDbLine
 10
82.4716566095
 20
353.5432280514
 30
0.0
 11
77.7192518737
 21
353.5432280514
 31
0.0
  0
LINE
  5
C8
330
1F
100
AcDbEntity
  8
BEZUGSACHSEN
  6
Continuous
 62
     7
100
AcDbLine
 10
67.7192518737
 20
353.5432280514
 30
0.0
 11
65.7192518737
 21
353.5432280514
 31
0.0
  0
LINE
  5
C9
330
1F
100
AcDbEntity
  8
BEZUGSACHSEN
  6
Continuous
 62
     7
100
AcDbLine
 10
88.9668471379
 20
353.5432280514
 30
0.0
 11
94.7192518737
 21
353.5432280514
 31
0.0
  0
LINE
  5
CA
330
1F
100
AcDbEntity
  8
0
  6
Continuous
 62
     7
100
AcDbLine
 10
208.5413305609
 20
324.5432280514
 30
0.0
 11
208.5413305609
 21
282.5432280514
 31
0.0
  0
LWPOLYLINE
  5
CB
330
1F
100
AcDbEntity
  8
DEFAULT_2
  6
DASHED
 62
     8
100
AcDbPolyline
 90
        2
 70
     0
 43
0.35
 10
215.7192518737
 20
312.5432280514
 10
215.7192518737
 20
294.5432280514
  0
LINE
  5
CC
330
1F
100
AcDbEntity
  8
RUNDUNGEN
  6
Continuous
 62
     9
100
AcDbLine
 10
264.7977109694
 20
286.9707012093
 30
0.0
 11
264.7977109694
 21
320.1157548935
 31
0.0
  0
LINE
  5
CD
330
1F
100
AcDbEntity
  8
RUNDUNGEN
  6
Continuous
 62
     7
100
AcDbLine
 10
265.7192518737
 20
319.1188375597
 30
0.0
 11
265.7192518737
 21
287.9676185431
 31
0.0
  0
LWPOLYLINE
  5
CE
330
1F
100
AcDbEntity
  8
1
  6
Continuous
 62
     7
100
AcDbPolyline
 90
        2
 70
     0
 43
0.25
 10
265.7192518737
 20
319.1188375597
 10
265.7192518737
 20
320.0432280514528
  0
LWPOLYLINE
  5
CF
330
1F
100
AcDbEntity
  8
1
  6
Continuous
 62
     7
100
AcDbPolyline
 90
        2
 70
     0
 43
0.25
 10
264.7977109694
 20
320.1157548935
 10
265.7192518737094
 20
320.0432280514528
  0
LWPOLYLINE
  5
D0
330
1F
100
AcDbEntity
  8
1
  6
Continuous
 62
     7
100
AcDbPolyline
 90
        2
 70
     0
 43
0.25
 10
264.7977109694
 20
286.9707012093
 10
265.7192518737
 20
287.0432280513559
  0
LWPOLYLINE
  5
D1
330
1F
100
AcDbEntity
  8
1
  6
Continuous
 62
     7
100
AcDbPolyline
 90
        2
 70
     0
 43
0.25
 10
265.7192518737
 20
287.9676185431
 10
265.7192518737
 20
287.0432280513559
  0
ARC
  5
D2
330
1F
100
AcDbEntity
  8
FASEN
  6
Continuous
 62
     7
100
AcDbCircle
 10
83.6199058966
 20
279.0744913214
 30
0.0
 40
19.03859487309966
100
AcDbArc
 50
227.4837701982989
 51
228.9651953373019
  0
ARC
  5
D3
330
1F
100
AcDbEntity
  8
FASEN
  6
Continuous
 62
     7
100
AcDbCircle
 10
78.6911257955
 20
264.0432280514
 30
0.0
 40
8.0
100
AcDbArc
 50
90.0
 51
172.8323734889967
  0
ARC
  5
D4
330
1F
100
AcDbEntity
  8
FASEN
  6
Continuous
 62
     7
100
AcDbCircle
 10
78.6911257955
 20
264.0432280514
 30
0.0
 40
7.599982194900008
100
AcDbArc
 50
90.0
 51
174.9405171273013
  0
ARC
  5
D5
330
1F
100
AcDbEntity
  8
BEZUGSACHSEN
  6
Continuous
 62
     7
100
AcDbCircle
 10
23.7192518737
 20
295.5332280514
 30
0.0
 40
2.0
100
AcDbArc
 50
270.0
 51
359.9999999999137
  0
ARC
  5
D6
330
1F
100
AcDbEntity
  8
BEZUGSACHSEN
  6
Continuous
 62
     7
100
AcDbCircle
 10
17.7192518737
 20
269.9430364883
 30
0.0
 40
2.0
100
AcDbArc
 50
179.9999999971339
 51
267.1318795106973
  0
ARC
  5
D7
330
1F
100
AcDbEntity
  8
BEZUGSACHSEN
  6
Continuous
 62
     7
100
AcDbCircle
 10
84.8442518737
 20
256.5432280514
 30
0.0
 40
1.0
100
AcDbArc
 50
90.0
 51
180.0
  0
ARC
  5
D8
330
1F
100
AcDbEntity
  8
BEZUGSACHSEN
  6
Continuous
 62
     7
100
AcDbCircle
 10
64.0973145328
 20
264.8609780514
 30
0.0
 40
1.0
100
AcDbArc
 50
90.0
 51
104.999999999699
  0
ARC
  5
D9
330
1F
100
AcDbEntity
  8
BEZUGSACHSEN
  6
Continuous
 62
     7
100
AcDbCircle
 10
65.018680585
 20
264.8609780514
 30
0.0
 40
0.9999999999998127
100
AcDbArc
 50
45.49026120128689
 51
90.0
  0
ARC
  5
DA
330
1F
100
AcDbEntity
  8
0
  6
Continuous
 62
     7
100
AcDbCircle
 10
-158.8785280089
 20
372.9776956418
 30
0.0
 40
264.5204223902804
100
AcDbArc
 50
335.8400764706079
 51
336.5770705490999
  0
ARC
  5
DB
330
1F
100
AcDbEntity
  8
BEZUGSACHSEN
  6
Continuous
 62
     7
100
AcDbCircle
 10
72.7344598848
 20
403.5959978182
 30
0.0
 40
50.30340021035248
100
AcDbArc
 50
264.2781515101899
 51
269.9826780125999
  0
ARC
  5
DC
330
1F
100
AcDbEntity
  8
BEZUGSACHSEN
  6
Continuous
 62
     7
100
AcDbCircle
 10
72.7040438726
 20
403.5959976175
 30
0.0
 40
50.30340000969741
100
AcDbArc
 50
270.017321976058
 51
275.7218485012678
  0
ARC
  5
DD
330
1F
100
AcDbEntity
  8
0
  6
Continuous
 62
     7
100
AcDbCircle
 10
80.7192518737
 20
303.5432280514
 30
0.0
 40
10.0
100
AcDbArc
 50
90.0
 51
270.0
  0
ARC
  5
DE
330
1F
100
AcDbEntity
  8
FASEN
  6
Continuous
 62
     7
100
AcDbCircle
 10
80.7192518737
 20
303.5432280514
 30
0.0
 40
9.599999195900011
100
AcDbArc
 50
90.0
 51
270.0
  0
ARC
  5
DF
330
1F
100
AcDbEntity
  8
BEZUGSACHSEN
  6
Continuous
 62
     7
100
AcDbCircle
 10
23.7192518737
 20
311.5532280514
 30
0.0
 40
2.0
100
AcDbArc
 50
0.0
 51
90.0
  0
ARC
  5
E0
330
1F
100
AcDbEntity
  8
BEZUGSACHSEN
  6
Continuous
 62
     7
100
AcDbCircle
 10
17.7192518737
 20
337.1434196145
 30
0.0
 40
1.999999999952545
100
AcDbArc
 50
92.86812048930265
 51
180.0000000143238
  0
ARC
  5
E1
330
1F
100
AcDbEntity
  8
BEZUGSACHSEN
  6
Continuous
 62
     7
100
AcDbCircle
 10
84.8442518737
 20
350.5432280514
 30
0.0
 40
1.0
100
AcDbArc
 50
180.0
 51
270.0
  0
ARC
  5
E2
330
1F
100
AcDbEntity
  8
BEZUGSACHSEN
  6
Continuous
 62
     7
100
AcDbCircle
 10
64.0973145328
 20
342.2254780514
 30
0.0
 40
1.000000000009914
100
AcDbArc
 50
255.0000000003019
 51
270.0
  0
ARC
  5
E3
330
1F
100
AcDbEntity
  8
BEZUGSACHSEN
  6
Continuous
 62
     7
100
AcDbCircle
 10
65.018680585
 20
342.2254780514
 30
0.0
 40
1.0
100
AcDbArc
 50
270.0
 51
314.5097387987131
  0
ARC
  5
E4
330
1F
100
AcDbEntity
  8
BEZUGSACHSEN
  6
Continuous
 62
     7
100
AcDbCircle
 10
202.0492984719
 20
-1302.4995312386
 30
0.0
 40
1632.172763698
100
AcDbArc
 50
96.2726189838
 51
96.48809068979999
  0
ARC
  5
E5
330
1F
100
AcDbEntity
  8
0
  6
Continuous
 62
     7
100
AcDbCircle
 10
149.7192518737
 20
-67.4567719486
 30
0.0
 40
350.0
100
AcDbArc
 50
90.0
 51
96.24391656287679
  0
ARC
  5
E6
330
1F
100
AcDbEntity
  8
RUNDUNGEN
  6
Continuous
 62
     7
100
AcDbCircle
 10
149.7192518737
 20
-67.4567719486
 30
0.0
 40
350.0
100
AcDbArc
 50
90.0
 51
96.24391656287679
  0
ARC
  5
E7
330
1F
100
AcDbEntity
  8
RUNDUNGEN
  6
Continuous
 62
     7
100
AcDbCircle
 10
113.7192518737
 20
261.5797001939
 30
0.0
 40
18.99999999998428
100
AcDbArc
 50
96.24391656288816
 51
180.0
  0
ARC
  5
E8
330
1F
100
AcDbEntity
  8
RUNDUNGEN
  6
Continuous
 62
     7
100
AcDbCircle
 10
264.7192518737
 20
287.9676185431
 30
0.0
 40
1.000000000064494
100
AcDbArc
 50
274.4999999981087
 51
0.0
  0
ARC
  5
E9
330
1F
100
AcDbEntity
  8
BEZUGSACHSEN
  6
Continuous
 62
     7
100
AcDbCircle
 10
86.5942518737
 20
256.5432280514
 30
0.0
 40
1.0
100
AcDbArc
 50
0.0
 51
90.0
  0
ARC
  5
EA
330
1F
100
AcDbEntity
  8
BEZUGSACHSEN
  6
Continuous
 62
     7
100
AcDbCircle
 10
202.0492984719
 20
1909.5859873414
 30
0.0
 40
1632.172763698
100
AcDbArc
 50
263.5119093102
 51
263.7273810162
  0
ARC
  5
EB
330
1F
100
AcDbEntity
  8
0
  6
Continuous
 62
     7
100
AcDbCircle
 10
149.7192518737
 20
674.5432280514
 30
0.0
 40
350.0000000000568
100
AcDbArc
 50
263.756083437125
 51
270.0
  0
ARC
  5
EC
330
1F
100
AcDbEntity
  8
RUNDUNGEN
  6
Continuous
 62
     7
100
AcDbCircle
 10
149.7192518737
 20
674.5432280514
 30
0.0
 40
350.0000000000568
100
AcDbArc
 50
263.756083437125
 51
270.0
  0
ARC
  5
ED
330
1F
100
AcDbEntity
  8
0
  6
Continuous
 62
     7
100
AcDbCircle
 10
330.3170317569
 20
372.9776956421
 30
0.0
 40
264.5204223909001
100
AcDbArc
 50
203.4229294509001
 51
204.1599235293982
  0
ARC
  5
EE
330
1F
100
AcDbEntity
  8
RUNDUNGEN
  6
Continuous
 62
     7
100
AcDbCircle
 10
113.7192518737
 20
345.5067559089
 30
0.0
 40
19.0
100
AcDbArc
 50
180.0
 51
263.7560834371447
  0
ARC
  5
EF
330
1F
100
AcDbEntity
  8
BEZUGSACHSEN
  6
Continuous
 62
     7
100
AcDbCircle
 10
86.5942518737
 20
350.5432280514
 30
0.0
 40
1.0
100
AcDbArc
 50
270.0
 51
0.0
  0
ARC
  5
F0
330
1F
100
AcDbEntity
  8
RUNDUNGEN
  6
Continuous
 62
     7
100
AcDbCircle
 10
264.7192518737
 20
319.1188375597
 30
0.0
 40
1.0
100
AcDbArc
 50
0.0
 51
85.50000000189128
  0
CIRCLE
  5
F1
330
1F
100
AcDbEntity
  8
BEZUGSACHSEN
  6
Continuous
 62
     7
100
AcDbCircle
 10
50.7192518737
 20
303.5432280514
 30
0.0
 40
6.0
  0
SPLINE
  5
F2
330
1F
100
AcDbEntity
  8
BEZUGSACHSEN
  6
Continuous
 62
     7
100
AcDbSpline
210
0.0
220
0.0
230
1.0
 70
     8
 71
     3
 72
    19
 73
    15
 74
    13
 42
0.0000000001
 43
0.0000000001
 44
0.00000001
 40
0.0
 40
0.0
 40
0.0
 40
0.0
 40
0.2679411643353904
 40
0.5361267936930485
 40
0.8065304773750306
 40
1.076465993248222
 40
1.213913376164863
 40
1.351353104889017
 40
1.491586367063658
 40
1.631807897554336
 40
1.775491562771504
 40
1.919219204752261
 40
2.06571300738123
 40
2.211936409305883
 40
2.211936409305883
 40
2.211936409305883
 40
2.211936409305883
 10
25.2730978206
 20
288.5332280514
 30
0.0
 10
25.23920357680091
 20
288.4505564716961
 30
0.0
 10
25.17138416466343
 20
288.2851378841262
 30
0.0
 10
25.04674565837394
 20
288.0464719104572
 30
0.0
 10
24.90183485903248
 20
287.818783914447
 30
0.0
 10
24.75879122751071
 20
287.6429794231213
 30
0.0
 10
24.62968484061624
 20
287.5150297039793
 30
0.0
 10
24.52356974155701
 20
287.4259426831621
 30
0.0
 10
24.40876031390857
 20
287.3466410428437
 30
0.0
 10
24.28430070167263
 20
287.2789705754146
 30
0.0
 10
24.15144714653733
 20
287.226167888733
 30
0.0
 10
24.01079634766143
 20
287.1910016247454
 30
0.0
 10
23.86547096456867
 20
287.1746494228615
 30
0.0
 10
23.76796154552711
 20
287.1812721562279
 30
0.0
 10
23.7192518737
 20
287.184580464
 30
0.0
 11
25.2730978206
 21
288.5332280514
 31
0.0
 11
25.16766056088106
 21
288.2869041755609
 31
0.0
 11
25.04379104530444
 21
288.0490389302964
 31
0.0
 11
24.89744555899116
 21
287.8216600597202
 31
0.0
 11
24.72619336786266
 21
287.6130027575153
 31
0.0
 11
24.62840092918335
 21
287.5164190010767
 31
0.0
 11
24.52298393992865
 21
287.428232055284
 31
0.0
 11
24.40744529621523
 21
287.3487575963113
 31
0.0
 11
24.28412328632187
 21
287.2820211033782
 31
0.0
 11
24.15049259812201
 21
287.2292211524173
 31
0.0
 11
24.01106489691423
 21
287.1943277260269
 31
0.0
 11
23.86537045839606
 21
287.1790448992737
 31
0.0
 11
23.7192518737
 21
287.184580464
 31
0.0
  0
SPLINE
  5
F3
330
1F
100
AcDbEntity
  8
BEZUGSACHSEN
  6
Continuous
 62
     7
100
AcDbSpline
210
0.0
220
0.0
230
1.0
 70
     8
 71
     3
 72
    27
 73
    23
 74
    21
 42
0.0000000001
 43
0.0000000001
 44
0.00000001
 40
0.0
 40
0.0
 40
0.0
 40
0.0
 40
0.12197651397502
 40
0.2439857715266157
 40
0.3566831398722585
 40
0.469441814972975
 40
0.5721317672923791
 40
0.6745445881113126
 40
0.7225206521179105
 40
0.770488879766576
 40
0.8171412936003095
 40
0.8637898734224909
 40
0.9102318000782774
 40
0.9566751324093145
 40
1.004175175745212
 40
1.05168310013861
 40
1.153672388757637
 40
1.256049376706915
 40
1.370745138128061
 40
1.485385401909046
 40
1.61153490394475
 40
1.737631875989561
 40
1.737631875989561
 40
1.737631875989561
 40
1.737631875989561
 10
16.8650945493
 20
288.3008920559
 30
0.0
 10
16.82983953168786
 20
288.2806125306347
 30
0.0
 10
16.7593200325485
 20
288.2400480362346
 30
0.0
 10
16.65166762934292
 20
288.189252175355
 30
0.0
 10
16.54350961347995
 20
288.1475005394782
 30
0.0
 10
16.43793039253112
 20
288.1180859543331
 30
0.0
 10
16.33309884739953
 20
288.1011713669462
 30
0.0
 10
16.24837117755497
 20
288.0993061437188
 30
0.0
 10
16.18254724115179
 20
288.106261451738
 30
0.0
 10
16.13584003793773
 20
288.1154585788916
 30
0.0
 10
16.09065942063368
 20
288.1289920238787
 30
0.0
 10
16.04751980998196
 20
288.146785282685
 30
0.0
 10
16.00656533340378
 20
288.1690136403886
 30
0.0
 10
15.96791790693293
 20
288.1955486720908
 30
0.0
 10
15.93201182829982
 20
288.2262439496218
 30
0.0
 10
15.88657250676163
 20
288.273781422742
 30
0.0
 10
15.83802936667482
 20
288.3429507898454
 30
0.0
 10
15.79180365770763
 20
288.439108844569
 30
0.0
 10
15.75783778392499
 20
288.5446842775664
 30
0.0
 10
15.73488235974728
 20
288.6611019684752
 30
0.0
 10
15.72143780139755
 20
288.7828492771308
 30
0.0
 10
15.7199804150996
 20
288.8669526406479
 30
0.0
 10
15.7192518737
 20
288.9089955652
 30
0.0
 11
16.8650945493
 21
288.3008920559
 31
0.0
 11
16.75854992521269
 21
288.2415076047399
 31
0.0
 11
16.64825703601266
 21
288.1893373304431
 31
0.0
 11
16.54293902817396
 21
288.1492273060487
 31
0.0
 11
16.43421529966085
 21
288.1193329977497
 31
0.0
 11
16.33275114755235
 21
288.1035136379565
 31
0.0
 11
16.23035160696976
 21
288.1018644088745
 31
0.0
 11
16.18264775075721
 21
288.1069678214599
 31
0.0
 11
16.13559698049577
 21
288.1163046239939
 31
0.0
 11
16.09091741306234
 21
288.1297278862828
 31
0.0
 11
16.04781127646641
 21
288.1475590664793
 31
0.0
 11
16.00698868366955
 21
288.1697033313992
 31
0.0
 11
15.9687014271234
 21
288.195991524646
 31
0.0
 11
15.93256433011284
 21
288.2268195044138
 31
0.0
 11
15.89971182974096
 21
288.2611373729298
 31
0.0
 11
15.84053943548714
 21
288.3442062765658
 31
0.0
 11
15.79563971188608
 21
288.4362120507439
 31
0.0
 11
15.76000155231859
 21
288.5452305779336
 31
0.0
 11
15.73714998895235
 21
288.6575702242367
 31
0.0
 11
15.72338323262979
 21
288.7829662899015
 31
0.0
 11
15.7192518737
 21
288.9089955652
 31
0.0
  0
SPLINE
  5
F4
330
1F
100
AcDbEntity
  8
BEZUGSACHSEN
  6
Continuous
 62
     7
100
AcDbSpline
210
0.0
220
0.0
230
1.0
 70
     8
 71
     3
 72
    15
 73
    11
 74
     9
 42
0.0000000001
 43
0.0000000001
 44
0.00000001
 40
0.0
 40
0.0
 40
0.0
 40
0.0
 40
0.1110371613194032
 40
0.222252233698266
 40
0.3333980191345218
 40
0.444506947423041
 40
0.555620106483777
 40
0.6667525641981755
 40
0.7778876033107717
 40
0.888982091476971
 40
0.888982091476971
 40
0.888982091476971
 40
0.888982091476971
 10
17.6191773889
 20
287.8666956651
 30
0.0
 10
17.58253566204123
 20
287.8722278179497
 30
0.0
 10
17.50919349853349
 20
287.8833009876291
 30
0.0
 10
17.40267694853298
 20
287.9163195511291
 30
0.0
 10
17.3002640407883
 20
287.9599098385841
 30
0.0
 10
17.20281407517081
 20
288.0136893464061
 30
0.0
 10
17.1105092794305
 20
288.0757844817609
 30
0.0
 10
17.02351265129566
 20
288.1450711554019
 30
0.0
 10
16.94125989588105
 20
288.2199531070306
 30
0.0
 10
16.89047990949712
 20
288.2739156885196
 30
0.0
 10
16.8650945493
 20
288.3008920559
 30
0.0
 11
17.6191773889
 21
287.8666956651
 31
0.0
 11
17.50983510385124
 21
287.8860222243951
 31
0.0
 11
17.40334315026315
 21
287.9180886577051
 31
0.0
 11
17.30107496966535
 21
287.9616157166163
 31
0.0
 11
17.20367210322644
 21
288.0150748183195
 31
0.0
 11
17.1114003364242
 21
288.0769784140765
 31
0.0
 11
17.02430323300604
 21
288.1460039001944
 31
0.0
 11
16.94226332855179
 21
288.2209735673651
 31
0.0
 11
16.8650945493
 21
288.3008920559
 31
0.0
  0
SPLINE
  5
F5
330
1F
100
AcDbEntity
  8
BEZUGSACHSEN
  6
Continuous
 62
     7
100
AcDbSpline
210
0.0
220
0.0
230
1.0
 70
     8
 71
     3
 72
    27
 73
    23
 74
    21
 42
0.0000000001
 43
0.0000000001
 44
0.00000001
 40
0.0
 40
0.0
 40
0.0
 40
0.0
 40
0.1260969825525344
 40
0.2522464959195269
 40
0.3668867952476222
 40
0.481582589373466
 40
0.5839596006347871
 40
0.6859489160818405
 40
0.733456841004043
 40
0.7809568848485804
 40
0.8274002263972307
 40
0.8738421606731693
 40
0.920490731854651
 40
0.9671431398889535
 40
1.01511140178585
 40
1.063087497106602
 40
1.165500418707546
 40
1.268190478907822
 40
1.380949153832678
 40
1.493646517711222
 40
1.615655563695331
 40
1.73763186763469
 40
1.73763186763469
 40
1.73763186763469
 40
1.73763186763469
 10
15.7192518737
 20
318.1774605376
 30
0.0
 10
15.71998041517628
 20
318.219503465661
 30
0.0
 10
15.72143780163234
 20
318.3036068364705
 30
0.0
 10
15.73488236358071
 20
318.4253541640321
 30
0.0
 10
15.75783779686458
 20
318.5417718804032
 30
0.0
 10
15.791803697198
 20
318.6473473381791
 30
0.0
 10
15.83802945605635
 20
318.7435054004184
 30
0.0
 10
15.88657262461113
 20
318.8126747660772
 30
0.0
 10
15.93201195016843
 20
318.8602122476943
 30
0.0
 10
15.96791802825954
 20
318.8909075311764
 30
0.0
 10
16.00656545935232
 20
318.9174425668886
 30
0.0
 10
16.0475199465578
 20
318.9396709127836
 30
0.0
 10
16.09065957273338
 20
318.9574641296612
 30
0.0
 10
16.13584020734677
 20
318.9709975367224
 30
0.0
 10
16.1825474303364
 20
318.9801946620561
 30
0.0
 10
16.24837142153987
 20
318.9871499824366
 30
0.0
 10
16.33309917353688
 20
318.9852847258031
 30
0.0
 10
16.43793077702609
 20
318.9683700648618
 30
0.0
 10
16.54351001937215
 20
318.9389554320027
 30
0.0
 10
16.65166795747001
 20
318.8972037945354
 30
0.0
 10
16.75932021874688
 20
318.846407967344
 30
0.0
 10
16.82983959360629
 20
318.8058435391096
 30
0.0
 10
16.8650945493
 20
318.7855640468
 30
0.0
 11
15.7192518737
 21
318.1774605376
 31
0.0
 11
15.72338323326464
 21
318.303489823391
 31
0.0
 11
15.73714999238566
 21
318.428885900148
 31
0.0
 11
15.7600015684678
 21
318.5412255801395
 31
0.0
 11
15.79563975783866
 21
318.6502441319943
 31
0.0
 11
15.8405395226388
 21
318.7422499120067
 31
0.0
 11
15.89971195159294
 21
318.8253188238633
 31
0.0
 11
15.93256445175447
 21
318.8596366933127
 31
0.0
 11
15.96870154668128
 21
318.8904646763068
 31
0.0
 11
16.00698881154272
 21
318.9167528737276
 31
0.0
 11
16.04781141947998
 21
318.9388971267177
 31
0.0
 11
16.09091756309804
 21
318.9567282673333
 31
0.0
 11
16.13559713514238
 21
318.9701514941188
 31
0.0
 11
16.18264794089751
 21
318.9794882937419
 31
0.0
 11
16.23035182817159
 21
318.984591710359
 31
0.0
 11
16.33275146902933
 21
318.982942448995
 31
0.0
 11
16.43421571933003
 21
318.9671230187002
 31
0.0
 11
16.54293943576722
 21
318.9372286671452
 31
0.0
 11
16.64825742806172
 21
318.8971186144872
 31
0.0
 11
16.75855011397962
 21
318.8449484052201
 31
0.0
 11
16.8650945493
 21
318.7855640468
 31
0.0
  0
SPLINE
  5
F6
330
1F
100
AcDbEntity
  8
BEZUGSACHSEN
  6
Continuous
 62
     7
100
AcDbSpline
210
0.0
220
0.0
230
1.0
 70
     8
 71
     3
 72
    15
 73
    11
 74
     9
 42
0.0000000001
 43
0.0000000001
 44
0.00000001
 40
0.0
 40
0.0
 40
0.0
 40
0.0
 40
0.1110944831359939
 40
0.2222295181506105
 40
0.3333620401944018
 40
0.4444752610126926
 40
0.5555842178005221
 40
0.6667300353929879
 40
0.7779450181820927
 40
0.8889820871184206
 40
0.8889820871184206
 40
0.8889820871184206
 40
0.8889820871184206
 10
16.8650945493
 20
318.7855640468
 30
0.0
 10
16.89047990884121
 20
318.81254041251
 30
0.0
 10
16.9412598941265
 20
318.8665029908844
 30
0.0
 10
17.02351266339947
 20
318.9413849542686
 30
0.0
 10
17.1105093153524
 20
319.0106716631693
 30
0.0
 10
17.20281415577733
 20
319.0727668262419
 30
0.0
 10
17.30026417775222
 20
319.1265463183742
 30
0.0
 10
17.40267709161871
 20
319.1701365639817
 30
0.0
 10
17.50919359018635
 20
319.2031551198347
 30
0.0
 10
17.58253569289925
 20
319.2142282863862
 30
0.0
 10
17.6191773889
 20
319.2197604376
 30
0.0
 11
16.8650945493
 21
318.7855640468
 31
0.0
 11
16.9422633263269
 21
318.8654825304907
 31
0.0
 11
17.02430322657828
 21
318.9404521961859
 31
0.0
 11
17.11140037518934
 21
319.0094777288505
 31
0.0
 11
17.20367219676192
 21
319.0713813538194
 31
0.0
 11
17.30107510482717
 21
319.1248404389118
 31
0.0
 11
17.403343328216
 21
319.1683674793946
 31
0.0
 11
17.50983519634046
 21
319.200433885806
 31
0.0
 11
17.6191773889
 21
319.2197604376
 31
0.0
  0
SPLINE
  5
F7
330
1F
100
AcDbEntity
  8
BEZUGSACHSEN
  6
Continuous
 62
     7
100
AcDbSpline
210
0.0
220
0.0
230
1.0
 70
     8
 71
     3
 72
    47
 73
    43
 74
    41
 42
0.0000000001
 43
0.0000000001
 44
0.00000001
 40
0.0
 40
0.0
 40
0.0
 40
0.0
 40
0.6366022432307707
 40
1.273595002181658
 40
1.592921746397183
 40
1.912076344885461
 40
2.231392290435158
 40
2.550826842760072
 40
3.189774321199356
 40
3.829081697030579
 40
4.46833715252932
 40
5.107221744785905
 40
5.426176341272741
 40
5.74503335681896
 40
6.063356731597744
 40
6.381780214910777
 40
7.017059195703854
 40
7.652639341019974
 40
8.287532214259617
 40
8.922347946521548
 40
9.559226748605893
 40
10.19613435940464
 40
10.8345178550671
 40
11.4728768997776
 40
12.11234487369907
 40
12.75189588954747
 40
13.39354300527733
 40
14.03487957364448
 40
14.35615205780107
 40
14.67732107719957
 40
14.99840882480076
 40
15.31959604129132
 40
15.96011121034613
 40
16.60099592097001
 40
17.23809108086923
 40
17.87482555210769
 40
18.19205670344607
 40
18.50917199112245
 40
18.82571084638798
 40
19.14241581835369
 40
19.77338975002665
 40
20.40398930749725
 40
20.40398930749725
 40
20.40398930749725
 40
20.40398930749725
 10
44.2198362794
 20
303.5432280319
 30
0.0
 10
44.22584192325936
 20
303.7555078416131
 30
0.0
 10
44.23785689506555
 20
304.1801976814457
 30
0.0
 10
44.31912224032683
 20
304.7063404425539
 30
0.0
 10
44.41184183689662
 20
305.1213148186679
 30
0.0
 10
44.49713480101392
 20
305.4291387943693
 30
0.0
 10
44.59737341444211
 20
305.7324314711646
 30
0.0
 10
44.75085896359748
 20
306.1298688337208
 30
0.0
 10
44.97933091040316
 20
306.6119684106004
 30
0.0
 10
45.30894587098693
 20
307.1607842834209
 30
0.0
 10
45.69117308805292
 20
307.6743198227721
 30
0.0
 10
46.05002778515221
 20
308.0688225848639
 30
0.0
 10
46.35898113870978
 20
308.3616958829077
 30
0.0
 10
46.60087624768365
 20
308.5694177040216
 30
0.0
 10
46.8525195011692
 20
308.7649271011542
 30
0.0
 10
47.19981360832605
 20
309.0084223038289
 30
0.0
 10
47.65555394308646
 20
309.2803043738736
 30
0.0
 10
48.23103336777623
 20
309.5516334863892
 30
0.0
 10
48.83014413293886
 20
309.7654171172031
 30
0.0
 10
49.44759453540176
 20
309.920106848575
 30
0.0
 10
50.07786509710118
 20
310.0139138322266
 30
0.0
 10
50.71545903183156
 20
310.0460405570323
 30
0.0
 10
51.35363767606425
 20
310.0156109840829
 30
0.0
 10
51.9866500972582
 20
309.9229397289187
 30
0.0
 10
52.60788378169744
 20
309.7684477676905
 30
0.0
 10
53.2120195336781
 20
309.5534106351496
 30
0.0
 10
53.79249860725812
 20
309.2794872694197
 30
0.0
 10
54.25212763148386
 20
309.00432039136
 30
0.0
 10
54.60202662014724
 20
308.7577106925024
 30
0.0
 10
54.85515824929647
 20
308.5598065001316
 30
0.0
 10
55.09815688865066
 20
308.3496279707298
 30
0.0
 10
55.40740123215536
 20
308.0541086305748
 30
0.0
 10
55.76572142295002
 20
307.6566376478113
 30
0.0
 10
56.14567184127865
 20
307.140970886257
 30
0.0
 10
56.47214487085192
 20
306.5913747297753
 30
0.0
 10
56.69751601083328
 20
306.110269188065
 30
0.0
 10
56.84860699402414
 20
305.7142790004525
 30
0.0
 10
56.9470199116009
 20
305.4128526496715
 30
0.0
 10
57.03068668978233
 20
305.107157281754
 30
0.0
 10
57.12150604721655
 20
304.6956052640372
 30
0.0
 10
57.20102102282208
 20
304.1741800475091
 30
0.0
 10
57.21279330748958
 20
303.7535037583546
 30
0.0
 10
57.2186777031
 20
303.543228032
 30
0.0
 11
44.2198362794
 21
303.5432280319
 31
0.0
 11
44.25108495038423
 21
304.1790628663092
 31
0.0
 11
44.34452615276901
 21
304.8091648553973
 31
0.0
 11
44.41446665978454
 21
305.1207381133154
 31
0.0
 11
44.49960799873652
 21
305.4283264910829
 31
0.0
 11
44.59983253686433
 21
305.7315058357609
 31
0.0
 11
44.71491242662065
 21
306.0294908222832
 31
0.0
 11
44.98850832089663
 21
306.6068981021466
 31
0.0
 11
45.31772783459644
 21
307.1549203942037
 31
0.0
 11
45.69935208992215
 21
307.6677658535108
 31
0.0
 11
46.12928672601928
 21
308.1403436046872
 31
0.0
 11
46.36075898707459
 21
308.3597806730736
 31
0.0
 11
46.60266138810103
 21
308.5675137343342
 31
0.0
 11
46.85403519525552
 21
308.7628108925501
 31
0.0
 11
47.11476447354744
 21
308.9456051981687
 31
0.0
 11
47.66029811775727
 21
309.2711392616284
 31
0.0
 11
48.23520793787598
 21
309.5421389292503
 31
0.0
 11
48.83315412562285
 21
309.7555617889665
 31
0.0
 11
49.44894665784634
 21
309.9098037131799
 31
0.0
 11
50.07887893982398
 21
310.0036116481685
 31
0.0
 11
50.71498206156164
 21
310.0356135732507
 31
0.0
 11
51.35264302058037
 21
310.0052493034991
 31
0.0
 11
51.98426055349093
 21
309.9127205939886
 31
0.0
 11
52.60483342561582
 21
309.758420237366
 31
0.0
 11
53.20733423276963
 21
309.5439015219779
 31
0.0
 11
53.78764142915078
 21
309.2701231828919
 31
0.0
 11
54.3378664171988
 21
308.9406310639383
 31
0.0
 11
54.60047372134626
 21
308.7555542882895
 31
0.0
 11
54.85349417873811
 21
308.5577407721623
 31
0.0
 11
55.09634248010243
 21
308.3476882925672
 31
0.0
 11
55.32854491550946
 21
308.1257800749906
 31
0.0
 11
55.75746097324119
 21
307.6500798571967
 31
0.0
 11
56.13757163189664
 21
307.1340865437827
 31
0.0
 11
56.46301077758685
 21
306.5863826043962
 31
0.0
 11
56.7330916357117
 21
306.0097656458025
 31
0.0
 11
56.84618208091873
 21
305.7133771261491
 31
0.0
 11
56.94462618428255
 21
305.4119291800772
 31
0.0
 11
57.02810898966769
 21
305.1065974455689
 31
0.0
 11
57.09665841310349
 21
304.7974000720121
 31
0.0
 11
57.18808549098777
 21
304.1730850939118
 31
0.0
 11
57.2186777031
 21
303.543228032
 31
0.0
  0
SPLINE
  5
F8
330
1F
100
AcDbEntity
  8
0
  6
Continuous
 62
     7
100
AcDbSpline
210
0.0
220
0.0
230
1.0
 70
     8
 71
     3
 72
    19
 73
    15
 74
    13
 42
0.0000000001
 43
0.0000000001
 44
0.00000001
 40
0.0
 40
0.0
 40
0.0
 40
0.0
 40
0.1162460235998981
 40
0.2327881718696369
 40
0.3491890046827052
 40
0.4655468551492081
 40
0.5819071370637426
 40
0.6982738489799005
 40
0.8146206073255078
 40
0.9309998278619736
 40
1.163276323476417
 40
1.396138921803558
 40
1.629013178124468
 40
1.861351539808314
 40
1.861351539808314
 40
1.861351539808314
 40
1.861351539808314
 10
84.8442518737
 20
270.0208474677
 30
0.0
 10
84.80546780284983
 20
270.0190065208041
 30
0.0
 10
84.72780086275779
 20
270.0153199373914
 30
0.0
 10
84.61419077766749
 20
269.9869144523936
 30
0.0
 10
84.50600308969624
 20
269.9430605381773
 30
0.0
 10
84.4050272237256
 20
269.8844638499495
 30
0.0
 10
84.31225876700171
 20
269.8137789886217
 30
0.0
 10
84.22817138801838
 20
269.7330213835359
 30
0.0
 10
84.15286774464484
 20
269.6440537447954
 30
0.0
 10
84.06421650047976
 20
269.516694297056
 30
0.0
 10
83.97421975473866
 20
269.3439089189897
 30
0.0
 10
83.89932623558732
 20
269.1229839288058
 30
0.0
 10
83.85278931031255
 20
268.8939640091963
 30
0.0
 10
83.8470954996045
 20
268.7387846163475
 30
0.0
 10
83.8442518737
 20
268.6612842982
 30
0.0
 11
84.8442518737
 21
270.0208474677
 31
0.0
 11
84.72838052212145
 21
270.0115218102889
 31
0.0
 11
84.61505599738653
 21
269.9843257735017
 31
0.0
 11
84.50718286475552
 21
269.9405931639758
 31
0.0
 11
84.4063941252422
 21
269.8824486943118
 31
0.0
 11
84.31370682019465
 21
269.8121011379204
 31
0.0
 11
84.22963145456917
 21
269.7316490121739
 31
0.0
 11
84.1543326966375
 21
269.6429547889603
 31
0.0
 11
84.08770596732221
 21
269.5475346552702
 31
0.0
 11
83.97981618121679
 21
269.3418354465477
 31
0.0
 11
83.9040580443869
 21
269.1216407726709
 31
0.0
 11
83.85909803061718
 21
268.8931478484504
 31
0.0
 11
83.8442518737
 21
268.6612842982
 31
0.0
  0
SPLINE
  5
F9
330
1F
100
AcDbEntity
  8
0
  6
Continuous
 62
     7
100
AcDbSpline
210
0.0
220
0.0
230
1.0
 70
     8
 71
     3
 72
    19
 73
    15
 74
    13
 42
0.0000000001
 43
0.0000000001
 44
0.00000001
 40
0.0
 40
0.0
 40
0.0
 40
0.0
 40
0.2323383481417181
 40
0.4652125957589816
 40
0.6980761133201774
 40
0.9303535187532631
 40
1.046733461818865
 40
1.163080940899834
 40
1.279447997489423
 40
1.395808629606305
 40
1.512165904568259
 40
1.628566140383521
 40
1.745106920562039
 40
1.861351602822978
 40
1.861351602822978
 40
1.861351602822978
 40
1.861351602822978
 10
87.5942518737
 20
268.6612842982
 30
0.0
 10
87.59140824809414
 20
268.7387846118675
 30
0.0
 10
87.58571443792437
 20
268.8939639973702
 30
0.0
 10
87.53917746207615
 20
269.1229842114026
 30
0.0
 10
87.46428371626921
 20
269.343909773283
 30
0.0
 10
87.37428641200545
 20
269.5166958374751
 30
0.0
 10
87.28563447423063
 20
269.644055763211
 30
0.0
 10
87.21033020988614
 20
269.733023662146
 30
0.0
 10
87.1262422360475
 20
269.8137813321075
 30
0.0
 10
87.03347350220594
 20
269.8844658984823
 30
0.0
 10
86.93249768997748
 20
269.9430621226628
 30
0.0
 10
86.82431064048748
 20
269.9869153738251
 30
0.0
 10
86.71070153114778
 20
270.0153201332728
 30
0.0
 10
86.63303549636112
 20
270.0190065859195
 30
0.0
 10
86.5942518737
 20
270.0208474677
 30
0.0
 11
87.5942518737
 21
268.6612842982
 31
0.0
 11
87.57940571957973
 21
268.8931478350596
 31
0.0
 11
87.5344457179736
 21
269.121640752803
 31
0.0
 11
87.45868723925624
 21
269.3418362811713
 31
0.0
 11
87.35079682807357
 21
269.5475361894104
 31
0.0
 11
87.2841695042501
 21
269.6429567892202
 31
0.0
 11
87.20887004769341
 21
269.7316513647633
 31
0.0
 11
87.12479418134265
 21
269.8121034657719
 31
0.0
 11
87.03210635535612
 21
269.8824509150542
 31
0.0
 11
86.93131792047028
 21
269.9405947610728
 31
0.0
 11
86.82344519170996
 21
269.9843267778072
 31
0.0
 11
86.71012190317064
 21
270.011522103127
 31
0.0
 11
86.5942518737
 21
270.0208474677
 31
0.0
  0
SPLINE
  5
FA
330
1F
100
AcDbEntity
  8
BEZUGSACHSEN
  6
Continuous
 62
     7
100
AcDbSpline
210
0.0
220
0.0
230
1.0
 70
     8
 71
     3
 72
    11
 73
     7
 74
     5
 42
0.0000000001
 43
0.0000000001
 44
0.00000001
 40
0.0
 40
0.0
 40
0.0
 40
0.0
 40
0.5462907431026983
 40
1.09300086363543
 40
1.646070107182772
 40
2.198197048697446
 40
2.198197048697446
 40
2.198197048697446
 40
2.198197048697446
 10
25.2730978206
 20
318.5532280514
 30
0.0
 10
25.33616862243117
 20
318.382296422163
 30
0.0
 10
25.46235864439661
 20
318.0403019425977
 30
0.0
 10
25.60199595743413
 20
317.5090278133777
 30
0.0
 10
25.69948432150484
 20
316.9656034084325
 30
0.0
 10
25.71266643603867
 20
316.5970187678814
 30
0.0
 10
25.7192518737
 20
316.4128835772
 30
0.0
 11
25.2730978206
 21
318.5532280514
 31
0.0
 11
25.45394915314478
 21
318.0377415127625
 31
0.0
 11
25.59444063785225
 21
317.5093911568266
 31
0.0
 11
25.68650729112967
 21
316.964038684097
 31
0.0
 11
25.7192518737
 21
316.4128835772
 31
0.0
  0
SPLINE
  5
FB
330
1F
100
AcDbEntity
  8
BEZUGSACHSEN
  6
Continuous
 62
     7
100
AcDbSpline
210
0.0
220
0.0
230
1.0
 70
     8
 71
     3
 72
    19
 73
    15
 74
    13
 42
0.0000000001
 43
0.0000000001
 44
0.00000001
 40
0.0
 40
0.0
 40
0.0
 40
0.0
 40
0.1462385987758719
 40
0.292747927463767
 40
0.436479070571854
 40
0.5801659235749943
 40
0.7203799972240088
 40
0.8606059382358185
 40
0.9980411883792293
 40
1.135484020429019
 40
1.405415631089028
 40
1.67581551407695
 40
1.943997429497062
 40
2.211934834747261
 40
2.211934834747261
 40
2.211934834747261
 40
2.211934834747261
 10
23.7192518737
 20
319.9018756388
 30
0.0
 10
23.76796667903759
 20
319.9051837161466
 30
0.0
 10
23.86548647489693
 20
319.9118059950469
 30
0.0
 10
24.01082273519513
 20
319.8954466822881
 30
0.0
 10
24.15147967229946
 20
319.8602749162195
 30
0.0
 10
24.28433180573777
 20
319.8074692295882
 30
0.0
 10
24.40878626880269
 20
319.7397974418409
 30
0.0
 10
24.52358882597941
 20
319.6604972404351
 30
0.0
 10
24.62969876377056
 20
319.5714126008457
 30
0.0
 10
24.75880122895517
 20
319.4434650652722
 30
0.0
 10
24.90184107885313
 20
319.2676627763661
 30
0.0
 10
25.04674868053817
 20
319.039977310482
 30
0.0
 10
25.17138542892365
 20
318.8013146909852
 30
0.0
 10
25.23920400014056
 20
318.6358984505706
 30
0.0
 10
25.2730978206
 20
318.5532280514
 30
0.0
 11
23.7192518737
 21
319.9018756388
 31
0.0
 11
23.8653857355169
 21
319.9074093719349
 31
0.0
 11
24.01109509634854
 21
319.892119978271
 31
0.0
 11
24.1505251778743
 21
319.8572216421376
 31
0.0
 11
24.28415751478507
 21
319.8044171891273
 31
0.0
 11
24.40747130560405
 21
319.7376811760377
 31
0.0
 11
24.52300241694306
 21
319.6582086849139
 31
0.0
 11
24.62841496673163
 21
319.5700234121692
 31
0.0
 11
24.72620347042782
 21
319.4734421478022
 31
0.0
 11
24.89745186631453
 21
319.2647867828107
 31
0.0
 11
25.04379428682715
 21
319.0374104588929
 31
0.0
 11
25.16766191259963
 21
318.7995484168519
 31
0.0
 11
25.2730978206
 21
318.5532280514
 31
0.0
  0
SPLINE
  5
FC
330
1F
100
AcDbEntity
  8
BEZUGSACHSEN
  6
Continuous
 62
     7
100
AcDbSpline
210
0.0
220
0.0
230
1.0
 70
     8
 71
     3
 72
    47
 73
    43
 74
    41
 42
0.0000000001
 43
0.0000000001
 44
0.00000001
 40
0.0
 40
0.0
 40
0.0
 40
0.0
 40
0.6302393214487667
 40
1.260854867304401
 40
1.577476088397275
 40
1.89393080023821
 40
2.210999113888025
 40
2.528183472222365
 40
3.164887038235095
 40
3.801951183363279
 40
4.442851001607115
 40
5.083381259788625
 40
5.404527292296772
 40
5.725573838730551
 40
6.046670710010255
 40
6.367871027147906
 40
7.009090242543793
 40
7.650619763939056
 40
8.290330346460275
 40
8.929958764446477
 40
9.568647011335747
 40
10.20735923014021
 40
10.84445705815714
 40
11.48152626494264
 40
12.11643462220141
 40
12.75141965576858
 40
13.386919087352
 40
14.02211738527453
 40
14.34050449137882
 40
14.6587915378634
 40
14.97761586863957
 40
15.29653774942445
 40
15.93537694101709
 40
16.57458694069268
 40
17.21386274993155
 40
17.85277859075075
 40
18.17219860083535
 40
18.49150024077393
 40
18.81067156636109
 40
19.13001452421563
 40
19.76719627023765
 40
20.40398968273909
 40
20.40398968273909
 40
20.40398968273909
 40
20.40398968273909
 10
57.2186655115
 20
303.5432280701
 30
0.0
 10
57.21279630972985
 20
303.3330720482152
 30
0.0
 10
57.20105440254121
 20
302.9126345507932
 30
0.0
 10
57.12160766002518
 20
302.3914711085353
 30
0.0
 10
57.03087615493263
 20
301.9800796411079
 30
0.0
 10
56.94727077261386
 20
301.6744418008071
 30
0.0
 10
56.84891883123843
 20
301.3730579546122
 30
0.0
 10
56.69790002039145
 20
300.9770847750249
 30
0.0
 10
56.47261743281619
 20
300.4959779663492
 30
0.0
 10
56.14623939808611
 20
299.9463437413471
 30
0.0
 10
55.76637233604291
 20
299.4306158786804
 30
0.0
 10
55.40811789674454
 20
299.0330904764759
 30
0.0
 10
55.09893715905706
 20
298.737537121561
 30
0.0
 10
54.85601220302078
 20
298.5273522131407
 30
0.0
 10
54.60296329969901
 20
298.3294427488113
 30
0.0
 10
54.2531807912443
 20
298.0828193973166
 30
0.0
 10
53.79369555349356
 20
297.8076127880222
 30
0.0
 10
53.2132998465323
 20
297.5335726813195
 30
0.0
 10
52.6091455386964
 20
297.3183842039982
 30
0.0
 10
51.98773039128993
 20
297.1637223649831
 30
0.0
 10
51.35446117985228
 20
297.0709119919274
 30
0.0
 10
50.71600171541138
 20
297.0404012420818
 30
0.0
 10
50.07816870185495
 20
297.0725029844511
 30
0.0
 10
49.44773871486203
 20
297.1663160468276
 30
0.0
 10
48.83016504536496
 20
297.3210298631168
 30
0.0
 10
48.23102163393329
 20
297.5348264351899
 30
0.0
 10
47.65556441247556
 20
297.8061478036419
 30
0.0
 10
47.19987901953913
 20
298.0779926872902
 30
0.0
 10
46.85262312181821
 20
298.3214532398902
 30
0.0
 10
46.60100354052696
 20
298.5169357662146
 30
0.0
 10
46.35912849023946
 20
298.7246288248994
 30
0.0
 10
46.05019220652146
 20
299.0174663730231
 30
0.0
 10
45.69134944961125
 20
299.4119240219753
 30
0.0
 10
45.3091225443699
 20
299.9254086879469
 30
0.0
 10
44.97949809910626
 20
300.4741764666626
 30
0.0
 10
44.75101065320278
 20
300.956239883159
 30
0.0
 10
44.5975091532824
 20
301.3536494423411
 30
0.0
 10
44.4972523503869
 20
301.6569318056347
 30
0.0
 10
44.41193585747142
 20
301.964755677337
 30
0.0
 10
44.31917340210254
 20
302.3797965444396
 30
0.0
 10
44.23788103515547
 20
302.9060693434954
 30
0.0
 10
44.22584123559328
 20
303.3308849931798
 30
0.0
 10
44.2198231708
 20
303.5432280718
 30
0.0
 11
57.2186655115
 21
303.5432280701
 31
0.0
 11
57.18812593272318
 21
302.9137291134461
 31
0.0
 11
57.09679465720759
 21
302.2897623156215
 31
0.0
 11
57.02829991850217
 21
301.9806386050847
 31
0.0
 11
56.94488109364124
 21
301.6753766121915
 31
0.0
 11
56.84649434979201
 21
301.3739593529718
 31
0.0
 11
56.73346371869369
 21
301.0775980977351
 31
0.0
 11
56.46348358221297
 21
300.5009680977532
 31
0.0
 11
56.13814696038138
 21
299.9532393259116
 31
0.0
 11
55.75811046556787
 21
299.4371726251501
 31
0.0
 11
55.32925996787544
 21
298.961392988895
 31
0.0
 11
55.09712283349955
 21
298.7394760561488
 31
0.0
 11
54.85434034016237
 21
298.5294104808966
 31
0.0
 11
54.60141073186403
 21
298.3315979080109
 31
0.0
 11
54.33889633602968
 21
298.1465145870199
 31
0.0
 11
53.78883815443087
 21
297.816972360516
 31
0.0
 11
53.20869732277988
 21
297.5431170295967
 31
0.0
 11
52.60609201248833
 21
297.3284161460446
 31
0.0
 11
51.98539274216704
 21
297.1739592623581
 31
0.0
 11
51.35346392824465
 21
297.0812842881248
 31
0.0
 11
50.71547780106347
 21
297.0508376138486
 31
0.0
 11
50.0791828129386
 21
297.0828115180685
 31
0.0
 11
49.44905953883093
 21
297.1766296062079
 31
0.0
 11
48.83317563058948
 21
297.3308879404601
 31
0.0
 11
48.23514316077051
 21
297.5443432235911
 31
0.0
 11
47.66030741222795
 21
297.8153107303891
 31
0.0
 11
47.11484072471566
 21
298.1407995481664
 31
0.0
 11
46.85413843196586
 21
298.3235689763771
 31
0.0
 11
46.60278918017217
 21
298.5188385274664
 31
0.0
 11
46.36090588180807
 21
298.7265436643008
 31
0.0
 11
46.1294500504808
 21
298.9459505105658
 31
0.0
 11
45.69952701957138
 21
299.4184774412358
 31
0.0
 11
45.3179058801094
 21
299.9312685581645
 31
0.0
 11
44.98867440593453
 21
300.4792468393862
 31
0.0
 11
44.71506009881965
 21
301.0566103839504
 31
0.0
 11
44.59996784638835
 21
301.3545750064691
 31
0.0
 11
44.49972815798699
 21
301.6577342750668
 31
0.0
 11
44.41456107777929
 21
301.9653328828757
 31
0.0
 11
44.34459805029739
 21
302.276917702013
 31
0.0
 11
44.25110915330441
 21
302.9072036717146
 31
0.0
 11
44.2198231708
 21
303.5432280718
 31
0.0
  0
SPLINE
  5
FD
330
1F
100
AcDbEntity
  8
BEZUGSACHSEN
  6
Continuous
 62
     7
100
AcDbSpline
210
0.0
220
0.0
230
1.0
 70
     8
 71
     3
 72
    11
 73
     7
 74
     5
 42
0.0000000001
 43
0.0000000001
 44
0.00000001
 40
0.0
 40
0.0
 40
0.0
 40
0.0
 40
0.5521269407038276
 40
1.105196183343522
 40
1.651906304711278
 40
2.198197048713002
 40
2.198197048713002
 40
2.198197048713002
 40
2.198197048713002
 10
25.7192518737
 20
290.6735725256
 30
0.0
 10
25.71266643607205
 20
290.4894373351891
 30
0.0
 10
25.69948432160618
 20
290.1208526952112
 30
0.0
 10
25.60199595779196
 20
289.5774282905221
 30
0.0
 10
25.46235864469715
 20
289.0461541610266
 30
0.0
 10
25.33616862253381
 20
288.7041596809186
 30
0.0
 10
25.2730978206
 20
288.5332280514
 30
0.0
 11
25.7192518737
 21
290.6735725256
 31
0.0
 11
25.68650729127004
 21
290.1224174195069
 31
0.0
 11
25.59444063830456
 21
289.5770649476451
 31
0.0
 11
25.4539491534369
 21
289.0487145908878
 31
0.0
 11
25.2730978206
 21
288.5332280514
 31
0.0
  0
SPLINE
  5
FE
330
1F
100
AcDbEntity
  8
BEZUGSACHSEN
  6
Continuous
 62
     7
100
AcDbSpline
210
0.0
220
0.0
230
1.0
 70
     8
 71
     3
 72
    11
 73
     7
 74
     5
 42
0.0000000001
 43
0.0000000001
 44
0.00000001
 40
0.0
 40
0.0
 40
0.0
 40
0.0
 40
0.9140556660003332
 40
1.828030949185877
 40
2.279806974871062
 40
2.730944124762504
 40
2.730944124762504
 40
2.730944124762504
 40
2.730944124762504
 10
16.9862048005854
 20
288.533228051585
 30
0.0
 10
17.11885950754878
 20
288.8079446492516
 30
0.0
 10
17.38415725571036
 20
289.3573536857789
 30
0.0
 10
17.59951246902298
 20
290.0900646068836
 30
0.0
 10
17.7032066826854
 20
290.6880098129898
 30
0.0
 10
17.71390600020649
 20
290.9891330284165
 30
0.0
 10
17.7192518737
 20
291.139588103
 30
0.0
 11
16.9862048005854
 21
288.533228051585
 31
0.0
 11
17.36101233036086
 21
289.3669048931555
 31
0.0
 11
17.62030369075873
 21
290.243328768171
 31
0.0
 11
17.69302066425736
 21
290.6892142009327
 31
0.0
 11
17.7192518737
 21
291.139588103
 31
0.0
  0
SPLINE
  5
FF
330
1F
100
AcDbEntity
  8
BEZUGSACHSEN
  6
Continuous
 62
     7
100
AcDbSpline
210
0.0
220
0.0
230
1.0
 70
     8
 71
     3
 72
    11
 73
     7
 74
     5
 42
0.0000000001
 43
0.0000000001
 44
0.00000001
 40
0.0
 40
0.0
 40
0.0
 40
0.0
 40
0.8249192366724719
 40
1.650116891930984
 40
2.190492152293431
 40
2.730585915378207
 40
2.730585915378207
 40
2.730585915378207
 40
2.730585915378207
 10
17.7192518737
 20
315.9468679998
 30
0.0
 10
17.70151856936183
 20
316.2220582917769
 30
0.0
 10
17.6660459755159
 20
316.7725317552377
 30
0.0
 10
17.45761115888048
 20
317.4772653403907
 30
0.0
 10
17.22738472790081
 20
318.0694790654708
 30
0.0
 10
17.06658414509882
 20
318.392006398916
 30
0.0
 10
16.9862048005854
 20
318.553228051215
 30
0.0
 11
17.7192518737
 21
315.9468679998
 31
0.0
 11
17.6356764195843
 21
316.767542655496
 31
0.0
 11
17.41771497747252
 21
317.5634345953953
 31
0.0
 11
17.21977989891333
 21
318.0662537743131
 31
0.0
 11
16.9862048005854
 21
318.553228051215
 31
0.0
  0
DIMENSION
  5
10A
330
1F
100
AcDbEntity
  8
1
100
AcDbDimension
  2
*D2
 10
277.902233335564
 20
312.5432280514
 30
0.0
 11
274.152233335564
 21
303.826717780737
 31
0.0
 70
    32
  1
<>
 71
     5
 42
-1.0
 53
90.0
  3
ME10_DIM_10
100
AcDbAlignedDimension
 13
265.7192518737
 23
294.5432280514
 33
0.0
 14
265.7192518737
 24
312.5432280514
 34
0.0
 50
90.0
100
AcDbRotatedDimension
  0
DIMENSION
  5
115
330
1F
100
AcDbEntity
  8
1
100
AcDbDimension
  2
*D3
 10
286.524015878089
 20
320.0432280514528
 30
0.0
 11
282.774015878089
 21
303.999153431588
 31
0.0
 70
    32
  1
<>
 71
     5
 42
-1.0
 53
90.0
  3
ME10_DIM_11
100
AcDbAlignedDimension
 13
265.7192518737
 23
287.0432280513559
 33
0.0
 14
265.7192518737094
 24
320.0432280514528
 34
0.0
 50
90.0
100
AcDbRotatedDimension
  0
DIMENSION
  5
120
330
1F
100
AcDbEntity
  8
1
100
AcDbDimension
  2
*D4
 10
295.490669722316
 20
324.5432280514
 30
0.0
 11
291.740669722316
 21
304.344024733289
 31
0.0
 70
    32
  1
<>
 71
     5
 42
-1.0
 53
90.0
  3
ME10_DIM_12
100
AcDbAlignedDimension
 13
208.5413305609
 23
282.5432280514
 33
0.0
 14
208.5413305609
 24
324.5432280514
 34
0.0
 50
90.0
100
AcDbRotatedDimension
  0
DIMENSION
  5
12B
330
1F
100
AcDbEntity
  8
1
100
AcDbDimension
  2
*D5
 10
265.7192518737
 20
362.282403419061
 30
0.0
 11
183.235061018633
 21
366.032403419061
 31
0.0
 70
    32
  1
<>
 71
     5
 42
-1.0
 53
0.00013888888889
  3
ME10_DIM_13
100
AcDbAlignedDimension
 13
94.7192518737
 23
353.5431911303
 33
0.0
 14
265.7192518737
 24
319.1188375597
 34
0.0
100
AcDbRotatedDimension
  0
DIMENSION
  5
136
330
1F
100
AcDbEntity
  8
1
100
AcDbDimension
  2
*D6
 10
265.7192518737
 20
369.179829453081
 30
0.0
 11
160.990862058917
 21
372.929829453081
 31
0.0
 70
    32
  1
<>
 71
     5
 42
-1.0
 53
0.00013888888889
  3
ME10_DIM_14
100
AcDbAlignedDimension
 13
65.7192518737
 23
353.5432280514
 33
0.0
 14
265.7192518737
 24
319.1188375597
 34
0.0
100
AcDbRotatedDimension
  0
DIMENSION
  5
141
330
1F
100
AcDbEntity
  8
1
100
AcDbDimension
  2
*D7
 10
265.7192518737
 20
376.766998090504
 30
0.0
 11
148.74793084853
 21
380.516998090504
 31
0.0
 70
    32
  1
<>
 71
     5
 42
-1.0
 53
0.00013888888889
  3
ME10_DIM_15
100
AcDbAlignedDimension
 13
15.7192518737
 23
337.143419614
 33
0.0
 14
265.7192518737
 24
319.1188375597
 34
0.0
100
AcDbRotatedDimension
  0
INSERT
  5
148
330
1F
100
AcDbEntity
  8
1
100
AcDbBlockReference
  2
*D8
 10
0.0
 20
0.0
 30
0.0
  0
DIMENSION
  5
153
330
1F
100
AcDbEntity
  8
1
100
AcDbDimension
  2
*D9
 10
243.349055853681
 20
323.1756287999605
 30
0.0
 11
246.4053276238502
 21
331.9653339104032
 31
0.0
 70
    37
  1
<>
 71
     5
 42
-1.0
  3
ME10_DIM_16
100
AcDb3PointAngularDimension
 13
243.2685286642942
 23
321.8101382874411
 33
0.0
 14
212.0247887101682
 24
324.5432280514
 34
0.0
 15
208.5413305609001
 25
324.5432280514
 35
0.0
  0
ENDSEC
  0
SECTION
  2
OBJECTS
  0
DICTIONARY
  5
C
330
0
100
AcDbDictionary
281
     1
  3
ACAD_GROUP
350
D
  3
ACAD_LAYOUT
350
1A
  3
ACAD_MLEADERSTYLE
350
156
  3
ACAD_MLINESTYLE
350
17
  3
ACAD_PLOTSETTINGS
350
19
  3
ACAD_PLOTSTYLENAME
350
E
  3
ACAD_SCALELIST
350
4A
  3
ACAD_VISUALSTYLE
350
2A
  3
AcDbVariableDictionary
350
154
  0
DICTIONARY
  5
D
102
{ACAD_REACTORS
330
C
102
}
330
C
100
AcDbDictionary
281
     1
  0
DICTIONARY
  5
1A
102
{ACAD_REACTORS
330
C
102
}
330
C
100
AcDbDictionary
281
     1
  3
Layout1
350
1E
  3
Layout2
350
26
  3
Model
350
22
  0
DICTIONARY
  5
156
102
{ACAD_REACTORS
330
C
102
}
330
C
100
AcDbDictionary
281
     1
  0
DICTIONARY
  5
17
102
{ACAD_REACTORS
330
C
102
}
330
C
100
AcDbDictionary
281
     1
  3
Standard
350
18
  0
DICTIONARY
  5
19
102
{ACAD_REACTORS
330
C
102
}
330
C
100
AcDbDictionary
281
     1
  0
ACDBDICTIONARYWDFLT
  5
E
102
{ACAD_REACTORS
330
C
102
}
330
C
100
AcDbDictionary
281
     1
  3
Normal
350
F
100
AcDbDictionaryWithDefault
340
F
  0
DICTIONARY
  5
4A
102
{ACAD_REACTORS
330
C
102
}
330
C
100
AcDbDictionary
281
     1
  3
A0
350
4B
  3
A1
350
4C
  3
A2
350
4D
  3
A3
350
4E
  3
A4
350
4F
  3
A5
350
50
  3
A6
350
51
  3
A7
350
52
  3
A8
350
53
  3
A9
350
54
  3
B0
350
55
  3
B1
350
56
  3
B2
350
57
  3
B3
350
58
  3
B4
350
59
  3
B5
350
5A
  3
B6
350
5B
  3
B7
350
5C
  3
B8
350
5D
  3
B9
350
5E
  3
C0
350
5F
  3
C1
350
60
  3
C2
350
61
  3
C3
350
62
  3
C4
350
63
  3
C5
350
64
  3
C6
350
65
  3
C7
350
66
  3
C8
350
67
  3
C9
350
68
  3
D0
350
69
  3
D1
350
6A
  3
D2
350
6B
  0
DICTIONARY
  5
2A
102
{ACAD_REACTORS
330
C
102
}
330
C
100
AcDbDictionary
281
     1
  3
2dWireframe
350
2F
  3
3D Hidden
350
31
  3
3dWireframe
350
30
  3
Basic
350
32
  3
Brighten
350
36
  3
ColorChange
350
3A
  3
Conceptual
350
34
  3
Dim
350
35
  3
Facepattern
350
39
  3
Flat
350
2B
  3
FlatWithEdges
350
2C
  3
Gouraud
350
2D
  3
GouraudWithEdges
350
2E
  3
Linepattern
350
38
  3
Realistic
350
33
  3
Thicken
350
37
  0
DICTIONARY
  5
154
102
{ACAD_REACTORS
330
C
102
}
330
C
100
AcDbDictionary
281
     1
  3
CANNOSCALE
350
157
  0
LAYOUT
  5
1E
102
{ACAD_REACTORS
330
1A
102
}
330
1A
100
AcDbPlotSettings
  1

  2
none_device
  4

  6

 40
0.0
 41
0.0
 42
0.0
 43
0.0
 44
0.0
 45
0.0
 46
0.0
 47
0.0
 48
0.0
 49
0.0
140
0.0
141
0.0
142
1.0
143
1.0
 70
   688
 72
     0
 73
     0
 74
     5
  7

 75
    16
147
1.0
148
0.0
149
0.0
100
AcDbLayout
  1
Layout1
 70
     1
 71
     1
 10
0.0
 20
0.0
 11
12.0
 21
9.0
 12
0.0
 22
0.0
 32
0.0
 14
1.00000000000000E+20
 24
1.00000000000000E+20
 34
1.00000000000000E+20
 15
-1.00000000000000E+20
 25
-1.00000000000000E+20
 35
-1.00000000000000E+20
146
0.0
 13
0.0
 23
0.0
 33
0.0
 16
1.0
 26
0.0
 36
0.0
 17
0.0
 27
1.0
 37
0.0
 76
     0
330
1B
  0
LAYOUT
  5
26
102
{ACAD_REACTORS
330
1A
102
}
330
1A
100
AcDbPlotSettings
  1

  2
none_device
  4

  6

 40
0.0
 41
0.0
 42
0.0
 43
0.0
 44
0.0
 45
0.0
 46
0.0
 47
0.0
 48
0.0
 49
0.0
140
0.0
141
0.0
142
1.0
143
1.0
 70
   688
 72
     0
 73
     0
 74
     5
  7

 75
    16
147
1.0
148
0.0
149
0.0
100
AcDbLayout
  1
Layout2
 70
     1
 71
     2
 10
0.0
 20
0.0
 11
0.0
 21
0.0
 12
0.0
 22
0.0
 32
0.0
 14
0.0
 24
0.0
 34
0.0
 15
0.0
 25
0.0
 35
0.0
146
0.0
 13
0.0
 23
0.0
 33
0.0
 16
1.0
 26
0.0
 36
0.0
 17
0.0
 27
1.0
 37
0.0
 76
     0
330
23
  0
LAYOUT
  5
22
102
{ACAD_REACTORS
330
1A
102
}
330
1A
100
AcDbPlotSettings
  1

  2
none_device
  4

  6

 40
0.0
 41
0.0
 42
0.0
 43
0.0
 44
0.0
 45
0.0
 46
0.0
 47
0.0
 48
0.0
 49
0.0
140
0.0
141
0.0
142
1.0
143
1.0
 70
  1712
 72
     0
 73
     0
 74
     0
  7

 75
     0
147
1.0
148
0.0
149
0.0
100
AcDbLayout
  1
Model
 70
     1
 71
     0
 10
0.0
 20
0.0
 11
12.0
 21
9.0
 12
0.0
 22
0.0
 32
0.0
 14
-6.99417415059054
 24
253.5432280514
 34
0.0
 15
297.490669722316
 25
382.266998090504
 35
0.0
146
0.0
 13
0.0
 23
0.0
 33
0.0
 16
1.0
 26
0.0
 36
0.0
 17
0.0
 27
1.0
 37
0.0
 76
     0
330
1F
331
29
  0
MLINESTYLE
  5
18
102
{ACAD_REACTORS
330
17
102
}
330
17
100
AcDbMlineStyle
  2
Standard
 70
     0
  3

 62
   256
 51
90.0
 52
90.0
 71
     2
 49
0.5
 62
   256
  6
BYLAYER
 49
-0.5
 62
   256
  6
BYLAYER
  0
ACDBPLACEHOLDER
  5
F
102
{ACAD_REACTORS
330
E
102
}
330
E
  0
SCALE
  5
4B
102
{ACAD_REACTORS
330
4A
102
}
330
4A
100
AcDbScale
 70
     0
300
1:1
140
1.0
141
1.0
290
     1
  0
SCALE
  5
4C
102
{ACAD_REACTORS
330
4A
102
}
330
4A
100
AcDbScale
 70
     0
300
1:2
140
1.0
141
2.0
290
     0
  0
SCALE
  5
4D
102
{ACAD_REACTORS
330
4A
102
}
330
4A
100
AcDbScale
 70
     0
300
1:4
140
1.0
141
4.0
290
     0
  0
SCALE
  5
4E
102
{ACAD_REACTORS
330
4A
102
}
330
4A
100
AcDbScale
 70
     0
300
1:5
140
1.0
141
5.0
290
     0
  0
SCALE
  5
4F
102
{ACAD_REACTORS
330
4A
102
}
330
4A
100
AcDbScale
 70
     0
300
1:8
140
1.0
141
8.0
290
     0
  0
SCALE
  5
50
102
{ACAD_REACTORS
330
4A
102
}
330
4A
100
AcDbScale
 70
     0
300
1:10
140
1.0
141
10.0
290
     0
  0
SCALE
  5
51
102
{ACAD_REACTORS
330
4A
102
}
330
4A
100
AcDbScale
 70
     0
300
1:16
140
1.0
141
16.0
290
     0
  0
SCALE
  5
52
102
{ACAD_REACTORS
330
4A
102
}
330
4A
100
AcDbScale
 70
     0
300
1:20
140
1.0
141
20.0
290
     0
  0
SCALE
  5
53
102
{ACAD_REACTORS
330
4A
102
}
330
4A
100
AcDbScale
 70
     0
300
1:30
140
1.0
141
30.0
290
     0
  0
SCALE
  5
54
102
{ACAD_REACTORS
330
4A
102
}
330
4A
100
AcDbScale
 70
     0
300
1:40
140
1.0
141
40.0
290
     0
  0
SCALE
  5
55
102
{ACAD_REACTORS
330
4A
102
}
330
4A
100
AcDbScale
 70
     0
300
1:50
140
1.0
141
50.0
290
     0
  0
SCALE
  5
56
102
{ACAD_REACTORS
330
4A
102
}
330
4A
100
AcDbScale
 70
     0
300
1:100
140
1.0
141
100.0
290
     0
  0
SCALE
  5
57
102
{ACAD_REACTORS
330
4A
102
}
330
4A
100
AcDbScale
 70
     0
300
2:1
140
2.0
141
1.0
290
     0
  0
SCALE
  5
58
102
{ACAD_REACTORS
330
4A
102
}
330
4A
100
AcDbScale
 70
     0
300
4:1
140
4.0
141
1.0
290
     0
  0
SCALE
  5
59
102
{ACAD_REACTORS
330
4A
102
}
330
4A
100
AcDbScale
 70
     0
300
8:1
140
8.0
141
1.0
290
     0
  0
SCALE
  5
5A
102
{ACAD_REACTORS
330
4A
102
}
330
4A
100
AcDbScale
 70
     0
300
10:1
140
10.0
141
1.0
290
     0
  0
SCALE
  5
5B
102
{ACAD_REACTORS
330
4A
102
}
330
4A
100
AcDbScale
 70
     0
300
100:1
140
100.0
141
1.0
290
     0
  0
SCALE
  5
5C
102
{ACAD_REACTORS
330
4A
102
}
330
4A
100
AcDbScale
 70
     0
300
1/128" = 1'-0"
140
0.0078125
141
12.0
290
     0
  0
SCALE
  5
5D
102
{ACAD_REACTORS
330
4A
102
}
330
4A
100
AcDbScale
 70
     0
300
1/64" = 1'-0"
140
0.015625
141
12.0
290
     0
  0
SCALE
  5
5E
102
{ACAD_REACTORS
330
4A
102
}
330
4A
100
AcDbScale
 70
     0
300
1/32" = 1'-0"
140
0.03125
141
12.0
290
     0
  0
SCALE
  5
5F
102
{ACAD_REACTORS
330
4A
102
}
330
4A
100
AcDbScale
 70
     0
300
1/16" = 1'-0"
140
0.0625
141
12.0
290
     0
  0
SCALE
  5
60
102
{ACAD_REACTORS
330
4A
102
}
330
4A
100
AcDbScale
 70
     0
300
3/32" = 1'-0"
140
0.09375
141
12.0
290
     0
  0
SCALE
  5
61
102
{ACAD_REACTORS
330
4A
102
}
330
4A
100
AcDbScale
 70
     0
300
1/8" = 1'-0"
140
0.125
141
12.0
290
     0
  0
SCALE
  5
62
102
{ACAD_REACTORS
330
4A
102
}
330
4A
100
AcDbScale
 70
     0
300
3/16" = 1'-0"
140
0.1875
141
12.0
290
     0
  0
SCALE
  5
63
102
{ACAD_REACTORS
330
4A
102
}
330
4A
100
AcDbScale
 70
     0
300
1/4" = 1'-0"
140
0.25
141
12.0
290
     0
  0
SCALE
  5
64
102
{ACAD_REACTORS
330
4A
102
}
330
4A
100
AcDbScale
 70
     0
300
3/8" = 1'-0"
140
0.375
141
12.0
290
     0
  0
SCALE
  5
65
102
{ACAD_REACTORS
330
4A
102
}
330
4A
100
AcDbScale
 70
     0
300
1/2" = 1'-0"
140
0.5
141
12.0
290
     0
  0
SCALE
  5
66
102
{ACAD_REACTORS
330
4A
102
}
330
4A
100
AcDbScale
 70
     0
300
3/4" = 1'-0"
140
0.75
141
12.0
290
     0
  0
SCALE
  5
67
102
{ACAD_REACTORS
330
4A
102
}
330
4A
100
AcDbScale
 70
     0
300
1" = 1'-0"
140
1.0
141
12.0
290
     0
  0
SCALE
  5
68
102
{ACAD_REACTORS
330
4A
102
}
330
4A
100
AcDbScale
 70
     0
300
1-1/2" = 1'-0"
140
1.5
141
12.0
290
     0
  0
SCALE
  5
69
102
{ACAD_REACTORS
330
4A
102
}
330
4A
100
AcDbScale
 70
     0
300
3" = 1'-0"
140
3.0
141
12.0
290
     0
  0
SCALE
  5
6A
102
{ACAD_REACTORS
330
4A
102
}
330
4A
100
AcDbScale
 70
     0
300
6" = 1'-0"
140
6.0
141
12.0
290
     0
  0
SCALE
  5
6B
102
{ACAD_REACTORS
330
4A
102
}
330
4A
100
AcDbScale
 70
     0
300
1'-0" = 1'-0"
140
12.0
141
12.0
290
     0
  0
VISUALSTYLE
  5
2F
102
{ACAD_REACTORS
330
2A
102
}
330
2A
100
AcDbVisualStyle
  2
2dWireframe
 70
     4
 71
     0
 72
     2
 73
     0
 90
        0
 40
-0.6
 41
-30.0
 62
     5
 63
     7
 74
     1
 91
        4
 64
     7
 65
   257
 75
     1
175
     1
 42
1.0
 92
        0
 66
   257
 43
1.0
 76
     1
 77
     6
 78
     2
 67
     7
 79
     5
170
     0
171
     0
290
     0
174
     0
 93
        1
 44
0.0
173
     0
291
     0
 45
0.0
1001
ACAD
1000
AcDbSavedByObjectVersion
1070
     0
  0
VISUALSTYLE
  5
31
102
{ACAD_REACTORS
330
2A
102
}
330
2A
100
AcDbVisualStyle
  2
3D Hidden
 70
     6
 71
     1
 72
     2
 73
     2
 90
        0
 40
-0.6
 41
-30.0
 62
     5
 63
     7
 74
     2
 91
        2
 64
     7
 65
   257
 75
     2
175
     1
 42
40.0
 92
        0
 66
   257
 43
1.0
 76
     1
 77
     6
 78
     2
 67
     7
 79
     3
170
     0
171
     0
290
     0
174
     0
 93
        1
 44
0.0
173
     0
291
     0
 45
0.0
1001
ACAD
1000
AcDbSavedByObjectVersion
1070
     0
  0
VISUALSTYLE
  5
30
102
{ACAD_REACTORS
330
2A
102
}
330
2A
100
AcDbVisualStyle
  2
3dWireframe
 70
     5
 71
     0
 72
     2
 73
     0
 90
        0
 40
-0.6
 41
-30.0
 62
     5
 63
     7
 74
     1
 91
        4
 64
     7
 65
   257
 75
     1
175
     1
 42
1.0
 92
        0
 66
   257
 43
1.0
 76
     1
 77
     6
 78
     2
 67
     7
 79
     5
170
     0
171
     0
290
     0
174
     0
 93
        1
 44
0.0
173
     0
291
     0
 45
0.0
1001
ACAD
1000
AcDbSavedByObjectVersion
1070
     0
  0
VISUALSTYLE
  5
32
102
{ACAD_REACTORS
330
2A
102
}
330
2A
100
AcDbVisualStyle
  2
Basic
 70
     7
 71
     1
 72
     0
 73
     1
 90
        0
 40
-0.6
 41
-30.0
 62
     5
 63
     7
 74
     0
 91
        4
 64
     7
 65
   257
 75
     1
175
     1
 42
1.0
 92
        8
 66
     7
 43
1.0
 76
     1
 77
     6
 78
     2
 67
     7
 79
     5
170
     0
171
     0
290
     0
174
     0
 93
        1
 44
0.0
173
     0
291
     1
 45
0.0
1001
ACAD
1000
AcDbSavedByObjectVersion
1070
     0
  0
VISUALSTYLE
  5
36
102
{ACAD_REACTORS
330
2A
102
}
330
2A
100
AcDbVisualStyle
  2
Brighten
 70
    12
 71
     2
 72
     2
 73
     0
 90
        0
 40
-0.6
 41
-30.0
 62
     5
 63
     7
 74
     1
 91
        4
 64
     7
 65
   257
 75
     1
175
     1
 42
1.0
 92
        8
 66
     7
 43
1.0
 76
     1
 77
     6
 78
     2
 67
     7
 79
     5
170
     0
171
     0
290
     0
174
     0
 93
        1
 44
50.0
173
     0
291
     1
 45
0.0
1001
ACAD
1000
AcDbSavedByObjectVersion
1070
     0
  0
VISUALSTYLE
  5
3A
102
{ACAD_REACTORS
330
2A
102
}
330
2A
100
AcDbVisualStyle
  2
ColorChange
 70
    16
 71
     2
 72
     2
 73
     3
 90
        0
 40
-0.6
 41
-30.0
 62
     5
 63
     8
 74
     1
 91
        4
 64
     7
 65
   257
 75
     1
175
     1
 42
1.0
 92
        8
 66
     8
 43
1.0
 76
     1
 77
     6
 78
     2
 67
     7
 79
     5
170
     0
171
     0
290
     0
174
     0
 93
        1
 44
0.0
173
     0
291
     1
 45
0.0
1001
ACAD
1000
AcDbSavedByObjectVersion
1070
     0
  0
VISUALSTYLE
  5
34
102
{ACAD_REACTORS
330
2A
102
}
330
2A
100
AcDbVisualStyle
  2
Conceptual
 70
     9
 71
     3
 72
     2
 73
     0
 90
        0
 40
-0.6
 41
-30.0
 62
     5
 63
     7
 74
     2
 91
        2
 64
     7
 65
   257
 75
     1
175
     1
 42
40.0
 92
        8
 66
     7
 43
1.0
 76
     1
 77
     6
 78
     2
 67
     7
 79
     3
170
     0
171
     0
290
     0
174
     0
 93
        1
 44
0.0
173
     0
291
     0
 45
0.0
1001
ACAD
1000
AcDbSavedByObjectVersion
1070
     0
  0
VISUALSTYLE
  5
35
102
{ACAD_REACTORS
330
2A
102
}
330
2A
100
AcDbVisualStyle
  2
Dim
 70
    11
 71
     2
 72
     2
 73
     0
 90
        0
 40
-0.6
 41
-30.0
 62
     5
 63
     7
 74
     1
 91
        4
 64
     7
 65
   257
 75
     1
175
     1
 42
1.0
 92
        8
 66
     7
 43
1.0
 76
     1
 77
     6
 78
     2
 67
     7
 79
     5
170
     0
171
     0
290
     0
174
     0
 93
        1
 44
-50.0
173
     0
291
     1
 45
0.0
1001
ACAD
1000
AcDbSavedByObjectVersion
1070
     0
  0
VISUALSTYLE
  5
39
102
{ACAD_REACTORS
330
2A
102
}
330
2A
100
AcDbVisualStyle
  2
Facepattern
 70
    15
 71
     2
 72
     2
 73
     0
 90
        0
 40
-0.6
 41
-30.0
 62
     5
 63
     7
 74
     1
 91
        4
 64
     7
 65
   257
 75
     1
175
     1
 42
1.0
 92
        8
 66
     7
 43
1.0
 76
     1
 77
     6
 78
     2
 67
     7
 79
     5
170
     0
171
     0
290
     0
174
     0
 93
        1
 44
0.0
173
     0
291
     1
 45
0.0
1001
ACAD
1000
AcDbSavedByObjectVersion
1070
     0
  0
VISUALSTYLE
  5
2B
102
{ACAD_REACTORS
330
2A
102
}
330
2A
100
AcDbVisualStyle
  2
Flat
 70
     0
 71
     2
 72
     1
 73
     1
 90
        2
 40
-0.6
 41
30.0
 62
     5
 63
     7
 74
     0
 91
        4
 64
     7
 65
   257
 75
     1
175
     1
 42
1.0
 92
        8
 66
     7
 43
1.0
 76
     1
 77
     6
 78
     2
 67
     7
 79
     5
170
     0
171
     0
290
     0
174
     0
 93
       13
 44
0.0
173
     0
291
     1
 45
0.0
1001
ACAD
1000
AcDbSavedByObjectVersion
1070
     0
  0
VISUALSTYLE
  5
2C
102
{ACAD_REACTORS
330
2A
102
}
330
2A
100
AcDbVisualStyle
  2
FlatWithEdges
 70
     1
 71
     2
 72
     1
 73
     1
 90
        2
 40
-0.6
 41
30.0
 62
     5
 63
     7
 74
     1
 91
        4
 64
     7
 65
   257
 75
     1
175
     1
 42
1.0
 92
        0
 66
   257
 43
1.0
 76
     1
 77
     6
 78
     2
 67
     7
 79
     5
170
     0
171
     0
290
     0
174
     0
 93
       13
 44
0.0
173
     0
291
     1
 45
0.0
1001
ACAD
1000
AcDbSavedByObjectVersion
1070
     0
  0
VISUALSTYLE
  5
2D
102
{ACAD_REACTORS
330
2A
102
}
330
2A
100
AcDbVisualStyle
  2
Gouraud
 70
     2
 71
     2
 72
     2
 73
     1
 90
        2
 40
-0.6
 41
30.0
 62
     5
 63
     7
 74
     0
 91
        4
 64
     7
 65
   257
 75
     1
175
     1
 42
1.0
 92
        0
 66
     7
 43
1.0
 76
     1
 77
     6
 78
     2
 67
     7
 79
     5
170
     0
171
     0
290
     0
174
     0
 93
       13
 44
0.0
173
     0
291
     1
 45
0.0
1001
ACAD
1000
AcDbSavedByObjectVersion
1070
     0
  0
VISUALSTYLE
  5
2E
102
{ACAD_REACTORS
330
2A
102
}
330
2A
100
AcDbVisualStyle
  2
GouraudWithEdges
 70
     3
 71
     2
 72
     2
 73
     1
 90
        2
 40
-0.6
 41
30.0
 62
     5
 63
     7
 74
     1
 91
        4
 64
     7
 65
   257
 75
     1
175
     1
 42
1.0
 92
        0
 66
   257
 43
1.0
 76
     1
 77
     6
 78
     2
 67
     7
 79
     5
170
     0
171
     0
290
     0
174
     0
 93
       13
 44
0.0
173
     0
291
     1
 45
0.0
1001
ACAD
1000
AcDbSavedByObjectVersion
1070
     0
  0
VISUALSTYLE
  5
38
102
{ACAD_REACTORS
330
2A
102
}
330
2A
100
AcDbVisualStyle
  2
Linepattern
 70
    14
 71
     2
 72
     2
 73
     0
 90
        0
 40
-0.6
 41
-30.0
 62
     5
 63
     7
 74
     1
 91
        4
 64
     7
 65
   257
 75
     7
175
     7
 42
1.0
 92
        8
 66
     7
 43
1.0
 76
     1
 77
     6
 78
     2
 67
     7
 79
     5
170
     0
171
     0
290
     0
174
     0
 93
        1
 44
0.0
173
     0
291
     1
 45
0.0
1001
ACAD
1000
AcDbSavedByObjectVersion
1070
     0
  0
VISUALSTYLE
  5
33
102
{ACAD_REACTORS
330
2A
102
}
330
2A
100
AcDbVisualStyle
  2
Realistic
 70
     8
 71
     2
 72
     2
 73
     0
 90
        0
 40
-0.6
 41
-30.0
 62
     5
 63
     7
 74
     1
 91
        0
 64
     7
 65
   257
 75
     1
175
     1
 42
1.0
 92
        8
 66
     8
 43
1.0
 76
     1
 77
     6
 78
     2
 67
     7
 79
     5
170
     0
171
     0
290
     0
174
     0
 93
       13
 44
0.0
173
     0
291
     0
 45
0.0
1001
ACAD
1000
AcDbSavedByObjectVersion
1070
     0
  0
VISUALSTYLE
  5
37
102
{ACAD_REACTORS
330
2A
102
}
330
2A
100
AcDbVisualStyle
  2
Thicken
 70
    13
 71
     2
 72
     2
 73
     0
 90
        0
 40
-0.6
 41
-30.0
 62
     5
 63
     7
 74
     1
 91
        4
 64
     7
 65
   257
 75
     1
175
     1
 42
1.0
 92
       12
 66
     7
 43
1.0
 76
     1
 77
     6
 78
     2
 67
     7
 79
     5
170
     0
171
     0
290
     0
174
     0
 93
        1
 44
0.0
173
     0
291
     1
 45
0.0
1001
ACAD
1000
AcDbSavedByObjectVersion
1070
     0
  0
DICTIONARYVAR
  5
157
102
{ACAD_REACTORS
330
154
102
}
330
154
100
DictionaryVariables
280
     0
  1
1:1
  0
ENDSEC
  0
EOF
