  0
SECTION
  2
HEADER
  9
$ACADVER
  1
AC1015
  9
$ACADMAINTVER
 70
     6
  9
$DWGCODEPAGE
  3
ANSI_1252
  9
$INSBASE
 10
0.0
 20
0.0
 30
0.0
  9
$EXTMIN
 10
-3.4553965140128
 20
247.9088932013
 30
0.0
  9
$EXTMAX
 10
299.06694760541
 20
377.834265692871
 30
0.0
  9
$LIMMIN
 10
0.0
 20
0.0
  9
$LIMMAX
 10
12.0
 20
9.0
  9
$ORTHOMODE
 70
     0
  9
$REGENMODE
 70
     1
  9
$FILLMODE
 70
     1
  9
$QTEXTMODE
 70
     0
  9
$MIRRTEXT
 70
     1
  9
$LTSCALE
 40
1.0
  9
$ATTMODE
 70
     1
  9
$TEXTSIZE
 40
0.2
  9
$TRACEWID
 40
0.05
  9
$TEXTSTYLE
  7
Standard
  9
$CLAYER
  8
0
  9
$CELTYPE
  6
ByLayer
  9
$CECOLOR
 62
   256
  9
$CELTSCALE
 40
1.0
  9
$DISPSILH
 70
     0
  9
$DIMSCALE
 40
1.0
  9
$DIMASZ
 40
0.18
  9
$DIMEXO
 40
0.0625
  9
$DIMDLI
 40
0.38
  9
$DIMRND
 40
0.0
  9
$DIMDLE
 40
0.0
  9
$DIMEXE
 40
0.18
  9
$DIMTP
 40
0.0
  9
$DIMTM
 40
0.0
  9
$DIMTXT
 40
0.18
  9
$DIMCEN
 40
0.09
  9
$DIMTSZ
 40
0.0
  9
$DIMTOL
 70
     0
  9
$DIMLIM
 70
     0
  9
$DIMTIH
 70
     1
  9
$DIMTOH
 70
     1
  9
$DIMSE1
 70
     0
  9
$DIMSE2
 70
     0
  9
$DIMTAD
 70
     0
  9
$DIMZIN
 70
     0
  9
$DIMBLK
  1

  9
$DIMASO
 70
     1
  9
$DIMSHO
 70
     1
  9
$DIMPOST
  1

  9
$DIMAPOST
  1

  9
$DIMALT
 70
     0
  9
$DIMALTD
 70
     2
  9
$DIMALTF
 40
25.4
  9
$DIMLFAC
 40
1.0
  9
$DIMTOFL
 70
     0
  9
$DIMTVP
 40
0.0
  9
$DIMTIX
 70
     0
  9
$DIMSOXD
 70
     0
  9
$DIMSAH
 70
     0
  9
$DIMBLK1
  1

  9
$DIMBLK2
  1

  9
$DIMSTYLE
  2
Standard
  9
$DIMCLRD
 70
     0
  9
$DIMCLRE
 70
     0
  9
$DIMCLRT
 70
     0
  9
$DIMTFAC
 40
1.0
  9
$DIMGAP
 40
0.09
  9
$DIMJUST
 70
     0
  9
$DIMSD1
 70
     0
  9
$DIMSD2
 70
     0
  9
$DIMTOLJ
 70
     1
  9
$DIMTZIN
 70
     0
  9
$DIMALTZ
 70
     0
  9
$DIMALTTZ
 70
     0
  9
$DIMUPT
 70
     0
  9
$DIMDEC
 70
     4
  9
$DIMTDEC
 70
     4
  9
$DIMALTU
 70
     2
  9
$DIMALTTD
 70
     2
  9
$DIMTXSTY
  7
Standard
  9
$DIMAUNIT
 70
     0
  9
$DIMADEC
 70
     0
  9
$DIMALTRND
 40
0.0
  9
$DIMAZIN
 70
     0
  9
$DIMDSEP
 70
    46
  9
$DIMATFIT
 70
     3
  9
$DIMFRAC
 70
     0
  9
$DIMLDRBLK
  1

  9
$DIMLUNIT
 70
     2
  9
$DIMLWD
 70
    -2
  9
$DIMLWE
 70
    -2
  9
$DIMTMOVE
 70
     0
  9
$LUNITS
 70
     2
  9
$LUPREC
 70
     4
  9
$SKETCHINC
 40
0.1
  9
$FILLETRAD
 40
0.5
  9
$AUNITS
 70
     0
  9
$AUPREC
 70
     0
  9
$MENU
  1
.
  9
$ELEVATION
 40
0.0
  9
$PELEVATION
 40
0.0
  9
$THICKNESS
 40
0.0
  9
$LIMCHECK
 70
     0
  9
$CHAMFERA
 40
0.5
  9
$CHAMFERB
 40
0.5
  9
$CHAMFERC
 40
1.0
  9
$CHAMFERD
 40
0.0
  9
$SKPOLY
 70
     0
  9
$TDCREATE
 40
2456748.729244387
  9
$TDUCREATE
 40
2456748.645911053
  9
$TDUPDATE
 40
2456748.729244398
  9
$TDUUPDATE
 40
2456748.645911065
  9
$TDINDWG
 40
0.0000000116
  9
$TDUSRTIMER
 40
0.0000000116
  9
$USRTIMER
 70
     1
  9
$ANGBASE
 50
0.0
  9
$ANGDIR
 70
     0
  9
$PDMODE
 70
     0
  9
$PDSIZE
 40
0.0
  9
$PLINEWID
 40
0.0
  9
$SPLFRAME
 70
     0
  9
$SPLINETYPE
 70
     6
  9
$SPLINESEGS
 70
     8
  9
$HANDSEED
  5
158
  9
$SURFTAB1
 70
     6
  9
$SURFTAB2
 70
     6
  9
$SURFTYPE
 70
     6
  9
$SURFU
 70
     6
  9
$SURFV
 70
     6
  9
$UCSBASE
  2

  9
$UCSNAME
  2

  9
$UCSORG
 10
0.0
 20
0.0
 30
0.0
  9
$UCSXDIR
 10
1.0
 20
0.0
 30
0.0
  9
$UCSYDIR
 10
0.0
 20
1.0
 30
0.0
  9
$UCSORTHOREF
  2

  9
$UCSORTHOVIEW
 70
     0
  9
$UCSORGTOP
 10
0.0
 20
0.0
 30
0.0
  9
$UCSORGBOTTOM
 10
0.0
 20
0.0
 30
0.0
  9
$UCSORGLEFT
 10
0.0
 20
0.0
 30
0.0
  9
$UCSORGRIGHT
 10
0.0
 20
0.0
 30
0.0
  9
$UCSORGFRONT
 10
0.0
 20
0.0
 30
0.0
  9
$UCSORGBACK
 10
0.0
 20
0.0
 30
0.0
  9
$PUCSBASE
  2

  9
$PUCSNAME
  2

  9
$PUCSORG
 10
0.0
 20
0.0
 30
0.0
  9
$PUCSXDIR
 10
1.0
 20
0.0
 30
0.0
  9
$PUCSYDIR
 10
0.0
 20
1.0
 30
0.0
  9
$PUCSORTHOREF
  2

  9
$PUCSORTHOVIEW
 70
     0
  9
$PUCSORGTOP
 10
0.0
 20
0.0
 30
0.0
  9
$PUCSORGBOTTOM
 10
0.0
 20
0.0
 30
0.0
  9
$PUCSORGLEFT
 10
0.0
 20
0.0
 30
0.0
  9
$PUCSORGRIGHT
 10
0.0
 20
0.0
 30
0.0
  9
$PUCSORGFRONT
 10
0.0
 20
0.0
 30
0.0
  9
$PUCSORGBACK
 10
0.0
 20
0.0
 30
0.0
  9
$USERI1
 70
     0
  9
$USERI2
 70
     0
  9
$USERI3
 70
     0
  9
$USERI4
 70
     0
  9
$USERI5
 70
     0
  9
$USERR1
 40
16.5
  9
$USERR2
 40
0.0
  9
$USERR3
 40
0.0
  9
$USERR4
 40
0.0
  9
$USERR5
 40
0.0
  9
$WORLDVIEW
 70
     1
  9
$SHADEDGE
 70
     3
  9
$SHADEDIF
 70
    70
  9
$TILEMODE
 70
     1
  9
$MAXACTVP
 70
    64
  9
$PINSBASE
 10
0.0
 20
0.0
 30
0.0
  9
$PLIMCHECK
 70
     0
  9
$PEXTMIN
 10
1.00000000000000E+20
 20
1.00000000000000E+20
 30
1.00000000000000E+20
  9
$PEXTMAX
 10
-1.00000000000000E+20
 20
-1.00000000000000E+20
 30
-1.00000000000000E+20
  9
$PLIMMIN
 10
0.0
 20
0.0
  9
$PLIMMAX
 10
12.0
 20
9.0
  9
$UNITMODE
 70
     0
  9
$VISRETAIN
 70
     1
  9
$PLINEGEN
 70
     0
  9
$PSLTSCALE
 70
     1
  9
$TREEDEPTH
 70
  3020
  9
$CMLSTYLE
  2
Standard
  9
$CMLJUST
 70
     0
  9
$CMLSCALE
 40
1.0
  9
$PROXYGRAPHICS
 70
     1
  9
$MEASUREMENT
 70
     1
  9
$CELWEIGHT
370
    -1
  9
$ENDCAPS
280
     0
  9
$JOINSTYLE
280
     0
  9
$LWDISPLAY
290
     0
  9
$INSUNITS
 70
     1
  9
$HYPERLINKBASE
  1

  9
$STYLESHEET
  1

  9
$XEDIT
290
     1
  9
$CEPSNTYPE
380
     0
  9
$PSTYLEMODE
290
     1
  9
$FINGERPRINTGUID
  2
{C87F59A4-A0C5-4620-B679-7F4E8959325C}
  9
$VERSIONGUID
  2
{FAEB1C32-E019-11D5-929B-00C0DF256EC4}
  9
$EXTNAMES
290
     1
  9
$PSVPSCALE
 40
0.0
  9
$OLESTARTUP
290
     0
  0
ENDSEC
  0
SECTION
  2
CLASSES
  0
CLASS
  1
ACDBDICTIONARYWDFLT
  2
AcDbDictionaryWithDefault
  3
ObjectDBX Classes
 90
        0
280
     0
281
     0
  0
CLASS
  1
VISUALSTYLE
  2
AcDbVisualStyle
  3
ObjectDBX Classes
 90
     4095
280
     0
281
     0
  0
CLASS
  1
SCALE
  2
AcDbScale
  3
ObjectDBX Classes
 90
     1153
280
     0
281
     0
  0
CLASS
  1

  2
exOdDbPolyline
  3

 90
        0
280
     0
281
     1
  0
CLASS
  1

  2
exOdDbCircle
  3

 90
        0
280
     0
281
     1
  0
CLASS
  1

  2
exOdDbSpline
  3

 90
        0
280
     0
281
     1
  0
CLASS
  1
DICTIONARYVAR
  2
AcDbDictionaryVar
  3
ObjectDBX Classes
 90
        0
280
     0
281
     0
  0
CLASS
  1
ACDBPLACEHOLDER
  2
AcDbPlaceHolder
  3
ObjectDBX Classes
 90
        0
280
     0
281
     0
  0
CLASS
  1
LAYOUT
  2
AcDbLayout
  3
ObjectDBX Classes
 90
        0
280
     0
281
     0
  0
ENDSEC
  0
SECTION
  2
TABLES
  0
TABLE
  2
VPORT
  5
8
330
0
100
AcDbSymbolTable
 70
     1
  0
VPORT
  5
29
330
8
100
AcDbSymbolTableRecord
100
AcDbViewportTableRecord
  2
*Active
 70
     0
 10
0.0
 20
0.0
 11
1.0
 21
1.0
 12
147.8057755456986
 22
312.8715794470855
 13
0.0
 23
0.0
 14
0.5
 24
0.5
 15
0.5
 25
0.5
 16
0.0
 26
0.0
 36
1.0
 17
0.0
 27
0.0
 37
0.0
 40
207.6365058245844
 41
1.60267857142857
 42
50.0
 43
0.0
 44
0.0
 50
0.0
 51
0.0
 71
     0
 72
   100
 73
     1
 74
     3
 75
     0
 76
     0
 77
     0
 78
     0
281
     0
 65
     1
110
0.0
120
0.0
130
0.0
111
1.0
121
0.0
131
0.0
112
0.0
122
1.0
132
0.0
 79
     0
146
0.0
  0
ENDTAB
  0
TABLE
  2
LTYPE
  5
5
330
0
100
AcDbSymbolTable
 70
     8
  0
LTYPE
  5
14
330
5
100
AcDbSymbolTableRecord
100
AcDbLinetypeTableRecord
  2
ByBlock
 70
     0
  3

 72
    65
 73
     0
 40
0.0
  0
LTYPE
  5
15
330
5
100
AcDbSymbolTableRecord
100
AcDbLinetypeTableRecord
  2
ByLayer
 70
     0
  3

 72
    65
 73
     0
 40
0.0
  0
LTYPE
  5
16
330
5
100
AcDbSymbolTableRecord
100
AcDbLinetypeTableRecord
  2
Continuous
 70
     0
  3
Solid line
 72
    65
 73
     0
 40
0.0
  0
LTYPE
  5
3B
330
5
100
AcDbSymbolTableRecord
100
AcDbLinetypeTableRecord
  2
DASHED
 70
     0
  3
Dashed
 72
    65
 73
     2
 40
15.0
 49
7.0
 74
     0
 49
-8.0
 74
     0
  0
LTYPE
  5
3C
330
5
100
AcDbSymbolTableRecord
100
AcDbLinetypeTableRecord
  2
DOTTED
 70
     0
  3
Dotted
 72
    65
 73
     2
 40
1.0
 49
0.0
 74
     0
 49
-1.0
 74
     0
  0
LTYPE
  5
3D
330
5
100
AcDbSymbolTableRecord
100
AcDbLinetypeTableRecord
  2
DOT_CENTER
 70
     0
  3
Dot_Center
 72
    65
 73
     4
 40
14.0
 49
12.0
 74
     0
 49
-1.0
 74
     0
 49
0.0
 74
     0
 49
-1.0
 74
     0
  0
LTYPE
  5
3E
330
5
100
AcDbSymbolTableRecord
100
AcDbLinetypeTableRecord
  2
LONG_DASHED
 70
     0
  3
Long_Dashed
 72
    65
 73
     2
 40
15.0
 49
10.0
 74
     0
 49
-5.0
 74
     0
  0
LTYPE
  5
3F
330
5
100
AcDbSymbolTableRecord
100
AcDbLinetypeTableRecord
  2
DASH_CENTER
 70
     0
  3
Dash_Center
 72
    65
 73
     4
 40
14.0
 49
11.0
 74
     0
 49
-1.0
 74
     0
 49
1.0
 74
     0
 49
-1.0
 74
     0
  0
LTYPE
  5
40
330
5
100
AcDbSymbolTableRecord
100
AcDbLinetypeTableRecord
  2
PHANTOM
 70
     0
  3
Phantom
 72
    65
 73
     6
 40
13.0
 49
10.0
 74
     0
 49
-1.0
 74
     0
 49
0.0
 74
     0
 49
-1.0
 74
     0
 49
0.0
 74
     0
 49
-1.0
 74
     0
  0
LTYPE
  5
41
330
5
100
AcDbSymbolTableRecord
100
AcDbLinetypeTableRecord
  2
CENTER_DASH_DASH
 70
     0
  3
Center_Dash_Dash
 72
    65
 73
     6
 40
14.0
 49
9.0
 74
     0
 49
-1.0
 74
     0
 49
1.0
 74
     0
 49
-1.0
 74
     0
 49
1.0
 74
     0
 49
-1.0
 74
     0
  0
ENDTAB
  0
TABLE
  2
LAYER
  5
2
330
0
100
AcDbSymbolTable
 70
     6
  0
LAYER
  5
10
330
2
100
AcDbSymbolTableRecord
100
AcDbLayerTableRecord
  2
0
 70
     0
 62
     7
  6
Continuous
370
    -3
390
F
  0
LAYER
  5
42
330
2
100
AcDbSymbolTableRecord
100
AcDbLayerTableRecord
  2
1
 70
     0
 62
     7
  6
Continuous
370
    -3
390
F
  0
LAYER
  5
43
330
2
100
AcDbSymbolTableRecord
100
AcDbLayerTableRecord
  2
BEZUGSACHSEN
 70
     0
 62
     7
  6
Continuous
370
    -3
390
F
  0
LAYER
  5
44
330
2
100
AcDbSymbolTableRecord
100
AcDbLayerTableRecord
  2
DEFAULT_2
 70
     0
 62
     7
  6
Continuous
370
    -3
390
F
  0
LAYER
  5
45
330
2
100
AcDbSymbolTableRecord
100
AcDbLayerTableRecord
  2
FASEN
 70
     0
 62
     7
  6
Continuous
370
    -3
390
F
  0
LAYER
  5
46
330
2
100
AcDbSymbolTableRecord
100
AcDbLayerTableRecord
  2
RUNDUNGEN
 70
     0
 62
     7
  6
Continuous
370
    -3
390
F
  0
ENDTAB
  0
TABLE
  2
STYLE
  5
3
330
0
100
AcDbSymbolTable
 70
     2
  0
STYLE
  5
11
330
3
100
AcDbSymbolTableRecord
100
AcDbTextStyleTableRecord
  2
Standard
 70
     0
 40
0.0
 41
1.0
 50
0.0
 71
     0
 42
0.2
  3
txt
  4

  0
STYLE
  5
6D
330
3
100
AcDbSymbolTableRecord
100
AcDbTextStyleTableRecord
  2
CONVERTER_11
 70
     0
 40
0.0
 41
0.72
 50
0.0
 71
     0
 42
0.2
  3
txt.shx
  4

  0
ENDTAB
  0
TABLE
  2
VIEW
  5
6
330
0
100
AcDbSymbolTable
 70
     0
  0
ENDTAB
  0
TABLE
  2
UCS
  5
7
330
0
100
AcDbSymbolTable
 70
     0
  0
ENDTAB
  0
TABLE
  2
APPID
  5
9
330
0
100
AcDbSymbolTable
 70
     1
  0
APPID
  5
12
330
9
100
AcDbSymbolTableRecord
100
AcDbRegAppTableRecord
  2
ACAD
 70
     0
  0
ENDTAB
  0
TABLE
  2
DIMSTYLE
  5
A
330
0
100
AcDbSymbolTable
 70
     8
100
AcDbDimStyleTable
  0
DIMSTYLE
105
27
330
A
100
AcDbSymbolTableRecord
100
AcDbDimStyleTableRecord
  2
Standard
 70
     0
340
11
  0
DIMSTYLE
105
109
102
{ACAD_REACTORS
330
10A
102
}
330
A
100
AcDbSymbolTableRecord
100
AcDbDimStyleTableRecord
  2
ME10_DIM_10
 70
     0
  3
\U+2300<>
 41
3.5
 42
2.0
 44
2.0
 71
     1
 73
     0
 74
     0
 77
     1
 78
     8
140
3.5
146
0.7
147
2.0
172
     1
173
     1
176
     2
177
     2
178
     3
271
     2
272
     0
340
6D
  0
DIMSTYLE
105
114
102
{ACAD_REACTORS
330
115
102
}
330
A
100
AcDbSymbolTableRecord
100
AcDbDimStyleTableRecord
  2
ME10_DIM_11
 70
     0
  3
\U+2300<>
 41
3.5
 42
2.0
 44
2.0
 71
     1
 73
     0
 74
     0
 77
     1
 78
     8
140
3.5
146
0.7
147
2.0
172
     1
173
     1
176
     2
177
     2
178
     3
271
     2
272
     0
340
6D
  0
DIMSTYLE
105
11F
102
{ACAD_REACTORS
330
120
102
}
330
A
100
AcDbSymbolTableRecord
100
AcDbDimStyleTableRecord
  2
ME10_DIM_12
 70
     0
  3
\U+2300<>
 41
3.5
 42
2.0
 44
2.0
 71
     1
 73
     0
 74
     0
 77
     1
 78
     8
140
3.5
146
0.7
147
2.0
172
     1
173
     1
176
     2
177
     2
178
     3
271
     2
272
     0
340
6D
  0
DIMSTYLE
105
12A
102
{ACAD_REACTORS
330
12B
102
}
330
A
100
AcDbSymbolTableRecord
100
AcDbDimStyleTableRecord
  2
ME10_DIM_13
 70
     0
  3
<>
 41
3.5
 42
2.0
 44
2.0
 71
     1
 73
     0
 74
     0
 77
     1
 78
     8
140
3.5
146
0.7
147
2.0
172
     1
173
     1
176
     2
177
     2
178
     3
271
     2
272
     0
340
6D
  0
DIMSTYLE
105
135
102
{ACAD_REACTORS
330
136
102
}
330
A
100
AcDbSymbolTableRecord
100
AcDbDimStyleTableRecord
  2
ME10_DIM_14
 70
     0
  3
<>
 41
3.5
 42
2.0
 44
2.0
 71
     1
 73
     0
 74
     0
 77
     1
 78
     8
140
3.5
146
0.7
147
2.0
172
     1
173
     1
176
     2
177
     2
178
     3
271
     2
272
     0
340
6D
  0
DIMSTYLE
105
140
102
{ACAD_REACTORS
330
141
102
}
330
A
100
AcDbSymbolTableRecord
100
AcDbDimStyleTableRecord
  2
ME10_DIM_15
 70
     0
  3
<>
 41
3.5
 42
2.0
 44
2.0
 71
     1
 73
     0
 74
     0
 77
     1
 78
     8
140
3.5
146
0.7
147
2.0
172
     1
173
     1
176
     2
177
     2
178
     3
271
     2
272
     0
340
6D
  0
DIMSTYLE
105
152
102
{ACAD_REACTORS
330
153
102
}
330
A
100
AcDbSymbolTableRecord
100
AcDbDimStyleTableRecord
  2
ME10_DIM_16
 70
     0
  3
<>
 41
3.5
 42
2.0
 44
2.0
 71
     1
 73
     0
 74
     0
 77
     1
 78
     8
140
3.5
146
0.7
147
2.0
172
     1
173
     1
176
     2
177
     2
178
     3
271
     2
272
     0
340
6D
  0
ENDTAB
  0
TABLE
  2
BLOCK_RECORD
  5
1
330
0
100
AcDbSymbolTable
 70
    10
  0
BLOCK_RECORD
  5
1F
330
1
100
AcDbSymbolTableRecord
100
AcDbBlockTableRecord
  2
*Model_Space
340
22
  0
BLOCK_RECORD
  5
1B
330
1
100
AcDbSymbolTableRecord
100
AcDbBlockTableRecord
  2
*Paper_Space
340
1E
  0
BLOCK_RECORD
  5
23
330
1
100
AcDbSymbolTableRecord
100
AcDbBlockTableRecord
  2
*Paper_Space0
340
26
  0
BLOCK_RECORD
  5
47
330
1
100
AcDbSymbolTableRecord
100
AcDbBlockTableRecord
  2
Urheberrecht_DE-EN
340
0
102
{BLKREFS
331
6C
102
}
  0
BLOCK_RECORD
  5
100
330
1
100
AcDbSymbolTableRecord
100
AcDbBlockTableRecord
  2
*D2
340
0
  0
BLOCK_RECORD
  5
10B
330
1
100
AcDbSymbolTableRecord
100
AcDbBlockTableRecord
  2
*D3
340
0
  0
BLOCK_RECORD
  5
116
330
1
100
AcDbSymbolTableRecord
100
AcDbBlockTableRecord
  2
*D4
340
0
  0
BLOCK_RECORD
  5
121
330
1
100
AcDbSymbolTableRecord
100
AcDbBlockTableRecord
  2
*D5
340
0
  0
BLOCK_RECORD
  5
12C
330
1
100
AcDbSymbolTableRecord
100
AcDbBlockTableRecord
  2
*D6
340
0
  0
BLOCK_RECORD
  5
137
330
1
100
AcDbSymbolTableRecord
100
AcDbBlockTableRecord
  2
*D7
340
0
  0
BLOCK_RECORD
  5
142
330
1
100
AcDbSymbolTableRecord
100
AcDbBlockTableRecord
  2
*D8
340
0
102
{BLKREFS
331
148
102
}
  0
BLOCK_RECORD
  5
149
330
1
100
AcDbSymbolTableRecord
100
AcDbBlockTableRecord
  2
*D9
340
0
  0
ENDTAB
  0
ENDSEC
  0
SECTION
  2
BLOCKS
  0
BLOCK
  5
20
330
1F
100
AcDbEntity
  8
0
100
AcDbBlockBegin
  2
*Model_Space
 70
     0
 10
0.0
 20
0.0
 30
0.0
  3
*Model_Space
  1

  0
ENDBLK
  5
21
330
1F
100
AcDbEntity
  8
0
100
AcDbBlockEnd
  0
BLOCK
  5
1C
330
1B
100
AcDbEntity
 67
     1
  8
0
100
AcDbBlockBegin
  2
*Paper_Space
 70
     0
 10
0.0
 20
0.0
 30
0.0
  3
*Paper_Space
  1

  0
ENDBLK
  5
1D
330
1B
100
AcDbEntity
 67
     1
  8
0
100
AcDbBlockEnd
  0
BLOCK
  5
24
330
23
100
AcDbEntity
  8
0
100
AcDbBlockBegin
  2
*Paper_Space0
 70
     0
 10
0.0
 20
0.0
 30
0.0
  3
*Paper_Space0
  1

  0
ENDBLK
  5
25
330
23
100
AcDbEntity
  8
0
100
AcDbBlockEnd
  0
BLOCK
  5
48
330
47
100
AcDbEntity
  8
0
100
AcDbBlockBegin
  2
Urheberrecht_DE-EN
 70
     0
 10
10.5446034859872
 20
312.243735587873
 30
0.0
  3
Urheberrecht_DE-EN
  1

  0
MTEXT
  5
6E
330
47
100
AcDbEntity
  8
1
 62
     1
100
AcDbMText
 10
10.5446034859872
 20
312.243735587873
 30
0.0
 40
2.0
 41
0.0
 71
     7
 72
     1
  1
We own the copyright of this document. It \Pdetermined and may neither be copied or \Pmade accessible to outsiders without our\Ppermission.
  7
CONVERTER_11
 11
0.0
 21
1.0
 31
0.0
 73
     1
 44
0.90036014405762
  0
MTEXT
  5
6F
330
47
100
AcDbEntity
  8
1
 62
     1
100
AcDbMText
 10
10.5446034859872
 20
255.9543486705668
 30
0.0
 40
2.0
 41
0.0
 71
     7
 72
     1
  1
F\U+00fcr diese Unterlage behalten wir das Ur-\Pheberrecht. Sie darf nur f\U+00fcr den von uns \Pbestimmten Zweck benutzt und ohne unsere \PZustimmung weder vervielf\U+00e4ltigt noch\PDritten zug\U+00e4nglich gemacht werden.
  7
CONVERTER_11
 11
0.0
 21
1.0
 31
0.0
 73
     1
 44
0.90036014405762
  0
ENDBLK
  5
49
330
47
100
AcDbEntity
  8
0
100
AcDbBlockEnd
  0
BLOCK
  5
107
330
100
100
AcDbEntity
  8
0
100
AcDbBlockBegin
  2
*D2
 70
     1
 10
0.0
 20
0.0
 30
0.0
  3
*D2
  1

  0
LINE
  5
101
330
100
100
AcDbEntity
  8
1
  6
Continuous
 62
     2
100
AcDbLine
 10
279.706581961115
 20
305.9088932013
 30
0.0
 11
279.706581961115
 21
289.9088932013
 31
0.0
  0
LINE
  5
102
330
100
100
AcDbEntity
  8
1
  6
Continuous
 62
     2
100
AcDbLine
 10
270.6705701285
 20
305.9088932013
 30
0.0
 11
281.706581961115
 21
305.9088932013
 31
0.0
  0
LINE
  5
103
330
100
100
AcDbEntity
  8
1
  6
Continuous
 62
     2
100
AcDbLine
 10
270.6705701285
 20
289.9088932013
 30
0.0
 11
281.706581961115
 21
289.9088932013
 31
0.0
  0
SOLID
  5
104
330
100
100
AcDbEntity
  8
1
 62
     2
100
AcDbTrace
 10
280.1673657026708
 20
302.4088932013
 30
0.0
 11
279.2457982195591
 21
302.4088932013
 31
0.0
 12
279.706581961115
 22
305.9088932013
 32
0.0
 13
279.706581961115
 23
305.9088932013
 33
0.0
  0
SOLID
  5
105
330
100
100
AcDbEntity
  8
1
 62
     2
100
AcDbTrace
 10
279.2457982195591
 20
293.4088932013
 30
0.0
 11
280.1673657026708
 21
293.4088932013
 31
0.0
 12
279.706581961115
 22
289.9088932013
 32
0.0
 13
279.706581961115
 23
289.9088932013
 33
0.0
  0
MTEXT
  5
106
330
100
100
AcDbEntity
  8
1
 62
     3
100
AcDbMText
 10
277.706581961115
 20
289.731379285761
 30
0.0
 40
3.5
 41
0.0
 71
     7
 72
     1
  1
\C3;%%c\C3;\C3;16\C2;\H2.45;\S^ ;\C3;
  7
CONVERTER_11
 11
0.0
 21
1.0
 31
0.0
 73
     1
 44
0.60024009603842
  0
ENDBLK
  5
108
330
100
100
AcDbEntity
  8
0
100
AcDbBlockEnd
  0
BLOCK
  5
112
330
10B
100
AcDbEntity
  8
0
100
AcDbBlockBegin
  2
*D3
 70
     1
 10
0.0
 20
0.0
 30
0.0
  3
*D3
  1

  0
LINE
  5
10C
330
10B
100
AcDbEntity
  8
1
  6
Continuous
 62
     2
100
AcDbLine
 10
288.635437289116
 20
311.4088932013528
 30
0.0
 11
288.635437289116
 21
284.4088932012486
 31
0.0
  0
LINE
  5
10D
330
10B
100
AcDbEntity
  8
1
  6
Continuous
 62
     2
100
AcDbLine
 10
270.6705701285
 20
311.4088932013528
 30
0.0
 11
290.635437289116
 21
311.4088932013528
 31
0.0
  0
LINE
  5
10E
330
10B
100
AcDbEntity
  8
1
  6
Continuous
 62
     2
100
AcDbLine
 10
270.6705701285
 20
284.4088932012486
 30
0.0
 11
290.635437289116
 21
284.4088932012486
 31
0.0
  0
SOLID
  5
10F
330
10B
100
AcDbEntity
  8
1
 62
     2
100
AcDbTrace
 10
289.0962210306719
 20
307.9088932013528
 30
0.0
 11
288.1746535475601
 21
307.9088932013528
 31
0.0
 12
288.635437289116
 22
311.4088932013528
 32
0.0
 13
288.635437289116
 23
311.4088932013528
 33
0.0
  0
SOLID
  5
110
330
10B
100
AcDbEntity
  8
1
 62
     2
100
AcDbTrace
 10
288.1746535475601
 20
287.9088932012486
 30
0.0
 11
289.0962210306719
 21
287.9088932012486
 31
0.0
 12
288.635437289116
 22
284.4088932012486
 32
0.0
 13
288.635437289116
 23
284.4088932012486
 33
0.0
  0
MTEXT
  5
111
330
10B
100
AcDbEntity
  8
1
 62
     3
100
AcDbMText
 10
286.635437289116
 20
289.844445275492
 30
0.0
 40
3.5
 41
0.0
 71
     7
 72
     1
  1
\C3;%%c\C3;\C3;27\C2;\H2.45;\S^ ;\C3;
  7
CONVERTER_11
 11
0.0
 21
1.0
 31
0.0
 73
     1
 44
0.60024009603842
  0
ENDBLK
  5
113
330
10B
100
AcDbEntity
  8
0
100
AcDbBlockEnd
  0
BLOCK
  5
11D
330
116
100
AcDbEntity
  8
0
100
AcDbBlockBegin
  2
*D4
 70
     1
 10
0.0
 20
0.0
 30
0.0
  3
*D4
  1

  0
LINE
  5
117
330
116
100
AcDbEntity
  8
1
  6
Continuous
 62
     2
100
AcDbLine
 10
297.06694760541
 20
314.9088932013
 30
0.0
 11
297.06694760541
 21
280.9088932013
 31
0.0
  0
LINE
  5
118
330
116
100
AcDbEntity
  8
1
  6
Continuous
 62
     2
100
AcDbLine
 10
226.1988535519
 20
314.9088932013
 30
0.0
 11
299.06694760541
 21
314.9088932013
 31
0.0
  0
LINE
  5
119
330
116
100
AcDbEntity
  8
1
  6
Continuous
 62
     2
100
AcDbLine
 10
226.1988535519
 20
280.9088932013
 30
0.0
 11
299.06694760541
 21
280.9088932013
 31
0.0
  0
SOLID
  5
11A
330
116
100
AcDbEntity
  8
1
 62
     2
100
AcDbTrace
 10
297.5277313469659
 20
311.4088932013
 30
0.0
 11
296.6061638638541
 21
311.4088932013
 31
0.0
 12
297.06694760541
 22
314.9088932013
 32
0.0
 13
297.06694760541
 23
314.9088932013
 33
0.0
  0
SOLID
  5
11B
330
116
100
AcDbEntity
  8
1
 62
     2
100
AcDbTrace
 10
296.6061638638541
 20
284.4088932013
 30
0.0
 11
297.5277313469659
 21
284.4088932013
 31
0.0
 12
297.06694760541
 22
280.9088932013
 32
0.0
 13
297.06694760541
 23
280.9088932013
 33
0.0
  0
MTEXT
  5
11C
330
116
100
AcDbEntity
  8
1
 62
     3
100
AcDbMText
 10
295.06694760541
 20
290.24304816855
 30
0.0
 40
3.5
 41
0.0
 71
     7
 72
     1
  1
\C3;%%c\C3;\C3;34\C2;\H2.45;\S^ ;\C3;
  7
CONVERTER_11
 11
0.0
 21
1.0
 31
0.0
 73
     1
 44
0.60024009603842
  0
ENDBLK
  5
11E
330
116
100
AcDbEntity
  8
0
100
AcDbBlockEnd
  0
BLOCK
  5
128
330
121
100
AcDbEntity
  8
0
100
AcDbBlockBegin
  2
*D5
 70
     1
 10
0.0
 20
0.0
 30
0.0
  3
*D5
  1

  0
LINE
  5
122
330
121
100
AcDbEntity
  8
1
  6
Continuous
 62
     2
100
AcDbLine
 10
268.6705701285
 20
357.119121594346
 30
0.0
 11
97.6705701285
 21
357.119121594346
 31
0.0
  0
LINE
  5
123
330
121
100
AcDbEntity
  8
1
  6
Continuous
 62
     2
100
AcDbLine
 10
268.6705701285
 20
312.4845027096
 30
0.0
 11
268.6705701285
 21
359.119121594346
 31
0.0
  0
LINE
  5
124
330
121
100
AcDbEntity
  8
1
  6
Continuous
 62
     2
100
AcDbLine
 10
97.6705701285
 20
349.9088932013
 30
0.0
 11
97.6705701285
 21
359.119121594346
 31
0.0
  0
SOLID
  5
125
330
121
100
AcDbEntity
  8
1
 62
     2
100
AcDbTrace
 10
265.1705701285
 20
356.6583378527901
 30
0.0
 11
265.1705701285
 21
357.5799053359019
 31
0.0
 12
268.6705701285
 22
357.119121594346
 32
0.0
 13
268.6705701285
 23
357.119121594346
 33
0.0
  0
SOLID
  5
126
330
121
100
AcDbEntity
  8
1
 62
     2
100
AcDbTrace
 10
101.1705701285
 20
357.5799053359019
 30
0.0
 11
101.1705701285
 21
356.6583378527901
 31
0.0
 12
97.6705701285
 22
357.119121594346
 32
0.0
 13
97.6705701285
 23
357.119121594346
 33
0.0
  0
MTEXT
  5
127
330
121
100
AcDbEntity
  8
1
 62
     3
100
AcDbMText
 10
178.057425666699
 20
359.119121594346
 30
0.0
 40
3.5
 41
0.0
 71
     7
 72
     1
  1
\C3;\C3;\C3;171\C2;\H2.45;\S^ ;\C3;
  7
CONVERTER_11
 11
0.9999999999970619
 21
2.424068405545306E-6
 31
0.0
 73
     1
 44
0.60024009603842
  0
ENDBLK
  5
129
330
121
100
AcDbEntity
  8
0
100
AcDbBlockEnd
  0
BLOCK
  5
133
330
12C
100
AcDbEntity
  8
0
100
AcDbBlockBegin
  2
*D6
 70
     1
 10
0.0
 20
0.0
 30
0.0
  3
*D6
  1

  0
LINE
  5
12D
330
12C
100
AcDbEntity
  8
1
  6
Continuous
 62
     2
100
AcDbLine
 10
268.6705701285
 20
364.720054686416
 30
0.0
 11
68.67057012850002
 21
364.720054686416
 31
0.0
  0
LINE
  5
12E
330
12C
100
AcDbEntity
  8
1
  6
Continuous
 62
     2
100
AcDbLine
 10
268.6705701285
 20
312.4845027096
 30
0.0
 11
268.6705701285
 21
366.720054686416
 31
0.0
  0
LINE
  5
12F
330
12C
100
AcDbEntity
  8
1
  6
Continuous
 62
     2
100
AcDbLine
 10
68.67057012850002
 20
349.9088932013
 30
0.0
 11
68.67057012850002
 21
366.720054686416
 31
0.0
  0
SOLID
  5
130
330
12C
100
AcDbEntity
  8
1
 62
     2
100
AcDbTrace
 10
265.1705701285
 20
364.2592709448601
 30
0.0
 11
265.1705701285
 21
365.1808384279719
 31
0.0
 12
268.6705701285
 22
364.720054686416
 32
0.0
 13
268.6705701285
 23
364.720054686416
 33
0.0
  0
SOLID
  5
131
330
12C
100
AcDbEntity
  8
1
 62
     2
100
AcDbTrace
 10
72.17057012850002
 20
365.1808384279719
 30
0.0
 11
72.17057012850002
 21
364.2592709448601
 31
0.0
 12
68.67057012850002
 22
364.720054686416
 32
0.0
 13
68.67057012850002
 23
364.720054686416
 33
0.0
  0
MTEXT
  5
132
330
12C
100
AcDbEntity
  8
1
 62
     3
100
AcDbMText
 10
167.083034621547
 20
366.720054686416
 30
0.0
 40
3.5
 41
0.0
 71
     7
 72
     1
  1
\C3;\C3;\C3;200\C2;\H2.45;\S^ ;\C3;
  7
CONVERTER_11
 11
0.9999999999970619
 21
2.424068405545306E-6
 31
0.0
 73
     1
 44
0.60024009603842
  0
ENDBLK
  5
134
330
12C
100
AcDbEntity
  8
0
100
AcDbBlockEnd
  0
BLOCK
  5
13E
330
137
100
AcDbEntity
  8
0
100
AcDbBlockBegin
  2
*D7
 70
     1
 10
0.0
 20
0.0
 30
0.0
  3
*D7
  1

  0
LINE
  5
138
330
137
100
AcDbEntity
  8
1
  6
Continuous
 62
     2
100
AcDbLine
 10
268.6705701285
 20
372.334265692871
 30
0.0
 11
18.6705701285
 21
372.334265692871
 31
0.0
  0
LINE
  5
139
330
137
100
AcDbEntity
  8
1
  6
Continuous
 62
     2
100
AcDbLine
 10
268.6705701285
 20
312.4845027096
 30
0.0
 11
268.6705701285
 21
374.334265692871
 31
0.0
  0
LINE
  5
13A
330
137
100
AcDbEntity
  8
1
  6
Continuous
 62
     2
100
AcDbLine
 10
18.6705701285
 20
333.5090847639
 30
0.0
 11
18.6705701285
 21
374.334265692871
 31
0.0
  0
SOLID
  5
13B
330
137
100
AcDbEntity
  8
1
 62
     2
100
AcDbTrace
 10
265.1705701285
 20
371.8734819513151
 30
0.0
 11
265.1705701285
 21
372.7950494344269
 31
0.0
 12
268.6705701285
 22
372.334265692871
 32
0.0
 13
268.6705701285
 23
372.334265692871
 33
0.0
  0
SOLID
  5
13C
330
137
100
AcDbEntity
  8
1
 62
     2
100
AcDbTrace
 10
22.1705701285
 20
372.7950494344269
 30
0.0
 11
22.1705701285
 21
371.8734819513151
 31
0.0
 12
18.6705701285
 22
372.334265692871
 32
0.0
 13
18.6705701285
 23
372.334265692871
 33
0.0
  0
MTEXT
  5
13D
330
137
100
AcDbEntity
  8
1
 62
     3
100
AcDbMText
 10
151.237244148654
 20
374.334265692871
 30
0.0
 40
3.5
 41
0.0
 71
     7
 72
     1
  1
\C3;\C3;\C3;250\C2;\H2.45;\S^ ;\C3;
  7
CONVERTER_11
 11
0.9999999999970619
 21
2.424068405545306E-6
 31
0.0
 73
     1
 44
0.60024009603842
  0
ENDBLK
  5
13F
330
137
100
AcDbEntity
  8
0
100
AcDbBlockEnd
  0
BLOCK
  5
146
330
142
100
AcDbEntity
  8
0
100
AcDbBlockBegin
  2
*D8
 70
     1
 10
0.0
 20
0.0
 30
0.0
  3
*D8
  1

  0
LINE
  5
143
330
142
100
AcDbEntity
  8
1
  6
Continuous
 62
     2
100
AcDbLine
 10
113.2034693876203
 20
337.5895877240052
 30
0.0
 11
100.7582892311653
 21
329.7335540206954
 31
0.0
  0
SOLID
  5
144
330
142
100
AcDbEntity
  8
1
 62
     2
100
AcDbTrace
 10
103.4719744236276
 20
331.9914810196688
 30
0.0
 11
103.9639023527684
 21
331.2121906126573
 31
0.0
 12
100.7582892311653
 22
329.7335540206954
 32
0.0
 13
100.7582892311653
 23
329.7335540206954
 33
0.0
  0
MTEXT
  5
145
330
142
100
AcDbEntity
  8
1
 62
     3
100
AcDbMText
 10
103.7304761842375
 20
333.9748955146098
 30
0.0
 40
3.5
 41
0.0
 71
     7
 72
     1
  1
\C3; R\C3;\C3;20\C2;\H2.45;\S^ ;\C3;
  7
CONVERTER_11
 11
0.8456140448664642
 21
0.5337947987050621
 31
0.0
 73
     1
 44
0.60024009603842
  0
ENDBLK
  5
147
330
142
100
AcDbEntity
  8
0
100
AcDbBlockEnd
  0
BLOCK
  5
150
330
149
100
AcDbEntity
  8
0
100
AcDbBlockBegin
  2
*D9
 70
     1
 10
0.0
 20
0.0
 30
0.0
  3
*D9
  1

  0
LINE
  5
14A
330
149
100
AcDbEntity
  8
1
  6
Continuous
 62
     2
100
AcDbLine
 10
251.4271226605562
 20
314.9088932013
 30
0.0
 11
253.4271226605562
 21
314.9088932013
 31
0.0
  0
LINE
  5
14B
330
149
100
AcDbEntity
  8
1
  6
Continuous
 62
     2
100
AcDbLine
 10
226.1988535519
 20
314.9088932013
 30
0.0
 11
251.4271226605562
 21
314.9088932013
 31
0.0
  0
ARC
  5
14C
330
149
100
AcDbEntity
  8
1
  6
Continuous
 62
     2
100
AcDbCircle
 10
224.1988535519
 20
314.9088932013
 30
0.0
 40
27.2282691086561
100
AcDbArc
 50
344.4525536403902
 51
18.93791994364015
  0
SOLID
  5
14D
330
149
100
AcDbEntity
  8
1
 62
     2
100
AcDbTrace
 10
251.3011377826386
 20
309.2426369055975
 30
0.0
 11
250.3889520475608
 21
309.3738002032447
 31
0.0
 12
251.3431869938707
 22
312.772587828814
 32
0.0
 13
251.3431869938707
 23
312.772587828814
 33
0.0
  0
SOLID
  5
14E
330
149
100
AcDbEntity
  8
1
 62
     2
100
AcDbTrace
 10
250.7424951057974
 20
318.3720719099068
 30
0.0
 11
251.6621598304066
 21
318.4312616069712
 31
0.0
 12
251.4271226605562
 22
314.9088932013
 32
0.0
 13
251.4271226605562
 23
314.9088932013
 33
0.0
  0
MTEXT
  5
14F
330
149
100
AcDbEntity
  8
1
 62
     3
100
AcDbMText
 10
252.0464833423896
 20
324.4638633812566
 30
0.0
 40
3.5
 41
0.0
 71
     7
 72
     1
  1
\C3;\C3;\C3;4.5%%d\C2;\H2.45;\S^ ;\C3;
  7
CONVERTER_11
 11
0.2086252704637445
 21
-0.9779956526099334
 31
0.0
 73
     1
 44
0.60024009603842
  0
ENDBLK
  5
151
330
149
100
AcDbEntity
  8
0
100
AcDbBlockEnd
  0
ENDSEC
  0
SECTION
  2
ENTITIES
  0
INSERT
  5
6C
330
1F
100
AcDbEntity
  8
0
100
AcDbBlockReference
  2
Urheberrecht_DE-EN
 10
10.5446034859872
 20
312.243735587873
 30
0.0
  0
LINE
  5
70
330
1F
100
AcDbEntity
  8
BEZUGSACHSEN
  6
Continuous
 62
     7
100
AcDbLine
 10
18.6705701285
 20
264.3087016383
 30
0.0
 11
18.6705701285
 21
285.8988932013
 31
0.0
  0
LINE
  5
71
330
1F
100
AcDbEntity
  8
BEZUGSACHSEN
  6
Continuous
 62
     7
100
AcDbLine
 10
18.6705701285
 20
309.9188932013
 30
0.0
 11
18.6705701285
 21
331.5090847639
 31
0.0
  0
LINE
  5
72
330
1F
100
AcDbEntity
  8
BEZUGSACHSEN
  6
Continuous
 62
     9
100
AcDbLine
 10
20.5704956437
 20
333.5065794696
 30
0.0
 11
20.5704956437
 21
313.5854255875
 31
0.0
  0
LINE
  5
73
330
1F
100
AcDbEntity
  8
BEZUGSACHSEN
  6
Continuous
 62
     9
100
AcDbLine
 10
20.5704956437
 20
282.232360815
 30
0.0
 11
20.5704956437
 21
262.311206933
 31
0.0
  0
LINE
  5
74
330
1F
100
AcDbEntity
  8
BEZUGSACHSEN
  6
Continuous
 62
     7
100
AcDbLine
 10
20.6705701285
 20
285.5052532529
 30
0.0
 11
20.6705701285
 21
287.8988932013
 31
0.0
  0
LINE
  5
75
330
1F
100
AcDbEntity
  8
BEZUGSACHSEN
  6
Continuous
 62
     7
100
AcDbLine
 10
20.6705701285
 20
307.9188932013
 30
0.0
 11
20.6705701285
 21
310.3125331497
 31
0.0
  0
LINE
  5
76
330
1F
100
AcDbEntity
  8
BEZUGSACHSEN
  6
Continuous
 62
     9
100
AcDbLine
 10
26.6705701285
 20
281.5502456138
 30
0.0
 11
26.6705701285
 21
287.8988932013
 31
0.0
  0
LINE
  5
77
330
1F
100
AcDbEntity
  8
BEZUGSACHSEN
  6
Continuous
 62
     9
100
AcDbLine
 10
26.6705701285
 20
307.9188932013
 30
0.0
 11
26.6705701285
 21
314.2675407887
 31
0.0
  0
LINE
  5
78
330
1F
100
AcDbEntity
  8
BEZUGSACHSEN
  6
Continuous
 62
     7
100
AcDbLine
 10
28.6705701285
 20
310.7785487271
 30
0.0
 11
28.6705701285
 21
285.0392376755
 31
0.0
  0
LINE
  5
79
330
1F
100
AcDbEntity
  8
BEZUGSACHSEN
  6
Continuous
 62
     7
100
AcDbLine
 10
19.9375230555
 20
282.8988932013
 30
0.0
 11
19.8164128041
 21
282.6665572058
 31
0.0
  0
LINE
  5
7A
330
1F
100
AcDbEntity
  8
BEZUGSACHSEN
  6
Continuous
 62
     7
100
AcDbLine
 10
19.8164128041
 20
313.1512291967
 30
0.0
 11
19.9375230555
 21
312.9188932013
 31
0.0
  0
LWPOLYLINE
  5
7B
330
1F
100
AcDbEntity
  8
BEZUGSACHSEN
  6
DOT_CENTER
 62
     7
100
AcDbPolyline
 90
        2
 70
     0
 43
0.25
 10
53.6705701285
 20
297.9088932013
 10
53.6705701285
 20
288.9088932013
  0
LWPOLYLINE
  5
7C
330
1F
100
AcDbEntity
  8
BEZUGSACHSEN
  6
DOT_CENTER
 62
     7
100
AcDbPolyline
 90
        2
 70
     0
 43
0.25
 10
53.6705701285
 20
297.9088932013
 10
53.6705701285
 20
306.9088932013
  0
LINE
  5
7D
330
1F
100
AcDbEntity
  8
BEZUGSACHSEN
  6
Continuous
 62
     7
100
AcDbLine
 10
18.6705701285
 20
285.8988932013
 30
0.0
 11
20.6705701285
 21
287.8988932013
 31
0.0
  0
LINE
  5
7E
330
1F
100
AcDbEntity
  8
BEZUGSACHSEN
  6
Continuous
 62
     7
100
AcDbLine
 10
20.6705701285
 20
307.9188932013
 30
0.0
 11
18.6705701285
 21
309.9188932013
 31
0.0
  0
LINE
  5
7F
330
1F
100
AcDbEntity
  8
BEZUGSACHSEN
  6
Continuous
 62
     7
100
AcDbLine
 10
66.1705701285
 20
335.7911432013
 30
0.0
 11
66.1705701285
 21
260.0266432013
 31
0.0
  0
LINE
  5
80
330
1F
100
AcDbEntity
  8
BEZUGSACHSEN
  6
Continuous
 62
     9
100
AcDbLine
 10
66.7898137425
 20
260.1925690276
 30
0.0
 11
66.7898137425
 21
335.625217375
 31
0.0
  0
LINE
  5
81
330
1F
100
AcDbEntity
  8
BEZUGSACHSEN
  6
Continuous
 62
     9
100
AcDbLine
 10
67.0486327876
 20
260.2266432013
 30
0.0
 11
67.0486327876
 21
335.5911432013
 31
0.0
  0
LINE
  5
82
330
1F
100
AcDbEntity
  8
BEZUGSACHSEN
  6
Continuous
 62
     9
100
AcDbLine
 10
67.9699988398
 20
260.2266432013
 30
0.0
 11
67.9699988398
 21
335.5911432013
 31
0.0
  0
LINE
  5
83
330
1F
100
AcDbEntity
  8
BEZUGSACHSEN
  6
Continuous
 62
     7
100
AcDbLine
 10
68.6705701285
 20
347.9088932013
 30
0.0
 11
68.6705701285
 21
247.9088932013
 31
0.0
  0
LWPOLYLINE
  5
84
330
1F
100
AcDbEntity
  8
BEZUGSACHSEN
  6
DOT_CENTER
 62
     7
100
AcDbPolyline
 90
        2
 70
     0
 43
0.25
 10
75.6705701285
 20
340.0582650566
 10
75.6705701285
 20
350.9088932013
  0
LINE
  5
85
330
1F
100
AcDbEntity
  8
FASEN
  6
Continuous
 62
     9
100
AcDbLine
 10
81.6424440503
 20
266.0088932013
 30
0.0
 11
81.6424440503
 21
266.4088932013
 31
0.0
  0
LINE
  5
86
330
1F
100
AcDbEntity
  8
BEZUGSACHSEN
  6
Continuous
 62
     7
100
AcDbLine
 10
90.5455701285
 20
345.5314884655
 30
0.0
 11
91.9181653927
 21
347.9088932013
 31
0.0
  0
LINE
  5
87
330
1F
100
AcDbEntity
  8
BEZUGSACHSEN
  6
Continuous
 62
     7
100
AcDbLine
 10
90.5455701285
 20
250.2862979371
 30
0.0
 11
91.9181653927
 21
247.9088932013
 31
0.0
  0
LINE
  5
88
330
1F
100
AcDbEntity
  8
FASEN
  6
Continuous
 62
     9
100
AcDbLine
 10
83.6705701285
 20
288.3088932013
 30
0.0
 11
83.6705701285
 21
287.9088932013
 31
0.0
  0
LINE
  5
89
330
1F
100
AcDbEntity
  8
FASEN
  6
Continuous
 62
     9
100
AcDbLine
 10
83.6705701285
 20
307.5088932013
 30
0.0
 11
83.6705701285
 21
307.9088932013
 31
0.0
  0
LINE
  5
8A
330
1F
100
AcDbEntity
  8
0
  6
Continuous
 62
     7
100
AcDbLine
 10
85.4229748643
 20
347.9088932013
 30
0.0
 11
85.4229748643
 21
307.9088932013
 31
0.0
  0
LINE
  5
8B
330
1F
100
AcDbEntity
  8
0
  6
Continuous
 62
     7
100
AcDbLine
 10
85.4229748643
 20
287.9088932013
 30
0.0
 11
85.4229748643
 21
266.4088932013
 31
0.0
  0
LINE
  5
8C
330
1F
100
AcDbEntity
  8
0
  6
Continuous
 62
     7
100
AcDbLine
 10
85.4229748643
 20
259.0791365706
 30
0.0
 11
85.4229748643
 21
247.9088932013
 31
0.0
  0
LINE
  5
8D
330
1F
100
AcDbEntity
  8
0
  6
Continuous
 62
     7
100
AcDbLine
 10
86.7955701285
 20
345.531455039
 30
0.0
 11
86.7955701285
 21
307.9088932013
 31
0.0
  0
LINE
  5
8E
330
1F
100
AcDbEntity
  8
0
  6
Continuous
 62
     7
100
AcDbLine
 10
86.7955701285
 20
287.9088932013
 30
0.0
 11
86.7955701285
 21
266.4088932013
 31
0.0
  0
LINE
  5
8F
330
1F
100
AcDbEntity
  8
0
  6
Continuous
 62
     7
100
AcDbLine
 10
86.7955701285
 20
250.286335471
 30
0.0
 11
86.7955701285
 21
263.0269494481
 31
0.0
  0
LINE
  5
90
330
1F
100
AcDbEntity
  8
0
  6
Continuous
 62
     9
100
AcDbLine
 10
87.7955701285
 20
251.9088932013
 30
0.0
 11
87.7955701285
 21
264.3865126176
 31
0.0
  0
LINE
  5
91
330
1F
100
AcDbEntity
  8
0
  6
Continuous
 62
     9
100
AcDbLine
 10
87.7955701285
 20
266.4088932013
 30
0.0
 11
87.7955701285
 21
287.9088932013
 31
0.0
  0
LINE
  5
92
330
1F
100
AcDbEntity
  8
0
  6
Continuous
 62
     9
100
AcDbLine
 10
87.7955701285
 20
307.9088932013
 30
0.0
 11
87.7955701285
 21
343.9088932013
 31
0.0
  0
LINE
  5
93
330
1F
100
AcDbEntity
  8
0
  6
Continuous
 62
     9
100
AcDbLine
 10
89.5455701285
 20
251.9088932013
 30
0.0
 11
89.5455701285
 21
264.3865126176
 31
0.0
  0
LINE
  5
94
330
1F
100
AcDbEntity
  8
0
  6
Continuous
 62
     9
100
AcDbLine
 10
89.5455701285
 20
266.4088932013
 30
0.0
 11
89.5455701285
 21
287.9088932013
 31
0.0
  0
LINE
  5
95
330
1F
100
AcDbEntity
  8
0
  6
Continuous
 62
     9
100
AcDbLine
 10
89.5455701285
 20
307.9088932013
 30
0.0
 11
89.5455701285
 21
343.9088932013
 31
0.0
  0
LINE
  5
96
330
1F
100
AcDbEntity
  8
0
  6
Continuous
 62
     7
100
AcDbLine
 10
90.5455701285
 20
250.286335471
 30
0.0
 11
90.5455701285
 21
263.0269494481
 31
0.0
  0
LINE
  5
97
330
1F
100
AcDbEntity
  8
0
  6
Continuous
 62
     7
100
AcDbLine
 10
90.5455701285
 20
266.4088932013
 30
0.0
 11
90.5455701285
 21
287.9088932013
 31
0.0
  0
LINE
  5
98
330
1F
100
AcDbEntity
  8
0
  6
Continuous
 62
     7
100
AcDbLine
 10
90.5455701285
 20
307.9088932013
 30
0.0
 11
90.5455701285
 21
345.531455039
 31
0.0
  0
LINE
  5
99
330
1F
100
AcDbEntity
  8
0
  6
Continuous
 62
     7
100
AcDbLine
 10
91.9181653927
 20
347.9088932013
 30
0.0
 11
91.9181653927
 21
307.9088932013
 31
0.0
  0
LINE
  5
9A
330
1F
100
AcDbEntity
  8
0
  6
Continuous
 62
     7
100
AcDbLine
 10
91.9181653927
 20
287.9088932013
 30
0.0
 11
91.9181653927
 21
266.4088932013
 31
0.0
  0
LINE
  5
9B
330
1F
100
AcDbEntity
  8
0
  6
Continuous
 62
     7
100
AcDbLine
 10
91.9181653927
 20
259.0791365706
 30
0.0
 11
91.9181653927
 21
247.9088932013
 31
0.0
  0
LINE
  5
9C
330
1F
100
AcDbEntity
  8
0
  6
Continuous
 62
     7
100
AcDbLine
 10
97.6705701285
 20
347.9088562802
 30
0.0
 11
97.6705701285
 21
307.9088932013
 31
0.0
  0
LINE
  5
9D
330
1F
100
AcDbEntity
  8
0
  6
Continuous
 62
     7
100
AcDbLine
 10
97.6705701285
 20
287.9088932013
 30
0.0
 11
97.6705701285
 21
266.4088932013
 31
0.0
  0
LINE
  5
9E
330
1F
100
AcDbEntity
  8
0
  6
Continuous
 62
     7
100
AcDbLine
 10
97.6705701285
 20
259.0791365706
 30
0.0
 11
97.6705701285
 21
247.9088950691
 31
0.0
  0
LINE
  5
9F
330
1F
100
AcDbEntity
  8
FASEN
  6
Continuous
 62
     7
100
AcDbLine
 10
97.6705701285
 20
259.0791365706
 30
0.0
 11
97.6705701285
 21
266.4088932013
 31
0.0
  0
LINE
  5
A0
330
1F
100
AcDbEntity
  8
FASEN
  6
Continuous
 62
     7
100
AcDbLine
 10
97.6705701285
 20
287.9088932013
 30
0.0
 11
97.6705701285
 21
307.9088932013
 31
0.0
  0
LINE
  5
A1
330
1F
100
AcDbEntity
  8
BEZUGSACHSEN
  6
Continuous
 62
     9
100
AcDbLine
 10
18.6705701285
 20
284.4627092323
 30
0.0
 11
20.6705701285
 21
285.5052532529
 31
0.0
  0
LINE
  5
A2
330
1F
100
AcDbEntity
  8
BEZUGSACHSEN
  6
Continuous
 62
     7
100
AcDbLine
 10
85.4229748643
 20
247.9088932013
 30
0.0
 11
68.6705701285
 21
247.9088932013
 31
0.0
  0
LINE
  5
A3
330
1F
100
AcDbEntity
  8
BEZUGSACHSEN
  6
Continuous
 62
     7
100
AcDbLine
 10
91.9181653927
 20
247.9088932013
 30
0.0
 11
97.6705701285
 21
247.9088932013
 31
0.0
  0
LINE
  5
A4
330
1F
100
AcDbEntity
  8
BEZUGSACHSEN
  6
Continuous
 62
     7
100
AcDbLine
 10
87.7955701285
 20
251.9088932013
 30
0.0
 11
89.5455701285
 21
251.9088932013
 31
0.0
  0
LINE
  5
A5
330
1F
100
AcDbEntity
  8
BEZUGSACHSEN
  6
Continuous
 62
     9
100
AcDbLine
 10
20.6705701285
 20
310.3125331497
 30
0.0
 11
18.6705701285
 21
311.3550771703
 31
0.0
  0
LINE
  5
A6
330
1F
100
AcDbEntity
  8
FASEN
  6
Continuous
 62
     7
100
AcDbLine
 10
74.0720560929
 20
259.0791365706
 30
0.0
 11
85.4229748643
 21
259.0791365706
 31
0.0
  0
LINE
  5
A7
330
1F
100
AcDbEntity
  8
0
  6
Continuous
 62
     7
100
AcDbLine
 10
91.9181653927
 20
259.0791365706
 30
0.0
 11
97.6705701285
 21
259.0791365706
 31
0.0
  0
LINE
  5
A8
330
1F
100
AcDbEntity
  8
BEZUGSACHSEN
  6
Continuous
 62
     7
100
AcDbLine
 10
67.9699988398
 20
260.2266432013
 30
0.0
 11
67.0486327876
 21
260.2266432013
 31
0.0
  0
LINE
  5
A9
330
1F
100
AcDbEntity
  8
BEZUGSACHSEN
  6
Continuous
 62
     7
100
AcDbLine
 10
66.1705701285
 20
260.0266432013
 30
0.0
 11
20.5704956437
 21
262.311206933
 31
0.0
  0
LINE
  5
AA
330
1F
100
AcDbEntity
  8
RUNDUNGEN
  6
Continuous
 62
     9
100
AcDbLine
 10
113.3227440415
 20
320.8877592812
 30
0.0
 11
113.3227440415
 21
274.9300271213
 31
0.0
  0
LINE
  5
AB
330
1F
100
AcDbEntity
  8
0
  6
Continuous
 62
     7
100
AcDbLine
 10
87.7955701285
 20
264.3865126176
 30
0.0
 11
89.5455701285
 21
264.3865126176
 31
0.0
  0
LINE
  5
AC
330
1F
100
AcDbEntity
  8
FASEN
  6
Continuous
 62
     7
100
AcDbLine
 10
81.6424440503
 20
266.0088932013
 30
0.0
 11
97.6705701285
 21
266.0088932013
 31
0.0
  0
LINE
  5
AD
330
1F
100
AcDbEntity
  8
0
  6
Continuous
 62
     7
100
AcDbLine
 10
81.6424440503
 20
266.4088932013
 30
0.0
 11
97.6705701285
 21
266.4088932013
 31
0.0
  0
LINE
  5
AE
330
1F
100
AcDbEntity
  8
BEZUGSACHSEN
  6
Continuous
 62
     7
100
AcDbLine
 10
85.4229748643
 20
247.9088932013
 30
0.0
 11
86.7955701285
 21
250.2862979371
 31
0.0
  0
LINE
  5
AF
330
1F
100
AcDbEntity
  8
RUNDUNGEN
  6
Continuous
 62
     7
100
AcDbLine
 10
267.7490292242
 20
284.3363663592
 30
0.0
 11
224.1988535519
 21
280.9088932013
 31
0.0
  0
LINE
  5
B0
330
1F
100
AcDbEntity
  8
0
  6
Continuous
 62
     7
100
AcDbLine
 10
224.1988535519
 20
280.9088932013
 30
0.0
 11
267.7490292242
 21
284.3363663592
 31
0.0
  0
LINE
  5
B1
330
1F
100
AcDbEntity
  8
0
  6
Continuous
 62
     7
100
AcDbLine
 10
224.1988535519
 20
280.9088932013
 30
0.0
 11
167.6705701285
 21
280.9088932013
 31
0.0
  0
LINE
  5
B2
330
1F
100
AcDbEntity
  8
BEZUGSACHSEN
  6
Continuous
 62
     7
100
AcDbLine
 10
85.4229748643
 20
347.9088932013
 30
0.0
 11
86.7955701285
 21
345.5314884655
 31
0.0
  0
LINE
  5
B3
330
1F
100
AcDbEntity
  8
BEZUGSACHSEN
  6
Continuous
 62
     7
100
AcDbLine
 10
66.7898137425
 20
260.1925690276
 30
0.0
 11
66.1705701285
 21
260.0266432013
 31
0.0
  0
LINE
  5
B4
330
1F
100
AcDbEntity
  8
BEZUGSACHSEN
  6
Continuous
 62
     9
100
AcDbLine
 10
28.2244160754
 20
282.8988932013
 30
0.0
 11
19.9375230555
 21
282.8988932013
 31
0.0
  0
LINE
  5
B5
330
1F
100
AcDbEntity
  8
BEZUGSACHSEN
  6
Continuous
 62
     7
100
AcDbLine
 10
26.6705701285
 20
287.8988932013
 30
0.0
 11
20.6705701285
 21
287.8988932013
 31
0.0
  0
LINE
  5
B6
330
1F
100
AcDbEntity
  8
0
  6
Continuous
 62
     7
100
AcDbLine
 10
83.6705701285
 20
287.9088932013
 30
0.0
 11
97.6705701285
 21
287.9088932013
 31
0.0
  0
LINE
  5
B7
330
1F
100
AcDbEntity
  8
FASEN
  6
Continuous
 62
     7
100
AcDbLine
 10
97.6705701285
 20
288.3088932013
 30
0.0
 11
83.6705701285
 21
288.3088932013
 31
0.0
  0
LWPOLYLINE
  5
B8
330
1F
100
AcDbEntity
  8
DEFAULT_2
  6
DASHED
 62
     8
100
AcDbPolyline
 90
        2
 70
     0
 43
0.35
 10
268.6705701285
 20
289.9088932013
 10
218.6705701285
 20
289.9088932013
  0
LWPOLYLINE
  5
B9
330
1F
100
AcDbEntity
  8
BEZUGSACHSEN
  6
DOT_CENTER
 62
     7
100
AcDbPolyline
 90
        2
 70
     0
 43
0.25
 10
271.6705701285
 20
297.9088932013
 10
15.6705701285
 20
297.9088932013
  0
LWPOLYLINE
  5
BA
330
1F
100
AcDbEntity
  8
DEFAULT_2
  6
DASHED
 62
     8
100
AcDbPolyline
 90
        2
 70
     0
 43
0.35
 10
268.6705701285
 20
305.9088932013
 10
218.6705701285
 20
305.9088932013
  0
LINE
  5
BB
330
1F
100
AcDbEntity
  8
FASEN
  6
Continuous
 62
     7
100
AcDbLine
 10
83.6705701285
 20
307.5088932013
 30
0.0
 11
97.6705701285
 21
307.5088932013
 31
0.0
  0
LINE
  5
BC
330
1F
100
AcDbEntity
  8
0
  6
Continuous
 62
     7
100
AcDbLine
 10
83.6705701285
 20
307.9088932013
 30
0.0
 11
97.6705701285
 21
307.9088932013
 31
0.0
  0
LINE
  5
BD
330
1F
100
AcDbEntity
  8
BEZUGSACHSEN
  6
Continuous
 62
     7
100
AcDbLine
 10
26.6705701285
 20
307.9188932013
 30
0.0
 11
20.6705701285
 21
307.9188932013
 31
0.0
  0
LINE
  5
BE
330
1F
100
AcDbEntity
  8
BEZUGSACHSEN
  6
Continuous
 62
     9
100
AcDbLine
 10
19.9375230555
 20
312.9188932013
 30
0.0
 11
28.2244160754
 21
312.9188932013
 31
0.0
  0
LINE
  5
BF
330
1F
100
AcDbEntity
  8
0
  6
Continuous
 62
     7
100
AcDbLine
 10
224.1988535519
 20
314.9088932013
 30
0.0
 11
167.6705701285
 21
314.9088932013
 31
0.0
  0
LINE
  5
C0
330
1F
100
AcDbEntity
  8
BEZUGSACHSEN
  6
Continuous
 62
     7
100
AcDbLine
 10
66.7898137425
 20
335.625217375
 30
0.0
 11
66.1705701285
 21
335.7911432013
 31
0.0
  0
LINE
  5
C1
330
1F
100
AcDbEntity
  8
0
  6
Continuous
 62
     9
100
AcDbLine
 10
167.6705701285
 20
314.9088932013
 30
0.0
 11
167.6705701285
 21
280.9088932013
 31
0.0
  0
LINE
  5
C2
330
1F
100
AcDbEntity
  8
RUNDUNGEN
  6
Continuous
 62
     7
100
AcDbLine
 10
267.7490292242
 20
311.4814200434
 30
0.0
 11
224.1988535519
 21
314.9088932013
 31
0.0
  0
LINE
  5
C3
330
1F
100
AcDbEntity
  8
0
  6
Continuous
 62
     7
100
AcDbLine
 10
224.1988535519
 20
314.9088932013
 30
0.0
 11
267.7490292242
 21
311.4814200434
 31
0.0
  0
LINE
  5
C4
330
1F
100
AcDbEntity
  8
BEZUGSACHSEN
  6
Continuous
 62
     7
100
AcDbLine
 10
66.1705701285
 20
335.7911432013
 30
0.0
 11
20.5704956437
 21
333.5065794696
 31
0.0
  0
LINE
  5
C5
330
1F
100
AcDbEntity
  8
BEZUGSACHSEN
  6
Continuous
 62
     7
100
AcDbLine
 10
67.9699988398
 20
335.5911432013
 30
0.0
 11
67.0486327876
 21
335.5911432013
 31
0.0
  0
LINE
  5
C6
330
1F
100
AcDbEntity
  8
BEZUGSACHSEN
  6
Continuous
 62
     7
100
AcDbLine
 10
87.7955701285
 20
343.9088932013
 30
0.0
 11
89.5455701285
 21
343.9088932013
 31
0.0
  0
LINE
  5
C7
330
1F
100
AcDbEntity
  8
BEZUGSACHSEN
  6
Continuous
 62
     7
100
AcDbLine
 10
85.4229748643
 20
347.9088932013
 30
0.0
 11
80.6705701285
 21
347.9088932013
 31
0.0
  0
LINE
  5
C8
330
1F
100
AcDbEntity
  8
BEZUGSACHSEN
  6
Continuous
 62
     7
100
AcDbLine
 10
70.6705701285
 20
347.9088932013
 30
0.0
 11
68.6705701285
 21
347.9088932013
 31
0.0
  0
LINE
  5
C9
330
1F
100
AcDbEntity
  8
BEZUGSACHSEN
  6
Continuous
 62
     7
100
AcDbLine
 10
91.9181653927
 20
347.9088932013
 30
0.0
 11
97.6705701285
 21
347.9088932013
 31
0.0
  0
LWPOLYLINE
  5
CA
330
1F
100
AcDbEntity
  8
DEFAULT_2
  6
DASHED
 62
     8
100
AcDbPolyline
 90
        2
 70
     0
 43
0.35
 10
218.6705701285
 20
305.9088932013
 10
218.6705701285
 20
289.9088932013
  0
LINE
  5
CB
330
1F
100
AcDbEntity
  8
0
  6
Continuous
 62
     7
100
AcDbLine
 10
224.1988535519
 20
314.9088932013
 30
0.0
 11
224.1988535519
 21
280.9088932013
 31
0.0
  0
LINE
  5
CC
330
1F
100
AcDbEntity
  8
RUNDUNGEN
  6
Continuous
 62
     9
100
AcDbLine
 10
267.7490292242
 20
284.3363663592
 30
0.0
 11
267.7490292242
 21
311.4814200434
 31
0.0
  0
LINE
  5
CD
330
1F
100
AcDbEntity
  8
RUNDUNGEN
  6
Continuous
 62
     7
100
AcDbLine
 10
268.6705701285
 20
310.4845027096
 30
0.0
 11
268.6705701285
 21
285.3332836929
 31
0.0
  0
LWPOLYLINE
  5
CE
330
1F
100
AcDbEntity
  8
1
  6
Continuous
 62
     7
100
AcDbPolyline
 90
        2
 70
     0
 43
0.25
 10
268.6705701285
 20
310.4845027096
 10
268.6705701285
 20
311.4088932013528
  0
LWPOLYLINE
  5
CF
330
1F
100
AcDbEntity
  8
1
  6
Continuous
 62
     7
100
AcDbPolyline
 90
        2
 70
     0
 43
0.25
 10
267.7490292242
 20
311.4814200434
 10
268.6705701285094
 20
311.4088932013528
  0
LWPOLYLINE
  5
D0
330
1F
100
AcDbEntity
  8
1
  6
Continuous
 62
     7
100
AcDbPolyline
 90
        2
 70
     0
 43
0.25
 10
267.7490292242
 20
284.3363663592
 10
268.6705701285
 20
284.4088932012486
  0
LWPOLYLINE
  5
D1
330
1F
100
AcDbEntity
  8
1
  6
Continuous
 62
     7
100
AcDbPolyline
 90
        2
 70
     0
 43
0.25
 10
268.6705701285
 20
285.3332836929
 10
268.6705701285
 20
284.4088932012486
  0
ARC
  5
D2
330
1F
100
AcDbEntity
  8
FASEN
  6
Continuous
 62
     7
100
AcDbCircle
 10
86.5712241514
 20
273.4401564713
 30
0.0
 40
19.03859487309966
100
AcDbArc
 50
227.4837701982989
 51
228.9651953373019
  0
ARC
  5
D3
330
1F
100
AcDbEntity
  8
FASEN
  6
Continuous
 62
     7
100
AcDbCircle
 10
81.6424440503
 20
258.4088932013
 30
0.0
 40
8.0
100
AcDbArc
 50
90.0
 51
172.8323734889967
  0
ARC
  5
D4
330
1F
100
AcDbEntity
  8
FASEN
  6
Continuous
 62
     7
100
AcDbCircle
 10
81.6424440503
 20
258.4088932013
 30
0.0
 40
7.599982194900008
100
AcDbArc
 50
90.0
 51
174.9405171273013
  0
ARC
  5
D5
330
1F
100
AcDbEntity
  8
BEZUGSACHSEN
  6
Continuous
 62
     7
100
AcDbCircle
 10
26.6705701285
 20
289.8988932013
 30
0.0
 40
2.0
100
AcDbArc
 50
270.0
 51
359.9999999999153
  0
ARC
  5
D6
330
1F
100
AcDbEntity
  8
BEZUGSACHSEN
  6
Continuous
 62
     7
100
AcDbCircle
 10
20.6705701285
 20
264.3087016382
 30
0.0
 40
2.0
100
AcDbArc
 50
179.9999999971339
 51
267.1318795106973
  0
ARC
  5
D7
330
1F
100
AcDbEntity
  8
BEZUGSACHSEN
  6
Continuous
 62
     7
100
AcDbCircle
 10
87.7955701285
 20
250.9088932013
 30
0.0
 40
1.0
100
AcDbArc
 50
90.0
 51
180.0
  0
ARC
  5
D8
330
1F
100
AcDbEntity
  8
BEZUGSACHSEN
  6
Continuous
 62
     7
100
AcDbCircle
 10
67.0486327876
 20
259.2266432013
 30
0.0
 40
1.0
100
AcDbArc
 50
90.0
 51
104.999999999699
  0
ARC
  5
D9
330
1F
100
AcDbEntity
  8
BEZUGSACHSEN
  6
Continuous
 62
     7
100
AcDbCircle
 10
67.9699988398
 20
259.2266432013
 30
0.0
 40
0.9999999999998127
100
AcDbArc
 50
45.49026120128689
 51
90.0
  0
ARC
  5
DA
330
1F
100
AcDbEntity
  8
0
  6
Continuous
 62
     7
100
AcDbCircle
 10
-155.927209754
 20
367.3433607917
 30
0.0
 40
264.5204223901892
100
AcDbArc
 50
335.840076470599
 51
336.5770705490999
  0
ARC
  5
DB
330
1F
100
AcDbEntity
  8
BEZUGSACHSEN
  6
Continuous
 62
     7
100
AcDbCircle
 10
75.6857781396
 20
397.9616629681
 30
0.0
 40
50.30340021035248
100
AcDbArc
 50
264.2781515101899
 51
269.9826780125999
  0
ARC
  5
DC
330
1F
100
AcDbEntity
  8
BEZUGSACHSEN
  6
Continuous
 62
     7
100
AcDbCircle
 10
75.6553621274
 20
397.9616627674
 30
0.0
 40
50.30340000969741
100
AcDbArc
 50
270.017321976058
 51
275.7218485012678
  0
ARC
  5
DD
330
1F
100
AcDbEntity
  8
0
  6
Continuous
 62
     7
100
AcDbCircle
 10
83.6705701285
 20
297.9088932013
 30
0.0
 40
10.0
100
AcDbArc
 50
90.0
 51
270.0
  0
ARC
  5
DE
330
1F
100
AcDbEntity
  8
FASEN
  6
Continuous
 62
     7
100
AcDbCircle
 10
83.6705701285
 20
297.9088932013
 30
0.0
 40
9.599999195900011
100
AcDbArc
 50
90.0
 51
270.0
  0
ARC
  5
DF
330
1F
100
AcDbEntity
  8
BEZUGSACHSEN
  6
Continuous
 62
     7
100
AcDbCircle
 10
26.6705701285
 20
305.9188932013
 30
0.0
 40
2.0
100
AcDbArc
 50
0.0
 51
90.0
  0
ARC
  5
E0
330
1F
100
AcDbEntity
  8
BEZUGSACHSEN
  6
Continuous
 62
     7
100
AcDbCircle
 10
20.6705701285
 20
331.5090847643
 30
0.0
 40
2.000000000052407
100
AcDbArc
 50
92.86812048915934
 51
180.0000000114593
  0
ARC
  5
E1
330
1F
100
AcDbEntity
  8
BEZUGSACHSEN
  6
Continuous
 62
     7
100
AcDbCircle
 10
87.7955701285
 20
344.9088932013
 30
0.0
 40
1.0
100
AcDbArc
 50
180.0
 51
270.0
  0
ARC
  5
E2
330
1F
100
AcDbEntity
  8
BEZUGSACHSEN
  6
Continuous
 62
     7
100
AcDbCircle
 10
67.0486327876
 20
336.5911432013
 30
0.0
 40
1.000000000009914
100
AcDbArc
 50
255.0000000003019
 51
270.0
  0
ARC
  5
E3
330
1F
100
AcDbEntity
  8
BEZUGSACHSEN
  6
Continuous
 62
     7
100
AcDbCircle
 10
67.9699988398
 20
336.5911432013
 30
0.0
 40
1.0
100
AcDbArc
 50
270.0
 51
314.5097387987131
  0
ARC
  5
E4
330
1F
100
AcDbEntity
  8
BEZUGSACHSEN
  6
Continuous
 62
     7
100
AcDbCircle
 10
205.0006167309
 20
-1308.1338661264
 30
0.0
 40
1632.1727637359
100
AcDbArc
 50
96.2726189838
 51
96.48809068979999
  0
ARC
  5
E5
330
1F
100
AcDbEntity
  8
0
  6
Continuous
 62
     7
100
AcDbCircle
 10
167.6705701285
 20
30.9088932013
 30
0.0
 40
250.0
100
AcDbArc
 50
90.0
 51
102.5558577985977
  0
ARC
  5
E6
330
1F
100
AcDbEntity
  8
RUNDUNGEN
  6
Continuous
 62
     7
100
AcDbCircle
 10
167.6705701285
 20
30.9088932013
 30
0.0
 40
250.0
100
AcDbArc
 50
90.0
 51
102.5558577985977
  0
ARC
  5
E7
330
1F
100
AcDbEntity
  8
RUNDUNGEN
  6
Continuous
 62
     7
100
AcDbCircle
 10
117.6705701285
 20
255.4083364077
 30
0.0
 40
20.00000000000634
100
AcDbArc
 50
102.5558577987095
 51
180.0
  0
ARC
  5
E8
330
1F
100
AcDbEntity
  8
RUNDUNGEN
  6
Continuous
 62
     7
100
AcDbCircle
 10
267.6705701285
 20
285.3332836929
 30
0.0
 40
0.9999999999648148
100
AcDbArc
 50
274.4999999985582
 51
0.0
  0
ARC
  5
E9
330
1F
100
AcDbEntity
  8
BEZUGSACHSEN
  6
Continuous
 62
     7
100
AcDbCircle
 10
89.5455701285
 20
250.9088932013
 30
0.0
 40
1.0
100
AcDbArc
 50
0.0
 51
90.0
  0
ARC
  5
EA
330
1F
100
AcDbEntity
  8
BEZUGSACHSEN
  6
Continuous
 62
     7
100
AcDbCircle
 10
205.000616732
 20
1903.9516525385
 30
0.0
 40
1632.1727637455
100
AcDbArc
 50
263.5119093102
 51
263.7273810162
  0
ARC
  5
EB
330
1F
100
AcDbEntity
  8
0
  6
Continuous
 62
     7
100
AcDbCircle
 10
333.2683500117
 20
367.343360792
 30
0.0
 40
264.5204223909001
100
AcDbArc
 50
203.4229294509001
 51
204.1599235293982
  0
ARC
  5
EC
330
1F
100
AcDbEntity
  8
0
  6
Continuous
 62
     7
100
AcDbCircle
 10
167.6705701285
 20
564.9088932013
 30
0.0
 40
250.0000000000684
100
AcDbArc
 50
257.4441422014073
 51
270.0
  0
ARC
  5
ED
330
1F
100
AcDbEntity
  8
RUNDUNGEN
  6
Continuous
 62
     7
100
AcDbCircle
 10
167.6705701285
 20
564.9088932013
 30
0.0
 40
250.0000000000684
100
AcDbArc
 50
257.4441422014073
 51
270.0
  0
ARC
  5
EE
330
1F
100
AcDbEntity
  8
RUNDUNGEN
  6
Continuous
 62
     7
100
AcDbCircle
 10
117.6705701285
 20
340.4094499948
 30
0.0
 40
20.0
100
AcDbArc
 50
180.0
 51
257.4441422012905
  0
ARC
  5
EF
330
1F
100
AcDbEntity
  8
BEZUGSACHSEN
  6
Continuous
 62
     7
100
AcDbCircle
 10
89.5455701285
 20
344.9088932013
 30
0.0
 40
1.0
100
AcDbArc
 50
270.0
 51
0.0
  0
ARC
  5
F0
330
1F
100
AcDbEntity
  8
RUNDUNGEN
  6
Continuous
 62
     7
100
AcDbCircle
 10
267.6705701285
 20
310.4845027096
 30
0.0
 40
1.0
100
AcDbArc
 50
0.0
 51
85.50000000189128
  0
CIRCLE
  5
F1
330
1F
100
AcDbEntity
  8
BEZUGSACHSEN
  6
Continuous
 62
     7
100
AcDbCircle
 10
53.6705701285
 20
297.9088932013
 30
0.0
 40
6.0
  0
SPLINE
  5
F2
330
1F
100
AcDbEntity
  8
BEZUGSACHSEN
  6
Continuous
 62
     7
100
AcDbSpline
210
0.0
220
0.0
230
1.0
 70
     8
 71
     3
 72
    19
 73
    15
 74
    13
 42
0.0000000001
 43
0.0000000001
 44
0.00000001
 40
0.0
 40
0.0
 40
0.0
 40
0.0
 40
0.2679411643344711
 40
0.5361267936840858
 40
0.8065304773471209
 40
1.076465993216711
 40
1.213913376149526
 40
1.351353104892713
 40
1.491586367076667
 40
1.631807897568768
 40
1.775491562785917
 40
1.919219204766685
 40
2.065713007396956
 40
2.21193640931829
 40
2.21193640931829
 40
2.21193640931829
 40
2.21193640931829
 10
28.2244160754
 20
282.8988932013
 30
0.0
 10
28.19052183160106
 20
282.8162216215964
 30
0.0
 10
28.12270241946477
 20
282.6508030340293
 30
0.0
 10
27.99806391319212
 20
282.4121370603627
 30
0.0
 10
27.85315311388854
 20
282.184449064341
 30
0.0
 10
27.7101094823729
 20
282.0086445730102
 30
0.0
 10
27.58100309545313
 20
281.8806948538784
 30
0.0
 10
27.47488799637108
 20
281.7916078330657
 30
0.0
 10
27.36007856871207
 20
281.7123061927457
 30
0.0
 10
27.23561895647305
 20
281.6446357253146
 30
0.0
 10
27.10276540133748
 20
281.5918330386336
 30
0.0
 10
26.96211460246033
 20
281.5566667746435
 30
0.0
 10
26.81678921937154
 20
281.5403145727685
 30
0.0
 10
26.71927980032755
 20
281.5469373060635
 30
0.0
 10
26.6705701285
 20
281.5502456138
 30
0.0
 11
28.2244160754
 21
282.8988932013
 31
0.0
 11
28.11897881568353
 21
282.6525693254609
 31
0.0
 11
27.99510930012421
 21
282.4147040801964
 31
0.0
 11
27.84876381384595
 21
282.1873252096202
 31
0.0
 11
27.67751162272312
 21
281.9786679074153
 31
0.0
 11
27.57971918402113
 21
281.8820841509767
 31
0.0
 11
27.47430219474158
 21
281.793897205184
 31
0.0
 11
27.35876355101684
 21
281.7144227462113
 31
0.0
 11
27.23544154112187
 21
281.6476862532782
 31
0.0
 11
27.10181085292201
 21
281.5948863023174
 31
0.0
 11
26.96238315171423
 21
281.5599928759269
 31
0.0
 11
26.81668871319605
 21
281.5447100491612
 31
0.0
 11
26.6705701285
 21
281.5502456138
 31
0.0
  0
SPLINE
  5
F3
330
1F
100
AcDbEntity
  8
BEZUGSACHSEN
  6
Continuous
 62
     7
100
AcDbSpline
210
0.0
220
0.0
230
1.0
 70
     8
 71
     3
 72
    47
 73
    43
 74
    41
 42
0.0000000001
 43
0.0000000001
 44
0.00000001
 40
0.0
 40
0.0
 40
0.0
 40
0.0
 40
0.6366022431821172
 40
1.273595002171231
 40
1.592921746400039
 40
1.912076344893161
 40
2.231392290438343
 40
2.550826842753554
 40
3.1897743211803
 40
3.829081697009424
 40
4.468337152510559
 40
5.107221744786886
 40
5.426176341293344
 40
5.745033356850545
 40
6.063356731617794
 40
6.381780214908664
 40
7.017059195678519
 40
7.652639341004081
 40
8.287532214273096
 40
8.922347946553279
 40
9.559226748619146
 40
10.19613435938666
 40
10.8345178550345
 40
11.47287689974292
 40
12.11234487366442
 40
12.7518958895128
 40
13.39354300524269
 40
14.03487957360982
 40
14.35615205776638
 40
14.67732107716488
 40
14.9984088247661
 40
15.31959604125666
 40
15.96011121031316
 40
16.60099592094749
 40
17.23809108086463
 40
17.87482555210509
 40
18.19205670343532
 40
18.50917199110405
 40
18.82571084636659
 40
19.14241581833209
 40
19.77338975000505
 40
20.40398930747564
 40
20.40398930747564
 40
20.40398930747564
 40
20.40398930747564
 10
47.1711545342
 20
297.9088931818
 30
0.0
 10
47.17716017808672
 20
298.1211729914953
 30
0.0
 10
47.18917514994845
 20
298.545862831321
 30
0.0
 10
47.27044049515648
 20
299.0720055924368
 30
0.0
 10
47.36316009175829
 20
299.4869799685641
 30
0.0
 10
47.44845305589367
 20
299.7948039442644
 30
0.0
 10
47.54869166930366
 20
300.0980966210621
 30
0.0
 10
47.70217721841953
 20
300.4955339836241
 30
0.0
 10
47.93064916520587
 20
300.9776335605051
 30
0.0
 10
48.26026412578771
 20
301.5264494333221
 30
0.0
 10
48.64249134285814
 20
302.0399849726788
 30
0.0
 10
49.00134603997962
 20
302.4344877347704
 30
0.0
 10
49.31029939356927
 20
302.7273610328047
 30
0.0
 10
49.55219450255536
 20
302.9350828539139
 30
0.0
 10
49.80383775602719
 20
303.1305922510511
 30
0.0
 10
50.15113186315484
 20
303.3740874537345
 30
0.0
 10
50.60687219790105
 20
303.6459695237813
 30
0.0
 10
51.18235162259868
 20
303.9172986362931
 30
0.0
 10
51.78146238778374
 20
304.131082267101
 30
0.0
 10
52.39891279025667
 20
304.285771998471
 30
0.0
 10
53.02918335194482
 20
304.3795789821263
 30
0.0
 10
53.66677728665387
 20
304.4117057069324
 30
0.0
 10
54.3049559308705
 20
304.3812761339822
 30
0.0
 10
54.93796835205889
 20
304.2886048788185
 30
0.0
 10
55.55920203649738
 20
304.1341129175905
 30
0.0
 10
56.16333778847816
 20
303.9190757850498
 30
0.0
 10
56.74381686205804
 20
303.6451524193195
 30
0.0
 10
57.20344588628387
 20
303.3699855412601
 30
0.0
 10
57.55334487494724
 20
303.1233758424025
 30
0.0
 10
57.80647650409649
 20
302.9254716500316
 30
0.0
 10
58.04947514345061
 20
302.7152931206298
 30
0.0
 10
58.3587194869558
 20
302.4197737804745
 30
0.0
 10
58.71703967775298
 20
302.0223027977078
 30
0.0
 10
59.09699009609625
 20
301.5066360361531
 30
0.0
 10
59.42346312570778
 20
300.9570398796827
 30
0.0
 10
59.64883426570285
 20
300.4759343379721
 30
0.0
 10
59.7999252488617
 20
300.0799441503522
 30
0.0
 10
59.89833816641099
 20
299.778517799569
 30
0.0
 10
59.9820049445826
 20
299.4728224316529
 30
0.0
 10
60.07282430201657
 20
299.0612704139371
 30
0.0
 10
60.15233927762208
 20
298.5398451974092
 30
0.0
 10
60.16411156228958
 20
298.1191689082546
 30
0.0
 10
60.1699959579
 20
297.9088931819
 30
0.0
 11
47.1711545342
 21
297.9088931818
 31
0.0
 11
47.2024032052398
 21
298.5447280161578
 31
0.0
 11
47.29584440761341
 21
299.1748300052861
 31
0.0
 11
47.36578491464628
 21
299.486403263214
 31
0.0
 11
47.45092625361149
 21
299.7939916409829
 31
0.0
 11
47.55115079172474
 21
300.0971709856609
 31
0.0
 11
47.66623068145398
 21
300.3951559721833
 31
0.0
 11
47.93982657570081
 21
300.9725632520466
 31
0.0
 11
48.26904608939644
 21
301.5205855441037
 31
0.0
 11
48.65067034472631
 21
302.0334310034108
 31
0.0
 11
49.08060498085266
 21
302.5060087545872
 31
0.0
 11
49.31207724193506
 21
302.7254458229736
 31
0.0
 11
49.55397964297602
 21
302.9331788842341
 31
0.0
 11
49.80535345011586
 21
303.1284760424501
 31
0.0
 11
50.06608272838067
 21
303.3112703480687
 31
0.0
 11
50.6116163725635
 21
303.6368044115284
 31
0.0
 11
51.18652619269264
 21
303.9078040791503
 31
0.0
 11
51.78447238047074
 21
304.1212269388664
 31
0.0
 11
52.40026491271301
 21
304.2754688630799
 31
0.0
 11
53.03019719467198
 21
304.3692767980685
 31
0.0
 11
53.66630031637837
 21
304.4012787231507
 31
0.0
 11
54.30396127538246
 21
304.3709144533992
 31
0.0
 11
54.93557880829093
 21
304.2783857438887
 31
0.0
 11
55.55615168041582
 21
304.1240853872659
 31
0.0
 11
56.15865248756963
 21
303.9095666718779
 31
0.0
 11
56.73895968395077
 21
303.6357883327918
 31
0.0
 11
57.2891846719988
 21
303.3062962138383
 31
0.0
 11
57.55179197614626
 21
303.1212194381896
 31
0.0
 11
57.80481243353812
 21
302.9234059220624
 31
0.0
 11
58.04766073490242
 21
302.7133534424672
 31
0.0
 11
58.27986317030946
 21
302.4914452248906
 31
0.0
 11
58.70877922804371
 21
302.0157450070967
 31
0.0
 11
59.08888988671679
 21
301.4997516936827
 31
0.0
 11
59.41432903244197
 21
300.9520477542962
 31
0.0
 11
59.68440989057164
 21
300.3754307957025
 31
0.0
 11
59.79750033575585
 21
300.0790422760491
 31
0.0
 11
59.895944439095
 21
299.7775943299772
 31
0.0
 11
59.97942724446922
 21
299.472262595469
 31
0.0
 11
60.0479766679035
 21
299.1630652219121
 31
0.0
 11
60.13940374578777
 21
298.5387502438118
 31
0.0
 11
60.1699959579
 21
297.9088931819
 31
0.0
  0
SPLINE
  5
F4
330
1F
100
AcDbEntity
  8
BEZUGSACHSEN
  6
Continuous
 62
     7
100
AcDbSpline
210
0.0
220
0.0
230
1.0
 70
     8
 71
     3
 72
    47
 73
    43
 74
    41
 42
0.0000000001
 43
0.0000000001
 44
0.00000001
 40
0.0
 40
0.0
 40
0.0
 40
0.0
 40
0.6302393214461299
 40
1.260854867303333
 40
1.577476088392402
 40
1.893930800229889
 40
2.210999113884143
 40
2.528183472228181
 40
3.164887038253267
 40
3.80195118338363
 40
4.442851001627429
 40
5.083381259808975
 40
5.404527292315997
 40
5.725573838741496
 40
6.046670710001727
 40
6.367871027120731
 40
7.009090242522046
 40
7.650619763955221
 40
8.290330346501396
 40
8.929958764480343
 40
9.568647011335964
 40
10.20735923012028
 40
10.84445705815674
 40
11.48152626497342
 40
12.11643462224628
 40
12.75141965581541
 40
13.38691908739882
 40
14.02211738532135
 40
14.34050449142438
 40
14.65879153790034
 40
14.97761586865715
 40
15.29653774942124
 40
15.93537694099427
 40
16.57458694066732
 40
17.21386274990834
 40
17.85277859074002
 40
18.17219860083496
 40
18.49150024078149
 40
18.81067156637162
 40
19.13001452422645
 40
19.76719627024675
 40
20.40398968274383
 40
20.40398968274383
 40
20.40398968274383
 40
20.40398968274383
 10
60.1699837663
 20
297.90889322
 30
0.0
 10
60.16411456455578
 20
297.6987371981145
 30
0.0
 10
60.15237265741897
 20
297.2782997006899
 30
0.0
 10
60.07292591485643
 20
296.7571362584392
 30
0.0
 10
59.98219440979531
 20
296.345744791008
 30
0.0
 10
59.8985890274938
 20
296.0401069507029
 30
0.0
 10
59.80023708610007
 20
295.7387231045097
 30
0.0
 10
59.64921827521357
 20
295.342749924928
 30
0.0
 10
59.42393568761876
 20
294.861643116254
 30
0.0
 10
59.09755765288665
 20
294.3120088912476
 30
0.0
 10
58.71769059084281
 20
293.7962810285804
 30
0.0
 10
58.35943615154483
 20
293.3987556263763
 30
0.0
 10
58.05025541385962
 20
293.1032022714634
 30
0.0
 10
57.807330457835
 20
292.8930173630448
 30
0.0
 10
57.55428155453633
 20
292.6951078987109
 30
0.0
 10
57.20449904610172
 20
292.4484845472064
 30
0.0
 10
56.74501380833843
 20
292.173277937915
 30
0.0
 10
56.16461810135411
 20
291.8992378312102
 30
0.0
 10
55.56046379351223
 20
291.684049353853
 30
0.0
 10
54.93904864611688
 20
291.5293875148107
 30
0.0
 10
54.3057794346953
 20
291.4365771417763
 30
0.0
 10
53.66731997026426
 20
291.4060663919693
 30
0.0
 10
53.02948695669926
 20
291.4381681343524
 30
0.0
 10
52.39905696968422
 20
291.5319811967256
 30
0.0
 10
51.78148330017071
 20
291.686695013015
 30
0.0
 10
51.18233988873385
 20
291.9004915850895
 30
0.0
 10
50.60688266727554
 20
292.1718129535418
 30
0.0
 10
50.15119727433953
 20
292.4436578371901
 30
0.0
 10
49.8039413766212
 20
292.6871183897879
 30
0.0
 10
49.55232179534086
 20
292.8826009161108
 30
0.0
 10
49.31044674507739
 20
293.090293974799
 30
0.0
 10
49.00151046139371
 20
293.3831315229297
 30
0.0
 10
48.64266770450618
 20
293.7775891718821
 30
0.0
 10
48.26044079926901
 20
294.2910738378482
 30
0.0
 10
47.93081635400361
 20
294.8398416165674
 30
0.0
 10
47.70232890808059
 20
295.3219050330623
 30
0.0
 10
47.54882740812037
 20
295.7193145922399
 30
0.0
 10
47.44857060519708
 20
296.0225969555319
 30
0.0
 10
47.36325411227156
 20
296.3304208272359
 30
0.0
 10
47.27049165690354
 20
296.7454616943386
 30
0.0
 10
47.18919928994875
 20
297.2717344933943
 30
0.0
 10
47.1771594904577
 20
297.6965501430797
 30
0.0
 10
47.1711414257
 20
297.9088932217
 30
0.0
 11
60.1699837663
 21
297.90889322
 31
0.0
 11
60.13944418757877
 21
297.279394263346
 31
0.0
 11
60.04811291205196
 21
296.6554274655215
 31
0.0
 11
59.97961817336387
 21
296.3463037549848
 31
0.0
 11
59.89619934851622
 21
296.0410417620915
 31
0.0
 11
59.79781260465251
 21
295.7396245028719
 31
0.0
 11
59.68478197352713
 21
295.4432632476351
 31
0.0
 11
59.41480183701715
 21
294.8666332476532
 31
0.0
 11
59.08946521518139
 21
294.3189044758116
 31
0.0
 11
58.70942872036787
 21
293.8028377750501
 31
0.0
 11
58.28057822267544
 21
293.327058138795
 31
0.0
 11
58.0484410883011
 21
293.1051412060488
 31
0.0
 11
57.80565859497487
 21
292.8950756307966
 31
0.0
 11
57.55272898670125
 21
292.6972630579109
 31
0.0
 11
57.29021459088973
 21
292.5121797369199
 31
0.0
 11
56.74015640928581
 21
292.182637510414
 31
0.0
 11
56.16001557759982
 21
291.90878217948
 31
0.0
 11
55.55741026729291
 21
291.6940812958966
 31
0.0
 11
54.93671099698375
 21
291.5396244121914
 31
0.0
 11
54.30478218309261
 21
291.446949437977
 31
0.0
 11
53.66679605593012
 21
291.416502763732
 31
0.0
 11
53.03050106778643
 21
291.4484766679665
 31
0.0
 11
52.40037779364752
 21
291.5422947561078
 31
0.0
 11
51.78449388539156
 21
291.6965530903601
 31
0.0
 11
51.18646141557051
 21
291.9100083734911
 31
0.0
 11
50.61162566702796
 21
292.1809758802891
 31
0.0
 11
50.06615897951566
 21
292.5064646980664
 31
0.0
 11
49.80545668676741
 21
292.6892341262771
 31
0.0
 11
49.55410743498463
 21
292.8845036773664
 31
0.0
 11
49.31222413664605
 21
293.0922088142008
 31
0.0
 11
49.08076830534743
 21
293.3116156604658
 31
0.0
 11
48.6508452744672
 21
293.7841425911358
 31
0.0
 11
48.2692241350094
 21
294.2969337080645
 31
0.0
 11
47.93999266083036
 21
294.8449119892862
 31
0.0
 11
47.66637835368633
 21
295.4222755338504
 31
0.0
 11
47.55128610122637
 21
295.7202401563691
 31
0.0
 11
47.45104641279948
 21
296.0233994249667
 31
0.0
 11
47.36587933258085
 21
296.3309980327757
 31
0.0
 11
47.2959163050974
 21
296.6425828519129
 31
0.0
 11
47.20242740811691
 21
297.2728688216147
 31
0.0
 11
47.1711414257
 21
297.9088932217
 31
0.0
  0
SPLINE
  5
F5
330
1F
100
AcDbEntity
  8
BEZUGSACHSEN
  6
Continuous
 62
     7
100
AcDbSpline
210
0.0
220
0.0
230
1.0
 70
     8
 71
     3
 72
    27
 73
    23
 74
    21
 42
0.0000000001
 43
0.0000000001
 44
0.00000001
 40
0.0
 40
0.0
 40
0.0
 40
0.0
 40
0.1219765139516402
 40
0.2439857714748843
 40
0.3566831398333861
 40
0.4694418149629515
 40
0.5721317672948611
 40
0.6745445881156018
 40
0.7225206521221962
 40
0.7704888797708686
 40
0.8171412936045953
 40
0.8637898734267799
 40
0.9102318000825935
 40
0.9566751324135985
 40
1.004175175749458
 40
1.051683100142937
 40
1.153672388761917
 40
1.256049376711145
 40
1.370745138132346
 40
1.485385401913331
 40
1.611534903949034
 40
1.737631875993902
 40
1.737631875993902
 40
1.737631875993902
 40
1.737631875993902
 10
19.8164128041
 20
282.6665572058
 30
0.0
 10
19.78115778649662
 20
282.6462776805351
 30
0.0
 10
19.71063828737621
 20
282.605713186137
 30
0.0
 10
19.60298588419032
 20
282.5549173252453
 30
0.0
 10
19.4948278683191
 20
282.5131656893761
 30
0.0
 10
19.38924864735063
 20
282.483751104235
 30
0.0
 10
19.28441710220493
 20
282.4668365168466
 30
0.0
 10
19.19968943235557
 20
282.4649712936185
 30
0.0
 10
19.13386549595179
 20
282.4719266016381
 30
0.0
 10
19.08715829273774
 20
282.4811237287916
 30
0.0
 10
19.04197767543369
 20
282.4946571737788
 30
0.0
 10
18.99883806478194
 20
282.5124504325849
 30
0.0
 10
18.95788358820382
 20
282.5346787902888
 30
0.0
 10
18.91923616173293
 20
282.5612138219907
 30
0.0
 10
18.88333008309976
 20
282.5919090995218
 30
0.0
 10
18.83789076156172
 20
282.6394465726422
 30
0.0
 10
18.78934762147481
 20
282.7086159397454
 30
0.0
 10
18.74312191250761
 20
282.804773994469
 30
0.0
 10
18.70915603872499
 20
282.9103494274664
 30
0.0
 10
18.68620061454728
 20
283.0267671183752
 30
0.0
 10
18.67275605619754
 20
283.1485144270308
 30
0.0
 10
18.6712986698996
 20
283.232617790548
 30
0.0
 10
18.6705701285
 20
283.2746607151
 30
0.0
 11
19.8164128041
 21
282.6665572058
 31
0.0
 11
19.70986818003946
 21
282.6071727546399
 31
0.0
 11
19.59957529087079
 21
282.5550024803431
 31
0.0
 11
19.49425728301836
 21
282.5148924559486
 31
0.0
 11
19.38553355447531
 21
282.4849981476497
 31
0.0
 11
19.28406940235416
 21
282.4691787878564
 31
0.0
 11
19.18166986176976
 21
282.4675295587745
 31
0.0
 11
19.13396600555722
 21
282.4726329713599
 31
0.0
 11
19.08691523529576
 21
282.4819697738939
 31
0.0
 11
19.04223566786235
 21
282.4953930361828
 31
0.0
 11
18.99912953126641
 21
282.5132242163793
 31
0.0
 11
18.95830693846955
 21
282.5353684812993
 31
0.0
 11
18.9200196819234
 21
282.561656674546
 31
0.0
 11
18.88388258491285
 21
282.5924846543137
 31
0.0
 11
18.85103008454097
 21
282.6268025228298
 31
0.0
 11
18.79185769028715
 21
282.7098714264658
 31
0.0
 11
18.74695796668608
 21
282.8018772006438
 31
0.0
 11
18.71131980711859
 21
282.9108957278336
 31
0.0
 11
18.68846824375235
 21
283.0232353741367
 31
0.0
 11
18.67470148742979
 21
283.1486314398015
 31
0.0
 11
18.6705701285
 21
283.2746607151
 31
0.0
  0
SPLINE
  5
F6
330
1F
100
AcDbEntity
  8
BEZUGSACHSEN
  6
Continuous
 62
     7
100
AcDbSpline
210
0.0
220
0.0
230
1.0
 70
     8
 71
     3
 72
    15
 73
    11
 74
     9
 42
0.0000000001
 43
0.0000000001
 44
0.00000001
 40
0.0
 40
0.0
 40
0.0
 40
0.0
 40
0.1110371613193968
 40
0.2222522336982726
 40
0.3333980191325906
 40
0.4445069474083585
 40
0.5556201064440112
 40
0.6667525641494219
 40
0.7778876032858549
 40
0.8889820914701433
 40
0.8889820914701433
 40
0.8889820914701433
 40
0.8889820914701433
 10
20.5704956437
 20
282.232360815
 30
0.0
 10
20.53385391684122
 20
282.2378929678496
 30
0.0
 10
20.46051175333346
 20
282.248966137529
 30
0.0
 10
20.35399520333364
 20
282.2819847010292
 30
0.0
 10
20.25158229559327
 20
282.3255749884814
 30
0.0
 10
20.15413232998964
 20
282.3793544963023
 30
0.0
 10
20.06182753427346
 20
282.4414496316654
 30
0.0
 10
19.97483090615072
 20
282.5107363053147
 30
0.0
 10
19.89257815070671
 20
282.5856182569269
 30
0.0
 10
19.84179816430524
 20
282.6395808384187
 30
0.0
 10
19.8164128041
 20
282.6665572058
 30
0.0
 11
20.5704956437
 21
282.232360815
 31
0.0
 11
20.46115335865124
 21
282.251687374295
 31
0.0
 11
20.35466140506315
 21
282.2837538076051
 31
0.0
 11
20.25239322446743
 21
282.3272808665163
 31
0.0
 11
20.1549903580431
 21
282.3807399682195
 31
0.0
 11
20.06271859127106
 21
282.4426435639765
 31
0.0
 11
19.97562148786438
 21
282.5116690500944
 31
0.0
 11
19.89358158337783
 21
282.5866387172651
 31
0.0
 11
19.8164128041
 21
282.6665572058
 31
0.0
  0
SPLINE
  5
F7
330
1F
100
AcDbEntity
  8
BEZUGSACHSEN
  6
Continuous
 62
     7
100
AcDbSpline
210
0.0
220
0.0
230
1.0
 70
     8
 71
     3
 72
    27
 73
    23
 74
    21
 42
0.0000000001
 43
0.0000000001
 44
0.00000001
 40
0.0
 40
0.0
 40
0.0
 40
0.0
 40
0.1260969825525345
 40
0.2522464959195267
 40
0.3668867952476217
 40
0.4815825893734661
 40
0.5839596006347338
 40
0.6859489160818346
 40
0.7334568410039961
 40
0.7809568848485717
 40
0.8274002263972526
 40
0.8738421606731673
 40
0.9204907318546924
 40
0.9671431398889623
 40
1.015111401786566
 40
1.063087497112388
 40
1.165500418746198
 40
1.268190478984879
 40
1.380949153925897
 40
1.493646517788195
 40
1.61565556372906
 40
1.737631867642992
 40
1.737631867642992
 40
1.737631867642992
 40
1.737631867642992
 10
18.6705701285
 20
312.5431256875
 30
0.0
 10
18.67129866997627
 20
312.585168615561
 30
0.0
 10
18.67275605643235
 20
312.6692719863706
 30
0.0
 10
18.68620061838071
 20
312.7910193139321
 30
0.0
 10
18.70915605166459
 20
312.9074370303034
 30
0.0
 10
18.74312195199798
 20
313.013012488079
 30
0.0
 10
18.78934771085639
 20
313.1091705503185
 30
0.0
 10
18.83789087941108
 20
313.1783399159771
 30
0.0
 10
18.88333020496846
 20
313.2258773975943
 30
0.0
 10
18.91923628305954
 20
313.2565726810764
 30
0.0
 10
18.95788371415228
 20
313.2831077167887
 30
0.0
 10
18.99883820135785
 20
313.3053360626836
 30
0.0
 10
19.04197782753333
 20
313.3231292795613
 30
0.0
 10
19.08715846214702
 20
313.3366626866224
 30
0.0
 10
19.13386568513855
 20
313.3458598119565
 30
0.0
 10
19.19968967635497
 20
313.3528151323374
 30
0.0
 10
19.28441742837725
 20
313.3509498757021
 30
0.0
 10
19.38924903189642
 20
313.3340352147645
 30
0.0
 10
19.49482827425669
 20
313.3046205819077
 30
0.0
 10
19.60298621234004
 20
313.2628689444415
 30
0.0
 10
19.71063847358015
 20
313.2120731172384
 30
0.0
 10
19.78115784841566
 20
313.1715086890087
 30
0.0
 10
19.8164128041
 20
313.1512291967
 30
0.0
 11
18.6705701285
 21
312.5431256875
 31
0.0
 11
18.67470148806465
 21
312.669154973291
 31
0.0
 11
18.68846824718566
 21
312.794551050048
 31
0.0
 11
18.7113198232678
 21
312.9068907300395
 31
0.0
 11
18.74695801263866
 21
313.0159092818943
 31
0.0
 11
18.7918577774388
 21
313.1079150619067
 31
0.0
 11
18.85103020639294
 21
313.1909839737633
 31
0.0
 11
18.88388270655447
 21
313.2253018432127
 31
0.0
 11
18.92001980148128
 21
313.2561298262068
 31
0.0
 11
18.95830706634272
 21
313.2824180236277
 31
0.0
 11
18.99912967427998
 21
313.3045622766177
 31
0.0
 11
19.04223581789804
 21
313.3223934172335
 31
0.0
 11
19.08691538994238
 21
313.3358166440188
 31
0.0
 11
19.13396619569824
 21
313.3451534436418
 31
0.0
 11
19.1816700829774
 21
313.3502568602591
 31
0.0
 11
19.28406972386801
 21
313.348607598895
 31
0.0
 11
19.38553397420758
 21
313.3327881686001
 31
0.0
 11
19.49425769066153
 21
313.3028938170451
 31
0.0
 11
19.59957568293867
 21
313.2627837643872
 31
0.0
 11
19.70986836880873
 21
313.2106135551201
 31
0.0
 11
19.8164128041
 21
313.1512291967
 31
0.0
  0
SPLINE
  5
F8
330
1F
100
AcDbEntity
  8
BEZUGSACHSEN
  6
Continuous
 62
     7
100
AcDbSpline
210
0.0
220
0.0
230
1.0
 70
     8
 71
     3
 72
    15
 73
    11
 74
     9
 42
0.0000000001
 43
0.0000000001
 44
0.00000001
 40
0.0
 40
0.0
 40
0.0
 40
0.0
 40
0.1110944831359915
 40
0.2222295181505723
 40
0.3333620401960333
 40
0.444475261026441
 40
0.5555842178392243
 40
0.666730035433671
 40
0.7779450181819505
 40
0.8889820871029807
 40
0.8889820871029807
 40
0.8889820871029807
 40
0.8889820871029807
 10
19.8164128041
 20
313.1512291967
 30
0.0
 10
19.8417981636412
 20
313.17820556241
 30
0.0
 10
19.89257814892646
 20
313.2321681407843
 30
0.0
 10
19.97483091819991
 20
313.307050104169
 30
0.0
 10
20.06182757015647
 20
313.3763368130722
 30
0.0
 10
20.15413241059679
 20
313.4384319761463
 30
0.0
 10
20.25158243259214
 20
313.4922114682676
 30
0.0
 10
20.35399534646329
 20
313.5358017138573
 30
0.0
 10
20.46051184502534
 20
313.568820269654
 30
0.0
 10
20.53385394770944
 20
313.579893436259
 30
0.0
 10
20.5704956437
 20
313.5854255875
 30
0.0
 11
19.8164128041
 21
313.1512291967
 31
0.0
 11
19.8935815811269
 21
313.2311476803907
 31
0.0
 11
19.97562148137828
 21
313.3061173460858
 31
0.0
 11
20.06271862999143
 21
313.3751428787505
 31
0.0
 11
20.1549904515786
 21
313.4370465037194
 31
0.0
 11
20.25239335967406
 21
313.4905055888086
 31
0.0
 11
20.35466158307434
 21
313.5340326292696
 31
0.0
 11
20.4611534511665
 21
313.5660990356467
 31
0.0
 11
20.5704956437
 21
313.5854255875
 31
0.0
  0
SPLINE
  5
F9
330
1F
100
AcDbEntity
  8
0
  6
Continuous
 62
     7
100
AcDbSpline
210
0.0
220
0.0
230
1.0
 70
     8
 71
     3
 72
    19
 73
    15
 74
    13
 42
0.0000000001
 43
0.0000000001
 44
0.00000001
 40
0.0
 40
0.0
 40
0.0
 40
0.0
 40
0.1162460235718655
 40
0.2327881717960308
 40
0.349189004590775
 40
0.465546855067187
 40
0.5819071370082088
 40
0.6982738489484831
 40
0.8146206073036433
 40
0.9309998278427535
 40
1.163276323470165
 40
1.396138921808186
 40
1.629013178105879
 40
1.861351539765721
 40
1.861351539765721
 40
1.861351539765721
 40
1.861351539765721
 10
87.7955701285
 20
264.3865126176
 30
0.0
 10
87.75678605765904
 20
264.3846716707047
 30
0.0
 10
87.67911911759128
 20
264.3809850872934
 30
0.0
 10
87.56550903253387
 20
264.3525796022893
 30
0.0
 10
87.45732134458363
 20
264.3087256880708
 30
0.0
 10
87.35634547860604
 20
264.2501289998444
 30
0.0
 10
87.26357702185292
 20
264.1794441385225
 30
0.0
 10
87.17948964283644
 20
264.0986865334417
 30
0.0
 10
87.10418599944678
 20
264.0097188946982
 30
0.0
 10
87.01553475528425
 20
263.882359446946
 30
0.0
 10
86.92553800957901
 20
263.7095740688494
 30
0.0
 10
86.85064449045979
 20
263.4886490786585
 30
0.0
 10
86.80410756513355
 20
263.2596291590729
 30
0.0
 10
86.79841375441146
 20
263.1044497662396
 30
0.0
 10
86.7955701285
 20
263.0269494481
 30
0.0
 11
87.7955701285
 21
264.3865126176
 31
0.0
 11
87.67969877694958
 21
264.3771869601889
 31
0.0
 11
87.56637425226153
 21
264.3499909234017
 31
0.0
 11
87.45850111965031
 21
264.3062583138757
 31
0.0
 11
87.35771238012555
 21
264.2481138442118
 31
0.0
 11
87.26502507504466
 21
264.1777662878204
 31
0.0
 11
87.18094970938586
 21
264.0973141620739
 31
0.0
 11
87.10565095144042
 21
264.0086199388594
 31
0.0
 11
87.0390242221289
 21
263.9131998051635
 31
0.0
 11
86.93113443605452
 21
263.7075005964101
 31
0.0
 11
86.85537629924191
 21
263.4873059225158
 31
0.0
 11
86.8104162854428
 21
263.2588129983247
 31
0.0
 11
86.7955701285
 21
263.0269494481
 31
0.0
  0
SPLINE
  5
FA
330
1F
100
AcDbEntity
  8
0
  6
Continuous
 62
     7
100
AcDbSpline
210
0.0
220
0.0
230
1.0
 70
     8
 71
     3
 72
    19
 73
    15
 74
    13
 42
0.0000000001
 43
0.0000000001
 44
0.00000001
 40
0.0
 40
0.0
 40
0.0
 40
0.0
 40
0.2323383481159176
 40
0.4652125957009685
 40
0.6980761132671758
 40
0.9303535187253532
 40
1.046733461807718
 40
1.163080940895843
 40
1.279447997469266
 40
1.395808629563676
 40
1.512165904526784
 40
1.628566140366684
 40
1.745106920566914
 40
1.861351602832009
 40
1.861351602832009
 40
1.861351602832009
 40
1.861351602832009
 10
90.5455701285
 20
263.0269494481
 30
0.0
 10
90.54272650289451
 20
263.1044497617589
 30
0.0
 10
90.53703269272557
 20
263.2596291472424
 30
0.0
 10
90.4904957168857
 20
263.488649361257
 30
0.0
 10
90.41560197112537
 20
263.7095749231511
 30
0.0
 10
90.32560466687559
 20
263.8823609873718
 30
0.0
 10
90.23695272907074
 20
264.0097209131075
 30
0.0
 10
90.16164846471682
 20
264.0986888120366
 30
0.0
 10
90.0775604909006
 20
264.1794464820053
 30
0.0
 10
89.98479175707028
 20
264.2501310483774
 30
0.0
 10
89.88381594481595
 20
264.3087272725184
 30
0.0
 10
89.77562889530158
 20
264.3525805236542
 30
0.0
 10
89.66201978595774
 20
264.38098528315
 30
0.0
 10
89.5843537511625
 20
264.384671735812
 30
0.0
 10
89.5455701285
 20
264.3865126176
 30
0.0
 11
90.5455701285
 21
263.0269494481
 31
0.0
 11
90.53072397438223
 21
263.258812984934
 31
0.0
 11
90.48576397279359
 21
263.487305902648
 31
0.0
 11
90.41000549411122
 21
263.7075014310336
 31
0.0
 11
90.3021150829336
 21
263.9132013393037
 31
0.0
 11
90.2354877590894
 21
264.0086219391195
 31
0.0
 11
90.16018830252258
 21
264.0973165146634
 31
0.0
 11
90.07611243619213
 21
264.1777686156698
 31
0.0
 11
89.98342461022277
 21
264.2481160649376
 31
0.0
 11
89.88263617531818
 21
264.306259910926
 31
0.0
 11
89.7747634465266
 21
264.3499919276488
 31
0.0
 11
89.66144015797272
 21
264.377187253001
 31
0.0
 11
89.5455701285
 21
264.3865126176
 31
0.0
  0
SPLINE
  5
FB
330
1F
100
AcDbEntity
  8
BEZUGSACHSEN
  6
Continuous
 62
     7
100
AcDbSpline
210
0.0
220
0.0
230
1.0
 70
     8
 71
     3
 72
    11
 73
     7
 74
     5
 42
0.0000000001
 43
0.0000000001
 44
0.00000001
 40
0.0
 40
0.0
 40
0.0
 40
0.0
 40
0.5462907431785018
 40
1.093000863669364
 40
1.646070107191223
 40
2.198197048702589
 40
2.198197048702589
 40
2.198197048702589
 40
2.198197048702589
 10
28.2244160754
 20
312.9188932013
 30
0.0
 10
28.28748687725688
 20
312.747961572045
 30
0.0
 10
28.41367689926019
 20
312.4059670924808
 30
0.0
 10
28.55331421225557
 20
311.874692963245
 30
0.0
 10
28.65080257630584
 20
311.3312685583218
 30
0.0
 10
28.66398469083891
 20
310.9626839177802
 30
0.0
 10
28.6705701285
 20
310.7785487271
 30
0.0
 11
28.2244160754
 21
312.9188932013
 31
0.0
 11
28.40526740800428
 21
312.4034066626031
 31
0.0
 11
28.54575889267751
 21
311.8750563067014
 31
0.0
 11
28.63782554593283
 21
311.3297038339938
 31
0.0
 11
28.6705701285
 21
310.7785487271
 31
0.0
  0
SPLINE
  5
FC
330
1F
100
AcDbEntity
  8
BEZUGSACHSEN
  6
Continuous
 62
     7
100
AcDbSpline
210
0.0
220
0.0
230
1.0
 70
     8
 71
     3
 72
    19
 73
    15
 74
    13
 42
0.0000000001
 43
0.0000000001
 44
0.00000001
 40
0.0
 40
0.0
 40
0.0
 40
0.0
 40
0.1462385987779309
 40
0.2927479274823204
 40
0.4364790706284334
 40
0.5801659236551359
 40
0.7203799972778908
 40
0.8606059382463819
 40
0.9980411883699046
 40
1.135484020416818
 40
1.405415631078824
 40
1.675815514078715
 40
1.943997429514612
 40
2.211934834741413
 40
2.211934834741413
 40
2.211934834741413
 40
2.211934834741413
 10
26.6705701285
 20
314.2675407887
 30
0.0
 10
26.71928493383833
 20
314.2708488660464
 30
0.0
 10
26.81680472970399
 20
314.2774711449471
 30
0.0
 10
26.96214099002059
 20
314.2611118321728
 30
0.0
 10
27.10279792714328
 20
314.2259400660701
 30
0.0
 10
27.2356500605875
 20
314.1731343794249
 30
0.0
 10
27.36010452364495
 20
314.1054625916968
 30
0.0
 10
27.4749070808023
 20
314.026162390315
 30
0.0
 10
27.58101701857673
 20
313.9370777507397
 30
0.0
 10
27.71011948375615
 20
313.8091302151709
 30
0.0
 10
27.853159333657
 20
313.6333279262622
 30
0.0
 10
27.99806693535605
 20
313.4056424603776
 30
0.0
 10
28.12270368379884
 20
313.1669798409068
 30
0.0
 10
28.19052225496728
 20
313.0015636004739
 30
0.0
 10
28.2244160754
 20
312.9188932013
 30
0.0
 11
26.6705701285
 21
314.2675407887
 31
0.0
 11
26.81670399031904
 21
314.2730745218328
 31
0.0
 11
26.9624133511657
 21
314.2577851281538
 31
0.0
 11
27.1018434327228
 21
314.222886791989
 31
0.0
 11
27.23547576965172
 21
314.1700823389606
 31
0.0
 11
27.35878956045136
 21
314.1033463258904
 31
0.0
 11
27.47432067175922
 21
314.0238738347977
 31
0.0
 11
27.57973322153365
 21
313.9356885620671
 31
0.0
 11
27.67752172522782
 21
313.8391072977022
 31
0.0
 11
27.84877012111768
 21
313.6304519327107
 31
0.0
 11
27.99511254165233
 21
313.4030756087928
 31
0.0
 11
28.11898016745909
 21
313.1652135667519
 31
0.0
 11
28.2244160754
 21
312.9188932013
 31
0.0
  0
SPLINE
  5
FD
330
1F
100
AcDbEntity
  8
BEZUGSACHSEN
  6
Continuous
 62
     7
100
AcDbSpline
210
0.0
220
0.0
230
1.0
 70
     8
 71
     3
 72
    11
 73
     7
 74
     5
 42
0.0000000001
 43
0.0000000001
 44
0.00000001
 40
0.0
 40
0.0
 40
0.0
 40
0.0
 40
0.5521269407036403
 40
1.105196183339655
 40
1.651906304698612
 40
2.198197048720035
 40
2.198197048720035
 40
2.198197048720035
 40
2.198197048720035
 10
28.6705701285
 20
285.0392376755
 30
0.0
 10
28.66398469087224
 20
284.855102485089
 30
0.0
 10
28.6508025764068
 20
284.4865178451124
 30
0.0
 10
28.55331421260955
 20
283.943093440427
 30
0.0
 10
28.41367689957706
 20
283.4118193109099
 30
0.0
 10
28.28748687736154
 20
283.0698248308159
 30
0.0
 10
28.2244160754
 20
282.8988932013
 30
0.0
 11
28.6705701285
 21
285.0392376755
 31
0.0
 11
28.63782554607319
 21
284.4880825694069
 31
0.0
 11
28.54575889312982
 21
283.9427300975451
 31
0.0
 11
28.40526740829641
 21
283.4143797407878
 31
0.0
 11
28.2244160754
 21
282.8988932013
 31
0.0
  0
SPLINE
  5
FE
330
1F
100
AcDbEntity
  8
BEZUGSACHSEN
  6
Continuous
 62
     7
100
AcDbSpline
210
0.0
220
0.0
230
1.0
 70
     8
 71
     3
 72
    11
 73
     7
 74
     5
 42
0.0000000001
 43
0.0000000001
 44
0.00000001
 40
0.0
 40
0.0
 40
0.0
 40
0.0
 40
0.9140556660003332
 40
1.828030949185877
 40
2.279806974871119
 40
2.730944124762504
 40
2.730944124762504
 40
2.730944124762504
 40
2.730944124762504
 10
19.9375230553854
 20
282.898893201485
 30
0.0
 10
20.07017776234877
 20
283.1736097991516
 30
0.0
 10
20.33547551051036
 20
283.7230188356788
 30
0.0
 10
20.550830723823
 20
284.4557297567837
 30
0.0
 10
20.65452493748538
 20
285.0536749628897
 30
0.0
 10
20.66522425500649
 20
285.3547981783166
 30
0.0
 10
20.6705701285
 20
285.5052532529
 30
0.0
 11
19.9375230553854
 21
282.898893201485
 31
0.0
 11
20.31233058516086
 21
283.7325700430555
 31
0.0
 11
20.57162194555873
 21
284.608993918071
 31
0.0
 11
20.64433891905736
 21
285.0548793508327
 31
0.0
 11
20.6705701285
 21
285.5052532529
 31
0.0
  0
SPLINE
  5
FF
330
1F
100
AcDbEntity
  8
BEZUGSACHSEN
  6
Continuous
 62
     7
100
AcDbSpline
210
0.0
220
0.0
230
1.0
 70
     8
 71
     3
 72
    11
 73
     7
 74
     5
 42
0.0000000001
 43
0.0000000001
 44
0.00000001
 40
0.0
 40
0.0
 40
0.0
 40
0.0
 40
0.8249192366726984
 40
1.650116891931428
 40
2.190492152293664
 40
2.730585915378235
 40
2.730585915378235
 40
2.730585915378235
 40
2.730585915378235
 10
20.6705701285
 20
310.3125331497
 30
0.0
 10
20.65283682416182
 20
310.5877234416769
 30
0.0
 10
20.61736423031588
 20
311.1381969051379
 30
0.0
 10
20.40892941368059
 20
311.842930490291
 30
0.0
 10
20.17870298270079
 20
312.435144215371
 30
0.0
 10
20.01790239989882
 20
312.7576715488161
 30
0.0
 10
19.9375230553854
 20
312.918893201115
 30
0.0
 11
20.6705701285
 21
310.3125331497
 31
0.0
 11
20.58699467438429
 21
311.1332078053962
 31
0.0
 11
20.36903323227253
 21
311.9290997452957
 31
0.0
 11
20.17109815371333
 21
312.4319189242133
 31
0.0
 11
19.9375230553854
 21
312.918893201115
 31
0.0
  0
DIMENSION
  5
10A
330
1F
100
AcDbEntity
  8
1
100
AcDbDimension
  2
*D2
 10
279.706581961115
 20
305.9088932013
 30
0.0
 11
275.956581961115
 21
298.166379285761
 31
0.0
 70
    32
  1
<>
 71
     5
 42
-1.0
 53
90.0
  3
ME10_DIM_10
100
AcDbAlignedDimension
 13
268.6705701285
 23
289.9088932013
 33
0.0
 14
268.6705701285
 24
305.9088932013
 34
0.0
 50
90.0
100
AcDbRotatedDimension
  0
DIMENSION
  5
115
330
1F
100
AcDbEntity
  8
1
100
AcDbDimension
  2
*D3
 10
288.635437289116
 20
311.4088932013528
 30
0.0
 11
284.885437289116
 21
298.699445275492
 31
0.0
 70
    32
  1
<>
 71
     5
 42
-1.0
 53
90.0
  3
ME10_DIM_11
100
AcDbAlignedDimension
 13
268.6705701285
 23
284.4088932012486
 33
0.0
 14
268.6705701285
 24
311.4088932013528
 34
0.0
 50
90.0
100
AcDbRotatedDimension
  0
DIMENSION
  5
120
330
1F
100
AcDbEntity
  8
1
100
AcDbDimension
  2
*D4
 10
297.06694760541
 20
314.9088932013
 30
0.0
 11
293.31694760541
 21
299.09804816855
 31
0.0
 70
    32
  1
<>
 71
     5
 42
-1.0
 53
90.0
  3
ME10_DIM_12
100
AcDbAlignedDimension
 13
224.1988535519
 23
280.9088932013
 33
0.0
 14
224.1988535519
 24
314.9088932013
 34
0.0
 50
90.0
100
AcDbRotatedDimension
  0
DIMENSION
  5
12B
330
1F
100
AcDbEntity
  8
1
100
AcDbDimension
  2
*D5
 10
268.6705701285
 20
357.119121594346
 30
0.0
 11
180.577425666699
 21
360.869121594346
 31
0.0
 70
    32
  1
<>
 71
     5
 42
-1.0
 53
0.00013888888889
  3
ME10_DIM_13
100
AcDbAlignedDimension
 13
97.6705701285
 23
347.9088932013
 33
0.0
 14
268.6705701285
 24
310.4845027096
 34
0.0
100
AcDbRotatedDimension
  0
DIMENSION
  5
136
330
1F
100
AcDbEntity
  8
1
100
AcDbDimension
  2
*D6
 10
268.6705701285
 20
364.720054686416
 30
0.0
 11
170.443034621547
 21
368.470054686416
 31
0.0
 70
    32
  1
<>
 71
     5
 42
-1.0
 53
0.00013888888889
  3
ME10_DIM_14
100
AcDbAlignedDimension
 13
68.6705701285
 23
347.9088932013
 33
0.0
 14
268.6705701285
 24
310.4845027096
 34
0.0
100
AcDbRotatedDimension
  0
DIMENSION
  5
141
330
1F
100
AcDbEntity
  8
1
100
AcDbDimension
  2
*D7
 10
268.6705701285
 20
372.334265692871
 30
0.0
 11
154.597244148654
 21
376.084265692871
 31
0.0
 70
    32
  1
<>
 71
     5
 42
-1.0
 53
0.00013888888889
  3
ME10_DIM_15
100
AcDbAlignedDimension
 13
18.6705701285
 23
331.5090847639
 33
0.0
 14
268.6705701285
 24
310.4845027096
 34
0.0
100
AcDbRotatedDimension
  0
INSERT
  5
148
330
1F
100
AcDbEntity
  8
1
100
AcDbBlockReference
  2
*D8
 10
0.0
 20
0.0
 30
0.0
  0
DIMENSION
  5
153
330
1F
100
AcDbEntity
  8
1
100
AcDbDimension
  2
*D9
 10
251.4061306518458
 20
313.8399163726626
 30
0.0
 11
254.4954660655463
 21
321.371742972592
 31
0.0
 70
    37
  1
<>
 71
     5
 42
-1.0
  3
ME10_DIM_16
100
AcDb3PointAngularDimension
 13
251.3431869938707
 23
312.772587828814
 33
0.0
 14
226.9216804627657
 24
314.9088932013
 34
0.0
 15
224.1988535519
 25
314.9088932013
 35
0.0
  0
ENDSEC
  0
SECTION
  2
OBJECTS
  0
DICTIONARY
  5
C
330
0
100
AcDbDictionary
281
     1
  3
ACAD_GROUP
350
D
  3
ACAD_LAYOUT
350
1A
  3
ACAD_MLEADERSTYLE
350
156
  3
ACAD_MLINESTYLE
350
17
  3
ACAD_PLOTSETTINGS
350
19
  3
ACAD_PLOTSTYLENAME
350
E
  3
ACAD_SCALELIST
350
4A
  3
ACAD_VISUALSTYLE
350
2A
  3
AcDbVariableDictionary
350
154
  0
DICTIONARY
  5
D
102
{ACAD_REACTORS
330
C
102
}
330
C
100
AcDbDictionary
281
     1
  0
DICTIONARY
  5
1A
102
{ACAD_REACTORS
330
C
102
}
330
C
100
AcDbDictionary
281
     1
  3
Layout1
350
1E
  3
Layout2
350
26
  3
Model
350
22
  0
DICTIONARY
  5
156
102
{ACAD_REACTORS
330
C
102
}
330
C
100
AcDbDictionary
281
     1
  0
DICTIONARY
  5
17
102
{ACAD_REACTORS
330
C
102
}
330
C
100
AcDbDictionary
281
     1
  3
Standard
350
18
  0
DICTIONARY
  5
19
102
{ACAD_REACTORS
330
C
102
}
330
C
100
AcDbDictionary
281
     1
  0
ACDBDICTIONARYWDFLT
  5
E
102
{ACAD_REACTORS
330
C
102
}
330
C
100
AcDbDictionary
281
     1
  3
Normal
350
F
100
AcDbDictionaryWithDefault
340
F
  0
DICTIONARY
  5
4A
102
{ACAD_REACTORS
330
C
102
}
330
C
100
AcDbDictionary
281
     1
  3
A0
350
4B
  3
A1
350
4C
  3
A2
350
4D
  3
A3
350
4E
  3
A4
350
4F
  3
A5
350
50
  3
A6
350
51
  3
A7
350
52
  3
A8
350
53
  3
A9
350
54
  3
B0
350
55
  3
B1
350
56
  3
B2
350
57
  3
B3
350
58
  3
B4
350
59
  3
B5
350
5A
  3
B6
350
5B
  3
B7
350
5C
  3
B8
350
5D
  3
B9
350
5E
  3
C0
350
5F
  3
C1
350
60
  3
C2
350
61
  3
C3
350
62
  3
C4
350
63
  3
C5
350
64
  3
C6
350
65
  3
C7
350
66
  3
C8
350
67
  3
C9
350
68
  3
D0
350
69
  3
D1
350
6A
  3
D2
350
6B
  0
DICTIONARY
  5
2A
102
{ACAD_REACTORS
330
C
102
}
330
C
100
AcDbDictionary
281
     1
  3
2dWireframe
350
2F
  3
3D Hidden
350
31
  3
3dWireframe
350
30
  3
Basic
350
32
  3
Brighten
350
36
  3
ColorChange
350
3A
  3
Conceptual
350
34
  3
Dim
350
35
  3
Facepattern
350
39
  3
Flat
350
2B
  3
FlatWithEdges
350
2C
  3
Gouraud
350
2D
  3
GouraudWithEdges
350
2E
  3
Linepattern
350
38
  3
Realistic
350
33
  3
Thicken
350
37
  0
DICTIONARY
  5
154
102
{ACAD_REACTORS
330
C
102
}
330
C
100
AcDbDictionary
281
     1
  3
CANNOSCALE
350
157
  0
LAYOUT
  5
1E
102
{ACAD_REACTORS
330
1A
102
}
330
1A
100
AcDbPlotSettings
  1

  2
none_device
  4

  6

 40
0.0
 41
0.0
 42
0.0
 43
0.0
 44
0.0
 45
0.0
 46
0.0
 47
0.0
 48
0.0
 49
0.0
140
0.0
141
0.0
142
1.0
143
1.0
 70
   688
 72
     0
 73
     0
 74
     5
  7

 75
    16
147
1.0
148
0.0
149
0.0
100
AcDbLayout
  1
Layout1
 70
     1
 71
     1
 10
0.0
 20
0.0
 11
12.0
 21
9.0
 12
0.0
 22
0.0
 32
0.0
 14
1.00000000000000E+20
 24
1.00000000000000E+20
 34
1.00000000000000E+20
 15
-1.00000000000000E+20
 25
-1.00000000000000E+20
 35
-1.00000000000000E+20
146
0.0
 13
0.0
 23
0.0
 33
0.0
 16
1.0
 26
0.0
 36
0.0
 17
0.0
 27
1.0
 37
0.0
 76
     0
330
1B
  0
LAYOUT
  5
26
102
{ACAD_REACTORS
330
1A
102
}
330
1A
100
AcDbPlotSettings
  1

  2
none_device
  4

  6

 40
0.0
 41
0.0
 42
0.0
 43
0.0
 44
0.0
 45
0.0
 46
0.0
 47
0.0
 48
0.0
 49
0.0
140
0.0
141
0.0
142
1.0
143
1.0
 70
   688
 72
     0
 73
     0
 74
     5
  7

 75
    16
147
1.0
148
0.0
149
0.0
100
AcDbLayout
  1
Layout2
 70
     1
 71
     2
 10
0.0
 20
0.0
 11
0.0
 21
0.0
 12
0.0
 22
0.0
 32
0.0
 14
0.0
 24
0.0
 34
0.0
 15
0.0
 25
0.0
 35
0.0
146
0.0
 13
0.0
 23
0.0
 33
0.0
 16
1.0
 26
0.0
 36
0.0
 17
0.0
 27
1.0
 37
0.0
 76
     0
330
23
  0
LAYOUT
  5
22
102
{ACAD_REACTORS
330
1A
102
}
330
1A
100
AcDbPlotSettings
  1

  2
none_device
  4

  6

 40
0.0
 41
0.0
 42
0.0
 43
0.0
 44
0.0
 45
0.0
 46
0.0
 47
0.0
 48
0.0
 49
0.0
140
0.0
141
0.0
142
1.0
143
1.0
 70
  1712
 72
     0
 73
     0
 74
     0
  7

 75
     0
147
1.0
148
0.0
149
0.0
100
AcDbLayout
  1
Model
 70
     1
 71
     0
 10
0.0
 20
0.0
 11
12.0
 21
9.0
 12
0.0
 22
0.0
 32
0.0
 14
-3.4553965140128
 24
247.9088932013
 34
0.0
 15
299.06694760541
 25
377.834265692871
 35
0.0
146
0.0
 13
0.0
 23
0.0
 33
0.0
 16
1.0
 26
0.0
 36
0.0
 17
0.0
 27
1.0
 37
0.0
 76
     0
330
1F
331
29
  0
MLINESTYLE
  5
18
102
{ACAD_REACTORS
330
17
102
}
330
17
100
AcDbMlineStyle
  2
Standard
 70
     0
  3

 62
   256
 51
90.0
 52
90.0
 71
     2
 49
0.5
 62
   256
  6
BYLAYER
 49
-0.5
 62
   256
  6
BYLAYER
  0
ACDBPLACEHOLDER
  5
F
102
{ACAD_REACTORS
330
E
102
}
330
E
  0
SCALE
  5
4B
102
{ACAD_REACTORS
330
4A
102
}
330
4A
100
AcDbScale
 70
     0
300
1:1
140
1.0
141
1.0
290
     1
  0
SCALE
  5
4C
102
{ACAD_REACTORS
330
4A
102
}
330
4A
100
AcDbScale
 70
     0
300
1:2
140
1.0
141
2.0
290
     0
  0
SCALE
  5
4D
102
{ACAD_REACTORS
330
4A
102
}
330
4A
100
AcDbScale
 70
     0
300
1:4
140
1.0
141
4.0
290
     0
  0
SCALE
  5
4E
102
{ACAD_REACTORS
330
4A
102
}
330
4A
100
AcDbScale
 70
     0
300
1:5
140
1.0
141
5.0
290
     0
  0
SCALE
  5
4F
102
{ACAD_REACTORS
330
4A
102
}
330
4A
100
AcDbScale
 70
     0
300
1:8
140
1.0
141
8.0
290
     0
  0
SCALE
  5
50
102
{ACAD_REACTORS
330
4A
102
}
330
4A
100
AcDbScale
 70
     0
300
1:10
140
1.0
141
10.0
290
     0
  0
SCALE
  5
51
102
{ACAD_REACTORS
330
4A
102
}
330
4A
100
AcDbScale
 70
     0
300
1:16
140
1.0
141
16.0
290
     0
  0
SCALE
  5
52
102
{ACAD_REACTORS
330
4A
102
}
330
4A
100
AcDbScale
 70
     0
300
1:20
140
1.0
141
20.0
290
     0
  0
SCALE
  5
53
102
{ACAD_REACTORS
330
4A
102
}
330
4A
100
AcDbScale
 70
     0
300
1:30
140
1.0
141
30.0
290
     0
  0
SCALE
  5
54
102
{ACAD_REACTORS
330
4A
102
}
330
4A
100
AcDbScale
 70
     0
300
1:40
140
1.0
141
40.0
290
     0
  0
SCALE
  5
55
102
{ACAD_REACTORS
330
4A
102
}
330
4A
100
AcDbScale
 70
     0
300
1:50
140
1.0
141
50.0
290
     0
  0
SCALE
  5
56
102
{ACAD_REACTORS
330
4A
102
}
330
4A
100
AcDbScale
 70
     0
300
1:100
140
1.0
141
100.0
290
     0
  0
SCALE
  5
57
102
{ACAD_REACTORS
330
4A
102
}
330
4A
100
AcDbScale
 70
     0
300
2:1
140
2.0
141
1.0
290
     0
  0
SCALE
  5
58
102
{ACAD_REACTORS
330
4A
102
}
330
4A
100
AcDbScale
 70
     0
300
4:1
140
4.0
141
1.0
290
     0
  0
SCALE
  5
59
102
{ACAD_REACTORS
330
4A
102
}
330
4A
100
AcDbScale
 70
     0
300
8:1
140
8.0
141
1.0
290
     0
  0
SCALE
  5
5A
102
{ACAD_REACTORS
330
4A
102
}
330
4A
100
AcDbScale
 70
     0
300
10:1
140
10.0
141
1.0
290
     0
  0
SCALE
  5
5B
102
{ACAD_REACTORS
330
4A
102
}
330
4A
100
AcDbScale
 70
     0
300
100:1
140
100.0
141
1.0
290
     0
  0
SCALE
  5
5C
102
{ACAD_REACTORS
330
4A
102
}
330
4A
100
AcDbScale
 70
     0
300
1/128" = 1'-0"
140
0.0078125
141
12.0
290
     0
  0
SCALE
  5
5D
102
{ACAD_REACTORS
330
4A
102
}
330
4A
100
AcDbScale
 70
     0
300
1/64" = 1'-0"
140
0.015625
141
12.0
290
     0
  0
SCALE
  5
5E
102
{ACAD_REACTORS
330
4A
102
}
330
4A
100
AcDbScale
 70
     0
300
1/32" = 1'-0"
140
0.03125
141
12.0
290
     0
  0
SCALE
  5
5F
102
{ACAD_REACTORS
330
4A
102
}
330
4A
100
AcDbScale
 70
     0
300
1/16" = 1'-0"
140
0.0625
141
12.0
290
     0
  0
SCALE
  5
60
102
{ACAD_REACTORS
330
4A
102
}
330
4A
100
AcDbScale
 70
     0
300
3/32" = 1'-0"
140
0.09375
141
12.0
290
     0
  0
SCALE
  5
61
102
{ACAD_REACTORS
330
4A
102
}
330
4A
100
AcDbScale
 70
     0
300
1/8" = 1'-0"
140
0.125
141
12.0
290
     0
  0
SCALE
  5
62
102
{ACAD_REACTORS
330
4A
102
}
330
4A
100
AcDbScale
 70
     0
300
3/16" = 1'-0"
140
0.1875
141
12.0
290
     0
  0
SCALE
  5
63
102
{ACAD_REACTORS
330
4A
102
}
330
4A
100
AcDbScale
 70
     0
300
1/4" = 1'-0"
140
0.25
141
12.0
290
     0
  0
SCALE
  5
64
102
{ACAD_REACTORS
330
4A
102
}
330
4A
100
AcDbScale
 70
     0
300
3/8" = 1'-0"
140
0.375
141
12.0
290
     0
  0
SCALE
  5
65
102
{ACAD_REACTORS
330
4A
102
}
330
4A
100
AcDbScale
 70
     0
300
1/2" = 1'-0"
140
0.5
141
12.0
290
     0
  0
SCALE
  5
66
102
{ACAD_REACTORS
330
4A
102
}
330
4A
100
AcDbScale
 70
     0
300
3/4" = 1'-0"
140
0.75
141
12.0
290
     0
  0
SCALE
  5
67
102
{ACAD_REACTORS
330
4A
102
}
330
4A
100
AcDbScale
 70
     0
300
1" = 1'-0"
140
1.0
141
12.0
290
     0
  0
SCALE
  5
68
102
{ACAD_REACTORS
330
4A
102
}
330
4A
100
AcDbScale
 70
     0
300
1-1/2" = 1'-0"
140
1.5
141
12.0
290
     0
  0
SCALE
  5
69
102
{ACAD_REACTORS
330
4A
102
}
330
4A
100
AcDbScale
 70
     0
300
3" = 1'-0"
140
3.0
141
12.0
290
     0
  0
SCALE
  5
6A
102
{ACAD_REACTORS
330
4A
102
}
330
4A
100
AcDbScale
 70
     0
300
6" = 1'-0"
140
6.0
141
12.0
290
     0
  0
SCALE
  5
6B
102
{ACAD_REACTORS
330
4A
102
}
330
4A
100
AcDbScale
 70
     0
300
1'-0" = 1'-0"
140
12.0
141
12.0
290
     0
  0
VISUALSTYLE
  5
2F
102
{ACAD_REACTORS
330
2A
102
}
330
2A
100
AcDbVisualStyle
  2
2dWireframe
 70
     4
 71
     0
 72
     2
 73
     0
 90
        0
 40
-0.6
 41
-30.0
 62
     5
 63
     7
 74
     1
 91
        4
 64
     7
 65
   257
 75
     1
175
     1
 42
1.0
 92
        0
 66
   257
 43
1.0
 76
     1
 77
     6
 78
     2
 67
     7
 79
     5
170
     0
171
     0
290
     0
174
     0
 93
        1
 44
0.0
173
     0
291
     0
 45
0.0
1001
ACAD
1000
AcDbSavedByObjectVersion
1070
     0
  0
VISUALSTYLE
  5
31
102
{ACAD_REACTORS
330
2A
102
}
330
2A
100
AcDbVisualStyle
  2
3D Hidden
 70
     6
 71
     1
 72
     2
 73
     2
 90
        0
 40
-0.6
 41
-30.0
 62
     5
 63
     7
 74
     2
 91
        2
 64
     7
 65
   257
 75
     2
175
     1
 42
40.0
 92
        0
 66
   257
 43
1.0
 76
     1
 77
     6
 78
     2
 67
     7
 79
     3
170
     0
171
     0
290
     0
174
     0
 93
        1
 44
0.0
173
     0
291
     0
 45
0.0
1001
ACAD
1000
AcDbSavedByObjectVersion
1070
     0
  0
VISUALSTYLE
  5
30
102
{ACAD_REACTORS
330
2A
102
}
330
2A
100
AcDbVisualStyle
  2
3dWireframe
 70
     5
 71
     0
 72
     2
 73
     0
 90
        0
 40
-0.6
 41
-30.0
 62
     5
 63
     7
 74
     1
 91
        4
 64
     7
 65
   257
 75
     1
175
     1
 42
1.0
 92
        0
 66
   257
 43
1.0
 76
     1
 77
     6
 78
     2
 67
     7
 79
     5
170
     0
171
     0
290
     0
174
     0
 93
        1
 44
0.0
173
     0
291
     0
 45
0.0
1001
ACAD
1000
AcDbSavedByObjectVersion
1070
     0
  0
VISUALSTYLE
  5
32
102
{ACAD_REACTORS
330
2A
102
}
330
2A
100
AcDbVisualStyle
  2
Basic
 70
     7
 71
     1
 72
     0
 73
     1
 90
        0
 40
-0.6
 41
-30.0
 62
     5
 63
     7
 74
     0
 91
        4
 64
     7
 65
   257
 75
     1
175
     1
 42
1.0
 92
        8
 66
     7
 43
1.0
 76
     1
 77
     6
 78
     2
 67
     7
 79
     5
170
     0
171
     0
290
     0
174
     0
 93
        1
 44
0.0
173
     0
291
     1
 45
0.0
1001
ACAD
1000
AcDbSavedByObjectVersion
1070
     0
  0
VISUALSTYLE
  5
36
102
{ACAD_REACTORS
330
2A
102
}
330
2A
100
AcDbVisualStyle
  2
Brighten
 70
    12
 71
     2
 72
     2
 73
     0
 90
        0
 40
-0.6
 41
-30.0
 62
     5
 63
     7
 74
     1
 91
        4
 64
     7
 65
   257
 75
     1
175
     1
 42
1.0
 92
        8
 66
     7
 43
1.0
 76
     1
 77
     6
 78
     2
 67
     7
 79
     5
170
     0
171
     0
290
     0
174
     0
 93
        1
 44
50.0
173
     0
291
     1
 45
0.0
1001
ACAD
1000
AcDbSavedByObjectVersion
1070
     0
  0
VISUALSTYLE
  5
3A
102
{ACAD_REACTORS
330
2A
102
}
330
2A
100
AcDbVisualStyle
  2
ColorChange
 70
    16
 71
     2
 72
     2
 73
     3
 90
        0
 40
-0.6
 41
-30.0
 62
     5
 63
     8
 74
     1
 91
        4
 64
     7
 65
   257
 75
     1
175
     1
 42
1.0
 92
        8
 66
     8
 43
1.0
 76
     1
 77
     6
 78
     2
 67
     7
 79
     5
170
     0
171
     0
290
     0
174
     0
 93
        1
 44
0.0
173
     0
291
     1
 45
0.0
1001
ACAD
1000
AcDbSavedByObjectVersion
1070
     0
  0
VISUALSTYLE
  5
34
102
{ACAD_REACTORS
330
2A
102
}
330
2A
100
AcDbVisualStyle
  2
Conceptual
 70
     9
 71
     3
 72
     2
 73
     0
 90
        0
 40
-0.6
 41
-30.0
 62
     5
 63
     7
 74
     2
 91
        2
 64
     7
 65
   257
 75
     1
175
     1
 42
40.0
 92
        8
 66
     7
 43
1.0
 76
     1
 77
     6
 78
     2
 67
     7
 79
     3
170
     0
171
     0
290
     0
174
     0
 93
        1
 44
0.0
173
     0
291
     0
 45
0.0
1001
ACAD
1000
AcDbSavedByObjectVersion
1070
     0
  0
VISUALSTYLE
  5
35
102
{ACAD_REACTORS
330
2A
102
}
330
2A
100
AcDbVisualStyle
  2
Dim
 70
    11
 71
     2
 72
     2
 73
     0
 90
        0
 40
-0.6
 41
-30.0
 62
     5
 63
     7
 74
     1
 91
        4
 64
     7
 65
   257
 75
     1
175
     1
 42
1.0
 92
        8
 66
     7
 43
1.0
 76
     1
 77
     6
 78
     2
 67
     7
 79
     5
170
     0
171
     0
290
     0
174
     0
 93
        1
 44
-50.0
173
     0
291
     1
 45
0.0
1001
ACAD
1000
AcDbSavedByObjectVersion
1070
     0
  0
VISUALSTYLE
  5
39
102
{ACAD_REACTORS
330
2A
102
}
330
2A
100
AcDbVisualStyle
  2
Facepattern
 70
    15
 71
     2
 72
     2
 73
     0
 90
        0
 40
-0.6
 41
-30.0
 62
     5
 63
     7
 74
     1
 91
        4
 64
     7
 65
   257
 75
     1
175
     1
 42
1.0
 92
        8
 66
     7
 43
1.0
 76
     1
 77
     6
 78
     2
 67
     7
 79
     5
170
     0
171
     0
290
     0
174
     0
 93
        1
 44
0.0
173
     0
291
     1
 45
0.0
1001
ACAD
1000
AcDbSavedByObjectVersion
1070
     0
  0
VISUALSTYLE
  5
2B
102
{ACAD_REACTORS
330
2A
102
}
330
2A
100
AcDbVisualStyle
  2
Flat
 70
     0
 71
     2
 72
     1
 73
     1
 90
        2
 40
-0.6
 41
30.0
 62
     5
 63
     7
 74
     0
 91
        4
 64
     7
 65
   257
 75
     1
175
     1
 42
1.0
 92
        8
 66
     7
 43
1.0
 76
     1
 77
     6
 78
     2
 67
     7
 79
     5
170
     0
171
     0
290
     0
174
     0
 93
       13
 44
0.0
173
     0
291
     1
 45
0.0
1001
ACAD
1000
AcDbSavedByObjectVersion
1070
     0
  0
VISUALSTYLE
  5
2C
102
{ACAD_REACTORS
330
2A
102
}
330
2A
100
AcDbVisualStyle
  2
FlatWithEdges
 70
     1
 71
     2
 72
     1
 73
     1
 90
        2
 40
-0.6
 41
30.0
 62
     5
 63
     7
 74
     1
 91
        4
 64
     7
 65
   257
 75
     1
175
     1
 42
1.0
 92
        0
 66
   257
 43
1.0
 76
     1
 77
     6
 78
     2
 67
     7
 79
     5
170
     0
171
     0
290
     0
174
     0
 93
       13
 44
0.0
173
     0
291
     1
 45
0.0
1001
ACAD
1000
AcDbSavedByObjectVersion
1070
     0
  0
VISUALSTYLE
  5
2D
102
{ACAD_REACTORS
330
2A
102
}
330
2A
100
AcDbVisualStyle
  2
Gouraud
 70
     2
 71
     2
 72
     2
 73
     1
 90
        2
 40
-0.6
 41
30.0
 62
     5
 63
     7
 74
     0
 91
        4
 64
     7
 65
   257
 75
     1
175
     1
 42
1.0
 92
        0
 66
     7
 43
1.0
 76
     1
 77
     6
 78
     2
 67
     7
 79
     5
170
     0
171
     0
290
     0
174
     0
 93
       13
 44
0.0
173
     0
291
     1
 45
0.0
1001
ACAD
1000
AcDbSavedByObjectVersion
1070
     0
  0
VISUALSTYLE
  5
2E
102
{ACAD_REACTORS
330
2A
102
}
330
2A
100
AcDbVisualStyle
  2
GouraudWithEdges
 70
     3
 71
     2
 72
     2
 73
     1
 90
        2
 40
-0.6
 41
30.0
 62
     5
 63
     7
 74
     1
 91
        4
 64
     7
 65
   257
 75
     1
175
     1
 42
1.0
 92
        0
 66
   257
 43
1.0
 76
     1
 77
     6
 78
     2
 67
     7
 79
     5
170
     0
171
     0
290
     0
174
     0
 93
       13
 44
0.0
173
     0
291
     1
 45
0.0
1001
ACAD
1000
AcDbSavedByObjectVersion
1070
     0
  0
VISUALSTYLE
  5
38
102
{ACAD_REACTORS
330
2A
102
}
330
2A
100
AcDbVisualStyle
  2
Linepattern
 70
    14
 71
     2
 72
     2
 73
     0
 90
        0
 40
-0.6
 41
-30.0
 62
     5
 63
     7
 74
     1
 91
        4
 64
     7
 65
   257
 75
     7
175
     7
 42
1.0
 92
        8
 66
     7
 43
1.0
 76
     1
 77
     6
 78
     2
 67
     7
 79
     5
170
     0
171
     0
290
     0
174
     0
 93
        1
 44
0.0
173
     0
291
     1
 45
0.0
1001
ACAD
1000
AcDbSavedByObjectVersion
1070
     0
  0
VISUALSTYLE
  5
33
102
{ACAD_REACTORS
330
2A
102
}
330
2A
100
AcDbVisualStyle
  2
Realistic
 70
     8
 71
     2
 72
     2
 73
     0
 90
        0
 40
-0.6
 41
-30.0
 62
     5
 63
     7
 74
     1
 91
        0
 64
     7
 65
   257
 75
     1
175
     1
 42
1.0
 92
        8
 66
     8
 43
1.0
 76
     1
 77
     6
 78
     2
 67
     7
 79
     5
170
     0
171
     0
290
     0
174
     0
 93
       13
 44
0.0
173
     0
291
     0
 45
0.0
1001
ACAD
1000
AcDbSavedByObjectVersion
1070
     0
  0
VISUALSTYLE
  5
37
102
{ACAD_REACTORS
330
2A
102
}
330
2A
100
AcDbVisualStyle
  2
Thicken
 70
    13
 71
     2
 72
     2
 73
     0
 90
        0
 40
-0.6
 41
-30.0
 62
     5
 63
     7
 74
     1
 91
        4
 64
     7
 65
   257
 75
     1
175
     1
 42
1.0
 92
       12
 66
     7
 43
1.0
 76
     1
 77
     6
 78
     2
 67
     7
 79
     5
170
     0
171
     0
290
     0
174
     0
 93
        1
 44
0.0
173
     0
291
     1
 45
0.0
1001
ACAD
1000
AcDbSavedByObjectVersion
1070
     0
  0
DICTIONARYVAR
  5
157
102
{ACAD_REACTORS
330
154
102
}
330
154
100
DictionaryVariables
280
     0
  1
1:1
  0
ENDSEC
  0
EOF
