  0
SECTION
  2
HEADER
  9
$ACADVER
  1
AC1015
  9
$ACADMAINTVER
 70
     6
  9
$DWGCODEPAGE
  3
ANSI_1252
  9
$INSBASE
 10
0.0
 20
0.0
 30
0.0
  9
$EXTMIN
 10
-9.63432718773356
 20
249.787004818
 30
0.0
  9
$EXTMAX
 10
292.266369365009
 20
378.64261324794
 30
0.0
  9
$LIMMIN
 10
0.0
 20
0.0
  9
$LIMMAX
 10
12.0
 20
9.0
  9
$ORTHOMODE
 70
     0
  9
$REGENMODE
 70
     1
  9
$FILLMODE
 70
     1
  9
$QTEXTMODE
 70
     0
  9
$MIRRTEXT
 70
     1
  9
$LTSCALE
 40
1.0
  9
$ATTMODE
 70
     1
  9
$TEXTSIZE
 40
0.2
  9
$TRACEWID
 40
0.05
  9
$TEXTSTYLE
  7
Standard
  9
$CLAYER
  8
0
  9
$CELTYPE
  6
ByLayer
  9
$CECOLOR
 62
   256
  9
$CELTSCALE
 40
1.0
  9
$DISPSILH
 70
     0
  9
$DIMSCALE
 40
1.0
  9
$DIMASZ
 40
0.18
  9
$DIMEXO
 40
0.0625
  9
$DIMDLI
 40
0.38
  9
$DIMRND
 40
0.0
  9
$DIMDLE
 40
0.0
  9
$DIMEXE
 40
0.18
  9
$DIMTP
 40
0.0
  9
$DIMTM
 40
0.0
  9
$DIMTXT
 40
0.18
  9
$DIMCEN
 40
0.09
  9
$DIMTSZ
 40
0.0
  9
$DIMTOL
 70
     0
  9
$DIMLIM
 70
     0
  9
$DIMTIH
 70
     1
  9
$DIMTOH
 70
     1
  9
$DIMSE1
 70
     0
  9
$DIMSE2
 70
     0
  9
$DIMTAD
 70
     0
  9
$DIMZIN
 70
     0
  9
$DIMBLK
  1

  9
$DIMASO
 70
     1
  9
$DIMSHO
 70
     1
  9
$DIMPOST
  1

  9
$DIMAPOST
  1

  9
$DIMALT
 70
     0
  9
$DIMALTD
 70
     2
  9
$DIMALTF
 40
25.4
  9
$DIMLFAC
 40
1.0
  9
$DIMTOFL
 70
     0
  9
$DIMTVP
 40
0.0
  9
$DIMTIX
 70
     0
  9
$DIMSOXD
 70
     0
  9
$DIMSAH
 70
     0
  9
$DIMBLK1
  1

  9
$DIMBLK2
  1

  9
$DIMSTYLE
  2
Standard
  9
$DIMCLRD
 70
     0
  9
$DIMCLRE
 70
     0
  9
$DIMCLRT
 70
     0
  9
$DIMTFAC
 40
1.0
  9
$DIMGAP
 40
0.09
  9
$DIMJUST
 70
     0
  9
$DIMSD1
 70
     0
  9
$DIMSD2
 70
     0
  9
$DIMTOLJ
 70
     1
  9
$DIMTZIN
 70
     0
  9
$DIMALTZ
 70
     0
  9
$DIMALTTZ
 70
     0
  9
$DIMUPT
 70
     0
  9
$DIMDEC
 70
     4
  9
$DIMTDEC
 70
     4
  9
$DIMALTU
 70
     2
  9
$DIMALTTD
 70
     2
  9
$DIMTXSTY
  7
Standard
  9
$DIMAUNIT
 70
     0
  9
$DIMADEC
 70
     0
  9
$DIMALTRND
 40
0.0
  9
$DIMAZIN
 70
     0
  9
$DIMDSEP
 70
    46
  9
$DIMATFIT
 70
     3
  9
$DIMFRAC
 70
     0
  9
$DIMLDRBLK
  1

  9
$DIMLUNIT
 70
     2
  9
$DIMLWD
 70
    -2
  9
$DIMLWE
 70
    -2
  9
$DIMTMOVE
 70
     0
  9
$LUNITS
 70
     2
  9
$LUPREC
 70
     4
  9
$SKETCHINC
 40
0.1
  9
$FILLETRAD
 40
0.5
  9
$AUNITS
 70
     0
  9
$AUPREC
 70
     0
  9
$MENU
  1
.
  9
$ELEVATION
 40
0.0
  9
$PELEVATION
 40
0.0
  9
$THICKNESS
 40
0.0
  9
$LIMCHECK
 70
     0
  9
$CHAMFERA
 40
0.5
  9
$CHAMFERB
 40
0.5
  9
$CHAMFERC
 40
1.0
  9
$CHAMFERD
 40
0.0
  9
$SKPOLY
 70
     0
  9
$TDCREATE
 40
2456748.7293189
  9
$TDUCREATE
 40
2456748.645985567
  9
$TDUPDATE
 40
2456748.729318912
  9
$TDUUPDATE
 40
2456748.645985579
  9
$TDINDWG
 40
0.0000000116
  9
$TDUSRTIMER
 40
0.0000000116
  9
$USRTIMER
 70
     1
  9
$ANGBASE
 50
0.0
  9
$ANGDIR
 70
     0
  9
$PDMODE
 70
     0
  9
$PDSIZE
 40
0.0
  9
$PLINEWID
 40
0.0
  9
$SPLFRAME
 70
     0
  9
$SPLINETYPE
 70
     6
  9
$SPLINESEGS
 70
     8
  9
$HANDSEED
  5
158
  9
$SURFTAB1
 70
     6
  9
$SURFTAB2
 70
     6
  9
$SURFTYPE
 70
     6
  9
$SURFU
 70
     6
  9
$SURFV
 70
     6
  9
$UCSBASE
  2

  9
$UCSNAME
  2

  9
$UCSORG
 10
0.0
 20
0.0
 30
0.0
  9
$UCSXDIR
 10
1.0
 20
0.0
 30
0.0
  9
$UCSYDIR
 10
0.0
 20
1.0
 30
0.0
  9
$UCSORTHOREF
  2

  9
$UCSORTHOVIEW
 70
     0
  9
$UCSORGTOP
 10
0.0
 20
0.0
 30
0.0
  9
$UCSORGBOTTOM
 10
0.0
 20
0.0
 30
0.0
  9
$UCSORGLEFT
 10
0.0
 20
0.0
 30
0.0
  9
$UCSORGRIGHT
 10
0.0
 20
0.0
 30
0.0
  9
$UCSORGFRONT
 10
0.0
 20
0.0
 30
0.0
  9
$UCSORGBACK
 10
0.0
 20
0.0
 30
0.0
  9
$PUCSBASE
  2

  9
$PUCSNAME
  2

  9
$PUCSORG
 10
0.0
 20
0.0
 30
0.0
  9
$PUCSXDIR
 10
1.0
 20
0.0
 30
0.0
  9
$PUCSYDIR
 10
0.0
 20
1.0
 30
0.0
  9
$PUCSORTHOREF
  2

  9
$PUCSORTHOVIEW
 70
     0
  9
$PUCSORGTOP
 10
0.0
 20
0.0
 30
0.0
  9
$PUCSORGBOTTOM
 10
0.0
 20
0.0
 30
0.0
  9
$PUCSORGLEFT
 10
0.0
 20
0.0
 30
0.0
  9
$PUCSORGRIGHT
 10
0.0
 20
0.0
 30
0.0
  9
$PUCSORGFRONT
 10
0.0
 20
0.0
 30
0.0
  9
$PUCSORGBACK
 10
0.0
 20
0.0
 30
0.0
  9
$USERI1
 70
     0
  9
$USERI2
 70
     0
  9
$USERI3
 70
     0
  9
$USERI4
 70
     0
  9
$USERI5
 70
     0
  9
$USERR1
 40
16.5
  9
$USERR2
 40
0.0
  9
$USERR3
 40
0.0
  9
$USERR4
 40
0.0
  9
$USERR5
 40
0.0
  9
$WORLDVIEW
 70
     1
  9
$SHADEDGE
 70
     3
  9
$SHADEDIF
 70
    70
  9
$TILEMODE
 70
     1
  9
$MAXACTVP
 70
    64
  9
$PINSBASE
 10
0.0
 20
0.0
 30
0.0
  9
$PLIMCHECK
 70
     0
  9
$PEXTMIN
 10
1.00000000000000E+20
 20
1.00000000000000E+20
 30
1.00000000000000E+20
  9
$PEXTMAX
 10
-1.00000000000000E+20
 20
-1.00000000000000E+20
 30
-1.00000000000000E+20
  9
$PLIMMIN
 10
0.0
 20
0.0
  9
$PLIMMAX
 10
12.0
 20
9.0
  9
$UNITMODE
 70
     0
  9
$VISRETAIN
 70
     1
  9
$PLINEGEN
 70
     0
  9
$PSLTSCALE
 70
     1
  9
$TREEDEPTH
 70
  3020
  9
$CMLSTYLE
  2
Standard
  9
$CMLJUST
 70
     0
  9
$CMLSCALE
 40
1.0
  9
$PROXYGRAPHICS
 70
     1
  9
$MEASUREMENT
 70
     1
  9
$CELWEIGHT
370
    -1
  9
$ENDCAPS
280
     0
  9
$JOINSTYLE
280
     0
  9
$LWDISPLAY
290
     0
  9
$INSUNITS
 70
     1
  9
$HYPERLINKBASE
  1

  9
$STYLESHEET
  1

  9
$XEDIT
290
     1
  9
$CEPSNTYPE
380
     0
  9
$PSTYLEMODE
290
     1
  9
$FINGERPRINTGUID
  2
{C969D9F0-2EA1-43B4-95C2-7299923C6CE9}
  9
$VERSIONGUID
  2
{FAEB1C32-E019-11D5-929B-00C0DF256EC4}
  9
$EXTNAMES
290
     1
  9
$PSVPSCALE
 40
0.0
  9
$OLESTARTUP
290
     0
  0
ENDSEC
  0
SECTION
  2
CLASSES
  0
CLASS
  1
ACDBDICTIONARYWDFLT
  2
AcDbDictionaryWithDefault
  3
ObjectDBX Classes
 90
        0
280
     0
281
     0
  0
CLASS
  1
VISUALSTYLE
  2
AcDbVisualStyle
  3
ObjectDBX Classes
 90
     4095
280
     0
281
     0
  0
CLASS
  1
SCALE
  2
AcDbScale
  3
ObjectDBX Classes
 90
     1153
280
     0
281
     0
  0
CLASS
  1

  2
exOdDbPolyline
  3

 90
        0
280
     0
281
     1
  0
CLASS
  1

  2
exOdDbCircle
  3

 90
        0
280
     0
281
     1
  0
CLASS
  1

  2
exOdDbSpline
  3

 90
        0
280
     0
281
     1
  0
CLASS
  1
DICTIONARYVAR
  2
AcDbDictionaryVar
  3
ObjectDBX Classes
 90
        0
280
     0
281
     0
  0
CLASS
  1
ACDBPLACEHOLDER
  2
AcDbPlaceHolder
  3
ObjectDBX Classes
 90
        0
280
     0
281
     0
  0
CLASS
  1
LAYOUT
  2
AcDbLayout
  3
ObjectDBX Classes
 90
        0
280
     0
281
     0
  0
ENDSEC
  0
SECTION
  2
TABLES
  0
TABLE
  2
VPORT
  5
8
330
0
100
AcDbSymbolTable
 70
     1
  0
VPORT
  5
29
330
8
100
AcDbSymbolTableRecord
100
AcDbViewportTableRecord
  2
*Active
 70
     0
 10
0.0
 20
0.0
 11
1.0
 21
1.0
 12
141.3160210886377
 22
314.21480903297
 13
0.0
 23
0.0
 14
0.5
 24
0.5
 15
0.5
 25
0.5
 16
0.0
 26
0.0
 36
1.0
 17
0.0
 27
0.0
 37
0.0
 40
207.2098374111303
 41
1.60267857142857
 42
50.0
 43
0.0
 44
0.0
 50
0.0
 51
0.0
 71
     0
 72
   100
 73
     1
 74
     3
 75
     0
 76
     0
 77
     0
 78
     0
281
     0
 65
     1
110
0.0
120
0.0
130
0.0
111
1.0
121
0.0
131
0.0
112
0.0
122
1.0
132
0.0
 79
     0
146
0.0
  0
ENDTAB
  0
TABLE
  2
LTYPE
  5
5
330
0
100
AcDbSymbolTable
 70
     8
  0
LTYPE
  5
14
330
5
100
AcDbSymbolTableRecord
100
AcDbLinetypeTableRecord
  2
ByBlock
 70
     0
  3

 72
    65
 73
     0
 40
0.0
  0
LTYPE
  5
15
330
5
100
AcDbSymbolTableRecord
100
AcDbLinetypeTableRecord
  2
ByLayer
 70
     0
  3

 72
    65
 73
     0
 40
0.0
  0
LTYPE
  5
16
330
5
100
AcDbSymbolTableRecord
100
AcDbLinetypeTableRecord
  2
Continuous
 70
     0
  3
Solid line
 72
    65
 73
     0
 40
0.0
  0
LTYPE
  5
3B
330
5
100
AcDbSymbolTableRecord
100
AcDbLinetypeTableRecord
  2
DASHED
 70
     0
  3
Dashed
 72
    65
 73
     2
 40
15.0
 49
7.0
 74
     0
 49
-8.0
 74
     0
  0
LTYPE
  5
3C
330
5
100
AcDbSymbolTableRecord
100
AcDbLinetypeTableRecord
  2
DOTTED
 70
     0
  3
Dotted
 72
    65
 73
     2
 40
1.0
 49
0.0
 74
     0
 49
-1.0
 74
     0
  0
LTYPE
  5
3D
330
5
100
AcDbSymbolTableRecord
100
AcDbLinetypeTableRecord
  2
DOT_CENTER
 70
     0
  3
Dot_Center
 72
    65
 73
     4
 40
14.0
 49
12.0
 74
     0
 49
-1.0
 74
     0
 49
0.0
 74
     0
 49
-1.0
 74
     0
  0
LTYPE
  5
3E
330
5
100
AcDbSymbolTableRecord
100
AcDbLinetypeTableRecord
  2
LONG_DASHED
 70
     0
  3
Long_Dashed
 72
    65
 73
     2
 40
15.0
 49
10.0
 74
     0
 49
-5.0
 74
     0
  0
LTYPE
  5
3F
330
5
100
AcDbSymbolTableRecord
100
AcDbLinetypeTableRecord
  2
DASH_CENTER
 70
     0
  3
Dash_Center
 72
    65
 73
     4
 40
14.0
 49
11.0
 74
     0
 49
-1.0
 74
     0
 49
1.0
 74
     0
 49
-1.0
 74
     0
  0
LTYPE
  5
40
330
5
100
AcDbSymbolTableRecord
100
AcDbLinetypeTableRecord
  2
PHANTOM
 70
     0
  3
Phantom
 72
    65
 73
     6
 40
13.0
 49
10.0
 74
     0
 49
-1.0
 74
     0
 49
0.0
 74
     0
 49
-1.0
 74
     0
 49
0.0
 74
     0
 49
-1.0
 74
     0
  0
LTYPE
  5
41
330
5
100
AcDbSymbolTableRecord
100
AcDbLinetypeTableRecord
  2
CENTER_DASH_DASH
 70
     0
  3
Center_Dash_Dash
 72
    65
 73
     6
 40
14.0
 49
9.0
 74
     0
 49
-1.0
 74
     0
 49
1.0
 74
     0
 49
-1.0
 74
     0
 49
1.0
 74
     0
 49
-1.0
 74
     0
  0
ENDTAB
  0
TABLE
  2
LAYER
  5
2
330
0
100
AcDbSymbolTable
 70
     6
  0
LAYER
  5
10
330
2
100
AcDbSymbolTableRecord
100
AcDbLayerTableRecord
  2
0
 70
     0
 62
     7
  6
Continuous
370
    -3
390
F
  0
LAYER
  5
42
330
2
100
AcDbSymbolTableRecord
100
AcDbLayerTableRecord
  2
1
 70
     0
 62
     7
  6
Continuous
370
    -3
390
F
  0
LAYER
  5
43
330
2
100
AcDbSymbolTableRecord
100
AcDbLayerTableRecord
  2
BEZUGSACHSEN
 70
     0
 62
     7
  6
Continuous
370
    -3
390
F
  0
LAYER
  5
44
330
2
100
AcDbSymbolTableRecord
100
AcDbLayerTableRecord
  2
DEFAULT_2
 70
     0
 62
     7
  6
Continuous
370
    -3
390
F
  0
LAYER
  5
45
330
2
100
AcDbSymbolTableRecord
100
AcDbLayerTableRecord
  2
FASEN
 70
     0
 62
     7
  6
Continuous
370
    -3
390
F
  0
LAYER
  5
46
330
2
100
AcDbSymbolTableRecord
100
AcDbLayerTableRecord
  2
RUNDUNGEN
 70
     0
 62
     7
  6
Continuous
370
    -3
390
F
  0
ENDTAB
  0
TABLE
  2
STYLE
  5
3
330
0
100
AcDbSymbolTable
 70
     2
  0
STYLE
  5
11
330
3
100
AcDbSymbolTableRecord
100
AcDbTextStyleTableRecord
  2
Standard
 70
     0
 40
0.0
 41
1.0
 50
0.0
 71
     0
 42
0.2
  3
txt
  4

  0
STYLE
  5
6D
330
3
100
AcDbSymbolTableRecord
100
AcDbTextStyleTableRecord
  2
CONVERTER_11
 70
     0
 40
0.0
 41
0.72
 50
0.0
 71
     0
 42
0.2
  3
txt.shx
  4

  0
ENDTAB
  0
TABLE
  2
VIEW
  5
6
330
0
100
AcDbSymbolTable
 70
     0
  0
ENDTAB
  0
TABLE
  2
UCS
  5
7
330
0
100
AcDbSymbolTable
 70
     0
  0
ENDTAB
  0
TABLE
  2
APPID
  5
9
330
0
100
AcDbSymbolTable
 70
     1
  0
APPID
  5
12
330
9
100
AcDbSymbolTableRecord
100
AcDbRegAppTableRecord
  2
ACAD
 70
     0
  0
ENDTAB
  0
TABLE
  2
DIMSTYLE
  5
A
330
0
100
AcDbSymbolTable
 70
     8
100
AcDbDimStyleTable
  0
DIMSTYLE
105
27
330
A
100
AcDbSymbolTableRecord
100
AcDbDimStyleTableRecord
  2
Standard
 70
     0
340
11
  0
DIMSTYLE
105
109
102
{ACAD_REACTORS
330
10A
102
}
330
A
100
AcDbSymbolTableRecord
100
AcDbDimStyleTableRecord
  2
ME10_DIM_10
 70
     0
  3
\U+2300<>
 41
3.5
 42
2.0
 44
2.0
 71
     1
 73
     0
 74
     0
 77
     1
 78
     8
140
3.5
146
0.7
147
2.0
172
     1
173
     1
176
     2
177
     2
178
     3
271
     2
272
     0
340
6D
  0
DIMSTYLE
105
114
102
{ACAD_REACTORS
330
115
102
}
330
A
100
AcDbSymbolTableRecord
100
AcDbDimStyleTableRecord
  2
ME10_DIM_11
 70
     0
  3
\U+2300<>
 41
3.5
 42
2.0
 44
2.0
 71
     1
 73
     0
 74
     0
 77
     1
 78
     8
140
3.5
146
0.7
147
2.0
172
     1
173
     1
176
     2
177
     2
178
     3
271
     2
272
     0
340
6D
  0
DIMSTYLE
105
11F
102
{ACAD_REACTORS
330
120
102
}
330
A
100
AcDbSymbolTableRecord
100
AcDbDimStyleTableRecord
  2
ME10_DIM_12
 70
     0
  3
\U+2300<>
 41
3.5
 42
2.0
 44
2.0
 71
     1
 73
     0
 74
     0
 77
     1
 78
     8
140
3.5
146
0.7
147
2.0
172
     1
173
     1
176
     2
177
     2
178
     3
271
     2
272
     0
340
6D
  0
DIMSTYLE
105
12A
102
{ACAD_REACTORS
330
12B
102
}
330
A
100
AcDbSymbolTableRecord
100
AcDbDimStyleTableRecord
  2
ME10_DIM_13
 70
     0
  3
<>
 41
3.5
 42
2.0
 44
2.0
 71
     1
 73
     0
 74
     0
 77
     1
 78
     8
140
3.5
146
0.7
147
2.0
172
     1
173
     1
176
     2
177
     2
178
     3
271
     2
272
     0
340
6D
  0
DIMSTYLE
105
135
102
{ACAD_REACTORS
330
136
102
}
330
A
100
AcDbSymbolTableRecord
100
AcDbDimStyleTableRecord
  2
ME10_DIM_14
 70
     0
  3
<>
 41
3.5
 42
2.0
 44
2.0
 71
     1
 73
     0
 74
     0
 77
     1
 78
     8
140
3.5
146
0.7
147
2.0
172
     1
173
     1
176
     2
177
     2
178
     3
271
     2
272
     0
340
6D
  0
DIMSTYLE
105
140
102
{ACAD_REACTORS
330
141
102
}
330
A
100
AcDbSymbolTableRecord
100
AcDbDimStyleTableRecord
  2
ME10_DIM_15
 70
     0
  3
<>
 41
3.5
 42
2.0
 44
2.0
 71
     1
 73
     0
 74
     0
 77
     1
 78
     8
140
3.5
146
0.7
147
2.0
172
     1
173
     1
176
     2
177
     2
178
     3
271
     2
272
     0
340
6D
  0
DIMSTYLE
105
152
102
{ACAD_REACTORS
330
153
102
}
330
A
100
AcDbSymbolTableRecord
100
AcDbDimStyleTableRecord
  2
ME10_DIM_16
 70
     0
  3
<>
 41
3.5
 42
2.0
 44
2.0
 71
     1
 73
     0
 74
     0
 77
     1
 78
     8
140
3.5
146
0.7
147
2.0
172
     1
173
     1
176
     2
177
     2
178
     3
271
     2
272
     0
340
6D
  0
ENDTAB
  0
TABLE
  2
BLOCK_RECORD
  5
1
330
0
100
AcDbSymbolTable
 70
    10
  0
BLOCK_RECORD
  5
1F
330
1
100
AcDbSymbolTableRecord
100
AcDbBlockTableRecord
  2
*Model_Space
340
22
  0
BLOCK_RECORD
  5
1B
330
1
100
AcDbSymbolTableRecord
100
AcDbBlockTableRecord
  2
*Paper_Space
340
1E
  0
BLOCK_RECORD
  5
23
330
1
100
AcDbSymbolTableRecord
100
AcDbBlockTableRecord
  2
*Paper_Space0
340
26
  0
BLOCK_RECORD
  5
47
330
1
100
AcDbSymbolTableRecord
100
AcDbBlockTableRecord
  2
Urheberrecht_DE-EN
340
0
102
{BLKREFS
331
6C
102
}
  0
BLOCK_RECORD
  5
100
330
1
100
AcDbSymbolTableRecord
100
AcDbBlockTableRecord
  2
*D2
340
0
  0
BLOCK_RECORD
  5
10B
330
1
100
AcDbSymbolTableRecord
100
AcDbBlockTableRecord
  2
*D3
340
0
  0
BLOCK_RECORD
  5
116
330
1
100
AcDbSymbolTableRecord
100
AcDbBlockTableRecord
  2
*D4
340
0
  0
BLOCK_RECORD
  5
121
330
1
100
AcDbSymbolTableRecord
100
AcDbBlockTableRecord
  2
*D5
340
0
  0
BLOCK_RECORD
  5
12C
330
1
100
AcDbSymbolTableRecord
100
AcDbBlockTableRecord
  2
*D6
340
0
  0
BLOCK_RECORD
  5
137
330
1
100
AcDbSymbolTableRecord
100
AcDbBlockTableRecord
  2
*D7
340
0
  0
BLOCK_RECORD
  5
142
330
1
100
AcDbSymbolTableRecord
100
AcDbBlockTableRecord
  2
*D8
340
0
102
{BLKREFS
331
148
102
}
  0
BLOCK_RECORD
  5
149
330
1
100
AcDbSymbolTableRecord
100
AcDbBlockTableRecord
  2
*D9
340
0
  0
ENDTAB
  0
ENDSEC
  0
SECTION
  2
BLOCKS
  0
BLOCK
  5
20
330
1F
100
AcDbEntity
  8
0
100
AcDbBlockBegin
  2
*Model_Space
 70
     0
 10
0.0
 20
0.0
 30
0.0
  3
*Model_Space
  1

  0
ENDBLK
  5
21
330
1F
100
AcDbEntity
  8
0
100
AcDbBlockEnd
  0
BLOCK
  5
1C
330
1B
100
AcDbEntity
 67
     1
  8
0
100
AcDbBlockBegin
  2
*Paper_Space
 70
     0
 10
0.0
 20
0.0
 30
0.0
  3
*Paper_Space
  1

  0
ENDBLK
  5
1D
330
1B
100
AcDbEntity
 67
     1
  8
0
100
AcDbBlockEnd
  0
BLOCK
  5
24
330
23
100
AcDbEntity
  8
0
100
AcDbBlockBegin
  2
*Paper_Space0
 70
     0
 10
0.0
 20
0.0
 30
0.0
  3
*Paper_Space0
  1

  0
ENDBLK
  5
25
330
23
100
AcDbEntity
  8
0
100
AcDbBlockEnd
  0
BLOCK
  5
48
330
47
100
AcDbEntity
  8
0
100
AcDbBlockBegin
  2
Urheberrecht_DE-EN
 70
     0
 10
4.36567281226644
 20
311.43571290864
 30
0.0
  3
Urheberrecht_DE-EN
  1

  0
MTEXT
  5
6E
330
47
100
AcDbEntity
  8
1
 62
     1
100
AcDbMText
 10
4.36567281226644
 20
311.43571290864
 30
0.0
 40
2.0
 41
0.0
 71
     7
 72
     1
  1
We own the copyright of this document. It \Pdetermined and may neither be copied or \Pmade accessible to outsiders without our\Ppermission.
  7
CONVERTER_11
 11
0.0
 21
1.0
 31
0.0
 73
     1
 44
0.90036014405762
  0
MTEXT
  5
6F
330
47
100
AcDbEntity
  8
1
 62
     1
100
AcDbMText
 10
4.36567281226644
 20
255.1463259913338
 30
0.0
 40
2.0
 41
0.0
 71
     7
 72
     1
  1
F\U+00fcr diese Unterlage behalten wir das Ur-\Pheberrecht. Sie darf nur f\U+00fcr den von uns \Pbestimmten Zweck benutzt und ohne unsere \PZustimmung weder vervielf\U+00e4ltigt noch\PDritten zug\U+00e4nglich gemacht werden.
  7
CONVERTER_11
 11
0.0
 21
1.0
 31
0.0
 73
     1
 44
0.90036014405762
  0
ENDBLK
  5
49
330
47
100
AcDbEntity
  8
0
100
AcDbBlockEnd
  0
BLOCK
  5
107
330
100
100
AcDbEntity
  8
0
100
AcDbBlockBegin
  2
*D2
 70
     1
 10
0.0
 20
0.0
 30
0.0
  3
*D2
  1

  0
LINE
  5
101
330
100
100
AcDbEntity
  8
1
  6
Continuous
 62
     2
100
AcDbLine
 10
273.588828732766
 20
306.787004818
 30
0.0
 11
273.588828732766
 21
292.787004818
 31
0.0
  0
LINE
  5
102
330
100
100
AcDbEntity
  8
1
  6
Continuous
 62
     2
100
AcDbLine
 10
264.2313302998
 20
306.787004818
 30
0.0
 11
275.588828732766
 21
306.787004818
 31
0.0
  0
LINE
  5
103
330
100
100
AcDbEntity
  8
1
  6
Continuous
 62
     2
100
AcDbLine
 10
264.2313302998
 20
292.787004818
 30
0.0
 11
275.588828732766
 21
292.787004818
 31
0.0
  0
SOLID
  5
104
330
100
100
AcDbEntity
  8
1
 62
     2
100
AcDbTrace
 10
274.0496124743219
 20
303.287004818
 30
0.0
 11
273.1280449912101
 21
303.287004818
 31
0.0
 12
273.588828732766
 22
306.787004818
 32
0.0
 13
273.588828732766
 23
306.787004818
 33
0.0
  0
SOLID
  5
105
330
100
100
AcDbEntity
  8
1
 62
     2
100
AcDbTrace
 10
273.1280449912101
 20
296.287004818
 30
0.0
 11
274.0496124743219
 21
296.287004818
 31
0.0
 12
273.588828732766
 22
292.787004818
 32
0.0
 13
273.588828732766
 23
292.787004818
 33
0.0
  0
MTEXT
  5
106
330
100
100
AcDbEntity
  8
1
 62
     3
100
AcDbMText
 10
271.588828732766
 20
291.088183885609
 30
0.0
 40
3.5
 41
0.0
 71
     7
 72
     1
  1
\C3;%%c\C3;\C3;14\C2;\H2.45;\S^ ;\C3;
  7
CONVERTER_11
 11
0.0
 21
1.0
 31
0.0
 73
     1
 44
0.60024009603842
  0
ENDBLK
  5
108
330
100
100
AcDbEntity
  8
0
100
AcDbBlockEnd
  0
BLOCK
  5
112
330
10B
100
AcDbEntity
  8
0
100
AcDbBlockBegin
  2
*D3
 70
     1
 10
0.0
 20
0.0
 30
0.0
  3
*D3
  1

  0
LINE
  5
10C
330
10B
100
AcDbEntity
  8
1
  6
Continuous
 62
     2
100
AcDbLine
 10
282.165849629348
 20
313.2870048180528
 30
0.0
 11
282.165849629348
 21
286.2870048179487
 31
0.0
  0
LINE
  5
10D
330
10B
100
AcDbEntity
  8
1
  6
Continuous
 62
     2
100
AcDbLine
 10
264.2313302998094
 20
313.2870048180528
 30
0.0
 11
284.165849629348
 21
313.2870048180528
 31
0.0
  0
LINE
  5
10E
330
10B
100
AcDbEntity
  8
1
  6
Continuous
 62
     2
100
AcDbLine
 10
264.2313302998
 20
286.2870048179487
 30
0.0
 11
284.165849629348
 21
286.2870048179487
 31
0.0
  0
SOLID
  5
10F
330
10B
100
AcDbEntity
  8
1
 62
     2
100
AcDbTrace
 10
282.6266333709038
 20
309.7870048180528
 30
0.0
 11
281.7050658877921
 21
309.7870048180528
 31
0.0
 12
282.165849629348
 22
313.2870048180528
 32
0.0
 13
282.165849629348
 23
313.2870048180528
 33
0.0
  0
SOLID
  5
110
330
10B
100
AcDbEntity
  8
1
 62
     2
100
AcDbTrace
 10
281.7050658877921
 20
289.7870048179487
 30
0.0
 11
282.6266333709038
 21
289.7870048179487
 31
0.0
 12
282.165849629348
 22
286.2870048179487
 32
0.0
 13
282.165849629348
 23
286.2870048179487
 33
0.0
  0
MTEXT
  5
111
330
10B
100
AcDbEntity
  8
1
 62
     3
100
AcDbMText
 10
280.165849629348
 20
291.14468504653
 30
0.0
 40
3.5
 41
0.0
 71
     7
 72
     1
  1
\C3;%%c\C3;\C3;27\C2;\H2.45;\S^ ;\C3;
  7
CONVERTER_11
 11
0.0
 21
1.0
 31
0.0
 73
     1
 44
0.60024009603842
  0
ENDBLK
  5
113
330
10B
100
AcDbEntity
  8
0
100
AcDbBlockEnd
  0
BLOCK
  5
11D
330
116
100
AcDbEntity
  8
0
100
AcDbBlockBegin
  2
*D4
 70
     1
 10
0.0
 20
0.0
 30
0.0
  3
*D4
  1

  0
LINE
  5
117
330
116
100
AcDbEntity
  8
1
  6
Continuous
 62
     2
100
AcDbLine
 10
290.266369365009
 20
316.787004818
 30
0.0
 11
290.266369365009
 21
282.787004818
 31
0.0
  0
LINE
  5
118
330
116
100
AcDbEntity
  8
1
  6
Continuous
 62
     2
100
AcDbLine
 10
219.7596137232
 20
316.787004818
 30
0.0
 11
292.266369365009
 21
316.787004818
 31
0.0
  0
LINE
  5
119
330
116
100
AcDbEntity
  8
1
  6
Continuous
 62
     2
100
AcDbLine
 10
219.7596137232
 20
282.787004818
 30
0.0
 11
292.266369365009
 21
282.787004818
 31
0.0
  0
SOLID
  5
11A
330
116
100
AcDbEntity
  8
1
 62
     2
100
AcDbTrace
 10
290.7271531065649
 20
313.287004818
 30
0.0
 11
289.8055856234531
 21
313.287004818
 31
0.0
 12
290.266369365009
 22
316.787004818
 32
0.0
 13
290.266369365009
 23
316.787004818
 33
0.0
  0
SOLID
  5
11B
330
116
100
AcDbEntity
  8
1
 62
     2
100
AcDbTrace
 10
289.8055856234531
 20
286.287004818
 30
0.0
 11
290.7271531065649
 21
286.287004818
 31
0.0
 12
290.266369365009
 22
282.787004818
 32
0.0
 13
290.266369365009
 23
282.787004818
 33
0.0
  0
MTEXT
  5
11C
330
116
100
AcDbEntity
  8
1
 62
     3
100
AcDbMText
 10
288.266369365009
 20
291.14468504653
 30
0.0
 40
3.5
 41
0.0
 71
     7
 72
     1
  1
\C3;%%c\C3;\C3;34\C2;\H2.45;\S^ ;\C3;
  7
CONVERTER_11
 11
0.0
 21
1.0
 31
0.0
 73
     1
 44
0.60024009603842
  0
ENDBLK
  5
11E
330
116
100
AcDbEntity
  8
0
100
AcDbBlockEnd
  0
BLOCK
  5
128
330
121
100
AcDbEntity
  8
0
100
AcDbBlockBegin
  2
*D5
 70
     1
 10
0.0
 20
0.0
 30
0.0
  3
*D5
  1

  0
LINE
  5
122
330
121
100
AcDbEntity
  8
1
  6
Continuous
 62
     2
100
AcDbLine
 10
262.2313302998
 20
357.656325518
 30
0.0
 11
91.2313302998
 21
357.656325518
 31
0.0
  0
LINE
  5
123
330
121
100
AcDbEntity
  8
1
  6
Continuous
 62
     2
100
AcDbLine
 10
262.2313302998
 20
314.3626143263
 30
0.0
 11
262.2313302998
 21
359.656325518
 31
0.0
  0
LINE
  5
124
330
121
100
AcDbEntity
  8
1
  6
Continuous
 62
     2
100
AcDbLine
 10
91.2313302998
 20
351.7869678969
 30
0.0
 11
91.2313302998
 21
359.656325518
 31
0.0
  0
SOLID
  5
125
330
121
100
AcDbEntity
  8
1
 62
     2
100
AcDbTrace
 10
258.7313302998
 20
357.1955417764441
 30
0.0
 11
258.7313302998
 21
358.1171092595559
 31
0.0
 12
262.2313302998
 22
357.656325518
 32
0.0
 13
262.2313302998
 23
357.656325518
 33
0.0
  0
SOLID
  5
126
330
121
100
AcDbEntity
  8
1
 62
     2
100
AcDbTrace
 10
94.7313302998
 20
358.1171092595559
 30
0.0
 11
94.7313302998
 21
357.1955417764441
 31
0.0
 12
91.2313302998
 22
357.656325518
 32
0.0
 13
91.2313302998
 23
357.656325518
 33
0.0
  0
MTEXT
  5
127
330
121
100
AcDbEntity
  8
1
 62
     3
100
AcDbMText
 10
173.862591904833
 20
359.656325518
 30
0.0
 40
3.5
 41
0.0
 71
     7
 72
     1
  1
\C3;\C3;\C3;171\C2;\H2.45;\S^ ;\C3;
  7
CONVERTER_11
 11
0.9999999999970619
 21
2.424068405545306E-6
 31
0.0
 73
     1
 44
0.60024009603842
  0
ENDBLK
  5
129
330
121
100
AcDbEntity
  8
0
100
AcDbBlockEnd
  0
BLOCK
  5
133
330
12C
100
AcDbEntity
  8
0
100
AcDbBlockBegin
  2
*D6
 70
     1
 10
0.0
 20
0.0
 30
0.0
  3
*D6
  1

  0
LINE
  5
12D
330
12C
100
AcDbEntity
  8
1
  6
Continuous
 62
     2
100
AcDbLine
 10
262.2313302998
 20
365.756845253661
 30
0.0
 11
62.23133029979999
 21
365.756845253661
 31
0.0
  0
LINE
  5
12E
330
12C
100
AcDbEntity
  8
1
  6
Continuous
 62
     2
100
AcDbLine
 10
262.2313302998
 20
314.3626143263
 30
0.0
 11
262.2313302998
 21
367.756845253661
 31
0.0
  0
LINE
  5
12F
330
12C
100
AcDbEntity
  8
1
  6
Continuous
 62
     2
100
AcDbLine
 10
62.23133029979999
 20
351.787004818
 30
0.0
 11
62.23133029979999
 21
367.756845253661
 31
0.0
  0
SOLID
  5
130
330
12C
100
AcDbEntity
  8
1
 62
     2
100
AcDbTrace
 10
258.7313302998
 20
365.2960615121052
 30
0.0
 11
258.7313302998
 21
366.2176289952169
 31
0.0
 12
262.2313302998
 22
365.756845253661
 32
0.0
 13
262.2313302998
 23
365.756845253661
 33
0.0
  0
SOLID
  5
131
330
12C
100
AcDbEntity
  8
1
 62
     2
100
AcDbTrace
 10
65.73133029979999
 20
366.2176289952169
 30
0.0
 11
65.73133029979999
 21
365.2960615121052
 31
0.0
 12
62.23133029979999
 22
365.756845253661
 32
0.0
 13
62.23133029979999
 23
365.756845253661
 33
0.0
  0
MTEXT
  5
132
330
12C
100
AcDbEntity
  8
1
 62
     3
100
AcDbMText
 10
155.153798370287
 20
367.756845253661
 30
0.0
 40
3.5
 41
0.0
 71
     7
 72
     1
  1
\C3;\C3;\C3;200\C2;\H2.45;\S^ ;\C3;
  7
CONVERTER_11
 11
0.9999999999970619
 21
2.424068405545306E-6
 31
0.0
 73
     1
 44
0.60024009603842
  0
ENDBLK
  5
134
330
12C
100
AcDbEntity
  8
0
100
AcDbBlockEnd
  0
BLOCK
  5
13E
330
137
100
AcDbEntity
  8
0
100
AcDbBlockBegin
  2
*D7
 70
     1
 10
0.0
 20
0.0
 30
0.0
  3
*D7
  1

  0
LINE
  5
138
330
137
100
AcDbEntity
  8
1
  6
Continuous
 62
     2
100
AcDbLine
 10
262.2313302998
 20
373.14261324794
 30
0.0
 11
12.23133029979999
 21
373.14261324794
 31
0.0
  0
LINE
  5
139
330
137
100
AcDbEntity
  8
1
  6
Continuous
 62
     2
100
AcDbLine
 10
262.2313302998
 20
314.3626143263
 30
0.0
 11
262.2313302998
 21
375.14261324794
 31
0.0
  0
LINE
  5
13A
330
137
100
AcDbEntity
  8
1
  6
Continuous
 62
     2
100
AcDbLine
 10
12.23133029979999
 20
335.3871963806
 30
0.0
 11
12.23133029979999
 21
375.14261324794
 31
0.0
  0
SOLID
  5
13B
330
137
100
AcDbEntity
  8
1
 62
     2
100
AcDbTrace
 10
258.7313302998
 20
372.6818295063841
 30
0.0
 11
258.7313302998
 21
373.6033969894959
 31
0.0
 12
262.2313302998
 22
373.14261324794
 32
0.0
 13
262.2313302998
 23
373.14261324794
 33
0.0
  0
SOLID
  5
13C
330
137
100
AcDbEntity
  8
1
 62
     2
100
AcDbTrace
 10
15.73133029979999
 20
373.6033969894959
 30
0.0
 11
15.73133029979999
 21
372.6818295063841
 31
0.0
 12
12.23133029979999
 22
373.14261324794
 32
0.0
 13
12.23133029979999
 23
373.14261324794
 33
0.0
  0
MTEXT
  5
13D
330
137
100
AcDbEntity
  8
1
 62
     3
100
AcDbMText
 10
141.811765864492
 20
375.14261324794
 30
0.0
 40
3.5
 41
0.0
 71
     7
 72
     1
  1
\C3;\C3;\C3;250\C2;\H2.45;\S^ ;\C3;
  7
CONVERTER_11
 11
0.9999999999970619
 21
2.424068405545306E-6
 31
0.0
 73
     1
 44
0.60024009603842
  0
ENDBLK
  5
13F
330
137
100
AcDbEntity
  8
0
100
AcDbBlockEnd
  0
BLOCK
  5
146
330
142
100
AcDbEntity
  8
0
100
AcDbBlockBegin
  2
*D8
 70
     1
 10
0.0
 20
0.0
 30
0.0
  3
*D8
  1

  0
LINE
  5
143
330
142
100
AcDbEntity
  8
1
  6
Continuous
 62
     2
100
AcDbLine
 10
107.3546363579655
 20
339.0124287470421
 30
0.0
 11
95.95360784028583
 21
329.3805404039699
 31
0.0
  0
SOLID
  5
144
330
142
100
AcDbEntity
  8
1
 62
     2
100
AcDbTrace
 10
98.32984199446877
 20
331.991255421159
 30
0.0
 11
98.92457654690499
 21
331.2872828094279
 31
0.0
 12
95.95360784028583
 22
329.3805404039699
 32
0.0
 13
95.95360784028583
 23
329.3805404039699
 33
0.0
  0
MTEXT
  5
145
330
142
100
AcDbEntity
  8
1
 62
     3
100
AcDbMText
 10
98.47090617487017
 20
334.1254114528268
 30
0.0
 40
3.5
 41
0.0
 71
     7
 72
     1
  1
\C3; R\C3;\C3;20\C2;\H2.45;\S^ ;\C3;
  7
CONVERTER_11
 11
0.763886122971739
 21
0.645351060378152
 31
0.0
 73
     1
 44
0.60024009603842
  0
ENDBLK
  5
147
330
142
100
AcDbEntity
  8
0
100
AcDbBlockEnd
  0
BLOCK
  5
150
330
149
100
AcDbEntity
  8
0
100
AcDbBlockBegin
  2
*D9
 70
     1
 10
0.0
 20
0.0
 30
0.0
  3
*D9
  1

  0
LINE
  5
14A
330
149
100
AcDbEntity
  8
1
  6
Continuous
 62
     2
100
AcDbLine
 10
243.3738324445016
 20
316.787004818
 30
0.0
 11
245.3738324445016
 21
316.787004818
 31
0.0
  0
LINE
  5
14B
330
149
100
AcDbEntity
  8
1
  6
Continuous
 62
     2
100
AcDbLine
 10
219.7596137231999
 20
316.787004818
 30
0.0
 11
243.3738324445016
 21
316.787004818
 31
0.0
  0
ARC
  5
14C
330
149
100
AcDbEntity
  8
1
  6
Continuous
 62
     2
100
AcDbCircle
 10
217.7596137231999
 20
316.787004818
 30
0.0
 40
25.61421872130165
100
AcDbArc
 50
343.756411576872
 51
11.74358842315679
  0
SOLID
  5
14D
330
149
100
AcDbEntity
  8
1
 62
     2
100
AcDbTrace
 10
243.2385272620037
 20
311.2475847044148
 30
0.0
 11
242.3268802165818
 21
311.3824412596967
 31
0.0
 12
243.2948723564982
 22
314.7773363793643
 32
0.0
 13
243.2948723564982
 23
314.7773363793643
 33
0.0
  0
SOLID
  5
14E
330
149
100
AcDbEntity
  8
1
 62
     2
100
AcDbTrace
 10
242.6751847024798
 20
320.2473823969717
 30
0.0
 11
243.5946021676878
 21
320.3102962316935
 31
0.0
 12
243.3738324445016
 22
316.787004818
 32
0.0
 13
243.3738324445016
 23
316.787004818
 33
0.0
  0
MTEXT
  5
14F
330
149
100
AcDbEntity
  8
1
 62
     3
100
AcDbMText
 10
244.1057269425117
 20
325.7827604184535
 30
0.0
 40
3.5
 41
0.0
 71
     7
 72
     1
  1
\C3;\C3;\C3;4.5%%d\C2;\H2.45;\S^ ;\C3;
  7
CONVERTER_11
 11
0.2003470684288037
 21
-0.9797249880308169
 31
0.0
 73
     1
 44
0.60024009603842
  0
ENDBLK
  5
151
330
149
100
AcDbEntity
  8
0
100
AcDbBlockEnd
  0
ENDSEC
  0
SECTION
  2
ENTITIES
  0
INSERT
  5
6C
330
1F
100
AcDbEntity
  8
0
100
AcDbBlockReference
  2
Urheberrecht_DE-EN
 10
4.36567281226644
 20
311.43571290864
 30
0.0
  0
LINE
  5
70
330
1F
100
AcDbEntity
  8
BEZUGSACHSEN
  6
Continuous
 62
     7
100
AcDbLine
 10
12.2313302998
 20
266.186813255
 30
0.0
 11
12.2313302998
 21
287.777004818
 31
0.0
  0
LINE
  5
71
330
1F
100
AcDbEntity
  8
BEZUGSACHSEN
  6
Continuous
 62
     7
100
AcDbLine
 10
12.2313302998
 20
311.797004818
 30
0.0
 11
12.2313302998
 21
333.3871963806
 31
0.0
  0
LINE
  5
72
330
1F
100
AcDbEntity
  8
BEZUGSACHSEN
  6
Continuous
 62
     9
100
AcDbLine
 10
14.1312558151
 20
335.3846910863
 30
0.0
 11
14.1312558151
 21
315.4635372042
 31
0.0
  0
LINE
  5
73
330
1F
100
AcDbEntity
  8
BEZUGSACHSEN
  6
Continuous
 62
     9
100
AcDbLine
 10
14.1312558151
 20
284.1104724317
 30
0.0
 11
14.1312558151
 21
264.1893185497
 31
0.0
  0
LINE
  5
74
330
1F
100
AcDbEntity
  8
BEZUGSACHSEN
  6
Continuous
 62
     7
100
AcDbLine
 10
14.2313302998
 20
287.3833648696
 30
0.0
 11
14.2313302998
 21
289.777004818
 31
0.0
  0
LINE
  5
75
330
1F
100
AcDbEntity
  8
BEZUGSACHSEN
  6
Continuous
 62
     7
100
AcDbLine
 10
14.2313302998
 20
309.797004818
 30
0.0
 11
14.2313302998
 21
312.1906447664
 31
0.0
  0
LINE
  5
76
330
1F
100
AcDbEntity
  8
BEZUGSACHSEN
  6
Continuous
 62
     9
100
AcDbLine
 10
20.2313302998
 20
283.4283572305
 30
0.0
 11
20.2313302998
 21
289.777004818
 31
0.0
  0
LINE
  5
77
330
1F
100
AcDbEntity
  8
BEZUGSACHSEN
  6
Continuous
 62
     9
100
AcDbLine
 10
20.2313302998
 20
309.797004818
 30
0.0
 11
20.2313302998
 21
316.1456524054
 31
0.0
  0
LINE
  5
78
330
1F
100
AcDbEntity
  8
BEZUGSACHSEN
  6
Continuous
 62
     7
100
AcDbLine
 10
22.2313302998
 20
312.6566603438
 30
0.0
 11
22.2313302998
 21
286.9173492922
 31
0.0
  0
LINE
  5
79
330
1F
100
AcDbEntity
  8
BEZUGSACHSEN
  6
Continuous
 62
     7
100
AcDbLine
 10
13.4982832268
 20
284.777004818
 30
0.0
 11
13.3771729754
 21
284.5446688225
 31
0.0
  0
LINE
  5
7A
330
1F
100
AcDbEntity
  8
BEZUGSACHSEN
  6
Continuous
 62
     7
100
AcDbLine
 10
13.3771729754
 20
315.0293408134
 30
0.0
 11
13.4982832268
 21
314.797004818
 31
0.0
  0
LWPOLYLINE
  5
7B
330
1F
100
AcDbEntity
  8
BEZUGSACHSEN
  6
DOT_CENTER
 62
     7
100
AcDbPolyline
 90
        2
 70
     0
 43
0.25
 10
47.2313302998
 20
299.787004818
 10
47.2313302998
 20
290.787004818
  0
LWPOLYLINE
  5
7C
330
1F
100
AcDbEntity
  8
BEZUGSACHSEN
  6
DOT_CENTER
 62
     7
100
AcDbPolyline
 90
        2
 70
     0
 43
0.25
 10
47.2313302998
 20
299.787004818
 10
47.2313302998
 20
308.787004818
  0
LINE
  5
7D
330
1F
100
AcDbEntity
  8
BEZUGSACHSEN
  6
Continuous
 62
     7
100
AcDbLine
 10
12.2313302998
 20
287.777004818
 30
0.0
 11
14.2313302998
 21
289.777004818
 31
0.0
  0
LINE
  5
7E
330
1F
100
AcDbEntity
  8
BEZUGSACHSEN
  6
Continuous
 62
     7
100
AcDbLine
 10
14.2313302998
 20
309.797004818
 30
0.0
 11
12.2313302998
 21
311.797004818
 31
0.0
  0
LINE
  5
7F
330
1F
100
AcDbEntity
  8
BEZUGSACHSEN
  6
Continuous
 62
     7
100
AcDbLine
 10
59.7313302998
 20
337.669254818
 30
0.0
 11
59.7313302998
 21
261.904754818
 31
0.0
  0
LINE
  5
80
330
1F
100
AcDbEntity
  8
BEZUGSACHSEN
  6
Continuous
 62
     9
100
AcDbLine
 10
60.3505739138
 20
262.0706806443
 30
0.0
 11
60.3505739138
 21
337.5033289917
 31
0.0
  0
LINE
  5
81
330
1F
100
AcDbEntity
  8
BEZUGSACHSEN
  6
Continuous
 62
     9
100
AcDbLine
 10
60.6093929589
 20
262.104754818
 30
0.0
 11
60.6093929589
 21
337.469254818
 31
0.0
  0
LINE
  5
82
330
1F
100
AcDbEntity
  8
BEZUGSACHSEN
  6
Continuous
 62
     9
100
AcDbLine
 10
61.5307590111
 20
262.104754818
 30
0.0
 11
61.5307590111
 21
337.469254818
 31
0.0
  0
LINE
  5
83
330
1F
100
AcDbEntity
  8
BEZUGSACHSEN
  6
Continuous
 62
     7
100
AcDbLine
 10
62.2313302998
 20
349.787004818
 30
0.0
 11
62.2313302998
 21
249.787004818
 31
0.0
  0
LWPOLYLINE
  5
84
330
1F
100
AcDbEntity
  8
BEZUGSACHSEN
  6
DOT_CENTER
 62
     7
100
AcDbPolyline
 90
        2
 70
     0
 43
0.25
 10
69.2313302998
 20
341.9363766733
 10
69.2313302998
 20
352.787004818
  0
LINE
  5
85
330
1F
100
AcDbEntity
  8
FASEN
  6
Continuous
 62
     9
100
AcDbLine
 10
75.2032042216
 20
267.887004818
 30
0.0
 11
75.2032042216
 21
268.287004818
 31
0.0
  0
LINE
  5
86
330
1F
100
AcDbEntity
  8
BEZUGSACHSEN
  6
Continuous
 62
     7
100
AcDbLine
 10
84.1063302998
 20
347.4096000822
 30
0.0
 11
85.478925564
 21
349.787004818
 31
0.0
  0
LINE
  5
87
330
1F
100
AcDbEntity
  8
BEZUGSACHSEN
  6
Continuous
 62
     7
100
AcDbLine
 10
84.1063302998
 20
252.1644095538
 30
0.0
 11
85.478925564
 21
249.787004818
 31
0.0
  0
LINE
  5
88
330
1F
100
AcDbEntity
  8
FASEN
  6
Continuous
 62
     9
100
AcDbLine
 10
77.2313302998
 20
290.187004818
 30
0.0
 11
77.2313302998
 21
289.787004818
 31
0.0
  0
LINE
  5
89
330
1F
100
AcDbEntity
  8
FASEN
  6
Continuous
 62
     9
100
AcDbLine
 10
77.2313302998
 20
309.387004818
 30
0.0
 11
77.2313302998
 21
309.787004818
 31
0.0
  0
LINE
  5
8A
330
1F
100
AcDbEntity
  8
0
  6
Continuous
 62
     7
100
AcDbLine
 10
78.9837350356
 20
349.787004818
 30
0.0
 11
78.9837350356
 21
309.787004818
 31
0.0
  0
LINE
  5
8B
330
1F
100
AcDbEntity
  8
0
  6
Continuous
 62
     7
100
AcDbLine
 10
78.9837350356
 20
289.787004818
 30
0.0
 11
78.9837350356
 21
268.287004818
 31
0.0
  0
LINE
  5
8C
330
1F
100
AcDbEntity
  8
0
  6
Continuous
 62
     7
100
AcDbLine
 10
78.9837350356
 20
260.9572481873
 30
0.0
 11
78.9837350356
 21
249.787004818
 31
0.0
  0
LINE
  5
8D
330
1F
100
AcDbEntity
  8
0
  6
Continuous
 62
     7
100
AcDbLine
 10
80.3563302998
 20
347.4095666557
 30
0.0
 11
80.3563302998
 21
309.787004818
 31
0.0
  0
LINE
  5
8E
330
1F
100
AcDbEntity
  8
0
  6
Continuous
 62
     7
100
AcDbLine
 10
80.3563302998
 20
289.787004818
 30
0.0
 11
80.3563302998
 21
268.287004818
 31
0.0
  0
LINE
  5
8F
330
1F
100
AcDbEntity
  8
0
  6
Continuous
 62
     7
100
AcDbLine
 10
80.3563302998
 20
252.1644470877
 30
0.0
 11
80.3563302998
 21
264.9050610648
 31
0.0
  0
LINE
  5
90
330
1F
100
AcDbEntity
  8
0
  6
Continuous
 62
     9
100
AcDbLine
 10
81.3563302998
 20
253.787004818
 30
0.0
 11
81.3563302998
 21
266.2646242343
 31
0.0
  0
LINE
  5
91
330
1F
100
AcDbEntity
  8
0
  6
Continuous
 62
     9
100
AcDbLine
 10
81.3563302998
 20
268.287004818
 30
0.0
 11
81.3563302998
 21
289.787004818
 31
0.0
  0
LINE
  5
92
330
1F
100
AcDbEntity
  8
0
  6
Continuous
 62
     9
100
AcDbLine
 10
81.3563302998
 20
309.787004818
 30
0.0
 11
81.3563302998
 21
345.787004818
 31
0.0
  0
LINE
  5
93
330
1F
100
AcDbEntity
  8
0
  6
Continuous
 62
     9
100
AcDbLine
 10
83.1063302998
 20
253.787004818
 30
0.0
 11
83.1063302998
 21
266.2646242343
 31
0.0
  0
LINE
  5
94
330
1F
100
AcDbEntity
  8
0
  6
Continuous
 62
     9
100
AcDbLine
 10
83.1063302998
 20
268.287004818
 30
0.0
 11
83.1063302998
 21
289.787004818
 31
0.0
  0
LINE
  5
95
330
1F
100
AcDbEntity
  8
0
  6
Continuous
 62
     9
100
AcDbLine
 10
83.1063302998
 20
309.787004818
 30
0.0
 11
83.1063302998
 21
345.787004818
 31
0.0
  0
LINE
  5
96
330
1F
100
AcDbEntity
  8
0
  6
Continuous
 62
     7
100
AcDbLine
 10
84.1063302998
 20
252.1644470877
 30
0.0
 11
84.1063302998
 21
264.9050610648
 31
0.0
  0
LINE
  5
97
330
1F
100
AcDbEntity
  8
0
  6
Continuous
 62
     7
100
AcDbLine
 10
84.1063302998
 20
268.287004818
 30
0.0
 11
84.1063302998
 21
289.787004818
 31
0.0
  0
LINE
  5
98
330
1F
100
AcDbEntity
  8
0
  6
Continuous
 62
     7
100
AcDbLine
 10
84.1063302998
 20
309.787004818
 30
0.0
 11
84.1063302998
 21
347.4095666557
 31
0.0
  0
LINE
  5
99
330
1F
100
AcDbEntity
  8
0
  6
Continuous
 62
     7
100
AcDbLine
 10
85.478925564
 20
349.787004818
 30
0.0
 11
85.478925564
 21
309.787004818
 31
0.0
  0
LINE
  5
9A
330
1F
100
AcDbEntity
  8
0
  6
Continuous
 62
     7
100
AcDbLine
 10
85.478925564
 20
289.787004818
 30
0.0
 11
85.478925564
 21
268.287004818
 31
0.0
  0
LINE
  5
9B
330
1F
100
AcDbEntity
  8
0
  6
Continuous
 62
     7
100
AcDbLine
 10
85.478925564
 20
260.9572481873
 30
0.0
 11
85.478925564
 21
249.787004818
 31
0.0
  0
LINE
  5
9C
330
1F
100
AcDbEntity
  8
0
  6
Continuous
 62
     7
100
AcDbLine
 10
91.2313302998
 20
349.7869678969
 30
0.0
 11
91.2313302998
 21
309.787004818
 31
0.0
  0
LINE
  5
9D
330
1F
100
AcDbEntity
  8
0
  6
Continuous
 62
     7
100
AcDbLine
 10
91.2313302998
 20
289.787004818
 30
0.0
 11
91.2313302998
 21
268.287004818
 31
0.0
  0
LINE
  5
9E
330
1F
100
AcDbEntity
  8
0
  6
Continuous
 62
     7
100
AcDbLine
 10
91.2313302998
 20
260.9572481873
 30
0.0
 11
91.2313302998
 21
249.7870066858
 31
0.0
  0
LINE
  5
9F
330
1F
100
AcDbEntity
  8
FASEN
  6
Continuous
 62
     7
100
AcDbLine
 10
91.2313302998
 20
260.9572481873
 30
0.0
 11
91.2313302998
 21
268.287004818
 31
0.0
  0
LINE
  5
A0
330
1F
100
AcDbEntity
  8
FASEN
  6
Continuous
 62
     7
100
AcDbLine
 10
91.2313302998
 20
289.787004818
 30
0.0
 11
91.2313302998
 21
309.787004818
 31
0.0
  0
LINE
  5
A1
330
1F
100
AcDbEntity
  8
BEZUGSACHSEN
  6
Continuous
 62
     9
100
AcDbLine
 10
12.2313302998
 20
286.340820849
 30
0.0
 11
14.2313302998
 21
287.3833648696
 31
0.0
  0
LINE
  5
A2
330
1F
100
AcDbEntity
  8
BEZUGSACHSEN
  6
Continuous
 62
     7
100
AcDbLine
 10
78.9837350356
 20
249.787004818
 30
0.0
 11
62.2313302998
 21
249.787004818
 31
0.0
  0
LINE
  5
A3
330
1F
100
AcDbEntity
  8
BEZUGSACHSEN
  6
Continuous
 62
     7
100
AcDbLine
 10
85.478925564
 20
249.787004818
 30
0.0
 11
91.2313302998
 21
249.787004818
 31
0.0
  0
LINE
  5
A4
330
1F
100
AcDbEntity
  8
BEZUGSACHSEN
  6
Continuous
 62
     7
100
AcDbLine
 10
81.3563302998
 20
253.787004818
 30
0.0
 11
83.1063302998
 21
253.787004818
 31
0.0
  0
LINE
  5
A5
330
1F
100
AcDbEntity
  8
BEZUGSACHSEN
  6
Continuous
 62
     9
100
AcDbLine
 10
14.2313302998
 20
312.1906447664
 30
0.0
 11
12.2313302998
 21
313.233188787
 31
0.0
  0
LINE
  5
A6
330
1F
100
AcDbEntity
  8
FASEN
  6
Continuous
 62
     7
100
AcDbLine
 10
67.6328162642
 20
260.9572481873
 30
0.0
 11
78.9837350356
 21
260.9572481873
 31
0.0
  0
LINE
  5
A7
330
1F
100
AcDbEntity
  8
0
  6
Continuous
 62
     7
100
AcDbLine
 10
85.478925564
 20
260.9572481873
 30
0.0
 11
91.2313302998
 21
260.9572481873
 31
0.0
  0
LINE
  5
A8
330
1F
100
AcDbEntity
  8
BEZUGSACHSEN
  6
Continuous
 62
     7
100
AcDbLine
 10
61.5307590111
 20
262.104754818
 30
0.0
 11
60.6093929589
 21
262.104754818
 31
0.0
  0
LINE
  5
A9
330
1F
100
AcDbEntity
  8
BEZUGSACHSEN
  6
Continuous
 62
     7
100
AcDbLine
 10
59.7313302998
 20
261.904754818
 30
0.0
 11
14.1312558151
 21
264.1893185497
 31
0.0
  0
LINE
  5
AA
330
1F
100
AcDbEntity
  8
RUNDUNGEN
  6
Continuous
 62
     9
100
AcDbLine
 10
106.8835042128
 20
322.7658708979
 30
0.0
 11
106.8835042128
 21
276.808138738
 31
0.0
  0
LINE
  5
AB
330
1F
100
AcDbEntity
  8
0
  6
Continuous
 62
     7
100
AcDbLine
 10
81.3563302998
 20
266.2646242343
 30
0.0
 11
83.1063302998
 21
266.2646242343
 31
0.0
  0
LINE
  5
AC
330
1F
100
AcDbEntity
  8
FASEN
  6
Continuous
 62
     7
100
AcDbLine
 10
75.2032042216
 20
267.887004818
 30
0.0
 11
91.2313302998
 21
267.887004818
 31
0.0
  0
LINE
  5
AD
330
1F
100
AcDbEntity
  8
0
  6
Continuous
 62
     7
100
AcDbLine
 10
75.2032042216
 20
268.287004818
 30
0.0
 11
91.2313302998
 21
268.287004818
 31
0.0
  0
LINE
  5
AE
330
1F
100
AcDbEntity
  8
BEZUGSACHSEN
  6
Continuous
 62
     7
100
AcDbLine
 10
78.9837350356
 20
249.787004818
 30
0.0
 11
80.3563302998
 21
252.1644095538
 31
0.0
  0
LINE
  5
AF
330
1F
100
AcDbEntity
  8
RUNDUNGEN
  6
Continuous
 62
     7
100
AcDbLine
 10
261.3097893955
 20
286.2144779759
 30
0.0
 11
217.7596137232
 21
282.787004818
 31
0.0
  0
LINE
  5
B0
330
1F
100
AcDbEntity
  8
0
  6
Continuous
 62
     7
100
AcDbLine
 10
217.7596137232
 20
282.787004818
 30
0.0
 11
261.3097893955
 21
286.2144779759
 31
0.0
  0
LINE
  5
B1
330
1F
100
AcDbEntity
  8
0
  6
Continuous
 62
     7
100
AcDbLine
 10
217.7596137232
 20
282.787004818
 30
0.0
 11
161.2313302998
 21
282.787004818
 31
0.0
  0
LINE
  5
B2
330
1F
100
AcDbEntity
  8
BEZUGSACHSEN
  6
Continuous
 62
     7
100
AcDbLine
 10
78.9837350356
 20
349.787004818
 30
0.0
 11
80.3563302998
 21
347.4096000822
 31
0.0
  0
LINE
  5
B3
330
1F
100
AcDbEntity
  8
BEZUGSACHSEN
  6
Continuous
 62
     7
100
AcDbLine
 10
60.3505739138
 20
262.0706806443
 30
0.0
 11
59.7313302998
 21
261.904754818
 31
0.0
  0
LINE
  5
B4
330
1F
100
AcDbEntity
  8
BEZUGSACHSEN
  6
Continuous
 62
     9
100
AcDbLine
 10
21.7851762467
 20
284.777004818
 30
0.0
 11
13.4982832268
 21
284.777004818
 31
0.0
  0
LINE
  5
B5
330
1F
100
AcDbEntity
  8
BEZUGSACHSEN
  6
Continuous
 62
     7
100
AcDbLine
 10
20.2313302998
 20
289.777004818
 30
0.0
 11
14.2313302998
 21
289.777004818
 31
0.0
  0
LINE
  5
B6
330
1F
100
AcDbEntity
  8
0
  6
Continuous
 62
     7
100
AcDbLine
 10
77.2313302998
 20
289.787004818
 30
0.0
 11
91.2313302998
 21
289.787004818
 31
0.0
  0
LINE
  5
B7
330
1F
100
AcDbEntity
  8
FASEN
  6
Continuous
 62
     7
100
AcDbLine
 10
91.2313302998
 20
290.187004818
 30
0.0
 11
77.2313302998
 21
290.187004818
 31
0.0
  0
LWPOLYLINE
  5
B8
330
1F
100
AcDbEntity
  8
DEFAULT_2
  6
DASHED
 62
     8
100
AcDbPolyline
 90
        2
 70
     0
 43
0.35
 10
262.2313302998
 20
292.787004818
 10
215.2313302998
 20
292.787004818
  0
LWPOLYLINE
  5
B9
330
1F
100
AcDbEntity
  8
BEZUGSACHSEN
  6
DOT_CENTER
 62
     7
100
AcDbPolyline
 90
        2
 70
     0
 43
0.25
 10
265.2313302998
 20
299.787004818
 10
9.2313302998
 20
299.787004818
  0
LWPOLYLINE
  5
BA
330
1F
100
AcDbEntity
  8
DEFAULT_2
  6
DASHED
 62
     8
100
AcDbPolyline
 90
        2
 70
     0
 43
0.35
 10
262.2313302998
 20
306.787004818
 10
215.2313302998
 20
306.787004818
  0
LINE
  5
BB
330
1F
100
AcDbEntity
  8
FASEN
  6
Continuous
 62
     7
100
AcDbLine
 10
77.2313302998
 20
309.387004818
 30
0.0
 11
91.2313302998
 21
309.387004818
 31
0.0
  0
LINE
  5
BC
330
1F
100
AcDbEntity
  8
0
  6
Continuous
 62
     7
100
AcDbLine
 10
77.2313302998
 20
309.787004818
 30
0.0
 11
91.2313302998
 21
309.787004818
 31
0.0
  0
LINE
  5
BD
330
1F
100
AcDbEntity
  8
BEZUGSACHSEN
  6
Continuous
 62
     7
100
AcDbLine
 10
20.2313302998
 20
309.797004818
 30
0.0
 11
14.2313302998
 21
309.797004818
 31
0.0
  0
LINE
  5
BE
330
1F
100
AcDbEntity
  8
BEZUGSACHSEN
  6
Continuous
 62
     9
100
AcDbLine
 10
13.4982832268
 20
314.797004818
 30
0.0
 11
21.7851762467
 21
314.797004818
 31
0.0
  0
LINE
  5
BF
330
1F
100
AcDbEntity
  8
0
  6
Continuous
 62
     7
100
AcDbLine
 10
217.7596137232
 20
316.787004818
 30
0.0
 11
161.2313302998
 21
316.787004818
 31
0.0
  0
LINE
  5
C0
330
1F
100
AcDbEntity
  8
BEZUGSACHSEN
  6
Continuous
 62
     7
100
AcDbLine
 10
60.3505739138
 20
337.5033289917
 30
0.0
 11
59.7313302998
 21
337.669254818
 31
0.0
  0
LINE
  5
C1
330
1F
100
AcDbEntity
  8
0
  6
Continuous
 62
     9
100
AcDbLine
 10
161.2313302998
 20
316.787004818
 30
0.0
 11
161.2313302998
 21
282.787004818
 31
0.0
  0
LINE
  5
C2
330
1F
100
AcDbEntity
  8
RUNDUNGEN
  6
Continuous
 62
     7
100
AcDbLine
 10
261.3097893955
 20
313.3595316601
 30
0.0
 11
217.7596137232
 21
316.787004818
 31
0.0
  0
LINE
  5
C3
330
1F
100
AcDbEntity
  8
0
  6
Continuous
 62
     7
100
AcDbLine
 10
217.7596137232
 20
316.787004818
 30
0.0
 11
261.3097893955
 21
313.3595316601
 31
0.0
  0
LINE
  5
C4
330
1F
100
AcDbEntity
  8
BEZUGSACHSEN
  6
Continuous
 62
     7
100
AcDbLine
 10
59.7313302998
 20
337.669254818
 30
0.0
 11
14.1312558151
 21
335.3846910863
 31
0.0
  0
LINE
  5
C5
330
1F
100
AcDbEntity
  8
BEZUGSACHSEN
  6
Continuous
 62
     7
100
AcDbLine
 10
61.5307590111
 20
337.469254818
 30
0.0
 11
60.6093929589
 21
337.469254818
 31
0.0
  0
LINE
  5
C6
330
1F
100
AcDbEntity
  8
BEZUGSACHSEN
  6
Continuous
 62
     7
100
AcDbLine
 10
81.3563302998
 20
345.787004818
 30
0.0
 11
83.1063302998
 21
345.787004818
 31
0.0
  0
LINE
  5
C7
330
1F
100
AcDbEntity
  8
BEZUGSACHSEN
  6
Continuous
 62
     7
100
AcDbLine
 10
78.9837350356
 20
349.787004818
 30
0.0
 11
74.2313302998
 21
349.787004818
 31
0.0
  0
LINE
  5
C8
330
1F
100
AcDbEntity
  8
BEZUGSACHSEN
  6
Continuous
 62
     7
100
AcDbLine
 10
64.2313302998
 20
349.787004818
 30
0.0
 11
62.2313302998
 21
349.787004818
 31
0.0
  0
LINE
  5
C9
330
1F
100
AcDbEntity
  8
BEZUGSACHSEN
  6
Continuous
 62
     7
100
AcDbLine
 10
85.478925564
 20
349.787004818
 30
0.0
 11
91.2313302998
 21
349.787004818
 31
0.0
  0
LWPOLYLINE
  5
CA
330
1F
100
AcDbEntity
  8
DEFAULT_2
  6
DASHED
 62
     8
100
AcDbPolyline
 90
        2
 70
     0
 43
0.35
 10
215.2313302998
 20
306.787004818
 10
215.2313302998
 20
292.787004818
  0
LINE
  5
CB
330
1F
100
AcDbEntity
  8
0
  6
Continuous
 62
     7
100
AcDbLine
 10
217.7596137232
 20
316.787004818
 30
0.0
 11
217.7596137232
 21
282.787004818
 31
0.0
  0
LINE
  5
CC
330
1F
100
AcDbEntity
  8
RUNDUNGEN
  6
Continuous
 62
     9
100
AcDbLine
 10
261.3097893955
 20
286.2144779759
 30
0.0
 11
261.3097893955
 21
313.3595316601
 31
0.0
  0
LINE
  5
CD
330
1F
100
AcDbEntity
  8
RUNDUNGEN
  6
Continuous
 62
     7
100
AcDbLine
 10
262.2313302998
 20
312.3626143263
 30
0.0
 11
262.2313302998
 21
287.2113953096
 31
0.0
  0
LWPOLYLINE
  5
CE
330
1F
100
AcDbEntity
  8
1
  6
Continuous
 62
     7
100
AcDbPolyline
 90
        2
 70
     0
 43
0.25
 10
262.2313302998
 20
312.3626143263
 10
262.2313302998
 20
313.2870048180528
  0
LWPOLYLINE
  5
CF
330
1F
100
AcDbEntity
  8
1
  6
Continuous
 62
     7
100
AcDbPolyline
 90
        2
 70
     0
 43
0.25
 10
261.3097893955
 20
313.3595316601
 10
262.2313302998094
 20
313.2870048180528
  0
LWPOLYLINE
  5
D0
330
1F
100
AcDbEntity
  8
1
  6
Continuous
 62
     7
100
AcDbPolyline
 90
        2
 70
     0
 43
0.25
 10
261.3097893955
 20
286.2144779759
 10
262.2313302998
 20
286.2870048179487
  0
LWPOLYLINE
  5
D1
330
1F
100
AcDbEntity
  8
1
  6
Continuous
 62
     7
100
AcDbPolyline
 90
        2
 70
     0
 43
0.25
 10
262.2313302998
 20
287.2113953096
 10
262.2313302998
 20
286.2870048179487
  0
ARC
  5
D2
330
1F
100
AcDbEntity
  8
FASEN
  6
Continuous
 62
     7
100
AcDbCircle
 10
80.1319843227
 20
275.318268088
 30
0.0
 40
19.03859487309966
100
AcDbArc
 50
227.4837701982989
 51
228.9651953373019
  0
ARC
  5
D3
330
1F
100
AcDbEntity
  8
FASEN
  6
Continuous
 62
     7
100
AcDbCircle
 10
75.2032042216
 20
260.287004818
 30
0.0
 40
8.0
100
AcDbArc
 50
90.0
 51
172.8323734889971
  0
ARC
  5
D4
330
1F
100
AcDbEntity
  8
FASEN
  6
Continuous
 62
     7
100
AcDbCircle
 10
75.2032042216
 20
260.287004818
 30
0.0
 40
7.599982194900008
100
AcDbArc
 50
90.0
 51
174.9405171273017
  0
ARC
  5
D5
330
1F
100
AcDbEntity
  8
BEZUGSACHSEN
  6
Continuous
 62
     7
100
AcDbCircle
 10
20.2313302998
 20
291.777004818
 30
0.0
 40
2.0
100
AcDbArc
 50
270.0
 51
359.9999999999137
  0
ARC
  5
D6
330
1F
100
AcDbEntity
  8
BEZUGSACHSEN
  6
Continuous
 62
     7
100
AcDbCircle
 10
14.2313302998
 20
266.1868132549
 30
0.0
 40
2.0
100
AcDbArc
 50
179.9999999971356
 51
267.1318795135585
  0
ARC
  5
D7
330
1F
100
AcDbEntity
  8
BEZUGSACHSEN
  6
Continuous
 62
     7
100
AcDbCircle
 10
81.3563302998
 20
252.787004818
 30
0.0
 40
1.0
100
AcDbArc
 50
90.0
 51
180.0
  0
ARC
  5
D8
330
1F
100
AcDbEntity
  8
BEZUGSACHSEN
  6
Continuous
 62
     7
100
AcDbCircle
 10
60.6093929589
 20
261.104754818
 30
0.0
 40
1.0
100
AcDbArc
 50
90.0
 51
104.9999999996985
  0
ARC
  5
D9
330
1F
100
AcDbEntity
  8
BEZUGSACHSEN
  6
Continuous
 62
     7
100
AcDbCircle
 10
61.5307590111
 20
261.104754818
 30
0.0
 40
0.9999999999998077
100
AcDbArc
 50
45.49026120128718
 51
90.0
  0
ARC
  5
DA
330
1F
100
AcDbEntity
  8
0
  6
Continuous
 62
     7
100
AcDbCircle
 10
-162.3664495827
 20
369.2214724084
 30
0.0
 40
264.5204223901892
100
AcDbArc
 50
335.840076470599
 51
336.5770705490999
  0
ARC
  5
DB
330
1F
100
AcDbEntity
  8
BEZUGSACHSEN
  6
Continuous
 62
     7
100
AcDbCircle
 10
69.2465383109
 20
399.8397745849
 30
0.0
 40
50.30340021045196
100
AcDbArc
 50
264.2781515102013
 51
269.9826780125999
  0
ARC
  5
DC
330
1F
100
AcDbEntity
  8
BEZUGSACHSEN
  6
Continuous
 62
     7
100
AcDbCircle
 10
69.2161222987
 20
399.8397743841
 30
0.0
 40
50.30340000959742
100
AcDbArc
 50
270.017321976058
 51
275.7218485012679
  0
ARC
  5
DD
330
1F
100
AcDbEntity
  8
0
  6
Continuous
 62
     7
100
AcDbCircle
 10
77.2313302998
 20
299.787004818
 30
0.0
 40
10.0
100
AcDbArc
 50
90.0
 51
270.0
  0
ARC
  5
DE
330
1F
100
AcDbEntity
  8
FASEN
  6
Continuous
 62
     7
100
AcDbCircle
 10
77.2313302998
 20
299.787004818
 30
0.0
 40
9.599999195900011
100
AcDbArc
 50
90.0
 51
270.0
  0
ARC
  5
DF
330
1F
100
AcDbEntity
  8
BEZUGSACHSEN
  6
Continuous
 62
     7
100
AcDbCircle
 10
20.2313302998
 20
307.797004818
 30
0.0
 40
2.0
100
AcDbArc
 50
0.0
 51
90.0
  0
ARC
  5
E0
330
1F
100
AcDbEntity
  8
BEZUGSACHSEN
  6
Continuous
 62
     7
100
AcDbCircle
 10
14.2313302998
 20
333.3871963811
 30
0.0
 40
1.999999999947485
100
AcDbArc
 50
92.86812048644153
 51
180.0000000143238
  0
ARC
  5
E1
330
1F
100
AcDbEntity
  8
BEZUGSACHSEN
  6
Continuous
 62
     7
100
AcDbCircle
 10
81.3563302998
 20
346.787004818
 30
0.0
 40
1.0
100
AcDbArc
 50
180.0
 51
270.0
  0
ARC
  5
E2
330
1F
100
AcDbEntity
  8
BEZUGSACHSEN
  6
Continuous
 62
     7
100
AcDbCircle
 10
60.6093929589
 20
338.469254818
 30
0.0
 40
1.000000000009916
100
AcDbArc
 50
255.0000000003015
 51
270.0
  0
ARC
  5
E3
330
1F
100
AcDbEntity
  8
BEZUGSACHSEN
  6
Continuous
 62
     7
100
AcDbCircle
 10
61.5307590111
 20
338.469254818
 30
0.0
 40
1.0
100
AcDbArc
 50
270.0
 51
314.5097387987128
  0
ARC
  5
E4
330
1F
100
AcDbEntity
  8
BEZUGSACHSEN
  6
Continuous
 62
     7
100
AcDbCircle
 10
198.561376898
 20
-1306.255754472
 30
0.0
 40
1632.172763697999
100
AcDbArc
 50
96.2726189838
 51
96.48809068979999
  0
ARC
  5
E5
330
1F
100
AcDbEntity
  8
0
  6
Continuous
 62
     7
100
AcDbCircle
 10
161.2313302998
 20
32.787004818
 30
0.0
 40
250.0
100
AcDbArc
 50
90.0
 51
102.5558577985977
  0
ARC
  5
E6
330
1F
100
AcDbEntity
  8
RUNDUNGEN
  6
Continuous
 62
     7
100
AcDbCircle
 10
161.2313302998
 20
32.787004818
 30
0.0
 40
250.0
100
AcDbArc
 50
90.0
 51
102.5558577985977
  0
ARC
  5
E7
330
1F
100
AcDbEntity
  8
RUNDUNGEN
  6
Continuous
 62
     7
100
AcDbCircle
 10
111.2313302998
 20
257.2864480244
 30
0.0
 40
20.00000000000639
100
AcDbArc
 50
102.5558577987095
 51
180.0
  0
ARC
  5
E8
330
1F
100
AcDbEntity
  8
RUNDUNGEN
  6
Continuous
 62
     7
100
AcDbCircle
 10
261.2313302998
 20
287.2113953096
 30
0.0
 40
0.9999999999647582
100
AcDbArc
 50
274.4999999985585
 51
0.0
  0
ARC
  5
E9
330
1F
100
AcDbEntity
  8
BEZUGSACHSEN
  6
Continuous
 62
     7
100
AcDbCircle
 10
83.1063302998
 20
252.787004818
 30
0.0
 40
1.0
100
AcDbArc
 50
0.0
 51
90.0
  0
ARC
  5
EA
330
1F
100
AcDbEntity
  8
BEZUGSACHSEN
  6
Continuous
 62
     7
100
AcDbCircle
 10
198.5613769022
 20
1905.8297641457
 30
0.0
 40
1632.172763736
100
AcDbArc
 50
263.5119093102
 51
263.7273810162
  0
ARC
  5
EB
330
1F
100
AcDbEntity
  8
0
  6
Continuous
 62
     7
100
AcDbCircle
 10
326.829110183
 20
369.2214724087
 30
0.0
 40
264.5204223909001
100
AcDbArc
 50
203.4229294509001
 51
204.1599235293982
  0
ARC
  5
EC
330
1F
100
AcDbEntity
  8
0
  6
Continuous
 62
     7
100
AcDbCircle
 10
161.2313302998
 20
566.787004818
 30
0.0
 40
250.0000000000684
100
AcDbArc
 50
257.4441422014073
 51
270.0
  0
ARC
  5
ED
330
1F
100
AcDbEntity
  8
RUNDUNGEN
  6
Continuous
 62
     7
100
AcDbCircle
 10
161.2313302998
 20
566.787004818
 30
0.0
 40
250.0000000000684
100
AcDbArc
 50
257.4441422014073
 51
270.0
  0
ARC
  5
EE
330
1F
100
AcDbEntity
  8
RUNDUNGEN
  6
Continuous
 62
     7
100
AcDbCircle
 10
111.2313302998
 20
342.2875616116
 30
0.0
 40
20.0
100
AcDbArc
 50
180.0
 51
257.4441422013527
  0
ARC
  5
EF
330
1F
100
AcDbEntity
  8
BEZUGSACHSEN
  6
Continuous
 62
     7
100
AcDbCircle
 10
83.1063302998
 20
346.787004818
 30
0.0
 40
1.0
100
AcDbArc
 50
270.0
 51
0.0
  0
ARC
  5
F0
330
1F
100
AcDbEntity
  8
RUNDUNGEN
  6
Continuous
 62
     7
100
AcDbCircle
 10
261.2313302998
 20
312.3626143263
 30
0.0
 40
1.0
100
AcDbArc
 50
0.0
 51
85.50000000189128
  0
CIRCLE
  5
F1
330
1F
100
AcDbEntity
  8
BEZUGSACHSEN
  6
Continuous
 62
     7
100
AcDbCircle
 10
47.2313302998
 20
299.787004818
 30
0.0
 40
6.0
  0
SPLINE
  5
F2
330
1F
100
AcDbEntity
  8
BEZUGSACHSEN
  6
Continuous
 62
     7
100
AcDbSpline
210
0.0
220
0.0
230
1.0
 70
     8
 71
     3
 72
    19
 73
    15
 74
    13
 42
0.0000000001
 43
0.0000000001
 44
0.00000001
 40
0.0
 40
0.0
 40
0.0
 40
0.0
 40
0.2679411643344697
 40
0.5361267936841347
 40
0.8065304773471736
 40
1.076465993216759
 40
1.213913376149577
 40
1.351353104892727
 40
1.491586367075055
 40
1.631807897554729
 40
1.77549156274382
 40
1.91921920471295
 40
2.065713007375133
 40
2.211936409322655
 40
2.211936409322655
 40
2.211936409322655
 40
2.211936409322655
 10
21.7851762467
 20
284.777004818
 30
0.0
 10
21.75128200290105
 20
284.6943332382964
 30
0.0
 10
21.68346259076476
 20
284.5289146507293
 30
0.0
 10
21.55882408449214
 20
284.2902486770628
 30
0.0
 10
21.41391328518853
 20
284.0625606810408
 30
0.0
 10
21.2708696536729
 20
283.8867561897104
 30
0.0
 10
21.14176326675316
 20
283.7588064705783
 30
0.0
 10
21.03564816767145
 20
283.6697194497661
 30
0.0
 10
20.92083874001651
 20
283.5904178094485
 30
0.0
 10
20.79637912779349
 20
283.5227473420185
 30
0.0
 10
20.66352557267935
 20
283.4699446553304
 30
0.0
 10
20.5228747738044
 20
283.4347783913393
 30
0.0
 10
20.37754939069954
 20
283.4184261894692
 30
0.0
 10
20.28003997163624
 20
283.4250489227638
 30
0.0
 10
20.2313302998
 20
283.4283572305
 30
0.0
 11
21.7851762467
 21
284.777004818
 31
0.0
 11
21.67973898698354
 21
284.5306809421609
 31
0.0
 11
21.55586947142422
 21
284.2928156968964
 31
0.0
 11
21.40952398514594
 21
284.0654368263201
 31
0.0
 11
21.23827179402313
 21
283.8567795241153
 31
0.0
 11
21.14047935532113
 21
283.7601957676766
 31
0.0
 11
21.03506236604158
 21
283.672008821884
 31
0.0
 11
20.91952372231886
 21
283.5925343629113
 31
0.0
 11
20.79620171243798
 21
283.5257978699782
 31
0.0
 11
20.66257102426829
 21
283.4729979190174
 31
0.0
 11
20.52314332307252
 21
283.4381044926269
 31
0.0
 11
20.37744888452226
 21
283.4228216658612
 31
0.0
 11
20.2313302998
 21
283.4283572305
 31
0.0
  0
SPLINE
  5
F3
330
1F
100
AcDbEntity
  8
BEZUGSACHSEN
  6
Continuous
 62
     7
100
AcDbSpline
210
0.0
220
0.0
230
1.0
 70
     8
 71
     3
 72
    47
 73
    43
 74
    41
 42
0.0000000001
 43
0.0000000001
 44
0.00000001
 40
0.0
 40
0.0
 40
0.0
 40
0.0
 40
0.6366022432335556
 40
1.273595002182801
 40
1.59292174640207
 40
1.912076344893824
 40
2.231392290439006
 40
2.550826842754161
 40
3.189774321182027
 40
3.829081697020125
 40
4.468337152542198
 40
5.107221744821825
 40
5.426176341311749
 40
5.745033356850271
 40
6.063356731608831
 40
6.38178021489846
 40
7.017059195668321
 40
7.652639340993883
 40
8.28753221426293
 40
8.922347946543091
 40
9.559226748608959
 40
10.19613435937647
 40
10.83451785502431
 40
11.47287689973274
 40
12.11234487365423
 40
12.75189588950261
 40
13.39354300523246
 40
14.03487957359962
 40
14.3561520577562
 40
14.6773210771547
 40
14.99840882475594
 40
15.31959604124649
 40
15.96011121030295
 40
16.60099592093733
 40
17.23809108085446
 40
17.87482555209492
 40
18.1920567034251
 40
18.50917199109383
 40
18.82571084635648
 40
19.14241581832191
 40
19.77338974999488
 40
20.40398930746547
 40
20.40398930746547
 40
20.40398930746547
 40
20.40398930746547
 10
40.7319147055
 20
299.7870047985
 30
0.0
 10
40.73792034938528
 20
299.9992846082125
 30
0.0
 10
40.74993532124329
 20
300.4239744480424
 30
0.0
 10
40.83120066645809
 20
300.9501172091581
 30
0.0
 10
40.92392026305937
 20
301.365091585268
 30
0.0
 10
41.00921322719382
 20
301.672915560965
 30
0.0
 10
41.10945184060366
 20
301.9762082377621
 30
0.0
 10
41.26293738971966
 20
302.3736456003243
 30
0.0
 10
41.49140933650751
 20
302.8557451772086
 30
0.0
 10
41.8210242971069
 20
303.4045610500281
 30
0.0
 10
42.20325151421321
 20
303.918096589372
 30
0.0
 10
42.56210621134095
 20
304.3125993514593
 30
0.0
 10
42.87105956490581
 20
304.605472649504
 30
0.0
 10
43.11295467386903
 20
304.8131944706174
 30
0.0
 10
43.36459792733024
 20
305.0087038677531
 30
0.0
 10
43.71189203445519
 20
305.2521990704347
 30
0.0
 10
44.16763236920105
 20
305.5240811404813
 30
0.0
 10
44.74311179389873
 20
305.7954102529931
 30
0.0
 10
45.34222255908368
 20
306.0091938838011
 30
0.0
 10
45.95967296155671
 20
306.163883615171
 30
0.0
 10
46.58994352324481
 20
306.2576905988263
 30
0.0
 10
47.22753745795388
 20
306.2898173236325
 30
0.0
 10
47.8657161021705
 20
306.2593877506822
 30
0.0
 10
48.49872852335886
 20
306.1667164955184
 30
0.0
 10
49.11996220779744
 20
306.0122245342906
 30
0.0
 10
49.72409795977811
 20
305.7971874017497
 30
0.0
 10
50.30457703335809
 20
305.5232640360196
 30
0.0
 10
50.76420605758387
 20
305.2480971579603
 30
0.0
 10
51.11410504624723
 20
305.0014874591023
 30
0.0
 10
51.36723667539648
 20
304.8035832667317
 30
0.0
 10
51.61023531475063
 20
304.5934047373298
 30
0.0
 10
51.91947965825577
 20
304.2978853971745
 30
0.0
 10
52.27779984905303
 20
303.9004144144079
 30
0.0
 10
52.65775026739623
 20
303.384747652853
 30
0.0
 10
52.98422329700777
 20
302.8351514963827
 30
0.0
 10
53.20959443700283
 20
302.3540459546722
 30
0.0
 10
53.36068542016172
 20
301.9580557670522
 30
0.0
 10
53.45909833771101
 20
301.656629416269
 30
0.0
 10
53.54276511588258
 20
301.3509340483528
 30
0.0
 10
53.63358447331655
 20
300.939382030637
 30
0.0
 10
53.7130994489221
 20
300.4179568141092
 30
0.0
 10
53.72487173358958
 20
299.9972805249545
 30
0.0
 10
53.7307561292
 20
299.7870047986
 30
0.0
 11
40.7319147055
 21
299.7870047985
 31
0.0
 11
40.76316337653981
 21
300.4228396329092
 31
0.0
 11
40.85660457891341
 21
301.0529416219973
 31
0.0
 11
40.92654508594628
 21
301.3645148799154
 31
0.0
 11
41.0116864249115
 21
301.6721032576829
 31
0.0
 11
41.11191096302475
 21
301.9752826023609
 31
0.0
 11
41.22699085275398
 21
302.2732675888832
 31
0.0
 11
41.5005867470033
 21
302.8506748687466
 31
0.0
 11
41.82980626071645
 21
303.3986971608036
 31
0.0
 11
42.21143051608132
 21
303.9115426201108
 31
0.0
 11
42.64136515221263
 21
304.3841203712872
 31
0.0
 11
42.87283741327219
 21
304.6035574396736
 31
0.0
 11
43.11473981428848
 21
304.8112905009341
 31
0.0
 11
43.36611362141741
 21
305.00658765915
 31
0.0
 11
43.62684289968067
 21
305.1893819647687
 31
0.0
 11
44.1723765438635
 21
305.5149160282284
 31
0.0
 11
44.74728636399264
 21
305.7859156958502
 31
0.0
 11
45.34523255177074
 21
305.9993385555665
 31
0.0
 11
45.96102508401302
 21
306.1535804797799
 31
0.0
 11
46.59095736597198
 21
306.2473884147685
 31
0.0
 11
47.22706048767837
 21
306.2793903398507
 31
0.0
 11
47.86472144668246
 21
306.2490260700991
 31
0.0
 11
48.49633897959093
 21
306.1564973605887
 31
0.0
 11
49.11691185171583
 21
306.0021970039659
 31
0.0
 11
49.71941265886963
 21
305.7876782885779
 31
0.0
 11
50.29971985525077
 21
305.5138999494919
 31
0.0
 11
50.8499448432988
 21
305.1844078305384
 31
0.0
 11
51.11255214744626
 21
304.9993310548896
 31
0.0
 11
51.36557260483811
 21
304.8015175387624
 31
0.0
 11
51.60842090620243
 21
304.5914650591671
 31
0.0
 11
51.84062334160946
 21
304.3695568415906
 31
0.0
 11
52.26953939934371
 21
303.8938566237968
 31
0.0
 11
52.64965005801678
 21
303.3778633103827
 31
0.0
 11
52.97508920374197
 21
302.8301593709962
 31
0.0
 11
53.24517006187165
 21
302.2535424124025
 31
0.0
 11
53.35826050705585
 21
301.9571538927491
 31
0.0
 11
53.45670461039501
 21
301.6557059466772
 31
0.0
 11
53.54018741576923
 21
301.350374212169
 31
0.0
 11
53.60873683920349
 21
301.0411768386121
 31
0.0
 11
53.70016391708777
 21
300.4168618605118
 31
0.0
 11
53.7307561292
 21
299.7870047986
 31
0.0
  0
SPLINE
  5
F4
330
1F
100
AcDbEntity
  8
BEZUGSACHSEN
  6
Continuous
 62
     7
100
AcDbSpline
210
0.0
220
0.0
230
1.0
 70
     8
 71
     3
 72
    47
 73
    43
 74
    41
 42
0.0000000001
 43
0.0000000001
 44
0.00000001
 40
0.0
 40
0.0
 40
0.0
 40
0.0
 40
0.6302393214461303
 40
1.26085486730339
 40
1.577476088392065
 40
1.893930800226681
 40
2.210999113873341
 40
2.528183472209185
 40
3.164887038236375
 40
3.801951183384594
 40
4.442851001638842
 40
5.083381259822035
 40
5.404527292329097
 40
5.725573838754563
 40
6.046670710014129
 40
6.36787102712838
 40
7.009090242502144
 40
7.650619763913133
 40
8.290330346474276
 40
8.929958764483143
 40
9.568647011351073
 40
10.20735923012284
 40
10.84445705812807
 40
11.48152626492629
 40
12.11643462221738
 40
12.75141965581593
 40
13.38691908741253
 40
14.02211738533686
 40
14.34050449143985
 40
14.6587915379158
 40
14.97761586867262
 40
15.29653774943667
 40
15.93537694100978
 40
16.57458694068284
 40
17.21386274992381
 40
17.85277859075549
 40
18.17219860085043
 40
18.49150024079702
 40
18.81067156638709
 40
19.13001452424197
 40
19.76719627026222
 40
20.4039896827593
 40
20.4039896827593
 40
20.4039896827593
 40
20.4039896827593
 10
53.7307439376
 20
299.7870048367
 30
0.0
 10
53.72487473585576
 20
299.5768488148145
 30
0.0
 10
53.71313282871894
 20
299.1564113173899
 30
0.0
 10
53.63368608615647
 20
298.6352478751393
 30
0.0
 10
53.54295458109557
 20
298.2238564077091
 30
0.0
 10
53.45934919880388
 20
297.9182185674055
 30
0.0
 10
53.36099725743767
 20
297.6168347212101
 30
0.0
 10
53.20997844658312
 20
297.2208615416207
 30
0.0
 10
52.98469585897465
 20
296.7397547329466
 30
0.0
 10
52.65831782420422
 20
296.1901205079517
 30
0.0
 10
52.2784507621458
 20
295.6743926452838
 30
0.0
 10
51.92019632284518
 20
295.2768672430768
 30
0.0
 10
51.61101558515967
 20
294.9813138881634
 30
0.0
 10
51.36809062913512
 20
294.771128979745
 30
0.0
 10
51.11504172583795
 20
294.5732195154122
 30
0.0
 10
50.76525921741482
 20
294.3265961639106
 30
0.0
 10
50.30577397967659
 20
294.0513895546132
 30
0.0
 10
49.72537827270735
 20
293.7773494479022
 30
0.0
 10
49.12122396485468
 20
293.5621609705513
 30
0.0
 10
48.499808817439
 20
293.4074991315127
 30
0.0
 10
47.86653960600772
 20
293.3146887584774
 30
0.0
 10
47.22808014158728
 20
293.2841780086691
 30
0.0
 10
46.59024712804287
 20
293.3162797510523
 30
0.0
 10
45.9598171410392
 20
293.4100928134298
 30
0.0
 10
45.34224347151551
 20
293.5648066297169
 30
0.0
 10
44.74310006005518
 20
293.7786032017861
 30
0.0
 10
44.16764283858043
 20
294.0499245702391
 30
0.0
 10
43.71195744564003
 20
294.3217694538898
 30
0.0
 10
43.36470154792119
 20
294.5652300064879
 30
0.0
 10
43.11308196664086
 20
294.7607125328108
 30
0.0
 10
42.8712069163774
 20
294.9684055914989
 30
0.0
 10
42.56227063269368
 20
295.2612431396296
 30
0.0
 10
42.2034278758062
 20
295.655700788582
 30
0.0
 10
41.82120097056902
 20
296.1691854545483
 30
0.0
 10
41.49157652530358
 20
296.7179532332673
 30
0.0
 10
41.26308907938061
 20
297.2000166497623
 30
0.0
 10
41.10958757942034
 20
297.5974262089398
 30
0.0
 10
41.00933077649711
 20
297.9007085722321
 30
0.0
 10
40.92401428357153
 20
298.2085324439358
 30
0.0
 10
40.83125182820356
 20
298.6235733110387
 30
0.0
 10
40.7499594612487
 20
299.1498461100941
 30
0.0
 10
40.7379196617577
 20
299.5746617597796
 30
0.0
 10
40.731901597
 20
299.7870048384
 30
0.0
 11
53.7307439376
 21
299.7870048367
 31
0.0
 11
53.70020435887876
 21
299.1575058800461
 31
0.0
 11
53.60887308335195
 21
298.5335390822215
 31
0.0
 11
53.54037834466543
 21
298.2244153716848
 31
0.0
 11
53.45695951982867
 21
297.9191533787915
 31
0.0
 11
53.35857277598961
 21
297.6177361195719
 31
0.0
 11
53.24554214488708
 21
297.3213748643352
 31
0.0
 11
52.97556200837226
 21
296.7447448643532
 31
0.0
 11
52.65022538650153
 21
296.1970160925115
 31
0.0
 11
52.27018889167039
 21
295.6809493917501
 31
0.0
 11
51.84133839397543
 21
295.205169755495
 31
0.0
 11
51.6092012596011
 21
294.9832528227488
 31
0.0
 11
51.36641876627486
 21
294.7731872474967
 31
0.0
 11
51.11348915800209
 21
294.5753746746109
 31
0.0
 11
50.85097476219642
 21
294.3902913536199
 31
0.0
 11
50.30091658062462
 21
294.060749127114
 31
0.0
 11
49.72077574896316
 21
293.78689379618
 31
0.0
 11
49.11817043864034
 21
293.5721929125967
 31
0.0
 11
48.49747116830036
 21
293.4177360288914
 31
0.0
 11
47.86554235439679
 21
293.325061054677
 31
0.0
 11
47.22755622724686
 21
293.2946143804319
 31
0.0
 11
46.59126123913444
 21
293.3265882846664
 31
0.0
 11
45.96113796501421
 21
293.4204063728079
 31
0.0
 11
45.34525405673944
 21
293.57466470706
 31
0.0
 11
44.74722158688717
 21
293.7881199901911
 31
0.0
 11
44.17238583833004
 21
294.0590874969892
 31
0.0
 11
43.62691915081565
 21
294.3845763147664
 31
0.0
 11
43.3662168580674
 21
294.5673457429771
 31
0.0
 11
43.11486760628463
 21
294.7626152940664
 31
0.0
 11
42.87298430794606
 21
294.9703204309008
 31
0.0
 11
42.64152847664742
 21
295.1897272771657
 31
0.0
 11
42.2116054457672
 21
295.6622542078359
 31
0.0
 11
41.82998430630939
 21
296.1750453247645
 31
0.0
 11
41.50075283213036
 21
296.7230236059862
 31
0.0
 11
41.22713852498632
 21
297.3003871505504
 31
0.0
 11
41.11204627252636
 21
297.5983517730691
 31
0.0
 11
41.01180658409947
 21
297.9015110416668
 31
0.0
 11
40.92663950388084
 21
298.2091096494756
 31
0.0
 11
40.8566764763974
 21
298.520694468613
 31
0.0
 11
40.7631875794169
 21
299.1509804383147
 31
0.0
 11
40.731901597
 21
299.7870048384
 31
0.0
  0
SPLINE
  5
F5
330
1F
100
AcDbEntity
  8
BEZUGSACHSEN
  6
Continuous
 62
     7
100
AcDbSpline
210
0.0
220
0.0
230
1.0
 70
     8
 71
     3
 72
    27
 73
    23
 74
    21
 42
0.0000000001
 43
0.0000000001
 44
0.00000001
 40
0.0
 40
0.0
 40
0.0
 40
0.0
 40
0.1219765139516433
 40
0.2439857714748858
 40
0.3566831398333876
 40
0.4694418149629629
 40
0.5721317672948586
 40
0.6745445881156001
 40
0.7225206521222023
 40
0.7704888797708694
 40
0.817141293604603
 40
0.8637898734267844
 40
0.9102318000825724
 40
0.9566751324135758
 40
1.004175175749473
 40
1.051683100142911
 40
1.15367238876194
 40
1.256049376711166
 40
1.370745138132313
 40
1.485385401913298
 40
1.611534903949001
 40
1.737631875993869
 40
1.737631875993869
 40
1.737631875993869
 40
1.737631875993869
 10
13.3771729754
 20
284.5446688225
 30
0.0
 10
13.34191795779661
 20
284.5243892972351
 30
0.0
 10
13.27139845867621
 20
284.483824802837
 30
0.0
 10
13.16374605549032
 20
284.4330289419453
 30
0.0
 10
13.05558803961909
 20
284.3912773060761
 30
0.0
 10
12.95000881865065
 20
284.3618627209349
 30
0.0
 10
12.84517727350492
 20
284.3449481335467
 30
0.0
 10
12.76044960365556
 20
284.3430829103183
 30
0.0
 10
12.69462566725179
 20
284.3500382183382
 30
0.0
 10
12.64791846403774
 20
284.3592353454916
 30
0.0
 10
12.60273784673368
 20
284.3727687904789
 30
0.0
 10
12.55959823608196
 20
284.390562049285
 30
0.0
 10
12.5186437595038
 20
284.4127904069886
 30
0.0
 10
12.47999633303291
 20
284.4393254386907
 30
0.0
 10
12.4440902543998
 20
284.4700207162218
 30
0.0
 10
12.39865093286166
 20
284.5175581893421
 30
0.0
 10
12.35010779277483
 20
284.5867275564455
 30
0.0
 10
12.30388208380761
 20
284.6828856111689
 30
0.0
 10
12.26991621002499
 20
284.7884610441665
 30
0.0
 10
12.24696078584728
 20
284.9048787350751
 30
0.0
 10
12.23351622749754
 20
285.0266260437309
 30
0.0
 10
12.2320588411996
 20
285.110729407248
 30
0.0
 10
12.2313302998
 20
285.1527723318
 30
0.0
 11
13.3771729754
 21
284.5446688225
 31
0.0
 11
13.27062835133946
 21
284.4852843713398
 31
0.0
 11
13.16033546217079
 21
284.4331140970431
 31
0.0
 11
13.05501745431835
 21
284.3930040726486
 31
0.0
 11
12.94629372577531
 21
284.3631097643496
 31
0.0
 11
12.84482957365416
 21
284.3472904045565
 31
0.0
 11
12.74243003306976
 21
284.3456411754744
 31
0.0
 11
12.69472617685721
 21
284.35074458806
 31
0.0
 11
12.64767540659577
 21
284.360081390594
 31
0.0
 11
12.60299583916234
 21
284.3735046528828
 31
0.0
 11
12.55988970256641
 21
284.3913358330793
 31
0.0
 11
12.51906710976955
 21
284.4134800979992
 31
0.0
 11
12.4807798532234
 21
284.439768291246
 31
0.0
 11
12.44464275621285
 21
284.4705962710137
 31
0.0
 11
12.41179025584096
 21
284.5049141395298
 31
0.0
 11
12.35261786158714
 21
284.5879830431658
 31
0.0
 11
12.30771813798608
 21
284.6799888173439
 31
0.0
 11
12.27207997841859
 21
284.7890073445336
 31
0.0
 11
12.24922841505235
 21
284.9013469908367
 31
0.0
 11
12.23546165872979
 21
285.0267430565015
 31
0.0
 11
12.2313302998
 21
285.1527723318
 31
0.0
  0
SPLINE
  5
F6
330
1F
100
AcDbEntity
  8
BEZUGSACHSEN
  6
Continuous
 62
     7
100
AcDbSpline
210
0.0
220
0.0
230
1.0
 70
     8
 71
     3
 72
    15
 73
    11
 74
     9
 42
0.0000000001
 43
0.0000000001
 44
0.00000001
 40
0.0
 40
0.0
 40
0.0
 40
0.0
 40
0.1110371614055592
 40
0.2222522337964078
 40
0.3333980192307258
 40
0.4445069475064937
 40
0.555620106542178
 40
0.6667525642475534
 40
0.7778876033840221
 40
0.8889820915682708
 40
0.8889820915682708
 40
0.8889820915682708
 40
0.8889820915682708
 10
14.1312558151
 20
284.1104724317
 30
0.0
 10
14.09461408821173
 20
284.1160045845477
 30
0.0
 10
14.02127192466946
 20
284.1270777542195
 30
0.0
 10
13.91475537463711
 20
284.160096317727
 30
0.0
 10
13.81234246689332
 20
284.2036866051816
 30
0.0
 10
13.7148925012896
 20
284.2574661130022
 30
0.0
 10
13.6225877055735
 20
284.3195612483655
 30
0.0
 10
13.53559107745068
 20
284.3888479220147
 30
0.0
 10
13.45333832200676
 20
284.4637298736268
 30
0.0
 10
13.40255833560525
 20
284.5176924551188
 30
0.0
 10
13.3771729754
 20
284.5446688225
 30
0.0
 11
14.1312558151
 21
284.1104724317
 31
0.0
 11
14.02191352996374
 21
284.129798990995
 31
0.0
 11
13.91542157636315
 21
284.1618654243051
 31
0.0
 11
13.81315339576743
 21
284.2053924832163
 31
0.0
 11
13.7157505293431
 21
284.2588515849195
 31
0.0
 11
13.62347876257106
 21
284.3207551806765
 31
0.0
 11
13.53638165916438
 21
284.3897806667944
 31
0.0
 11
13.45434175467783
 21
284.4647503339652
 31
0.0
 11
13.3771729754
 21
284.5446688225
 31
0.0
  0
SPLINE
  5
F7
330
1F
100
AcDbEntity
  8
BEZUGSACHSEN
  6
Continuous
 62
     7
100
AcDbSpline
210
0.0
220
0.0
230
1.0
 70
     8
 71
     3
 72
    27
 73
    23
 74
    21
 42
0.0000000001
 43
0.0000000001
 44
0.00000001
 40
0.0
 40
0.0
 40
0.0
 40
0.0
 40
0.1260969825524776
 40
0.25224649591947
 40
0.3668867952476211
 40
0.4815825893734103
 40
0.5839596006347306
 40
0.6859489160817851
 40
0.7334568410039055
 40
0.7809568848485193
 40
0.8274002263988917
 40
0.8738421606874622
 40
0.9204907318981504
 40
0.967143139954517
 40
1.015111401842644
 40
1.06308749714258
 40
1.165500418745424
 40
1.268190478979734
 40
1.380949153923542
 40
1.493646517804688
 40
1.61565556377752
 40
1.737631867640425
 40
1.737631867640425
 40
1.737631867640425
 40
1.737631867640425
 10
12.2313302998
 20
314.4212373042
 30
0.0
 10
12.23205884127627
 20
314.463280232261
 30
0.0
 10
12.23351622773234
 20
314.5473836030706
 30
0.0
 10
12.24696078968072
 20
314.6691309306322
 30
0.0
 10
12.26991622296457
 20
314.7855486470032
 30
0.0
 10
12.303882123298
 20
314.8911241047791
 30
0.0
 10
12.35010788215636
 20
314.9872821670183
 30
0.0
 10
12.39865105071106
 20
315.0564515326772
 30
0.0
 10
12.44409037626851
 20
315.1039890142941
 30
0.0
 10
12.47999645435992
 20
315.1346842977766
 30
0.0
 10
12.51864388545684
 20
315.1612193334917
 30
0.0
 10
12.55959837267872
 20
315.1834476793877
 30
0.0
 10
12.60273799887972
 20
315.2012408962597
 30
0.0
 10
12.64791863350828
 20
315.2147743033182
 30
0.0
 10
12.69462585649446
 20
315.2239714286556
 30
0.0
 10
12.76044984768862
 20
315.2309267490384
 30
0.0
 10
12.84517759969056
 20
315.2290614924005
 30
0.0
 10
12.95000920319867
 20
315.2121468314639
 30
0.0
 10
13.05558844556468
 20
315.1827321986056
 30
0.0
 10
13.16374638366511
 20
315.1409805611362
 30
0.0
 10
13.27139864491963
 20
315.0901847339618
 30
0.0
 10
13.34191801973682
 20
315.0496203057119
 30
0.0
 10
13.3771729754
 20
315.0293408134
 30
0.0
 11
12.2313302998
 21
314.4212373042
 31
0.0
 11
12.23546165936464
 21
314.547266589991
 31
0.0
 11
12.24922841848566
 21
314.672662666748
 31
0.0
 11
12.2720799945678
 21
314.7850023467395
 31
0.0
 11
12.30771818393866
 21
314.8940208985943
 31
0.0
 11
12.3526179487388
 21
314.9860266786067
 31
0.0
 11
12.41179037769294
 21
315.0690955904632
 31
0.0
 11
12.44464287785447
 21
315.1034134599126
 31
0.0
 11
12.48077997278128
 21
315.1342414429068
 31
0.0
 11
12.51906723764477
 21
315.1605296403276
 31
0.0
 11
12.55988984559641
 21
315.1826738933178
 31
0.0
 11
12.60299598924606
 21
315.2005050339334
 31
0.0
 11
12.64767556131346
 21
315.2139282607188
 31
0.0
 11
12.69472636705967
 21
315.2232650603418
 31
0.0
 11
12.7424302543128
 21
315.228368476959
 31
0.0
 11
12.84482989517244
 21
315.226719215595
 31
0.0
 11
12.94629414550758
 21
315.2108997853002
 31
0.0
 11
13.05501786196441
 21
315.1810054337451
 31
0.0
 11
13.16033585426172
 21
315.1408953810871
 31
0.0
 11
13.27062854016712
 21
315.08872517182
 31
0.0
 11
13.3771729754
 21
315.0293408134
 31
0.0
  0
SPLINE
  5
F8
330
1F
100
AcDbEntity
  8
BEZUGSACHSEN
  6
Continuous
 62
     7
100
AcDbSpline
210
0.0
220
0.0
230
1.0
 70
     8
 71
     3
 72
    15
 73
    11
 74
     9
 42
0.0000000001
 43
0.0000000001
 44
0.00000001
 40
0.0
 40
0.0
 40
0.0
 40
0.0
 40
0.1110944831359927
 40
0.2222295181505722
 40
0.3333620401960333
 40
0.4444752610264741
 40
0.5555842178392284
 40
0.6667300354336768
 40
0.7779450181939093
 40
0.8889820872011117
 40
0.8889820872011117
 40
0.8889820872011117
 40
0.8889820872011117
 10
13.3771729754
 20
315.0293408134
 30
0.0
 10
13.4025583349412
 20
315.0563171791101
 30
0.0
 10
13.45333832022648
 20
315.1102797574845
 30
0.0
 10
13.53559108949989
 20
315.185161720869
 30
0.0
 10
13.6225877414565
 20
315.2544484297723
 30
0.0
 10
13.71489258189674
 20
315.3165435928464
 30
0.0
 10
13.81234260389222
 20
315.3703230849675
 30
0.0
 10
13.91475551776674
 20
315.413913330559
 30
0.0
 10
14.02127201636137
 20
315.4469318863634
 30
0.0
 10
14.09461411907995
 20
315.4580050529608
 30
0.0
 10
14.1312558151
 20
315.4635372042
 30
0.0
 11
13.3771729754
 21
315.0293408134
 31
0.0
 11
13.4543417524269
 21
315.1092592970907
 31
0.0
 11
13.53638165267828
 21
315.1842289627858
 31
0.0
 11
13.62347880129143
 21
315.2532544954505
 31
0.0
 11
13.7157506228786
 21
315.3151581204195
 31
0.0
 11
13.81315353097406
 21
315.3686172055086
 31
0.0
 11
13.91542175437434
 21
315.4121442459696
 31
0.0
 11
14.021913622479
 21
315.4442106523466
 31
0.0
 11
14.1312558151
 21
315.4635372042
 31
0.0
  0
SPLINE
  5
F9
330
1F
100
AcDbEntity
  8
0
  6
Continuous
 62
     7
100
AcDbSpline
210
0.0
220
0.0
230
1.0
 70
     8
 71
     3
 72
    19
 73
    15
 74
    13
 42
0.0000000001
 43
0.0000000001
 44
0.00000001
 40
0.0
 40
0.0
 40
0.0
 40
0.0
 40
0.1162460235718609
 40
0.2327881717960666
 40
0.3491890045907894
 40
0.4655468550672052
 40
0.581907137008227
 40
0.6982738489485218
 40
0.8146206073036728
 40
0.930999827842783
 40
1.163276323470245
 40
1.396138921808158
 40
1.629013178105908
 40
1.86135153976575
 40
1.86135153976575
 40
1.86135153976575
 40
1.86135153976575
 10
81.3563302998
 20
266.2646242343
 30
0.0
 10
81.31754622895905
 20
266.2627832874047
 30
0.0
 10
81.23987928889126
 20
266.2590967039935
 30
0.0
 10
81.12626920383389
 20
266.2306912189893
 30
0.0
 10
81.01808151588361
 20
266.1868373047708
 30
0.0
 10
80.91710564990608
 20
266.1282406165444
 30
0.0
 10
80.82433719315293
 20
266.0575557552224
 30
0.0
 10
80.74024981413645
 20
265.9767981501417
 30
0.0
 10
80.66494617074679
 20
265.8878305113982
 30
0.0
 10
80.57629492658423
 20
265.7604710636459
 30
0.0
 10
80.48629818087907
 20
265.5876856855494
 30
0.0
 10
80.41140466175976
 20
265.3667606953585
 30
0.0
 10
80.36486773643352
 20
265.1377407757728
 30
0.0
 10
80.35917392571147
 20
264.9825613829396
 30
0.0
 10
80.3563302998
 20
264.9050610648
 30
0.0
 11
81.3563302998
 21
266.2646242343
 31
0.0
 11
81.24045894824958
 21
266.255298576889
 31
0.0
 11
81.12713442356151
 21
266.2281025401017
 31
0.0
 11
81.0192612909503
 21
266.1843699305758
 31
0.0
 11
80.91847255142557
 21
266.1262254609118
 31
0.0
 11
80.82578524634468
 21
266.0558779045204
 31
0.0
 11
80.74170988068585
 21
265.9754257787739
 31
0.0
 11
80.66641112274043
 21
265.8867315555594
 31
0.0
 11
80.5997843934289
 21
265.7913114218635
 31
0.0
 11
80.49189460735452
 21
265.58561221311
 31
0.0
 11
80.41613647054191
 21
265.3654175392159
 31
0.0
 11
80.3711764567428
 21
265.1369246150247
 31
0.0
 11
80.3563302998
 21
264.9050610648
 31
0.0
  0
SPLINE
  5
FA
330
1F
100
AcDbEntity
  8
0
  6
Continuous
 62
     7
100
AcDbSpline
210
0.0
220
0.0
230
1.0
 70
     8
 71
     3
 72
    19
 73
    15
 74
    13
 42
0.0000000001
 43
0.0000000001
 44
0.00000001
 40
0.0
 40
0.0
 40
0.0
 40
0.0
 40
0.2323383481158608
 40
0.4652125957009675
 40
0.6980761132672286
 40
0.9303535187254061
 40
1.046733461807725
 40
1.163080940895849
 40
1.279447997469272
 40
1.395808629563648
 40
1.512165904526756
 40
1.628566140366677
 40
1.745106920566907
 40
1.861351602832007
 40
1.861351602832007
 40
1.861351602832007
 40
1.861351602832007
 10
84.1063302998
 20
264.9050610648
 30
0.0
 10
84.1034866741945
 20
264.9825613784589
 30
0.0
 10
84.09779286402556
 20
265.1377407639424
 30
0.0
 10
84.0512558881857
 20
265.366760977957
 30
0.0
 10
83.9763621424254
 20
265.5876865398512
 30
0.0
 10
83.88636483817564
 20
265.760472604072
 30
0.0
 10
83.79771290037073
 20
265.8878325298075
 30
0.0
 10
83.7224086360168
 20
265.9768004287365
 30
0.0
 10
83.63832066220066
 20
266.0575580987054
 30
0.0
 10
83.54555192837023
 20
266.1282426650772
 30
0.0
 10
83.44457611611591
 20
266.1868388892183
 30
0.0
 10
83.33638906660161
 20
266.2306921403542
 30
0.0
 10
83.2227799572577
 20
266.2590968998499
 30
0.0
 10
83.14511392246247
 20
266.2627833525119
 30
0.0
 10
83.1063302998
 20
266.2646242343
 30
0.0
 11
84.1063302998
 21
264.9050610648
 31
0.0
 11
84.09148414568223
 21
265.1369246016339
 31
0.0
 11
84.0465241440936
 21
265.3654175193479
 31
0.0
 11
83.97076566541122
 21
265.5856130477337
 31
0.0
 11
83.8628752542336
 21
265.7913129560037
 31
0.0
 11
83.7962479303894
 21
265.8867335558195
 31
0.0
 11
83.72094847382259
 21
265.9754281313633
 31
0.0
 11
83.63687260749214
 21
266.0558802323698
 31
0.0
 11
83.54418478152277
 21
266.1262276816375
 31
0.0
 11
83.44339634661819
 21
266.1843715276259
 31
0.0
 11
83.33552361782661
 21
266.2281035443488
 31
0.0
 11
83.22220032927272
 21
266.2552988697009
 31
0.0
 11
83.1063302998
 21
266.2646242343
 31
0.0
  0
SPLINE
  5
FB
330
1F
100
AcDbEntity
  8
BEZUGSACHSEN
  6
Continuous
 62
     7
100
AcDbSpline
210
0.0
220
0.0
230
1.0
 70
     8
 71
     3
 72
    11
 73
     7
 74
     5
 42
0.0000000001
 43
0.0000000001
 44
0.00000001
 40
0.0
 40
0.0
 40
0.0
 40
0.0
 40
0.5462907431223426
 40
1.093000863646275
 40
1.646070107189938
 40
2.198197048704425
 40
2.198197048704425
 40
2.198197048704425
 40
2.198197048704425
 10
21.7851762467
 20
314.797004818
 30
0.0
 10
21.8482470485589
 20
314.6260731887656
 30
0.0
 10
21.97443707057654
 20
314.2840787092144
 30
0.0
 10
22.1140743835517
 20
313.7528045799728
 30
0.0
 10
22.21156274760548
 20
313.2093801750315
 30
0.0
 10
22.22474486213887
 20
312.8407955344814
 30
0.0
 10
22.2313302998
 20
312.6566603438
 30
0.0
 11
21.7851762467
 21
314.797004818
 31
0.0
 11
21.96602757930428
 21
314.2815182793626
 31
0.0
 11
22.10651906397751
 21
313.7531679234266
 31
0.0
 11
22.19858571723283
 21
313.207815450697
 31
0.0
 11
22.2313302998
 21
312.6566603438
 31
0.0
  0
SPLINE
  5
FC
330
1F
100
AcDbEntity
  8
BEZUGSACHSEN
  6
Continuous
 62
     7
100
AcDbSpline
210
0.0
220
0.0
230
1.0
 70
     8
 71
     3
 72
    19
 73
    15
 74
    13
 42
0.0000000001
 43
0.0000000001
 44
0.00000001
 40
0.0
 40
0.0
 40
0.0
 40
0.0
 40
0.1462385987779344
 40
0.2927479274823204
 40
0.4364790706284334
 40
0.5801659236551359
 40
0.7203799972778908
 40
0.8606059382463848
 40
0.9980411883699047
 40
1.135484020416861
 40
1.405415631078864
 40
1.675815514078756
 40
1.943997429514654
 40
2.211934834741454
 40
2.211934834741454
 40
2.211934834741454
 40
2.211934834741454
 10
20.2313302998
 20
316.1456524054
 30
0.0
 10
20.28004510513833
 20
316.1489604827465
 30
0.0
 10
20.37756490100398
 20
316.1555827616472
 30
0.0
 10
20.5229011613206
 20
316.1392234488729
 30
0.0
 10
20.66355809844326
 20
316.1040516827701
 30
0.0
 10
20.79641023188751
 20
316.051245996125
 30
0.0
 10
20.92086469494496
 20
315.9835742083969
 30
0.0
 10
21.03566725210229
 20
315.9042740070149
 30
0.0
 10
21.14177718987674
 20
315.8151893674398
 30
0.0
 10
21.27087965505613
 20
315.6872418318709
 30
0.0
 10
21.413919504957
 20
315.5114395429622
 30
0.0
 10
21.55882710665605
 20
315.2837540770775
 30
0.0
 10
21.68346385509885
 20
315.0450914576069
 30
0.0
 10
21.75128242626727
 20
314.8796752171738
 30
0.0
 10
21.7851762467
 20
314.797004818
 30
0.0
 11
20.2313302998
 21
316.1456524054
 31
0.0
 11
20.37746416161905
 21
316.1511861385328
 31
0.0
 11
20.5231735224657
 21
316.1358967448538
 31
0.0
 11
20.6626036040228
 21
316.1009984086891
 31
0.0
 11
20.79623594095172
 21
316.0481939556606
 31
0.0
 11
20.91954973175136
 21
315.9814579425904
 31
0.0
 11
21.03508084305922
 21
315.9019854514978
 31
0.0
 11
21.14049339283365
 21
315.8138001787672
 31
0.0
 11
21.23828189652783
 21
315.7172189144022
 31
0.0
 11
21.40953029241768
 21
315.5085635494107
 31
0.0
 11
21.55587271295233
 21
315.2811872254928
 31
0.0
 11
21.6797403387591
 21
315.0433251834519
 31
0.0
 11
21.7851762467
 21
314.797004818
 31
0.0
  0
SPLINE
  5
FD
330
1F
100
AcDbEntity
  8
BEZUGSACHSEN
  6
Continuous
 62
     7
100
AcDbSpline
210
0.0
220
0.0
230
1.0
 70
     8
 71
     3
 72
    11
 73
     7
 74
     5
 42
0.0000000001
 43
0.0000000001
 44
0.00000001
 40
0.0
 40
0.0
 40
0.0
 40
0.0
 40
0.5521269407036971
 40
1.105196183339768
 40
1.651906304698669
 40
2.198197048720039
 40
2.198197048720039
 40
2.198197048720039
 40
2.198197048720039
 10
22.2313302998
 20
286.9173492922
 30
0.0
 10
22.22474486217225
 20
286.7332141017891
 30
0.0
 10
22.2115627477068
 20
286.3646294618123
 30
0.0
 10
22.11407438390956
 20
285.821205057127
 30
0.0
 10
21.97443707087706
 20
285.2899309276099
 30
0.0
 10
21.84824704866154
 20
284.9479364475159
 30
0.0
 10
21.7851762467
 20
284.777004818
 30
0.0
 11
22.2313302998
 21
286.9173492922
 31
0.0
 11
22.1985857173732
 21
286.3661941861069
 31
0.0
 11
22.10651906442982
 21
285.820841714245
 31
0.0
 11
21.96602757959641
 21
285.2924913574877
 31
0.0
 11
21.7851762467
 21
284.777004818
 31
0.0
  0
SPLINE
  5
FE
330
1F
100
AcDbEntity
  8
BEZUGSACHSEN
  6
Continuous
 62
     7
100
AcDbSpline
210
0.0
220
0.0
230
1.0
 70
     8
 71
     3
 72
    11
 73
     7
 74
     5
 42
0.0000000001
 43
0.0000000001
 44
0.00000001
 40
0.0
 40
0.0
 40
0.0
 40
0.0
 40
0.9140556660002835
 40
1.828030949185881
 40
2.279806974871122
 40
2.730944124762507
 40
2.730944124762507
 40
2.730944124762507
 40
2.730944124762507
 10
13.4982832266854
 20
284.777004818185
 30
0.0
 10
13.63093793364878
 20
285.0517214158515
 30
0.0
 10
13.89623568181039
 20
285.6011304523789
 30
0.0
 10
14.11159089512299
 20
286.3338413734836
 30
0.0
 10
14.21528510878538
 20
286.9317865795897
 30
0.0
 10
14.22598442630649
 20
287.2329097950165
 30
0.0
 10
14.2313302998
 20
287.3833648696
 30
0.0
 11
13.4982832266854
 21
284.777004818185
 31
0.0
 11
13.87309075646086
 21
285.6106816597554
 31
0.0
 11
14.13238211685873
 21
286.4871055347709
 31
0.0
 11
14.20509909035736
 21
286.9329909675327
 31
0.0
 11
14.2313302998
 21
287.3833648696
 31
0.0
  0
SPLINE
  5
FF
330
1F
100
AcDbEntity
  8
BEZUGSACHSEN
  6
Continuous
 62
     7
100
AcDbSpline
210
0.0
220
0.0
230
1.0
 70
     8
 71
     3
 72
    11
 73
     7
 74
     5
 42
0.0000000001
 43
0.0000000001
 44
0.00000001
 40
0.0
 40
0.0
 40
0.0
 40
0.0
 40
0.824919236672472
 40
1.650116891930984
 40
2.19049215229343
 40
2.730585915378207
 40
2.730585915378207
 40
2.730585915378207
 40
2.730585915378207
 10
14.2313302998
 20
312.1906447664
 30
0.0
 10
14.21359699546183
 20
312.4658350583769
 30
0.0
 10
14.1781244016159
 20
313.0163085218377
 30
0.0
 10
13.96968958498048
 20
313.7210421069905
 30
0.0
 10
13.7394631540008
 20
314.3132558320708
 30
0.0
 10
13.57866257119882
 20
314.6357831655158
 30
0.0
 10
13.4982832266854
 20
314.797004817815
 30
0.0
 11
14.2313302998
 21
312.1906447664
 31
0.0
 11
14.14775484568429
 21
313.0113194220959
 31
0.0
 11
13.92979340357252
 21
313.8072113619953
 31
0.0
 11
13.73185832501333
 21
314.310030540913
 31
0.0
 11
13.4982832266854
 21
314.797004817815
 31
0.0
  0
DIMENSION
  5
10A
330
1F
100
AcDbEntity
  8
1
100
AcDbDimension
  2
*D2
 10
273.588828732766
 20
306.787004818
 30
0.0
 11
269.838828732766
 21
299.523183885609
 31
0.0
 70
    32
  1
<>
 71
     5
 42
-1.0
 53
90.0
  3
ME10_DIM_10
100
AcDbAlignedDimension
 13
262.2313302998
 23
292.787004818
 33
0.0
 14
262.2313302998
 24
306.787004818
 34
0.0
 50
90.0
100
AcDbRotatedDimension
  0
DIMENSION
  5
115
330
1F
100
AcDbEntity
  8
1
100
AcDbDimension
  2
*D3
 10
282.165849629348
 20
313.2870048180528
 30
0.0
 11
278.415849629348
 21
299.99968504653
 31
0.0
 70
    32
  1
<>
 71
     5
 42
-1.0
 53
90.0
  3
ME10_DIM_11
100
AcDbAlignedDimension
 13
262.2313302998
 23
286.2870048179487
 33
0.0
 14
262.2313302998094
 24
313.2870048180528
 34
0.0
 50
90.0
100
AcDbRotatedDimension
  0
DIMENSION
  5
120
330
1F
100
AcDbEntity
  8
1
100
AcDbDimension
  2
*D4
 10
290.266369365009
 20
316.787004818
 30
0.0
 11
286.516369365009
 21
299.99968504653
 31
0.0
 70
    32
  1
<>
 71
     5
 42
-1.0
 53
90.0
  3
ME10_DIM_12
100
AcDbAlignedDimension
 13
217.7596137232
 23
282.787004818
 33
0.0
 14
217.7596137232
 24
316.787004818
 34
0.0
 50
90.0
100
AcDbRotatedDimension
  0
DIMENSION
  5
12B
330
1F
100
AcDbEntity
  8
1
100
AcDbDimension
  2
*D5
 10
262.2313302998
 20
357.656325518
 30
0.0
 11
176.382591904833
 21
361.406325518
 31
0.0
 70
    32
  1
<>
 71
     5
 42
-1.0
 53
0.00013888888889
  3
ME10_DIM_13
100
AcDbAlignedDimension
 13
91.2313302998
 23
349.7869678969
 33
0.0
 14
262.2313302998
 24
312.3626143263
 34
0.0
100
AcDbRotatedDimension
  0
DIMENSION
  5
136
330
1F
100
AcDbEntity
  8
1
100
AcDbDimension
  2
*D6
 10
262.2313302998
 20
365.756845253661
 30
0.0
 11
158.513798370287
 21
369.506845253661
 31
0.0
 70
    32
  1
<>
 71
     5
 42
-1.0
 53
0.00013888888889
  3
ME10_DIM_14
100
AcDbAlignedDimension
 13
62.2313302998
 23
349.787004818
 33
0.0
 14
262.2313302998
 24
312.3626143263
 34
0.0
100
AcDbRotatedDimension
  0
DIMENSION
  5
141
330
1F
100
AcDbEntity
  8
1
100
AcDbDimension
  2
*D7
 10
262.2313302998
 20
373.14261324794
 30
0.0
 11
145.171765864492
 21
376.89261324794
 31
0.0
 70
    32
  1
<>
 71
     5
 42
-1.0
 53
0.00013888888889
  3
ME10_DIM_15
100
AcDbAlignedDimension
 13
12.2313302998
 23
333.3871963806
 33
0.0
 14
262.2313302998
 24
312.3626143263
 34
0.0
100
AcDbRotatedDimension
  0
INSERT
  5
148
330
1F
100
AcDbEntity
  8
1
100
AcDbBlockReference
  2
*D8
 10
0.0
 20
0.0
 30
0.0
  0
DIMENSION
  5
153
330
1F
100
AcDbEntity
  8
1
100
AcDbDimension
  2
*D9
 10
243.3540848101455
 20
315.7813953101956
 30
0.0
 11
246.5284725584615
 21
322.670039955515
 31
0.0
 70
    37
  1
<>
 71
     5
 42
-1.0
  3
ME10_DIM_16
100
AcDb3PointAngularDimension
 13
243.2948723564982
 23
314.7773363793643
 33
0.0
 14
220.3210355953301
 24
316.787004818
 34
0.0
 15
217.7596137231999
 25
316.787004818
 35
0.0
  0
ENDSEC
  0
SECTION
  2
OBJECTS
  0
DICTIONARY
  5
C
330
0
100
AcDbDictionary
281
     1
  3
ACAD_GROUP
350
D
  3
ACAD_LAYOUT
350
1A
  3
ACAD_MLEADERSTYLE
350
156
  3
ACAD_MLINESTYLE
350
17
  3
ACAD_PLOTSETTINGS
350
19
  3
ACAD_PLOTSTYLENAME
350
E
  3
ACAD_SCALELIST
350
4A
  3
ACAD_VISUALSTYLE
350
2A
  3
AcDbVariableDictionary
350
154
  0
DICTIONARY
  5
D
102
{ACAD_REACTORS
330
C
102
}
330
C
100
AcDbDictionary
281
     1
  0
DICTIONARY
  5
1A
102
{ACAD_REACTORS
330
C
102
}
330
C
100
AcDbDictionary
281
     1
  3
Layout1
350
1E
  3
Layout2
350
26
  3
Model
350
22
  0
DICTIONARY
  5
156
102
{ACAD_REACTORS
330
C
102
}
330
C
100
AcDbDictionary
281
     1
  0
DICTIONARY
  5
17
102
{ACAD_REACTORS
330
C
102
}
330
C
100
AcDbDictionary
281
     1
  3
Standard
350
18
  0
DICTIONARY
  5
19
102
{ACAD_REACTORS
330
C
102
}
330
C
100
AcDbDictionary
281
     1
  0
ACDBDICTIONARYWDFLT
  5
E
102
{ACAD_REACTORS
330
C
102
}
330
C
100
AcDbDictionary
281
     1
  3
Normal
350
F
100
AcDbDictionaryWithDefault
340
F
  0
DICTIONARY
  5
4A
102
{ACAD_REACTORS
330
C
102
}
330
C
100
AcDbDictionary
281
     1
  3
A0
350
4B
  3
A1
350
4C
  3
A2
350
4D
  3
A3
350
4E
  3
A4
350
4F
  3
A5
350
50
  3
A6
350
51
  3
A7
350
52
  3
A8
350
53
  3
A9
350
54
  3
B0
350
55
  3
B1
350
56
  3
B2
350
57
  3
B3
350
58
  3
B4
350
59
  3
B5
350
5A
  3
B6
350
5B
  3
B7
350
5C
  3
B8
350
5D
  3
B9
350
5E
  3
C0
350
5F
  3
C1
350
60
  3
C2
350
61
  3
C3
350
62
  3
C4
350
63
  3
C5
350
64
  3
C6
350
65
  3
C7
350
66
  3
C8
350
67
  3
C9
350
68
  3
D0
350
69
  3
D1
350
6A
  3
D2
350
6B
  0
DICTIONARY
  5
2A
102
{ACAD_REACTORS
330
C
102
}
330
C
100
AcDbDictionary
281
     1
  3
2dWireframe
350
2F
  3
3D Hidden
350
31
  3
3dWireframe
350
30
  3
Basic
350
32
  3
Brighten
350
36
  3
ColorChange
350
3A
  3
Conceptual
350
34
  3
Dim
350
35
  3
Facepattern
350
39
  3
Flat
350
2B
  3
FlatWithEdges
350
2C
  3
Gouraud
350
2D
  3
GouraudWithEdges
350
2E
  3
Linepattern
350
38
  3
Realistic
350
33
  3
Thicken
350
37
  0
DICTIONARY
  5
154
102
{ACAD_REACTORS
330
C
102
}
330
C
100
AcDbDictionary
281
     1
  3
CANNOSCALE
350
157
  0
LAYOUT
  5
1E
102
{ACAD_REACTORS
330
1A
102
}
330
1A
100
AcDbPlotSettings
  1

  2
none_device
  4

  6

 40
0.0
 41
0.0
 42
0.0
 43
0.0
 44
0.0
 45
0.0
 46
0.0
 47
0.0
 48
0.0
 49
0.0
140
0.0
141
0.0
142
1.0
143
1.0
 70
   688
 72
     0
 73
     0
 74
     5
  7

 75
    16
147
1.0
148
0.0
149
0.0
100
AcDbLayout
  1
Layout1
 70
     1
 71
     1
 10
0.0
 20
0.0
 11
12.0
 21
9.0
 12
0.0
 22
0.0
 32
0.0
 14
1.00000000000000E+20
 24
1.00000000000000E+20
 34
1.00000000000000E+20
 15
-1.00000000000000E+20
 25
-1.00000000000000E+20
 35
-1.00000000000000E+20
146
0.0
 13
0.0
 23
0.0
 33
0.0
 16
1.0
 26
0.0
 36
0.0
 17
0.0
 27
1.0
 37
0.0
 76
     0
330
1B
  0
LAYOUT
  5
26
102
{ACAD_REACTORS
330
1A
102
}
330
1A
100
AcDbPlotSettings
  1

  2
none_device
  4

  6

 40
0.0
 41
0.0
 42
0.0
 43
0.0
 44
0.0
 45
0.0
 46
0.0
 47
0.0
 48
0.0
 49
0.0
140
0.0
141
0.0
142
1.0
143
1.0
 70
   688
 72
     0
 73
     0
 74
     5
  7

 75
    16
147
1.0
148
0.0
149
0.0
100
AcDbLayout
  1
Layout2
 70
     1
 71
     2
 10
0.0
 20
0.0
 11
0.0
 21
0.0
 12
0.0
 22
0.0
 32
0.0
 14
0.0
 24
0.0
 34
0.0
 15
0.0
 25
0.0
 35
0.0
146
0.0
 13
0.0
 23
0.0
 33
0.0
 16
1.0
 26
0.0
 36
0.0
 17
0.0
 27
1.0
 37
0.0
 76
     0
330
23
  0
LAYOUT
  5
22
102
{ACAD_REACTORS
330
1A
102
}
330
1A
100
AcDbPlotSettings
  1

  2
none_device
  4

  6

 40
0.0
 41
0.0
 42
0.0
 43
0.0
 44
0.0
 45
0.0
 46
0.0
 47
0.0
 48
0.0
 49
0.0
140
0.0
141
0.0
142
1.0
143
1.0
 70
  1712
 72
     0
 73
     0
 74
     0
  7

 75
     0
147
1.0
148
0.0
149
0.0
100
AcDbLayout
  1
Model
 70
     1
 71
     0
 10
0.0
 20
0.0
 11
12.0
 21
9.0
 12
0.0
 22
0.0
 32
0.0
 14
-9.63432718773356
 24
249.787004818
 34
0.0
 15
292.266369365009
 25
378.64261324794
 35
0.0
146
0.0
 13
0.0
 23
0.0
 33
0.0
 16
1.0
 26
0.0
 36
0.0
 17
0.0
 27
1.0
 37
0.0
 76
     0
330
1F
331
29
  0
MLINESTYLE
  5
18
102
{ACAD_REACTORS
330
17
102
}
330
17
100
AcDbMlineStyle
  2
Standard
 70
     0
  3

 62
   256
 51
90.0
 52
90.0
 71
     2
 49
0.5
 62
   256
  6
BYLAYER
 49
-0.5
 62
   256
  6
BYLAYER
  0
ACDBPLACEHOLDER
  5
F
102
{ACAD_REACTORS
330
E
102
}
330
E
  0
SCALE
  5
4B
102
{ACAD_REACTORS
330
4A
102
}
330
4A
100
AcDbScale
 70
     0
300
1:1
140
1.0
141
1.0
290
     1
  0
SCALE
  5
4C
102
{ACAD_REACTORS
330
4A
102
}
330
4A
100
AcDbScale
 70
     0
300
1:2
140
1.0
141
2.0
290
     0
  0
SCALE
  5
4D
102
{ACAD_REACTORS
330
4A
102
}
330
4A
100
AcDbScale
 70
     0
300
1:4
140
1.0
141
4.0
290
     0
  0
SCALE
  5
4E
102
{ACAD_REACTORS
330
4A
102
}
330
4A
100
AcDbScale
 70
     0
300
1:5
140
1.0
141
5.0
290
     0
  0
SCALE
  5
4F
102
{ACAD_REACTORS
330
4A
102
}
330
4A
100
AcDbScale
 70
     0
300
1:8
140
1.0
141
8.0
290
     0
  0
SCALE
  5
50
102
{ACAD_REACTORS
330
4A
102
}
330
4A
100
AcDbScale
 70
     0
300
1:10
140
1.0
141
10.0
290
     0
  0
SCALE
  5
51
102
{ACAD_REACTORS
330
4A
102
}
330
4A
100
AcDbScale
 70
     0
300
1:16
140
1.0
141
16.0
290
     0
  0
SCALE
  5
52
102
{ACAD_REACTORS
330
4A
102
}
330
4A
100
AcDbScale
 70
     0
300
1:20
140
1.0
141
20.0
290
     0
  0
SCALE
  5
53
102
{ACAD_REACTORS
330
4A
102
}
330
4A
100
AcDbScale
 70
     0
300
1:30
140
1.0
141
30.0
290
     0
  0
SCALE
  5
54
102
{ACAD_REACTORS
330
4A
102
}
330
4A
100
AcDbScale
 70
     0
300
1:40
140
1.0
141
40.0
290
     0
  0
SCALE
  5
55
102
{ACAD_REACTORS
330
4A
102
}
330
4A
100
AcDbScale
 70
     0
300
1:50
140
1.0
141
50.0
290
     0
  0
SCALE
  5
56
102
{ACAD_REACTORS
330
4A
102
}
330
4A
100
AcDbScale
 70
     0
300
1:100
140
1.0
141
100.0
290
     0
  0
SCALE
  5
57
102
{ACAD_REACTORS
330
4A
102
}
330
4A
100
AcDbScale
 70
     0
300
2:1
140
2.0
141
1.0
290
     0
  0
SCALE
  5
58
102
{ACAD_REACTORS
330
4A
102
}
330
4A
100
AcDbScale
 70
     0
300
4:1
140
4.0
141
1.0
290
     0
  0
SCALE
  5
59
102
{ACAD_REACTORS
330
4A
102
}
330
4A
100
AcDbScale
 70
     0
300
8:1
140
8.0
141
1.0
290
     0
  0
SCALE
  5
5A
102
{ACAD_REACTORS
330
4A
102
}
330
4A
100
AcDbScale
 70
     0
300
10:1
140
10.0
141
1.0
290
     0
  0
SCALE
  5
5B
102
{ACAD_REACTORS
330
4A
102
}
330
4A
100
AcDbScale
 70
     0
300
100:1
140
100.0
141
1.0
290
     0
  0
SCALE
  5
5C
102
{ACAD_REACTORS
330
4A
102
}
330
4A
100
AcDbScale
 70
     0
300
1/128" = 1'-0"
140
0.0078125
141
12.0
290
     0
  0
SCALE
  5
5D
102
{ACAD_REACTORS
330
4A
102
}
330
4A
100
AcDbScale
 70
     0
300
1/64" = 1'-0"
140
0.015625
141
12.0
290
     0
  0
SCALE
  5
5E
102
{ACAD_REACTORS
330
4A
102
}
330
4A
100
AcDbScale
 70
     0
300
1/32" = 1'-0"
140
0.03125
141
12.0
290
     0
  0
SCALE
  5
5F
102
{ACAD_REACTORS
330
4A
102
}
330
4A
100
AcDbScale
 70
     0
300
1/16" = 1'-0"
140
0.0625
141
12.0
290
     0
  0
SCALE
  5
60
102
{ACAD_REACTORS
330
4A
102
}
330
4A
100
AcDbScale
 70
     0
300
3/32" = 1'-0"
140
0.09375
141
12.0
290
     0
  0
SCALE
  5
61
102
{ACAD_REACTORS
330
4A
102
}
330
4A
100
AcDbScale
 70
     0
300
1/8" = 1'-0"
140
0.125
141
12.0
290
     0
  0
SCALE
  5
62
102
{ACAD_REACTORS
330
4A
102
}
330
4A
100
AcDbScale
 70
     0
300
3/16" = 1'-0"
140
0.1875
141
12.0
290
     0
  0
SCALE
  5
63
102
{ACAD_REACTORS
330
4A
102
}
330
4A
100
AcDbScale
 70
     0
300
1/4" = 1'-0"
140
0.25
141
12.0
290
     0
  0
SCALE
  5
64
102
{ACAD_REACTORS
330
4A
102
}
330
4A
100
AcDbScale
 70
     0
300
3/8" = 1'-0"
140
0.375
141
12.0
290
     0
  0
SCALE
  5
65
102
{ACAD_REACTORS
330
4A
102
}
330
4A
100
AcDbScale
 70
     0
300
1/2" = 1'-0"
140
0.5
141
12.0
290
     0
  0
SCALE
  5
66
102
{ACAD_REACTORS
330
4A
102
}
330
4A
100
AcDbScale
 70
     0
300
3/4" = 1'-0"
140
0.75
141
12.0
290
     0
  0
SCALE
  5
67
102
{ACAD_REACTORS
330
4A
102
}
330
4A
100
AcDbScale
 70
     0
300
1" = 1'-0"
140
1.0
141
12.0
290
     0
  0
SCALE
  5
68
102
{ACAD_REACTORS
330
4A
102
}
330
4A
100
AcDbScale
 70
     0
300
1-1/2" = 1'-0"
140
1.5
141
12.0
290
     0
  0
SCALE
  5
69
102
{ACAD_REACTORS
330
4A
102
}
330
4A
100
AcDbScale
 70
     0
300
3" = 1'-0"
140
3.0
141
12.0
290
     0
  0
SCALE
  5
6A
102
{ACAD_REACTORS
330
4A
102
}
330
4A
100
AcDbScale
 70
     0
300
6" = 1'-0"
140
6.0
141
12.0
290
     0
  0
SCALE
  5
6B
102
{ACAD_REACTORS
330
4A
102
}
330
4A
100
AcDbScale
 70
     0
300
1'-0" = 1'-0"
140
12.0
141
12.0
290
     0
  0
VISUALSTYLE
  5
2F
102
{ACAD_REACTORS
330
2A
102
}
330
2A
100
AcDbVisualStyle
  2
2dWireframe
 70
     4
 71
     0
 72
     2
 73
     0
 90
        0
 40
-0.6
 41
-30.0
 62
     5
 63
     7
 74
     1
 91
        4
 64
     7
 65
   257
 75
     1
175
     1
 42
1.0
 92
        0
 66
   257
 43
1.0
 76
     1
 77
     6
 78
     2
 67
     7
 79
     5
170
     0
171
     0
290
     0
174
     0
 93
        1
 44
0.0
173
     0
291
     0
 45
0.0
1001
ACAD
1000
AcDbSavedByObjectVersion
1070
     0
  0
VISUALSTYLE
  5
31
102
{ACAD_REACTORS
330
2A
102
}
330
2A
100
AcDbVisualStyle
  2
3D Hidden
 70
     6
 71
     1
 72
     2
 73
     2
 90
        0
 40
-0.6
 41
-30.0
 62
     5
 63
     7
 74
     2
 91
        2
 64
     7
 65
   257
 75
     2
175
     1
 42
40.0
 92
        0
 66
   257
 43
1.0
 76
     1
 77
     6
 78
     2
 67
     7
 79
     3
170
     0
171
     0
290
     0
174
     0
 93
        1
 44
0.0
173
     0
291
     0
 45
0.0
1001
ACAD
1000
AcDbSavedByObjectVersion
1070
     0
  0
VISUALSTYLE
  5
30
102
{ACAD_REACTORS
330
2A
102
}
330
2A
100
AcDbVisualStyle
  2
3dWireframe
 70
     5
 71
     0
 72
     2
 73
     0
 90
        0
 40
-0.6
 41
-30.0
 62
     5
 63
     7
 74
     1
 91
        4
 64
     7
 65
   257
 75
     1
175
     1
 42
1.0
 92
        0
 66
   257
 43
1.0
 76
     1
 77
     6
 78
     2
 67
     7
 79
     5
170
     0
171
     0
290
     0
174
     0
 93
        1
 44
0.0
173
     0
291
     0
 45
0.0
1001
ACAD
1000
AcDbSavedByObjectVersion
1070
     0
  0
VISUALSTYLE
  5
32
102
{ACAD_REACTORS
330
2A
102
}
330
2A
100
AcDbVisualStyle
  2
Basic
 70
     7
 71
     1
 72
     0
 73
     1
 90
        0
 40
-0.6
 41
-30.0
 62
     5
 63
     7
 74
     0
 91
        4
 64
     7
 65
   257
 75
     1
175
     1
 42
1.0
 92
        8
 66
     7
 43
1.0
 76
     1
 77
     6
 78
     2
 67
     7
 79
     5
170
     0
171
     0
290
     0
174
     0
 93
        1
 44
0.0
173
     0
291
     1
 45
0.0
1001
ACAD
1000
AcDbSavedByObjectVersion
1070
     0
  0
VISUALSTYLE
  5
36
102
{ACAD_REACTORS
330
2A
102
}
330
2A
100
AcDbVisualStyle
  2
Brighten
 70
    12
 71
     2
 72
     2
 73
     0
 90
        0
 40
-0.6
 41
-30.0
 62
     5
 63
     7
 74
     1
 91
        4
 64
     7
 65
   257
 75
     1
175
     1
 42
1.0
 92
        8
 66
     7
 43
1.0
 76
     1
 77
     6
 78
     2
 67
     7
 79
     5
170
     0
171
     0
290
     0
174
     0
 93
        1
 44
50.0
173
     0
291
     1
 45
0.0
1001
ACAD
1000
AcDbSavedByObjectVersion
1070
     0
  0
VISUALSTYLE
  5
3A
102
{ACAD_REACTORS
330
2A
102
}
330
2A
100
AcDbVisualStyle
  2
ColorChange
 70
    16
 71
     2
 72
     2
 73
     3
 90
        0
 40
-0.6
 41
-30.0
 62
     5
 63
     8
 74
     1
 91
        4
 64
     7
 65
   257
 75
     1
175
     1
 42
1.0
 92
        8
 66
     8
 43
1.0
 76
     1
 77
     6
 78
     2
 67
     7
 79
     5
170
     0
171
     0
290
     0
174
     0
 93
        1
 44
0.0
173
     0
291
     1
 45
0.0
1001
ACAD
1000
AcDbSavedByObjectVersion
1070
     0
  0
VISUALSTYLE
  5
34
102
{ACAD_REACTORS
330
2A
102
}
330
2A
100
AcDbVisualStyle
  2
Conceptual
 70
     9
 71
     3
 72
     2
 73
     0
 90
        0
 40
-0.6
 41
-30.0
 62
     5
 63
     7
 74
     2
 91
        2
 64
     7
 65
   257
 75
     1
175
     1
 42
40.0
 92
        8
 66
     7
 43
1.0
 76
     1
 77
     6
 78
     2
 67
     7
 79
     3
170
     0
171
     0
290
     0
174
     0
 93
        1
 44
0.0
173
     0
291
     0
 45
0.0
1001
ACAD
1000
AcDbSavedByObjectVersion
1070
     0
  0
VISUALSTYLE
  5
35
102
{ACAD_REACTORS
330
2A
102
}
330
2A
100
AcDbVisualStyle
  2
Dim
 70
    11
 71
     2
 72
     2
 73
     0
 90
        0
 40
-0.6
 41
-30.0
 62
     5
 63
     7
 74
     1
 91
        4
 64
     7
 65
   257
 75
     1
175
     1
 42
1.0
 92
        8
 66
     7
 43
1.0
 76
     1
 77
     6
 78
     2
 67
     7
 79
     5
170
     0
171
     0
290
     0
174
     0
 93
        1
 44
-50.0
173
     0
291
     1
 45
0.0
1001
ACAD
1000
AcDbSavedByObjectVersion
1070
     0
  0
VISUALSTYLE
  5
39
102
{ACAD_REACTORS
330
2A
102
}
330
2A
100
AcDbVisualStyle
  2
Facepattern
 70
    15
 71
     2
 72
     2
 73
     0
 90
        0
 40
-0.6
 41
-30.0
 62
     5
 63
     7
 74
     1
 91
        4
 64
     7
 65
   257
 75
     1
175
     1
 42
1.0
 92
        8
 66
     7
 43
1.0
 76
     1
 77
     6
 78
     2
 67
     7
 79
     5
170
     0
171
     0
290
     0
174
     0
 93
        1
 44
0.0
173
     0
291
     1
 45
0.0
1001
ACAD
1000
AcDbSavedByObjectVersion
1070
     0
  0
VISUALSTYLE
  5
2B
102
{ACAD_REACTORS
330
2A
102
}
330
2A
100
AcDbVisualStyle
  2
Flat
 70
     0
 71
     2
 72
     1
 73
     1
 90
        2
 40
-0.6
 41
30.0
 62
     5
 63
     7
 74
     0
 91
        4
 64
     7
 65
   257
 75
     1
175
     1
 42
1.0
 92
        8
 66
     7
 43
1.0
 76
     1
 77
     6
 78
     2
 67
     7
 79
     5
170
     0
171
     0
290
     0
174
     0
 93
       13
 44
0.0
173
     0
291
     1
 45
0.0
1001
ACAD
1000
AcDbSavedByObjectVersion
1070
     0
  0
VISUALSTYLE
  5
2C
102
{ACAD_REACTORS
330
2A
102
}
330
2A
100
AcDbVisualStyle
  2
FlatWithEdges
 70
     1
 71
     2
 72
     1
 73
     1
 90
        2
 40
-0.6
 41
30.0
 62
     5
 63
     7
 74
     1
 91
        4
 64
     7
 65
   257
 75
     1
175
     1
 42
1.0
 92
        0
 66
   257
 43
1.0
 76
     1
 77
     6
 78
     2
 67
     7
 79
     5
170
     0
171
     0
290
     0
174
     0
 93
       13
 44
0.0
173
     0
291
     1
 45
0.0
1001
ACAD
1000
AcDbSavedByObjectVersion
1070
     0
  0
VISUALSTYLE
  5
2D
102
{ACAD_REACTORS
330
2A
102
}
330
2A
100
AcDbVisualStyle
  2
Gouraud
 70
     2
 71
     2
 72
     2
 73
     1
 90
        2
 40
-0.6
 41
30.0
 62
     5
 63
     7
 74
     0
 91
        4
 64
     7
 65
   257
 75
     1
175
     1
 42
1.0
 92
        0
 66
     7
 43
1.0
 76
     1
 77
     6
 78
     2
 67
     7
 79
     5
170
     0
171
     0
290
     0
174
     0
 93
       13
 44
0.0
173
     0
291
     1
 45
0.0
1001
ACAD
1000
AcDbSavedByObjectVersion
1070
     0
  0
VISUALSTYLE
  5
2E
102
{ACAD_REACTORS
330
2A
102
}
330
2A
100
AcDbVisualStyle
  2
GouraudWithEdges
 70
     3
 71
     2
 72
     2
 73
     1
 90
        2
 40
-0.6
 41
30.0
 62
     5
 63
     7
 74
     1
 91
        4
 64
     7
 65
   257
 75
     1
175
     1
 42
1.0
 92
        0
 66
   257
 43
1.0
 76
     1
 77
     6
 78
     2
 67
     7
 79
     5
170
     0
171
     0
290
     0
174
     0
 93
       13
 44
0.0
173
     0
291
     1
 45
0.0
1001
ACAD
1000
AcDbSavedByObjectVersion
1070
     0
  0
VISUALSTYLE
  5
38
102
{ACAD_REACTORS
330
2A
102
}
330
2A
100
AcDbVisualStyle
  2
Linepattern
 70
    14
 71
     2
 72
     2
 73
     0
 90
        0
 40
-0.6
 41
-30.0
 62
     5
 63
     7
 74
     1
 91
        4
 64
     7
 65
   257
 75
     7
175
     7
 42
1.0
 92
        8
 66
     7
 43
1.0
 76
     1
 77
     6
 78
     2
 67
     7
 79
     5
170
     0
171
     0
290
     0
174
     0
 93
        1
 44
0.0
173
     0
291
     1
 45
0.0
1001
ACAD
1000
AcDbSavedByObjectVersion
1070
     0
  0
VISUALSTYLE
  5
33
102
{ACAD_REACTORS
330
2A
102
}
330
2A
100
AcDbVisualStyle
  2
Realistic
 70
     8
 71
     2
 72
     2
 73
     0
 90
        0
 40
-0.6
 41
-30.0
 62
     5
 63
     7
 74
     1
 91
        0
 64
     7
 65
   257
 75
     1
175
     1
 42
1.0
 92
        8
 66
     8
 43
1.0
 76
     1
 77
     6
 78
     2
 67
     7
 79
     5
170
     0
171
     0
290
     0
174
     0
 93
       13
 44
0.0
173
     0
291
     0
 45
0.0
1001
ACAD
1000
AcDbSavedByObjectVersion
1070
     0
  0
VISUALSTYLE
  5
37
102
{ACAD_REACTORS
330
2A
102
}
330
2A
100
AcDbVisualStyle
  2
Thicken
 70
    13
 71
     2
 72
     2
 73
     0
 90
        0
 40
-0.6
 41
-30.0
 62
     5
 63
     7
 74
     1
 91
        4
 64
     7
 65
   257
 75
     1
175
     1
 42
1.0
 92
       12
 66
     7
 43
1.0
 76
     1
 77
     6
 78
     2
 67
     7
 79
     5
170
     0
171
     0
290
     0
174
     0
 93
        1
 44
0.0
173
     0
291
     1
 45
0.0
1001
ACAD
1000
AcDbSavedByObjectVersion
1070
     0
  0
DICTIONARYVAR
  5
157
102
{ACAD_REACTORS
330
154
102
}
330
154
100
DictionaryVariables
280
     0
  1
1:1
  0
ENDSEC
  0
EOF
