  0
SECTION
  2
HEADER
  9
$ACADVER
  1
AC1015
  9
$ACADMAINTVER
 70
     6
  9
$DWGCODEPAGE
  3
ANSI_1252
  9
$INSBASE
 10
0.0
 20
0.0
 30
0.0
  9
$EXTMIN
 10
-22.28298592137965
 20
253.2749263919
 30
0.0
  9
$EXTMAX
 10
278.488420954123
 20
381.287446952293
 30
0.0
  9
$LIMMIN
 10
0.0
 20
0.0
  9
$LIMMAX
 10
12.0
 20
9.0
  9
$ORTHOMODE
 70
     0
  9
$REGENMODE
 70
     1
  9
$FILLMODE
 70
     1
  9
$QTEXTMODE
 70
     0
  9
$MIRRTEXT
 70
     1
  9
$LTSCALE
 40
1.0
  9
$ATTMODE
 70
     1
  9
$TEXTSIZE
 40
0.2
  9
$TRACEWID
 40
0.05
  9
$TEXTSTYLE
  7
Standard
  9
$CLAYER
  8
0
  9
$CELTYPE
  6
ByLayer
  9
$CECOLOR
 62
   256
  9
$CELTSCALE
 40
1.0
  9
$DISPSILH
 70
     0
  9
$DIMSCALE
 40
1.0
  9
$DIMASZ
 40
0.18
  9
$DIMEXO
 40
0.0625
  9
$DIMDLI
 40
0.38
  9
$DIMRND
 40
0.0
  9
$DIMDLE
 40
0.0
  9
$DIMEXE
 40
0.18
  9
$DIMTP
 40
0.0
  9
$DIMTM
 40
0.0
  9
$DIMTXT
 40
0.18
  9
$DIMCEN
 40
0.09
  9
$DIMTSZ
 40
0.0
  9
$DIMTOL
 70
     0
  9
$DIMLIM
 70
     0
  9
$DIMTIH
 70
     1
  9
$DIMTOH
 70
     1
  9
$DIMSE1
 70
     0
  9
$DIMSE2
 70
     0
  9
$DIMTAD
 70
     0
  9
$DIMZIN
 70
     0
  9
$DIMBLK
  1

  9
$DIMASO
 70
     1
  9
$DIMSHO
 70
     1
  9
$DIMPOST
  1

  9
$DIMAPOST
  1

  9
$DIMALT
 70
     0
  9
$DIMALTD
 70
     2
  9
$DIMALTF
 40
25.4
  9
$DIMLFAC
 40
1.0
  9
$DIMTOFL
 70
     0
  9
$DIMTVP
 40
0.0
  9
$DIMTIX
 70
     0
  9
$DIMSOXD
 70
     0
  9
$DIMSAH
 70
     0
  9
$DIMBLK1
  1

  9
$DIMBLK2
  1

  9
$DIMSTYLE
  2
Standard
  9
$DIMCLRD
 70
     0
  9
$DIMCLRE
 70
     0
  9
$DIMCLRT
 70
     0
  9
$DIMTFAC
 40
1.0
  9
$DIMGAP
 40
0.09
  9
$DIMJUST
 70
     0
  9
$DIMSD1
 70
     0
  9
$DIMSD2
 70
     0
  9
$DIMTOLJ
 70
     1
  9
$DIMTZIN
 70
     0
  9
$DIMALTZ
 70
     0
  9
$DIMALTTZ
 70
     0
  9
$DIMUPT
 70
     0
  9
$DIMDEC
 70
     4
  9
$DIMTDEC
 70
     4
  9
$DIMALTU
 70
     2
  9
$DIMALTTD
 70
     2
  9
$DIMTXSTY
  7
Standard
  9
$DIMAUNIT
 70
     0
  9
$DIMADEC
 70
     0
  9
$DIMALTRND
 40
0.0
  9
$DIMAZIN
 70
     0
  9
$DIMDSEP
 70
    46
  9
$DIMATFIT
 70
     3
  9
$DIMFRAC
 70
     0
  9
$DIMLDRBLK
  1

  9
$DIMLUNIT
 70
     2
  9
$DIMLWD
 70
    -2
  9
$DIMLWE
 70
    -2
  9
$DIMTMOVE
 70
     0
  9
$LUNITS
 70
     2
  9
$LUPREC
 70
     4
  9
$SKETCHINC
 40
0.1
  9
$FILLETRAD
 40
0.5
  9
$AUNITS
 70
     0
  9
$AUPREC
 70
     0
  9
$MENU
  1
.
  9
$ELEVATION
 40
0.0
  9
$PELEVATION
 40
0.0
  9
$THICKNESS
 40
0.0
  9
$LIMCHECK
 70
     0
  9
$CHAMFERA
 40
0.5
  9
$CHAMFERB
 40
0.5
  9
$CHAMFERC
 40
1.0
  9
$CHAMFERD
 40
0.0
  9
$SKPOLY
 70
     0
  9
$TDCREATE
 40
2456748.729398472
  9
$TDUCREATE
 40
2456748.646065139
  9
$TDUPDATE
 40
2456748.729398484
  9
$TDUUPDATE
 40
2456748.64606515
  9
$TDINDWG
 40
0.0000000116
  9
$TDUSRTIMER
 40
0.0000000116
  9
$USRTIMER
 70
     1
  9
$ANGBASE
 50
0.0
  9
$ANGDIR
 70
     0
  9
$PDMODE
 70
     0
  9
$PDSIZE
 40
0.0
  9
$PLINEWID
 40
0.0
  9
$SPLFRAME
 70
     0
  9
$SPLINETYPE
 70
     6
  9
$SPLINESEGS
 70
     8
  9
$HANDSEED
  5
159
  9
$SURFTAB1
 70
     6
  9
$SURFTAB2
 70
     6
  9
$SURFTYPE
 70
     6
  9
$SURFU
 70
     6
  9
$SURFV
 70
     6
  9
$UCSBASE
  2

  9
$UCSNAME
  2

  9
$UCSORG
 10
0.0
 20
0.0
 30
0.0
  9
$UCSXDIR
 10
1.0
 20
0.0
 30
0.0
  9
$UCSYDIR
 10
0.0
 20
1.0
 30
0.0
  9
$UCSORTHOREF
  2

  9
$UCSORTHOVIEW
 70
     0
  9
$UCSORGTOP
 10
0.0
 20
0.0
 30
0.0
  9
$UCSORGBOTTOM
 10
0.0
 20
0.0
 30
0.0
  9
$UCSORGLEFT
 10
0.0
 20
0.0
 30
0.0
  9
$UCSORGRIGHT
 10
0.0
 20
0.0
 30
0.0
  9
$UCSORGFRONT
 10
0.0
 20
0.0
 30
0.0
  9
$UCSORGBACK
 10
0.0
 20
0.0
 30
0.0
  9
$PUCSBASE
  2

  9
$PUCSNAME
  2

  9
$PUCSORG
 10
0.0
 20
0.0
 30
0.0
  9
$PUCSXDIR
 10
1.0
 20
0.0
 30
0.0
  9
$PUCSYDIR
 10
0.0
 20
1.0
 30
0.0
  9
$PUCSORTHOREF
  2

  9
$PUCSORTHOVIEW
 70
     0
  9
$PUCSORGTOP
 10
0.0
 20
0.0
 30
0.0
  9
$PUCSORGBOTTOM
 10
0.0
 20
0.0
 30
0.0
  9
$PUCSORGLEFT
 10
0.0
 20
0.0
 30
0.0
  9
$PUCSORGRIGHT
 10
0.0
 20
0.0
 30
0.0
  9
$PUCSORGFRONT
 10
0.0
 20
0.0
 30
0.0
  9
$PUCSORGBACK
 10
0.0
 20
0.0
 30
0.0
  9
$USERI1
 70
     0
  9
$USERI2
 70
     0
  9
$USERI3
 70
     0
  9
$USERI4
 70
     0
  9
$USERI5
 70
     0
  9
$USERR1
 40
16.5
  9
$USERR2
 40
0.0
  9
$USERR3
 40
0.0
  9
$USERR4
 40
0.0
  9
$USERR5
 40
0.0
  9
$WORLDVIEW
 70
     1
  9
$SHADEDGE
 70
     3
  9
$SHADEDIF
 70
    70
  9
$TILEMODE
 70
     1
  9
$MAXACTVP
 70
    64
  9
$PINSBASE
 10
0.0
 20
0.0
 30
0.0
  9
$PLIMCHECK
 70
     0
  9
$PEXTMIN
 10
1.00000000000000E+20
 20
1.00000000000000E+20
 30
1.00000000000000E+20
  9
$PEXTMAX
 10
-1.00000000000000E+20
 20
-1.00000000000000E+20
 30
-1.00000000000000E+20
  9
$PLIMMIN
 10
0.0
 20
0.0
  9
$PLIMMAX
 10
12.0
 20
9.0
  9
$UNITMODE
 70
     0
  9
$VISRETAIN
 70
     1
  9
$PLINEGEN
 70
     0
  9
$PSLTSCALE
 70
     1
  9
$TREEDEPTH
 70
  3020
  9
$CMLSTYLE
  2
Standard
  9
$CMLJUST
 70
     0
  9
$CMLSCALE
 40
1.0
  9
$PROXYGRAPHICS
 70
     1
  9
$MEASUREMENT
 70
     1
  9
$CELWEIGHT
370
    -1
  9
$ENDCAPS
280
     0
  9
$JOINSTYLE
280
     0
  9
$LWDISPLAY
290
     0
  9
$INSUNITS
 70
     1
  9
$HYPERLINKBASE
  1

  9
$STYLESHEET
  1

  9
$XEDIT
290
     1
  9
$CEPSNTYPE
380
     0
  9
$PSTYLEMODE
290
     1
  9
$FINGERPRINTGUID
  2
{EDFE332A-5F25-4966-8659-755D0BD44264}
  9
$VERSIONGUID
  2
{FAEB1C32-E019-11D5-929B-00C0DF256EC4}
  9
$EXTNAMES
290
     1
  9
$PSVPSCALE
 40
0.0
  9
$OLESTARTUP
290
     0
  0
ENDSEC
  0
SECTION
  2
CLASSES
  0
CLASS
  1
ACDBDICTIONARYWDFLT
  2
AcDbDictionaryWithDefault
  3
ObjectDBX Classes
 90
        0
280
     0
281
     0
  0
CLASS
  1
VISUALSTYLE
  2
AcDbVisualStyle
  3
ObjectDBX Classes
 90
     4095
280
     0
281
     0
  0
CLASS
  1
SCALE
  2
AcDbScale
  3
ObjectDBX Classes
 90
     1153
280
     0
281
     0
  0
CLASS
  1

  2
exOdDbPolyline
  3

 90
        0
280
     0
281
     1
  0
CLASS
  1

  2
exOdDbCircle
  3

 90
        0
280
     0
281
     1
  0
CLASS
  1

  2
exOdDbSpline
  3

 90
        0
280
     0
281
     1
  0
CLASS
  1
DICTIONARYVAR
  2
AcDbDictionaryVar
  3
ObjectDBX Classes
 90
        0
280
     0
281
     0
  0
CLASS
  1
ACDBPLACEHOLDER
  2
AcDbPlaceHolder
  3
ObjectDBX Classes
 90
        0
280
     0
281
     0
  0
CLASS
  1
LAYOUT
  2
AcDbLayout
  3
ObjectDBX Classes
 90
        0
280
     0
281
     0
  0
ENDSEC
  0
SECTION
  2
TABLES
  0
TABLE
  2
VPORT
  5
8
330
0
100
AcDbSymbolTable
 70
     1
  0
VPORT
  5
29
330
8
100
AcDbSymbolTableRecord
100
AcDbViewportTableRecord
  2
*Active
 70
     0
 10
0.0
 20
0.0
 11
1.0
 21
1.0
 12
128.1027175163717
 22
317.2811866720965
 13
0.0
 23
0.0
 14
0.5
 24
0.5
 15
0.5
 25
0.5
 16
0.0
 26
0.0
 36
1.0
 17
0.0
 27
0.0
 37
0.0
 40
206.4347483401779
 41
1.60267857142857
 42
50.0
 43
0.0
 44
0.0
 50
0.0
 51
0.0
 71
     0
 72
   100
 73
     1
 74
     3
 75
     0
 76
     0
 77
     0
 78
     0
281
     0
 65
     1
110
0.0
120
0.0
130
0.0
111
1.0
121
0.0
131
0.0
112
0.0
122
1.0
132
0.0
 79
     0
146
0.0
  0
ENDTAB
  0
TABLE
  2
LTYPE
  5
5
330
0
100
AcDbSymbolTable
 70
     9
  0
LTYPE
  5
14
330
5
100
AcDbSymbolTableRecord
100
AcDbLinetypeTableRecord
  2
ByBlock
 70
     0
  3

 72
    65
 73
     0
 40
0.0
  0
LTYPE
  5
15
330
5
100
AcDbSymbolTableRecord
100
AcDbLinetypeTableRecord
  2
ByLayer
 70
     0
  3

 72
    65
 73
     0
 40
0.0
  0
LTYPE
  5
16
330
5
100
AcDbSymbolTableRecord
100
AcDbLinetypeTableRecord
  2
Continuous
 70
     0
  3
Solid line
 72
    65
 73
     0
 40
0.0
  0
LTYPE
  5
3B
330
5
100
AcDbSymbolTableRecord
100
AcDbLinetypeTableRecord
  2
DASHED
 70
     0
  3
Dashed
 72
    65
 73
     2
 40
15.0
 49
7.0
 74
     0
 49
-8.0
 74
     0
  0
LTYPE
  5
3C
330
5
100
AcDbSymbolTableRecord
100
AcDbLinetypeTableRecord
  2
DOTTED
 70
     0
  3
Dotted
 72
    65
 73
     2
 40
1.0
 49
0.0
 74
     0
 49
-1.0
 74
     0
  0
LTYPE
  5
3D
330
5
100
AcDbSymbolTableRecord
100
AcDbLinetypeTableRecord
  2
DOT_CENTER
 70
     0
  3
Dot_Center
 72
    65
 73
     4
 40
14.0
 49
12.0
 74
     0
 49
-1.0
 74
     0
 49
0.0
 74
     0
 49
-1.0
 74
     0
  0
LTYPE
  5
3E
330
5
100
AcDbSymbolTableRecord
100
AcDbLinetypeTableRecord
  2
LONG_DASHED
 70
     0
  3
Long_Dashed
 72
    65
 73
     2
 40
15.0
 49
10.0
 74
     0
 49
-5.0
 74
     0
  0
LTYPE
  5
3F
330
5
100
AcDbSymbolTableRecord
100
AcDbLinetypeTableRecord
  2
DASH_CENTER
 70
     0
  3
Dash_Center
 72
    65
 73
     4
 40
14.0
 49
11.0
 74
     0
 49
-1.0
 74
     0
 49
1.0
 74
     0
 49
-1.0
 74
     0
  0
LTYPE
  5
40
330
5
100
AcDbSymbolTableRecord
100
AcDbLinetypeTableRecord
  2
PHANTOM
 70
     0
  3
Phantom
 72
    65
 73
     6
 40
13.0
 49
10.0
 74
     0
 49
-1.0
 74
     0
 49
0.0
 74
     0
 49
-1.0
 74
     0
 49
0.0
 74
     0
 49
-1.0
 74
     0
  0
LTYPE
  5
41
330
5
100
AcDbSymbolTableRecord
100
AcDbLinetypeTableRecord
  2
CENTER_DASH_DASH
 70
     0
  3
Center_Dash_Dash
 72
    65
 73
     6
 40
14.0
 49
9.0
 74
     0
 49
-1.0
 74
     0
 49
1.0
 74
     0
 49
-1.0
 74
     0
 49
1.0
 74
     0
 49
-1.0
 74
     0
  0
LTYPE
  5
42
330
5
100
AcDbSymbolTableRecord
100
AcDbLinetypeTableRecord
  2
CENTER
 70
     0
  3
CENTER
 72
    65
 73
     4
 40
13.0
 49
7.0
 74
     0
 49
-2.0
 74
     0
 49
2.0
 74
     0
 49
-2.0
 74
     0
  0
ENDTAB
  0
TABLE
  2
LAYER
  5
2
330
0
100
AcDbSymbolTable
 70
     6
  0
LAYER
  5
10
330
2
100
AcDbSymbolTableRecord
100
AcDbLayerTableRecord
  2
0
 70
     0
 62
     7
  6
Continuous
370
    -3
390
F
  0
LAYER
  5
43
330
2
100
AcDbSymbolTableRecord
100
AcDbLayerTableRecord
  2
1
 70
     0
 62
     7
  6
Continuous
370
    -3
390
F
  0
LAYER
  5
44
330
2
100
AcDbSymbolTableRecord
100
AcDbLayerTableRecord
  2
BEZUGSACHSEN
 70
     0
 62
     7
  6
Continuous
370
    -3
390
F
  0
LAYER
  5
45
330
2
100
AcDbSymbolTableRecord
100
AcDbLayerTableRecord
  2
DEFAULT_2
 70
     0
 62
     7
  6
Continuous
370
    -3
390
F
  0
LAYER
  5
46
330
2
100
AcDbSymbolTableRecord
100
AcDbLayerTableRecord
  2
FASEN
 70
     0
 62
     7
  6
Continuous
370
    -3
390
F
  0
LAYER
  5
47
330
2
100
AcDbSymbolTableRecord
100
AcDbLayerTableRecord
  2
RUNDUNGEN
 70
     0
 62
     7
  6
Continuous
370
    -3
390
F
  0
ENDTAB
  0
TABLE
  2
STYLE
  5
3
330
0
100
AcDbSymbolTable
 70
     2
  0
STYLE
  5
11
330
3
100
AcDbSymbolTableRecord
100
AcDbTextStyleTableRecord
  2
Standard
 70
     0
 40
0.0
 41
1.0
 50
0.0
 71
     0
 42
0.2
  3
txt
  4

  0
STYLE
  5
6E
330
3
100
AcDbSymbolTableRecord
100
AcDbTextStyleTableRecord
  2
CONVERTER_11
 70
     0
 40
0.0
 41
0.72
 50
0.0
 71
     0
 42
0.2
  3
txt.shx
  4

  0
ENDTAB
  0
TABLE
  2
VIEW
  5
6
330
0
100
AcDbSymbolTable
 70
     0
  0
ENDTAB
  0
TABLE
  2
UCS
  5
7
330
0
100
AcDbSymbolTable
 70
     0
  0
ENDTAB
  0
TABLE
  2
APPID
  5
9
330
0
100
AcDbSymbolTable
 70
     1
  0
APPID
  5
12
330
9
100
AcDbSymbolTableRecord
100
AcDbRegAppTableRecord
  2
ACAD
 70
     0
  0
ENDTAB
  0
TABLE
  2
DIMSTYLE
  5
A
330
0
100
AcDbSymbolTable
 70
     8
100
AcDbDimStyleTable
  0
DIMSTYLE
105
27
330
A
100
AcDbSymbolTableRecord
100
AcDbDimStyleTableRecord
  2
Standard
 70
     0
340
11
  0
DIMSTYLE
105
10A
102
{ACAD_REACTORS
330
10B
102
}
330
A
100
AcDbSymbolTableRecord
100
AcDbDimStyleTableRecord
  2
ME10_DIM_10
 70
     0
  3
\U+2300<>
 41
3.5
 42
2.0
 44
2.0
 71
     1
 73
     0
 74
     0
 77
     1
 78
     8
140
3.5
146
0.7
147
2.0
172
     1
173
     1
176
     2
177
     2
178
     3
271
     2
272
     0
340
6E
  0
DIMSTYLE
105
115
102
{ACAD_REACTORS
330
116
102
}
330
A
100
AcDbSymbolTableRecord
100
AcDbDimStyleTableRecord
  2
ME10_DIM_11
 70
     0
  3
\U+2300<>
 41
3.5
 42
2.0
 44
2.0
 71
     1
 73
     0
 74
     0
 77
     1
 78
     8
140
3.5
146
0.7
147
2.0
172
     1
173
     1
176
     2
177
     2
178
     3
271
     2
272
     0
340
6E
  0
DIMSTYLE
105
120
102
{ACAD_REACTORS
330
121
102
}
330
A
100
AcDbSymbolTableRecord
100
AcDbDimStyleTableRecord
  2
ME10_DIM_12
 70
     0
  3
\U+2300<>
 41
3.5
 42
2.0
 44
2.0
 71
     1
 73
     0
 74
     0
 77
     1
 78
     8
140
3.5
146
0.7
147
2.0
172
     1
173
     1
176
     2
177
     2
178
     3
271
     2
272
     0
340
6E
  0
DIMSTYLE
105
12B
102
{ACAD_REACTORS
330
12C
102
}
330
A
100
AcDbSymbolTableRecord
100
AcDbDimStyleTableRecord
  2
ME10_DIM_13
 70
     0
  3
<>
 41
3.5
 42
2.0
 44
2.0
 71
     1
 73
     0
 74
     0
 77
     1
 78
     8
140
3.5
146
0.7
147
2.0
172
     1
173
     1
176
     2
177
     2
178
     3
271
     2
272
     0
340
6E
  0
DIMSTYLE
105
136
102
{ACAD_REACTORS
330
137
102
}
330
A
100
AcDbSymbolTableRecord
100
AcDbDimStyleTableRecord
  2
ME10_DIM_14
 70
     0
  3
<>
 41
3.5
 42
2.0
 44
2.0
 71
     1
 73
     0
 74
     0
 77
     1
 78
     8
140
3.5
146
0.7
147
2.0
172
     1
173
     1
176
     2
177
     2
178
     3
271
     2
272
     0
340
6E
  0
DIMSTYLE
105
141
102
{ACAD_REACTORS
330
142
102
}
330
A
100
AcDbSymbolTableRecord
100
AcDbDimStyleTableRecord
  2
ME10_DIM_15
 70
     0
  3
<>
 41
3.5
 42
2.0
 44
2.0
 71
     1
 73
     0
 74
     0
 77
     1
 78
     8
140
3.5
146
0.7
147
2.0
172
     1
173
     1
176
     2
177
     2
178
     3
271
     2
272
     0
340
6E
  0
DIMSTYLE
105
153
102
{ACAD_REACTORS
330
154
102
}
330
A
100
AcDbSymbolTableRecord
100
AcDbDimStyleTableRecord
  2
ME10_DIM_16
 70
     0
  3
<>
 41
3.5
 42
2.0
 44
2.0
 71
     1
 73
     0
 74
     0
 77
     1
 78
     8
140
3.5
146
0.7
147
2.0
172
     1
173
     1
176
     2
177
     2
178
     3
271
     2
272
     0
340
6E
  0
ENDTAB
  0
TABLE
  2
BLOCK_RECORD
  5
1
330
0
100
AcDbSymbolTable
 70
    10
  0
BLOCK_RECORD
  5
1F
330
1
100
AcDbSymbolTableRecord
100
AcDbBlockTableRecord
  2
*Model_Space
340
22
  0
BLOCK_RECORD
  5
1B
330
1
100
AcDbSymbolTableRecord
100
AcDbBlockTableRecord
  2
*Paper_Space
340
1E
  0
BLOCK_RECORD
  5
23
330
1
100
AcDbSymbolTableRecord
100
AcDbBlockTableRecord
  2
*Paper_Space0
340
26
  0
BLOCK_RECORD
  5
48
330
1
100
AcDbSymbolTableRecord
100
AcDbBlockTableRecord
  2
Urheberrecht_DE-EN
340
0
102
{BLKREFS
331
6D
102
}
  0
BLOCK_RECORD
  5
101
330
1
100
AcDbSymbolTableRecord
100
AcDbBlockTableRecord
  2
*D2
340
0
  0
BLOCK_RECORD
  5
10C
330
1
100
AcDbSymbolTableRecord
100
AcDbBlockTableRecord
  2
*D3
340
0
  0
BLOCK_RECORD
  5
117
330
1
100
AcDbSymbolTableRecord
100
AcDbBlockTableRecord
  2
*D4
340
0
  0
BLOCK_RECORD
  5
122
330
1
100
AcDbSymbolTableRecord
100
AcDbBlockTableRecord
  2
*D5
340
0
  0
BLOCK_RECORD
  5
12D
330
1
100
AcDbSymbolTableRecord
100
AcDbBlockTableRecord
  2
*D6
340
0
  0
BLOCK_RECORD
  5
138
330
1
100
AcDbSymbolTableRecord
100
AcDbBlockTableRecord
  2
*D7
340
0
  0
BLOCK_RECORD
  5
143
330
1
100
AcDbSymbolTableRecord
100
AcDbBlockTableRecord
  2
*D8
340
0
102
{BLKREFS
331
149
102
}
  0
BLOCK_RECORD
  5
14A
330
1
100
AcDbSymbolTableRecord
100
AcDbBlockTableRecord
  2
*D9
340
0
  0
ENDTAB
  0
ENDSEC
  0
SECTION
  2
BLOCKS
  0
BLOCK
  5
20
330
1F
100
AcDbEntity
  8
0
100
AcDbBlockBegin
  2
*Model_Space
 70
     0
 10
0.0
 20
0.0
 30
0.0
  3
*Model_Space
  1

  0
ENDBLK
  5
21
330
1F
100
AcDbEntity
  8
0
100
AcDbBlockEnd
  0
BLOCK
  5
1C
330
1B
100
AcDbEntity
 67
     1
  8
0
100
AcDbBlockBegin
  2
*Paper_Space
 70
     0
 10
0.0
 20
0.0
 30
0.0
  3
*Paper_Space
  1

  0
ENDBLK
  5
1D
330
1B
100
AcDbEntity
 67
     1
  8
0
100
AcDbBlockEnd
  0
BLOCK
  5
24
330
23
100
AcDbEntity
  8
0
100
AcDbBlockBegin
  2
*Paper_Space0
 70
     0
 10
0.0
 20
0.0
 30
0.0
  3
*Paper_Space0
  1

  0
ENDBLK
  5
25
330
23
100
AcDbEntity
  8
0
100
AcDbBlockEnd
  0
BLOCK
  5
49
330
48
100
AcDbEntity
  8
0
100
AcDbBlockBegin
  2
Urheberrecht_DE-EN
 70
     0
 10
-8.28298592137965
 20
319.076422210131
 30
0.0
  3
Urheberrecht_DE-EN
  1

  0
MTEXT
  5
6F
330
48
100
AcDbEntity
  8
1
 62
     1
100
AcDbMText
 10
-8.28298592137965
 20
319.076422210131
 30
0.0
 40
2.0
 41
0.0
 71
     7
 72
     1
  1
We own the copyright of this document. It \Pdetermined and may neither be copied or \Pmade accessible to outsiders without our\Ppermission.
  7
CONVERTER_11
 11
0.0
 21
1.0
 31
0.0
 73
     1
 44
0.90036014405762
  0
MTEXT
  5
70
330
48
100
AcDbEntity
  8
1
 62
     1
100
AcDbMText
 10
-8.28298592137965
 20
262.7870352928248
 30
0.0
 40
2.0
 41
0.0
 71
     7
 72
     1
  1
F\U+00fcr diese Unterlage behalten wir das Ur-\Pheberrecht. Sie darf nur f\U+00fcr den von uns \Pbestimmten Zweck benutzt und ohne unsere \PZustimmung weder vervielf\U+00e4ltigt noch\PDritten zug\U+00e4nglich gemacht werden.
  7
CONVERTER_11
 11
0.0
 21
1.0
 31
0.0
 73
     1
 44
0.90036014405762
  0
ENDBLK
  5
4A
330
48
100
AcDbEntity
  8
0
100
AcDbBlockEnd
  0
BLOCK
  5
108
330
101
100
AcDbEntity
  8
0
100
AcDbBlockBegin
  2
*D2
 70
     1
 10
0.0
 20
0.0
 30
0.0
  3
*D2
  1

  0
LINE
  5
102
330
101
100
AcDbEntity
  8
1
  6
Continuous
 62
     2
100
AcDbLine
 10
259.863336932673
 20
309.2749263919
 30
0.0
 11
259.863336932673
 21
297.2749263919
 31
0.0
  0
LINE
  5
103
330
101
100
AcDbEntity
  8
1
  6
Continuous
 62
     2
100
AcDbLine
 10
251.0845489829
 20
309.2749263919
 30
0.0
 11
261.863336932673
 21
309.2749263919
 31
0.0
  0
LINE
  5
104
330
101
100
AcDbEntity
  8
1
  6
Continuous
 62
     2
100
AcDbLine
 10
251.0845489829
 20
297.2749263919
 30
0.0
 11
261.863336932673
 21
297.2749263919
 31
0.0
  0
SOLID
  5
105
330
101
100
AcDbEntity
  8
1
 62
     2
100
AcDbTrace
 10
260.3241206742289
 20
305.7749263919
 30
0.0
 11
259.4025531911171
 21
305.7749263919
 31
0.0
 12
259.863336932673
 22
309.2749263919
 32
0.0
 13
259.863336932673
 23
309.2749263919
 33
0.0
  0
SOLID
  5
106
330
101
100
AcDbEntity
  8
1
 62
     2
100
AcDbTrace
 10
259.4025531911171
 20
300.7749263919
 30
0.0
 11
260.3241206742289
 21
300.7749263919
 31
0.0
 12
259.863336932673
 22
297.2749263919
 32
0.0
 13
259.863336932673
 23
297.2749263919
 33
0.0
  0
MTEXT
  5
107
330
101
100
AcDbEntity
  8
1
 62
     3
100
AcDbMText
 10
257.863336932673
 20
294.68605544366
 30
0.0
 40
3.5
 41
0.0
 71
     7
 72
     1
  1
\C3;%%c\C3;\C3;12\C2;\H2.45;\S^ ;\C3;
  7
CONVERTER_11
 11
0.0
 21
1.0
 31
0.0
 73
     1
 44
0.60024009603842
  0
ENDBLK
  5
109
330
101
100
AcDbEntity
  8
0
100
AcDbBlockEnd
  0
BLOCK
  5
113
330
10C
100
AcDbEntity
  8
0
100
AcDbBlockBegin
  2
*D3
 70
     1
 10
0.0
 20
0.0
 30
0.0
  3
*D3
  1

  0
LINE
  5
10D
330
10C
100
AcDbEntity
  8
1
  6
Continuous
 62
     2
100
AcDbLine
 10
268.721958345562
 20
315.2749263918466
 30
0.0
 11
268.721958345562
 21
291.2749263918486
 31
0.0
  0
LINE
  5
10E
330
10C
100
AcDbEntity
  8
1
  6
Continuous
 62
     2
100
AcDbLine
 10
251.0845489829
 20
315.2749263918466
 30
0.0
 11
270.721958345562
 21
315.2749263918466
 31
0.0
  0
LINE
  5
10F
330
10C
100
AcDbEntity
  8
1
  6
Continuous
 62
     2
100
AcDbLine
 10
251.0845489829
 20
291.2749263918486
 30
0.0
 11
270.721958345562
 21
291.2749263918486
 31
0.0
  0
SOLID
  5
110
330
10C
100
AcDbEntity
  8
1
 62
     2
100
AcDbTrace
 10
269.1827420871178
 20
311.7749263918466
 30
0.0
 11
268.2611746040061
 21
311.7749263918466
 31
0.0
 12
268.721958345562
 22
315.2749263918466
 32
0.0
 13
268.721958345562
 23
315.2749263918466
 33
0.0
  0
SOLID
  5
111
330
10C
100
AcDbEntity
  8
1
 62
     2
100
AcDbTrace
 10
268.2611746040061
 20
294.7749263918486
 30
0.0
 11
269.1827420871178
 21
294.7749263918486
 31
0.0
 12
268.721958345562
 22
291.2749263918486
 32
0.0
 13
268.721958345562
 23
291.2749263918486
 33
0.0
  0
MTEXT
  5
112
330
10C
100
AcDbEntity
  8
1
 62
     3
100
AcDbMText
 10
266.721958345562
 20
294.751459356695
 30
0.0
 40
3.5
 41
0.0
 71
     7
 72
     1
  1
\C3;%%c\C3;\C3;24\C2;\H2.45;\S^ ;\C3;
  7
CONVERTER_11
 11
0.0
 21
1.0
 31
0.0
 73
     1
 44
0.60024009603842
  0
ENDBLK
  5
114
330
10C
100
AcDbEntity
  8
0
100
AcDbBlockEnd
  0
BLOCK
  5
11E
330
117
100
AcDbEntity
  8
0
100
AcDbBlockBegin
  2
*D4
 70
     1
 10
0.0
 20
0.0
 30
0.0
  3
*D4
  1

  0
LINE
  5
118
330
117
100
AcDbEntity
  8
1
  6
Continuous
 62
     2
100
AcDbLine
 10
276.488420954123
 20
319.2749263919
 30
0.0
 11
276.488420954123
 21
287.2749263919
 31
0.0
  0
LINE
  5
119
330
117
100
AcDbEntity
  8
1
  6
Continuous
 62
     2
100
AcDbLine
 10
200.2597300382
 20
319.2749263919
 30
0.0
 11
278.488420954123
 21
319.2749263919
 31
0.0
  0
LINE
  5
11A
330
117
100
AcDbEntity
  8
1
  6
Continuous
 62
     2
100
AcDbLine
 10
200.2597300382
 20
287.2749263919
 30
0.0
 11
278.488420954123
 21
287.2749263919
 31
0.0
  0
SOLID
  5
11B
330
117
100
AcDbEntity
  8
1
 62
     2
100
AcDbTrace
 10
276.9492046956789
 20
315.7749263919
 30
0.0
 11
276.0276372125671
 21
315.7749263919
 31
0.0
 12
276.488420954123
 22
319.2749263919
 32
0.0
 13
276.488420954123
 23
319.2749263919
 33
0.0
  0
SOLID
  5
11C
330
117
100
AcDbEntity
  8
1
 62
     2
100
AcDbTrace
 10
276.0276372125671
 20
290.7749263919
 30
0.0
 11
276.9492046956789
 21
290.7749263919
 31
0.0
 12
276.488420954123
 22
287.2749263919
 32
0.0
 13
276.488420954123
 23
287.2749263919
 33
0.0
  0
MTEXT
  5
11D
330
117
100
AcDbEntity
  8
1
 62
     3
100
AcDbMText
 10
274.488420954123
 20
294.872810334954
 30
0.0
 40
3.5
 41
0.0
 71
     7
 72
     1
  1
\C3;%%c\C3;\C3;32\C2;\H2.45;\S^ ;\C3;
  7
CONVERTER_11
 11
0.0
 21
1.0
 31
0.0
 73
     1
 44
0.60024009603842
  0
ENDBLK
  5
11F
330
117
100
AcDbEntity
  8
0
100
AcDbBlockEnd
  0
BLOCK
  5
129
330
122
100
AcDbEntity
  8
0
100
AcDbBlockBegin
  2
*D5
 70
     1
 10
0.0
 20
0.0
 30
0.0
  3
*D5
  1

  0
LINE
  5
123
330
122
100
AcDbEntity
  8
1
  6
Continuous
 62
     2
100
AcDbLine
 10
249.0845489829
 20
360.786466214044
 30
0.0
 11
78.0845489829
 21
360.786466214044
 31
0.0
  0
LINE
  5
124
330
122
100
AcDbEntity
  8
1
  6
Continuous
 62
     2
100
AcDbLine
 10
249.0845489829
 20
316.3505359002
 30
0.0
 11
249.0845489829
 21
362.786466214044
 31
0.0
  0
LINE
  5
125
330
122
100
AcDbEntity
  8
1
  6
Continuous
 62
     2
100
AcDbLine
 10
78.0845489829
 20
355.2748894707
 30
0.0
 11
78.0845489829
 21
362.786466214044
 31
0.0
  0
SOLID
  5
126
330
122
100
AcDbEntity
  8
1
 62
     2
100
AcDbTrace
 10
245.5845489829
 20
360.3256824724882
 30
0.0
 11
245.5845489829
 21
361.2472499555999
 31
0.0
 12
249.0845489829
 22
360.786466214044
 32
0.0
 13
249.0845489829
 23
360.786466214044
 33
0.0
  0
SOLID
  5
127
330
122
100
AcDbEntity
  8
1
 62
     2
100
AcDbTrace
 10
81.5845489829
 20
361.2472499555999
 30
0.0
 11
81.5845489829
 21
360.3256824724882
 31
0.0
 12
78.0845489829
 22
360.786466214044
 32
0.0
 13
78.0845489829
 23
360.786466214044
 33
0.0
  0
MTEXT
  5
128
330
122
100
AcDbEntity
  8
1
 62
     3
100
AcDbMText
 10
163.903558042378
 20
362.786466214044
 30
0.0
 40
3.5
 41
0.0
 71
     7
 72
     1
  1
\C3;\C3;\C3;171\C2;\H2.45;\S^ ;\C3;
  7
CONVERTER_11
 11
0.9999999999970619
 21
2.424068405545306E-6
 31
0.0
 73
     1
 44
0.60024009603842
  0
ENDBLK
  5
12A
330
122
100
AcDbEntity
  8
0
100
AcDbBlockEnd
  0
BLOCK
  5
134
330
12D
100
AcDbEntity
  8
0
100
AcDbBlockBegin
  2
*D6
 70
     1
 10
0.0
 20
0.0
 30
0.0
  3
*D6
  1

  0
LINE
  5
12E
330
12D
100
AcDbEntity
  8
1
  6
Continuous
 62
     2
100
AcDbLine
 10
249.0845489829
 20
368.65283416215
 30
0.0
 11
49.0845489829
 21
368.65283416215
 31
0.0
  0
LINE
  5
12F
330
12D
100
AcDbEntity
  8
1
  6
Continuous
 62
     2
100
AcDbLine
 10
249.0845489829
 20
316.3505359002
 30
0.0
 11
249.0845489829
 21
370.65283416215
 31
0.0
  0
LINE
  5
130
330
12D
100
AcDbEntity
  8
1
  6
Continuous
 62
     2
100
AcDbLine
 10
49.0845489829
 20
355.2749263919
 30
0.0
 11
49.0845489829
 21
370.65283416215
 31
0.0
  0
SOLID
  5
131
330
12D
100
AcDbEntity
  8
1
 62
     2
100
AcDbTrace
 10
245.5845489829
 20
368.1920504205941
 30
0.0
 11
245.5845489829
 21
369.1136179037059
 31
0.0
 12
249.0845489829
 22
368.65283416215
 32
0.0
 13
249.0845489829
 23
368.65283416215
 33
0.0
  0
SOLID
  5
132
330
12D
100
AcDbEntity
  8
1
 62
     2
100
AcDbTrace
 10
52.5845489829
 20
369.1136179037059
 30
0.0
 11
52.5845489829
 21
368.1920504205941
 31
0.0
 12
49.0845489829
 22
368.65283416215
 32
0.0
 13
49.0845489829
 23
368.65283416215
 33
0.0
  0
MTEXT
  5
133
330
12D
100
AcDbEntity
  8
1
 62
     3
100
AcDbMText
 10
145.501434251257
 20
370.65283416215
 30
0.0
 40
3.5
 41
0.0
 71
     7
 72
     1
  1
\C3;\C3;\C3;200\C2;\H2.45;\S^ ;\C3;
  7
CONVERTER_11
 11
0.9999999999970619
 21
2.424068405545306E-6
 31
0.0
 73
     1
 44
0.60024009603842
  0
ENDBLK
  5
135
330
12D
100
AcDbEntity
  8
0
100
AcDbBlockEnd
  0
BLOCK
  5
13F
330
138
100
AcDbEntity
  8
0
100
AcDbBlockBegin
  2
*D7
 70
     1
 10
0.0
 20
0.0
 30
0.0
  3
*D7
  1

  0
LINE
  5
139
330
138
100
AcDbEntity
  8
1
  6
Continuous
 62
     2
100
AcDbLine
 10
249.0845489829
 20
375.787446952293
 30
0.0
 11
-0.9154510171
 21
375.787446952293
 31
0.0
  0
LINE
  5
13A
330
138
100
AcDbEntity
  8
1
  6
Continuous
 62
     2
100
AcDbLine
 10
249.0845489829
 20
316.3505359002
 30
0.0
 11
249.0845489829
 21
377.787446952293
 31
0.0
  0
LINE
  5
13B
330
138
100
AcDbEntity
  8
1
  6
Continuous
 62
     2
100
AcDbLine
 10
-0.9154510171
 20
338.8751179544
 30
0.0
 11
-0.9154510171
 21
377.787446952293
 31
0.0
  0
SOLID
  5
13C
330
138
100
AcDbEntity
  8
1
 62
     2
100
AcDbTrace
 10
245.5845489829
 20
375.3266632107371
 30
0.0
 11
245.5845489829
 21
376.2482306938489
 31
0.0
 12
249.0845489829
 22
375.787446952293
 32
0.0
 13
249.0845489829
 23
375.787446952293
 33
0.0
  0
SOLID
  5
13D
330
138
100
AcDbEntity
  8
1
 62
     2
100
AcDbTrace
 10
2.5845489829
 20
376.2482306938489
 30
0.0
 11
2.5845489829
 21
375.3266632107371
 31
0.0
 12
-0.9154510171
 22
375.787446952293
 32
0.0
 13
-0.9154510171
 23
375.787446952293
 33
0.0
  0
MTEXT
  5
13E
330
138
100
AcDbEntity
  8
1
 62
     3
100
AcDbMText
 10
127.939310460136
 20
377.787446952293
 30
0.0
 40
3.5
 41
0.0
 71
     7
 72
     1
  1
\C3;\C3;\C3;250\C2;\H2.45;\S^ ;\C3;
  7
CONVERTER_11
 11
0.9999999999970619
 21
2.424068405545306E-6
 31
0.0
 73
     1
 44
0.60024009603842
  0
ENDBLK
  5
140
330
138
100
AcDbEntity
  8
0
100
AcDbBlockEnd
  0
BLOCK
  5
147
330
143
100
AcDbEntity
  8
0
100
AcDbBlockBegin
  2
*D8
 70
     1
 10
0.0
 20
0.0
 30
0.0
  3
*D8
  1

  0
LINE
  5
144
330
143
100
AcDbEntity
  8
1
  6
Continuous
 62
     2
100
AcDbLine
 10
94.73876815325983
 20
341.9352302080614
 30
0.0
 11
82.83753353225077
 21
331.8322023089021
 31
0.0
  0
SOLID
  5
145
330
143
100
AcDbEntity
  8
1
 62
     2
100
AcDbTrace
 10
85.2075585665995
 20
334.448555303634
 30
0.0
 11
85.80396390562748
 21
333.7459976209432
 31
0.0
 12
82.83753353225077
 22
331.8322023089021
 32
0.0
 13
82.83753353225077
 23
331.8322023089021
 33
0.0
  0
MTEXT
  5
146
330
143
100
AcDbEntity
  8
1
 62
     3
100
AcDbMText
 10
85.86667338664016
 20
337.0271211575084
 30
0.0
 40
3.5
 41
0.0
 71
     7
 72
     1
  1
\C3; R\C3;\C3;20\C2;\H2.45;\S^ ;\C3;
  7
CONVERTER_11
 11
0.7623507725322186
 21
0.6471640438246933
 31
0.0
 73
     1
 44
0.60024009603842
  0
ENDBLK
  5
148
330
143
100
AcDbEntity
  8
0
100
AcDbBlockEnd
  0
BLOCK
  5
151
330
14A
100
AcDbEntity
  8
0
100
AcDbBlockBegin
  2
*D9
 70
     1
 10
0.0
 20
0.0
 30
0.0
  3
*D9
  1

  0
LINE
  5
14B
330
14A
100
AcDbEntity
  8
1
  6
Continuous
 62
     2
100
AcDbLine
 10
229.7219332300211
 20
319.2749263919
 30
0.0
 11
231.7219332300211
 21
319.2749263919
 31
0.0
  0
LINE
  5
14C
330
14A
100
AcDbEntity
  8
1
  6
Continuous
 62
     2
100
AcDbLine
 10
200.2597300382
 20
319.2749263919
 30
0.0
 11
229.7219332300211
 21
319.2749263919
 31
0.0
  0
ARC
  5
14D
330
14A
100
AcDbEntity
  8
1
  6
Continuous
 62
     2
100
AcDbCircle
 10
198.2597300382
 20
319.2749263919
 30
0.0
 40
31.46220319182108
100
AcDbArc
 50
345.9392314609218
 51
18.42508568042104
  0
SOLID
  5
14E
330
14A
100
AcDbEntity
  8
1
 62
     2
100
AcDbTrace
 10
229.6134287815754
 20
313.2762478044033
 30
0.0
 11
228.7001427298098
 21
313.3995166714351
 31
0.0
 12
229.6249457575564
 22
316.8064303798159
 32
0.0
 13
229.6249457575564
 23
316.8064303798159
 33
0.0
  0
SOLID
  5
14F
330
14A
100
AcDbEntity
  8
1
 62
     2
100
AcDbTrace
 10
229.0672844301592
 20
322.7438969316022
 30
0.0
 11
229.9874266896598
 21
322.7951302040921
 31
0.0
 12
229.7219332300211
 22
319.2749263919
 32
0.0
 13
229.7219332300211
 23
319.2749263919
 33
0.0
  0
MTEXT
  5
150
330
14A
100
AcDbEntity
  8
1
 62
     3
100
AcDbMText
 10
230.1832426349119
 20
329.9099915509998
 30
0.0
 40
3.5
 41
0.0
 71
     7
 72
     1
  1
\C3;\C3;\C3;4.5%%d\C2;\H2.45;\S^ ;\C3;
  7
CONVERTER_11
 11
0.2146438943804981
 21
-0.9766923766494616
 31
0.0
 73
     1
 44
0.60024009603842
  0
ENDBLK
  5
152
330
14A
100
AcDbEntity
  8
0
100
AcDbBlockEnd
  0
ENDSEC
  0
SECTION
  2
ENTITIES
  0
INSERT
  5
6D
330
1F
100
AcDbEntity
  8
0
100
AcDbBlockReference
  2
Urheberrecht_DE-EN
 10
-8.28298592137965
 20
319.076422210131
 30
0.0
  0
LINE
  5
71
330
1F
100
AcDbEntity
  8
BEZUGSACHSEN
  6
Continuous
 62
     7
100
AcDbLine
 10
-0.9154510171
 20
269.6747348289
 30
0.0
 11
-0.9154510171
 21
291.2649263919
 31
0.0
  0
LINE
  5
72
330
1F
100
AcDbEntity
  8
BEZUGSACHSEN
  6
Continuous
 62
     7
100
AcDbLine
 10
-0.9154510171
 20
315.2849263919
 30
0.0
 11
-0.9154510171
 21
336.8751179544
 31
0.0
  0
LINE
  5
73
330
1F
100
AcDbEntity
  8
BEZUGSACHSEN
  6
Continuous
 62
     9
100
AcDbLine
 10
0.9844744981
 20
338.8726126602
 30
0.0
 11
0.9844744981
 21
318.9514587781
 31
0.0
  0
LINE
  5
74
330
1F
100
AcDbEntity
  8
BEZUGSACHSEN
  6
Continuous
 62
     9
100
AcDbLine
 10
0.9844744981
 20
287.5983940056
 30
0.0
 11
0.9844744981
 21
267.6772401235
 31
0.0
  0
LINE
  5
75
330
1F
100
AcDbEntity
  8
BEZUGSACHSEN
  6
Continuous
 62
     7
100
AcDbLine
 10
1.0845489829
 20
290.8712864435
 30
0.0
 11
1.0845489829
 21
293.2649263919
 31
0.0
  0
LINE
  5
76
330
1F
100
AcDbEntity
  8
BEZUGSACHSEN
  6
Continuous
 62
     7
100
AcDbLine
 10
1.0845489829
 20
313.2849263919
 30
0.0
 11
1.0845489829
 21
315.6785663402
 31
0.0
  0
LINE
  5
77
330
1F
100
AcDbEntity
  8
BEZUGSACHSEN
  6
Continuous
 62
     9
100
AcDbLine
 10
7.0845489829
 20
286.9162788044
 30
0.0
 11
7.0845489829
 21
293.2649263919
 31
0.0
  0
LINE
  5
78
330
1F
100
AcDbEntity
  8
BEZUGSACHSEN
  6
Continuous
 62
     9
100
AcDbLine
 10
7.0845489829
 20
313.2849263919
 30
0.0
 11
7.0845489829
 21
319.6335739793
 31
0.0
  0
LINE
  5
79
330
1F
100
AcDbEntity
  8
BEZUGSACHSEN
  6
Continuous
 62
     7
100
AcDbLine
 10
9.0845489829
 20
316.1445819177
 30
0.0
 11
9.0845489829
 21
290.4052708661
 31
0.0
  0
LINE
  5
7A
330
1F
100
AcDbEntity
  8
BEZUGSACHSEN
  6
Continuous
 62
     7
100
AcDbLine
 10
0.3515019099
 20
288.2649263919
 30
0.0
 11
0.2303916585
 21
288.0325903964
 31
0.0
  0
LINE
  5
7B
330
1F
100
AcDbEntity
  8
BEZUGSACHSEN
  6
Continuous
 62
     7
100
AcDbLine
 10
0.2303916585
 20
318.5172623873
 30
0.0
 11
0.3515019099
 21
318.2849263919
 31
0.0
  0
LWPOLYLINE
  5
7C
330
1F
100
AcDbEntity
  8
BEZUGSACHSEN
  6
DOT_CENTER
 62
     7
100
AcDbPolyline
 90
        2
 70
     0
 43
0.25
 10
34.0845489829
 20
303.2749263919
 10
34.0845489829
 20
294.2749263919
  0
LWPOLYLINE
  5
7D
330
1F
100
AcDbEntity
  8
BEZUGSACHSEN
  6
DOT_CENTER
 62
     7
100
AcDbPolyline
 90
        2
 70
     0
 43
0.25
 10
34.0845489829
 20
303.2749263919
 10
34.0845489829
 20
312.2749263919
  0
LINE
  5
7E
330
1F
100
AcDbEntity
  8
BEZUGSACHSEN
  6
Continuous
 62
     7
100
AcDbLine
 10
-0.9154510171
 20
291.2649263919
 30
0.0
 11
1.0845489829
 21
293.2649263919
 31
0.0
  0
LINE
  5
7F
330
1F
100
AcDbEntity
  8
BEZUGSACHSEN
  6
Continuous
 62
     7
100
AcDbLine
 10
1.0845489829
 20
313.2849263919
 30
0.0
 11
-0.9154510171
 21
315.2849263919
 31
0.0
  0
LINE
  5
80
330
1F
100
AcDbEntity
  8
BEZUGSACHSEN
  6
Continuous
 62
     7
100
AcDbLine
 10
46.5845489829
 20
341.1571763919
 30
0.0
 11
46.5845489829
 21
265.3926763919
 31
0.0
  0
LINE
  5
81
330
1F
100
AcDbEntity
  8
BEZUGSACHSEN
  6
Continuous
 62
     9
100
AcDbLine
 10
47.2037925969
 20
265.5586022182
 30
0.0
 11
47.2037925969
 21
340.9912505656
 31
0.0
  0
LINE
  5
82
330
1F
100
AcDbEntity
  8
BEZUGSACHSEN
  6
Continuous
 62
     9
100
AcDbLine
 10
47.462611642
 20
265.5926763919
 30
0.0
 11
47.462611642
 21
340.9571763919
 31
0.0
  0
LINE
  5
83
330
1F
100
AcDbEntity
  8
BEZUGSACHSEN
  6
Continuous
 62
     9
100
AcDbLine
 10
48.3839776942
 20
265.5926763919
 30
0.0
 11
48.3839776942
 21
340.9571763919
 31
0.0
  0
LINE
  5
84
330
1F
100
AcDbEntity
  8
BEZUGSACHSEN
  6
Continuous
 62
     7
100
AcDbLine
 10
49.0845489829
 20
353.2749263919
 30
0.0
 11
49.0845489829
 21
253.2749263919
 31
0.0
  0
LINE
  5
85
330
1F
100
AcDbEntity
  8
BEZUGSACHSEN
  6
CENTER
 62
     7
100
AcDbLine
 10
56.0845489829
 20
345.4242982472
 30
0.0
 11
56.0845489829
 21
356.2749263919
 31
0.0
  0
LINE
  5
86
330
1F
100
AcDbEntity
  8
FASEN
  6
Continuous
 62
     9
100
AcDbLine
 10
62.0564229047
 20
271.3749263919
 30
0.0
 11
62.0564229047
 21
271.7749263919
 31
0.0
  0
LINE
  5
87
330
1F
100
AcDbEntity
  8
BEZUGSACHSEN
  6
Continuous
 62
     7
100
AcDbLine
 10
70.9595489829
 20
350.8975216561
 30
0.0
 11
72.3321442471
 21
353.2749263919
 31
0.0
  0
LINE
  5
88
330
1F
100
AcDbEntity
  8
BEZUGSACHSEN
  6
Continuous
 62
     7
100
AcDbLine
 10
70.9595489829
 20
255.6523311277
 30
0.0
 11
72.3321442471
 21
253.2749263919
 31
0.0
  0
LINE
  5
89
330
1F
100
AcDbEntity
  8
FASEN
  6
Continuous
 62
     9
100
AcDbLine
 10
64.0845489829
 20
293.6749263919
 30
0.0
 11
64.0845489829
 21
293.2749263919
 31
0.0
  0
LINE
  5
8A
330
1F
100
AcDbEntity
  8
FASEN
  6
Continuous
 62
     9
100
AcDbLine
 10
64.0845489829
 20
312.8749263919
 30
0.0
 11
64.0845489829
 21
313.2749263919
 31
0.0
  0
LINE
  5
8B
330
1F
100
AcDbEntity
  8
0
  6
Continuous
 62
     7
100
AcDbLine
 10
65.8369537187
 20
353.2749263919
 30
0.0
 11
65.8369537187
 21
313.2749263919
 31
0.0
  0
LINE
  5
8C
330
1F
100
AcDbEntity
  8
0
  6
Continuous
 62
     7
100
AcDbLine
 10
65.8369537187
 20
293.2749263919
 30
0.0
 11
65.8369537187
 21
271.7749263919
 31
0.0
  0
LINE
  5
8D
330
1F
100
AcDbEntity
  8
0
  6
Continuous
 62
     7
100
AcDbLine
 10
65.8369537187
 20
264.4451697612
 30
0.0
 11
65.8369537187
 21
253.2749263919
 31
0.0
  0
LINE
  5
8E
330
1F
100
AcDbEntity
  8
0
  6
Continuous
 62
     7
100
AcDbLine
 10
67.2095489829
 20
350.8974882295
 30
0.0
 11
67.2095489829
 21
313.2749263919
 31
0.0
  0
LINE
  5
8F
330
1F
100
AcDbEntity
  8
0
  6
Continuous
 62
     7
100
AcDbLine
 10
67.2095489829
 20
293.2749263919
 30
0.0
 11
67.2095489829
 21
271.7749263919
 31
0.0
  0
LINE
  5
90
330
1F
100
AcDbEntity
  8
0
  6
Continuous
 62
     7
100
AcDbLine
 10
67.2095489829
 20
255.6523686616
 30
0.0
 11
67.2095489829
 21
268.3929826387
 31
0.0
  0
LINE
  5
91
330
1F
100
AcDbEntity
  8
0
  6
Continuous
 62
     9
100
AcDbLine
 10
68.2095489829
 20
257.2749263919
 30
0.0
 11
68.2095489829
 21
269.7525458081
 31
0.0
  0
LINE
  5
92
330
1F
100
AcDbEntity
  8
0
  6
Continuous
 62
     9
100
AcDbLine
 10
68.2095489829
 20
271.7749263919
 30
0.0
 11
68.2095489829
 21
293.2749263919
 31
0.0
  0
LINE
  5
93
330
1F
100
AcDbEntity
  8
0
  6
Continuous
 62
     9
100
AcDbLine
 10
68.2095489829
 20
313.2749263919
 30
0.0
 11
68.2095489829
 21
349.2749263919
 31
0.0
  0
LINE
  5
94
330
1F
100
AcDbEntity
  8
0
  6
Continuous
 62
     9
100
AcDbLine
 10
69.9595489829
 20
257.2749263919
 30
0.0
 11
69.9595489829
 21
269.7525458081
 31
0.0
  0
LINE
  5
95
330
1F
100
AcDbEntity
  8
0
  6
Continuous
 62
     9
100
AcDbLine
 10
69.9595489829
 20
271.7749263919
 30
0.0
 11
69.9595489829
 21
293.2749263919
 31
0.0
  0
LINE
  5
96
330
1F
100
AcDbEntity
  8
0
  6
Continuous
 62
     9
100
AcDbLine
 10
69.9595489829
 20
313.2749263919
 30
0.0
 11
69.9595489829
 21
349.2749263919
 31
0.0
  0
LINE
  5
97
330
1F
100
AcDbEntity
  8
0
  6
Continuous
 62
     7
100
AcDbLine
 10
70.9595489829
 20
255.6523686616
 30
0.0
 11
70.9595489829
 21
268.3929826387
 31
0.0
  0
LINE
  5
98
330
1F
100
AcDbEntity
  8
0
  6
Continuous
 62
     7
100
AcDbLine
 10
70.9595489829
 20
271.7749263919
 30
0.0
 11
70.9595489829
 21
293.2749263919
 31
0.0
  0
LINE
  5
99
330
1F
100
AcDbEntity
  8
0
  6
Continuous
 62
     7
100
AcDbLine
 10
70.9595489829
 20
313.2749263919
 30
0.0
 11
70.9595489829
 21
350.8974882295
 31
0.0
  0
LINE
  5
9A
330
1F
100
AcDbEntity
  8
0
  6
Continuous
 62
     7
100
AcDbLine
 10
72.3321442471
 20
353.2749263919
 30
0.0
 11
72.3321442471
 21
313.2749263919
 31
0.0
  0
LINE
  5
9B
330
1F
100
AcDbEntity
  8
0
  6
Continuous
 62
     7
100
AcDbLine
 10
72.3321442471
 20
293.2749263919
 30
0.0
 11
72.3321442471
 21
271.7749263919
 31
0.0
  0
LINE
  5
9C
330
1F
100
AcDbEntity
  8
0
  6
Continuous
 62
     7
100
AcDbLine
 10
72.3321442471
 20
264.4451697612
 30
0.0
 11
72.3321442471
 21
253.2749263919
 31
0.0
  0
LINE
  5
9D
330
1F
100
AcDbEntity
  8
0
  6
Continuous
 62
     7
100
AcDbLine
 10
78.0845489829
 20
353.2748894707
 30
0.0
 11
78.0845489829
 21
313.2749263919
 31
0.0
  0
LINE
  5
9E
330
1F
100
AcDbEntity
  8
0
  6
Continuous
 62
     7
100
AcDbLine
 10
78.0845489829
 20
293.2749263919
 30
0.0
 11
78.0845489829
 21
271.7749263919
 31
0.0
  0
LINE
  5
9F
330
1F
100
AcDbEntity
  8
0
  6
Continuous
 62
     7
100
AcDbLine
 10
78.0845489829
 20
264.4451697612
 30
0.0
 11
78.0845489829
 21
253.2749282596
 31
0.0
  0
LINE
  5
A0
330
1F
100
AcDbEntity
  8
FASEN
  6
Continuous
 62
     7
100
AcDbLine
 10
78.0845489829
 20
264.4451697612
 30
0.0
 11
78.0845489829
 21
271.7749263919
 31
0.0
  0
LINE
  5
A1
330
1F
100
AcDbEntity
  8
FASEN
  6
Continuous
 62
     7
100
AcDbLine
 10
78.0845489829
 20
293.2749263919
 30
0.0
 11
78.0845489829
 21
313.2749263919
 31
0.0
  0
LINE
  5
A2
330
1F
100
AcDbEntity
  8
BEZUGSACHSEN
  6
Continuous
 62
     9
100
AcDbLine
 10
-0.9154510171
 20
289.8287424228
 30
0.0
 11
1.0845489829
 21
290.8712864435
 31
0.0
  0
LINE
  5
A3
330
1F
100
AcDbEntity
  8
BEZUGSACHSEN
  6
Continuous
 62
     7
100
AcDbLine
 10
65.8369537187
 20
253.2749263919
 30
0.0
 11
49.0845489829
 21
253.2749263919
 31
0.0
  0
LINE
  5
A4
330
1F
100
AcDbEntity
  8
BEZUGSACHSEN
  6
Continuous
 62
     7
100
AcDbLine
 10
72.3321442471
 20
253.2749263919
 30
0.0
 11
78.0845489829
 21
253.2749263919
 31
0.0
  0
LINE
  5
A5
330
1F
100
AcDbEntity
  8
BEZUGSACHSEN
  6
Continuous
 62
     7
100
AcDbLine
 10
68.2095489829
 20
257.2749263919
 30
0.0
 11
69.9595489829
 21
257.2749263919
 31
0.0
  0
LINE
  5
A6
330
1F
100
AcDbEntity
  8
BEZUGSACHSEN
  6
Continuous
 62
     9
100
AcDbLine
 10
1.0845489829
 20
315.6785663402
 30
0.0
 11
-0.9154510171
 21
316.7211103609
 31
0.0
  0
LINE
  5
A7
330
1F
100
AcDbEntity
  8
FASEN
  6
Continuous
 62
     7
100
AcDbLine
 10
54.4860349473
 20
264.4451697612
 30
0.0
 11
65.8369537187
 21
264.4451697612
 31
0.0
  0
LINE
  5
A8
330
1F
100
AcDbEntity
  8
0
  6
Continuous
 62
     7
100
AcDbLine
 10
72.3321442471
 20
264.4451697612
 30
0.0
 11
78.0845489829
 21
264.4451697612
 31
0.0
  0
LINE
  5
A9
330
1F
100
AcDbEntity
  8
BEZUGSACHSEN
  6
Continuous
 62
     7
100
AcDbLine
 10
48.3839776942
 20
265.5926763919
 30
0.0
 11
47.462611642
 21
265.5926763919
 31
0.0
  0
LINE
  5
AA
330
1F
100
AcDbEntity
  8
BEZUGSACHSEN
  6
Continuous
 62
     7
100
AcDbLine
 10
0.9844744981
 20
267.6772401235
 30
0.0
 11
46.5845489829
 21
265.3926763919
 31
0.0
  0
LINE
  5
AB
330
1F
100
AcDbEntity
  8
RUNDUNGEN
  6
Continuous
 62
     9
100
AcDbLine
 10
93.7367228959
 20
325.2537924718
 30
0.0
 11
93.7367228959
 21
281.2960603119
 31
0.0
  0
LINE
  5
AC
330
1F
100
AcDbEntity
  8
0
  6
Continuous
 62
     7
100
AcDbLine
 10
68.2095489829
 20
269.7525458081
 30
0.0
 11
69.9595489829
 21
269.7525458081
 31
0.0
  0
LINE
  5
AD
330
1F
100
AcDbEntity
  8
FASEN
  6
Continuous
 62
     7
100
AcDbLine
 10
62.0564229047
 20
271.3749263919
 30
0.0
 11
78.0845489829
 21
271.3749263919
 31
0.0
  0
LINE
  5
AE
330
1F
100
AcDbEntity
  8
0
  6
Continuous
 62
     7
100
AcDbLine
 10
62.0564229047
 20
271.7749263919
 30
0.0
 11
78.0845489829
 21
271.7749263919
 31
0.0
  0
LINE
  5
AF
330
1F
100
AcDbEntity
  8
BEZUGSACHSEN
  6
Continuous
 62
     7
100
AcDbLine
 10
65.8369537187
 20
253.2749263919
 30
0.0
 11
67.2095489829
 21
255.6523311277
 31
0.0
  0
LINE
  5
B0
330
1F
100
AcDbEntity
  8
RUNDUNGEN
  6
Continuous
 62
     7
100
AcDbLine
 10
248.1630080786
 20
291.2023995498
 30
0.0
 11
198.2597300382
 21
287.2749263919
 31
0.0
  0
LINE
  5
B1
330
1F
100
AcDbEntity
  8
0
  6
Continuous
 62
     7
100
AcDbLine
 10
198.2597300382
 20
287.2749263919
 30
0.0
 11
248.1630080786
 21
291.2023995498
 31
0.0
  0
LINE
  5
B2
330
1F
100
AcDbEntity
  8
BEZUGSACHSEN
  6
Continuous
 62
     7
100
AcDbLine
 10
65.8369537187
 20
353.2749263919
 30
0.0
 11
67.2095489829
 21
350.8975216561
 31
0.0
  0
LINE
  5
B3
330
1F
100
AcDbEntity
  8
BEZUGSACHSEN
  6
Continuous
 62
     7
100
AcDbLine
 10
47.2037925969
 20
265.5586022182
 30
0.0
 11
46.5845489829
 21
265.3926763919
 31
0.0
  0
LINE
  5
B4
330
1F
100
AcDbEntity
  8
0
  6
Continuous
 62
     7
100
AcDbLine
 10
198.2597300382
 20
287.2749263919
 30
0.0
 11
148.0845489829
 21
287.2749263919
 31
0.0
  0
LINE
  5
B5
330
1F
100
AcDbEntity
  8
BEZUGSACHSEN
  6
Continuous
 62
     9
100
AcDbLine
 10
8.6383949298
 20
288.2649263919
 30
0.0
 11
0.3515019099
 21
288.2649263919
 31
0.0
  0
LINE
  5
B6
330
1F
100
AcDbEntity
  8
BEZUGSACHSEN
  6
Continuous
 62
     7
100
AcDbLine
 10
7.0845489829
 20
293.2649263919
 30
0.0
 11
1.0845489829
 21
293.2649263919
 31
0.0
  0
LINE
  5
B7
330
1F
100
AcDbEntity
  8
0
  6
Continuous
 62
     7
100
AcDbLine
 10
64.0845489829
 20
293.2749263919
 30
0.0
 11
78.0845489829
 21
293.2749263919
 31
0.0
  0
LINE
  5
B8
330
1F
100
AcDbEntity
  8
FASEN
  6
Continuous
 62
     7
100
AcDbLine
 10
78.0845489829
 20
293.6749263919
 30
0.0
 11
64.0845489829
 21
293.6749263919
 31
0.0
  0
LWPOLYLINE
  5
B9
330
1F
100
AcDbEntity
  8
DEFAULT_2
  6
DASHED
 62
     8
100
AcDbPolyline
 90
        2
 70
     0
 43
0.35
 10
249.0845489829
 20
297.2749263919
 10
202.0845489829
 20
297.2749263919
  0
LWPOLYLINE
  5
BA
330
1F
100
AcDbEntity
  8
BEZUGSACHSEN
  6
DOT_CENTER
 62
     7
100
AcDbPolyline
 90
        2
 70
     0
 43
0.25
 10
252.0845489829
 20
303.2749263919
 10
-3.9154510171
 20
303.2749263919
  0
LWPOLYLINE
  5
BB
330
1F
100
AcDbEntity
  8
DEFAULT_2
  6
DASHED
 62
     8
100
AcDbPolyline
 90
        2
 70
     0
 43
0.35
 10
249.0845489829
 20
309.2749263919
 10
202.0845489829
 20
309.2749263919
  0
LINE
  5
BC
330
1F
100
AcDbEntity
  8
FASEN
  6
Continuous
 62
     7
100
AcDbLine
 10
64.0845489829
 20
312.8749263919
 30
0.0
 11
78.0845489829
 21
312.8749263919
 31
0.0
  0
LINE
  5
BD
330
1F
100
AcDbEntity
  8
0
  6
Continuous
 62
     7
100
AcDbLine
 10
64.0845489829
 20
313.2749263919
 30
0.0
 11
78.0845489829
 21
313.2749263919
 31
0.0
  0
LINE
  5
BE
330
1F
100
AcDbEntity
  8
BEZUGSACHSEN
  6
Continuous
 62
     7
100
AcDbLine
 10
7.0845489829
 20
313.2849263919
 30
0.0
 11
1.0845489829
 21
313.2849263919
 31
0.0
  0
LINE
  5
BF
330
1F
100
AcDbEntity
  8
BEZUGSACHSEN
  6
Continuous
 62
     9
100
AcDbLine
 10
0.3515019099
 20
318.2849263919
 30
0.0
 11
8.6383949298
 21
318.2849263919
 31
0.0
  0
LINE
  5
C0
330
1F
100
AcDbEntity
  8
0
  6
Continuous
 62
     7
100
AcDbLine
 10
198.2597300382
 20
319.2749263919
 30
0.0
 11
148.0845489829
 21
319.2749263919
 31
0.0
  0
LINE
  5
C1
330
1F
100
AcDbEntity
  8
BEZUGSACHSEN
  6
Continuous
 62
     7
100
AcDbLine
 10
47.2037925969
 20
340.9912505656
 30
0.0
 11
46.5845489829
 21
341.1571763919
 31
0.0
  0
LINE
  5
C2
330
1F
100
AcDbEntity
  8
0
  6
Continuous
 62
     9
100
AcDbLine
 10
148.0845489829
 20
319.2749263919
 30
0.0
 11
148.0845489829
 21
287.2749263919
 31
0.0
  0
LINE
  5
C3
330
1F
100
AcDbEntity
  8
RUNDUNGEN
  6
Continuous
 62
     7
100
AcDbLine
 10
248.1630080786
 20
315.3474532339
 30
0.0
 11
198.2597300382
 21
319.2749263919
 31
0.0
  0
LINE
  5
C4
330
1F
100
AcDbEntity
  8
0
  6
Continuous
 62
     7
100
AcDbLine
 10
198.2597300382
 20
319.2749263919
 30
0.0
 11
248.1630080786
 21
315.3474532339
 31
0.0
  0
LINE
  5
C5
330
1F
100
AcDbEntity
  8
BEZUGSACHSEN
  6
Continuous
 62
     7
100
AcDbLine
 10
46.5845489829
 20
341.1571763919
 30
0.0
 11
0.9844744981
 21
338.8726126602
 31
0.0
  0
LINE
  5
C6
330
1F
100
AcDbEntity
  8
BEZUGSACHSEN
  6
Continuous
 62
     7
100
AcDbLine
 10
48.3839776942
 20
340.9571763919
 30
0.0
 11
47.462611642
 21
340.9571763919
 31
0.0
  0
LINE
  5
C7
330
1F
100
AcDbEntity
  8
BEZUGSACHSEN
  6
Continuous
 62
     7
100
AcDbLine
 10
68.2095489829
 20
349.2749263919
 30
0.0
 11
69.9595489829
 21
349.2749263919
 31
0.0
  0
LINE
  5
C8
330
1F
100
AcDbEntity
  8
BEZUGSACHSEN
  6
Continuous
 62
     7
100
AcDbLine
 10
65.8369537187
 20
353.2749263919
 30
0.0
 11
61.0845489829
 21
353.2749263919
 31
0.0
  0
LINE
  5
C9
330
1F
100
AcDbEntity
  8
BEZUGSACHSEN
  6
Continuous
 62
     7
100
AcDbLine
 10
51.0845489829
 20
353.2749263919
 30
0.0
 11
49.0845489829
 21
353.2749263919
 31
0.0
  0
LINE
  5
CA
330
1F
100
AcDbEntity
  8
BEZUGSACHSEN
  6
Continuous
 62
     7
100
AcDbLine
 10
72.3321442471
 20
353.2749263919
 30
0.0
 11
78.0845489829
 21
353.2749263919
 31
0.0
  0
LINE
  5
CB
330
1F
100
AcDbEntity
  8
0
  6
Continuous
 62
     7
100
AcDbLine
 10
198.2597300382
 20
319.2749263919
 30
0.0
 11
198.2597300382
 21
287.2749263919
 31
0.0
  0
LWPOLYLINE
  5
CC
330
1F
100
AcDbEntity
  8
DEFAULT_2
  6
DASHED
 62
     8
100
AcDbPolyline
 90
        2
 70
     0
 43
0.35
 10
202.0845489829
 20
309.2749263919
 10
202.0845489829
 20
297.2749263919
  0
LINE
  5
CD
330
1F
100
AcDbEntity
  8
RUNDUNGEN
  6
Continuous
 62
     9
100
AcDbLine
 10
248.1630080786
 20
291.2023995498
 30
0.0
 11
248.1630080786
 21
315.3474532339
 31
0.0
  0
LINE
  5
CE
330
1F
100
AcDbEntity
  8
RUNDUNGEN
  6
Continuous
 62
     7
100
AcDbLine
 10
249.0845489829
 20
292.1993168835
 30
0.0
 11
249.0845489829
 21
314.3505359002
 31
0.0
  0
LWPOLYLINE
  5
CF
330
1F
100
AcDbEntity
  8
1
  6
Continuous
 62
     7
100
AcDbPolyline
 90
        2
 70
     0
 43
0.25
 10
249.0845489829
 20
314.3505359002
 10
249.0845489829
 20
315.2749263918466
  0
LWPOLYLINE
  5
D0
330
1F
100
AcDbEntity
  8
1
  6
Continuous
 62
     7
100
AcDbPolyline
 90
        2
 70
     0
 43
0.25
 10
248.1630080786
 20
315.3474532339
 10
249.0845489828949
 20
315.2749263918466
  0
LWPOLYLINE
  5
D1
330
1F
100
AcDbEntity
  8
1
  6
Continuous
 62
     7
100
AcDbPolyline
 90
        2
 70
     0
 43
0.25
 10
248.1630080786
 20
291.2023995498
 10
249.0845489829
 20
291.2749263918486
  0
LWPOLYLINE
  5
D2
330
1F
100
AcDbEntity
  8
1
  6
Continuous
 62
     7
100
AcDbPolyline
 90
        2
 70
     0
 43
0.25
 10
249.0845489829
 20
292.1993168835
 10
249.0845489829
 20
291.2749263918486
  0
ARC
  5
D3
330
1F
100
AcDbEntity
  8
FASEN
  6
Continuous
 62
     7
100
AcDbCircle
 10
66.9852030058
 20
278.8061896619
 30
0.0
 40
19.03859487309966
100
AcDbArc
 50
227.4837701982989
 51
228.9651953373019
  0
ARC
  5
D4
330
1F
100
AcDbEntity
  8
FASEN
  6
Continuous
 62
     7
100
AcDbCircle
 10
62.0564229047
 20
263.7749263919
 30
0.0
 40
8.0
100
AcDbArc
 50
90.0
 51
172.8323734889971
  0
ARC
  5
D5
330
1F
100
AcDbEntity
  8
FASEN
  6
Continuous
 62
     7
100
AcDbCircle
 10
62.0564229047
 20
263.7749263919
 30
0.0
 40
7.599982194900008
100
AcDbArc
 50
90.0
 51
174.9405171273017
  0
ARC
  5
D6
330
1F
100
AcDbEntity
  8
BEZUGSACHSEN
  6
Continuous
 62
     7
100
AcDbCircle
 10
7.0845489829
 20
295.2649263919
 30
0.0
 40
2.0
100
AcDbArc
 50
270.0
 51
359.9999999999137
  0
ARC
  5
D7
330
1F
100
AcDbEntity
  8
BEZUGSACHSEN
  6
Continuous
 62
     7
100
AcDbCircle
 10
1.0845489829
 20
269.6747348288
 30
0.0
 40
2.0
100
AcDbArc
 50
179.9999999971356
 51
267.1318795127
  0
ARC
  5
D8
330
1F
100
AcDbEntity
  8
BEZUGSACHSEN
  6
Continuous
 62
     7
100
AcDbCircle
 10
68.2095489829
 20
256.2749263919
 30
0.0
 40
1.0
100
AcDbArc
 50
90.0
 51
180.0
  0
ARC
  5
D9
330
1F
100
AcDbEntity
  8
BEZUGSACHSEN
  6
Continuous
 62
     7
100
AcDbCircle
 10
47.462611642
 20
264.5926763919
 30
0.0
 40
1.0
100
AcDbArc
 50
90.0
 51
104.9999999996981
  0
ARC
  5
DA
330
1F
100
AcDbEntity
  8
BEZUGSACHSEN
  6
Continuous
 62
     7
100
AcDbCircle
 10
48.3839776942
 20
264.5926763919
 30
0.0
 40
0.9999999999998127
100
AcDbArc
 50
45.49026120128689
 51
90.0
  0
ARC
  5
DB
330
1F
100
AcDbEntity
  8
0
  6
Continuous
 62
     7
100
AcDbCircle
 10
-175.5132309
 20
372.7093939824
 30
0.0
 40
264.5204223905951
100
AcDbArc
 50
335.8400764706147
 51
336.5770705490999
  0
ARC
  5
DC
330
1F
100
AcDbEntity
  8
BEZUGSACHSEN
  6
Continuous
 62
     7
100
AcDbCircle
 10
56.099756994
 20
403.3276961587
 30
0.0
 40
50.30340021035248
100
AcDbArc
 50
264.2781515101899
 51
269.9826780125999
  0
ARC
  5
DD
330
1F
100
AcDbEntity
  8
BEZUGSACHSEN
  6
Continuous
 62
     7
100
AcDbCircle
 10
56.0693409818
 20
403.327695958
 30
0.0
 40
50.30340000969741
100
AcDbArc
 50
270.017321976058
 51
275.7218485012678
  0
ARC
  5
DE
330
1F
100
AcDbEntity
  8
0
  6
Continuous
 62
     7
100
AcDbCircle
 10
64.0845489829
 20
303.2749263919
 30
0.0
 40
10.0
100
AcDbArc
 50
90.0
 51
270.0
  0
ARC
  5
DF
330
1F
100
AcDbEntity
  8
FASEN
  6
Continuous
 62
     7
100
AcDbCircle
 10
64.0845489829
 20
303.2749263919
 30
0.0
 40
9.599999195900011
100
AcDbArc
 50
90.0
 51
270.0
  0
ARC
  5
E0
330
1F
100
AcDbEntity
  8
BEZUGSACHSEN
  6
Continuous
 62
     7
100
AcDbCircle
 10
7.0845489829
 20
311.2849263919
 30
0.0
 40
1.999999999999999
100
AcDbArc
 50
0.0
 51
90.0
  0
ARC
  5
E1
330
1F
100
AcDbEntity
  8
BEZUGSACHSEN
  6
Continuous
 62
     7
100
AcDbCircle
 10
1.0845489829
 20
336.8751179549
 30
0.0
 40
2.000000000000039
100
AcDbArc
 50
92.86812048729996
 51
180.0000000143238
  0
ARC
  5
E2
330
1F
100
AcDbEntity
  8
BEZUGSACHSEN
  6
Continuous
 62
     7
100
AcDbCircle
 10
68.2095489829
 20
350.2749263919
 30
0.0
 40
1.0
100
AcDbArc
 50
180.0
 51
270.0
  0
ARC
  5
E3
330
1F
100
AcDbEntity
  8
BEZUGSACHSEN
  6
Continuous
 62
     7
100
AcDbCircle
 10
47.462611642
 20
341.9571763919
 30
0.0
 40
1.000000000009914
100
AcDbArc
 50
255.0000000003019
 51
270.0
  0
ARC
  5
E4
330
1F
100
AcDbEntity
  8
BEZUGSACHSEN
  6
Continuous
 62
     7
100
AcDbCircle
 10
48.3839776942
 20
341.9571763919
 30
0.0
 40
1.0
100
AcDbArc
 50
270.0
 51
314.5097387987131
  0
ARC
  5
E5
330
1F
100
AcDbEntity
  8
BEZUGSACHSEN
  6
Continuous
 62
     7
100
AcDbCircle
 10
185.4145955811
 20
-1302.7678328981
 30
0.0
 40
1632.172763697999
100
AcDbArc
 50
96.2726189838
 51
96.48809068979999
  0
ARC
  5
E6
330
1F
100
AcDbEntity
  8
0
  6
Continuous
 62
     7
100
AcDbCircle
 10
148.0845489829
 20
37.2749263919
 30
0.0
 40
250.0
100
AcDbArc
 50
90.0
 51
102.5558577985977
  0
ARC
  5
E7
330
1F
100
AcDbEntity
  8
RUNDUNGEN
  6
Continuous
 62
     7
100
AcDbCircle
 10
148.0845489829
 20
37.2749263919
 30
0.0
 40
250.0
100
AcDbArc
 50
90.0
 51
102.5558577985977
  0
ARC
  5
E8
330
1F
100
AcDbEntity
  8
RUNDUNGEN
  6
Continuous
 62
     7
100
AcDbCircle
 10
98.0845489829
 20
261.7743695983
 30
0.0
 40
20.00000000000639
100
AcDbArc
 50
102.5558577987095
 51
180.0
  0
ARC
  5
E9
330
1F
100
AcDbEntity
  8
RUNDUNGEN
  6
Continuous
 62
     7
100
AcDbCircle
 10
248.0845489829
 20
292.1993168835
 30
0.0
 40
0.9999999999647582
100
AcDbArc
 50
274.4999999985585
 51
0.0
  0
ARC
  5
EA
330
1F
100
AcDbEntity
  8
BEZUGSACHSEN
  6
Continuous
 62
     7
100
AcDbCircle
 10
69.9595489829
 20
256.2749263919
 30
0.0
 40
1.0
100
AcDbArc
 50
0.0
 51
90.0
  0
ARC
  5
EB
330
1F
100
AcDbEntity
  8
BEZUGSACHSEN
  6
Continuous
 62
     7
100
AcDbCircle
 10
185.4145955811
 20
1909.3176856818
 30
0.0
 40
1632.172763698
100
AcDbArc
 50
263.5119093102
 51
263.7273810162
  0
ARC
  5
EC
330
1F
100
AcDbEntity
  8
0
  6
Continuous
 62
     7
100
AcDbCircle
 10
313.6823288657
 20
372.7093939824
 30
0.0
 40
264.5204223905998
100
AcDbArc
 50
203.4229294508999
 51
204.1599235293941
  0
ARC
  5
ED
330
1F
100
AcDbEntity
  8
0
  6
Continuous
 62
     7
100
AcDbCircle
 10
148.0845489829
 20
569.2749263919
 30
0.0
 40
250.0000000000683
100
AcDbArc
 50
257.4441422014073
 51
270.0
  0
ARC
  5
EE
330
1F
100
AcDbEntity
  8
RUNDUNGEN
  6
Continuous
 62
     7
100
AcDbCircle
 10
148.0845489829
 20
569.2749263919
 30
0.0
 40
250.0000000000683
100
AcDbArc
 50
257.4441422014073
 51
270.0
  0
ARC
  5
EF
330
1F
100
AcDbEntity
  8
RUNDUNGEN
  6
Continuous
 62
     7
100
AcDbCircle
 10
98.0845489829
 20
344.7754831854
 30
0.0
 40
20.0
100
AcDbArc
 50
180.0
 51
257.4441422012904
  0
ARC
  5
F0
330
1F
100
AcDbEntity
  8
BEZUGSACHSEN
  6
Continuous
 62
     7
100
AcDbCircle
 10
69.9595489829
 20
350.2749263919
 30
0.0
 40
1.0
100
AcDbArc
 50
270.0
 51
0.0
  0
ARC
  5
F1
330
1F
100
AcDbEntity
  8
RUNDUNGEN
  6
Continuous
 62
     7
100
AcDbCircle
 10
248.0845489829
 20
314.3505359002
 30
0.0
 40
1.0
100
AcDbArc
 50
0.0
 51
85.50000000144182
  0
CIRCLE
  5
F2
330
1F
100
AcDbEntity
  8
BEZUGSACHSEN
  6
Continuous
 62
     7
100
AcDbCircle
 10
34.0845489829
 20
303.2749263919
 30
0.0
 40
6.0
  0
SPLINE
  5
F3
330
1F
100
AcDbEntity
  8
BEZUGSACHSEN
  6
Continuous
 62
     7
100
AcDbSpline
210
0.0
220
0.0
230
1.0
 70
     8
 71
     3
 72
    19
 73
    15
 74
    13
 42
0.0000000001
 43
0.0000000001
 44
0.00000001
 40
0.0
 40
0.0
 40
0.0
 40
0.0
 40
0.2679411643612571
 40
0.5361267937603579
 40
0.8065304774574462
 40
1.076465993310996
 40
1.213913376207466
 40
1.3513531049151
 40
1.491586367083325
 40
1.63180789757322
 40
1.775491562791518
 40
1.919219204777506
 40
2.065713007411383
 40
2.211936409334961
 40
2.211936409334961
 40
2.211936409334961
 40
2.211936409334961
 10
8.6383949298
 20
288.2649263919
 30
0.0
 10
8.604500686000023
 20
288.1822548121872
 30
0.0
 10
8.536681273858811
 20
288.0168362245948
 30
0.0
 10
8.412042767581276
 20
287.7781702508887
 30
0.0
 10
8.267131968242666
 20
287.5504822548613
 30
0.0
 10
8.12408833671678
 20
287.3746777635481
 30
0.0
 10
7.994981949814888
 20
287.2467280444396
 30
0.0
 10
7.888866850752526
 20
287.1576410236493
 30
0.0
 10
7.774057423106199
 20
287.0783393833422
 30
0.0
 10
7.649597810872047
 20
287.0106689159144
 30
0.0
 10
7.516744255735049
 20
286.9578662292321
 30
0.0
 10
7.376093456861537
 20
286.9226999652278
 30
0.0
 10
7.230768073772169
 20
286.9063477632835
 30
0.0
 10
7.133258654727607
 20
286.9129704966352
 30
0.0
 10
7.0845489829
 20
286.9162788044
 30
0.0
 11
8.6383949298
 21
288.2649263919
 31
0.0
 11
8.532957670081066
 21
288.0186025160328
 31
0.0
 11
8.40908815450444
 21
287.7807372707215
 31
0.0
 11
8.26274266819116
 21
287.5533584001274
 31
0.0
 11
8.091490477062663
 21
287.3447010979479
 31
0.0
 11
7.993698038383348
 21
287.248117341538
 31
0.0
 11
7.888281049128651
 21
287.1599303957711
 31
0.0
 11
7.772742405415228
 21
287.0804559368097
 31
0.0
 11
7.649420395521865
 21
287.0137194438782
 31
0.0
 11
7.515789707322008
 21
286.9609194929143
 31
0.0
 11
7.376362006114225
 21
286.9260260665023
 31
0.0
 11
7.230667567596057
 21
286.910743239702
 31
0.0
 11
7.0845489829
 21
286.9162788044
 31
0.0
  0
SPLINE
  5
F4
330
1F
100
AcDbEntity
  8
BEZUGSACHSEN
  6
Continuous
 62
     7
100
AcDbSpline
210
0.0
220
0.0
230
1.0
 70
     8
 71
     3
 72
    47
 73
    43
 74
    41
 42
0.0000000001
 43
0.0000000001
 44
0.00000001
 40
0.0
 40
0.0
 40
0.0
 40
0.0
 40
0.6366022431820273
 40
1.273595002166762
 40
1.592921746388133
 40
1.912076344866835
 40
2.231392290393111
 40
2.55082684269676
 40
3.189774321140566
 40
3.829081697001754
 40
4.468337152514492
 40
5.107221744773016
 40
5.426176341259854
 40
5.745033356806037
 40
6.063356731584257
 40
6.381780214893965
 40
7.017059195670607
 40
7.652639340976264
 40
8.2875322142212
 40
8.922347946490637
 40
9.559226748577132
 40
10.19613435937598
 40
10.83451785503855
 40
11.47287689975115
 40
12.11234487368008
 40
12.75189588953381
 40
13.39354300525317
 40
14.03487957360383
 40
14.35615205775701
 40
14.67732107715499
 40
14.99840882475625
 40
15.3195960412468
 40
15.96011121030157
 40
16.6009959209255
 40
17.23809108082472
 40
17.87482555206318
 40
18.19205670340299
 40
18.5091719910898
 40
18.82571084637863
 40
19.14241581836283
 40
19.77338975001229
 40
20.40398930745108
 40
20.40398930745108
 40
20.40398930745108
 40
20.40398930745108
 10
27.5851333886
 20
303.2749263724
 30
0.0
 10
27.59113903248671
 20
303.4872061820952
 30
0.0
 10
27.60315400434837
 20
303.9118960219192
 30
0.0
 10
27.68441934953499
 20
304.438038783033
 30
0.0
 10
27.777138946095
 20
304.8530131591605
 30
0.0
 10
27.86243191021163
 20
305.1608371348526
 30
0.0
 10
27.96267052364239
 20
305.4641298116282
 30
0.0
 10
28.11615607280514
 20
305.8615671741672
 30
0.0
 10
28.34462801960968
 20
306.343666751051
 30
0.0
 10
28.67424298018158
 20
306.8924826238976
 30
0.0
 10
29.05647019724898
 20
307.4060181632675
 30
0.0
 10
29.41532489435173
 20
307.8005209253635
 30
0.0
 10
29.72427824790977
 20
308.0933942234077
 30
0.0
 10
29.96617335688352
 20
308.3011160445215
 30
0.0
 10
30.21781661036807
 20
308.4966254416532
 30
0.0
 10
30.5651107175225
 20
308.7401206443197
 30
0.0
 10
31.02085105228936
 20
309.0120027143354
 30
0.0
 10
31.59633047698444
 20
309.28333182682
 30
0.0
 10
32.1954412421396
 20
309.497115457653
 30
0.0
 10
32.81289164459871
 20
309.651805189062
 30
0.0
 10
33.44316220630029
 20
309.7456121727263
 30
0.0
 10
34.08075614103159
 20
309.7777388975325
 30
0.0
 10
34.7189347852651
 20
309.7473093245828
 30
0.0
 10
35.35194720646123
 20
309.6546380694057
 30
0.0
 10
35.97318089089674
 20
309.5001461081405
 30
0.0
 10
36.57731664286988
 20
309.2851089755804
 30
0.0
 10
37.15779571645516
 20
309.0111856098815
 30
0.0
 10
37.6174247406874
 20
308.7360187318511
 30
0.0
 10
37.96732372934839
 20
308.4894090330017
 30
0.0
 10
38.22045535849665
 20
308.2915048406315
 30
0.0
 10
38.46345399785061
 20
308.0813263112298
 30
0.0
 10
38.77269834135536
 20
307.7858069710749
 30
0.0
 10
39.13101853215005
 20
307.3883359883113
 30
0.0
 10
39.51096895047864
 20
306.8726692267571
 30
0.0
 10
39.83744198005189
 20
306.3230730702753
 30
0.0
 10
40.0628131200335
 20
305.8419675285645
 30
0.0
 10
40.21390410322567
 20
305.4459773409483
 30
0.0
 10
40.31231702080299
 20
305.144550990155
 30
0.0
 10
40.39598379898158
 20
304.8388556222187
 30
0.0
 10
40.4868031564114
 20
304.4273036044949
 30
0.0
 10
40.56631813202279
 20
303.9058783879803
 30
0.0
 10
40.57809041668985
 20
303.485202098844
 30
0.0
 10
40.5839748123
 20
303.2749263725
 30
0.0
 11
27.5851333886
 21
303.2749263724
 31
0.0
 11
27.61638205963566
 21
303.9107612067579
 31
0.0
 11
27.70982326198018
 21
304.5408631958861
 31
0.0
 11
27.77976376898594
 21
304.8524364538124
 31
0.0
 11
27.86490510793652
 21
305.1600248315704
 31
0.0
 11
27.96512964606434
 21
305.4632041762237
 31
0.0
 11
28.08020953582065
 21
305.7611891627232
 31
0.0
 11
28.35380543009664
 21
306.3385964425916
 31
0.0
 11
28.68302494379644
 21
306.8866187346836
 31
0.0
 11
29.06464919912214
 21
307.3994641940083
 31
0.0
 11
29.49458383521928
 21
307.8720419451872
 31
0.0
 11
29.72605609627459
 21
308.0914790135736
 31
0.0
 11
29.96795849730103
 21
308.2992120748341
 31
0.0
 11
30.21933230445552
 21
308.4945092330491
 31
0.0
 11
30.48006158274744
 21
308.6773035386619
 31
0.0
 11
31.02559522695726
 21
309.0028376020896
 31
0.0
 11
31.60050504707598
 21
309.2738372696869
 31
0.0
 11
32.19845123482285
 21
309.4872601294189
 31
0.0
 11
32.81424376704633
 21
309.6415020536632
 31
0.0
 11
33.44417604902398
 21
309.7353099886664
 31
0.0
 11
34.08027917076164
 21
309.7673119137507
 31
0.0
 11
34.71794012978037
 21
309.736947643997
 31
0.0
 11
35.34955766269094
 21
309.6444189344721
 31
0.0
 11
35.97013053481583
 21
309.4901185778185
 31
0.0
 11
36.57263134196964
 21
309.2755998624145
 31
0.0
 11
37.15293853835077
 21
309.0018215233531
 31
0.0
 11
37.7031635263988
 21
308.6723294044317
 31
0.0
 11
37.96577083054626
 21
308.4872526287888
 31
0.0
 11
38.21879128793812
 21
308.2894391126624
 31
0.0
 11
38.46163958930242
 21
308.0793866330671
 31
0.0
 11
38.69384202470946
 21
307.8574784154906
 31
0.0
 11
39.12275808244119
 21
307.3817781976967
 31
0.0
 11
39.50286874109664
 21
306.8657848842827
 31
0.0
 11
39.82830788678685
 21
306.3180809448962
 31
0.0
 11
40.0983887449117
 21
305.7414639863025
 31
0.0
 11
40.21147919011873
 21
305.4450754666476
 31
0.0
 11
40.30992329348256
 21
305.1436275205647
 31
0.0
 11
40.39340609886768
 21
304.8382957860322
 31
0.0
 11
40.46195552230349
 21
304.5290984124565
 31
0.0
 11
40.55338260018777
 21
303.90478343438
 31
0.0
 11
40.5839748123
 21
303.2749263725
 31
0.0
  0
SPLINE
  5
F5
330
1F
100
AcDbEntity
  8
BEZUGSACHSEN
  6
Continuous
 62
     7
100
AcDbSpline
210
0.0
220
0.0
230
1.0
 70
     8
 71
     3
 72
    47
 73
    43
 74
    41
 42
0.0000000001
 43
0.0000000001
 44
0.00000001
 40
0.0
 40
0.0
 40
0.0
 40
0.0
 40
0.6302393214779816
 40
1.260854867358752
 40
1.577476088429339
 40
1.893930800243466
 40
2.210999113888105
 40
2.528183472236074
 40
3.164887038289783
 40
3.80195118343886
 40
4.442851001668648
 40
5.083381259848262
 40
5.404527292371061
 40
5.72557383881384
 40
6.046670710084574
 40
6.367871027206595
 40
7.009090242588582
 40
7.650619763988328
 40
8.29033034651809
 40
8.929958764494597
 40
9.56864701135021
 40
10.20735923013452
 40
10.84445705817098
 40
11.48152626498768
 40
12.11643462226056
 40
12.75141965582968
 40
13.38691908741309
 40
14.02211738533563
 40
14.34050449143992
 40
14.6587915379245
 40
14.97761586870063
 40
15.29653774948551
 40
15.93537694107819
 40
16.57458694075378
 40
17.213862749989
 40
17.85277859078189
 40
18.17219860084121
 40
18.49150024076597
 40
18.81067156636589
 40
19.1300145242374
 40
19.7671962702484
 40
20.40398968280525
 40
20.40398968280525
 40
20.40398968280525
 40
20.40398968280525
 10
40.5839626207
 20
303.2749264106
 30
0.0
 10
40.5780934189555
 20
303.064770388704
 30
0.0
 10
40.56635151181823
 20
302.6443328912609
 30
0.0
 10
40.4869047692616
 20
302.123169448997
 30
0.0
 10
40.39617326419607
 20
301.7117779815726
 30
0.0
 10
40.31256788189162
 20
301.4061401412861
 30
0.0
 10
40.21421594049781
 20
301.1047562951035
 30
0.0
 10
40.06319712961039
 20
300.7087831155138
 30
0.0
 10
39.83791454202071
 20
300.2276763068191
 30
0.0
 10
39.51153650729743
 20
299.6780420817935
 30
0.0
 10
39.13166944523923
 20
299.1623142191347
 30
0.0
 10
38.77341500593447
 20
298.7647888169386
 30
0.0
 10
38.46423426825914
 20
298.4692354620007
 30
0.0
 10
38.22130931222846
 20
298.259050553566
 30
0.0
 10
37.96826040890167
 20
298.0611410892506
 30
0.0
 10
37.61847790043777
 20
297.8145177377914
 30
0.0
 10
37.15899266268543
 20
297.539311128518
 30
0.0
 10
36.57859695572994
 20
297.2652710218064
 30
0.0
 10
35.97444264790539
 20
297.0500825444508
 30
0.0
 10
35.35302750051606
 20
296.8954207054107
 30
0.0
 10
34.71975828909531
 20
296.8026103323763
 30
0.0
 10
34.08129882466428
 20
296.7720995825694
 30
0.0
 10
33.44346581109926
 20
296.8042013249523
 30
0.0
 10
32.8130358240842
 20
296.8980143873255
 30
0.0
 10
32.19546215457073
 20
297.0527282036151
 30
0.0
 10
31.59631874313385
 20
297.2665247756896
 30
0.0
 10
31.02086152167555
 20
297.5378461441419
 30
0.0
 10
30.56517612873914
 20
297.8096910277903
 30
0.0
 10
30.2179202310182
 20
298.0531515803902
 30
0.0
 10
29.96630064972696
 20
298.2486341067145
 30
0.0
 10
29.72442559943947
 20
298.4563271653996
 30
0.0
 10
29.41548931572142
 20
298.7491647135229
 30
0.0
 10
29.05664655881126
 20
299.1436223624753
 30
0.0
 10
28.67441965357067
 20
299.657107028446
 30
0.0
 10
28.34479520831183
 20
300.2058748071528
 30
0.0
 10
28.11630776240703
 20
300.6879382236276
 30
0.0
 10
27.96280626248031
 20
301.0853477827837
 30
0.0
 10
27.86254945958259
 20
301.3886301460677
 30
0.0
 10
27.77723296667115
 20
301.6964540177768
 30
0.0
 10
27.68447051130659
 20
302.1114948848864
 30
0.0
 10
27.60317814435104
 20
302.6377676839618
 30
0.0
 10
27.59113834479202
 20
303.0625833336611
 30
0.0
 10
27.58512028
 20
303.2749264123
 30
0.0
 11
40.5839626207
 21
303.2749264106
 31
0.0
 11
40.55342304197877
 21
302.6454274539142
 31
0.0
 11
40.46209176645195
 21
302.0214606560658
 31
0.0
 11
40.39359702776387
 21
301.712336945548
 31
0.0
 11
40.31017820291623
 21
301.407074952679
 31
0.0
 11
40.21179145905251
 21
301.1056576934695
 31
0.0
 11
40.09876082792712
 21
300.8092964382285
 31
0.0
 11
39.82878069141714
 21
300.232666438215
 31
0.0
 11
39.50344406958139
 21
299.6849376663516
 31
0.0
 11
39.12340757476787
 21
299.1688709656075
 31
0.0
 11
38.69455707707543
 21
298.693091329355
 31
0.0
 11
38.46241994269954
 21
298.4711743965876
 31
0.0
 11
38.21963744936236
 21
298.2611088213217
 31
0.0
 11
37.96670784106403
 21
298.0632962484505
 31
0.0
 11
37.70419344522969
 21
297.8782129274866
 31
0.0
 11
37.15413526363087
 21
297.5486707010098
 31
0.0
 11
36.57399443197989
 21
297.27481537008
 31
0.0
 11
35.97138912169042
 21
297.0601144864966
 31
0.0
 11
35.35068985138375
 21
296.9056576027915
 31
0.0
 11
34.71876103749262
 21
296.812982628577
 31
0.0
 11
34.08077491033013
 21
296.7825359543319
 31
0.0
 11
33.44447992218644
 21
296.8145098585665
 31
0.0
 11
32.81435664804752
 21
296.9083279467078
 31
0.0
 11
32.19847273979155
 21
297.0625862809601
 31
0.0
 11
31.60044026997051
 21
297.2760415640911
 31
0.0
 11
31.02560452142795
 21
297.5470090708891
 31
0.0
 11
30.48013783391566
 21
297.8724978886664
 31
0.0
 11
30.21943554116585
 21
298.0552673168771
 31
0.0
 11
29.96808628937216
 21
298.2505368679664
 31
0.0
 11
29.72620299100808
 21
298.4582420048008
 31
0.0
 11
29.4947471596808
 21
298.6776488510658
 31
0.0
 11
29.06482412877137
 21
299.1501757817358
 31
0.0
 11
28.68320298930939
 21
299.6629668986645
 31
0.0
 11
28.35397151513452
 21
300.2109451798819
 31
0.0
 11
28.08035720801965
 21
300.788308724417
 31
0.0
 11
27.96526495558834
 21
301.0862733469087
 31
0.0
 11
27.86502526718698
 21
301.3894326154918
 31
0.0
 11
27.77985818697928
 21
301.6970312233139
 31
0.0
 11
27.7098951594974
 21
302.0086160424686
 31
0.0
 11
27.61640626250441
 21
302.6389020121591
 31
0.0
 11
27.58512028
 21
303.2749264123
 31
0.0
  0
SPLINE
  5
F6
330
1F
100
AcDbEntity
  8
BEZUGSACHSEN
  6
Continuous
 62
     7
100
AcDbSpline
210
0.0
220
0.0
230
1.0
 70
     8
 71
     3
 72
    27
 73
    23
 74
    21
 42
0.0000000001
 43
0.0000000001
 44
0.00000001
 40
0.0
 40
0.0
 40
0.0
 40
0.0
 40
0.1260969825525343
 40
0.2522464959194138
 40
0.3668867952504059
 40
0.4815825893953213
 40
0.5839596006913806
 40
0.6859489161650086
 40
0.7334568410907835
 40
0.7809568849358391
 40
0.8274002264845517
 40
0.8738421607604393
 40
0.9204907319419661
 40
0.9671431399762342
 40
1.015111401873121
 40
1.063087497193883
 40
1.165500418794855
 40
1.268190478997093
 40
1.380949153929891
 40
1.493646517813309
 40
1.615655563783998
 40
1.737631867710327
 40
1.737631867710327
 40
1.737631867710327
 40
1.737631867710327
 10
-0.9154510171
 20
317.909158878
 30
0.0
 10
-0.9147224756237231
 20
317.951201806061
 30
0.0
 10
-0.9132650891676578
 20
318.0353051768706
 30
0.0
 10
-0.8998205272192077
 20
318.157052504433
 30
0.0
 10
-0.8768650939336511
 20
318.2734702208114
 30
0.0
 10
-0.8428991935977779
 20
318.3790456786057
 30
0.0
 10
-0.7966734347452972
 20
318.4752037408769
 30
0.0
 10
-0.7481302661940352
 20
318.5443731065653
 30
0.0
 10
-0.7026909406326958
 20
318.5919105881932
 30
0.0
 10
-0.6667848625405703
 20
318.6226058716762
 30
0.0
 10
-0.6281374314477559
 20
318.6491409073887
 30
0.0
 10
-0.58718294424213
 20
318.6713692532836
 30
0.0
 10
-0.544043318066668
 20
318.6891624701613
 30
0.0
 10
-0.4988626834532093
 20
318.7026958772223
 30
0.0
 10
-0.4521554604635857
 20
318.7118930025561
 30
0.0
 10
-0.3863314692601516
 20
318.7188483229368
 30
0.0
 10
-0.3016037172622769
 20
318.716983066303
 30
0.0
 10
-0.1967721137708014
 20
318.7000684053499
 30
0.0
 10
-0.0911928714289181
 20
318.6706537724558
 30
0.0
 10
0.0169650666600879
 20
318.6289021349704
 30
0.0
 10
0.1246173279482872
 20
318.5781063078208
 30
0.0
 10
0.1951367028067252
 20
318.5375418796019
 30
0.0
 10
0.2303916585
 20
318.5172623873
 30
0.0
 11
-0.9154510171
 21
317.909158878
 31
0.0
 11
-0.9113196575353576
 21
318.0351881637911
 31
0.0
 11
-0.8975528984143433
 21
318.1605842405479
 31
0.0
 11
-0.874701322332201
 21
318.2729239205424
 31
0.0
 11
-0.8390631329613413
 21
318.3819424724173
 31
0.0
 11
-0.7941633681611998
 21
318.4739482524683
 31
0.0
 11
-0.7349909392070573
 21
318.5570171643575
 31
0.0
 11
-0.7021384390455325
 21
318.5913350338119
 31
0.0
 11
-0.6660013441187169
 21
318.6221630168068
 31
0.0
 11
-0.6277140792572831
 21
318.6484512142277
 31
0.0
 11
-0.5868914713200141
 21
318.6705954672177
 31
0.0
 11
-0.5437853277019616
 21
318.6884266078334
 31
0.0
 11
-0.4991057556576223
 21
318.7018498346188
 31
0.0
 11
-0.4520549499024874
 21
318.7111866342418
 31
0.0
 11
-0.4043510626284131
 21
318.7162900508591
 31
0.0
 11
-0.3019514217706746
 21
318.7146407894932
 31
0.0
 11
-0.2004871714699697
 21
318.6988213591857
 31
0.0
 11
-0.0917634550327803
 21
318.6689270076007
 31
0.0
 11
0.0135545372617203
 21
318.628816954929
 31
0.0
 11
0.1238472231796191
 21
318.5766467456933
 31
0.0
 11
0.2303916585
 21
318.5172623873
 31
0.0
  0
SPLINE
  5
F7
330
1F
100
AcDbEntity
  8
BEZUGSACHSEN
  6
Continuous
 62
     7
100
AcDbSpline
210
0.0
220
0.0
230
1.0
 70
     8
 71
     3
 72
    27
 73
    23
 74
    21
 42
0.0000000001
 43
0.0000000001
 44
0.00000001
 40
0.0
 40
0.0
 40
0.0
 40
0.0
 40
0.1219765139516441
 40
0.2439857714749068
 40
0.356683139833351
 40
0.4694418149629416
 40
0.5721317672948371
 40
0.6745445881155794
 40
0.7225206521221871
 40
0.7704888797708459
 40
0.8171412936045609
 40
0.8637898734267435
 40
0.9102318000825573
 40
0.9566751324135293
 40
1.004175175749462
 40
1.051683100142902
 40
1.15367238876193
 40
1.256049376711207
 40
1.370745138129652
 40
1.485385401891197
 40
1.611534903891585
 40
1.737631875994573
 40
1.737631875994573
 40
1.737631875994573
 40
1.737631875994573
 10
0.2303916585
 20
288.0325903964
 30
0.0
 10
0.195136640896608
 20
288.0123108711351
 30
0.0
 10
0.1246171417761868
 20
287.971746376737
 30
0.0
 10
0.016964738590387
 20
287.9209505158453
 30
0.0
 10
-0.0911932772809597
 20
287.8791988799763
 30
0.0
 10
-0.1967724982493326
 20
287.8497842948349
 30
0.0
 10
-0.3016040433950814
 20
287.8328697074468
 30
0.0
 10
-0.3863317132444481
 20
287.8310044842184
 30
0.0
 10
-0.4521556496481975
 20
287.8379597922383
 30
0.0
 10
-0.4988628528622621
 20
287.8471569193916
 30
0.0
 10
-0.5440434701663265
 20
287.8606903643788
 30
0.0
 10
-0.587183080818066
 20
287.8784836231848
 30
0.0
 10
-0.6281375573961652
 20
287.9007119808887
 30
0.0
 10
-0.6667849838671327
 20
287.9272470125906
 30
0.0
 10
-0.702691062500177
 20
287.9579422901219
 30
0.0
 10
-0.7481303840383511
 20
288.005479763242
 30
0.0
 10
-0.7966735241251853
 20
288.0746491303454
 30
0.0
 10
-0.8428992330919618
 20
288.1708071850682
 30
0.0
 10
-0.8768651068725994
 20
288.2763826180585
 30
0.0
 10
-0.8998205310518621
 20
288.3928003089471
 30
0.0
 10
-0.9132650894060275
 20
288.5145476176037
 30
0.0
 10
-0.9147224757014114
 20
288.5986509811285
 30
0.0
 10
-0.9154510171
 20
288.6406939057
 30
0.0
 11
0.2303916585
 21
288.0325903964
 31
0.0
 11
0.123847034439456
 21
287.9732059452398
 31
0.0
 11
0.01355414527079
 21
287.921035670943
 31
0.0
 11
-0.0917638625816455
 21
287.8809256465487
 31
0.0
 11
-0.2004875911246915
 21
287.8510313382496
 31
0.0
 11
-0.3019517432458373
 21
287.8352119784565
 31
0.0
 11
-0.4043512838302377
 21
287.8335627493744
 31
0.0
 11
-0.4520551400427854
 21
287.83866616196
 31
0.0
 11
-0.4991059103042361
 21
287.848002964494
 31
0.0
 11
-0.5437854777376572
 21
287.8614262267828
 31
0.0
 11
-0.5868916143335894
 21
287.8792574069793
 31
0.0
 11
-0.6277142071304469
 21
287.9014016718992
 31
0.0
 11
-0.6660014636765978
 21
287.9276898651459
 31
0.0
 11
-0.702138560687154
 21
287.9585178449137
 31
0.0
 11
-0.7349910610590371
 21
287.9928357134298
 31
0.0
 11
-0.7941634553128608
 21
288.0759046170658
 31
0.0
 11
-0.8390631789139192
 21
288.1679103912439
 31
0.0
 11
-0.8747013384814114
 21
288.2769289184308
 31
0.0
 11
-0.8975529018476527
 21
288.389268564714
 31
0.0
 11
-0.9113196581702073
 21
288.5146646303433
 31
0.0
 11
-0.9154510171
 21
288.6406939057
 31
0.0
  0
SPLINE
  5
F8
330
1F
100
AcDbEntity
  8
BEZUGSACHSEN
  6
Continuous
 62
     7
100
AcDbSpline
210
0.0
220
0.0
230
1.0
 70
     8
 71
     3
 72
    15
 73
    11
 74
     9
 42
0.0000000001
 43
0.0000000001
 44
0.00000001
 40
0.0
 40
0.0
 40
0.0
 40
0.0
 40
0.1110371613090657
 40
0.2222522336978272
 40
0.3333980191407375
 40
0.4445069474179828
 40
0.5556201064519244
 40
0.6667525641437086
 40
0.7778876032569406
 40
0.888982091483962
 40
0.888982091483962
 40
0.888982091483962
 40
0.888982091483962
 10
0.9844744981
 20
287.5983940056
 30
0.0
 10
0.94783277123951
 20
287.6039261584219
 30
0.0
 10
0.8744906077216404
 20
287.6149993280467
 30
0.0
 10
0.7679740577353873
 20
287.6480178916127
 30
0.0
 10
0.6655611499966504
 20
287.6916081790791
 30
0.0
 10
0.5681111843906048
 20
287.7453876869019
 30
0.0
 10
0.4758063886779246
 20
287.8074828222618
 30
0.0
 10
0.38880976055771
 20
287.8767694958917
 30
0.0
 10
0.3065570050781432
 20
287.9516514474699
 30
0.0
 10
0.2557770187007406
 20
288.0056140289945
 30
0.0
 10
0.2303916585
 20
288.0325903964
 30
0.0
 11
0.9844744981
 21
287.5983940056
 31
0.0
 11
0.8751322130512406
 21
287.6177205648357
 31
0.0
 11
0.7686402594631473
 21
287.6497869981801
 31
0.0
 11
0.6663720788674329
 21
287.6933140571132
 31
0.0
 11
0.5689692124430967
 21
287.7467731588195
 31
0.0
 11
0.4766974456710652
 21
287.8086767545734
 31
0.0
 11
0.3896003422643754
 21
287.8777022406694
 31
0.0
 11
0.307560437777832
 21
287.9526719078057
 31
0.0
 11
0.2303916585
 21
288.0325903964
 31
0.0
  0
SPLINE
  5
F9
330
1F
100
AcDbEntity
  8
BEZUGSACHSEN
  6
Continuous
 62
     7
100
AcDbSpline
210
0.0
220
0.0
230
1.0
 70
     8
 71
     3
 72
    15
 73
    11
 74
     9
 42
0.0000000001
 43
0.0000000001
 44
0.00000001
 40
0.0
 40
0.0
 40
0.0
 40
0.0
 40
0.1110944830745333
 40
0.2222295180905335
 40
0.3333620401554455
 40
0.4444752609962736
 40
0.5555842178015623
 40
0.6667300353923128
 40
0.7779450181499027
 40
0.888982087075464
 40
0.888982087075464
 40
0.888982087075464
 40
0.888982087075464
 10
0.2303916585
 20
318.5172623873
 30
0.0
 10
0.2557770180450223
 20
318.5442387529778
 30
0.0
 10
0.3065570033523072
 20
318.5982013313032
 30
0.0
 10
0.3888097726056208
 20
318.6730832946875
 30
0.0
 10
0.4758064245529553
 20
318.7423700036192
 30
0.0
 10
0.5681112649878796
 20
318.8044651667159
 30
0.0
 10
0.6655612869942078
 20
318.8582446588193
 30
0.0
 10
0.7679742008706874
 20
318.90183490439
 30
0.0
 10
0.8744906994218278
 20
318.9348534602315
 30
0.0
 10
0.9478328021087867
 20
318.9459266268515
 30
0.0
 10
0.9844744981
 20
318.9514587781
 30
0.0
 11
0.2303916585
 21
318.5172623873
 31
0.0
 11
0.3075604355269012
 21
318.5971808709053
 31
0.0
 11
0.3896003357782795
 21
318.6721505366025
 31
0.0
 11
0.4766974843914298
 21
318.7411760692985
 31
0.0
 11
0.5689693059785998
 21
318.8030796942861
 31
0.0
 11
0.6663722140740633
 21
318.8565387793597
 31
0.0
 11
0.7686404374743353
 21
318.9000658198112
 31
0.0
 11
0.8751323055664966
 21
318.9321322262206
 31
0.0
 11
0.9844744981
 21
318.9514587781
 31
0.0
  0
SPLINE
  5
FA
330
1F
100
AcDbEntity
  8
0
  6
Continuous
 62
     7
100
AcDbSpline
210
0.0
220
0.0
230
1.0
 70
     8
 71
     3
 72
    19
 73
    15
 74
    13
 42
0.0000000001
 43
0.0000000001
 44
0.00000001
 40
0.0
 40
0.0
 40
0.0
 40
0.0
 40
0.1162460235955727
 40
0.2327881718402168
 40
0.3491890046161371
 40
0.4655468550648047
 40
0.5819071369942013
 40
0.6982738489329765
 40
0.8146206072881366
 40
0.930999827827192
 40
1.163276323454711
 40
1.396138921792624
 40
1.629013178090374
 40
1.861351539750216
 40
1.861351539750216
 40
1.861351539750216
 40
1.861351539750216
 10
68.2095489829
 20
269.7525458081
 30
0.0
 10
68.17076491205131
 20
269.7507048612117
 30
0.0
 10
68.09309797196916
 20
269.7470182778146
 30
0.0
 10
67.97948788688642
 20
269.7186127928784
 30
0.0
 10
67.87130019893678
 20
269.6747588786728
 30
0.0
 10
67.77032433298581
 20
269.6161621904395
 30
0.0
 10
67.6775558762493
 20
269.545477329119
 30
0.0
 10
67.59346849723617
 20
269.4647197240414
 30
0.0
 10
67.51816485384676
 20
269.3757520852981
 30
0.0
 10
67.42951360968424
 20
269.2483926375461
 30
0.0
 10
67.3395168639791
 20
269.0756072594495
 30
0.0
 10
67.26462334485976
 20
268.8546822692584
 30
0.0
 10
67.21808641953353
 20
268.6256623496728
 30
0.0
 10
67.21239260881147
 20
268.4704829568396
 30
0.0
 10
67.2095489829
 20
268.3929826387
 30
0.0
 11
68.2095489829
 21
269.7525458081
 31
0.0
 11
68.09367763132353
 21
269.7432201507171
 31
0.0
 11
67.98035310660319
 21
269.7160241139767
 31
0.0
 11
67.87247997400341
 21
269.6722915044726
 31
0.0
 11
67.77169123450888
 21
269.6141470348118
 31
0.0
 11
67.67900392944259
 21
269.5437994784204
 31
0.0
 11
67.59492856378586
 21
269.4633473526739
 31
0.0
 11
67.51962980584042
 21
269.3746531294594
 31
0.0
 11
67.45300307652892
 21
269.2792329957636
 31
0.0
 11
67.34511329045452
 21
269.07353378701
 31
0.0
 11
67.26935515364191
 21
268.8533391131159
 31
0.0
 11
67.2243951398428
 21
268.6248461889247
 31
0.0
 11
67.2095489829
 21
268.3929826387
 31
0.0
  0
SPLINE
  5
FB
330
1F
100
AcDbEntity
  8
0
  6
Continuous
 62
     7
100
AcDbSpline
210
0.0
220
0.0
230
1.0
 70
     8
 71
     3
 72
    19
 73
    15
 74
    13
 42
0.0000000001
 43
0.0000000001
 44
0.00000001
 40
0.0
 40
0.0
 40
0.0
 40
0.0
 40
0.2323383481160774
 40
0.4652125957045085
 40
0.698076113282152
 40
0.9303535187426661
 40
1.04673346181139
 40
1.163080940881829
 40
1.279447997448339
 40
1.395808629545106
 40
1.512165904499776
 40
1.628566140314248
 40
1.745106920492779
 40
1.861351602753718
 40
1.861351602753718
 40
1.861351602753718
 40
1.861351602753718
 10
70.9595489829
 20
268.3929826387
 30
0.0
 10
70.95670535729451
 20
268.470482952359
 30
0.0
 10
70.95101154712552
 20
268.6256623378438
 30
0.0
 10
70.90447457126945
 20
268.8546825518616
 30
0.0
 10
70.82958082546627
 20
269.0756081137476
 30
0.0
 10
70.7395835212098
 20
269.2483941779614
 30
0.0
 10
70.65093158343483
 20
269.3757541037057
 30
0.0
 10
70.57562731909094
 20
269.4647220026284
 30
0.0
 10
70.49153934524641
 20
269.5454796725587
 30
0.0
 10
70.39877061139998
 20
269.6161642388988
 30
0.0
 10
70.29779479917462
 20
269.674760463064
 30
0.0
 10
70.18960774968727
 20
269.7186137142251
 30
0.0
 10
70.07599864034779
 20
269.747018473673
 30
0.0
 10
69.9983326055611
 20
269.7507049263195
 30
0.0
 10
69.9595489829
 20
269.7525458081
 30
0.0
 11
70.9595489829
 21
268.3929826387
 31
0.0
 11
70.94470282877973
 21
268.6248461755339
 31
0.0
 11
70.89974282717358
 21
268.8533390932479
 31
0.0
 11
70.82398434845622
 21
269.0735346216337
 31
0.0
 11
70.71609393727357
 21
269.2792345299037
 31
0.0
 11
70.6494666134501
 21
269.3746551297174
 31
0.0
 11
70.57416715689341
 21
269.4633497052466
 31
0.0
 11
70.49009129054267
 21
269.5438018062218
 31
0.0
 11
70.3974034645561
 21
269.6141492554709
 31
0.0
 11
70.29661502967028
 21
269.6722931014749
 31
0.0
 11
70.18874230090996
 21
269.7160251182071
 31
0.0
 11
70.07541901237065
 21
269.743220443527
 31
0.0
 11
69.9595489829
 21
269.7525458081
 31
0.0
  0
SPLINE
  5
FC
330
1F
100
AcDbEntity
  8
BEZUGSACHSEN
  6
Continuous
 62
     7
100
AcDbSpline
210
0.0
220
0.0
230
1.0
 70
     8
 71
     3
 72
    11
 73
     7
 74
     5
 42
0.0000000001
 43
0.0000000001
 44
0.00000001
 40
0.0
 40
0.0
 40
0.0
 40
0.0
 40
0.5462907431587489
 40
1.093000863658465
 40
1.646070107183948
 40
2.198197048695501
 40
2.198197048695501
 40
2.198197048695501
 40
2.198197048695501
 10
8.6383949298
 20
318.2849263919
 30
0.0
 10
8.70146573162916
 20
318.1139947626425
 30
0.0
 10
8.82765575358029
 20
317.7720002830641
 30
0.0
 10
8.967293066637975
 20
317.2407261538498
 30
0.0
 10
9.064781430705215
 20
316.6973017489231
 30
0.0
 10
9.077963545238722
 20
316.3287171083804
 30
0.0
 10
9.0845489829
 20
316.1445819177
 30
0.0
 11
8.6383949298
 21
318.2849263919
 31
0.0
 11
8.81924626234478
 21
317.7694398532031
 31
0.0
 11
8.959737747052246
 21
317.2410894973013
 31
0.0
 11
9.051804400329669
 21
316.6957370245939
 31
0.0
 11
9.0845489829
 21
316.1445819177
 31
0.0
  0
SPLINE
  5
FD
330
1F
100
AcDbEntity
  8
BEZUGSACHSEN
  6
Continuous
 62
     7
100
AcDbSpline
210
0.0
220
0.0
230
1.0
 70
     8
 71
     3
 72
    19
 73
    15
 74
    13
 42
0.0000000001
 43
0.0000000001
 44
0.00000001
 40
0.0
 40
0.0
 40
0.0
 40
0.0
 40
0.1462385987769401
 40
0.292747927484683
 40
0.4364790706278658
 40
0.5801659236434766
 40
0.7203799972595251
 40
0.8606059382268886
 40
0.998041188350412
 40
1.135484020397325
 40
1.405415631059415
 40
1.675815514059261
 40
1.943997429495109
 40
2.21193483472196
 40
2.21193483472196
 40
2.21193483472196
 40
2.21193483472196
 10
7.0845489829
 20
319.6335739793
 30
0.0
 10
7.133263788238818
 20
319.6368820566392
 30
0.0
 10
7.230783584106875
 20
319.6435043355251
 30
0.0
 10
7.376119844417104
 20
319.6271450227036
 30
0.0
 10
7.51677678153879
 20
319.5919732566227
 30
0.0
 10
7.649628914989965
 20
319.5391675700117
 30
0.0
 10
7.774083378047434
 20
319.4714957822954
 30
0.0
 10
7.888885935202579
 20
319.3921955809146
 30
0.0
 10
7.994995872976732
 20
319.3031109413399
 30
0.0
 10
8.12409833815619
 20
319.1751634057708
 30
0.0
 10
8.267138188056936
 20
318.9993611168621
 30
0.0
 10
8.412045789756059
 20
318.7716756509776
 30
0.0
 10
8.536682538198871
 20
318.5330130315067
 30
0.0
 10
8.604501109367279
 20
318.3675967910738
 30
0.0
 10
8.6383949298
 20
318.2849263919
 30
0.0
 11
7.0845489829
 21
319.6335739793
 31
0.0
 11
7.230682844719047
 21
319.6391077124066
 31
0.0
 11
7.376392205565701
 21
319.6238183186955
 31
0.0
 11
7.515822287122798
 21
319.5889199825428
 31
0.0
 11
7.649454624051717
 21
319.5361155295445
 31
0.0
 11
7.772768414851363
 21
319.4693795164884
 31
0.0
 11
7.888299526159219
 21
319.3899070253977
 31
0.0
 11
7.993712075933655
 21
319.3017217526672
 31
0.0
 11
8.091500579627827
 21
319.2051404883022
 31
0.0
 11
8.262748975517676
 21
318.9964851233106
 31
0.0
 11
8.409091396052327
 21
318.7691087993928
 31
0.0
 11
8.532959021859098
 21
318.5312467573519
 31
0.0
 11
8.6383949298
 21
318.2849263919
 31
0.0
  0
SPLINE
  5
FE
330
1F
100
AcDbEntity
  8
BEZUGSACHSEN
  6
Continuous
 62
     7
100
AcDbSpline
210
0.0
220
0.0
230
1.0
 70
     8
 71
     3
 72
    11
 73
     7
 74
     5
 42
0.0000000001
 43
0.0000000001
 44
0.00000001
 40
0.0
 40
0.0
 40
0.0
 40
0.0
 40
0.5521269407068747
 40
1.105196183364638
 40
1.651906304756719
 40
2.19819704872193
 40
2.19819704872193
 40
2.19819704872193
 40
2.19819704872193
 10
9.0845489829
 20
290.4052708661
 30
0.0
 10
9.077963545272208
 20
290.221135675688
 30
0.0
 10
9.06478143080646
 20
289.8525510357028
 30
0.0
 10
8.967293067005654
 20
289.3091266309991
 30
0.0
 10
8.82765575399343
 20
288.7778525014764
 30
0.0
 10
8.701465731763557
 20
288.4358580213955
 30
0.0
 10
8.6383949298
 20
288.2649263919
 30
0.0
 11
9.0845489829
 21
290.4052708661
 31
0.0
 11
9.051804400473195
 21
289.8541157600037
 31
0.0
 11
8.959737747529822
 21
289.3087632881198
 31
0.0
 11
8.819246262696407
 21
288.7804129313282
 31
0.0
 11
8.6383949298
 21
288.2649263919
 31
0.0
  0
SPLINE
  5
FF
330
1F
100
AcDbEntity
  8
BEZUGSACHSEN
  6
Continuous
 62
     7
100
AcDbSpline
210
0.0
220
0.0
230
1.0
 70
     8
 71
     3
 72
    11
 73
     7
 74
     5
 42
0.0000000001
 43
0.0000000001
 44
0.00000001
 40
0.0
 40
0.0
 40
0.0
 40
0.0
 40
0.9140556660003295
 40
1.828030949185924
 40
2.279806974872763
 40
2.730944124783995
 40
2.730944124783995
 40
2.730944124783995
 40
2.730944124783995
 10
0.351501909785439
 20
288.264926392085
 30
0.0
 10
0.4841566167491639
 20
288.5396429897517
 30
0.0
 10
0.7494543649114637
 20
289.089052026279
 30
0.0
 10
0.96480957821981
 20
289.8217629473835
 30
0.0
 10
1.068503791892438
 20
290.4197081534986
 30
0.0
 10
1.079203109348335
 20
290.7208313689361
 30
0.0
 10
1.08454898280937
 20
290.871286443528
 30
0.0
 11
0.351501909785439
 21
288.264926392085
 31
0.0
 11
0.7263094395608898
 21
289.0986032336555
 31
0.0
 11
0.9856007999587458
 21
289.975027108671
 31
0.0
 11
1.058317773446041
 21
290.4209125414362
 31
0.0
 11
1.08454898280937
 21
290.871286443528
 31
0.0
  0
SPLINE
  5
100
330
1F
100
AcDbEntity
  8
BEZUGSACHSEN
  6
Continuous
 62
     7
100
AcDbSpline
210
0.0
220
0.0
230
1.0
 70
     8
 71
     3
 72
    11
 73
     7
 74
     5
 42
0.0000000001
 43
0.0000000001
 44
0.00000001
 40
0.0
 40
0.0
 40
0.0
 40
0.0
 40
0.8249192366887561
 40
1.65011689194768
 40
2.190492152310123
 40
2.730585915394871
 40
2.730585915394871
 40
2.730585915394871
 40
2.730585915394871
 10
1.08454898280937
 20
315.678566340272
 30
0.0
 10
1.066815678503879
 20
315.9537566322575
 30
0.0
 10
1.031343084723671
 20
316.5042300957301
 30
0.0
 10
0.8229082680794708
 20
317.2089636808906
 30
0.0
 10
0.5926818371009794
 20
317.8011774059707
 30
0.0
 10
0.4318812542989068
 20
318.1237047394159
 30
0.0
 10
0.351501909785439
 20
318.284926391715
 30
0.0
 11
1.08454898280937
 21
315.678566340272
 31
0.0
 11
1.000973528772952
 21
316.4992409959924
 31
0.0
 11
0.7830120866724898
 21
317.2951329358953
 31
0.0
 11
0.5850770081133014
 21
317.797952114813
 31
0.0
 11
0.351501909785439
 21
318.284926391715
 31
0.0
  0
DIMENSION
  5
10B
330
1F
100
AcDbEntity
  8
1
100
AcDbDimension
  2
*D2
 10
259.863336932673
 20
309.2749263919
 30
0.0
 11
256.113336932673
 21
303.12105544366
 31
0.0
 70
    32
  1
<>
 71
     5
 42
-1.0
 53
90.0
  3
ME10_DIM_10
100
AcDbAlignedDimension
 13
249.0845489829
 23
297.2749263919
 33
0.0
 14
249.0845489829
 24
309.2749263919
 34
0.0
 50
90.0
100
AcDbRotatedDimension
  0
DIMENSION
  5
116
330
1F
100
AcDbEntity
  8
1
100
AcDbDimension
  2
*D3
 10
268.721958345562
 20
315.2749263918466
 30
0.0
 11
264.971958345562
 21
303.606459356695
 31
0.0
 70
    32
  1
<>
 71
     5
 42
-1.0
 53
90.0
  3
ME10_DIM_11
100
AcDbAlignedDimension
 13
249.0845489829
 23
291.2749263918486
 33
0.0
 14
249.0845489829
 24
315.2749263918466
 34
0.0
 50
90.0
100
AcDbRotatedDimension
  0
DIMENSION
  5
121
330
1F
100
AcDbEntity
  8
1
100
AcDbDimension
  2
*D4
 10
276.488420954123
 20
319.2749263919
 30
0.0
 11
272.738420954123
 21
303.727810334954
 31
0.0
 70
    32
  1
<>
 71
     5
 42
-1.0
 53
90.0
  3
ME10_DIM_12
100
AcDbAlignedDimension
 13
198.2597300382
 23
287.2749263919
 33
0.0
 14
198.2597300382
 24
319.2749263919
 34
0.0
 50
90.0
100
AcDbRotatedDimension
  0
DIMENSION
  5
12C
330
1F
100
AcDbEntity
  8
1
100
AcDbDimension
  2
*D5
 10
249.0845489829
 20
360.786466214044
 30
0.0
 11
166.423558042378
 21
364.536466214044
 31
0.0
 70
    32
  1
<>
 71
     5
 42
-1.0
 53
0.00013888888889
  3
ME10_DIM_13
100
AcDbAlignedDimension
 13
78.0845489829
 23
353.2748894707
 33
0.0
 14
249.0845489829
 24
314.3505359002
 34
0.0
100
AcDbRotatedDimension
  0
DIMENSION
  5
137
330
1F
100
AcDbEntity
  8
1
100
AcDbDimension
  2
*D6
 10
249.0845489829
 20
368.65283416215
 30
0.0
 11
148.861434251257
 21
372.40283416215
 31
0.0
 70
    32
  1
<>
 71
     5
 42
-1.0
 53
0.00013888888889
  3
ME10_DIM_14
100
AcDbAlignedDimension
 13
49.0845489829
 23
353.2749263919
 33
0.0
 14
249.0845489829
 24
314.3505359002
 34
0.0
100
AcDbRotatedDimension
  0
DIMENSION
  5
142
330
1F
100
AcDbEntity
  8
1
100
AcDbDimension
  2
*D7
 10
249.0845489829
 20
375.787446952293
 30
0.0
 11
131.299310460136
 21
379.537446952293
 31
0.0
 70
    32
  1
<>
 71
     5
 42
-1.0
 53
0.00013888888889
  3
ME10_DIM_15
100
AcDbAlignedDimension
 13
-0.9154510171
 23
336.8751179544
 33
0.0
 14
249.0845489829
 24
314.3505359002
 34
0.0
100
AcDbRotatedDimension
  0
INSERT
  5
149
330
1F
100
AcDbEntity
  8
1
100
AcDbBlockReference
  2
*D8
 10
0.0
 20
0.0
 30
0.0
  0
DIMENSION
  5
154
330
1F
100
AcDbEntity
  8
1
100
AcDbDimension
  2
*D9
 10
229.6976770115722
 20
318.0397260911906
 30
0.0
 11
232.6512204606835
 21
326.8330108147099
 31
0.0
 70
    37
  1
<>
 71
     5
 42
-1.0
  3
ME10_DIM_16
100
AcDb3PointAngularDimension
 13
229.6249457575564
 23
316.8064303798159
 33
0.0
 14
201.4059503573821
 24
319.2749263919
 34
0.0
 15
198.2597300382
 25
319.2749263919
 35
0.0
  0
ENDSEC
  0
SECTION
  2
OBJECTS
  0
DICTIONARY
  5
C
330
0
100
AcDbDictionary
281
     1
  3
ACAD_GROUP
350
D
  3
ACAD_LAYOUT
350
1A
  3
ACAD_MLEADERSTYLE
350
157
  3
ACAD_MLINESTYLE
350
17
  3
ACAD_PLOTSETTINGS
350
19
  3
ACAD_PLOTSTYLENAME
350
E
  3
ACAD_SCALELIST
350
4B
  3
ACAD_VISUALSTYLE
350
2A
  3
AcDbVariableDictionary
350
155
  0
DICTIONARY
  5
D
102
{ACAD_REACTORS
330
C
102
}
330
C
100
AcDbDictionary
281
     1
  0
DICTIONARY
  5
1A
102
{ACAD_REACTORS
330
C
102
}
330
C
100
AcDbDictionary
281
     1
  3
Layout1
350
1E
  3
Layout2
350
26
  3
Model
350
22
  0
DICTIONARY
  5
157
102
{ACAD_REACTORS
330
C
102
}
330
C
100
AcDbDictionary
281
     1
  0
DICTIONARY
  5
17
102
{ACAD_REACTORS
330
C
102
}
330
C
100
AcDbDictionary
281
     1
  3
Standard
350
18
  0
DICTIONARY
  5
19
102
{ACAD_REACTORS
330
C
102
}
330
C
100
AcDbDictionary
281
     1
  0
ACDBDICTIONARYWDFLT
  5
E
102
{ACAD_REACTORS
330
C
102
}
330
C
100
AcDbDictionary
281
     1
  3
Normal
350
F
100
AcDbDictionaryWithDefault
340
F
  0
DICTIONARY
  5
4B
102
{ACAD_REACTORS
330
C
102
}
330
C
100
AcDbDictionary
281
     1
  3
A0
350
4C
  3
A1
350
4D
  3
A2
350
4E
  3
A3
350
4F
  3
A4
350
50
  3
A5
350
51
  3
A6
350
52
  3
A7
350
53
  3
A8
350
54
  3
A9
350
55
  3
B0
350
56
  3
B1
350
57
  3
B2
350
58
  3
B3
350
59
  3
B4
350
5A
  3
B5
350
5B
  3
B6
350
5C
  3
B7
350
5D
  3
B8
350
5E
  3
B9
350
5F
  3
C0
350
60
  3
C1
350
61
  3
C2
350
62
  3
C3
350
63
  3
C4
350
64
  3
C5
350
65
  3
C6
350
66
  3
C7
350
67
  3
C8
350
68
  3
C9
350
69
  3
D0
350
6A
  3
D1
350
6B
  3
D2
350
6C
  0
DICTIONARY
  5
2A
102
{ACAD_REACTORS
330
C
102
}
330
C
100
AcDbDictionary
281
     1
  3
2dWireframe
350
2F
  3
3D Hidden
350
31
  3
3dWireframe
350
30
  3
Basic
350
32
  3
Brighten
350
36
  3
ColorChange
350
3A
  3
Conceptual
350
34
  3
Dim
350
35
  3
Facepattern
350
39
  3
Flat
350
2B
  3
FlatWithEdges
350
2C
  3
Gouraud
350
2D
  3
GouraudWithEdges
350
2E
  3
Linepattern
350
38
  3
Realistic
350
33
  3
Thicken
350
37
  0
DICTIONARY
  5
155
102
{ACAD_REACTORS
330
C
102
}
330
C
100
AcDbDictionary
281
     1
  3
CANNOSCALE
350
158
  0
LAYOUT
  5
1E
102
{ACAD_REACTORS
330
1A
102
}
330
1A
100
AcDbPlotSettings
  1

  2
none_device
  4

  6

 40
0.0
 41
0.0
 42
0.0
 43
0.0
 44
0.0
 45
0.0
 46
0.0
 47
0.0
 48
0.0
 49
0.0
140
0.0
141
0.0
142
1.0
143
1.0
 70
   688
 72
     0
 73
     0
 74
     5
  7

 75
    16
147
1.0
148
0.0
149
0.0
100
AcDbLayout
  1
Layout1
 70
     1
 71
     1
 10
0.0
 20
0.0
 11
12.0
 21
9.0
 12
0.0
 22
0.0
 32
0.0
 14
1.00000000000000E+20
 24
1.00000000000000E+20
 34
1.00000000000000E+20
 15
-1.00000000000000E+20
 25
-1.00000000000000E+20
 35
-1.00000000000000E+20
146
0.0
 13
0.0
 23
0.0
 33
0.0
 16
1.0
 26
0.0
 36
0.0
 17
0.0
 27
1.0
 37
0.0
 76
     0
330
1B
  0
LAYOUT
  5
26
102
{ACAD_REACTORS
330
1A
102
}
330
1A
100
AcDbPlotSettings
  1

  2
none_device
  4

  6

 40
0.0
 41
0.0
 42
0.0
 43
0.0
 44
0.0
 45
0.0
 46
0.0
 47
0.0
 48
0.0
 49
0.0
140
0.0
141
0.0
142
1.0
143
1.0
 70
   688
 72
     0
 73
     0
 74
     5
  7

 75
    16
147
1.0
148
0.0
149
0.0
100
AcDbLayout
  1
Layout2
 70
     1
 71
     2
 10
0.0
 20
0.0
 11
0.0
 21
0.0
 12
0.0
 22
0.0
 32
0.0
 14
0.0
 24
0.0
 34
0.0
 15
0.0
 25
0.0
 35
0.0
146
0.0
 13
0.0
 23
0.0
 33
0.0
 16
1.0
 26
0.0
 36
0.0
 17
0.0
 27
1.0
 37
0.0
 76
     0
330
23
  0
LAYOUT
  5
22
102
{ACAD_REACTORS
330
1A
102
}
330
1A
100
AcDbPlotSettings
  1

  2
none_device
  4

  6

 40
0.0
 41
0.0
 42
0.0
 43
0.0
 44
0.0
 45
0.0
 46
0.0
 47
0.0
 48
0.0
 49
0.0
140
0.0
141
0.0
142
1.0
143
1.0
 70
  1712
 72
     0
 73
     0
 74
     0
  7

 75
     0
147
1.0
148
0.0
149
0.0
100
AcDbLayout
  1
Model
 70
     1
 71
     0
 10
0.0
 20
0.0
 11
12.0
 21
9.0
 12
0.0
 22
0.0
 32
0.0
 14
-22.28298592137965
 24
253.2749263919
 34
0.0
 15
278.488420954123
 25
381.287446952293
 35
0.0
146
0.0
 13
0.0
 23
0.0
 33
0.0
 16
1.0
 26
0.0
 36
0.0
 17
0.0
 27
1.0
 37
0.0
 76
     0
330
1F
331
29
  0
MLINESTYLE
  5
18
102
{ACAD_REACTORS
330
17
102
}
330
17
100
AcDbMlineStyle
  2
Standard
 70
     0
  3

 62
   256
 51
90.0
 52
90.0
 71
     2
 49
0.5
 62
   256
  6
BYLAYER
 49
-0.5
 62
   256
  6
BYLAYER
  0
ACDBPLACEHOLDER
  5
F
102
{ACAD_REACTORS
330
E
102
}
330
E
  0
SCALE
  5
4C
102
{ACAD_REACTORS
330
4B
102
}
330
4B
100
AcDbScale
 70
     0
300
1:1
140
1.0
141
1.0
290
     1
  0
SCALE
  5
4D
102
{ACAD_REACTORS
330
4B
102
}
330
4B
100
AcDbScale
 70
     0
300
1:2
140
1.0
141
2.0
290
     0
  0
SCALE
  5
4E
102
{ACAD_REACTORS
330
4B
102
}
330
4B
100
AcDbScale
 70
     0
300
1:4
140
1.0
141
4.0
290
     0
  0
SCALE
  5
4F
102
{ACAD_REACTORS
330
4B
102
}
330
4B
100
AcDbScale
 70
     0
300
1:5
140
1.0
141
5.0
290
     0
  0
SCALE
  5
50
102
{ACAD_REACTORS
330
4B
102
}
330
4B
100
AcDbScale
 70
     0
300
1:8
140
1.0
141
8.0
290
     0
  0
SCALE
  5
51
102
{ACAD_REACTORS
330
4B
102
}
330
4B
100
AcDbScale
 70
     0
300
1:10
140
1.0
141
10.0
290
     0
  0
SCALE
  5
52
102
{ACAD_REACTORS
330
4B
102
}
330
4B
100
AcDbScale
 70
     0
300
1:16
140
1.0
141
16.0
290
     0
  0
SCALE
  5
53
102
{ACAD_REACTORS
330
4B
102
}
330
4B
100
AcDbScale
 70
     0
300
1:20
140
1.0
141
20.0
290
     0
  0
SCALE
  5
54
102
{ACAD_REACTORS
330
4B
102
}
330
4B
100
AcDbScale
 70
     0
300
1:30
140
1.0
141
30.0
290
     0
  0
SCALE
  5
55
102
{ACAD_REACTORS
330
4B
102
}
330
4B
100
AcDbScale
 70
     0
300
1:40
140
1.0
141
40.0
290
     0
  0
SCALE
  5
56
102
{ACAD_REACTORS
330
4B
102
}
330
4B
100
AcDbScale
 70
     0
300
1:50
140
1.0
141
50.0
290
     0
  0
SCALE
  5
57
102
{ACAD_REACTORS
330
4B
102
}
330
4B
100
AcDbScale
 70
     0
300
1:100
140
1.0
141
100.0
290
     0
  0
SCALE
  5
58
102
{ACAD_REACTORS
330
4B
102
}
330
4B
100
AcDbScale
 70
     0
300
2:1
140
2.0
141
1.0
290
     0
  0
SCALE
  5
59
102
{ACAD_REACTORS
330
4B
102
}
330
4B
100
AcDbScale
 70
     0
300
4:1
140
4.0
141
1.0
290
     0
  0
SCALE
  5
5A
102
{ACAD_REACTORS
330
4B
102
}
330
4B
100
AcDbScale
 70
     0
300
8:1
140
8.0
141
1.0
290
     0
  0
SCALE
  5
5B
102
{ACAD_REACTORS
330
4B
102
}
330
4B
100
AcDbScale
 70
     0
300
10:1
140
10.0
141
1.0
290
     0
  0
SCALE
  5
5C
102
{ACAD_REACTORS
330
4B
102
}
330
4B
100
AcDbScale
 70
     0
300
100:1
140
100.0
141
1.0
290
     0
  0
SCALE
  5
5D
102
{ACAD_REACTORS
330
4B
102
}
330
4B
100
AcDbScale
 70
     0
300
1/128" = 1'-0"
140
0.0078125
141
12.0
290
     0
  0
SCALE
  5
5E
102
{ACAD_REACTORS
330
4B
102
}
330
4B
100
AcDbScale
 70
     0
300
1/64" = 1'-0"
140
0.015625
141
12.0
290
     0
  0
SCALE
  5
5F
102
{ACAD_REACTORS
330
4B
102
}
330
4B
100
AcDbScale
 70
     0
300
1/32" = 1'-0"
140
0.03125
141
12.0
290
     0
  0
SCALE
  5
60
102
{ACAD_REACTORS
330
4B
102
}
330
4B
100
AcDbScale
 70
     0
300
1/16" = 1'-0"
140
0.0625
141
12.0
290
     0
  0
SCALE
  5
61
102
{ACAD_REACTORS
330
4B
102
}
330
4B
100
AcDbScale
 70
     0
300
3/32" = 1'-0"
140
0.09375
141
12.0
290
     0
  0
SCALE
  5
62
102
{ACAD_REACTORS
330
4B
102
}
330
4B
100
AcDbScale
 70
     0
300
1/8" = 1'-0"
140
0.125
141
12.0
290
     0
  0
SCALE
  5
63
102
{ACAD_REACTORS
330
4B
102
}
330
4B
100
AcDbScale
 70
     0
300
3/16" = 1'-0"
140
0.1875
141
12.0
290
     0
  0
SCALE
  5
64
102
{ACAD_REACTORS
330
4B
102
}
330
4B
100
AcDbScale
 70
     0
300
1/4" = 1'-0"
140
0.25
141
12.0
290
     0
  0
SCALE
  5
65
102
{ACAD_REACTORS
330
4B
102
}
330
4B
100
AcDbScale
 70
     0
300
3/8" = 1'-0"
140
0.375
141
12.0
290
     0
  0
SCALE
  5
66
102
{ACAD_REACTORS
330
4B
102
}
330
4B
100
AcDbScale
 70
     0
300
1/2" = 1'-0"
140
0.5
141
12.0
290
     0
  0
SCALE
  5
67
102
{ACAD_REACTORS
330
4B
102
}
330
4B
100
AcDbScale
 70
     0
300
3/4" = 1'-0"
140
0.75
141
12.0
290
     0
  0
SCALE
  5
68
102
{ACAD_REACTORS
330
4B
102
}
330
4B
100
AcDbScale
 70
     0
300
1" = 1'-0"
140
1.0
141
12.0
290
     0
  0
SCALE
  5
69
102
{ACAD_REACTORS
330
4B
102
}
330
4B
100
AcDbScale
 70
     0
300
1-1/2" = 1'-0"
140
1.5
141
12.0
290
     0
  0
SCALE
  5
6A
102
{ACAD_REACTORS
330
4B
102
}
330
4B
100
AcDbScale
 70
     0
300
3" = 1'-0"
140
3.0
141
12.0
290
     0
  0
SCALE
  5
6B
102
{ACAD_REACTORS
330
4B
102
}
330
4B
100
AcDbScale
 70
     0
300
6" = 1'-0"
140
6.0
141
12.0
290
     0
  0
SCALE
  5
6C
102
{ACAD_REACTORS
330
4B
102
}
330
4B
100
AcDbScale
 70
     0
300
1'-0" = 1'-0"
140
12.0
141
12.0
290
     0
  0
VISUALSTYLE
  5
2F
102
{ACAD_REACTORS
330
2A
102
}
330
2A
100
AcDbVisualStyle
  2
2dWireframe
 70
     4
 71
     0
 72
     2
 73
     0
 90
        0
 40
-0.6
 41
-30.0
 62
     5
 63
     7
 74
     1
 91
        4
 64
     7
 65
   257
 75
     1
175
     1
 42
1.0
 92
        0
 66
   257
 43
1.0
 76
     1
 77
     6
 78
     2
 67
     7
 79
     5
170
     0
171
     0
290
     0
174
     0
 93
        1
 44
0.0
173
     0
291
     0
 45
0.0
1001
ACAD
1000
AcDbSavedByObjectVersion
1070
     0
  0
VISUALSTYLE
  5
31
102
{ACAD_REACTORS
330
2A
102
}
330
2A
100
AcDbVisualStyle
  2
3D Hidden
 70
     6
 71
     1
 72
     2
 73
     2
 90
        0
 40
-0.6
 41
-30.0
 62
     5
 63
     7
 74
     2
 91
        2
 64
     7
 65
   257
 75
     2
175
     1
 42
40.0
 92
        0
 66
   257
 43
1.0
 76
     1
 77
     6
 78
     2
 67
     7
 79
     3
170
     0
171
     0
290
     0
174
     0
 93
        1
 44
0.0
173
     0
291
     0
 45
0.0
1001
ACAD
1000
AcDbSavedByObjectVersion
1070
     0
  0
VISUALSTYLE
  5
30
102
{ACAD_REACTORS
330
2A
102
}
330
2A
100
AcDbVisualStyle
  2
3dWireframe
 70
     5
 71
     0
 72
     2
 73
     0
 90
        0
 40
-0.6
 41
-30.0
 62
     5
 63
     7
 74
     1
 91
        4
 64
     7
 65
   257
 75
     1
175
     1
 42
1.0
 92
        0
 66
   257
 43
1.0
 76
     1
 77
     6
 78
     2
 67
     7
 79
     5
170
     0
171
     0
290
     0
174
     0
 93
        1
 44
0.0
173
     0
291
     0
 45
0.0
1001
ACAD
1000
AcDbSavedByObjectVersion
1070
     0
  0
VISUALSTYLE
  5
32
102
{ACAD_REACTORS
330
2A
102
}
330
2A
100
AcDbVisualStyle
  2
Basic
 70
     7
 71
     1
 72
     0
 73
     1
 90
        0
 40
-0.6
 41
-30.0
 62
     5
 63
     7
 74
     0
 91
        4
 64
     7
 65
   257
 75
     1
175
     1
 42
1.0
 92
        8
 66
     7
 43
1.0
 76
     1
 77
     6
 78
     2
 67
     7
 79
     5
170
     0
171
     0
290
     0
174
     0
 93
        1
 44
0.0
173
     0
291
     1
 45
0.0
1001
ACAD
1000
AcDbSavedByObjectVersion
1070
     0
  0
VISUALSTYLE
  5
36
102
{ACAD_REACTORS
330
2A
102
}
330
2A
100
AcDbVisualStyle
  2
Brighten
 70
    12
 71
     2
 72
     2
 73
     0
 90
        0
 40
-0.6
 41
-30.0
 62
     5
 63
     7
 74
     1
 91
        4
 64
     7
 65
   257
 75
     1
175
     1
 42
1.0
 92
        8
 66
     7
 43
1.0
 76
     1
 77
     6
 78
     2
 67
     7
 79
     5
170
     0
171
     0
290
     0
174
     0
 93
        1
 44
50.0
173
     0
291
     1
 45
0.0
1001
ACAD
1000
AcDbSavedByObjectVersion
1070
     0
  0
VISUALSTYLE
  5
3A
102
{ACAD_REACTORS
330
2A
102
}
330
2A
100
AcDbVisualStyle
  2
ColorChange
 70
    16
 71
     2
 72
     2
 73
     3
 90
        0
 40
-0.6
 41
-30.0
 62
     5
 63
     8
 74
     1
 91
        4
 64
     7
 65
   257
 75
     1
175
     1
 42
1.0
 92
        8
 66
     8
 43
1.0
 76
     1
 77
     6
 78
     2
 67
     7
 79
     5
170
     0
171
     0
290
     0
174
     0
 93
        1
 44
0.0
173
     0
291
     1
 45
0.0
1001
ACAD
1000
AcDbSavedByObjectVersion
1070
     0
  0
VISUALSTYLE
  5
34
102
{ACAD_REACTORS
330
2A
102
}
330
2A
100
AcDbVisualStyle
  2
Conceptual
 70
     9
 71
     3
 72
     2
 73
     0
 90
        0
 40
-0.6
 41
-30.0
 62
     5
 63
     7
 74
     2
 91
        2
 64
     7
 65
   257
 75
     1
175
     1
 42
40.0
 92
        8
 66
     7
 43
1.0
 76
     1
 77
     6
 78
     2
 67
     7
 79
     3
170
     0
171
     0
290
     0
174
     0
 93
        1
 44
0.0
173
     0
291
     0
 45
0.0
1001
ACAD
1000
AcDbSavedByObjectVersion
1070
     0
  0
VISUALSTYLE
  5
35
102
{ACAD_REACTORS
330
2A
102
}
330
2A
100
AcDbVisualStyle
  2
Dim
 70
    11
 71
     2
 72
     2
 73
     0
 90
        0
 40
-0.6
 41
-30.0
 62
     5
 63
     7
 74
     1
 91
        4
 64
     7
 65
   257
 75
     1
175
     1
 42
1.0
 92
        8
 66
     7
 43
1.0
 76
     1
 77
     6
 78
     2
 67
     7
 79
     5
170
     0
171
     0
290
     0
174
     0
 93
        1
 44
-50.0
173
     0
291
     1
 45
0.0
1001
ACAD
1000
AcDbSavedByObjectVersion
1070
     0
  0
VISUALSTYLE
  5
39
102
{ACAD_REACTORS
330
2A
102
}
330
2A
100
AcDbVisualStyle
  2
Facepattern
 70
    15
 71
     2
 72
     2
 73
     0
 90
        0
 40
-0.6
 41
-30.0
 62
     5
 63
     7
 74
     1
 91
        4
 64
     7
 65
   257
 75
     1
175
     1
 42
1.0
 92
        8
 66
     7
 43
1.0
 76
     1
 77
     6
 78
     2
 67
     7
 79
     5
170
     0
171
     0
290
     0
174
     0
 93
        1
 44
0.0
173
     0
291
     1
 45
0.0
1001
ACAD
1000
AcDbSavedByObjectVersion
1070
     0
  0
VISUALSTYLE
  5
2B
102
{ACAD_REACTORS
330
2A
102
}
330
2A
100
AcDbVisualStyle
  2
Flat
 70
     0
 71
     2
 72
     1
 73
     1
 90
        2
 40
-0.6
 41
30.0
 62
     5
 63
     7
 74
     0
 91
        4
 64
     7
 65
   257
 75
     1
175
     1
 42
1.0
 92
        8
 66
     7
 43
1.0
 76
     1
 77
     6
 78
     2
 67
     7
 79
     5
170
     0
171
     0
290
     0
174
     0
 93
       13
 44
0.0
173
     0
291
     1
 45
0.0
1001
ACAD
1000
AcDbSavedByObjectVersion
1070
     0
  0
VISUALSTYLE
  5
2C
102
{ACAD_REACTORS
330
2A
102
}
330
2A
100
AcDbVisualStyle
  2
FlatWithEdges
 70
     1
 71
     2
 72
     1
 73
     1
 90
        2
 40
-0.6
 41
30.0
 62
     5
 63
     7
 74
     1
 91
        4
 64
     7
 65
   257
 75
     1
175
     1
 42
1.0
 92
        0
 66
   257
 43
1.0
 76
     1
 77
     6
 78
     2
 67
     7
 79
     5
170
     0
171
     0
290
     0
174
     0
 93
       13
 44
0.0
173
     0
291
     1
 45
0.0
1001
ACAD
1000
AcDbSavedByObjectVersion
1070
     0
  0
VISUALSTYLE
  5
2D
102
{ACAD_REACTORS
330
2A
102
}
330
2A
100
AcDbVisualStyle
  2
Gouraud
 70
     2
 71
     2
 72
     2
 73
     1
 90
        2
 40
-0.6
 41
30.0
 62
     5
 63
     7
 74
     0
 91
        4
 64
     7
 65
   257
 75
     1
175
     1
 42
1.0
 92
        0
 66
     7
 43
1.0
 76
     1
 77
     6
 78
     2
 67
     7
 79
     5
170
     0
171
     0
290
     0
174
     0
 93
       13
 44
0.0
173
     0
291
     1
 45
0.0
1001
ACAD
1000
AcDbSavedByObjectVersion
1070
     0
  0
VISUALSTYLE
  5
2E
102
{ACAD_REACTORS
330
2A
102
}
330
2A
100
AcDbVisualStyle
  2
GouraudWithEdges
 70
     3
 71
     2
 72
     2
 73
     1
 90
        2
 40
-0.6
 41
30.0
 62
     5
 63
     7
 74
     1
 91
        4
 64
     7
 65
   257
 75
     1
175
     1
 42
1.0
 92
        0
 66
   257
 43
1.0
 76
     1
 77
     6
 78
     2
 67
     7
 79
     5
170
     0
171
     0
290
     0
174
     0
 93
       13
 44
0.0
173
     0
291
     1
 45
0.0
1001
ACAD
1000
AcDbSavedByObjectVersion
1070
     0
  0
VISUALSTYLE
  5
38
102
{ACAD_REACTORS
330
2A
102
}
330
2A
100
AcDbVisualStyle
  2
Linepattern
 70
    14
 71
     2
 72
     2
 73
     0
 90
        0
 40
-0.6
 41
-30.0
 62
     5
 63
     7
 74
     1
 91
        4
 64
     7
 65
   257
 75
     7
175
     7
 42
1.0
 92
        8
 66
     7
 43
1.0
 76
     1
 77
     6
 78
     2
 67
     7
 79
     5
170
     0
171
     0
290
     0
174
     0
 93
        1
 44
0.0
173
     0
291
     1
 45
0.0
1001
ACAD
1000
AcDbSavedByObjectVersion
1070
     0
  0
VISUALSTYLE
  5
33
102
{ACAD_REACTORS
330
2A
102
}
330
2A
100
AcDbVisualStyle
  2
Realistic
 70
     8
 71
     2
 72
     2
 73
     0
 90
        0
 40
-0.6
 41
-30.0
 62
     5
 63
     7
 74
     1
 91
        0
 64
     7
 65
   257
 75
     1
175
     1
 42
1.0
 92
        8
 66
     8
 43
1.0
 76
     1
 77
     6
 78
     2
 67
     7
 79
     5
170
     0
171
     0
290
     0
174
     0
 93
       13
 44
0.0
173
     0
291
     0
 45
0.0
1001
ACAD
1000
AcDbSavedByObjectVersion
1070
     0
  0
VISUALSTYLE
  5
37
102
{ACAD_REACTORS
330
2A
102
}
330
2A
100
AcDbVisualStyle
  2
Thicken
 70
    13
 71
     2
 72
     2
 73
     0
 90
        0
 40
-0.6
 41
-30.0
 62
     5
 63
     7
 74
     1
 91
        4
 64
     7
 65
   257
 75
     1
175
     1
 42
1.0
 92
       12
 66
     7
 43
1.0
 76
     1
 77
     6
 78
     2
 67
     7
 79
     5
170
     0
171
     0
290
     0
174
     0
 93
        1
 44
0.0
173
     0
291
     1
 45
0.0
1001
ACAD
1000
AcDbSavedByObjectVersion
1070
     0
  0
DICTIONARYVAR
  5
158
102
{ACAD_REACTORS
330
155
102
}
330
155
100
DictionaryVariables
280
     0
  1
1:1
  0
ENDSEC
  0
EOF
