  0
SECTION
  2
HEADER
  9
$ACADVER
  1
AC1015
  9
$ACADMAINTVER
 70
     6
  9
$DWGCODEPAGE
  3
ANSI_1252
  9
$INSBASE
 10
0.0
 20
0.0
 30
0.0
  9
$EXTMIN
 10
-3.2057218207331
 20
244.4209716274
 30
0.0
  9
$EXTMAX
 10
299.38199350251
 20
370.371696273576
 30
0.0
  9
$LIMMIN
 10
0.0
 20
0.0
  9
$LIMMAX
 10
12.0
 20
9.0
  9
$ORTHOMODE
 70
     0
  9
$REGENMODE
 70
     1
  9
$FILLMODE
 70
     1
  9
$QTEXTMODE
 70
     0
  9
$MIRRTEXT
 70
     1
  9
$LTSCALE
 40
1.0
  9
$ATTMODE
 70
     1
  9
$TEXTSIZE
 40
0.2
  9
$TRACEWID
 40
0.05
  9
$TEXTSTYLE
  7
Standard
  9
$CLAYER
  8
0
  9
$CELTYPE
  6
ByLayer
  9
$CECOLOR
 62
   256
  9
$CELTSCALE
 40
1.0
  9
$DISPSILH
 70
     0
  9
$DIMSCALE
 40
1.0
  9
$DIMASZ
 40
0.18
  9
$DIMEXO
 40
0.0625
  9
$DIMDLI
 40
0.38
  9
$DIMRND
 40
0.0
  9
$DIMDLE
 40
0.0
  9
$DIMEXE
 40
0.18
  9
$DIMTP
 40
0.0
  9
$DIMTM
 40
0.0
  9
$DIMTXT
 40
0.18
  9
$DIMCEN
 40
0.09
  9
$DIMTSZ
 40
0.0
  9
$DIMTOL
 70
     0
  9
$DIMLIM
 70
     0
  9
$DIMTIH
 70
     1
  9
$DIMTOH
 70
     1
  9
$DIMSE1
 70
     0
  9
$DIMSE2
 70
     0
  9
$DIMTAD
 70
     0
  9
$DIMZIN
 70
     0
  9
$DIMBLK
  1

  9
$DIMASO
 70
     1
  9
$DIMSHO
 70
     1
  9
$DIMPOST
  1

  9
$DIMAPOST
  1

  9
$DIMALT
 70
     0
  9
$DIMALTD
 70
     2
  9
$DIMALTF
 40
25.4
  9
$DIMLFAC
 40
1.0
  9
$DIMTOFL
 70
     0
  9
$DIMTVP
 40
0.0
  9
$DIMTIX
 70
     0
  9
$DIMSOXD
 70
     0
  9
$DIMSAH
 70
     0
  9
$DIMBLK1
  1

  9
$DIMBLK2
  1

  9
$DIMSTYLE
  2
Standard
  9
$DIMCLRD
 70
     0
  9
$DIMCLRE
 70
     0
  9
$DIMCLRT
 70
     0
  9
$DIMTFAC
 40
1.0
  9
$DIMGAP
 40
0.09
  9
$DIMJUST
 70
     0
  9
$DIMSD1
 70
     0
  9
$DIMSD2
 70
     0
  9
$DIMTOLJ
 70
     1
  9
$DIMTZIN
 70
     0
  9
$DIMALTZ
 70
     0
  9
$DIMALTTZ
 70
     0
  9
$DIMUPT
 70
     0
  9
$DIMDEC
 70
     4
  9
$DIMTDEC
 70
     4
  9
$DIMALTU
 70
     2
  9
$DIMALTTD
 70
     2
  9
$DIMTXSTY
  7
Standard
  9
$DIMAUNIT
 70
     0
  9
$DIMADEC
 70
     0
  9
$DIMALTRND
 40
0.0
  9
$DIMAZIN
 70
     0
  9
$DIMDSEP
 70
    46
  9
$DIMATFIT
 70
     3
  9
$DIMFRAC
 70
     0
  9
$DIMLDRBLK
  1

  9
$DIMLUNIT
 70
     2
  9
$DIMLWD
 70
    -2
  9
$DIMLWE
 70
    -2
  9
$DIMTMOVE
 70
     0
  9
$LUNITS
 70
     2
  9
$LUPREC
 70
     4
  9
$SKETCHINC
 40
0.1
  9
$FILLETRAD
 40
0.5
  9
$AUNITS
 70
     0
  9
$AUPREC
 70
     0
  9
$MENU
  1
.
  9
$ELEVATION
 40
0.0
  9
$PELEVATION
 40
0.0
  9
$THICKNESS
 40
0.0
  9
$LIMCHECK
 70
     0
  9
$CHAMFERA
 40
0.5
  9
$CHAMFERB
 40
0.5
  9
$CHAMFERC
 40
1.0
  9
$CHAMFERD
 40
0.0
  9
$SKPOLY
 70
     0
  9
$TDCREATE
 40
2456748.729535012
  9
$TDUCREATE
 40
2456748.646201678
  9
$TDUPDATE
 40
2456748.729535023
  9
$TDUUPDATE
 40
2456748.64620169
  9
$TDINDWG
 40
0.0000000116
  9
$TDUSRTIMER
 40
0.0000000116
  9
$USRTIMER
 70
     1
  9
$ANGBASE
 50
0.0
  9
$ANGDIR
 70
     0
  9
$PDMODE
 70
     0
  9
$PDSIZE
 40
0.0
  9
$PLINEWID
 40
0.0
  9
$SPLFRAME
 70
     0
  9
$SPLINETYPE
 70
     6
  9
$SPLINESEGS
 70
     8
  9
$HANDSEED
  5
158
  9
$SURFTAB1
 70
     6
  9
$SURFTAB2
 70
     6
  9
$SURFTYPE
 70
     6
  9
$SURFU
 70
     6
  9
$SURFV
 70
     6
  9
$UCSBASE
  2

  9
$UCSNAME
  2

  9
$UCSORG
 10
0.0
 20
0.0
 30
0.0
  9
$UCSXDIR
 10
1.0
 20
0.0
 30
0.0
  9
$UCSYDIR
 10
0.0
 20
1.0
 30
0.0
  9
$UCSORTHOREF
  2

  9
$UCSORTHOVIEW
 70
     0
  9
$UCSORGTOP
 10
0.0
 20
0.0
 30
0.0
  9
$UCSORGBOTTOM
 10
0.0
 20
0.0
 30
0.0
  9
$UCSORGLEFT
 10
0.0
 20
0.0
 30
0.0
  9
$UCSORGRIGHT
 10
0.0
 20
0.0
 30
0.0
  9
$UCSORGFRONT
 10
0.0
 20
0.0
 30
0.0
  9
$UCSORGBACK
 10
0.0
 20
0.0
 30
0.0
  9
$PUCSBASE
  2

  9
$PUCSNAME
  2

  9
$PUCSORG
 10
0.0
 20
0.0
 30
0.0
  9
$PUCSXDIR
 10
1.0
 20
0.0
 30
0.0
  9
$PUCSYDIR
 10
0.0
 20
1.0
 30
0.0
  9
$PUCSORTHOREF
  2

  9
$PUCSORTHOVIEW
 70
     0
  9
$PUCSORGTOP
 10
0.0
 20
0.0
 30
0.0
  9
$PUCSORGBOTTOM
 10
0.0
 20
0.0
 30
0.0
  9
$PUCSORGLEFT
 10
0.0
 20
0.0
 30
0.0
  9
$PUCSORGRIGHT
 10
0.0
 20
0.0
 30
0.0
  9
$PUCSORGFRONT
 10
0.0
 20
0.0
 30
0.0
  9
$PUCSORGBACK
 10
0.0
 20
0.0
 30
0.0
  9
$USERI1
 70
     0
  9
$USERI2
 70
     0
  9
$USERI3
 70
     0
  9
$USERI4
 70
     0
  9
$USERI5
 70
     0
  9
$USERR1
 40
16.5
  9
$USERR2
 40
0.0
  9
$USERR3
 40
0.0
  9
$USERR4
 40
0.0
  9
$USERR5
 40
0.0
  9
$WORLDVIEW
 70
     1
  9
$SHADEDGE
 70
     3
  9
$SHADEDIF
 70
    70
  9
$TILEMODE
 70
     1
  9
$MAXACTVP
 70
    64
  9
$PINSBASE
 10
0.0
 20
0.0
 30
0.0
  9
$PLIMCHECK
 70
     0
  9
$PEXTMIN
 10
1.00000000000000E+20
 20
1.00000000000000E+20
 30
1.00000000000000E+20
  9
$PEXTMAX
 10
-1.00000000000000E+20
 20
-1.00000000000000E+20
 30
-1.00000000000000E+20
  9
$PLIMMIN
 10
0.0
 20
0.0
  9
$PLIMMAX
 10
12.0
 20
9.0
  9
$UNITMODE
 70
     0
  9
$VISRETAIN
 70
     1
  9
$PLINEGEN
 70
     0
  9
$PSLTSCALE
 70
     1
  9
$TREEDEPTH
 70
  3020
  9
$CMLSTYLE
  2
Standard
  9
$CMLJUST
 70
     0
  9
$CMLSCALE
 40
1.0
  9
$PROXYGRAPHICS
 70
     1
  9
$MEASUREMENT
 70
     1
  9
$CELWEIGHT
370
    -1
  9
$ENDCAPS
280
     0
  9
$JOINSTYLE
280
     0
  9
$LWDISPLAY
290
     0
  9
$INSUNITS
 70
     1
  9
$HYPERLINKBASE
  1

  9
$STYLESHEET
  1

  9
$XEDIT
290
     1
  9
$CEPSNTYPE
380
     0
  9
$PSTYLEMODE
290
     1
  9
$FINGERPRINTGUID
  2
{A9AE6ECD-6E9A-4871-8D14-095E39708E8E}
  9
$VERSIONGUID
  2
{FAEB1C32-E019-11D5-929B-00C0DF256EC4}
  9
$EXTNAMES
290
     1
  9
$PSVPSCALE
 40
0.0
  9
$OLESTARTUP
290
     0
  0
ENDSEC
  0
SECTION
  2
CLASSES
  0
CLASS
  1
ACDBDICTIONARYWDFLT
  2
AcDbDictionaryWithDefault
  3
ObjectDBX Classes
 90
        0
280
     0
281
     0
  0
CLASS
  1
VISUALSTYLE
  2
AcDbVisualStyle
  3
ObjectDBX Classes
 90
     4095
280
     0
281
     0
  0
CLASS
  1
SCALE
  2
AcDbScale
  3
ObjectDBX Classes
 90
     1153
280
     0
281
     0
  0
CLASS
  1

  2
exOdDbPolyline
  3

 90
        0
280
     0
281
     1
  0
CLASS
  1

  2
exOdDbCircle
  3

 90
        0
280
     0
281
     1
  0
CLASS
  1

  2
exOdDbSpline
  3

 90
        0
280
     0
281
     1
  0
CLASS
  1
DICTIONARYVAR
  2
AcDbDictionaryVar
  3
ObjectDBX Classes
 90
        0
280
     0
281
     0
  0
CLASS
  1
ACDBPLACEHOLDER
  2
AcDbPlaceHolder
  3
ObjectDBX Classes
 90
        0
280
     0
281
     0
  0
CLASS
  1
LAYOUT
  2
AcDbLayout
  3
ObjectDBX Classes
 90
        0
280
     0
281
     0
  0
ENDSEC
  0
SECTION
  2
TABLES
  0
TABLE
  2
VPORT
  5
8
330
0
100
AcDbSymbolTable
 70
     1
  0
VPORT
  5
29
330
8
100
AcDbSymbolTableRecord
100
AcDbViewportTableRecord
  2
*Active
 70
     0
 10
0.0
 20
0.0
 11
1.0
 21
1.0
 12
148.0881358408884
 22
307.396333950488
 13
0.0
 23
0.0
 14
0.5
 24
0.5
 15
0.5
 25
0.5
 16
0.0
 26
0.0
 36
1.0
 17
0.0
 27
0.0
 37
0.0
 40
207.6813734140588
 41
1.60267857142857
 42
50.0
 43
0.0
 44
0.0
 50
0.0
 51
0.0
 71
     0
 72
   100
 73
     1
 74
     3
 75
     0
 76
     0
 77
     0
 78
     0
281
     0
 65
     1
110
0.0
120
0.0
130
0.0
111
1.0
121
0.0
131
0.0
112
0.0
122
1.0
132
0.0
 79
     0
146
0.0
  0
ENDTAB
  0
TABLE
  2
LTYPE
  5
5
330
0
100
AcDbSymbolTable
 70
     8
  0
LTYPE
  5
14
330
5
100
AcDbSymbolTableRecord
100
AcDbLinetypeTableRecord
  2
ByBlock
 70
     0
  3

 72
    65
 73
     0
 40
0.0
  0
LTYPE
  5
15
330
5
100
AcDbSymbolTableRecord
100
AcDbLinetypeTableRecord
  2
ByLayer
 70
     0
  3

 72
    65
 73
     0
 40
0.0
  0
LTYPE
  5
16
330
5
100
AcDbSymbolTableRecord
100
AcDbLinetypeTableRecord
  2
Continuous
 70
     0
  3
Solid line
 72
    65
 73
     0
 40
0.0
  0
LTYPE
  5
3B
330
5
100
AcDbSymbolTableRecord
100
AcDbLinetypeTableRecord
  2
DASHED
 70
     0
  3
Dashed
 72
    65
 73
     2
 40
15.0
 49
7.0
 74
     0
 49
-8.0
 74
     0
  0
LTYPE
  5
3C
330
5
100
AcDbSymbolTableRecord
100
AcDbLinetypeTableRecord
  2
DOTTED
 70
     0
  3
Dotted
 72
    65
 73
     2
 40
1.0
 49
0.0
 74
     0
 49
-1.0
 74
     0
  0
LTYPE
  5
3D
330
5
100
AcDbSymbolTableRecord
100
AcDbLinetypeTableRecord
  2
DOT_CENTER
 70
     0
  3
Dot_Center
 72
    65
 73
     4
 40
14.0
 49
12.0
 74
     0
 49
-1.0
 74
     0
 49
0.0
 74
     0
 49
-1.0
 74
     0
  0
LTYPE
  5
3E
330
5
100
AcDbSymbolTableRecord
100
AcDbLinetypeTableRecord
  2
LONG_DASHED
 70
     0
  3
Long_Dashed
 72
    65
 73
     2
 40
15.0
 49
10.0
 74
     0
 49
-5.0
 74
     0
  0
LTYPE
  5
3F
330
5
100
AcDbSymbolTableRecord
100
AcDbLinetypeTableRecord
  2
DASH_CENTER
 70
     0
  3
Dash_Center
 72
    65
 73
     4
 40
14.0
 49
11.0
 74
     0
 49
-1.0
 74
     0
 49
1.0
 74
     0
 49
-1.0
 74
     0
  0
LTYPE
  5
40
330
5
100
AcDbSymbolTableRecord
100
AcDbLinetypeTableRecord
  2
PHANTOM
 70
     0
  3
Phantom
 72
    65
 73
     6
 40
13.0
 49
10.0
 74
     0
 49
-1.0
 74
     0
 49
0.0
 74
     0
 49
-1.0
 74
     0
 49
0.0
 74
     0
 49
-1.0
 74
     0
  0
LTYPE
  5
41
330
5
100
AcDbSymbolTableRecord
100
AcDbLinetypeTableRecord
  2
CENTER_DASH_DASH
 70
     0
  3
Center_Dash_Dash
 72
    65
 73
     6
 40
14.0
 49
9.0
 74
     0
 49
-1.0
 74
     0
 49
1.0
 74
     0
 49
-1.0
 74
     0
 49
1.0
 74
     0
 49
-1.0
 74
     0
  0
ENDTAB
  0
TABLE
  2
LAYER
  5
2
330
0
100
AcDbSymbolTable
 70
     6
  0
LAYER
  5
10
330
2
100
AcDbSymbolTableRecord
100
AcDbLayerTableRecord
  2
0
 70
     0
 62
     7
  6
Continuous
370
    -3
390
F
  0
LAYER
  5
42
330
2
100
AcDbSymbolTableRecord
100
AcDbLayerTableRecord
  2
1
 70
     0
 62
     7
  6
Continuous
370
    -3
390
F
  0
LAYER
  5
43
330
2
100
AcDbSymbolTableRecord
100
AcDbLayerTableRecord
  2
BEZUGSACHSEN
 70
     0
 62
     7
  6
Continuous
370
    -3
390
F
  0
LAYER
  5
44
330
2
100
AcDbSymbolTableRecord
100
AcDbLayerTableRecord
  2
DEFAULT_2
 70
     0
 62
     7
  6
Continuous
370
    -3
390
F
  0
LAYER
  5
45
330
2
100
AcDbSymbolTableRecord
100
AcDbLayerTableRecord
  2
FASEN
 70
     0
 62
     7
  6
Continuous
370
    -3
390
F
  0
LAYER
  5
46
330
2
100
AcDbSymbolTableRecord
100
AcDbLayerTableRecord
  2
RUNDUNGEN
 70
     0
 62
     7
  6
Continuous
370
    -3
390
F
  0
ENDTAB
  0
TABLE
  2
STYLE
  5
3
330
0
100
AcDbSymbolTable
 70
     2
  0
STYLE
  5
11
330
3
100
AcDbSymbolTableRecord
100
AcDbTextStyleTableRecord
  2
Standard
 70
     0
 40
0.0
 41
1.0
 50
0.0
 71
     0
 42
0.2
  3
txt
  4

  0
STYLE
  5
6D
330
3
100
AcDbSymbolTableRecord
100
AcDbTextStyleTableRecord
  2
CONVERTER_11
 70
     0
 40
0.0
 41
0.72
 50
0.0
 71
     0
 42
0.2
  3
txt.shx
  4

  0
ENDTAB
  0
TABLE
  2
VIEW
  5
6
330
0
100
AcDbSymbolTable
 70
     0
  0
ENDTAB
  0
TABLE
  2
UCS
  5
7
330
0
100
AcDbSymbolTable
 70
     0
  0
ENDTAB
  0
TABLE
  2
APPID
  5
9
330
0
100
AcDbSymbolTable
 70
     1
  0
APPID
  5
12
330
9
100
AcDbSymbolTableRecord
100
AcDbRegAppTableRecord
  2
ACAD
 70
     0
  0
ENDTAB
  0
TABLE
  2
DIMSTYLE
  5
A
330
0
100
AcDbSymbolTable
 70
     8
100
AcDbDimStyleTable
  0
DIMSTYLE
105
27
330
A
100
AcDbSymbolTableRecord
100
AcDbDimStyleTableRecord
  2
Standard
 70
     0
340
11
  0
DIMSTYLE
105
109
102
{ACAD_REACTORS
330
10A
102
}
330
A
100
AcDbSymbolTableRecord
100
AcDbDimStyleTableRecord
  2
ME10_DIM_10
 70
     0
  3
\U+2300<>
 41
3.5
 42
2.0
 44
2.0
 71
     1
 73
     0
 74
     0
 77
     1
 78
     8
140
3.5
146
0.7
147
2.0
172
     1
173
     1
176
     2
177
     2
178
     3
271
     2
272
     0
340
6D
  0
DIMSTYLE
105
114
102
{ACAD_REACTORS
330
115
102
}
330
A
100
AcDbSymbolTableRecord
100
AcDbDimStyleTableRecord
  2
ME10_DIM_11
 70
     0
  3
\U+2300<>
 41
3.5
 42
2.0
 44
2.0
 71
     1
 73
     0
 74
     0
 77
     1
 78
     8
140
3.5
146
0.7
147
2.0
172
     1
173
     1
176
     2
177
     2
178
     3
271
     2
272
     0
340
6D
  0
DIMSTYLE
105
11F
102
{ACAD_REACTORS
330
120
102
}
330
A
100
AcDbSymbolTableRecord
100
AcDbDimStyleTableRecord
  2
ME10_DIM_12
 70
     0
  3
\U+2300<>
 41
3.5
 42
2.0
 44
2.0
 71
     1
 73
     0
 74
     0
 77
     1
 78
     8
140
3.5
146
0.7
147
2.0
172
     1
173
     1
176
     2
177
     2
178
     3
271
     2
272
     0
340
6D
  0
DIMSTYLE
105
12A
102
{ACAD_REACTORS
330
12B
102
}
330
A
100
AcDbSymbolTableRecord
100
AcDbDimStyleTableRecord
  2
ME10_DIM_13
 70
     0
  3
<>
 41
3.5
 42
2.0
 44
2.0
 71
     1
 73
     0
 74
     0
 77
     1
 78
     8
140
3.5
146
0.7
147
2.0
172
     1
173
     1
176
     2
177
     2
178
     3
271
     2
272
     0
340
6D
  0
DIMSTYLE
105
135
102
{ACAD_REACTORS
330
136
102
}
330
A
100
AcDbSymbolTableRecord
100
AcDbDimStyleTableRecord
  2
ME10_DIM_14
 70
     0
  3
<>
 41
3.5
 42
2.0
 44
2.0
 71
     1
 73
     0
 74
     0
 77
     1
 78
     8
140
3.5
146
0.7
147
2.0
172
     1
173
     1
176
     2
177
     2
178
     3
271
     2
272
     0
340
6D
  0
DIMSTYLE
105
140
102
{ACAD_REACTORS
330
141
102
}
330
A
100
AcDbSymbolTableRecord
100
AcDbDimStyleTableRecord
  2
ME10_DIM_15
 70
     0
  3
<>
 41
3.5
 42
2.0
 44
2.0
 71
     1
 73
     0
 74
     0
 77
     1
 78
     8
140
3.5
146
0.7
147
2.0
172
     1
173
     1
176
     2
177
     2
178
     3
271
     2
272
     0
340
6D
  0
DIMSTYLE
105
152
102
{ACAD_REACTORS
330
153
102
}
330
A
100
AcDbSymbolTableRecord
100
AcDbDimStyleTableRecord
  2
ME10_DIM_16
 70
     0
  3
<>
 41
3.5
 42
2.0
 44
2.0
 71
     1
 73
     0
 74
     0
 77
     1
 78
     8
140
3.5
146
0.7
147
2.0
172
     1
173
     1
176
     2
177
     2
178
     3
271
     2
272
     0
340
6D
  0
ENDTAB
  0
TABLE
  2
BLOCK_RECORD
  5
1
330
0
100
AcDbSymbolTable
 70
    10
  0
BLOCK_RECORD
  5
1F
330
1
100
AcDbSymbolTableRecord
100
AcDbBlockTableRecord
  2
*Model_Space
340
22
  0
BLOCK_RECORD
  5
1B
330
1
100
AcDbSymbolTableRecord
100
AcDbBlockTableRecord
  2
*Paper_Space
340
1E
  0
BLOCK_RECORD
  5
23
330
1
100
AcDbSymbolTableRecord
100
AcDbBlockTableRecord
  2
*Paper_Space0
340
26
  0
BLOCK_RECORD
  5
47
330
1
100
AcDbSymbolTableRecord
100
AcDbBlockTableRecord
  2
Urheberrecht_DE-EN
340
0
102
{BLKREFS
331
6C
102
}
  0
BLOCK_RECORD
  5
100
330
1
100
AcDbSymbolTableRecord
100
AcDbBlockTableRecord
  2
*D2
340
0
  0
BLOCK_RECORD
  5
10B
330
1
100
AcDbSymbolTableRecord
100
AcDbBlockTableRecord
  2
*D3
340
0
  0
BLOCK_RECORD
  5
116
330
1
100
AcDbSymbolTableRecord
100
AcDbBlockTableRecord
  2
*D4
340
0
  0
BLOCK_RECORD
  5
121
330
1
100
AcDbSymbolTableRecord
100
AcDbBlockTableRecord
  2
*D5
340
0
  0
BLOCK_RECORD
  5
12C
330
1
100
AcDbSymbolTableRecord
100
AcDbBlockTableRecord
  2
*D6
340
0
  0
BLOCK_RECORD
  5
137
330
1
100
AcDbSymbolTableRecord
100
AcDbBlockTableRecord
  2
*D7
340
0
  0
BLOCK_RECORD
  5
142
330
1
100
AcDbSymbolTableRecord
100
AcDbBlockTableRecord
  2
*D8
340
0
102
{BLKREFS
331
148
102
}
  0
BLOCK_RECORD
  5
149
330
1
100
AcDbSymbolTableRecord
100
AcDbBlockTableRecord
  2
*D9
340
0
  0
ENDTAB
  0
ENDSEC
  0
SECTION
  2
BLOCKS
  0
BLOCK
  5
20
330
1F
100
AcDbEntity
  8
0
100
AcDbBlockBegin
  2
*Model_Space
 70
     0
 10
0.0
 20
0.0
 30
0.0
  3
*Model_Space
  1

  0
ENDBLK
  5
21
330
1F
100
AcDbEntity
  8
0
100
AcDbBlockEnd
  0
BLOCK
  5
1C
330
1B
100
AcDbEntity
 67
     1
  8
0
100
AcDbBlockBegin
  2
*Paper_Space
 70
     0
 10
0.0
 20
0.0
 30
0.0
  3
*Paper_Space
  1

  0
ENDBLK
  5
1D
330
1B
100
AcDbEntity
 67
     1
  8
0
100
AcDbBlockEnd
  0
BLOCK
  5
24
330
23
100
AcDbEntity
  8
0
100
AcDbBlockBegin
  2
*Paper_Space0
 70
     0
 10
0.0
 20
0.0
 30
0.0
  3
*Paper_Space0
  1

  0
ENDBLK
  5
25
330
23
100
AcDbEntity
  8
0
100
AcDbBlockEnd
  0
BLOCK
  5
48
330
47
100
AcDbEntity
  8
0
100
AcDbBlockBegin
  2
Urheberrecht_DE-EN
 70
     0
 10
10.7942781792669
 20
304.567136433323
 30
0.0
  3
Urheberrecht_DE-EN
  1

  0
MTEXT
  5
6E
330
47
100
AcDbEntity
  8
1
 62
     1
100
AcDbMText
 10
10.7942781792669
 20
304.567136433323
 30
0.0
 40
2.0
 41
0.0
 71
     7
 72
     1
  1
We own the copyright of this document. It \Pdetermined and may neither be copied or \Pmade accessible to outsiders without our\Ppermission.
  7
CONVERTER_11
 11
0.0
 21
1.0
 31
0.0
 73
     1
 44
0.90036014405762
  0
MTEXT
  5
6F
330
47
100
AcDbEntity
  8
1
 62
     1
100
AcDbMText
 10
10.7942781792669
 20
248.2777495160168
 30
0.0
 40
2.0
 41
0.0
 71
     7
 72
     1
  1
F\U+00fcr diese Unterlage behalten wir das Ur-\Pheberrecht. Sie darf nur f\U+00fcr den von uns \Pbestimmten Zweck benutzt und ohne unsere \PZustimmung weder vervielf\U+00e4ltigt noch\PDritten zug\U+00e4nglich gemacht werden.
  7
CONVERTER_11
 11
0.0
 21
1.0
 31
0.0
 73
     1
 44
0.90036014405762
  0
ENDBLK
  5
49
330
47
100
AcDbEntity
  8
0
100
AcDbBlockEnd
  0
BLOCK
  5
107
330
100
100
AcDbEntity
  8
0
100
AcDbBlockBegin
  2
*D2
 70
     1
 10
0.0
 20
0.0
 30
0.0
  3
*D2
  1

  0
LINE
  5
101
330
100
100
AcDbEntity
  8
1
  6
Continuous
 62
     2
100
AcDbLine
 10
280.221656067093
 20
299.4209716274
 30
0.0
 11
280.221656067093
 21
289.4209716274
 31
0.0
  0
LINE
  5
102
330
100
100
AcDbEntity
  8
1
  6
Continuous
 62
     2
100
AcDbLine
 10
271.7437767666
 20
299.4209716274
 30
0.0
 11
282.221656067093
 21
299.4209716274
 31
0.0
  0
LINE
  5
103
330
100
100
AcDbEntity
  8
1
  6
Continuous
 62
     2
100
AcDbLine
 10
271.7437767666
 20
289.4209716274
 30
0.0
 11
282.221656067093
 21
289.4209716274
 31
0.0
  0
SOLID
  5
104
330
100
100
AcDbEntity
  8
1
 62
     2
100
AcDbTrace
 10
280.6824398086489
 20
295.9209716274
 30
0.0
 11
279.7608723255372
 21
295.9209716274
 31
0.0
 12
280.221656067093
 22
299.4209716274
 32
0.0
 13
280.221656067093
 23
299.4209716274
 33
0.0
  0
SOLID
  5
105
330
100
100
AcDbEntity
  8
1
 62
     2
100
AcDbTrace
 10
279.7608723255372
 20
292.9209716274
 30
0.0
 11
280.6824398086489
 21
292.9209716274
 31
0.0
 12
280.221656067093
 22
289.4209716274
 32
0.0
 13
280.221656067093
 23
289.4209716274
 33
0.0
  0
MTEXT
  5
106
330
100
100
AcDbEntity
  8
1
 62
     3
100
AcDbMText
 10
278.221656067093
 20
285.661924611694
 30
0.0
 40
3.5
 41
0.0
 71
     7
 72
     1
  1
\C3;%%c\C3;\C3;10\C2;\H2.45;\S^ ;\C3;
  7
CONVERTER_11
 11
0.0
 21
1.0
 31
0.0
 73
     1
 44
0.60024009603842
  0
ENDBLK
  5
108
330
100
100
AcDbEntity
  8
0
100
AcDbBlockEnd
  0
BLOCK
  5
112
330
10B
100
AcDbEntity
  8
0
100
AcDbBlockBegin
  2
*D3
 70
     1
 10
0.0
 20
0.0
 30
0.0
  3
*D3
  1

  0
LINE
  5
10C
330
10B
100
AcDbEntity
  8
1
  6
Continuous
 62
     2
100
AcDbLine
 10
289.396489943455
 20
306.4209716274466
 30
0.0
 11
289.396489943455
 21
282.4209716273559
 31
0.0
  0
LINE
  5
10D
330
10B
100
AcDbEntity
  8
1
  6
Continuous
 62
     2
100
AcDbLine
 10
271.7437767666
 20
306.4209716274466
 30
0.0
 11
291.396489943455
 21
306.4209716274466
 31
0.0
  0
LINE
  5
10E
330
10B
100
AcDbEntity
  8
1
  6
Continuous
 62
     2
100
AcDbLine
 10
271.7437767666
 20
282.4209716273559
 30
0.0
 11
291.396489943455
 21
282.4209716273559
 31
0.0
  0
SOLID
  5
10F
330
10B
100
AcDbEntity
  8
1
 62
     2
100
AcDbTrace
 10
289.8572736850109
 20
302.9209716274466
 30
0.0
 11
288.9357062018991
 21
302.9209716274466
 31
0.0
 12
289.396489943455
 22
306.4209716274466
 32
0.0
 13
289.396489943455
 23
306.4209716274466
 33
0.0
  0
SOLID
  5
110
330
10B
100
AcDbEntity
  8
1
 62
     2
100
AcDbTrace
 10
288.9357062018991
 20
285.9209716273559
 30
0.0
 11
289.8572736850109
 21
285.9209716273559
 31
0.0
 12
289.396489943455
 22
282.4209716273559
 32
0.0
 13
289.396489943455
 23
282.4209716273559
 33
0.0
  0
MTEXT
  5
111
330
10B
100
AcDbEntity
  8
1
 62
     3
100
AcDbMText
 10
287.396489943455
 20
285.411828942737
 30
0.0
 40
3.5
 41
0.0
 71
     7
 72
     1
  1
\C3;%%c\C3;\C3;24\C2;\H2.45;\S^ ;\C3;
  7
CONVERTER_11
 11
0.0
 21
1.0
 31
0.0
 73
     1
 44
0.60024009603842
  0
ENDBLK
  5
113
330
10B
100
AcDbEntity
  8
0
100
AcDbBlockEnd
  0
BLOCK
  5
11D
330
116
100
AcDbEntity
  8
0
100
AcDbBlockBegin
  2
*D4
 70
     1
 10
0.0
 20
0.0
 30
0.0
  3
*D4
  1

  0
LINE
  5
117
330
116
100
AcDbEntity
  8
1
  6
Continuous
 62
     2
100
AcDbLine
 10
297.38199350251
 20
310.4209716274
 30
0.0
 11
297.38199350251
 21
278.4209716274
 31
0.0
  0
LINE
  5
118
330
116
100
AcDbEntity
  8
1
  6
Continuous
 62
     2
100
AcDbLine
 10
220.9189578219
 20
310.4209716274
 30
0.0
 11
299.38199350251
 21
310.4209716274
 31
0.0
  0
LINE
  5
119
330
116
100
AcDbEntity
  8
1
  6
Continuous
 62
     2
100
AcDbLine
 10
220.9189578219
 20
278.4209716274
 30
0.0
 11
299.38199350251
 21
278.4209716274
 31
0.0
  0
SOLID
  5
11A
330
116
100
AcDbEntity
  8
1
 62
     2
100
AcDbTrace
 10
297.8427772440659
 20
306.9209716274
 30
0.0
 11
296.9212097609541
 21
306.9209716274
 31
0.0
 12
297.38199350251
 22
310.4209716274
 32
0.0
 13
297.38199350251
 23
310.4209716274
 33
0.0
  0
SOLID
  5
11B
330
116
100
AcDbEntity
  8
1
 62
     2
100
AcDbTrace
 10
296.9212097609541
 20
281.9209716274
 30
0.0
 11
297.8427772440659
 21
281.9209716274
 31
0.0
 12
297.38199350251
 22
278.4209716274
 32
0.0
 13
297.38199350251
 23
278.4209716274
 33
0.0
  0
MTEXT
  5
11C
330
116
100
AcDbEntity
  8
1
 62
     3
100
AcDbMText
 10
295.38199350251
 20
285.411828942737
 30
0.0
 40
3.5
 41
0.0
 71
     7
 72
     1
  1
\C3;%%c\C3;\C3;32\C2;\H2.45;\S^ ;\C3;
  7
CONVERTER_11
 11
0.0
 21
1.0
 31
0.0
 73
     1
 44
0.60024009603842
  0
ENDBLK
  5
11E
330
116
100
AcDbEntity
  8
0
100
AcDbBlockEnd
  0
BLOCK
  5
128
330
121
100
AcDbEntity
  8
0
100
AcDbBlockBegin
  2
*D5
 70
     1
 10
0.0
 20
0.0
 30
0.0
  3
*D5
  1

  0
LINE
  5
122
330
121
100
AcDbEntity
  8
1
  6
Continuous
 62
     2
100
AcDbLine
 10
269.7437767666
 20
350.017264254102
 30
0.0
 11
98.7437767666
 21
350.017264254102
 31
0.0
  0
LINE
  5
123
330
121
100
AcDbEntity
  8
1
  6
Continuous
 62
     2
100
AcDbLine
 10
269.7437767666
 20
307.4965811358
 30
0.0
 11
269.7437767666
 21
352.017264254102
 31
0.0
  0
LINE
  5
124
330
121
100
AcDbEntity
  8
1
  6
Continuous
 62
     2
100
AcDbLine
 10
98.7437767666
 20
346.4209347063
 30
0.0
 11
98.7437767666
 21
352.017264254102
 31
0.0
  0
SOLID
  5
125
330
121
100
AcDbEntity
  8
1
 62
     2
100
AcDbTrace
 10
266.2437767666
 20
349.5564805125461
 30
0.0
 11
266.2437767666
 21
350.4780479956578
 31
0.0
 12
269.7437767666
 22
350.017264254102
 32
0.0
 13
269.7437767666
 23
350.017264254102
 33
0.0
  0
SOLID
  5
126
330
121
100
AcDbEntity
  8
1
 62
     2
100
AcDbTrace
 10
102.2437767666
 20
350.4780479956578
 30
0.0
 11
102.2437767666
 21
349.5564805125461
 31
0.0
 12
98.7437767666
 22
350.017264254102
 32
0.0
 13
98.7437767666
 23
350.017264254102
 33
0.0
  0
MTEXT
  5
127
330
121
100
AcDbEntity
  8
1
 62
     3
100
AcDbMText
 10
178.767684492335
 20
352.017264254102
 30
0.0
 40
3.5
 41
0.0
 71
     7
 72
     1
  1
\C3;\C3;\C3;171\C2;\H2.45;\S^ ;\C3;
  7
CONVERTER_11
 11
0.9999999999970619
 21
2.424068405545306E-6
 31
0.0
 73
     1
 44
0.60024009603842
  0
ENDBLK
  5
129
330
121
100
AcDbEntity
  8
0
100
AcDbBlockEnd
  0
BLOCK
  5
133
330
12C
100
AcDbEntity
  8
0
100
AcDbBlockBegin
  2
*D6
 70
     1
 10
0.0
 20
0.0
 30
0.0
  3
*D6
  1

  0
LINE
  5
12D
330
12C
100
AcDbEntity
  8
1
  6
Continuous
 62
     2
100
AcDbLine
 10
269.7437767666
 20
357.555334234133
 30
0.0
 11
69.7437767666
 21
357.555334234133
 31
0.0
  0
LINE
  5
12E
330
12C
100
AcDbEntity
  8
1
  6
Continuous
 62
     2
100
AcDbLine
 10
269.7437767666
 20
307.4965811358
 30
0.0
 11
269.7437767666
 21
359.555334234133
 31
0.0
  0
LINE
  5
12F
330
12C
100
AcDbEntity
  8
1
  6
Continuous
 62
     2
100
AcDbLine
 10
69.7437767666
 20
346.4209716274
 30
0.0
 11
69.7437767666
 21
359.555334234133
 31
0.0
  0
SOLID
  5
130
330
12C
100
AcDbEntity
  8
1
 62
     2
100
AcDbTrace
 10
266.2437767666
 20
357.0945504925771
 30
0.0
 11
266.2437767666
 21
358.0161179756889
 31
0.0
 12
269.7437767666
 22
357.555334234133
 32
0.0
 13
269.7437767666
 23
357.555334234133
 33
0.0
  0
SOLID
  5
131
330
12C
100
AcDbEntity
  8
1
 62
     2
100
AcDbTrace
 10
73.2437767666
 20
358.0161179756889
 30
0.0
 11
73.2437767666
 21
357.0945504925771
 31
0.0
 12
69.7437767666
 22
357.555334234133
 32
0.0
 13
69.7437767666
 23
357.555334234133
 33
0.0
  0
MTEXT
  5
132
330
12C
100
AcDbEntity
  8
1
 62
     3
100
AcDbMText
 10
159.304217482845
 20
359.555334234133
 30
0.0
 40
3.5
 41
0.0
 71
     7
 72
     1
  1
\C3;\C3;\C3;200\C2;\H2.45;\S^ ;\C3;
  7
CONVERTER_11
 11
0.9999999999970619
 21
2.424068405545306E-6
 31
0.0
 73
     1
 44
0.60024009603842
  0
ENDBLK
  5
134
330
12C
100
AcDbEntity
  8
0
100
AcDbBlockEnd
  0
BLOCK
  5
13E
330
137
100
AcDbEntity
  8
0
100
AcDbBlockBegin
  2
*D7
 70
     1
 10
0.0
 20
0.0
 30
0.0
  3
*D7
  1

  0
LINE
  5
138
330
137
100
AcDbEntity
  8
1
  6
Continuous
 62
     2
100
AcDbLine
 10
269.7437767666
 20
364.871696273576
 30
0.0
 11
19.74377676660001
 21
364.871696273576
 31
0.0
  0
LINE
  5
139
330
137
100
AcDbEntity
  8
1
  6
Continuous
 62
     2
100
AcDbLine
 10
269.7437767666
 20
307.4965811358
 30
0.0
 11
269.7437767666
 21
366.871696273576
 31
0.0
  0
LINE
  5
13A
330
137
100
AcDbEntity
  8
1
  6
Continuous
 62
     2
100
AcDbLine
 10
19.74377676660001
 20
330.02116319
 30
0.0
 11
19.74377676660001
 21
366.871696273576
 31
0.0
  0
SOLID
  5
13B
330
137
100
AcDbEntity
  8
1
 62
     2
100
AcDbTrace
 10
266.2437767666
 20
364.4109125320201
 30
0.0
 11
266.2437767666
 21
365.3324800151319
 31
0.0
 12
269.7437767666
 22
364.871696273576
 32
0.0
 13
269.7437767666
 23
364.871696273576
 33
0.0
  0
SOLID
  5
13C
330
137
100
AcDbEntity
  8
1
 62
     2
100
AcDbTrace
 10
23.24377676660001
 20
365.3324800151319
 30
0.0
 11
23.24377676660001
 21
364.4109125320201
 31
0.0
 12
19.74377676660001
 22
364.871696273576
 32
0.0
 13
19.74377676660001
 23
364.871696273576
 33
0.0
  0
MTEXT
  5
13D
330
137
100
AcDbEntity
  8
1
 62
     3
100
AcDbMText
 10
144.893201344549
 20
366.871696273576
 30
0.0
 40
3.5
 41
0.0
 71
     7
 72
     1
  1
\C3;\C3;\C3;250\C2;\H2.45;\S^ ;\C3;
  7
CONVERTER_11
 11
0.9999999999970619
 21
2.424068405545306E-6
 31
0.0
 73
     1
 44
0.60024009603842
  0
ENDBLK
  5
13F
330
137
100
AcDbEntity
  8
0
100
AcDbBlockEnd
  0
BLOCK
  5
146
330
142
100
AcDbEntity
  8
0
100
AcDbBlockBegin
  2
*D8
 70
     1
 10
0.0
 20
0.0
 30
0.0
  3
*D8
  1

  0
LINE
  5
143
330
142
100
AcDbEntity
  8
1
  6
Continuous
 62
     2
100
AcDbLine
 10
113.9111730804641
 20
330.6344229109513
 30
0.0
 11
105.2504024767074
 21
321.1591149911736
 31
0.0
  0
SOLID
  5
144
330
142
100
AcDbEntity
  8
1
 62
     2
100
AcDbTrace
 10
107.2716289727085
 20
324.0534137159678
 30
0.0
 11
107.9518569821673
 21
323.4316609668169
 31
0.0
 12
105.2504024767074
 22
321.1591149911736
 32
0.0
 13
105.2504024767074
 23
321.1591149911736
 33
0.0
  0
MTEXT
  5
145
330
142
100
AcDbEntity
  8
1
 62
     3
100
AcDbMText
 10
105.7287247154075
 20
324.6468408653187
 30
0.0
 40
3.5
 41
0.0
 71
     7
 72
     1
  1
\C3; R\C3;\C3;20\C2;\H2.45;\S^ ;\C3;
  7
CONVERTER_11
 11
0.6746687144944146
 21
0.7381206714910876
 31
0.0
 73
     1
 44
0.60024009603842
  0
ENDBLK
  5
147
330
142
100
AcDbEntity
  8
0
100
AcDbBlockEnd
  0
BLOCK
  5
150
330
149
100
AcDbEntity
  8
0
100
AcDbBlockBegin
  2
*D9
 70
     1
 10
0.0
 20
0.0
 30
0.0
  3
*D9
  1

  0
LINE
  5
14A
330
149
100
AcDbEntity
  8
1
  6
Continuous
 62
     2
100
AcDbLine
 10
246.474684578803
 20
310.4209716274
 30
0.0
 11
248.474684578803
 21
310.4209716274
 31
0.0
  0
LINE
  5
14B
330
149
100
AcDbEntity
  8
1
  6
Continuous
 62
     2
100
AcDbLine
 10
220.9189578219
 20
310.4209716274
 30
0.0
 11
246.474684578803
 21
310.4209716274
 31
0.0
  0
ARC
  5
14C
330
149
100
AcDbEntity
  8
1
  6
Continuous
 62
     2
100
AcDbCircle
 10
218.9189578219
 20
310.4209716274
 30
0.0
 40
27.55572675690302
100
AcDbArc
 50
344.5838356361767
 51
18.53245699870678
  0
SOLID
  5
14D
330
149
100
AcDbEntity
  8
1
 62
     2
100
AcDbTrace
 10
246.3503863327099
 20
304.7289922144827
 30
0.0
 11
245.4381006854106
 21
304.8594587759479
 31
0.0
 12
246.3897394694714
 22
308.2589742239424
 32
0.0
 13
246.3897394694714
 23
308.2589742239424
 33
0.0
  0
SOLID
  5
14E
330
149
100
AcDbEntity
  8
1
 62
     2
100
AcDbTrace
 10
245.792702287481
 20
313.8846722222559
 30
0.0
 11
246.712411951025
 21
313.9431594919209
 31
0.0
 12
246.474684578803
 22
310.4209716274
 32
0.0
 13
246.474684578803
 23
310.4209716274
 33
0.0
  0
MTEXT
  5
14F
330
149
100
AcDbEntity
  8
1
 62
     3
100
AcDbMText
 10
247.141762458535
 20
319.8819709176994
 30
0.0
 40
3.5
 41
0.0
 71
     7
 72
     1
  1
\C3;\C3;\C3;4.5%%d\C2;\H2.45;\S^ ;\C3;
  7
CONVERTER_11
 11
0.2029927113983218
 21
-0.9791802485340263
 31
0.0
 73
     1
 44
0.60024009603842
  0
ENDBLK
  5
151
330
149
100
AcDbEntity
  8
0
100
AcDbBlockEnd
  0
ENDSEC
  0
SECTION
  2
ENTITIES
  0
INSERT
  5
6C
330
1F
100
AcDbEntity
  8
0
100
AcDbBlockReference
  2
Urheberrecht_DE-EN
 10
10.7942781792669
 20
304.567136433323
 30
0.0
  0
LINE
  5
70
330
1F
100
AcDbEntity
  8
BEZUGSACHSEN
  6
Continuous
 62
     7
100
AcDbLine
 10
19.7437767666
 20
260.8207800645
 30
0.0
 11
19.7437767666
 21
282.4109716274
 31
0.0
  0
LINE
  5
71
330
1F
100
AcDbEntity
  8
BEZUGSACHSEN
  6
Continuous
 62
     7
100
AcDbLine
 10
19.7437767666
 20
306.4309716274
 30
0.0
 11
19.7437767666
 21
328.02116319
 31
0.0
  0
LINE
  5
72
330
1F
100
AcDbEntity
  8
BEZUGSACHSEN
  6
Continuous
 62
     9
100
AcDbLine
 10
21.6437022819
 20
330.0186578957
 30
0.0
 11
21.6437022819
 21
310.0975040137
 31
0.0
  0
LINE
  5
73
330
1F
100
AcDbEntity
  8
BEZUGSACHSEN
  6
Continuous
 62
     9
100
AcDbLine
 10
21.6437022819
 20
278.7444392412
 30
0.0
 11
21.6437022819
 21
258.8232853591
 31
0.0
  0
LINE
  5
74
330
1F
100
AcDbEntity
  8
BEZUGSACHSEN
  6
Continuous
 62
     7
100
AcDbLine
 10
21.7437767666
 20
282.017331679
 30
0.0
 11
21.7437767666
 21
284.4109716274
 31
0.0
  0
LINE
  5
75
330
1F
100
AcDbEntity
  8
BEZUGSACHSEN
  6
Continuous
 62
     7
100
AcDbLine
 10
21.7437767666
 20
304.4309716274
 30
0.0
 11
21.7437767666
 21
306.8246115758
 31
0.0
  0
LINE
  5
76
330
1F
100
AcDbEntity
  8
BEZUGSACHSEN
  6
Continuous
 62
     9
100
AcDbLine
 10
27.7437767666
 20
278.06232404
 30
0.0
 11
27.7437767666
 21
284.4109716274
 31
0.0
  0
LINE
  5
77
330
1F
100
AcDbEntity
  8
BEZUGSACHSEN
  6
Continuous
 62
     9
100
AcDbLine
 10
27.7437767666
 20
304.4309716274
 30
0.0
 11
27.7437767666
 21
310.7796192148
 31
0.0
  0
LINE
  5
78
330
1F
100
AcDbEntity
  8
BEZUGSACHSEN
  6
Continuous
 62
     7
100
AcDbLine
 10
29.7437767666
 20
307.2906271532
 30
0.0
 11
29.7437767666
 21
281.5513161016
 31
0.0
  0
LINE
  5
79
330
1F
100
AcDbEntity
  8
BEZUGSACHSEN
  6
Continuous
 62
     7
100
AcDbLine
 10
21.0107296936
 20
279.4109716274
 30
0.0
 11
20.8896194422
 21
279.178635632
 31
0.0
  0
LINE
  5
7A
330
1F
100
AcDbEntity
  8
BEZUGSACHSEN
  6
Continuous
 62
     7
100
AcDbLine
 10
20.8896194422
 20
309.6633076229
 30
0.0
 11
21.0107296936
 21
309.4309716274
 31
0.0
  0
LWPOLYLINE
  5
7B
330
1F
100
AcDbEntity
  8
BEZUGSACHSEN
  6
DOT_CENTER
 62
     7
100
AcDbPolyline
 90
        2
 70
     0
 43
0.25
 10
54.7437767666
 20
294.4209716274
 10
54.7437767666
 20
285.4209716274
  0
LWPOLYLINE
  5
7C
330
1F
100
AcDbEntity
  8
BEZUGSACHSEN
  6
DOT_CENTER
 62
     7
100
AcDbPolyline
 90
        2
 70
     0
 43
0.25
 10
54.7437767666
 20
294.4209716274
 10
54.7437767666
 20
303.4209716274
  0
LINE
  5
7D
330
1F
100
AcDbEntity
  8
BEZUGSACHSEN
  6
Continuous
 62
     7
100
AcDbLine
 10
19.7437767666
 20
282.4109716274
 30
0.0
 11
21.7437767666
 21
284.4109716274
 31
0.0
  0
LINE
  5
7E
330
1F
100
AcDbEntity
  8
BEZUGSACHSEN
  6
Continuous
 62
     7
100
AcDbLine
 10
21.7437767666
 20
304.4309716274
 30
0.0
 11
19.7437767666
 21
306.4309716274
 31
0.0
  0
LINE
  5
7F
330
1F
100
AcDbEntity
  8
BEZUGSACHSEN
  6
Continuous
 62
     7
100
AcDbLine
 10
67.2437767666
 20
332.3032216274
 30
0.0
 11
67.2437767666
 21
256.5387216274
 31
0.0
  0
LINE
  5
80
330
1F
100
AcDbEntity
  8
BEZUGSACHSEN
  6
Continuous
 62
     9
100
AcDbLine
 10
67.8630203806
 20
256.7046474537
 30
0.0
 11
67.8630203806
 21
332.1372958011
 31
0.0
  0
LINE
  5
81
330
1F
100
AcDbEntity
  8
BEZUGSACHSEN
  6
Continuous
 62
     9
100
AcDbLine
 10
68.1218394257
 20
256.7387216274
 30
0.0
 11
68.1218394257
 21
332.1032216274
 31
0.0
  0
LINE
  5
82
330
1F
100
AcDbEntity
  8
BEZUGSACHSEN
  6
Continuous
 62
     9
100
AcDbLine
 10
69.0432054779
 20
256.7387216274
 30
0.0
 11
69.0432054779
 21
332.1032216274
 31
0.0
  0
LINE
  5
83
330
1F
100
AcDbEntity
  8
BEZUGSACHSEN
  6
Continuous
 62
     7
100
AcDbLine
 10
69.7437767666
 20
344.4209716274
 30
0.0
 11
69.7437767666
 21
244.4209716274
 31
0.0
  0
LWPOLYLINE
  5
84
330
1F
100
AcDbEntity
  8
BEZUGSACHSEN
  6
DOT_CENTER
 62
     7
100
AcDbPolyline
 90
        2
 70
     0
 43
0.25
 10
76.7437767666
 20
336.5703434827
 10
76.7437767666
 20
347.4209716274
  0
LINE
  5
85
330
1F
100
AcDbEntity
  8
FASEN
  6
Continuous
 62
     9
100
AcDbLine
 10
82.7156506884
 20
262.5209716274
 30
0.0
 11
82.7156506884
 21
262.9209716274
 31
0.0
  0
LINE
  5
86
330
1F
100
AcDbEntity
  8
BEZUGSACHSEN
  6
Continuous
 62
     7
100
AcDbLine
 10
91.6187767666
 20
342.0435668916
 30
0.0
 11
92.9913720308
 21
344.4209716274
 31
0.0
  0
LINE
  5
87
330
1F
100
AcDbEntity
  8
BEZUGSACHSEN
  6
Continuous
 62
     7
100
AcDbLine
 10
91.6187767666
 20
246.7983763632
 30
0.0
 11
92.9913720308
 21
244.4209716274
 31
0.0
  0
LINE
  5
88
330
1F
100
AcDbEntity
  8
FASEN
  6
Continuous
 62
     9
100
AcDbLine
 10
84.7437767666
 20
284.8209716274
 30
0.0
 11
84.7437767666
 21
284.4209716274
 31
0.0
  0
LINE
  5
89
330
1F
100
AcDbEntity
  8
FASEN
  6
Continuous
 62
     9
100
AcDbLine
 10
84.7437767666
 20
304.0209716274
 30
0.0
 11
84.7437767666
 21
304.4209716274
 31
0.0
  0
LINE
  5
8A
330
1F
100
AcDbEntity
  8
0
  6
Continuous
 62
     7
100
AcDbLine
 10
86.4961815024
 20
344.4209716274
 30
0.0
 11
86.4961815024
 21
304.4209716274
 31
0.0
  0
LINE
  5
8B
330
1F
100
AcDbEntity
  8
0
  6
Continuous
 62
     7
100
AcDbLine
 10
86.4961815024
 20
284.4209716274
 30
0.0
 11
86.4961815024
 21
262.9209716274
 31
0.0
  0
LINE
  5
8C
330
1F
100
AcDbEntity
  8
0
  6
Continuous
 62
     7
100
AcDbLine
 10
86.4961815024
 20
255.5912149967
 30
0.0
 11
86.4961815024
 21
244.4209716274
 31
0.0
  0
LINE
  5
8D
330
1F
100
AcDbEntity
  8
0
  6
Continuous
 62
     7
100
AcDbLine
 10
87.8687767666
 20
342.0435334651
 30
0.0
 11
87.8687767666
 21
304.4209716274
 31
0.0
  0
LINE
  5
8E
330
1F
100
AcDbEntity
  8
0
  6
Continuous
 62
     7
100
AcDbLine
 10
87.8687767666
 20
284.4209716274
 30
0.0
 11
87.8687767666
 21
262.9209716274
 31
0.0
  0
LINE
  5
8F
330
1F
100
AcDbEntity
  8
0
  6
Continuous
 62
     7
100
AcDbLine
 10
87.8687767666
 20
246.7984138972
 30
0.0
 11
87.8687767666
 21
259.5390278742
 31
0.0
  0
LINE
  5
90
330
1F
100
AcDbEntity
  8
0
  6
Continuous
 62
     9
100
AcDbLine
 10
88.8687767666
 20
248.4209716274
 30
0.0
 11
88.8687767666
 21
260.8985910437
 31
0.0
  0
LINE
  5
91
330
1F
100
AcDbEntity
  8
0
  6
Continuous
 62
     9
100
AcDbLine
 10
88.8687767666
 20
262.9209716274
 30
0.0
 11
88.8687767666
 21
284.4209716274
 31
0.0
  0
LINE
  5
92
330
1F
100
AcDbEntity
  8
0
  6
Continuous
 62
     9
100
AcDbLine
 10
88.8687767666
 20
304.4209716274
 30
0.0
 11
88.8687767666
 21
340.4209716274
 31
0.0
  0
LINE
  5
93
330
1F
100
AcDbEntity
  8
0
  6
Continuous
 62
     9
100
AcDbLine
 10
90.6187767666
 20
248.4209716274
 30
0.0
 11
90.6187767666
 21
260.8985910437
 31
0.0
  0
LINE
  5
94
330
1F
100
AcDbEntity
  8
0
  6
Continuous
 62
     9
100
AcDbLine
 10
90.6187767666
 20
262.9209716274
 30
0.0
 11
90.6187767666
 21
284.4209716274
 31
0.0
  0
LINE
  5
95
330
1F
100
AcDbEntity
  8
0
  6
Continuous
 62
     9
100
AcDbLine
 10
90.6187767666
 20
304.4209716274
 30
0.0
 11
90.6187767666
 21
340.4209716274
 31
0.0
  0
LINE
  5
96
330
1F
100
AcDbEntity
  8
0
  6
Continuous
 62
     7
100
AcDbLine
 10
91.6187767666
 20
246.7984138972
 30
0.0
 11
91.6187767666
 21
259.5390278742
 31
0.0
  0
LINE
  5
97
330
1F
100
AcDbEntity
  8
0
  6
Continuous
 62
     7
100
AcDbLine
 10
91.6187767666
 20
262.9209716274
 30
0.0
 11
91.6187767666
 21
284.4209716274
 31
0.0
  0
LINE
  5
98
330
1F
100
AcDbEntity
  8
0
  6
Continuous
 62
     7
100
AcDbLine
 10
91.6187767666
 20
304.4209716274
 30
0.0
 11
91.6187767666
 21
342.0435334651
 31
0.0
  0
LINE
  5
99
330
1F
100
AcDbEntity
  8
0
  6
Continuous
 62
     7
100
AcDbLine
 10
92.9913720308
 20
344.4209716274
 30
0.0
 11
92.9913720308
 21
304.4209716274
 31
0.0
  0
LINE
  5
9A
330
1F
100
AcDbEntity
  8
0
  6
Continuous
 62
     7
100
AcDbLine
 10
92.9913720308
 20
284.4209716274
 30
0.0
 11
92.9913720308
 21
262.9209716274
 31
0.0
  0
LINE
  5
9B
330
1F
100
AcDbEntity
  8
0
  6
Continuous
 62
     7
100
AcDbLine
 10
92.9913720308
 20
255.5912149967
 30
0.0
 11
92.9913720308
 21
244.4209716274
 31
0.0
  0
LINE
  5
9C
330
1F
100
AcDbEntity
  8
0
  6
Continuous
 62
     7
100
AcDbLine
 10
98.7437767666
 20
344.4209347063
 30
0.0
 11
98.7437767666
 21
304.4209716274
 31
0.0
  0
LINE
  5
9D
330
1F
100
AcDbEntity
  8
0
  6
Continuous
 62
     7
100
AcDbLine
 10
98.7437767666
 20
284.4209716274
 30
0.0
 11
98.7437767666
 21
262.9209716274
 31
0.0
  0
LINE
  5
9E
330
1F
100
AcDbEntity
  8
0
  6
Continuous
 62
     7
100
AcDbLine
 10
98.7437767666
 20
255.5912149967
 30
0.0
 11
98.7437767666
 21
244.4209734952
 31
0.0
  0
LINE
  5
9F
330
1F
100
AcDbEntity
  8
FASEN
  6
Continuous
 62
     7
100
AcDbLine
 10
98.7437767666
 20
255.5912149967
 30
0.0
 11
98.7437767666
 21
262.9209716274
 31
0.0
  0
LINE
  5
A0
330
1F
100
AcDbEntity
  8
FASEN
  6
Continuous
 62
     7
100
AcDbLine
 10
98.7437767666
 20
284.4209716274
 30
0.0
 11
98.7437767666
 21
304.4209716274
 31
0.0
  0
LINE
  5
A1
330
1F
100
AcDbEntity
  8
BEZUGSACHSEN
  6
Continuous
 62
     9
100
AcDbLine
 10
19.7437767666
 20
280.9747876584
 30
0.0
 11
21.7437767666
 21
282.017331679
 31
0.0
  0
LINE
  5
A2
330
1F
100
AcDbEntity
  8
BEZUGSACHSEN
  6
Continuous
 62
     7
100
AcDbLine
 10
86.4961815024
 20
244.4209716274
 30
0.0
 11
69.7437767666
 21
244.4209716274
 31
0.0
  0
LINE
  5
A3
330
1F
100
AcDbEntity
  8
BEZUGSACHSEN
  6
Continuous
 62
     7
100
AcDbLine
 10
92.9913720308
 20
244.4209716274
 30
0.0
 11
98.7437767666
 21
244.4209716274
 31
0.0
  0
LINE
  5
A4
330
1F
100
AcDbEntity
  8
BEZUGSACHSEN
  6
Continuous
 62
     7
100
AcDbLine
 10
88.8687767666
 20
248.4209716274
 30
0.0
 11
90.6187767666
 21
248.4209716274
 31
0.0
  0
LINE
  5
A5
330
1F
100
AcDbEntity
  8
BEZUGSACHSEN
  6
Continuous
 62
     9
100
AcDbLine
 10
21.7437767666
 20
306.8246115758
 30
0.0
 11
19.7437767666
 21
307.8671555964
 31
0.0
  0
LINE
  5
A6
330
1F
100
AcDbEntity
  8
FASEN
  6
Continuous
 62
     7
100
AcDbLine
 10
75.145262731
 20
255.5912149967
 30
0.0
 11
86.4961815024
 21
255.5912149967
 31
0.0
  0
LINE
  5
A7
330
1F
100
AcDbEntity
  8
0
  6
Continuous
 62
     7
100
AcDbLine
 10
92.9913720308
 20
255.5912149967
 30
0.0
 11
98.7437767666
 21
255.5912149967
 31
0.0
  0
LINE
  5
A8
330
1F
100
AcDbEntity
  8
BEZUGSACHSEN
  6
Continuous
 62
     7
100
AcDbLine
 10
69.0432054779
 20
256.7387216274
 30
0.0
 11
68.1218394257
 21
256.7387216274
 31
0.0
  0
LINE
  5
A9
330
1F
100
AcDbEntity
  8
BEZUGSACHSEN
  6
Continuous
 62
     7
100
AcDbLine
 10
67.2437767666
 20
256.5387216274
 30
0.0
 11
21.6437022819
 21
258.8232853591
 31
0.0
  0
LINE
  5
AA
330
1F
100
AcDbEntity
  8
RUNDUNGEN
  6
Continuous
 62
     9
100
AcDbLine
 10
114.3959506796
 20
316.3998377074
 30
0.0
 11
114.3959506796
 21
272.4421055474
 31
0.0
  0
LINE
  5
AB
330
1F
100
AcDbEntity
  8
0
  6
Continuous
 62
     7
100
AcDbLine
 10
88.8687767666
 20
260.8985910437
 30
0.0
 11
90.6187767666
 21
260.8985910437
 31
0.0
  0
LINE
  5
AC
330
1F
100
AcDbEntity
  8
FASEN
  6
Continuous
 62
     7
100
AcDbLine
 10
82.7156506884
 20
262.5209716274
 30
0.0
 11
98.7437767666
 21
262.5209716274
 31
0.0
  0
LINE
  5
AD
330
1F
100
AcDbEntity
  8
0
  6
Continuous
 62
     7
100
AcDbLine
 10
82.7156506884
 20
262.9209716274
 30
0.0
 11
98.7437767666
 21
262.9209716274
 31
0.0
  0
LINE
  5
AE
330
1F
100
AcDbEntity
  8
BEZUGSACHSEN
  6
Continuous
 62
     7
100
AcDbLine
 10
86.4961815024
 20
244.4209716274
 30
0.0
 11
87.8687767666
 21
246.7983763632
 31
0.0
  0
LINE
  5
AF
330
1F
100
AcDbEntity
  8
RUNDUNGEN
  6
Continuous
 62
     7
100
AcDbLine
 10
268.8222358623
 20
282.3484447853
 30
0.0
 11
218.9189578219
 21
278.4209716274
 31
0.0
  0
LINE
  5
B0
330
1F
100
AcDbEntity
  8
0
  6
Continuous
 62
     7
100
AcDbLine
 10
218.9189578219
 20
278.4209716274
 30
0.0
 11
268.8222358623
 21
282.3484447853
 31
0.0
  0
LINE
  5
B1
330
1F
100
AcDbEntity
  8
BEZUGSACHSEN
  6
Continuous
 62
     7
100
AcDbLine
 10
86.4961815024
 20
344.4209716274
 30
0.0
 11
87.8687767666
 21
342.0435668916
 31
0.0
  0
LINE
  5
B2
330
1F
100
AcDbEntity
  8
BEZUGSACHSEN
  6
Continuous
 62
     7
100
AcDbLine
 10
67.8630203806
 20
256.7046474537
 30
0.0
 11
67.2437767666
 21
256.5387216274
 31
0.0
  0
LINE
  5
B3
330
1F
100
AcDbEntity
  8
0
  6
Continuous
 62
     7
100
AcDbLine
 10
218.9189578219
 20
278.4209716274
 30
0.0
 11
168.7437767666
 21
278.4209716274
 31
0.0
  0
LINE
  5
B4
330
1F
100
AcDbEntity
  8
BEZUGSACHSEN
  6
Continuous
 62
     9
100
AcDbLine
 10
29.2976227135
 20
279.4109716274
 30
0.0
 11
21.0107296936
 21
279.4109716274
 31
0.0
  0
LINE
  5
B5
330
1F
100
AcDbEntity
  8
BEZUGSACHSEN
  6
Continuous
 62
     7
100
AcDbLine
 10
27.7437767666
 20
284.4109716274
 30
0.0
 11
21.7437767666
 21
284.4109716274
 31
0.0
  0
LINE
  5
B6
330
1F
100
AcDbEntity
  8
0
  6
Continuous
 62
     7
100
AcDbLine
 10
84.7437767666
 20
284.4209716274
 30
0.0
 11
98.7437767666
 21
284.4209716274
 31
0.0
  0
LINE
  5
B7
330
1F
100
AcDbEntity
  8
FASEN
  6
Continuous
 62
     7
100
AcDbLine
 10
98.7437767666
 20
284.8209716274
 30
0.0
 11
84.7437767666
 21
284.8209716274
 31
0.0
  0
LWPOLYLINE
  5
B8
330
1F
100
AcDbEntity
  8
DEFAULT_2
  6
DASHED
 62
     8
100
AcDbPolyline
 90
        2
 70
     0
 43
0.35
 10
269.7437767666
 20
289.4209716274
 10
227.7437767666
 20
289.4209716274
  0
LWPOLYLINE
  5
B9
330
1F
100
AcDbEntity
  8
BEZUGSACHSEN
  6
DOT_CENTER
 62
     7
100
AcDbPolyline
 90
        2
 70
     0
 43
0.25
 10
272.7437767666
 20
294.4209716274
 10
16.7437767666
 20
294.4209716274
  0
LWPOLYLINE
  5
BA
330
1F
100
AcDbEntity
  8
DEFAULT_2
  6
DASHED
 62
     8
100
AcDbPolyline
 90
        2
 70
     0
 43
0.35
 10
269.7437767666
 20
299.4209716274
 10
227.7437767666
 20
299.4209716274
  0
LINE
  5
BB
330
1F
100
AcDbEntity
  8
FASEN
  6
Continuous
 62
     7
100
AcDbLine
 10
84.7437767666
 20
304.0209716274
 30
0.0
 11
98.7437767666
 21
304.0209716274
 31
0.0
  0
LINE
  5
BC
330
1F
100
AcDbEntity
  8
0
  6
Continuous
 62
     7
100
AcDbLine
 10
84.7437767666
 20
304.4209716274
 30
0.0
 11
98.7437767666
 21
304.4209716274
 31
0.0
  0
LINE
  5
BD
330
1F
100
AcDbEntity
  8
BEZUGSACHSEN
  6
Continuous
 62
     7
100
AcDbLine
 10
27.7437767666
 20
304.4309716274
 30
0.0
 11
21.7437767666
 21
304.4309716274
 31
0.0
  0
LINE
  5
BE
330
1F
100
AcDbEntity
  8
BEZUGSACHSEN
  6
Continuous
 62
     9
100
AcDbLine
 10
21.0107296936
 20
309.4309716274
 30
0.0
 11
29.2976227135
 21
309.4309716274
 31
0.0
  0
LINE
  5
BF
330
1F
100
AcDbEntity
  8
0
  6
Continuous
 62
     7
100
AcDbLine
 10
218.9189578219
 20
310.4209716274
 30
0.0
 11
168.7437767666
 21
310.4209716274
 31
0.0
  0
LINE
  5
C0
330
1F
100
AcDbEntity
  8
BEZUGSACHSEN
  6
Continuous
 62
     7
100
AcDbLine
 10
67.8630203806
 20
332.1372958011
 30
0.0
 11
67.2437767666
 21
332.3032216274
 31
0.0
  0
LINE
  5
C1
330
1F
100
AcDbEntity
  8
0
  6
Continuous
 62
     9
100
AcDbLine
 10
168.7437767666
 20
310.4209716274
 30
0.0
 11
168.7437767666
 21
278.4209716274
 31
0.0
  0
LINE
  5
C2
330
1F
100
AcDbEntity
  8
RUNDUNGEN
  6
Continuous
 62
     7
100
AcDbLine
 10
268.8222358623
 20
306.4934984695
 30
0.0
 11
218.9189578219
 21
310.4209716274
 31
0.0
  0
LINE
  5
C3
330
1F
100
AcDbEntity
  8
0
  6
Continuous
 62
     7
100
AcDbLine
 10
218.9189578219
 20
310.4209716274
 30
0.0
 11
268.8222358623
 21
306.4934984695
 31
0.0
  0
LINE
  5
C4
330
1F
100
AcDbEntity
  8
BEZUGSACHSEN
  6
Continuous
 62
     7
100
AcDbLine
 10
67.2437767666
 20
332.3032216274
 30
0.0
 11
21.6437022819
 21
330.0186578957
 31
0.0
  0
LINE
  5
C5
330
1F
100
AcDbEntity
  8
BEZUGSACHSEN
  6
Continuous
 62
     7
100
AcDbLine
 10
69.0432054779
 20
332.1032216274
 30
0.0
 11
68.1218394257
 21
332.1032216274
 31
0.0
  0
LINE
  5
C6
330
1F
100
AcDbEntity
  8
BEZUGSACHSEN
  6
Continuous
 62
     7
100
AcDbLine
 10
88.8687767666
 20
340.4209716274
 30
0.0
 11
90.6187767666
 21
340.4209716274
 31
0.0
  0
LINE
  5
C7
330
1F
100
AcDbEntity
  8
BEZUGSACHSEN
  6
Continuous
 62
     7
100
AcDbLine
 10
86.4961815024
 20
344.4209716274
 30
0.0
 11
81.7437767666
 21
344.4209716274
 31
0.0
  0
LINE
  5
C8
330
1F
100
AcDbEntity
  8
BEZUGSACHSEN
  6
Continuous
 62
     7
100
AcDbLine
 10
71.7437767666
 20
344.4209716274
 30
0.0
 11
69.7437767666
 21
344.4209716274
 31
0.0
  0
LINE
  5
C9
330
1F
100
AcDbEntity
  8
BEZUGSACHSEN
  6
Continuous
 62
     7
100
AcDbLine
 10
92.9913720308
 20
344.4209716274
 30
0.0
 11
98.7437767666
 21
344.4209716274
 31
0.0
  0
LINE
  5
CA
330
1F
100
AcDbEntity
  8
0
  6
Continuous
 62
     7
100
AcDbLine
 10
218.9189578219
 20
310.4209716274
 30
0.0
 11
218.9189578219
 21
278.4209716274
 31
0.0
  0
LWPOLYLINE
  5
CB
330
1F
100
AcDbEntity
  8
DEFAULT_2
  6
DASHED
 62
     8
100
AcDbPolyline
 90
        2
 70
     0
 43
0.35
 10
227.7437767666
 20
299.4209716274
 10
227.7437767666
 20
289.4209716274
  0
LINE
  5
CC
330
1F
100
AcDbEntity
  8
RUNDUNGEN
  6
Continuous
 62
     9
100
AcDbLine
 10
268.8222358623
 20
282.3484447853
 30
0.0
 11
268.8222358623
 21
306.4934984695
 31
0.0
  0
LINE
  5
CD
330
1F
100
AcDbEntity
  8
RUNDUNGEN
  6
Continuous
 62
     7
100
AcDbLine
 10
269.7437767666
 20
283.3453621191
 30
0.0
 11
269.7437767666
 21
305.4965811358
 31
0.0
  0
LWPOLYLINE
  5
CE
330
1F
100
AcDbEntity
  8
1
  6
Continuous
 62
     7
100
AcDbPolyline
 90
        2
 70
     0
 43
0.25
 10
269.7437767666
 20
305.4965811358
 10
269.7437767666
 20
306.4209716274467
  0
LWPOLYLINE
  5
CF
330
1F
100
AcDbEntity
  8
1
  6
Continuous
 62
     7
100
AcDbPolyline
 90
        2
 70
     0
 43
0.25
 10
268.8222358623
 20
306.4934984695
 10
269.7437767665949
 20
306.4209716274467
  0
LWPOLYLINE
  5
D0
330
1F
100
AcDbEntity
  8
1
  6
Continuous
 62
     7
100
AcDbPolyline
 90
        2
 70
     0
 43
0.25
 10
268.8222358623
 20
282.3484447853
 10
269.7437767666
 20
282.4209716273559
  0
LWPOLYLINE
  5
D1
330
1F
100
AcDbEntity
  8
1
  6
Continuous
 62
     7
100
AcDbPolyline
 90
        2
 70
     0
 43
0.25
 10
269.7437767666
 20
283.3453621191
 10
269.7437767666
 20
282.4209716273559
  0
ARC
  5
D2
330
1F
100
AcDbEntity
  8
FASEN
  6
Continuous
 62
     7
100
AcDbCircle
 10
87.6444307895
 20
269.9522348974
 30
0.0
 40
19.03859487309966
100
AcDbArc
 50
227.4837701982989
 51
228.9651953373019
  0
ARC
  5
D3
330
1F
100
AcDbEntity
  8
FASEN
  6
Continuous
 62
     7
100
AcDbCircle
 10
82.7156506884
 20
254.9209716274
 30
0.0
 40
7.999999999999972
100
AcDbArc
 50
90.0
 51
172.8323734889971
  0
ARC
  5
D4
330
1F
100
AcDbEntity
  8
FASEN
  6
Continuous
 62
     7
100
AcDbCircle
 10
82.7156506884
 20
254.9209716274
 30
0.0
 40
7.59998219489998
100
AcDbArc
 50
90.0
 51
174.9405171273017
  0
ARC
  5
D5
330
1F
100
AcDbEntity
  8
BEZUGSACHSEN
  6
Continuous
 62
     7
100
AcDbCircle
 10
27.7437767666
 20
286.4109716274
 30
0.0
 40
2.0
100
AcDbArc
 50
270.0
 51
359.9999999999137
  0
ARC
  5
D6
330
1F
100
AcDbEntity
  8
BEZUGSACHSEN
  6
Continuous
 62
     7
100
AcDbCircle
 10
21.7437767666
 20
260.8207800643
 30
0.0
 40
2.0
100
AcDbArc
 50
179.9999999942695
 51
267.1318795135585
  0
ARC
  5
D7
330
1F
100
AcDbEntity
  8
BEZUGSACHSEN
  6
Continuous
 62
     7
100
AcDbCircle
 10
88.8687767666
 20
247.4209716274
 30
0.0
 40
1.0
100
AcDbArc
 50
90.0
 51
180.0
  0
ARC
  5
D8
330
1F
100
AcDbEntity
  8
BEZUGSACHSEN
  6
Continuous
 62
     7
100
AcDbCircle
 10
68.1218394257
 20
255.7387216274
 30
0.0
 40
1.000000000000028
100
AcDbArc
 50
90.0
 51
104.9999999996985
  0
ARC
  5
D9
330
1F
100
AcDbEntity
  8
BEZUGSACHSEN
  6
Continuous
 62
     7
100
AcDbCircle
 10
69.0432054779
 20
255.7387216274
 30
0.0
 40
0.999999999999833
100
AcDbArc
 50
45.49026120128803
 51
90.0
  0
ARC
  5
DA
330
1F
100
AcDbEntity
  8
0
  6
Continuous
 62
     7
100
AcDbCircle
 10
-154.8540031159
 20
363.8554392178
 30
0.0
 40
264.5204223901892
100
AcDbArc
 50
335.840076470599
 51
336.5770705490999
  0
ARC
  5
DB
330
1F
100
AcDbEntity
  8
BEZUGSACHSEN
  6
Continuous
 62
     7
100
AcDbCircle
 10
76.7589847777
 20
394.4737413942
 30
0.0
 40
50.30340021035247
100
AcDbArc
 50
264.2781515101899
 51
269.9826780125999
  0
ARC
  5
DC
330
1F
100
AcDbEntity
  8
BEZUGSACHSEN
  6
Continuous
 62
     7
100
AcDbCircle
 10
76.7285687655
 20
394.4737411935
 30
0.0
 40
50.30340000969741
100
AcDbArc
 50
270.017321976058
 51
275.7218485012678
  0
ARC
  5
DD
330
1F
100
AcDbEntity
  8
0
  6
Continuous
 62
     7
100
AcDbCircle
 10
84.7437767666
 20
294.4209716274
 30
0.0
 40
10.0
100
AcDbArc
 50
90.0
 51
270.0
  0
ARC
  5
DE
330
1F
100
AcDbEntity
  8
FASEN
  6
Continuous
 62
     7
100
AcDbCircle
 10
84.7437767666
 20
294.4209716274
 30
0.0
 40
9.599999195900011
100
AcDbArc
 50
90.0
 51
270.0
  0
ARC
  5
DF
330
1F
100
AcDbEntity
  8
BEZUGSACHSEN
  6
Continuous
 62
     7
100
AcDbCircle
 10
27.7437767666
 20
302.4309716274
 30
0.0
 40
2.0
100
AcDbArc
 50
0.0
 51
90.0
  0
ARC
  5
E0
330
1F
100
AcDbEntity
  8
BEZUGSACHSEN
  6
Continuous
 62
     7
100
AcDbCircle
 10
21.7437767666
 20
328.0211631905
 30
0.0
 40
1.999999999947541
100
AcDbArc
 50
92.86812048644141
 51
180.0000000143238
  0
ARC
  5
E1
330
1F
100
AcDbEntity
  8
BEZUGSACHSEN
  6
Continuous
 62
     7
100
AcDbCircle
 10
88.8687767666
 20
341.4209716274
 30
0.0
 40
1.0
100
AcDbArc
 50
180.0
 51
270.0
  0
ARC
  5
E2
330
1F
100
AcDbEntity
  8
BEZUGSACHSEN
  6
Continuous
 62
     7
100
AcDbCircle
 10
68.1218394257
 20
333.1032216274
 30
0.0
 40
1.000000000009914
100
AcDbArc
 50
255.0000000003019
 51
270.0
  0
ARC
  5
E3
330
1F
100
AcDbEntity
  8
BEZUGSACHSEN
  6
Continuous
 62
     7
100
AcDbCircle
 10
69.0432054779
 20
333.1032216274
 30
0.0
 40
1.0
100
AcDbArc
 50
270.0
 51
314.5097387987131
  0
ARC
  5
E4
330
1F
100
AcDbEntity
  8
BEZUGSACHSEN
  6
Continuous
 62
     7
100
AcDbCircle
 10
206.073823369
 20
-1311.6217877003
 30
0.0
 40
1632.1727637359
100
AcDbArc
 50
96.2726189838
 51
96.48809068979999
  0
ARC
  5
E5
330
1F
100
AcDbEntity
  8
0
  6
Continuous
 62
     7
100
AcDbCircle
 10
168.7437767666
 20
28.4209716274
 30
0.0
 40
250.0
100
AcDbArc
 50
90.0
 51
102.5558577985977
  0
ARC
  5
E6
330
1F
100
AcDbEntity
  8
RUNDUNGEN
  6
Continuous
 62
     7
100
AcDbCircle
 10
168.7437767666
 20
28.4209716274
 30
0.0
 40
250.0
100
AcDbArc
 50
90.0
 51
102.5558577985977
  0
ARC
  5
E7
330
1F
100
AcDbEntity
  8
RUNDUNGEN
  6
Continuous
 62
     7
100
AcDbCircle
 10
118.7437767666
 20
252.9204148338
 30
0.0
 40
20.00000000000634
100
AcDbArc
 50
102.5558577987095
 51
180.0
  0
ARC
  5
E8
330
1F
100
AcDbEntity
  8
RUNDUNGEN
  6
Continuous
 62
     7
100
AcDbCircle
 10
268.7437767666
 20
283.3453621191
 30
0.0
 40
1.000000000064494
100
AcDbArc
 50
274.4999999981087
 51
0.0
  0
ARC
  5
E9
330
1F
100
AcDbEntity
  8
BEZUGSACHSEN
  6
Continuous
 62
     7
100
AcDbCircle
 10
90.6187767666
 20
247.4209716274
 30
0.0
 40
1.0
100
AcDbArc
 50
0.0
 51
90.0
  0
ARC
  5
EA
330
1F
100
AcDbEntity
  8
BEZUGSACHSEN
  6
Continuous
 62
     7
100
AcDbCircle
 10
206.0738233701
 20
1900.4637309646
 30
0.0
 40
1632.1727637455
100
AcDbArc
 50
263.5119093102
 51
263.7273810162
  0
ARC
  5
EB
330
1F
100
AcDbEntity
  8
0
  6
Continuous
 62
     7
100
AcDbCircle
 10
334.3415566498
 20
363.8554392181
 30
0.0
 40
264.5204223909001
100
AcDbArc
 50
203.4229294509001
 51
204.1599235293982
  0
ARC
  5
EC
330
1F
100
AcDbEntity
  8
0
  6
Continuous
 62
     7
100
AcDbCircle
 10
168.7437767666
 20
560.4209716274
 30
0.0
 40
249.9999999999708
100
AcDbArc
 50
257.4441422014023
 51
270.0
  0
ARC
  5
ED
330
1F
100
AcDbEntity
  8
RUNDUNGEN
  6
Continuous
 62
     7
100
AcDbCircle
 10
168.7437767666
 20
560.4209716274
 30
0.0
 40
249.9999999999708
100
AcDbArc
 50
257.4441422014023
 51
270.0
  0
ARC
  5
EE
330
1F
100
AcDbEntity
  8
RUNDUNGEN
  6
Continuous
 62
     7
100
AcDbCircle
 10
118.7437767666
 20
335.921528421
 30
0.0
 40
20.0
100
AcDbArc
 50
180.0
 51
257.4441422012904
  0
ARC
  5
EF
330
1F
100
AcDbEntity
  8
BEZUGSACHSEN
  6
Continuous
 62
     7
100
AcDbCircle
 10
90.6187767666
 20
341.4209716274
 30
0.0
 40
1.0
100
AcDbArc
 50
270.0
 51
0.0
  0
ARC
  5
F0
330
1F
100
AcDbEntity
  8
RUNDUNGEN
  6
Continuous
 62
     7
100
AcDbCircle
 10
268.7437767666
 20
305.4965811358
 30
0.0
 40
1.0
100
AcDbArc
 50
0.0
 51
85.50000000144182
  0
CIRCLE
  5
F1
330
1F
100
AcDbEntity
  8
BEZUGSACHSEN
  6
Continuous
 62
     7
100
AcDbCircle
 10
54.7437767666
 20
294.4209716274
 30
0.0
 40
6.0
  0
SPLINE
  5
F2
330
1F
100
AcDbEntity
  8
BEZUGSACHSEN
  6
Continuous
 62
     7
100
AcDbSpline
210
0.0
220
0.0
230
1.0
 70
     8
 71
     3
 72
    19
 73
    15
 74
    13
 42
0.0000000001
 43
0.0000000001
 44
0.00000001
 40
0.0
 40
0.0
 40
0.0
 40
0.0
 40
0.2679411643344697
 40
0.5361267936840843
 40
0.8065304773436817
 40
1.076465993191166
 40
1.213913376105209
 40
1.351353104840993
 40
1.491586367035726
 40
1.631807897530524
 40
1.775491562725209
 40
1.919219204694832
 40
2.065713007355714
 40
2.211936409306551
 40
2.211936409306551
 40
2.211936409306551
 40
2.211936409306551
 10
29.2976227135
 20
279.4109716274
 30
0.0
 10
29.26372846970106
 20
279.3283000476964
 30
0.0
 10
29.19590905756479
 20
279.1628814601293
 30
0.0
 10
29.07127055129262
 20
278.9242154864638
 30
0.0
 10
28.92635975199393
 20
278.6965274904489
 30
0.0
 10
28.78331612047811
 20
278.520722999136
 30
0.0
 10
28.65420973354891
 20
278.3927732800361
 30
0.0
 10
28.54809463446272
 20
278.3036862592377
 30
0.0
 10
28.43328520681548
 20
278.2243846188989
 30
0.0
 10
28.30882559459857
 20
278.1567141514339
 30
0.0
 10
28.1759720394815
 20
278.1039114647303
 30
0.0
 10
28.03532124060563
 20
278.0687452007411
 30
0.0
 10
27.88999585749669
 20
278.0523929988623
 30
0.0
 10
27.79248643843581
 20
278.0590157322282
 30
0.0
 10
27.7437767666
 20
278.06232404
 30
0.0
 11
29.2976227135
 21
279.4109716274
 31
0.0
 11
29.19218545378354
 21
279.1646477515609
 31
0.0
 11
29.06831593822422
 21
278.9267825062964
 31
0.0
 11
28.92197045194594
 21
278.6994036357243
 31
0.0
 11
28.75071826082313
 21
278.490746333548
 31
0.0
 11
28.65292582212113
 21
278.3941625771361
 31
0.0
 11
28.54750883284158
 21
278.305975631355
 31
0.0
 11
28.43197018911885
 21
278.2265011723603
 31
0.0
 11
28.30864817923797
 21
278.1597646793955
 31
0.0
 11
28.17501749106829
 21
278.1069647284194
 31
0.0
 11
28.03558978987252
 21
278.0720713020269
 31
0.0
 11
27.88989535132226
 21
278.0567884752737
 31
0.0
 11
27.7437767666
 21
278.06232404
 31
0.0
  0
SPLINE
  5
F3
330
1F
100
AcDbEntity
  8
BEZUGSACHSEN
  6
Continuous
 62
     7
100
AcDbSpline
210
0.0
220
0.0
230
1.0
 70
     8
 71
     3
 72
    47
 73
    43
 74
    41
 42
0.0000000001
 43
0.0000000001
 44
0.00000001
 40
0.0
 40
0.0
 40
0.0
 40
0.0
 40
0.6366022431461217
 40
1.273595002083056
 40
1.592921746302323
 40
1.91207634479413
 40
2.23139229033926
 40
2.550826842654419
 40
3.189774321082284
 40
3.829081696920375
 40
4.468337152442497
 40
5.107221744722081
 40
5.426176341213146
 40
5.74503335675996
 40
6.063356731538767
 40
6.381780214851807
 40
7.017059195644877
 40
7.652639340961003
 40
8.287532214198679
 40
8.922347946446521
 40
9.55922674849997
 40
10.19613435927992
 40
10.83451785495897
 40
11.47287689968601
 40
12.11234487358935
 40
12.7518958894083
 40
13.39354300512492
 40
14.03487957349029
 40
14.35615205764684
 40
14.67732107704537
 40
14.99840882464657
 40
15.31959604113712
 40
15.96011121019177
 40
16.60099592081191
 40
17.23809108069532
 40
17.87482555190495
 40
18.1920567032312
 40
18.5091719909096
 40
18.82571084619724
 40
19.14241581819287
 40
19.77338974990035
 40
20.4039893073726
 40
20.4039893073726
 40
20.4039893073726
 40
20.4039893073726
 10
48.2443611723
 20
294.420971608
 30
0.0
 10
48.25036681618627
 20
294.6332514176832
 30
0.0
 10
48.26238178804699
 20
295.0579412574796
 30
0.0
 10
48.34364713325923
 20
295.5840840185622
 30
0.0
 10
48.43636672985936
 20
295.9990583946681
 30
0.0
 10
48.52165969399379
 20
296.306882370365
 30
0.0
 10
48.62189830740367
 20
296.610175047162
 30
0.0
 10
48.77538385651967
 20
297.0076124097244
 30
0.0
 10
49.00385580330752
 20
297.4897119866085
 30
0.0
 10
49.33347076390691
 20
298.0385278594281
 30
0.0
 10
49.71569798101316
 20
298.552063398772
 30
0.0
 10
50.07455267814122
 20
298.9465661608596
 30
0.0
 10
50.38350603170838
 20
299.2394394589064
 30
0.0
 10
50.62540114068353
 20
299.4471612800215
 30
0.0
 10
50.87704439416918
 20
299.6426706771542
 30
0.0
 10
51.22433850132605
 20
299.8861658798287
 30
0.0
 10
51.68007883608647
 20
300.1580479498737
 30
0.0
 10
52.25555826077563
 20
300.4293770623888
 30
0.0
 10
52.85466902593315
 20
300.6431606932013
 30
0.0
 10
53.47211942837967
 20
300.7978504245733
 30
0.0
 10
54.1023899900572
 20
300.8916574082274
 30
0.0
 10
54.73998392477681
 20
300.9237841330324
 30
0.0
 10
55.37816256901404
 20
300.8933545600823
 30
0.0
 10
56.01117499021376
 20
300.8006833049225
 30
0.0
 10
56.63240867464233
 20
300.6461913436926
 30
0.0
 10
57.23654442659948
 20
300.4311542111462
 30
0.0
 10
57.81702350016301
 20
300.1572308454167
 30
0.0
 10
58.27665252438432
 20
299.8820639673597
 30
0.0
 10
58.62655151304725
 20
299.6354542685024
 30
0.0
 10
58.87968314219646
 20
299.4375500761316
 30
0.0
 10
59.12268178155063
 20
299.2273715467298
 30
0.0
 10
59.43192612505533
 20
298.9318522065748
 30
0.0
 10
59.79024631584899
 20
298.5343812238124
 30
0.0
 10
60.17019673419017
 20
298.0187144622773
 30
0.0
 10
60.4966697638087
 20
297.4691183058419
 30
0.0
 10
60.72204090380625
 20
296.9880127641575
 30
0.0
 10
60.87313188696402
 20
296.5920225765457
 30
0.0
 10
60.97154480451326
 20
296.2905962257518
 30
0.0
 10
61.05521158268344
 20
295.9849008578126
 30
0.0
 10
61.14603094012387
 20
295.5733488400686
 30
0.0
 10
61.22554591579903
 20
295.0519236235266
 30
0.0
 10
61.23731820041533
 20
294.6312473343567
 30
0.0
 10
61.243202596
 20
294.420971608
 30
0.0
 11
48.2443611723
 21
294.420971608
 31
0.0
 11
48.2756098433398
 21
295.0568064423217
 31
0.0
 11
48.36905104571341
 21
295.6869084313973
 31
0.0
 11
48.43899155274628
 21
295.9984816893154
 31
0.0
 11
48.52413289171149
 21
296.3060700670829
 31
0.0
 11
48.62435742982475
 21
296.6092494117609
 31
0.0
 11
48.73943731955399
 21
296.9072343982832
 31
0.0
 11
49.0130332138033
 21
297.4846416781466
 31
0.0
 11
49.34225272751645
 21
298.0326639702037
 31
0.0
 11
49.72387698288132
 21
298.5455094295108
 31
0.0
 11
50.15381161901263
 21
299.0180871806872
 31
0.0
 11
50.38528388007376
 21
299.2375242490736
 31
0.0
 11
50.62718628110103
 21
299.4452573103341
 31
0.0
 11
50.87856008825551
 21
299.6405544685501
 31
0.0
 11
51.13928936654744
 21
299.8233487741687
 31
0.0
 11
51.68482301075726
 21
300.1488828376284
 31
0.0
 11
52.25973283087598
 21
300.4198825052503
 31
0.0
 11
52.85767901862078
 21
300.6333053649665
 31
0.0
 11
53.47347155082973
 21
300.7875472891799
 31
0.0
 11
54.10340383277615
 21
300.8813552241684
 31
0.0
 11
54.73950695449498
 21
300.9133571492507
 31
0.0
 11
55.37716791353032
 21
300.8829928794991
 31
0.0
 11
56.0087854464576
 21
300.7904641699886
 31
0.0
 11
56.62935831856381
 21
300.636163813366
 31
0.0
 11
57.23185912568637
 21
300.4216450979779
 31
0.0
 11
57.81216632205287
 21
300.1478667588919
 31
0.0
 11
58.3623913100988
 21
299.8183746399383
 31
0.0
 11
58.62499861424626
 21
299.6332978642896
 31
0.0
 11
58.87801907163811
 21
299.4354843481623
 31
0.0
 11
59.12086737300242
 21
299.2254318685672
 31
0.0
 11
59.35306980840946
 21
299.0035236509906
 31
0.0
 11
59.78198586614371
 21
298.5278234331992
 31
0.0
 11
60.16209652481678
 21
298.0118301198028
 31
0.0
 11
60.48753567054196
 21
297.4641261804555
 31
0.0
 11
60.75761652867165
 21
296.8875092218959
 31
0.0
 11
60.87070697385585
 21
296.5911207022468
 31
0.0
 11
60.96915107719501
 21
296.2896727561647
 31
0.0
 11
61.05263388257063
 21
295.9843410216309
 31
0.0
 11
61.12118330601466
 21
295.6751436480453
 31
0.0
 11
61.21261038393921
 21
295.050828669916
 31
0.0
 11
61.243202596
 21
294.420971608
 31
0.0
  0
SPLINE
  5
F4
330
1F
100
AcDbEntity
  8
BEZUGSACHSEN
  6
Continuous
 62
     7
100
AcDbSpline
210
0.0
220
0.0
230
1.0
 70
     8
 71
     3
 72
    47
 73
    43
 74
    41
 42
0.0000000001
 43
0.0000000001
 44
0.00000001
 40
0.0
 40
0.0
 40
0.0
 40
0.0
 40
0.6302393213905458
 40
1.260854867258941
 40
1.57747608833069
 40
1.893930800152475
 40
2.210999113812912
 40
2.528183472174096
 40
3.164887038225478
 40
3.801951183362358
 40
4.442851001588366
 40
5.083381259767759
 40
5.404527292290566
 40
5.725573838732249
 40
6.04667070999859
 40
6.367871027113682
 40
7.009090242486394
 40
7.650619763891128
 40
8.290330346441078
 40
8.929958764441894
 40
9.568647011308027
 40
10.20735923008039
 40
10.84445705808185
 40
11.4815262648607
 40
12.11643462211836
 40
12.75141965570132
 40
13.38691908732014
 40
14.02211738527202
 40
14.34050449138073
 40
14.65879153786404
 40
14.97761586863693
 40
15.2965377494167
 40
15.93537694098607
 40
16.57458694063108
 40
17.21386274985709
 40
17.85277859068651
 40
18.17219860078144
 40
18.49150024072798
 40
18.8106715663181
 40
19.13001452417299
 40
19.7671962702056
 40
20.40398968279006
 40
20.40398968279006
 40
20.40398968279006
 40
20.40398968279006
 10
61.2431904044
 20
294.4209716461
 30
0.0
 10
61.23732120265451
 20
294.2108156242332
 30
0.0
 10
61.22557929551458
 20
293.7903781268238
 30
0.0
 10
61.14613255296042
 20
293.2692146845924
 30
0.0
 10
61.05540104789536
 20
292.8578232171694
 30
0.0
 10
60.97179566559961
 20
292.5521853768724
 30
0.0
 10
60.87344372423562
 20
292.2508015306674
 30
0.0
 10
60.72242491338758
 20
291.8548283510529
 30
0.0
 10
60.4971423257831
 20
291.3737215423623
 30
0.0
 10
60.1707642910097
 20
290.8240873173743
 30
0.0
 10
59.7908972289382
 20
290.3083594547336
 30
0.0
 10
59.43264278963437
 20
289.9108340525386
 30
0.0
 10
59.12346205195949
 20
289.615280697601
 30
0.0
 10
58.88053709593922
 20
289.4050957891577
 30
0.0
 10
58.62748819264031
 20
289.2071863248138
 30
0.0
 10
58.27770568421533
 20
288.960562973311
 30
0.0
 10
57.818220446479
 20
288.6853563640145
 30
0.0
 10
57.23782473950996
 20
288.4113162573157
 30
0.0
 10
56.63367043165299
 20
288.1961277800007
 30
0.0
 10
56.01225528423571
 20
288.0414659409997
 30
0.0
 10
55.37898607280653
 20
287.9486555679774
 30
0.0
 10
54.7405266083892
 20
287.9181448181566
 30
0.0
 10
54.10269359485095
 20
287.9502465605015
 30
0.0
 10
53.47226360785987
 20
288.0440596228405
 30
0.0
 10
52.85468993835661
 20
288.1987734391191
 30
0.0
 10
52.25554652690818
 20
288.4125700111941
 30
0.0
 10
51.6800893054186
 20
288.6838913796407
 30
0.0
 10
51.22440391245289
 20
288.9557362632856
 30
0.0
 10
50.87714801472049
 20
289.1991968158883
 30
0.0
 10
50.62552843343698
 20
289.3946793422234
 30
0.0
 10
50.38365338317753
 20
289.6023724009364
 30
0.0
 10
50.07471709950453
 20
289.8952099490917
 30
0.0
 10
49.71587434261378
 20
290.2896675980318
 30
0.0
 10
49.33364743736429
 20
290.8031522639699
 30
0.0
 10
49.00402299210067
 20
291.3519200426731
 30
0.0
 10
48.77553554618036
 20
291.8339834591632
 30
0.0
 10
48.62203404622035
 20
292.2313930183398
 30
0.0
 10
48.52177724329707
 20
292.534675381632
 30
0.0
 10
48.43646075037158
 20
292.8424992533359
 30
0.0
 10
48.34369829500243
 20
293.2575401204426
 30
0.0
 10
48.26240592804499
 20
293.7838129195316
 30
0.0
 10
48.25036612855671
 20
294.2086285692505
 30
0.0
 10
48.2443480638
 20
294.4209716479
 30
0.0
 11
61.2431904044
 21
294.4209716461
 31
0.0
 11
61.21265082567876
 21
293.7914726895017
 31
0.0
 11
61.12131955015195
 21
293.1675058916658
 31
0.0
 11
61.05282481146543
 21
292.8583821811465
 31
0.0
 11
60.96940598662867
 21
292.5531201882665
 31
0.0
 11
60.87101924278962
 21
292.2517029290324
 31
0.0
 11
60.75798861168707
 21
291.9553416737685
 31
0.0
 11
60.48800847517226
 21
291.3787116737599
 31
0.0
 11
60.16267185330153
 21
290.8309829019314
 31
0.0
 11
59.78263535847039
 21
290.3149162012051
 31
0.0
 11
59.35378486077543
 21
289.8391365649551
 31
0.0
 11
59.12164772640111
 21
289.617219632186
 31
0.0
 11
58.87886523307487
 21
289.4071540569091
 31
0.0
 11
58.62593562480208
 21
289.2093414840124
 31
0.0
 11
58.36342122899642
 21
289.0242581630199
 31
0.0
 11
57.81336304742462
 21
288.694715936516
 31
0.0
 11
57.23322221576316
 21
288.4208606055967
 31
0.0
 11
56.63061690544035
 21
288.2061597220467
 31
0.0
 11
56.00991763510036
 21
288.0517028383748
 31
0.0
 11
55.37798882119679
 21
287.9590278641728
 31
0.0
 11
54.74000269404686
 21
287.9285811899152
 31
0.0
 11
54.10370770593653
 21
287.9605550941163
 31
0.0
 11
53.47358443183093
 21
288.0543731822244
 31
0.0
 11
52.85770052358698
 21
288.2086315164621
 31
0.0
 11
52.25966805375053
 21
288.4220867995911
 31
0.0
 11
51.68483230516883
 21
288.6930543063891
 31
0.0
 11
51.13936561762236
 21
289.0185431241664
 31
0.0
 11
50.87866332486824
 21
289.2013125523786
 31
0.0
 11
50.62731407308463
 21
289.3965821034789
 31
0.0
 11
50.38543077474605
 21
289.6042872403379
 31
0.0
 11
50.15397494344742
 21
289.8236940866257
 31
0.0
 11
49.7240519125672
 21
290.2962210172908
 31
0.0
 11
49.3424307731094
 21
290.8090121341845
 31
0.0
 11
49.01319929893035
 21
291.3569904153887
 31
0.0
 11
48.73958499178633
 21
291.9343539599504
 31
0.0
 11
48.62449273932636
 21
292.2323185824691
 31
0.0
 11
48.52425305089947
 21
292.5354778510667
 31
0.0
 11
48.43908597068084
 21
292.8430764588757
 31
0.0
 11
48.3691229431974
 21
293.154661278013
 31
0.0
 11
48.27563404621691
 21
293.7849472477272
 31
0.0
 11
48.2443480638
 21
294.4209716479
 31
0.0
  0
SPLINE
  5
F5
330
1F
100
AcDbEntity
  8
BEZUGSACHSEN
  6
Continuous
 62
     7
100
AcDbSpline
210
0.0
220
0.0
230
1.0
 70
     8
 71
     3
 72
    27
 73
    23
 74
    21
 42
0.0000000001
 43
0.0000000001
 44
0.00000001
 40
0.0
 40
0.0
 40
0.0
 40
0.0
 40
0.1260969825525913
 40
0.252246495919527
 40
0.3668867952504635
 40
0.4815825893953792
 40
0.5839596006875039
 40
0.6859489161358063
 40
0.7334568410412557
 40
0.7809568848702999
 40
0.8274002264148822
 40
0.8738421607027209
 40
0.9204907319134292
 40
0.9671431399697975
 40
1.015111401857926
 40
1.063087497157863
 40
1.165500418760706
 40
1.268190478995022
 40
1.380949153938803
 40
1.49364651781997
 40
1.615655563787429
 40
1.737631867607771
 40
1.737631867607771
 40
1.737631867607771
 40
1.737631867607771
 10
19.7437767666
 20
309.0552041136
 30
0.0
 10
19.74450530807628
 20
309.097247041661
 30
0.0
 10
19.74596269453235
 20
309.1813504124706
 30
0.0
 10
19.75940725648078
 20
309.303097740033
 30
0.0
 10
19.78236268976633
 20
309.4195154564114
 30
0.0
 10
19.81632859010195
 20
309.5250909142045
 30
0.0
 10
19.86255434894942
 20
309.6212489764671
 30
0.0
 10
19.91109751750047
 20
309.6904183421375
 30
0.0
 10
19.95653684306888
 20
309.7379558237308
 30
0.0
 10
19.99244292116412
 20
309.7686511071888
 30
0.0
 10
20.03109035225896
 20
309.7951861428929
 30
0.0
 10
20.07204483947896
 20
309.8174144887876
 30
0.0
 10
20.1151844656797
 20
309.8352077056598
 30
0.0
 10
20.16036510030828
 20
309.8487411127181
 30
0.0
 10
20.20707232329447
 20
309.8579382380557
 30
0.0
 10
20.27289631448862
 20
309.8648935584383
 30
0.0
 10
20.35762406649056
 20
309.8630283018005
 30
0.0
 10
20.46245566999869
 20
309.8461136408638
 30
0.0
 10
20.5680349123645
 20
309.8166990080055
 30
0.0
 10
20.67619285046425
 20
309.7749473705379
 30
0.0
 10
20.78384511170018
 20
309.7241515433655
 30
0.0
 10
20.85436448653392
 20
309.6835871151778
 30
0.0
 10
20.8896194422
 20
309.6633076229
 30
0.0
 11
19.7437767666
 21
309.0552041136
 31
0.0
 11
19.74790812616465
 21
309.1812333993911
 31
0.0
 11
19.76167488528566
 21
309.306629476148
 31
0.0
 11
19.7845264613678
 21
309.4189691561424
 31
0.0
 11
19.82016465073866
 21
309.5279877080173
 31
0.0
 11
19.8650644155388
 21
309.619993488064
 31
0.0
 11
19.92423684449294
 21
309.703062399922
 31
0.0
 11
19.95708934465447
 21
309.7373802693483
 31
0.0
 11
19.99322643958128
 21
309.7682082523185
 31
0.0
 11
20.03151370444477
 21
309.7944964497291
 31
0.0
 11
20.07233631239641
 21
309.8166407027177
 31
0.0
 11
20.11544245604606
 21
309.8344718433334
 31
0.0
 11
20.16012202811346
 21
309.8478950701188
 31
0.0
 11
20.20717283385967
 21
309.8572318697418
 31
0.0
 11
20.2548767211128
 21
309.862335286359
 31
0.0
 11
20.35727636197244
 21
309.8606860249951
 31
0.0
 11
20.45874061230758
 21
309.8448665947001
 31
0.0
 11
20.56746432876441
 21
309.8149722431452
 31
0.0
 11
20.67278232106172
 21
309.7748621904872
 31
0.0
 11
20.78307500696712
 21
309.7226919812326
 31
0.0
 11
20.8896194422
 21
309.6633076229
 31
0.0
  0
SPLINE
  5
F6
330
1F
100
AcDbEntity
  8
BEZUGSACHSEN
  6
Continuous
 62
     7
100
AcDbSpline
210
0.0
220
0.0
230
1.0
 70
     8
 71
     3
 72
    27
 73
    23
 74
    21
 42
0.0000000001
 43
0.0000000001
 44
0.00000001
 40
0.0
 40
0.0
 40
0.0
 40
0.0
 40
0.1219765139942033
 40
0.2439857715228433
 40
0.3566831398803132
 40
0.4694418150046911
 40
0.5721317673312889
 40
0.6745445881519994
 40
0.7225206521561448
 40
0.7704888798001335
 40
0.8171412936315118
 40
0.8637898734586906
 40
0.9102318001296011
 40
0.9566751324735725
 40
1.00417517580316
 40
1.051683100177792
 40
1.153672388771541
 40
1.256049376716835
 40
1.370745138138035
 40
1.485385401918964
 40
1.611534903954668
 40
1.737631875999479
 40
1.737631875999479
 40
1.737631875999479
 40
1.737631875999479
 10
20.8896194422
 20
279.178635632
 30
0.0
 10
20.85436442459951
 20
279.158356106701
 30
0.0
 10
20.78384492549565
 20
279.1177916122406
 30
0.0
 10
20.67619252229152
 20
279.066995751347
 30
0.0
 10
20.56803450642149
 20
279.0252441154768
 30
0.0
 10
20.46245528545129
 20
278.9958295303513
 30
0.0
 10
20.35762374030127
 20
278.9789149430087
 30
0.0
 10
20.27289607045771
 20
278.9770497197907
 30
0.0
 10
20.20707213405306
 20
278.9840050277737
 30
0.0
 10
20.16036493083663
 20
278.9932021549007
 30
0.0
 10
20.11518431353023
 20
279.00673559988
 30
0.0
 10
20.07204470287684
 20
279.0245288586998
 30
0.0
 10
20.03109022630461
 20
279.0467572164383
 30
0.0
 10
19.99244279984148
 20
279.0732922481627
 30
0.0
 10
19.95653672120437
 20
279.1039875256814
 30
0.0
 10
19.91109739965643
 20
279.1515249987693
 30
0.0
 10
19.86255425956957
 20
279.2206943658554
 30
0.0
 10
19.81632855060732
 20
279.3168524205702
 30
0.0
 10
19.78236267682498
 20
279.4224278535664
 30
0.0
 10
19.75940725264729
 20
279.5388455444752
 30
0.0
 10
19.74596269429754
 20
279.6605928531308
 30
0.0
 10
19.7445053079996
 20
279.744696216648
 30
0.0
 10
19.7437767666
 20
279.7867391412
 30
0.0
 11
20.8896194422
 21
279.178635632
 31
0.0
 11
20.78307481813946
 21
279.1192511807524
 31
0.0
 11
20.67278192897079
 21
279.067080906443
 31
0.0
 11
20.56746392111836
 21
279.0269708820514
 31
0.0
 11
20.45874019257531
 21
278.9970765737721
 31
0.0
 11
20.35727604045416
 21
278.9812572140133
 31
0.0
 11
20.25487649986976
 21
278.9796079849332
 31
0.0
 11
20.20717264365722
 21
278.9847113974957
 31
0.0
 11
20.16012187339577
 21
278.9940482000056
 31
0.0
 11
20.11544230596234
 21
279.0074714622863
 31
0.0
 11
20.07233616936641
 21
279.0253026424959
 31
0.0
 11
20.03151357656956
 21
279.0474469074475
 31
0.0
 11
19.9932263200234
 21
279.0737351007172
 31
0.0
 11
19.95708922301285
 21
279.1045630804752
 31
0.0
 11
19.92423672264097
 21
279.1388809489653
 31
0.0
 11
19.86506432838714
 21
279.2219498525702
 31
0.0
 11
19.82016460478608
 21
279.3139556267439
 31
0.0
 11
19.78452644521859
 21
279.4229741539337
 31
0.0
 11
19.76167488185235
 21
279.5353138002367
 31
0.0
 11
19.74790812552979
 21
279.6607098659015
 31
0.0
 11
19.7437767666
 21
279.7867391412
 31
0.0
  0
SPLINE
  5
F7
330
1F
100
AcDbEntity
  8
BEZUGSACHSEN
  6
Continuous
 62
     7
100
AcDbSpline
210
0.0
220
0.0
230
1.0
 70
     8
 71
     3
 72
    15
 73
    11
 74
     9
 42
0.0000000001
 43
0.0000000001
 44
0.00000001
 40
0.0
 40
0.0
 40
0.0
 40
0.0
 40
0.1110371613647038
 40
0.2222522337209929
 40
0.3333980191658624
 40
0.4445069474681126
 40
0.555620106515885
 40
0.666752564222892
 40
0.7778876033677994
 40
0.88898209161502
 40
0.88898209161502
 40
0.88898209161502
 40
0.88898209161502
 10
21.6437022819
 20
278.7444392412
 30
0.0
 10
21.6070605550193
 20
278.7499713940121
 30
0.0
 10
21.53371839149007
 20
278.7610445636127
 30
0.0
 10
21.42720184148217
 20
278.7940631271376
 30
0.0
 10
21.32478893373663
 20
278.837653414585
 30
0.0
 10
21.22733896810955
 20
278.8914329223981
 30
0.0
 10
21.13503417237735
 20
278.953528057762
 30
0.0
 10
21.04803754424973
 20
279.0228147314166
 30
0.0
 10
20.96578478878389
 20
279.0976966830428
 30
0.0
 10
20.91500480240178
 20
279.1516592645864
 30
0.0
 10
20.8896194422
 20
279.178635632
 30
0.0
 11
21.6437022819
 21
278.7444392412
 31
0.0
 11
21.53435999678978
 21
278.7637658004076
 31
0.0
 11
21.42786804322148
 21
278.7958322337051
 31
0.0
 11
21.32559986261432
 21
278.8393592926163
 31
0.0
 11
21.22819699615977
 21
278.8928183943195
 31
0.0
 11
21.13592522937315
 21
278.9547219900765
 31
0.0
 11
21.04882812596438
 21
279.0237474761943
 31
0.0
 11
20.96678822147783
 21
279.0987171433777
 31
0.0
 11
20.8896194422
 21
279.178635632
 31
0.0
  0
SPLINE
  5
F8
330
1F
100
AcDbEntity
  8
BEZUGSACHSEN
  6
Continuous
 62
     7
100
AcDbSpline
210
0.0
220
0.0
230
1.0
 70
     8
 71
     3
 72
    15
 73
    11
 74
     9
 42
0.0000000001
 43
0.0000000001
 44
0.00000001
 40
0.0
 40
0.0
 40
0.0
 40
0.0
 40
0.111094483114301
 40
0.2222295180950668
 40
0.3333620401233874
 40
0.4444752609512017
 40
0.5555842177654893
 40
0.6667300353685066
 40
0.7779450181422621
 40
0.8889820871543539
 40
0.8889820871543539
 40
0.8889820871543539
 40
0.8889820871543539
 10
20.8896194422
 20
309.6633076229
 30
0.0
 10
20.9150048017685
 20
309.6902839885735
 30
0.0
 10
20.96578478710562
 20
309.744246566872
 30
0.0
 10
21.04803755632352
 20
309.8191285302776
 30
0.0
 10
21.13503420826321
 20
309.888415239176
 30
0.0
 10
21.22733904869781
 20
309.9505104022471
 30
0.0
 10
21.32478907069556
 20
310.0042898943695
 30
0.0
 10
21.42720198456979
 20
310.0478801399779
 30
0.0
 10
21.5337184831561
 20
310.0808986958406
 30
0.0
 10
21.60706058587914
 20
310.0919718624534
 30
0.0
 10
21.6437022819
 20
310.0975040137
 30
0.0
 11
20.8896194422
 21
309.6633076229
 31
0.0
 11
20.96678821928627
 21
309.7432261065032
 31
0.0
 11
21.04882811950327
 21
309.8181957721858
 31
0.0
 11
21.13592526809455
 21
309.8872213048505
 31
0.0
 11
21.2281970896786
 21
309.9491249298194
 31
0.0
 11
21.32559999777406
 21
310.0025840149117
 31
0.0
 11
21.42786822117434
 21
310.0461110553946
 31
0.0
 11
21.534360089279
 21
310.0781774618185
 31
0.0
 11
21.6437022819
 21
310.0975040137
 31
0.0
  0
SPLINE
  5
F9
330
1F
100
AcDbEntity
  8
0
  6
Continuous
 62
     7
100
AcDbSpline
210
0.0
220
0.0
230
1.0
 70
     8
 71
     3
 72
    19
 73
    15
 74
    13
 42
0.0000000001
 43
0.0000000001
 44
0.00000001
 40
0.0
 40
0.0
 40
0.0
 40
0.0
 40
0.1162460235697865
 40
0.2327881717864169
 40
0.3491890045854669
 40
0.4655468550769495
 40
0.5819071370268151
 40
0.6982738489685246
 40
0.8146206073230348
 40
0.9309998278573446
 40
1.163276323454603
 40
1.396138921755486
 40
1.629013178048325
 40
1.861351539793031
 40
1.861351539793031
 40
1.861351539793031
 40
1.861351539793031
 10
88.8687767666
 20
260.8985910437
 30
0.0
 10
88.82999269575971
 20
260.8967500968121
 30
0.0
 10
88.7523257556951
 20
260.8930635134159
 30
0.0
 10
88.63871567062728
 20
260.8646580284571
 30
0.0
 10
88.53052798267834
 20
260.8208041142177
 30
0.0
 10
88.4295521167094
 20
260.7622074259591
 30
0.0
 10
88.33678365995586
 20
260.6915225646251
 30
0.0
 10
88.25269628093689
 20
260.6107649595422
 30
0.0
 10
88.1773926375481
 20
260.5217973207999
 30
0.0
 10
88.08874139338891
 20
260.39443787306
 30
0.0
 10
87.99874464768014
 20
260.2216524949931
 30
0.0
 10
87.92385112855462
 20
260.0007275048288
 30
0.0
 10
87.87731420322811
 20
259.7717075852282
 30
0.0
 10
87.87162039251004
 20
259.616528192368
 30
0.0
 10
87.8687767666
 20
259.5390278742
 30
0.0
 11
88.8687767666
 21
260.8985910437
 31
0.0
 11
88.75290541504957
 21
260.889265386315
 31
0.0
 11
88.63958089036153
 21
260.86206934956
 31
0.0
 11
88.5317077577503
 21
260.8183367400226
 31
0.0
 11
88.43091901822555
 21
260.7601922703285
 31
0.0
 11
88.3382317131447
 21
260.6898447139225
 31
0.0
 11
88.25415634748586
 21
260.6093925881739
 31
0.0
 11
88.17885758954043
 21
260.5206983649603
 31
0.0
 11
88.1122308602289
 21
260.4252782312702
 31
0.0
 11
88.00434107415452
 21
260.2195790225509
 31
0.0
 11
87.9285829373419
 21
259.9993843486959
 31
0.0
 11
87.8836229235428
 21
259.7708914245097
 31
0.0
 11
87.8687767666
 21
259.5390278742
 31
0.0
  0
SPLINE
  5
FA
330
1F
100
AcDbEntity
  8
0
  6
Continuous
 62
     7
100
AcDbSpline
210
0.0
220
0.0
230
1.0
 70
     8
 71
     3
 72
    19
 73
    15
 74
    13
 42
0.0000000001
 43
0.0000000001
 44
0.00000001
 40
0.0
 40
0.0
 40
0.0
 40
0.0
 40
0.2323383481439967
 40
0.4652125957751196
 40
0.6980761133580435
 40
0.9303535187932662
 40
1.046733461852049
 40
1.163080940920682
 40
1.279447997488004
 40
1.395808629590284
 40
1.512165904568474
 40
1.628566140412688
 40
1.745106920605383
 40
1.86135160286839
 40
1.86135160286839
 40
1.86135160286839
 40
1.86135160286839
 10
91.6187767666
 20
259.5390278742
 30
0.0
 10
91.61593314099406
 20
259.6165281878682
 30
0.0
 10
91.61023933082393
 20
259.7717075733763
 30
0.0
 10
91.56370235498939
 20
260.0007277874225
 30
0.0
 10
91.48880860923326
 20
260.2216533493326
 30
0.0
 10
91.39881130498141
 20
260.3944394135425
 30
0.0
 10
91.31015936716956
 20
260.5217993392468
 30
0.0
 10
91.23485510281202
 20
260.610767238151
 30
0.0
 10
91.15076712899523
 20
260.69152490811
 30
0.0
 10
91.05799839516663
 20
260.762209474492
 30
0.0
 10
90.95702258292121
 20
260.8208056986651
 30
0.0
 10
90.8488355334082
 20
260.864658949822
 30
0.0
 10
90.73522642405392
 20
260.8930637092724
 30
0.0
 10
90.65756038926182
 20
260.8967501619193
 30
0.0
 10
90.6187767666
 20
260.8985910437
 30
0.0
 11
91.6187767666
 21
259.5390278742
 31
0.0
 11
91.60393061248224
 21
259.7708914110621
 31
0.0
 11
91.5589706108936
 21
259.999384328823
 31
0.0
 11
91.48321213221122
 21
260.2195798572263
 31
0.0
 11
91.3753217210336
 21
260.4252797654705
 31
0.0
 11
91.3086943971894
 21
260.5207003652575
 31
0.0
 11
91.23339494062257
 21
260.6093949407758
 31
0.0
 11
91.14931907429214
 21
260.6898470417734
 31
0.0
 11
91.05663124832277
 21
260.7601944910542
 31
0.0
 11
90.95584281341819
 21
260.8183383370728
 31
0.0
 11
90.84797008462661
 21
260.8620703538071
 31
0.0
 11
90.73464679607272
 21
260.889265679127
 31
0.0
 11
90.6187767666
 21
260.8985910437
 31
0.0
  0
SPLINE
  5
FB
330
1F
100
AcDbEntity
  8
BEZUGSACHSEN
  6
Continuous
 62
     7
100
AcDbSpline
210
0.0
220
0.0
230
1.0
 70
     8
 71
     3
 72
    11
 73
     7
 74
     5
 42
0.0000000001
 43
0.0000000001
 44
0.00000001
 40
0.0
 40
0.0
 40
0.0
 40
0.0
 40
0.546290743119501
 40
1.093000863622503
 40
1.646070107132087
 40
2.198197048705757
 40
2.198197048705757
 40
2.198197048705757
 40
2.198197048705757
 10
29.2976227135
 20
309.4309716274
 30
0.0
 10
29.36069351535856
 20
309.2600399981665
 30
0.0
 10
29.48688353737344
 20
308.9180455186228
 30
0.0
 10
29.62652085035037
 20
308.3867713894019
 30
0.0
 10
29.7240092144114
 20
307.8433469844599
 30
0.0
 10
29.73719132894048
 20
307.4747623439013
 30
0.0
 10
29.7437767666
 20
307.2906271532
 30
0.0
 11
29.2976227135
 21
309.4309716274
 31
0.0
 11
29.47847404610429
 21
308.9154850887656
 31
0.0
 11
29.61896553077751
 21
308.3871347328513
 31
0.0
 11
29.71103218403283
 21
307.8417822601563
 31
0.0
 11
29.7437767666
 21
307.2906271532
 31
0.0
  0
SPLINE
  5
FC
330
1F
100
AcDbEntity
  8
BEZUGSACHSEN
  6
Continuous
 62
     7
100
AcDbSpline
210
0.0
220
0.0
230
1.0
 70
     8
 71
     3
 72
    19
 73
    15
 74
    13
 42
0.0000000001
 43
0.0000000001
 44
0.00000001
 40
0.0
 40
0.0
 40
0.0
 40
0.0
 40
0.1462385987780161
 40
0.2927479274808361
 40
0.4364790706193444
 40
0.5801659236393621
 40
0.7203799972705884
 40
0.8606059382502876
 40
0.9980411883669196
 40
1.135484020399373
 40
1.405415631065769
 40
1.675815514095061
 40
1.943997429546284
 40
2.211934834775383
 40
2.211934834775383
 40
2.211934834775383
 40
2.211934834775383
 10
27.7437767666
 20
310.7796192148
 30
0.0
 10
27.79249157193832
 20
310.7829272921465
 30
0.0
 10
27.89001136780339
 20
310.789549571047
 30
0.0
 10
28.03534762811715
 20
310.7731902582861
 30
0.0
 10
28.17600456524331
 20
310.738018492221
 30
0.0
 10
28.30885669869544
 20
310.6852128055963
 30
0.0
 10
28.43331116174632
 20
310.6175410178448
 30
0.0
 10
28.54811371889398
 20
310.538240816443
 30
0.0
 10
28.65422365667394
 20
310.4491561768809
 30
0.0
 10
28.78332612186656
 20
310.3212086413328
 30
0.0
 10
28.92636597176407
 20
310.1454063524108
 30
0.0
 10
29.07127357345151
 20
309.9177208865
 30
0.0
 10
29.19591032189624
 20
309.6790582670129
 30
0.0
 10
29.26372889306695
 20
309.5136420265745
 30
0.0
 10
29.2976227135
 20
309.4309716274
 30
0.0
 11
27.7437767666
 21
310.7796192148
 31
0.0
 11
27.88991062841905
 21
310.7851529479349
 31
0.0
 11
28.0356199892657
 21
310.769863554271
 31
0.0
 11
28.1750500708228
 21
310.7349652181375
 31
0.0
 11
28.30868240775172
 21
310.6821607651273
 31
0.0
 11
28.43199619855136
 21
310.6154247520392
 31
0.0
 11
28.54752730985922
 21
310.5359522609268
 31
0.0
 11
28.65293985963365
 21
310.447766988207
 31
0.0
 11
28.75072836332783
 21
310.3511857238626
 31
0.0
 11
28.92197675921767
 21
310.1425303588654
 31
0.0
 11
29.06831917975233
 21
309.9151540349126
 31
0.0
 11
29.1921868055591
 21
309.6772919928544
 31
0.0
 11
29.2976227135
 21
309.4309716274
 31
0.0
  0
SPLINE
  5
FD
330
1F
100
AcDbEntity
  8
BEZUGSACHSEN
  6
Continuous
 62
     7
100
AcDbSpline
210
0.0
220
0.0
230
1.0
 70
     8
 71
     3
 72
    11
 73
     7
 74
     5
 42
0.0000000001
 43
0.0000000001
 44
0.00000001
 40
0.0
 40
0.0
 40
0.0
 40
0.0
 40
0.5521269407036405
 40
1.105196183339654
 40
1.651906304698613
 40
2.198197048720034
 40
2.198197048720034
 40
2.198197048720034
 40
2.198197048720034
 10
29.7437767666
 20
281.5513161016
 30
0.0
 10
29.73719132897225
 20
281.3671809111891
 30
0.0
 10
29.7240092145068
 20
280.9985962712124
 30
0.0
 10
29.62652085070955
 20
280.4551718665269
 30
0.0
 10
29.48688353767704
 20
279.92389773701
 30
0.0
 10
29.36069351546154
 20
279.5819032569159
 30
0.0
 10
29.2976227135
 20
279.4109716274
 30
0.0
 11
29.7437767666
 21
281.5513161016
 31
0.0
 11
29.71103218417319
 21
281.0001609955069
 31
0.0
 11
29.61896553122983
 21
280.4548085236451
 31
0.0
 11
29.4784740463964
 21
279.9264581668878
 31
0.0
 11
29.2976227135
 21
279.4109716274
 31
0.0
  0
SPLINE
  5
FE
330
1F
100
AcDbEntity
  8
BEZUGSACHSEN
  6
Continuous
 62
     7
100
AcDbSpline
210
0.0
220
0.0
230
1.0
 70
     8
 71
     3
 72
    11
 73
     7
 74
     5
 42
0.0000000001
 43
0.0000000001
 44
0.00000001
 40
0.0
 40
0.0
 40
0.0
 40
0.0
 40
0.9140556660003346
 40
1.828030949185932
 40
2.279806974871117
 40
2.730944124762503
 40
2.730944124762503
 40
2.730944124762503
 40
2.730944124762503
 10
21.0107296934854
 20
279.410971627585
 30
0.0
 10
21.14338440044878
 20
279.6856882252516
 30
0.0
 10
21.40868214861038
 20
280.2350972617789
 30
0.0
 10
21.62403736192297
 20
280.9678081828836
 30
0.0
 10
21.72773157558538
 20
281.5657533889898
 30
0.0
 10
21.7384308931065
 20
281.8668766044166
 30
0.0
 10
21.7437767666
 20
282.017331679
 30
0.0
 11
21.0107296934854
 21
279.410971627585
 31
0.0
 11
21.38553722326086
 21
280.2446484691555
 31
0.0
 11
21.64482858365873
 21
281.121072344171
 31
0.0
 11
21.71754555715736
 21
281.5669577769327
 31
0.0
 11
21.7437767666
 21
282.017331679
 31
0.0
  0
SPLINE
  5
FF
330
1F
100
AcDbEntity
  8
BEZUGSACHSEN
  6
Continuous
 62
     7
100
AcDbSpline
210
0.0
220
0.0
230
1.0
 70
     8
 71
     3
 72
    11
 73
     7
 74
     5
 42
0.0000000001
 43
0.0000000001
 44
0.00000001
 40
0.0
 40
0.0
 40
0.0
 40
0.0
 40
0.8249192366724185
 40
1.65011689193099
 40
2.190492152293428
 40
2.730585915378194
 40
2.730585915378194
 40
2.730585915378194
 40
2.730585915378194
 10
21.7437767666
 20
306.8246115758
 30
0.0
 10
21.72604346226182
 20
307.099801867777
 30
0.0
 10
21.69057086841586
 20
307.6502753312378
 30
0.0
 10
21.48213605178044
 20
308.3550089163906
 30
0.0
 10
21.25190962080078
 20
308.9472226414707
 30
0.0
 10
21.09110903799882
 20
309.269749974916
 30
0.0
 10
21.0107296934854
 20
309.430971627215
 30
0.0
 11
21.7437767666
 21
306.8246115758
 31
0.0
 11
21.66020131248426
 21
307.6452862314959
 31
0.0
 11
21.44223987037248
 21
308.4411781713953
 31
0.0
 11
21.2443047918133
 21
308.9439973503131
 31
0.0
 11
21.0107296934854
 21
309.430971627215
 31
0.0
  0
DIMENSION
  5
10A
330
1F
100
AcDbEntity
  8
1
100
AcDbDimension
  2
*D2
 10
280.221656067093
 20
299.4209716274
 30
0.0
 11
276.471656067093
 21
294.096924611694
 31
0.0
 70
    32
  1
<>
 71
     5
 42
-1.0
 53
90.0
  3
ME10_DIM_10
100
AcDbAlignedDimension
 13
269.7437767666
 23
289.4209716274
 33
0.0
 14
269.7437767666
 24
299.4209716274
 34
0.0
 50
90.0
100
AcDbRotatedDimension
  0
DIMENSION
  5
115
330
1F
100
AcDbEntity
  8
1
100
AcDbDimension
  2
*D3
 10
289.396489943455
 20
306.4209716274466
 30
0.0
 11
285.646489943455
 21
294.266828942737
 31
0.0
 70
    32
  1
<>
 71
     5
 42
-1.0
 53
90.0
  3
ME10_DIM_11
100
AcDbAlignedDimension
 13
269.7437767666
 23
282.4209716273559
 33
0.0
 14
269.7437767666
 24
306.4209716274467
 34
0.0
 50
90.0
100
AcDbRotatedDimension
  0
DIMENSION
  5
120
330
1F
100
AcDbEntity
  8
1
100
AcDbDimension
  2
*D4
 10
297.38199350251
 20
310.4209716274
 30
0.0
 11
293.63199350251
 21
294.266828942737
 31
0.0
 70
    32
  1
<>
 71
     5
 42
-1.0
 53
90.0
  3
ME10_DIM_12
100
AcDbAlignedDimension
 13
218.9189578219
 23
278.4209716274
 33
0.0
 14
218.9189578219
 24
310.4209716274
 34
0.0
 50
90.0
100
AcDbRotatedDimension
  0
DIMENSION
  5
12B
330
1F
100
AcDbEntity
  8
1
100
AcDbDimension
  2
*D5
 10
269.7437767666
 20
350.017264254102
 30
0.0
 11
181.287684492335
 21
353.767264254102
 31
0.0
 70
    32
  1
<>
 71
     5
 42
-1.0
 53
0.00013888888889
  3
ME10_DIM_13
100
AcDbAlignedDimension
 13
98.7437767666
 23
344.4209347063
 33
0.0
 14
269.7437767666
 24
305.4965811358
 34
0.0
100
AcDbRotatedDimension
  0
DIMENSION
  5
136
330
1F
100
AcDbEntity
  8
1
100
AcDbDimension
  2
*D6
 10
269.7437767666
 20
357.555334234133
 30
0.0
 11
162.664217482845
 21
361.305334234133
 31
0.0
 70
    32
  1
<>
 71
     5
 42
-1.0
 53
0.00013888888889
  3
ME10_DIM_14
100
AcDbAlignedDimension
 13
69.7437767666
 23
344.4209716274
 33
0.0
 14
269.7437767666
 24
305.4965811358
 34
0.0
100
AcDbRotatedDimension
  0
DIMENSION
  5
141
330
1F
100
AcDbEntity
  8
1
100
AcDbDimension
  2
*D7
 10
269.7437767666
 20
364.871696273576
 30
0.0
 11
148.253201344549
 21
368.621696273576
 31
0.0
 70
    32
  1
<>
 71
     5
 42
-1.0
 53
0.00013888888889
  3
ME10_DIM_15
100
AcDbAlignedDimension
 13
19.7437767666
 23
328.02116319
 33
0.0
 14
269.7437767666
 24
305.4965811358
 34
0.0
100
AcDbRotatedDimension
  0
INSERT
  5
148
330
1F
100
AcDbEntity
  8
1
100
AcDbBlockReference
  2
*D8
 10
0.0
 20
0.0
 30
0.0
  0
DIMENSION
  5
153
330
1F
100
AcDbEntity
  8
1
100
AcDbDimension
  2
*D9
 10
246.4534401121132
 20
309.339138871823
 30
0.0
 11
249.5729071282626
 21
316.7758059840787
 31
0.0
 70
    37
  1
<>
 71
     5
 42
-1.0
  3
ME10_DIM_16
100
AcDb3PointAngularDimension
 13
246.3897394694714
 23
308.2589742239424
 33
0.0
 14
221.6745304975903
 24
310.4209716274
 34
0.0
 15
218.9189578219
 25
310.4209716274
 35
0.0
  0
ENDSEC
  0
SECTION
  2
OBJECTS
  0
DICTIONARY
  5
C
330
0
100
AcDbDictionary
281
     1
  3
ACAD_GROUP
350
D
  3
ACAD_LAYOUT
350
1A
  3
ACAD_MLEADERSTYLE
350
156
  3
ACAD_MLINESTYLE
350
17
  3
ACAD_PLOTSETTINGS
350
19
  3
ACAD_PLOTSTYLENAME
350
E
  3
ACAD_SCALELIST
350
4A
  3
ACAD_VISUALSTYLE
350
2A
  3
AcDbVariableDictionary
350
154
  0
DICTIONARY
  5
D
102
{ACAD_REACTORS
330
C
102
}
330
C
100
AcDbDictionary
281
     1
  0
DICTIONARY
  5
1A
102
{ACAD_REACTORS
330
C
102
}
330
C
100
AcDbDictionary
281
     1
  3
Layout1
350
1E
  3
Layout2
350
26
  3
Model
350
22
  0
DICTIONARY
  5
156
102
{ACAD_REACTORS
330
C
102
}
330
C
100
AcDbDictionary
281
     1
  0
DICTIONARY
  5
17
102
{ACAD_REACTORS
330
C
102
}
330
C
100
AcDbDictionary
281
     1
  3
Standard
350
18
  0
DICTIONARY
  5
19
102
{ACAD_REACTORS
330
C
102
}
330
C
100
AcDbDictionary
281
     1
  0
ACDBDICTIONARYWDFLT
  5
E
102
{ACAD_REACTORS
330
C
102
}
330
C
100
AcDbDictionary
281
     1
  3
Normal
350
F
100
AcDbDictionaryWithDefault
340
F
  0
DICTIONARY
  5
4A
102
{ACAD_REACTORS
330
C
102
}
330
C
100
AcDbDictionary
281
     1
  3
A0
350
4B
  3
A1
350
4C
  3
A2
350
4D
  3
A3
350
4E
  3
A4
350
4F
  3
A5
350
50
  3
A6
350
51
  3
A7
350
52
  3
A8
350
53
  3
A9
350
54
  3
B0
350
55
  3
B1
350
56
  3
B2
350
57
  3
B3
350
58
  3
B4
350
59
  3
B5
350
5A
  3
B6
350
5B
  3
B7
350
5C
  3
B8
350
5D
  3
B9
350
5E
  3
C0
350
5F
  3
C1
350
60
  3
C2
350
61
  3
C3
350
62
  3
C4
350
63
  3
C5
350
64
  3
C6
350
65
  3
C7
350
66
  3
C8
350
67
  3
C9
350
68
  3
D0
350
69
  3
D1
350
6A
  3
D2
350
6B
  0
DICTIONARY
  5
2A
102
{ACAD_REACTORS
330
C
102
}
330
C
100
AcDbDictionary
281
     1
  3
2dWireframe
350
2F
  3
3D Hidden
350
31
  3
3dWireframe
350
30
  3
Basic
350
32
  3
Brighten
350
36
  3
ColorChange
350
3A
  3
Conceptual
350
34
  3
Dim
350
35
  3
Facepattern
350
39
  3
Flat
350
2B
  3
FlatWithEdges
350
2C
  3
Gouraud
350
2D
  3
GouraudWithEdges
350
2E
  3
Linepattern
350
38
  3
Realistic
350
33
  3
Thicken
350
37
  0
DICTIONARY
  5
154
102
{ACAD_REACTORS
330
C
102
}
330
C
100
AcDbDictionary
281
     1
  3
CANNOSCALE
350
157
  0
LAYOUT
  5
1E
102
{ACAD_REACTORS
330
1A
102
}
330
1A
100
AcDbPlotSettings
  1

  2
none_device
  4

  6

 40
0.0
 41
0.0
 42
0.0
 43
0.0
 44
0.0
 45
0.0
 46
0.0
 47
0.0
 48
0.0
 49
0.0
140
0.0
141
0.0
142
1.0
143
1.0
 70
   688
 72
     0
 73
     0
 74
     5
  7

 75
    16
147
1.0
148
0.0
149
0.0
100
AcDbLayout
  1
Layout1
 70
     1
 71
     1
 10
0.0
 20
0.0
 11
12.0
 21
9.0
 12
0.0
 22
0.0
 32
0.0
 14
1.00000000000000E+20
 24
1.00000000000000E+20
 34
1.00000000000000E+20
 15
-1.00000000000000E+20
 25
-1.00000000000000E+20
 35
-1.00000000000000E+20
146
0.0
 13
0.0
 23
0.0
 33
0.0
 16
1.0
 26
0.0
 36
0.0
 17
0.0
 27
1.0
 37
0.0
 76
     0
330
1B
  0
LAYOUT
  5
26
102
{ACAD_REACTORS
330
1A
102
}
330
1A
100
AcDbPlotSettings
  1

  2
none_device
  4

  6

 40
0.0
 41
0.0
 42
0.0
 43
0.0
 44
0.0
 45
0.0
 46
0.0
 47
0.0
 48
0.0
 49
0.0
140
0.0
141
0.0
142
1.0
143
1.0
 70
   688
 72
     0
 73
     0
 74
     5
  7

 75
    16
147
1.0
148
0.0
149
0.0
100
AcDbLayout
  1
Layout2
 70
     1
 71
     2
 10
0.0
 20
0.0
 11
0.0
 21
0.0
 12
0.0
 22
0.0
 32
0.0
 14
0.0
 24
0.0
 34
0.0
 15
0.0
 25
0.0
 35
0.0
146
0.0
 13
0.0
 23
0.0
 33
0.0
 16
1.0
 26
0.0
 36
0.0
 17
0.0
 27
1.0
 37
0.0
 76
     0
330
23
  0
LAYOUT
  5
22
102
{ACAD_REACTORS
330
1A
102
}
330
1A
100
AcDbPlotSettings
  1

  2
none_device
  4

  6

 40
0.0
 41
0.0
 42
0.0
 43
0.0
 44
0.0
 45
0.0
 46
0.0
 47
0.0
 48
0.0
 49
0.0
140
0.0
141
0.0
142
1.0
143
1.0
 70
  1712
 72
     0
 73
     0
 74
     0
  7

 75
     0
147
1.0
148
0.0
149
0.0
100
AcDbLayout
  1
Model
 70
     1
 71
     0
 10
0.0
 20
0.0
 11
12.0
 21
9.0
 12
0.0
 22
0.0
 32
0.0
 14
-3.2057218207331
 24
244.4209716274
 34
0.0
 15
299.38199350251
 25
370.371696273576
 35
0.0
146
0.0
 13
0.0
 23
0.0
 33
0.0
 16
1.0
 26
0.0
 36
0.0
 17
0.0
 27
1.0
 37
0.0
 76
     0
330
1F
331
29
  0
MLINESTYLE
  5
18
102
{ACAD_REACTORS
330
17
102
}
330
17
100
AcDbMlineStyle
  2
Standard
 70
     0
  3

 62
   256
 51
90.0
 52
90.0
 71
     2
 49
0.5
 62
   256
  6
BYLAYER
 49
-0.5
 62
   256
  6
BYLAYER
  0
ACDBPLACEHOLDER
  5
F
102
{ACAD_REACTORS
330
E
102
}
330
E
  0
SCALE
  5
4B
102
{ACAD_REACTORS
330
4A
102
}
330
4A
100
AcDbScale
 70
     0
300
1:1
140
1.0
141
1.0
290
     1
  0
SCALE
  5
4C
102
{ACAD_REACTORS
330
4A
102
}
330
4A
100
AcDbScale
 70
     0
300
1:2
140
1.0
141
2.0
290
     0
  0
SCALE
  5
4D
102
{ACAD_REACTORS
330
4A
102
}
330
4A
100
AcDbScale
 70
     0
300
1:4
140
1.0
141
4.0
290
     0
  0
SCALE
  5
4E
102
{ACAD_REACTORS
330
4A
102
}
330
4A
100
AcDbScale
 70
     0
300
1:5
140
1.0
141
5.0
290
     0
  0
SCALE
  5
4F
102
{ACAD_REACTORS
330
4A
102
}
330
4A
100
AcDbScale
 70
     0
300
1:8
140
1.0
141
8.0
290
     0
  0
SCALE
  5
50
102
{ACAD_REACTORS
330
4A
102
}
330
4A
100
AcDbScale
 70
     0
300
1:10
140
1.0
141
10.0
290
     0
  0
SCALE
  5
51
102
{ACAD_REACTORS
330
4A
102
}
330
4A
100
AcDbScale
 70
     0
300
1:16
140
1.0
141
16.0
290
     0
  0
SCALE
  5
52
102
{ACAD_REACTORS
330
4A
102
}
330
4A
100
AcDbScale
 70
     0
300
1:20
140
1.0
141
20.0
290
     0
  0
SCALE
  5
53
102
{ACAD_REACTORS
330
4A
102
}
330
4A
100
AcDbScale
 70
     0
300
1:30
140
1.0
141
30.0
290
     0
  0
SCALE
  5
54
102
{ACAD_REACTORS
330
4A
102
}
330
4A
100
AcDbScale
 70
     0
300
1:40
140
1.0
141
40.0
290
     0
  0
SCALE
  5
55
102
{ACAD_REACTORS
330
4A
102
}
330
4A
100
AcDbScale
 70
     0
300
1:50
140
1.0
141
50.0
290
     0
  0
SCALE
  5
56
102
{ACAD_REACTORS
330
4A
102
}
330
4A
100
AcDbScale
 70
     0
300
1:100
140
1.0
141
100.0
290
     0
  0
SCALE
  5
57
102
{ACAD_REACTORS
330
4A
102
}
330
4A
100
AcDbScale
 70
     0
300
2:1
140
2.0
141
1.0
290
     0
  0
SCALE
  5
58
102
{ACAD_REACTORS
330
4A
102
}
330
4A
100
AcDbScale
 70
     0
300
4:1
140
4.0
141
1.0
290
     0
  0
SCALE
  5
59
102
{ACAD_REACTORS
330
4A
102
}
330
4A
100
AcDbScale
 70
     0
300
8:1
140
8.0
141
1.0
290
     0
  0
SCALE
  5
5A
102
{ACAD_REACTORS
330
4A
102
}
330
4A
100
AcDbScale
 70
     0
300
10:1
140
10.0
141
1.0
290
     0
  0
SCALE
  5
5B
102
{ACAD_REACTORS
330
4A
102
}
330
4A
100
AcDbScale
 70
     0
300
100:1
140
100.0
141
1.0
290
     0
  0
SCALE
  5
5C
102
{ACAD_REACTORS
330
4A
102
}
330
4A
100
AcDbScale
 70
     0
300
1/128" = 1'-0"
140
0.0078125
141
12.0
290
     0
  0
SCALE
  5
5D
102
{ACAD_REACTORS
330
4A
102
}
330
4A
100
AcDbScale
 70
     0
300
1/64" = 1'-0"
140
0.015625
141
12.0
290
     0
  0
SCALE
  5
5E
102
{ACAD_REACTORS
330
4A
102
}
330
4A
100
AcDbScale
 70
     0
300
1/32" = 1'-0"
140
0.03125
141
12.0
290
     0
  0
SCALE
  5
5F
102
{ACAD_REACTORS
330
4A
102
}
330
4A
100
AcDbScale
 70
     0
300
1/16" = 1'-0"
140
0.0625
141
12.0
290
     0
  0
SCALE
  5
60
102
{ACAD_REACTORS
330
4A
102
}
330
4A
100
AcDbScale
 70
     0
300
3/32" = 1'-0"
140
0.09375
141
12.0
290
     0
  0
SCALE
  5
61
102
{ACAD_REACTORS
330
4A
102
}
330
4A
100
AcDbScale
 70
     0
300
1/8" = 1'-0"
140
0.125
141
12.0
290
     0
  0
SCALE
  5
62
102
{ACAD_REACTORS
330
4A
102
}
330
4A
100
AcDbScale
 70
     0
300
3/16" = 1'-0"
140
0.1875
141
12.0
290
     0
  0
SCALE
  5
63
102
{ACAD_REACTORS
330
4A
102
}
330
4A
100
AcDbScale
 70
     0
300
1/4" = 1'-0"
140
0.25
141
12.0
290
     0
  0
SCALE
  5
64
102
{ACAD_REACTORS
330
4A
102
}
330
4A
100
AcDbScale
 70
     0
300
3/8" = 1'-0"
140
0.375
141
12.0
290
     0
  0
SCALE
  5
65
102
{ACAD_REACTORS
330
4A
102
}
330
4A
100
AcDbScale
 70
     0
300
1/2" = 1'-0"
140
0.5
141
12.0
290
     0
  0
SCALE
  5
66
102
{ACAD_REACTORS
330
4A
102
}
330
4A
100
AcDbScale
 70
     0
300
3/4" = 1'-0"
140
0.75
141
12.0
290
     0
  0
SCALE
  5
67
102
{ACAD_REACTORS
330
4A
102
}
330
4A
100
AcDbScale
 70
     0
300
1" = 1'-0"
140
1.0
141
12.0
290
     0
  0
SCALE
  5
68
102
{ACAD_REACTORS
330
4A
102
}
330
4A
100
AcDbScale
 70
     0
300
1-1/2" = 1'-0"
140
1.5
141
12.0
290
     0
  0
SCALE
  5
69
102
{ACAD_REACTORS
330
4A
102
}
330
4A
100
AcDbScale
 70
     0
300
3" = 1'-0"
140
3.0
141
12.0
290
     0
  0
SCALE
  5
6A
102
{ACAD_REACTORS
330
4A
102
}
330
4A
100
AcDbScale
 70
     0
300
6" = 1'-0"
140
6.0
141
12.0
290
     0
  0
SCALE
  5
6B
102
{ACAD_REACTORS
330
4A
102
}
330
4A
100
AcDbScale
 70
     0
300
1'-0" = 1'-0"
140
12.0
141
12.0
290
     0
  0
VISUALSTYLE
  5
2F
102
{ACAD_REACTORS
330
2A
102
}
330
2A
100
AcDbVisualStyle
  2
2dWireframe
 70
     4
 71
     0
 72
     2
 73
     0
 90
        0
 40
-0.6
 41
-30.0
 62
     5
 63
     7
 74
     1
 91
        4
 64
     7
 65
   257
 75
     1
175
     1
 42
1.0
 92
        0
 66
   257
 43
1.0
 76
     1
 77
     6
 78
     2
 67
     7
 79
     5
170
     0
171
     0
290
     0
174
     0
 93
        1
 44
0.0
173
     0
291
     0
 45
0.0
1001
ACAD
1000
AcDbSavedByObjectVersion
1070
     0
  0
VISUALSTYLE
  5
31
102
{ACAD_REACTORS
330
2A
102
}
330
2A
100
AcDbVisualStyle
  2
3D Hidden
 70
     6
 71
     1
 72
     2
 73
     2
 90
        0
 40
-0.6
 41
-30.0
 62
     5
 63
     7
 74
     2
 91
        2
 64
     7
 65
   257
 75
     2
175
     1
 42
40.0
 92
        0
 66
   257
 43
1.0
 76
     1
 77
     6
 78
     2
 67
     7
 79
     3
170
     0
171
     0
290
     0
174
     0
 93
        1
 44
0.0
173
     0
291
     0
 45
0.0
1001
ACAD
1000
AcDbSavedByObjectVersion
1070
     0
  0
VISUALSTYLE
  5
30
102
{ACAD_REACTORS
330
2A
102
}
330
2A
100
AcDbVisualStyle
  2
3dWireframe
 70
     5
 71
     0
 72
     2
 73
     0
 90
        0
 40
-0.6
 41
-30.0
 62
     5
 63
     7
 74
     1
 91
        4
 64
     7
 65
   257
 75
     1
175
     1
 42
1.0
 92
        0
 66
   257
 43
1.0
 76
     1
 77
     6
 78
     2
 67
     7
 79
     5
170
     0
171
     0
290
     0
174
     0
 93
        1
 44
0.0
173
     0
291
     0
 45
0.0
1001
ACAD
1000
AcDbSavedByObjectVersion
1070
     0
  0
VISUALSTYLE
  5
32
102
{ACAD_REACTORS
330
2A
102
}
330
2A
100
AcDbVisualStyle
  2
Basic
 70
     7
 71
     1
 72
     0
 73
     1
 90
        0
 40
-0.6
 41
-30.0
 62
     5
 63
     7
 74
     0
 91
        4
 64
     7
 65
   257
 75
     1
175
     1
 42
1.0
 92
        8
 66
     7
 43
1.0
 76
     1
 77
     6
 78
     2
 67
     7
 79
     5
170
     0
171
     0
290
     0
174
     0
 93
        1
 44
0.0
173
     0
291
     1
 45
0.0
1001
ACAD
1000
AcDbSavedByObjectVersion
1070
     0
  0
VISUALSTYLE
  5
36
102
{ACAD_REACTORS
330
2A
102
}
330
2A
100
AcDbVisualStyle
  2
Brighten
 70
    12
 71
     2
 72
     2
 73
     0
 90
        0
 40
-0.6
 41
-30.0
 62
     5
 63
     7
 74
     1
 91
        4
 64
     7
 65
   257
 75
     1
175
     1
 42
1.0
 92
        8
 66
     7
 43
1.0
 76
     1
 77
     6
 78
     2
 67
     7
 79
     5
170
     0
171
     0
290
     0
174
     0
 93
        1
 44
50.0
173
     0
291
     1
 45
0.0
1001
ACAD
1000
AcDbSavedByObjectVersion
1070
     0
  0
VISUALSTYLE
  5
3A
102
{ACAD_REACTORS
330
2A
102
}
330
2A
100
AcDbVisualStyle
  2
ColorChange
 70
    16
 71
     2
 72
     2
 73
     3
 90
        0
 40
-0.6
 41
-30.0
 62
     5
 63
     8
 74
     1
 91
        4
 64
     7
 65
   257
 75
     1
175
     1
 42
1.0
 92
        8
 66
     8
 43
1.0
 76
     1
 77
     6
 78
     2
 67
     7
 79
     5
170
     0
171
     0
290
     0
174
     0
 93
        1
 44
0.0
173
     0
291
     1
 45
0.0
1001
ACAD
1000
AcDbSavedByObjectVersion
1070
     0
  0
VISUALSTYLE
  5
34
102
{ACAD_REACTORS
330
2A
102
}
330
2A
100
AcDbVisualStyle
  2
Conceptual
 70
     9
 71
     3
 72
     2
 73
     0
 90
        0
 40
-0.6
 41
-30.0
 62
     5
 63
     7
 74
     2
 91
        2
 64
     7
 65
   257
 75
     1
175
     1
 42
40.0
 92
        8
 66
     7
 43
1.0
 76
     1
 77
     6
 78
     2
 67
     7
 79
     3
170
     0
171
     0
290
     0
174
     0
 93
        1
 44
0.0
173
     0
291
     0
 45
0.0
1001
ACAD
1000
AcDbSavedByObjectVersion
1070
     0
  0
VISUALSTYLE
  5
35
102
{ACAD_REACTORS
330
2A
102
}
330
2A
100
AcDbVisualStyle
  2
Dim
 70
    11
 71
     2
 72
     2
 73
     0
 90
        0
 40
-0.6
 41
-30.0
 62
     5
 63
     7
 74
     1
 91
        4
 64
     7
 65
   257
 75
     1
175
     1
 42
1.0
 92
        8
 66
     7
 43
1.0
 76
     1
 77
     6
 78
     2
 67
     7
 79
     5
170
     0
171
     0
290
     0
174
     0
 93
        1
 44
-50.0
173
     0
291
     1
 45
0.0
1001
ACAD
1000
AcDbSavedByObjectVersion
1070
     0
  0
VISUALSTYLE
  5
39
102
{ACAD_REACTORS
330
2A
102
}
330
2A
100
AcDbVisualStyle
  2
Facepattern
 70
    15
 71
     2
 72
     2
 73
     0
 90
        0
 40
-0.6
 41
-30.0
 62
     5
 63
     7
 74
     1
 91
        4
 64
     7
 65
   257
 75
     1
175
     1
 42
1.0
 92
        8
 66
     7
 43
1.0
 76
     1
 77
     6
 78
     2
 67
     7
 79
     5
170
     0
171
     0
290
     0
174
     0
 93
        1
 44
0.0
173
     0
291
     1
 45
0.0
1001
ACAD
1000
AcDbSavedByObjectVersion
1070
     0
  0
VISUALSTYLE
  5
2B
102
{ACAD_REACTORS
330
2A
102
}
330
2A
100
AcDbVisualStyle
  2
Flat
 70
     0
 71
     2
 72
     1
 73
     1
 90
        2
 40
-0.6
 41
30.0
 62
     5
 63
     7
 74
     0
 91
        4
 64
     7
 65
   257
 75
     1
175
     1
 42
1.0
 92
        8
 66
     7
 43
1.0
 76
     1
 77
     6
 78
     2
 67
     7
 79
     5
170
     0
171
     0
290
     0
174
     0
 93
       13
 44
0.0
173
     0
291
     1
 45
0.0
1001
ACAD
1000
AcDbSavedByObjectVersion
1070
     0
  0
VISUALSTYLE
  5
2C
102
{ACAD_REACTORS
330
2A
102
}
330
2A
100
AcDbVisualStyle
  2
FlatWithEdges
 70
     1
 71
     2
 72
     1
 73
     1
 90
        2
 40
-0.6
 41
30.0
 62
     5
 63
     7
 74
     1
 91
        4
 64
     7
 65
   257
 75
     1
175
     1
 42
1.0
 92
        0
 66
   257
 43
1.0
 76
     1
 77
     6
 78
     2
 67
     7
 79
     5
170
     0
171
     0
290
     0
174
     0
 93
       13
 44
0.0
173
     0
291
     1
 45
0.0
1001
ACAD
1000
AcDbSavedByObjectVersion
1070
     0
  0
VISUALSTYLE
  5
2D
102
{ACAD_REACTORS
330
2A
102
}
330
2A
100
AcDbVisualStyle
  2
Gouraud
 70
     2
 71
     2
 72
     2
 73
     1
 90
        2
 40
-0.6
 41
30.0
 62
     5
 63
     7
 74
     0
 91
        4
 64
     7
 65
   257
 75
     1
175
     1
 42
1.0
 92
        0
 66
     7
 43
1.0
 76
     1
 77
     6
 78
     2
 67
     7
 79
     5
170
     0
171
     0
290
     0
174
     0
 93
       13
 44
0.0
173
     0
291
     1
 45
0.0
1001
ACAD
1000
AcDbSavedByObjectVersion
1070
     0
  0
VISUALSTYLE
  5
2E
102
{ACAD_REACTORS
330
2A
102
}
330
2A
100
AcDbVisualStyle
  2
GouraudWithEdges
 70
     3
 71
     2
 72
     2
 73
     1
 90
        2
 40
-0.6
 41
30.0
 62
     5
 63
     7
 74
     1
 91
        4
 64
     7
 65
   257
 75
     1
175
     1
 42
1.0
 92
        0
 66
   257
 43
1.0
 76
     1
 77
     6
 78
     2
 67
     7
 79
     5
170
     0
171
     0
290
     0
174
     0
 93
       13
 44
0.0
173
     0
291
     1
 45
0.0
1001
ACAD
1000
AcDbSavedByObjectVersion
1070
     0
  0
VISUALSTYLE
  5
38
102
{ACAD_REACTORS
330
2A
102
}
330
2A
100
AcDbVisualStyle
  2
Linepattern
 70
    14
 71
     2
 72
     2
 73
     0
 90
        0
 40
-0.6
 41
-30.0
 62
     5
 63
     7
 74
     1
 91
        4
 64
     7
 65
   257
 75
     7
175
     7
 42
1.0
 92
        8
 66
     7
 43
1.0
 76
     1
 77
     6
 78
     2
 67
     7
 79
     5
170
     0
171
     0
290
     0
174
     0
 93
        1
 44
0.0
173
     0
291
     1
 45
0.0
1001
ACAD
1000
AcDbSavedByObjectVersion
1070
     0
  0
VISUALSTYLE
  5
33
102
{ACAD_REACTORS
330
2A
102
}
330
2A
100
AcDbVisualStyle
  2
Realistic
 70
     8
 71
     2
 72
     2
 73
     0
 90
        0
 40
-0.6
 41
-30.0
 62
     5
 63
     7
 74
     1
 91
        0
 64
     7
 65
   257
 75
     1
175
     1
 42
1.0
 92
        8
 66
     8
 43
1.0
 76
     1
 77
     6
 78
     2
 67
     7
 79
     5
170
     0
171
     0
290
     0
174
     0
 93
       13
 44
0.0
173
     0
291
     0
 45
0.0
1001
ACAD
1000
AcDbSavedByObjectVersion
1070
     0
  0
VISUALSTYLE
  5
37
102
{ACAD_REACTORS
330
2A
102
}
330
2A
100
AcDbVisualStyle
  2
Thicken
 70
    13
 71
     2
 72
     2
 73
     0
 90
        0
 40
-0.6
 41
-30.0
 62
     5
 63
     7
 74
     1
 91
        4
 64
     7
 65
   257
 75
     1
175
     1
 42
1.0
 92
       12
 66
     7
 43
1.0
 76
     1
 77
     6
 78
     2
 67
     7
 79
     5
170
     0
171
     0
290
     0
174
     0
 93
        1
 44
0.0
173
     0
291
     1
 45
0.0
1001
ACAD
1000
AcDbSavedByObjectVersion
1070
     0
  0
DICTIONARYVAR
  5
157
102
{ACAD_REACTORS
330
154
102
}
330
154
100
DictionaryVariables
280
     0
  1
1:1
  0
ENDSEC
  0
EOF
