  0
SECTION
  2
HEADER
  9
$ACADVER
  1
AC1015
  9
$ACADMAINTVER
 70
     6
  9
$DWGCODEPAGE
  3
ANSI_1252
  9
$INSBASE
 10
0.0
 20
0.0
 30
0.0
  9
$EXTMIN
 10
-10.48813189030157
 20
244.1526699679
 30
0.0
  9
$EXTMAX
 10
290.503000075528
 20
373.154975629612
 30
0.0
  9
$LIMMIN
 10
0.0
 20
0.0
  9
$LIMMAX
 10
12.0
 20
9.0
  9
$ORTHOMODE
 70
     0
  9
$REGENMODE
 70
     1
  9
$FILLMODE
 70
     1
  9
$QTEXTMODE
 70
     0
  9
$MIRRTEXT
 70
     1
  9
$LTSCALE
 40
1.0
  9
$ATTMODE
 70
     1
  9
$TEXTSIZE
 40
0.2
  9
$TRACEWID
 40
0.05
  9
$TEXTSTYLE
  7
Standard
  9
$CLAYER
  8
0
  9
$CELTYPE
  6
ByLayer
  9
$CECOLOR
 62
   256
  9
$CELTSCALE
 40
1.0
  9
$DISPSILH
 70
     0
  9
$DIMSCALE
 40
1.0
  9
$DIMASZ
 40
0.18
  9
$DIMEXO
 40
0.0625
  9
$DIMDLI
 40
0.38
  9
$DIMRND
 40
0.0
  9
$DIMDLE
 40
0.0
  9
$DIMEXE
 40
0.18
  9
$DIMTP
 40
0.0
  9
$DIMTM
 40
0.0
  9
$DIMTXT
 40
0.18
  9
$DIMCEN
 40
0.09
  9
$DIMTSZ
 40
0.0
  9
$DIMTOL
 70
     0
  9
$DIMLIM
 70
     0
  9
$DIMTIH
 70
     1
  9
$DIMTOH
 70
     1
  9
$DIMSE1
 70
     0
  9
$DIMSE2
 70
     0
  9
$DIMTAD
 70
     0
  9
$DIMZIN
 70
     0
  9
$DIMBLK
  1

  9
$DIMASO
 70
     1
  9
$DIMSHO
 70
     1
  9
$DIMPOST
  1

  9
$DIMAPOST
  1

  9
$DIMALT
 70
     0
  9
$DIMALTD
 70
     2
  9
$DIMALTF
 40
25.4
  9
$DIMLFAC
 40
1.0
  9
$DIMTOFL
 70
     0
  9
$DIMTVP
 40
0.0
  9
$DIMTIX
 70
     0
  9
$DIMSOXD
 70
     0
  9
$DIMSAH
 70
     0
  9
$DIMBLK1
  1

  9
$DIMBLK2
  1

  9
$DIMSTYLE
  2
Standard
  9
$DIMCLRD
 70
     0
  9
$DIMCLRE
 70
     0
  9
$DIMCLRT
 70
     0
  9
$DIMTFAC
 40
1.0
  9
$DIMGAP
 40
0.09
  9
$DIMJUST
 70
     0
  9
$DIMSD1
 70
     0
  9
$DIMSD2
 70
     0
  9
$DIMTOLJ
 70
     1
  9
$DIMTZIN
 70
     0
  9
$DIMALTZ
 70
     0
  9
$DIMALTTZ
 70
     0
  9
$DIMUPT
 70
     0
  9
$DIMDEC
 70
     4
  9
$DIMTDEC
 70
     4
  9
$DIMALTU
 70
     2
  9
$DIMALTTD
 70
     2
  9
$DIMTXSTY
  7
Standard
  9
$DIMAUNIT
 70
     0
  9
$DIMADEC
 70
     0
  9
$DIMALTRND
 40
0.0
  9
$DIMAZIN
 70
     0
  9
$DIMDSEP
 70
    46
  9
$DIMATFIT
 70
     3
  9
$DIMFRAC
 70
     0
  9
$DIMLDRBLK
  1

  9
$DIMLUNIT
 70
     2
  9
$DIMLWD
 70
    -2
  9
$DIMLWE
 70
    -2
  9
$DIMTMOVE
 70
     0
  9
$LUNITS
 70
     2
  9
$LUPREC
 70
     4
  9
$SKETCHINC
 40
0.1
  9
$FILLETRAD
 40
0.5
  9
$AUNITS
 70
     0
  9
$AUPREC
 70
     0
  9
$MENU
  1
.
  9
$ELEVATION
 40
0.0
  9
$PELEVATION
 40
0.0
  9
$THICKNESS
 40
0.0
  9
$LIMCHECK
 70
     0
  9
$CHAMFERA
 40
0.5
  9
$CHAMFERB
 40
0.5
  9
$CHAMFERC
 40
1.0
  9
$CHAMFERD
 40
0.0
  9
$SKPOLY
 70
     0
  9
$TDCREATE
 40
2456748.729638264
  9
$TDUCREATE
 40
2456748.646304931
  9
$TDUPDATE
 40
2456748.729638276
  9
$TDUUPDATE
 40
2456748.646304942
  9
$TDINDWG
 40
0.0000000116
  9
$TDUSRTIMER
 40
0.0000000116
  9
$USRTIMER
 70
     1
  9
$ANGBASE
 50
0.0
  9
$ANGDIR
 70
     0
  9
$PDMODE
 70
     0
  9
$PDSIZE
 40
0.0
  9
$PLINEWID
 40
0.0
  9
$SPLFRAME
 70
     0
  9
$SPLINETYPE
 70
     6
  9
$SPLINESEGS
 70
     8
  9
$HANDSEED
  5
15A
  9
$SURFTAB1
 70
     6
  9
$SURFTAB2
 70
     6
  9
$SURFTYPE
 70
     6
  9
$SURFU
 70
     6
  9
$SURFV
 70
     6
  9
$UCSBASE
  2

  9
$UCSNAME
  2

  9
$UCSORG
 10
0.0
 20
0.0
 30
0.0
  9
$UCSXDIR
 10
1.0
 20
0.0
 30
0.0
  9
$UCSYDIR
 10
0.0
 20
1.0
 30
0.0
  9
$UCSORTHOREF
  2

  9
$UCSORTHOVIEW
 70
     0
  9
$UCSORGTOP
 10
0.0
 20
0.0
 30
0.0
  9
$UCSORGBOTTOM
 10
0.0
 20
0.0
 30
0.0
  9
$UCSORGLEFT
 10
0.0
 20
0.0
 30
0.0
  9
$UCSORGRIGHT
 10
0.0
 20
0.0
 30
0.0
  9
$UCSORGFRONT
 10
0.0
 20
0.0
 30
0.0
  9
$UCSORGBACK
 10
0.0
 20
0.0
 30
0.0
  9
$PUCSBASE
  2

  9
$PUCSNAME
  2

  9
$PUCSORG
 10
0.0
 20
0.0
 30
0.0
  9
$PUCSXDIR
 10
1.0
 20
0.0
 30
0.0
  9
$PUCSYDIR
 10
0.0
 20
1.0
 30
0.0
  9
$PUCSORTHOREF
  2

  9
$PUCSORTHOVIEW
 70
     0
  9
$PUCSORGTOP
 10
0.0
 20
0.0
 30
0.0
  9
$PUCSORGBOTTOM
 10
0.0
 20
0.0
 30
0.0
  9
$PUCSORGLEFT
 10
0.0
 20
0.0
 30
0.0
  9
$PUCSORGRIGHT
 10
0.0
 20
0.0
 30
0.0
  9
$PUCSORGFRONT
 10
0.0
 20
0.0
 30
0.0
  9
$PUCSORGBACK
 10
0.0
 20
0.0
 30
0.0
  9
$USERI1
 70
     0
  9
$USERI2
 70
     0
  9
$USERI3
 70
     0
  9
$USERI4
 70
     0
  9
$USERI5
 70
     0
  9
$USERR1
 40
16.5
  9
$USERR2
 40
0.0
  9
$USERR3
 40
0.0
  9
$USERR4
 40
0.0
  9
$USERR5
 40
0.0
  9
$WORLDVIEW
 70
     1
  9
$SHADEDGE
 70
     3
  9
$SHADEDIF
 70
    70
  9
$TILEMODE
 70
     1
  9
$MAXACTVP
 70
    64
  9
$PINSBASE
 10
0.0
 20
0.0
 30
0.0
  9
$PLIMCHECK
 70
     0
  9
$PEXTMIN
 10
1.00000000000000E+20
 20
1.00000000000000E+20
 30
1.00000000000000E+20
  9
$PEXTMAX
 10
-1.00000000000000E+20
 20
-1.00000000000000E+20
 30
-1.00000000000000E+20
  9
$PLIMMIN
 10
0.0
 20
0.0
  9
$PLIMMAX
 10
12.0
 20
9.0
  9
$UNITMODE
 70
     0
  9
$VISRETAIN
 70
     1
  9
$PLINEGEN
 70
     0
  9
$PSLTSCALE
 70
     1
  9
$TREEDEPTH
 70
  3020
  9
$CMLSTYLE
  2
Standard
  9
$CMLJUST
 70
     0
  9
$CMLSCALE
 40
1.0
  9
$PROXYGRAPHICS
 70
     1
  9
$MEASUREMENT
 70
     1
  9
$CELWEIGHT
370
    -1
  9
$ENDCAPS
280
     0
  9
$JOINSTYLE
280
     0
  9
$LWDISPLAY
290
     0
  9
$INSUNITS
 70
     1
  9
$HYPERLINKBASE
  1

  9
$STYLESHEET
  1

  9
$XEDIT
290
     1
  9
$CEPSNTYPE
380
     0
  9
$PSTYLEMODE
290
     1
  9
$FINGERPRINTGUID
  2
{655FFB03-A31A-4DC1-9282-88C598C0F763}
  9
$VERSIONGUID
  2
{FAEB1C32-E019-11D5-929B-00C0DF256EC4}
  9
$EXTNAMES
290
     1
  9
$PSVPSCALE
 40
0.0
  9
$OLESTARTUP
290
     0
  0
ENDSEC
  0
SECTION
  2
CLASSES
  0
CLASS
  1
ACDBDICTIONARYWDFLT
  2
AcDbDictionaryWithDefault
  3
ObjectDBX Classes
 90
        0
280
     0
281
     0
  0
CLASS
  1
VISUALSTYLE
  2
AcDbVisualStyle
  3
ObjectDBX Classes
 90
     4095
280
     0
281
     0
  0
CLASS
  1
SCALE
  2
AcDbScale
  3
ObjectDBX Classes
 90
     1153
280
     0
281
     0
  0
CLASS
  1

  2
exOdDbPolyline
  3

 90
        0
280
     0
281
     1
  0
CLASS
  1

  2
exOdDbCircle
  3

 90
        0
280
     0
281
     1
  0
CLASS
  1

  2
exOdDbSpline
  3

 90
        0
280
     0
281
     1
  0
CLASS
  1
DICTIONARYVAR
  2
AcDbDictionaryVar
  3
ObjectDBX Classes
 90
        0
280
     0
281
     0
  0
CLASS
  1
ACDBPLACEHOLDER
  2
AcDbPlaceHolder
  3
ObjectDBX Classes
 90
        0
280
     0
281
     0
  0
CLASS
  1
LAYOUT
  2
AcDbLayout
  3
ObjectDBX Classes
 90
        0
280
     0
281
     0
  0
ENDSEC
  0
SECTION
  2
TABLES
  0
TABLE
  2
VPORT
  5
8
330
0
100
AcDbSymbolTable
 70
     1
  0
VPORT
  5
29
330
8
100
AcDbSymbolTableRecord
100
AcDbViewportTableRecord
  2
*Active
 70
     0
 10
0.0
 20
0.0
 11
1.0
 21
1.0
 12
140.0074340926132
 22
308.653822798756
 13
0.0
 23
0.0
 14
0.5
 24
0.5
 15
0.5
 25
0.5
 16
0.0
 26
0.0
 36
1.0
 17
0.0
 27
0.0
 37
0.0
 40
206.5855568701405
 41
1.60267857142857
 42
50.0
 43
0.0
 44
0.0
 50
0.0
 51
0.0
 71
     0
 72
   100
 73
     1
 74
     3
 75
     0
 76
     0
 77
     0
 78
     0
281
     0
 65
     1
110
0.0
120
0.0
130
0.0
111
1.0
121
0.0
131
0.0
112
0.0
122
1.0
132
0.0
 79
     0
146
0.0
  0
ENDTAB
  0
TABLE
  2
LTYPE
  5
5
330
0
100
AcDbSymbolTable
 70
     8
  0
LTYPE
  5
14
330
5
100
AcDbSymbolTableRecord
100
AcDbLinetypeTableRecord
  2
ByBlock
 70
     0
  3

 72
    65
 73
     0
 40
0.0
  0
LTYPE
  5
15
330
5
100
AcDbSymbolTableRecord
100
AcDbLinetypeTableRecord
  2
ByLayer
 70
     0
  3

 72
    65
 73
     0
 40
0.0
  0
LTYPE
  5
16
330
5
100
AcDbSymbolTableRecord
100
AcDbLinetypeTableRecord
  2
Continuous
 70
     0
  3
Solid line
 72
    65
 73
     0
 40
0.0
  0
LTYPE
  5
3B
330
5
100
AcDbSymbolTableRecord
100
AcDbLinetypeTableRecord
  2
DASHED
 70
     0
  3
Dashed
 72
    65
 73
     2
 40
15.0
 49
7.0
 74
     0
 49
-8.0
 74
     0
  0
LTYPE
  5
3C
330
5
100
AcDbSymbolTableRecord
100
AcDbLinetypeTableRecord
  2
DOTTED
 70
     0
  3
Dotted
 72
    65
 73
     2
 40
1.0
 49
0.0
 74
     0
 49
-1.0
 74
     0
  0
LTYPE
  5
3D
330
5
100
AcDbSymbolTableRecord
100
AcDbLinetypeTableRecord
  2
DOT_CENTER
 70
     0
  3
Dot_Center
 72
    65
 73
     4
 40
14.0
 49
12.0
 74
     0
 49
-1.0
 74
     0
 49
0.0
 74
     0
 49
-1.0
 74
     0
  0
LTYPE
  5
3E
330
5
100
AcDbSymbolTableRecord
100
AcDbLinetypeTableRecord
  2
LONG_DASHED
 70
     0
  3
Long_Dashed
 72
    65
 73
     2
 40
15.0
 49
10.0
 74
     0
 49
-5.0
 74
     0
  0
LTYPE
  5
3F
330
5
100
AcDbSymbolTableRecord
100
AcDbLinetypeTableRecord
  2
DASH_CENTER
 70
     0
  3
Dash_Center
 72
    65
 73
     4
 40
14.0
 49
11.0
 74
     0
 49
-1.0
 74
     0
 49
1.0
 74
     0
 49
-1.0
 74
     0
  0
LTYPE
  5
40
330
5
100
AcDbSymbolTableRecord
100
AcDbLinetypeTableRecord
  2
PHANTOM
 70
     0
  3
Phantom
 72
    65
 73
     6
 40
13.0
 49
10.0
 74
     0
 49
-1.0
 74
     0
 49
0.0
 74
     0
 49
-1.0
 74
     0
 49
0.0
 74
     0
 49
-1.0
 74
     0
  0
LTYPE
  5
41
330
5
100
AcDbSymbolTableRecord
100
AcDbLinetypeTableRecord
  2
CENTER_DASH_DASH
 70
     0
  3
Center_Dash_Dash
 72
    65
 73
     6
 40
14.0
 49
9.0
 74
     0
 49
-1.0
 74
     0
 49
1.0
 74
     0
 49
-1.0
 74
     0
 49
1.0
 74
     0
 49
-1.0
 74
     0
  0
ENDTAB
  0
TABLE
  2
LAYER
  5
2
330
0
100
AcDbSymbolTable
 70
     6
  0
LAYER
  5
10
330
2
100
AcDbSymbolTableRecord
100
AcDbLayerTableRecord
  2
0
 70
     0
 62
     7
  6
Continuous
370
    -3
390
F
  0
LAYER
  5
42
330
2
100
AcDbSymbolTableRecord
100
AcDbLayerTableRecord
  2
1
 70
     0
 62
     7
  6
Continuous
370
    -3
390
F
  0
LAYER
  5
43
330
2
100
AcDbSymbolTableRecord
100
AcDbLayerTableRecord
  2
BEZUGSACHSEN
 70
     0
 62
     7
  6
Continuous
370
    -3
390
F
  0
LAYER
  5
44
330
2
100
AcDbSymbolTableRecord
100
AcDbLayerTableRecord
  2
DEFAULT_2
 70
     0
 62
     7
  6
Continuous
370
    -3
390
F
  0
LAYER
  5
45
330
2
100
AcDbSymbolTableRecord
100
AcDbLayerTableRecord
  2
FASEN
 70
     0
 62
     7
  6
Continuous
370
    -3
390
F
  0
LAYER
  5
46
330
2
100
AcDbSymbolTableRecord
100
AcDbLayerTableRecord
  2
RUNDUNGEN
 70
     0
 62
     7
  6
Continuous
370
    -3
390
F
  0
ENDTAB
  0
TABLE
  2
STYLE
  5
3
330
0
100
AcDbSymbolTable
 70
     2
  0
STYLE
  5
11
330
3
100
AcDbSymbolTableRecord
100
AcDbTextStyleTableRecord
  2
Standard
 70
     0
 40
0.0
 41
1.0
 50
0.0
 71
     0
 42
0.2
  3
txt
  4

  0
STYLE
  5
6D
330
3
100
AcDbSymbolTableRecord
100
AcDbTextStyleTableRecord
  2
CONVERTER_11
 70
     0
 40
0.0
 41
0.72
 50
0.0
 71
     0
 42
0.2
  3
txt.shx
  4

  0
ENDTAB
  0
TABLE
  2
VIEW
  5
6
330
0
100
AcDbSymbolTable
 70
     0
  0
ENDTAB
  0
TABLE
  2
UCS
  5
7
330
0
100
AcDbSymbolTable
 70
     0
  0
ENDTAB
  0
TABLE
  2
APPID
  5
9
330
0
100
AcDbSymbolTable
 70
     1
  0
APPID
  5
12
330
9
100
AcDbSymbolTableRecord
100
AcDbRegAppTableRecord
  2
ACAD
 70
     0
  0
ENDTAB
  0
TABLE
  2
DIMSTYLE
  5
A
330
0
100
AcDbSymbolTable
 70
     8
100
AcDbDimStyleTable
  0
DIMSTYLE
105
27
330
A
100
AcDbSymbolTableRecord
100
AcDbDimStyleTableRecord
  2
Standard
 70
     0
340
11
  0
DIMSTYLE
105
10B
102
{ACAD_REACTORS
330
10C
102
}
330
A
100
AcDbSymbolTableRecord
100
AcDbDimStyleTableRecord
  2
ME10_DIM_10
 70
     0
  3
\U+2300<>
 41
3.5
 42
2.0
 44
2.0
 71
     1
 73
     0
 74
     0
 77
     1
 78
     8
140
3.5
146
0.7
147
2.0
172
     1
173
     1
176
     2
177
     2
178
     3
271
     2
272
     0
340
6D
  0
DIMSTYLE
105
116
102
{ACAD_REACTORS
330
117
102
}
330
A
100
AcDbSymbolTableRecord
100
AcDbDimStyleTableRecord
  2
ME10_DIM_11
 70
     0
  3
\U+2300<>
 41
3.5
 42
2.0
 44
2.0
 71
     1
 73
     0
 74
     0
 77
     1
 78
     8
140
3.5
146
0.7
147
2.0
172
     1
173
     1
176
     2
177
     2
178
     3
271
     2
272
     0
340
6D
  0
DIMSTYLE
105
121
102
{ACAD_REACTORS
330
122
102
}
330
A
100
AcDbSymbolTableRecord
100
AcDbDimStyleTableRecord
  2
ME10_DIM_12
 70
     0
  3
\U+2300<>
 41
3.5
 42
2.0
 44
2.0
 71
     1
 73
     0
 74
     0
 77
     1
 78
     8
140
3.5
146
0.7
147
2.0
172
     1
173
     1
176
     2
177
     2
178
     3
271
     2
272
     0
340
6D
  0
DIMSTYLE
105
12C
102
{ACAD_REACTORS
330
12D
102
}
330
A
100
AcDbSymbolTableRecord
100
AcDbDimStyleTableRecord
  2
ME10_DIM_13
 70
     0
  3
<>
 41
3.5
 42
2.0
 44
2.0
 71
     1
 73
     0
 74
     0
 77
     1
 78
     8
140
3.5
146
0.7
147
2.0
172
     1
173
     1
176
     2
177
     2
178
     3
271
     2
272
     0
340
6D
  0
DIMSTYLE
105
137
102
{ACAD_REACTORS
330
138
102
}
330
A
100
AcDbSymbolTableRecord
100
AcDbDimStyleTableRecord
  2
ME10_DIM_14
 70
     0
  3
<>
 41
3.5
 42
2.0
 44
2.0
 71
     1
 73
     0
 74
     0
 77
     1
 78
     8
140
3.5
146
0.7
147
2.0
172
     1
173
     1
176
     2
177
     2
178
     3
271
     2
272
     0
340
6D
  0
DIMSTYLE
105
142
102
{ACAD_REACTORS
330
143
102
}
330
A
100
AcDbSymbolTableRecord
100
AcDbDimStyleTableRecord
  2
ME10_DIM_15
 70
     0
  3
<>
 41
3.5
 42
2.0
 44
2.0
 71
     1
 73
     0
 74
     0
 77
     1
 78
     8
140
3.5
146
0.7
147
2.0
172
     1
173
     1
176
     2
177
     2
178
     3
271
     2
272
     0
340
6D
  0
DIMSTYLE
105
154
102
{ACAD_REACTORS
330
155
102
}
330
A
100
AcDbSymbolTableRecord
100
AcDbDimStyleTableRecord
  2
ME10_DIM_16
 70
     0
  3
<>
 41
3.5
 42
2.0
 44
2.0
 71
     1
 73
     0
 74
     0
 77
     1
 78
     8
140
3.5
146
0.7
147
2.0
172
     1
173
     1
176
     2
177
     2
178
     3
271
     2
272
     0
340
6D
  0
ENDTAB
  0
TABLE
  2
BLOCK_RECORD
  5
1
330
0
100
AcDbSymbolTable
 70
    10
  0
BLOCK_RECORD
  5
1F
330
1
100
AcDbSymbolTableRecord
100
AcDbBlockTableRecord
  2
*Model_Space
340
22
  0
BLOCK_RECORD
  5
1B
330
1
100
AcDbSymbolTableRecord
100
AcDbBlockTableRecord
  2
*Paper_Space
340
1E
  0
BLOCK_RECORD
  5
23
330
1
100
AcDbSymbolTableRecord
100
AcDbBlockTableRecord
  2
*Paper_Space0
340
26
  0
BLOCK_RECORD
  5
47
330
1
100
AcDbSymbolTableRecord
100
AcDbBlockTableRecord
  2
Urheberrecht_DE-EN
340
0
102
{BLKREFS
331
6C
102
}
  0
BLOCK_RECORD
  5
100
330
1
100
AcDbSymbolTableRecord
100
AcDbBlockTableRecord
  2
*D2
340
0
  0
BLOCK_RECORD
  5
10D
330
1
100
AcDbSymbolTableRecord
100
AcDbBlockTableRecord
  2
*D3
340
0
  0
BLOCK_RECORD
  5
118
330
1
100
AcDbSymbolTableRecord
100
AcDbBlockTableRecord
  2
*D4
340
0
  0
BLOCK_RECORD
  5
123
330
1
100
AcDbSymbolTableRecord
100
AcDbBlockTableRecord
  2
*D5
340
0
  0
BLOCK_RECORD
  5
12E
330
1
100
AcDbSymbolTableRecord
100
AcDbBlockTableRecord
  2
*D6
340
0
  0
BLOCK_RECORD
  5
139
330
1
100
AcDbSymbolTableRecord
100
AcDbBlockTableRecord
  2
*D7
340
0
  0
BLOCK_RECORD
  5
144
330
1
100
AcDbSymbolTableRecord
100
AcDbBlockTableRecord
  2
*D8
340
0
102
{BLKREFS
331
14A
102
}
  0
BLOCK_RECORD
  5
14B
330
1
100
AcDbSymbolTableRecord
100
AcDbBlockTableRecord
  2
*D9
340
0
  0
ENDTAB
  0
ENDSEC
  0
SECTION
  2
BLOCKS
  0
BLOCK
  5
20
330
1F
100
AcDbEntity
  8
0
100
AcDbBlockBegin
  2
*Model_Space
 70
     0
 10
0.0
 20
0.0
 30
0.0
  3
*Model_Space
  1

  0
ENDBLK
  5
21
330
1F
100
AcDbEntity
  8
0
100
AcDbBlockEnd
  0
BLOCK
  5
1C
330
1B
100
AcDbEntity
 67
     1
  8
0
100
AcDbBlockBegin
  2
*Paper_Space
 70
     0
 10
0.0
 20
0.0
 30
0.0
  3
*Paper_Space
  1

  0
ENDBLK
  5
1D
330
1B
100
AcDbEntity
 67
     1
  8
0
100
AcDbBlockEnd
  0
BLOCK
  5
24
330
23
100
AcDbEntity
  8
0
100
AcDbBlockBegin
  2
*Paper_Space0
 70
     0
 10
0.0
 20
0.0
 30
0.0
  3
*Paper_Space0
  1

  0
ENDBLK
  5
25
330
23
100
AcDbEntity
  8
0
100
AcDbBlockEnd
  0
BLOCK
  5
48
330
47
100
AcDbEntity
  8
0
100
AcDbBlockBegin
  2
Urheberrecht_DE-EN
 70
     0
 10
3.51186810969843
 20
308.540141884723
 30
0.0
  3
Urheberrecht_DE-EN
  1

  0
MTEXT
  5
6E
330
47
100
AcDbEntity
  8
1
 62
     1
100
AcDbMText
 10
3.51186810969843
 20
308.540141884723
 30
0.0
 40
2.0
 41
0.0
 71
     7
 72
     1
  1
We own the copyright of this document. It \Pdetermined and may neither be copied or \Pmade accessible to outsiders without our\Ppermission.
  7
CONVERTER_11
 11
0.0
 21
1.0
 31
0.0
 73
     1
 44
0.90036014405762
  0
MTEXT
  5
6F
330
47
100
AcDbEntity
  8
1
 62
     1
100
AcDbMText
 10
3.51186810969843
 20
252.2507549674168
 30
0.0
 40
2.0
 41
0.0
 71
     7
 72
     1
  1
F\U+00fcr diese Unterlage behalten wir das Ur-\Pheberrecht. Sie darf nur f\U+00fcr den von uns \Pbestimmten Zweck benutzt und ohne unsere \PZustimmung weder vervielf\U+00e4ltigt noch\PDritten zug\U+00e4nglich gemacht werden.
  7
CONVERTER_11
 11
0.0
 21
1.0
 31
0.0
 73
     1
 44
0.90036014405762
  0
ENDBLK
  5
49
330
47
100
AcDbEntity
  8
0
100
AcDbBlockEnd
  0
BLOCK
  5
109
330
100
100
AcDbEntity
  8
0
100
AcDbBlockBegin
  2
*D2
 70
     1
 10
0.0
 20
0.0
 30
0.0
  3
*D2
  1

  0
LINE
  5
101
330
100
100
AcDbEntity
  8
1
  6
Continuous
 62
     2
100
AcDbLine
 10
270.614205527457
 20
305.1526699679
 30
0.0
 11
270.614205527457
 21
298.1526699679
 31
0.0
  0
LINE
  5
102
330
100
100
AcDbEntity
  8
1
  6
Continuous
 62
     2
100
AcDbLine
 10
270.614205527457
 20
298.1526699679
 30
0.0
 11
270.614205527457
 21
290.1526699679
 31
0.0
  0
LINE
  5
103
330
100
100
AcDbEntity
  8
1
  6
Continuous
 62
     2
100
AcDbLine
 10
270.614205527457
 20
290.1526699679
 30
0.0
 11
270.614205527457
 21
283.1526699679
 31
0.0
  0
LINE
  5
104
330
100
100
AcDbEntity
  8
1
  6
Continuous
 62
     2
100
AcDbLine
 10
261.5483137045
 20
298.1526699679
 30
0.0
 11
272.614205527457
 21
298.1526699679
 31
0.0
  0
LINE
  5
105
330
100
100
AcDbEntity
  8
1
  6
Continuous
 62
     2
100
AcDbLine
 10
261.5483137045
 20
290.1526699679
 30
0.0
 11
272.614205527457
 21
290.1526699679
 31
0.0
  0
SOLID
  5
106
330
100
100
AcDbEntity
  8
1
 62
     2
100
AcDbTrace
 10
270.1534217859011
 20
301.6526699679
 30
0.0
 11
271.0749892690129
 21
301.6526699679
 31
0.0
 12
270.614205527457
 22
298.1526699679
 32
0.0
 13
270.614205527457
 23
298.1526699679
 33
0.0
  0
SOLID
  5
107
330
100
100
AcDbEntity
  8
1
 62
     2
100
AcDbTrace
 10
271.0749892690129
 20
286.6526699679
 30
0.0
 11
270.1534217859011
 21
286.6526699679
 31
0.0
 12
270.614205527457
 22
290.1526699679
 32
0.0
 13
270.614205527457
 23
290.1526699679
 33
0.0
  0
MTEXT
  5
108
330
100
100
AcDbEntity
  8
1
 62
     3
100
AcDbMText
 10
268.614205527457
 20
286.410627030496
 30
0.0
 40
3.5
 41
0.0
 71
     7
 72
     1
  1
\C3;%%c\C3;\C3;8\C2;\H2.45;\S^ ;\C3;
  7
CONVERTER_11
 11
0.0
 21
1.0
 31
0.0
 73
     1
 44
0.60024009603842
  0
ENDBLK
  5
10A
330
100
100
AcDbEntity
  8
0
100
AcDbBlockEnd
  0
BLOCK
  5
114
330
10D
100
AcDbEntity
  8
0
100
AcDbBlockBegin
  2
*D3
 70
     1
 10
0.0
 20
0.0
 30
0.0
  3
*D3
  1

  0
LINE
  5
10E
330
10D
100
AcDbEntity
  8
1
  6
Continuous
 62
     2
100
AcDbLine
 10
279.844062288962
 20
304.6526699679528
 30
0.0
 11
279.844062288962
 21
283.6526699678487
 31
0.0
  0
LINE
  5
10F
330
10D
100
AcDbEntity
  8
1
  6
Continuous
 62
     2
100
AcDbLine
 10
261.5483137045
 20
304.6526699679528
 30
0.0
 11
281.844062288962
 21
304.6526699679528
 31
0.0
  0
LINE
  5
110
330
10D
100
AcDbEntity
  8
1
  6
Continuous
 62
     2
100
AcDbLine
 10
261.5483137045
 20
283.6526699678487
 30
0.0
 11
281.844062288962
 21
283.6526699678487
 31
0.0
  0
SOLID
  5
111
330
10D
100
AcDbEntity
  8
1
 62
     2
100
AcDbTrace
 10
280.3048460305179
 20
301.1526699679528
 30
0.0
 11
279.3832785474061
 21
301.1526699679528
 31
0.0
 12
279.844062288962
 22
304.6526699679528
 32
0.0
 13
279.844062288962
 23
304.6526699679528
 33
0.0
  0
SOLID
  5
112
330
10D
100
AcDbEntity
  8
1
 62
     2
100
AcDbTrace
 10
279.3832785474061
 20
287.1526699678487
 30
0.0
 11
280.3048460305179
 21
287.1526699678487
 31
0.0
 12
279.844062288962
 22
283.6526699678487
 32
0.0
 13
279.844062288962
 23
283.6526699678487
 33
0.0
  0
MTEXT
  5
113
330
10D
100
AcDbEntity
  8
1
 62
     3
100
AcDbMText
 10
277.844062288962
 20
285.856086517966
 30
0.0
 40
3.5
 41
0.0
 71
     7
 72
     1
  1
\C3;%%c\C3;\C3;21\C2;\H2.45;\S^ ;\C3;
  7
CONVERTER_11
 11
0.0
 21
1.0
 31
0.0
 73
     1
 44
0.60024009603842
  0
ENDBLK
  5
115
330
10D
100
AcDbEntity
  8
0
100
AcDbBlockEnd
  0
BLOCK
  5
11F
330
118
100
AcDbEntity
  8
0
100
AcDbBlockBegin
  2
*D4
 70
     1
 10
0.0
 20
0.0
 30
0.0
  3
*D4
  1

  0
LINE
  5
119
330
118
100
AcDbEntity
  8
1
  6
Continuous
 62
     2
100
AcDbLine
 10
288.503000075528
 20
307.6526699679
 30
0.0
 11
288.503000075528
 21
280.6526699679
 31
0.0
  0
LINE
  5
11A
330
118
100
AcDbEntity
  8
1
  6
Continuous
 62
     2
100
AcDbLine
 10
223.429699496
 20
307.6526699679
 30
0.0
 11
290.503000075528
 21
307.6526699679
 31
0.0
  0
LINE
  5
11B
330
118
100
AcDbEntity
  8
1
  6
Continuous
 62
     2
100
AcDbLine
 10
223.429699496
 20
280.6526699679
 30
0.0
 11
290.503000075528
 21
280.6526699679
 31
0.0
  0
SOLID
  5
11C
330
118
100
AcDbEntity
  8
1
 62
     2
100
AcDbTrace
 10
288.9637838170839
 20
304.1526699679
 30
0.0
 11
288.0422163339721
 21
304.1526699679
 31
0.0
 12
288.503000075528
 22
307.6526699679
 32
0.0
 13
288.503000075528
 23
307.6526699679
 33
0.0
  0
SOLID
  5
11D
330
118
100
AcDbEntity
  8
1
 62
     2
100
AcDbTrace
 10
288.0422163339721
 20
284.1526699679
 30
0.0
 11
288.9637838170839
 21
284.1526699679
 31
0.0
 12
288.503000075528
 22
280.6526699679
 32
0.0
 13
288.503000075528
 23
280.6526699679
 33
0.0
  0
MTEXT
  5
11E
330
118
100
AcDbEntity
  8
1
 62
     3
100
AcDbMText
 10
286.503000075528
 20
285.531239680455
 30
0.0
 40
3.5
 41
0.0
 71
     7
 72
     1
  1
\C3;%%c\C3;\C3;27\C2;\H2.45;\S^ ;\C3;
  7
CONVERTER_11
 11
0.0
 21
1.0
 31
0.0
 73
     1
 44
0.60024009603842
  0
ENDBLK
  5
120
330
118
100
AcDbEntity
  8
0
100
AcDbBlockEnd
  0
BLOCK
  5
12A
330
123
100
AcDbEntity
  8
0
100
AcDbBlockBegin
  2
*D5
 70
     1
 10
0.0
 20
0.0
 30
0.0
  3
*D5
  1

  0
LINE
  5
124
330
123
100
AcDbEntity
  8
1
  6
Continuous
 62
     2
100
AcDbLine
 10
259.5483137045
 20
351.661136033977
 30
0.0
 11
88.5483137045
 21
351.661136033977
 31
0.0
  0
LINE
  5
125
330
123
100
AcDbEntity
  8
1
  6
Continuous
 62
     2
100
AcDbLine
 10
259.5483137045
 20
305.7282794762
 30
0.0
 11
259.5483137045
 21
353.661136033977
 31
0.0
  0
LINE
  5
126
330
123
100
AcDbEntity
  8
1
  6
Continuous
 62
     2
100
AcDbLine
 10
88.5483137045
 20
346.1526330468
 30
0.0
 11
88.5483137045
 21
353.661136033977
 31
0.0
  0
SOLID
  5
127
330
123
100
AcDbEntity
  8
1
 62
     2
100
AcDbTrace
 10
256.0483137045
 20
351.2003522924211
 30
0.0
 11
256.0483137045
 21
352.1219197755329
 31
0.0
 12
259.5483137045
 22
351.661136033977
 32
0.0
 13
259.5483137045
 23
351.661136033977
 33
0.0
  0
SOLID
  5
128
330
123
100
AcDbEntity
  8
1
 62
     2
100
AcDbTrace
 10
92.0483137045
 20
352.1219197755329
 30
0.0
 11
92.0483137045
 21
351.2003522924211
 31
0.0
 12
88.5483137045
 22
351.661136033977
 32
0.0
 13
88.5483137045
 23
351.661136033977
 33
0.0
  0
MTEXT
  5
129
330
123
100
AcDbEntity
  8
1
 62
     3
100
AcDbMText
 10
174.25549322596
 20
353.661136033977
 30
0.0
 40
3.5
 41
0.0
 71
     7
 72
     1
  1
\C3;\C3;\C3;171\C2;\H2.45;\S^ ;\C3;
  7
CONVERTER_11
 11
0.9999999999970619
 21
2.424068405545306E-6
 31
0.0
 73
     1
 44
0.60024009603842
  0
ENDBLK
  5
12B
330
123
100
AcDbEntity
  8
0
100
AcDbBlockEnd
  0
BLOCK
  5
135
330
12E
100
AcDbEntity
  8
0
100
AcDbBlockBegin
  2
*D6
 70
     1
 10
0.0
 20
0.0
 30
0.0
  3
*D6
  1

  0
LINE
  5
12F
330
12E
100
AcDbEntity
  8
1
  6
Continuous
 62
     2
100
AcDbLine
 10
59.5483137045
 20
359.473401448487
 30
0.0
 11
259.5483137045
 21
359.473401448487
 31
0.0
  0
LINE
  5
130
330
12E
100
AcDbEntity
  8
1
  6
Continuous
 62
     2
100
AcDbLine
 10
59.5483137045
 20
346.1526699679
 30
0.0
 11
59.5483137045
 21
361.473401448487
 31
0.0
  0
LINE
  5
131
330
12E
100
AcDbEntity
  8
1
  6
Continuous
 62
     2
100
AcDbLine
 10
259.5483137045
 20
305.7282794762
 30
0.0
 11
259.5483137045
 21
361.473401448487
 31
0.0
  0
SOLID
  5
132
330
12E
100
AcDbEntity
  8
1
 62
     2
100
AcDbTrace
 10
63.0483137045
 20
359.9341851900429
 30
0.0
 11
63.0483137045
 21
359.0126177069311
 31
0.0
 12
59.5483137045
 22
359.473401448487
 32
0.0
 13
59.5483137045
 23
359.473401448487
 33
0.0
  0
SOLID
  5
133
330
12E
100
AcDbEntity
  8
1
 62
     2
100
AcDbTrace
 10
256.0483137045
 20
359.0126177069311
 30
0.0
 11
256.0483137045
 21
359.9341851900429
 31
0.0
 12
259.5483137045
 22
359.473401448487
 32
0.0
 13
259.5483137045
 23
359.473401448487
 33
0.0
  0
MTEXT
  5
134
330
12E
100
AcDbEntity
  8
1
 62
     3
100
AcDbMText
 10
161.046072986319
 20
361.473401448487
 30
0.0
 40
3.5
 41
0.0
 71
     7
 72
     1
  1
\C3;\C3;\C3;200\C2;\H2.45;\S^ ;\C3;
  7
CONVERTER_11
 11
0.9999999999970619
 21
2.424068405545306E-6
 31
0.0
 73
     1
 44
0.60024009603842
  0
ENDBLK
  5
136
330
12E
100
AcDbEntity
  8
0
100
AcDbBlockEnd
  0
BLOCK
  5
140
330
139
100
AcDbEntity
  8
0
100
AcDbBlockBegin
  2
*D7
 70
     1
 10
0.0
 20
0.0
 30
0.0
  3
*D7
  1

  0
LINE
  5
13A
330
139
100
AcDbEntity
  8
1
  6
Continuous
 62
     2
100
AcDbLine
 10
9.5483137045
 20
367.654975629612
 30
0.0
 11
259.5483137045
 21
367.654975629612
 31
0.0
  0
LINE
  5
13B
330
139
100
AcDbEntity
  8
1
  6
Continuous
 62
     2
100
AcDbLine
 10
9.5483137045
 20
329.7528615304
 30
0.0
 11
9.5483137045
 21
369.654975629612
 31
0.0
  0
LINE
  5
13C
330
139
100
AcDbEntity
  8
1
  6
Continuous
 62
     2
100
AcDbLine
 10
259.5483137045
 20
305.7282794762
 30
0.0
 11
259.5483137045
 21
369.654975629612
 31
0.0
  0
SOLID
  5
13D
330
139
100
AcDbEntity
  8
1
 62
     2
100
AcDbTrace
 10
13.0483137045
 20
368.1157593711679
 30
0.0
 11
13.0483137045
 21
367.1941918880561
 31
0.0
 12
9.5483137045
 22
367.654975629612
 32
0.0
 13
9.5483137045
 23
367.654975629612
 33
0.0
  0
SOLID
  5
13E
330
139
100
AcDbEntity
  8
1
 62
     2
100
AcDbTrace
 10
256.0483137045
 20
367.1941918880561
 30
0.0
 11
256.0483137045
 21
368.1157593711679
 31
0.0
 12
259.5483137045
 22
367.654975629612
 32
0.0
 13
259.5483137045
 23
367.654975629612
 33
0.0
  0
MTEXT
  5
13F
330
139
100
AcDbEntity
  8
1
 62
     3
100
AcDbMText
 10
143.302494923303
 20
369.654975629612
 30
0.0
 40
3.5
 41
0.0
 71
     7
 72
     1
  1
\C3;\C3;\C3;250\C2;\H2.45;\S^ ;\C3;
  7
CONVERTER_11
 11
0.9999999999970619
 21
2.424068405545306E-6
 31
0.0
 73
     1
 44
0.60024009603842
  0
ENDBLK
  5
141
330
139
100
AcDbEntity
  8
0
100
AcDbBlockEnd
  0
BLOCK
  5
148
330
144
100
AcDbEntity
  8
0
100
AcDbBlockBegin
  2
*D8
 70
     1
 10
0.0
 20
0.0
 30
0.0
  3
*D8
  1

  0
LINE
  5
145
330
144
100
AcDbEntity
  8
1
  6
Continuous
 62
     2
100
AcDbLine
 10
105.4338896132174
 20
329.6970018874147
 30
0.0
 11
95.15994485574548
 21
318.2955156466303
 31
0.0
  0
SOLID
  5
146
330
144
100
AcDbEntity
  8
1
 62
     2
100
AcDbTrace
 10
97.16059981835586
 20
321.2040722262871
 30
0.0
 11
97.84521899019765
 21
320.5871579571413
 31
0.0
 12
95.15994485574548
 22
318.2955156466303
 32
0.0
 13
95.15994485574548
 23
318.2955156466303
 33
0.0
  0
MTEXT
  5
147
330
144
100
AcDbEntity
  8
1
 62
     3
100
AcDbMText
 10
97.294099183912
 20
323.6515563482515
 30
0.0
 40
3.5
 41
0.0
 71
     7
 72
     1
  1
\C3; R\C3;\C3;20\C2;\H2.45;\S^ ;\C3;
  7
CONVERTER_11
 11
0.6694184424375142
 21
0.7428855557382527
 31
0.0
 73
     1
 44
0.60024009603842
  0
ENDBLK
  5
149
330
144
100
AcDbEntity
  8
0
100
AcDbBlockEnd
  0
BLOCK
  5
152
330
14B
100
AcDbEntity
  8
0
100
AcDbBlockBegin
  2
*D9
 70
     1
 10
0.0
 20
0.0
 30
0.0
  3
*D9
  1

  0
LINE
  5
14C
330
14B
100
AcDbEntity
  8
1
  6
Continuous
 62
     2
100
AcDbLine
 10
245.7239257265605
 20
307.6526699679001
 30
0.0
 11
247.7239257265605
 21
307.6526699679001
 31
0.0
  0
LINE
  5
14D
330
14B
100
AcDbEntity
  8
1
  6
Continuous
 62
     2
100
AcDbLine
 10
223.429699496
 20
307.6526699679001
 30
0.0
 11
245.7239257265605
 21
307.6526699679001
 31
0.0
  0
ARC
  5
14E
330
14B
100
AcDbEntity
  8
1
  6
Continuous
 62
     2
100
AcDbCircle
 10
221.429699496
 20
307.6526699679001
 30
0.0
 40
24.29422623056043
100
AcDbArc
 50
343.118340276073
 51
21.73715678659044
  0
SOLID
  5
14F
330
14B
100
AcDbEntity
  8
1
 62
     2
100
AcDbTrace
 10
245.5795870968288
 20
302.2170487524173
 30
0.0
 11
244.6684469390584
 21
302.3552885398422
 31
0.0
 12
245.6490347348808
 22
305.7465669464562
 32
0.0
 13
245.6490347348808
 23
305.7465669464562
 33
0.0
  0
SOLID
  5
150
330
14B
100
AcDbEntity
  8
1
 62
     2
100
AcDbTrace
 10
245.0124373928004
 20
311.11043022671
 30
0.0
 11
245.9316149782568
 21
311.1767566341459
 31
0.0
 12
245.7239257265605
 22
307.6526699679001
 32
0.0
 13
245.7239257265605
 23
307.6526699679001
 33
0.0
  0
MTEXT
  5
151
330
14B
100
AcDbEntity
  8
1
 62
     3
100
AcDbMText
 10
246.073949245168
 20
317.4783257915348
 30
0.0
 40
3.5
 41
0.0
 71
     7
 72
     1
  1
\C3;\C3;\C3;4.5%%d\C2;\H2.45;\S^ ;\C3;
  7
CONVERTER_11
 11
0.2432800646431462
 21
-0.9699560867107473
 31
0.0
 73
     1
 44
0.60024009603842
  0
ENDBLK
  5
153
330
14B
100
AcDbEntity
  8
0
100
AcDbBlockEnd
  0
ENDSEC
  0
SECTION
  2
ENTITIES
  0
INSERT
  5
6C
330
1F
100
AcDbEntity
  8
0
100
AcDbBlockReference
  2
Urheberrecht_DE-EN
 10
3.51186810969843
 20
308.540141884723
 30
0.0
  0
LINE
  5
70
330
1F
100
AcDbEntity
  8
BEZUGSACHSEN
  6
Continuous
 62
     7
100
AcDbLine
 10
9.5483137045
 20
260.5524784049
 30
0.0
 11
9.5483137045
 21
282.1426699679
 31
0.0
  0
LINE
  5
71
330
1F
100
AcDbEntity
  8
BEZUGSACHSEN
  6
Continuous
 62
     7
100
AcDbLine
 10
9.5483137045
 20
306.1626699679
 30
0.0
 11
9.5483137045
 21
327.7528615304
 31
0.0
  0
LINE
  5
72
330
1F
100
AcDbEntity
  8
BEZUGSACHSEN
  6
Continuous
 62
     9
100
AcDbLine
 10
11.4482392198
 20
329.7503562362
 30
0.0
 11
11.4482392198
 21
309.8292023541
 31
0.0
  0
LINE
  5
73
330
1F
100
AcDbEntity
  8
BEZUGSACHSEN
  6
Continuous
 62
     9
100
AcDbLine
 10
11.4482392198
 20
278.4761375816
 30
0.0
 11
11.4482392198
 21
258.5549836996
 31
0.0
  0
LINE
  5
74
330
1F
100
AcDbEntity
  8
BEZUGSACHSEN
  6
Continuous
 62
     7
100
AcDbLine
 10
11.5483137045
 20
281.7490300195
 30
0.0
 11
11.5483137045
 21
284.1426699679
 31
0.0
  0
LINE
  5
75
330
1F
100
AcDbEntity
  8
BEZUGSACHSEN
  6
Continuous
 62
     7
100
AcDbLine
 10
11.5483137045
 20
304.1626699679
 30
0.0
 11
11.5483137045
 21
306.5563099163
 31
0.0
  0
LINE
  5
76
330
1F
100
AcDbEntity
  8
BEZUGSACHSEN
  6
Continuous
 62
     9
100
AcDbLine
 10
17.5483137045
 20
277.7940223804
 30
0.0
 11
17.5483137045
 21
284.1426699679
 31
0.0
  0
LINE
  5
77
330
1F
100
AcDbEntity
  8
BEZUGSACHSEN
  6
Continuous
 62
     9
100
AcDbLine
 10
17.5483137045
 20
304.1626699679
 30
0.0
 11
17.5483137045
 21
310.5113175553
 31
0.0
  0
LINE
  5
78
330
1F
100
AcDbEntity
  8
BEZUGSACHSEN
  6
Continuous
 62
     7
100
AcDbLine
 10
19.5483137045
 20
307.0223254937
 30
0.0
 11
19.5483137045
 21
281.2830144421
 31
0.0
  0
LINE
  5
79
330
1F
100
AcDbEntity
  8
BEZUGSACHSEN
  6
Continuous
 62
     7
100
AcDbLine
 10
10.8152666315
 20
279.1426699679
 30
0.0
 11
10.6941563801
 21
278.9103339724
 31
0.0
  0
LINE
  5
7A
330
1F
100
AcDbEntity
  8
BEZUGSACHSEN
  6
Continuous
 62
     7
100
AcDbLine
 10
10.6941563801
 20
309.3950059633
 30
0.0
 11
10.8152666315
 21
309.1626699679
 31
0.0
  0
LWPOLYLINE
  5
7B
330
1F
100
AcDbEntity
  8
BEZUGSACHSEN
  6
DOT_CENTER
 62
     7
100
AcDbPolyline
 90
        2
 70
     0
 43
0.25
 10
44.5483137045
 20
294.1526699679
 10
44.5483137045
 20
285.1526699679
  0
LWPOLYLINE
  5
7C
330
1F
100
AcDbEntity
  8
BEZUGSACHSEN
  6
DOT_CENTER
 62
     7
100
AcDbPolyline
 90
        2
 70
     0
 43
0.25
 10
44.5483137045
 20
294.1526699679
 10
44.5483137045
 20
303.1526699679
  0
LINE
  5
7D
330
1F
100
AcDbEntity
  8
BEZUGSACHSEN
  6
Continuous
 62
     7
100
AcDbLine
 10
9.5483137045
 20
282.1426699679
 30
0.0
 11
11.5483137045
 21
284.1426699679
 31
0.0
  0
LINE
  5
7E
330
1F
100
AcDbEntity
  8
BEZUGSACHSEN
  6
Continuous
 62
     7
100
AcDbLine
 10
11.5483137045
 20
304.1626699679
 30
0.0
 11
9.5483137045
 21
306.1626699679
 31
0.0
  0
LINE
  5
7F
330
1F
100
AcDbEntity
  8
BEZUGSACHSEN
  6
Continuous
 62
     7
100
AcDbLine
 10
57.0483137045
 20
332.0349199679
 30
0.0
 11
57.0483137045
 21
256.2704199679
 31
0.0
  0
LINE
  5
80
330
1F
100
AcDbEntity
  8
BEZUGSACHSEN
  6
Continuous
 62
     9
100
AcDbLine
 10
57.6675573185
 20
256.4363457942
 30
0.0
 11
57.6675573185
 21
331.8689941416
 31
0.0
  0
LINE
  5
81
330
1F
100
AcDbEntity
  8
BEZUGSACHSEN
  6
Continuous
 62
     9
100
AcDbLine
 10
57.9263763636
 20
256.4704199679
 30
0.0
 11
57.9263763636
 21
331.8349199679
 31
0.0
  0
LINE
  5
82
330
1F
100
AcDbEntity
  8
BEZUGSACHSEN
  6
Continuous
 62
     9
100
AcDbLine
 10
58.8477424158
 20
256.4704199679
 30
0.0
 11
58.8477424158
 21
331.8349199679
 31
0.0
  0
LINE
  5
83
330
1F
100
AcDbEntity
  8
BEZUGSACHSEN
  6
Continuous
 62
     7
100
AcDbLine
 10
59.5483137045
 20
344.1526699679
 30
0.0
 11
59.5483137045
 21
244.1526699679
 31
0.0
  0
LWPOLYLINE
  5
84
330
1F
100
AcDbEntity
  8
BEZUGSACHSEN
  6
DOT_CENTER
 62
     7
100
AcDbPolyline
 90
        2
 70
     0
 43
0.25
 10
66.5483137045
 20
336.3020418232
 10
66.5483137045
 20
347.1526699679
  0
LINE
  5
85
330
1F
100
AcDbEntity
  8
FASEN
  6
Continuous
 62
     9
100
AcDbLine
 10
72.5201876263
 20
262.2526699679
 30
0.0
 11
72.5201876263
 21
262.6526699679
 31
0.0
  0
LINE
  5
86
330
1F
100
AcDbEntity
  8
BEZUGSACHSEN
  6
Continuous
 62
     7
100
AcDbLine
 10
81.4233137045
 20
341.7752652321
 30
0.0
 11
82.7959089687
 21
344.1526699679
 31
0.0
  0
LINE
  5
87
330
1F
100
AcDbEntity
  8
BEZUGSACHSEN
  6
Continuous
 62
     7
100
AcDbLine
 10
81.4233137045
 20
246.5300747037
 30
0.0
 11
82.7959089687
 21
244.1526699679
 31
0.0
  0
LINE
  5
88
330
1F
100
AcDbEntity
  8
FASEN
  6
Continuous
 62
     9
100
AcDbLine
 10
74.5483137045
 20
284.5526699679
 30
0.0
 11
74.5483137045
 21
284.1526699679
 31
0.0
  0
LINE
  5
89
330
1F
100
AcDbEntity
  8
FASEN
  6
Continuous
 62
     9
100
AcDbLine
 10
74.5483137045
 20
303.7526699679
 30
0.0
 11
74.5483137045
 21
304.1526699679
 31
0.0
  0
LINE
  5
8A
330
1F
100
AcDbEntity
  8
0
  6
Continuous
 62
     7
100
AcDbLine
 10
76.3007184403
 20
344.1526699679
 30
0.0
 11
76.3007184403
 21
304.1526699679
 31
0.0
  0
LINE
  5
8B
330
1F
100
AcDbEntity
  8
0
  6
Continuous
 62
     7
100
AcDbLine
 10
76.3007184403
 20
284.1526699679
 30
0.0
 11
76.3007184403
 21
262.6526699679
 31
0.0
  0
LINE
  5
8C
330
1F
100
AcDbEntity
  8
0
  6
Continuous
 62
     7
100
AcDbLine
 10
76.3007184403
 20
255.3229133372
 30
0.0
 11
76.3007184403
 21
244.1526699679
 31
0.0
  0
LINE
  5
8D
330
1F
100
AcDbEntity
  8
0
  6
Continuous
 62
     7
100
AcDbLine
 10
77.6733137045
 20
341.7752318055
 30
0.0
 11
77.6733137045
 21
304.1526699679
 31
0.0
  0
LINE
  5
8E
330
1F
100
AcDbEntity
  8
0
  6
Continuous
 62
     7
100
AcDbLine
 10
77.6733137045
 20
284.1526699679
 30
0.0
 11
77.6733137045
 21
262.6526699679
 31
0.0
  0
LINE
  5
8F
330
1F
100
AcDbEntity
  8
0
  6
Continuous
 62
     7
100
AcDbLine
 10
77.6733137045
 20
246.5301122376
 30
0.0
 11
77.6733137045
 21
259.2707262147
 31
0.0
  0
LINE
  5
90
330
1F
100
AcDbEntity
  8
0
  6
Continuous
 62
     9
100
AcDbLine
 10
78.6733137045
 20
248.1526699679
 30
0.0
 11
78.6733137045
 21
260.6302893842
 31
0.0
  0
LINE
  5
91
330
1F
100
AcDbEntity
  8
0
  6
Continuous
 62
     9
100
AcDbLine
 10
78.6733137045
 20
262.6526699679
 30
0.0
 11
78.6733137045
 21
284.1526699679
 31
0.0
  0
LINE
  5
92
330
1F
100
AcDbEntity
  8
0
  6
Continuous
 62
     9
100
AcDbLine
 10
78.6733137045
 20
304.1526699679
 30
0.0
 11
78.6733137045
 21
340.1526699679
 31
0.0
  0
LINE
  5
93
330
1F
100
AcDbEntity
  8
0
  6
Continuous
 62
     9
100
AcDbLine
 10
80.4233137045
 20
248.1526699679
 30
0.0
 11
80.4233137045
 21
260.6302893842
 31
0.0
  0
LINE
  5
94
330
1F
100
AcDbEntity
  8
0
  6
Continuous
 62
     9
100
AcDbLine
 10
80.4233137045
 20
262.6526699679
 30
0.0
 11
80.4233137045
 21
284.1526699679
 31
0.0
  0
LINE
  5
95
330
1F
100
AcDbEntity
  8
0
  6
Continuous
 62
     9
100
AcDbLine
 10
80.4233137045
 20
304.1526699679
 30
0.0
 11
80.4233137045
 21
340.1526699679
 31
0.0
  0
LINE
  5
96
330
1F
100
AcDbEntity
  8
0
  6
Continuous
 62
     7
100
AcDbLine
 10
81.4233137045
 20
246.5301122376
 30
0.0
 11
81.4233137045
 21
259.2707262147
 31
0.0
  0
LINE
  5
97
330
1F
100
AcDbEntity
  8
0
  6
Continuous
 62
     7
100
AcDbLine
 10
81.4233137045
 20
262.6526699679
 30
0.0
 11
81.4233137045
 21
284.1526699679
 31
0.0
  0
LINE
  5
98
330
1F
100
AcDbEntity
  8
0
  6
Continuous
 62
     7
100
AcDbLine
 10
81.4233137045
 20
304.1526699679
 30
0.0
 11
81.4233137045
 21
341.7752318055
 31
0.0
  0
LINE
  5
99
330
1F
100
AcDbEntity
  8
0
  6
Continuous
 62
     7
100
AcDbLine
 10
82.7959089687
 20
344.1526699679
 30
0.0
 11
82.7959089687
 21
304.1526699679
 31
0.0
  0
LINE
  5
9A
330
1F
100
AcDbEntity
  8
0
  6
Continuous
 62
     7
100
AcDbLine
 10
82.7959089687
 20
284.1526699679
 30
0.0
 11
82.7959089687
 21
262.6526699679
 31
0.0
  0
LINE
  5
9B
330
1F
100
AcDbEntity
  8
0
  6
Continuous
 62
     7
100
AcDbLine
 10
82.7959089687
 20
255.3229133372
 30
0.0
 11
82.7959089687
 21
244.1526699679
 31
0.0
  0
LINE
  5
9C
330
1F
100
AcDbEntity
  8
0
  6
Continuous
 62
     7
100
AcDbLine
 10
88.5483137045
 20
344.1526330468
 30
0.0
 11
88.5483137045
 21
304.1526699679
 31
0.0
  0
LINE
  5
9D
330
1F
100
AcDbEntity
  8
0
  6
Continuous
 62
     7
100
AcDbLine
 10
88.5483137045
 20
284.1526699679
 30
0.0
 11
88.5483137045
 21
262.6526699679
 31
0.0
  0
LINE
  5
9E
330
1F
100
AcDbEntity
  8
0
  6
Continuous
 62
     7
100
AcDbLine
 10
88.5483137045
 20
255.3229133372
 30
0.0
 11
88.5483137045
 21
244.1526718357
 31
0.0
  0
LINE
  5
9F
330
1F
100
AcDbEntity
  8
FASEN
  6
Continuous
 62
     7
100
AcDbLine
 10
88.5483137045
 20
255.3229133372
 30
0.0
 11
88.5483137045
 21
262.6526699679
 31
0.0
  0
LINE
  5
A0
330
1F
100
AcDbEntity
  8
FASEN
  6
Continuous
 62
     7
100
AcDbLine
 10
88.5483137045
 20
284.1526699679
 30
0.0
 11
88.5483137045
 21
304.1526699679
 31
0.0
  0
LINE
  5
A1
330
1F
100
AcDbEntity
  8
BEZUGSACHSEN
  6
Continuous
 62
     9
100
AcDbLine
 10
9.5483137045
 20
280.7064859989
 30
0.0
 11
11.5483137045
 21
281.7490300195
 31
0.0
  0
LINE
  5
A2
330
1F
100
AcDbEntity
  8
BEZUGSACHSEN
  6
Continuous
 62
     7
100
AcDbLine
 10
76.3007184403
 20
244.1526699679
 30
0.0
 11
59.5483137045
 21
244.1526699679
 31
0.0
  0
LINE
  5
A3
330
1F
100
AcDbEntity
  8
BEZUGSACHSEN
  6
Continuous
 62
     7
100
AcDbLine
 10
82.7959089687
 20
244.1526699679
 30
0.0
 11
88.5483137045
 21
244.1526699679
 31
0.0
  0
LINE
  5
A4
330
1F
100
AcDbEntity
  8
BEZUGSACHSEN
  6
Continuous
 62
     7
100
AcDbLine
 10
78.6733137045
 20
248.1526699679
 30
0.0
 11
80.4233137045
 21
248.1526699679
 31
0.0
  0
LINE
  5
A5
330
1F
100
AcDbEntity
  8
BEZUGSACHSEN
  6
Continuous
 62
     9
100
AcDbLine
 10
11.5483137045
 20
306.5563099163
 30
0.0
 11
9.5483137045
 21
307.5988539369
 31
0.0
  0
LINE
  5
A6
330
1F
100
AcDbEntity
  8
FASEN
  6
Continuous
 62
     7
100
AcDbLine
 10
64.9497996689
 20
255.3229133372
 30
0.0
 11
76.3007184403
 21
255.3229133372
 31
0.0
  0
LINE
  5
A7
330
1F
100
AcDbEntity
  8
0
  6
Continuous
 62
     7
100
AcDbLine
 10
82.7959089687
 20
255.3229133372
 30
0.0
 11
88.5483137045
 21
255.3229133372
 31
0.0
  0
LINE
  5
A8
330
1F
100
AcDbEntity
  8
BEZUGSACHSEN
  6
Continuous
 62
     7
100
AcDbLine
 10
58.8477424158
 20
256.4704199679
 30
0.0
 11
57.9263763636
 21
256.4704199679
 31
0.0
  0
LINE
  5
A9
330
1F
100
AcDbEntity
  8
BEZUGSACHSEN
  6
Continuous
 62
     7
100
AcDbLine
 10
11.4482392198
 20
258.5549836996
 30
0.0
 11
57.0483137045
 21
256.2704199679
 31
0.0
  0
LINE
  5
AA
330
1F
100
AcDbEntity
  8
RUNDUNGEN
  6
Continuous
 62
     9
100
AcDbLine
 10
104.2004876175
 20
313.6315360478
 30
0.0
 11
104.2004876175
 21
274.6738038879
 31
0.0
  0
LINE
  5
AB
330
1F
100
AcDbEntity
  8
0
  6
Continuous
 62
     7
100
AcDbLine
 10
78.6733137045
 20
260.6302893842
 30
0.0
 11
80.4233137045
 21
260.6302893842
 31
0.0
  0
LINE
  5
AC
330
1F
100
AcDbEntity
  8
FASEN
  6
Continuous
 62
     7
100
AcDbLine
 10
72.5201876263
 20
262.2526699679
 30
0.0
 11
88.5483137045
 21
262.2526699679
 31
0.0
  0
LINE
  5
AD
330
1F
100
AcDbEntity
  8
0
  6
Continuous
 62
     7
100
AcDbLine
 10
72.5201876263
 20
262.6526699679
 30
0.0
 11
88.5483137045
 21
262.6526699679
 31
0.0
  0
LINE
  5
AE
330
1F
100
AcDbEntity
  8
BEZUGSACHSEN
  6
Continuous
 62
     7
100
AcDbLine
 10
76.3007184403
 20
244.1526699679
 30
0.0
 11
77.6733137045
 21
246.5300747037
 31
0.0
  0
LINE
  5
AF
330
1F
100
AcDbEntity
  8
RUNDUNGEN
  6
Continuous
 62
     7
100
AcDbLine
 10
258.6267728002
 20
283.5801431258
 30
0.0
 11
221.429699496
 21
280.6526699679
 31
0.0
  0
LINE
  5
B0
330
1F
100
AcDbEntity
  8
0
  6
Continuous
 62
     7
100
AcDbLine
 10
221.429699496
 20
280.6526699679
 30
0.0
 11
258.6267728002
 21
283.5801431258
 31
0.0
  0
LINE
  5
B1
330
1F
100
AcDbEntity
  8
BEZUGSACHSEN
  6
Continuous
 62
     7
100
AcDbLine
 10
76.3007184403
 20
344.1526699679
 30
0.0
 11
77.6733137045
 21
341.7752652321
 31
0.0
  0
LINE
  5
B2
330
1F
100
AcDbEntity
  8
BEZUGSACHSEN
  6
Continuous
 62
     7
100
AcDbLine
 10
57.6675573185
 20
256.4363457942
 30
0.0
 11
57.0483137045
 21
256.2704199679
 31
0.0
  0
LINE
  5
B3
330
1F
100
AcDbEntity
  8
BEZUGSACHSEN
  6
Continuous
 62
     9
100
AcDbLine
 10
19.1021596514
 20
279.1426699679
 30
0.0
 11
10.8152666315
 21
279.1426699679
 31
0.0
  0
LINE
  5
B4
330
1F
100
AcDbEntity
  8
0
  6
Continuous
 62
     7
100
AcDbLine
 10
221.429699496
 20
280.6526699679
 30
0.0
 11
158.5483137045
 21
280.6526699679
 31
0.0
  0
LINE
  5
B5
330
1F
100
AcDbEntity
  8
BEZUGSACHSEN
  6
Continuous
 62
     7
100
AcDbLine
 10
17.5483137045
 20
284.1426699679
 30
0.0
 11
11.5483137045
 21
284.1426699679
 31
0.0
  0
LINE
  5
B6
330
1F
100
AcDbEntity
  8
0
  6
Continuous
 62
     7
100
AcDbLine
 10
74.5483137045
 20
284.1526699679
 30
0.0
 11
88.5483137045
 21
284.1526699679
 31
0.0
  0
LINE
  5
B7
330
1F
100
AcDbEntity
  8
FASEN
  6
Continuous
 62
     7
100
AcDbLine
 10
88.5483137045
 20
284.5526699679
 30
0.0
 11
74.5483137045
 21
284.5526699679
 31
0.0
  0
LWPOLYLINE
  5
B8
330
1F
100
AcDbEntity
  8
DEFAULT_2
  6
DASHED
 62
     8
100
AcDbPolyline
 90
        2
 70
     0
 43
0.35
 10
259.5483137045
 20
290.1526699679
 10
223.5483137045
 20
290.1526699679
  0
LWPOLYLINE
  5
B9
330
1F
100
AcDbEntity
  8
BEZUGSACHSEN
  6
DOT_CENTER
 62
     7
100
AcDbPolyline
 90
        2
 70
     0
 43
0.25
 10
262.5483137045
 20
294.1526699679
 10
6.5483137045
 20
294.1526699679
  0
LWPOLYLINE
  5
BA
330
1F
100
AcDbEntity
  8
DEFAULT_2
  6
DASHED
 62
     8
100
AcDbPolyline
 90
        2
 70
     0
 43
0.35
 10
259.5483137045
 20
298.1526699679
 10
223.5483137045
 20
298.1526699679
  0
LINE
  5
BB
330
1F
100
AcDbEntity
  8
FASEN
  6
Continuous
 62
     7
100
AcDbLine
 10
74.5483137045
 20
303.7526699679
 30
0.0
 11
88.5483137045
 21
303.7526699679
 31
0.0
  0
LINE
  5
BC
330
1F
100
AcDbEntity
  8
0
  6
Continuous
 62
     7
100
AcDbLine
 10
74.5483137045
 20
304.1526699679
 30
0.0
 11
88.5483137045
 21
304.1526699679
 31
0.0
  0
LINE
  5
BD
330
1F
100
AcDbEntity
  8
BEZUGSACHSEN
  6
Continuous
 62
     7
100
AcDbLine
 10
17.5483137045
 20
304.1626699679
 30
0.0
 11
11.5483137045
 21
304.1626699679
 31
0.0
  0
LINE
  5
BE
330
1F
100
AcDbEntity
  8
0
  6
Continuous
 62
     7
100
AcDbLine
 10
221.429699496
 20
307.6526699679
 30
0.0
 11
158.5483137045
 21
307.6526699679
 31
0.0
  0
LINE
  5
BF
330
1F
100
AcDbEntity
  8
BEZUGSACHSEN
  6
Continuous
 62
     9
100
AcDbLine
 10
10.8152666315
 20
309.1626699679
 30
0.0
 11
19.1021596514
 21
309.1626699679
 31
0.0
  0
LINE
  5
C0
330
1F
100
AcDbEntity
  8
BEZUGSACHSEN
  6
Continuous
 62
     7
100
AcDbLine
 10
57.6675573185
 20
331.8689941416
 30
0.0
 11
57.0483137045
 21
332.0349199679
 31
0.0
  0
LINE
  5
C1
330
1F
100
AcDbEntity
  8
0
  6
Continuous
 62
     9
100
AcDbLine
 10
158.5483137045
 20
307.6526699679
 30
0.0
 11
158.5483137045
 21
280.6526699679
 31
0.0
  0
LINE
  5
C2
330
1F
100
AcDbEntity
  8
RUNDUNGEN
  6
Continuous
 62
     7
100
AcDbLine
 10
258.6267728002
 20
304.72519681
 30
0.0
 11
221.429699496
 21
307.6526699679
 31
0.0
  0
LINE
  5
C3
330
1F
100
AcDbEntity
  8
0
  6
Continuous
 62
     7
100
AcDbLine
 10
221.429699496
 20
307.6526699679
 30
0.0
 11
258.6267728002
 21
304.72519681
 31
0.0
  0
LINE
  5
C4
330
1F
100
AcDbEntity
  8
BEZUGSACHSEN
  6
Continuous
 62
     7
100
AcDbLine
 10
57.0483137045
 20
332.0349199679
 30
0.0
 11
11.4482392198
 21
329.7503562362
 31
0.0
  0
LINE
  5
C5
330
1F
100
AcDbEntity
  8
BEZUGSACHSEN
  6
Continuous
 62
     7
100
AcDbLine
 10
58.8477424158
 20
331.8349199679
 30
0.0
 11
57.9263763636
 21
331.8349199679
 31
0.0
  0
LINE
  5
C6
330
1F
100
AcDbEntity
  8
BEZUGSACHSEN
  6
Continuous
 62
     7
100
AcDbLine
 10
78.6733137045
 20
340.1526699679
 30
0.0
 11
80.4233137045
 21
340.1526699679
 31
0.0
  0
LINE
  5
C7
330
1F
100
AcDbEntity
  8
BEZUGSACHSEN
  6
Continuous
 62
     7
100
AcDbLine
 10
76.3007184403
 20
344.1526699679
 30
0.0
 11
71.5483137045
 21
344.1526699679
 31
0.0
  0
LINE
  5
C8
330
1F
100
AcDbEntity
  8
BEZUGSACHSEN
  6
Continuous
 62
     7
100
AcDbLine
 10
61.5483137045
 20
344.1526699679
 30
0.0
 11
59.5483137045
 21
344.1526699679
 31
0.0
  0
LINE
  5
C9
330
1F
100
AcDbEntity
  8
BEZUGSACHSEN
  6
Continuous
 62
     7
100
AcDbLine
 10
82.7959089687
 20
344.1526699679
 30
0.0
 11
88.5483137045
 21
344.1526699679
 31
0.0
  0
LINE
  5
CA
330
1F
100
AcDbEntity
  8
0
  6
Continuous
 62
     7
100
AcDbLine
 10
221.429699496
 20
307.6526699679
 30
0.0
 11
221.429699496
 21
280.6526699679
 31
0.0
  0
LWPOLYLINE
  5
CB
330
1F
100
AcDbEntity
  8
DEFAULT_2
  6
DASHED
 62
     8
100
AcDbPolyline
 90
        2
 70
     0
 43
0.35
 10
223.5483137045
 20
298.1526699679
 10
223.5483137045
 20
290.1526699679
  0
LINE
  5
CC
330
1F
100
AcDbEntity
  8
RUNDUNGEN
  6
Continuous
 62
     9
100
AcDbLine
 10
258.6267728002
 20
283.5801431258
 30
0.0
 11
258.6267728002
 21
304.72519681
 31
0.0
  0
LINE
  5
CD
330
1F
100
AcDbEntity
  8
RUNDUNGEN
  6
Continuous
 62
     7
100
AcDbLine
 10
259.5483137045
 20
284.5770604595
 30
0.0
 11
259.5483137045
 21
303.7282794762
 31
0.0
  0
LWPOLYLINE
  5
CE
330
1F
100
AcDbEntity
  8
1
  6
Continuous
 62
     7
100
AcDbPolyline
 90
        2
 70
     0
 43
0.25
 10
259.5483137045
 20
303.7282794762
 10
259.5483137045
 20
304.6526699679528
  0
LWPOLYLINE
  5
CF
330
1F
100
AcDbEntity
  8
1
  6
Continuous
 62
     7
100
AcDbPolyline
 90
        2
 70
     0
 43
0.25
 10
258.6267728002
 20
304.72519681
 10
259.5483137045094
 20
304.6526699679528
  0
LWPOLYLINE
  5
D0
330
1F
100
AcDbEntity
  8
1
  6
Continuous
 62
     7
100
AcDbPolyline
 90
        2
 70
     0
 43
0.25
 10
258.6267728002
 20
283.5801431258
 10
259.5483137045
 20
283.6526699678487
  0
LWPOLYLINE
  5
D1
330
1F
100
AcDbEntity
  8
1
  6
Continuous
 62
     7
100
AcDbPolyline
 90
        2
 70
     0
 43
0.25
 10
259.5483137045
 20
284.5770604595
 10
259.5483137045
 20
283.6526699678487
  0
ARC
  5
D2
330
1F
100
AcDbEntity
  8
FASEN
  6
Continuous
 62
     7
100
AcDbCircle
 10
77.4489677274
 20
269.6839332379
 30
0.0
 40
19.03859487309968
100
AcDbArc
 50
227.483770198299
 51
228.965195337302
  0
ARC
  5
D3
330
1F
100
AcDbEntity
  8
FASEN
  6
Continuous
 62
     7
100
AcDbCircle
 10
72.5201876263
 20
254.6526699679
 30
0.0
 40
8.0
100
AcDbArc
 50
90.0
 51
172.8323734889971
  0
ARC
  5
D4
330
1F
100
AcDbEntity
  8
FASEN
  6
Continuous
 62
     7
100
AcDbCircle
 10
72.5201876263
 20
254.6526699679
 30
0.0
 40
7.599982194900008
100
AcDbArc
 50
90.0
 51
174.9405171273017
  0
ARC
  5
D5
330
1F
100
AcDbEntity
  8
BEZUGSACHSEN
  6
Continuous
 62
     7
100
AcDbCircle
 10
17.5483137045
 20
286.1426699679
 30
0.0
 40
2.0
100
AcDbArc
 50
270.0
 51
359.9999999999137
  0
ARC
  5
D6
330
1F
100
AcDbEntity
  8
BEZUGSACHSEN
  6
Continuous
 62
     7
100
AcDbCircle
 10
11.5483137045
 20
260.5524784048
 30
0.0
 40
2.0
100
AcDbArc
 50
179.9999999971356
 51
267.1318795135585
  0
ARC
  5
D7
330
1F
100
AcDbEntity
  8
BEZUGSACHSEN
  6
Continuous
 62
     7
100
AcDbCircle
 10
78.6733137045
 20
247.1526699679
 30
0.0
 40
1.0
100
AcDbArc
 50
90.0
 51
180.0
  0
ARC
  5
D8
330
1F
100
AcDbEntity
  8
BEZUGSACHSEN
  6
Continuous
 62
     7
100
AcDbCircle
 10
57.9263763636
 20
255.4704199679
 30
0.0
 40
1.0
100
AcDbArc
 50
90.0
 51
104.9999999996981
  0
ARC
  5
D9
330
1F
100
AcDbEntity
  8
BEZUGSACHSEN
  6
Continuous
 62
     7
100
AcDbCircle
 10
58.8477424158
 20
255.4704199679
 30
0.0
 40
0.9999999999998127
100
AcDbArc
 50
45.49026120128689
 51
90.0
  0
ARC
  5
DA
330
1F
100
AcDbEntity
  8
0
  6
Continuous
 62
     7
100
AcDbCircle
 10
-165.049466178
 20
363.5871375583
 30
0.0
 40
264.5204223901892
100
AcDbArc
 50
335.840076470599
 51
336.5770705490999
  0
ARC
  5
DB
330
1F
100
AcDbEntity
  8
BEZUGSACHSEN
  6
Continuous
 62
     7
100
AcDbCircle
 10
66.5635217156
 20
394.2054397348
 30
0.0
 40
50.30340021045197
100
AcDbArc
 50
264.2781515102013
 51
269.9826780125999
  0
ARC
  5
DC
330
1F
100
AcDbEntity
  8
BEZUGSACHSEN
  6
Continuous
 62
     7
100
AcDbCircle
 10
66.5331057034
 20
394.2054395339
 30
0.0
 40
50.30340000949738
100
AcDbArc
 50
270.017321976058
 51
275.7218485012792
  0
ARC
  5
DD
330
1F
100
AcDbEntity
  8
0
  6
Continuous
 62
     7
100
AcDbCircle
 10
74.5483137045
 20
294.1526699679
 30
0.0
 40
10.0
100
AcDbArc
 50
90.0
 51
270.0
  0
ARC
  5
DE
330
1F
100
AcDbEntity
  8
FASEN
  6
Continuous
 62
     7
100
AcDbCircle
 10
74.5483137045
 20
294.1526699679
 30
0.0
 40
9.599999195900011
100
AcDbArc
 50
90.0
 51
270.0
  0
ARC
  5
DF
330
1F
100
AcDbEntity
  8
BEZUGSACHSEN
  6
Continuous
 62
     7
100
AcDbCircle
 10
17.5483137045
 20
302.1626699679
 30
0.0
 40
2.0
100
AcDbArc
 50
0.0
 51
90.0
  0
ARC
  5
E0
330
1F
100
AcDbEntity
  8
BEZUGSACHSEN
  6
Continuous
 62
     7
100
AcDbCircle
 10
11.5483137045
 20
327.7528615309
 30
0.0
 40
2.000000000047347
100
AcDbArc
 50
92.8681204862982
 51
180.0000000143238
  0
ARC
  5
E1
330
1F
100
AcDbEntity
  8
BEZUGSACHSEN
  6
Continuous
 62
     7
100
AcDbCircle
 10
78.6733137045
 20
341.1526699679
 30
0.0
 40
1.0
100
AcDbArc
 50
180.0
 51
270.0
  0
ARC
  5
E2
330
1F
100
AcDbEntity
  8
BEZUGSACHSEN
  6
Continuous
 62
     7
100
AcDbCircle
 10
57.9263763636
 20
332.8349199679
 30
0.0
 40
1.000000000009914
100
AcDbArc
 50
255.0000000003019
 51
270.0
  0
ARC
  5
E3
330
1F
100
AcDbEntity
  8
BEZUGSACHSEN
  6
Continuous
 62
     7
100
AcDbCircle
 10
58.8477424158
 20
332.8349199679
 30
0.0
 40
1.0
100
AcDbArc
 50
270.0
 51
314.5097387987131
  0
ARC
  5
E4
330
1F
100
AcDbEntity
  8
BEZUGSACHSEN
  6
Continuous
 62
     7
100
AcDbCircle
 10
195.8783603027
 20
-1311.8900893221
 30
0.0
 40
1632.172763697999
100
AcDbArc
 50
96.2726189838
 51
96.48809068979999
  0
ARC
  5
E5
330
1F
100
AcDbEntity
  8
0
  6
Continuous
 62
     7
100
AcDbCircle
 10
158.5483137045
 20
30.6526699679
 30
0.0
 40
250.0
100
AcDbArc
 50
90.0
 51
102.5558577985977
  0
ARC
  5
E6
330
1F
100
AcDbEntity
  8
RUNDUNGEN
  6
Continuous
 62
     7
100
AcDbCircle
 10
158.5483137045
 20
30.6526699679
 30
0.0
 40
250.0
100
AcDbArc
 50
90.0
 51
102.5558577985977
  0
ARC
  5
E7
330
1F
100
AcDbEntity
  8
RUNDUNGEN
  6
Continuous
 62
     7
100
AcDbCircle
 10
108.5483137045
 20
255.1521131743
 30
0.0
 40
20.00000000000637
100
AcDbArc
 50
102.5558577987095
 51
179.5107663282992
  0
ARC
  5
E8
330
1F
100
AcDbEntity
  8
RUNDUNGEN
  6
Continuous
 62
     7
100
AcDbCircle
 10
258.5483137045
 20
284.5770604595
 30
0.0
 40
0.9999999999647582
100
AcDbArc
 50
274.4999999985585
 51
0.0
  0
ARC
  5
E9
330
1F
100
AcDbEntity
  8
BEZUGSACHSEN
  6
Continuous
 62
     7
100
AcDbCircle
 10
80.4233137045
 20
247.1526699679
 30
0.0
 40
1.0
100
AcDbArc
 50
0.0
 51
90.0
  0
ARC
  5
EA
330
1F
100
AcDbEntity
  8
BEZUGSACHSEN
  6
Continuous
 62
     7
100
AcDbCircle
 10
195.878360308
 20
1900.1954293051
 30
0.0
 40
1632.1727637455
100
AcDbArc
 50
263.5119093102
 51
263.7273810162
  0
ARC
  5
EB
330
1F
100
AcDbEntity
  8
0
  6
Continuous
 62
     7
100
AcDbCircle
 10
324.1460935877
 20
363.5871375586
 30
0.0
 40
264.5204223909001
100
AcDbArc
 50
203.4229294509001
 51
204.1599235293982
  0
ARC
  5
EC
330
1F
100
AcDbEntity
  8
0
  6
Continuous
 62
     7
100
AcDbCircle
 10
158.5483137045
 20
557.6526699679
 30
0.0
 40
250.0000000000684
100
AcDbArc
 50
257.4441422014073
 51
270.0
  0
ARC
  5
ED
330
1F
100
AcDbEntity
  8
RUNDUNGEN
  6
Continuous
 62
     7
100
AcDbCircle
 10
158.5483137045
 20
557.6526699679
 30
0.0
 40
250.0000000000684
100
AcDbArc
 50
257.4441422014073
 51
270.0
  0
ARC
  5
EE
330
1F
100
AcDbEntity
  8
RUNDUNGEN
  6
Continuous
 62
     7
100
AcDbCircle
 10
108.5483137045
 20
333.1532267614
 30
0.0
 40
20.0
100
AcDbArc
 50
180.0
 51
257.4441422012904
  0
ARC
  5
EF
330
1F
100
AcDbEntity
  8
RUNDUNGEN
  6
Continuous
 62
     7
100
AcDbCircle
 10
258.5483137045
 20
303.7282794762
 30
0.0
 40
1.0
100
AcDbArc
 50
0.0
 51
85.50000000189128
  0
ARC
  5
F0
330
1F
100
AcDbEntity
  8
BEZUGSACHSEN
  6
Continuous
 62
     7
100
AcDbCircle
 10
80.4233137045
 20
341.1526699679
 30
0.0
 40
1.0
100
AcDbArc
 50
270.0
 51
0.0
  0
CIRCLE
  5
F1
330
1F
100
AcDbEntity
  8
BEZUGSACHSEN
  6
Continuous
 62
     7
100
AcDbCircle
 10
44.5483137045
 20
294.1526699679
 30
0.0
 40
6.0
  0
SPLINE
  5
F2
330
1F
100
AcDbEntity
  8
BEZUGSACHSEN
  6
Continuous
 62
     7
100
AcDbSpline
210
0.0
220
0.0
230
1.0
 70
     8
 71
     3
 72
    19
 73
    15
 74
    13
 42
0.0000000001
 43
0.0000000001
 44
0.00000001
 40
0.0
 40
0.0
 40
0.0
 40
0.0
 40
0.2679411643344683
 40
0.5361267936841351
 40
0.8065304773472218
 40
1.076465993216761
 40
1.213913376149541
 40
1.351353104892731
 40
1.491586367075058
 40
1.63180789755473
 40
1.775491562744973
 40
1.919219204719302
 40
2.065713007385097
 40
2.211936409334859
 40
2.211936409334859
 40
2.211936409334859
 40
2.211936409334859
 10
19.1021596514
 20
279.1426699679
 30
0.0
 10
19.06826540760105
 20
279.0599983881964
 30
0.0
 10
19.00044599546477
 20
278.8945798006293
 30
0.0
 10
18.87580748919212
 20
278.6559138269627
 30
0.0
 10
18.73089668988856
 20
278.4282258309409
 30
0.0
 10
18.58785305837293
 20
278.2524213396104
 30
0.0
 10
18.45874667145311
 20
278.1244716204783
 30
0.0
 10
18.35263157237148
 20
278.0353845996662
 30
0.0
 10
18.23782214471651
 20
277.9560829593485
 30
0.0
 10
18.11336253249317
 20
277.8884124919184
 30
0.0
 10
17.98050897737693
 20
277.8356098052289
 30
0.0
 10
17.8398581785056
 20
277.8004435412237
 30
0.0
 10
17.69453279540017
 20
277.7840913392842
 30
0.0
 10
17.5970233763363
 20
277.7907140726355
 30
0.0
 10
17.5483137045
 20
277.7940223804
 30
0.0
 11
19.1021596514
 21
279.1426699679
 31
0.0
 11
18.99672239168354
 21
278.8963460920609
 31
0.0
 11
18.87285287612422
 21
278.6584808467964
 31
0.0
 11
18.72650738984594
 21
278.4311019762201
 31
0.0
 11
18.55525519872313
 21
278.2224446740153
 31
0.0
 11
18.45746276002113
 21
278.1258609175767
 31
0.0
 11
18.35204577074157
 21
278.037673971784
 31
0.0
 11
18.23650712701885
 21
277.9581995128113
 31
0.0
 11
18.11318511713798
 21
277.8914630198782
 31
0.0
 11
17.97955442896829
 21
277.8386630689143
 31
0.0
 11
17.84012672777252
 21
277.8037696425023
 31
0.0
 11
17.69443228922226
 21
277.788486815702
 31
0.0
 11
17.5483137045
 21
277.7940223804
 31
0.0
  0
SPLINE
  5
F3
330
1F
100
AcDbEntity
  8
BEZUGSACHSEN
  6
Continuous
 62
     7
100
AcDbSpline
210
0.0
220
0.0
230
1.0
 70
     8
 71
     3
 72
    47
 73
    43
 74
    41
 42
0.0000000001
 43
0.0000000001
 44
0.00000001
 40
0.0
 40
0.0
 40
0.0
 40
0.0
 40
0.6302393214461303
 40
1.26085486730339
 40
1.577476088392121
 40
1.89393080022668
 40
2.210999113873339
 40
2.528183472209187
 40
3.164887038235273
 40
3.801951183374669
 40
4.442851001611523
 40
5.083381259812848
 40
5.404527292355072
 40
5.725573838808835
 40
6.046670710068042
 40
6.367871027167942
 40
7.009090242526749
 40
7.650619763935971
 40
8.29033034649712
 40
8.92995876450598
 40
9.56864701137391
 40
10.20735923014567
 40
10.84445705814881
 40
11.48152626493257
 40
12.11643462219375
 40
12.75141965577741
 40
13.38691908739623
 40
14.02211738534812
 40
14.34050449145591
 40
14.65879153793257
 40
14.97761586868931
 40
15.29653774945344
 40
15.93537694102642
 40
16.57458694069956
 40
17.21386274993698
 40
17.85277859074231
 40
18.17219860081195
 40
18.49150024074467
 40
18.81067156634893
 40
19.13001452423027
 40
19.76719627027925
 40
20.40398968278047
 40
20.40398968278047
 40
20.40398968278047
 40
20.40398968278047
 10
51.0477273423
 20
294.1526699866
 30
0.0
 10
51.04185814055577
 20
293.9425139647145
 30
0.0
 10
51.03011623341894
 20
293.5220764672898
 30
0.0
 10
50.95066949085646
 20
293.0009130250394
 30
0.0
 10
50.8599379857956
 20
292.5895215576091
 30
0.0
 10
50.77633260350386
 20
292.2838837173053
 30
0.0
 10
50.67798066213768
 20
291.9824998711101
 30
0.0
 10
50.52696185128323
 20
291.586526691521
 30
0.0
 10
50.30167926367628
 20
291.1054198828501
 30
0.0
 10
49.97530122892262
 20
290.5557856578565
 30
0.0
 10
49.59543416689519
 20
290.0400577951697
 30
0.0
 10
49.23717972760117
 20
289.6425323929398
 30
0.0
 10
48.92799898989966
 20
289.3469790380035
 30
0.0
 10
48.68507403385676
 20
289.1367941295738
 30
0.0
 10
48.43202513054361
 20
288.9388846652538
 30
0.0
 10
48.08224262210896
 20
288.6922613137858
 30
0.0
 10
47.62275738437087
 20
288.4170547045103
 30
0.0
 10
47.04236167740682
 20
288.1430145978021
 30
0.0
 10
46.43820736955469
 20
287.9278261204511
 30
0.0
 10
45.816792222139
 20
287.7731642814127
 30
0.0
 10
45.18352301070772
 20
287.6803539083774
 30
0.0
 10
44.54506354628796
 20
287.6498431585692
 30
0.0
 10
43.90723053274909
 20
287.6819449009519
 30
0.0
 10
43.27680054576072
 20
287.7757579633279
 30
0.0
 10
42.65922687625809
 20
287.9304717796186
 30
0.0
 10
42.06008346480844
 20
288.1442683516941
 30
0.0
 10
41.4846262433186
 20
288.4155897201408
 30
0.0
 10
41.02894085035315
 20
288.6874346037854
 30
0.0
 10
40.68168495262281
 20
288.9308951563868
 30
0.0
 10
40.43006537134109
 20
289.1263776827107
 30
0.0
 10
40.18819032107731
 20
289.3340707413989
 30
0.0
 10
39.87925403739379
 20
289.6269082895298
 30
0.0
 10
39.52041128050608
 20
290.0213659384819
 30
0.0
 10
39.13818437526982
 20
290.5348506044473
 30
0.0
 10
38.8085599300092
 20
291.0836183831575
 30
0.0
 10
38.58007248408485
 20
291.565681799631
 30
0.0
 10
38.42657098411829
 20
291.9630913587826
 30
0.0
 10
38.32631418119263
 20
292.2663737220654
 30
0.0
 10
38.24099768827018
 20
292.5741975937794
 30
0.0
 10
38.148235232906
 20
292.9892384609068
 30
0.0
 10
38.06694286594943
 20
293.5155112599817
 30
0.0
 10
38.05490306645787
 20
293.9403269096783
 30
0.0
 10
38.0488850017
 20
294.1526699883
 30
0.0
 11
51.0477273423
 21
294.1526699866
 31
0.0
 11
51.01718776357876
 21
293.5231710299461
 31
0.0
 11
50.92585648805195
 21
292.8992042321215
 31
0.0
 11
50.85736174936542
 21
292.5900805215848
 31
0.0
 11
50.77394292452868
 21
292.2848185286915
 31
0.0
 11
50.67555618068962
 21
291.9834012694719
 31
0.0
 11
50.56252554958707
 21
291.6870400142352
 31
0.0
 11
50.29254541307473
 21
291.1104100142533
 31
0.0
 11
49.96720879122138
 21
290.5626812424115
 31
0.0
 11
49.58717229642528
 21
290.0466145416459
 31
0.0
 11
49.15832179873547
 21
289.5708349053618
 31
0.0
 11
48.92618466433836
 21
289.3489179725885
 31
0.0
 11
48.68340217098739
 21
289.1388523973217
 31
0.0
 11
48.43047256270365
 21
288.9410398244506
 31
0.0
 11
48.16795816689642
 21
288.7559565034866
 31
0.0
 11
47.61789998532462
 21
288.4264142770098
 31
0.0
 11
47.03775915366316
 21
288.15255894608
 31
0.0
 11
46.43515384334035
 21
287.9378580624966
 31
0.0
 11
45.81445457300037
 21
287.7834011787914
 31
0.0
 11
45.18252575909679
 21
287.6907262045769
 31
0.0
 11
44.54453963194686
 21
287.6602795303319
 31
0.0
 11
43.90824464383653
 21
287.6922534345664
 31
0.0
 11
43.27812136973093
 21
287.7860715227079
 31
0.0
 11
42.66223746148699
 21
287.94032985696
 31
0.0
 11
42.06420499165054
 21
288.1537851400911
 31
0.0
 11
41.48936924306884
 21
288.4247526468891
 31
0.0
 11
40.94390255552236
 21
288.7502414646664
 31
0.0
 11
40.68320026276825
 21
288.9330108928771
 31
0.0
 11
40.43185101098463
 21
289.1282804439664
 31
0.0
 11
40.18996771264604
 21
289.3359855808007
 31
0.0
 11
39.95851188134742
 21
289.5553924270658
 31
0.0
 11
39.5285888504672
 21
290.0279193577358
 31
0.0
 11
39.1469677110094
 21
290.5407104746645
 31
0.0
 11
38.81773623683036
 21
291.088688755882
 31
0.0
 11
38.54412192968633
 21
291.666052300417
 31
0.0
 11
38.42902967722637
 21
291.9640169229087
 31
0.0
 11
38.32878998879948
 21
292.2671761914917
 31
0.0
 11
38.24362290858085
 21
292.5747747993153
 31
0.0
 11
38.1736598810974
 21
292.8863596184798
 31
0.0
 11
38.0801709841169
 21
293.5166455882105
 31
0.0
 11
38.0488850017
 21
294.1526699883
 31
0.0
  0
SPLINE
  5
F4
330
1F
100
AcDbEntity
  8
BEZUGSACHSEN
  6
Continuous
 62
     7
100
AcDbSpline
210
0.0
220
0.0
230
1.0
 70
     8
 71
     3
 72
    27
 73
    23
 74
    21
 42
0.0000000001
 43
0.0000000001
 44
0.00000001
 40
0.0
 40
0.0
 40
0.0
 40
0.0
 40
0.1219765139516449
 40
0.2439857714748842
 40
0.3566831398333471
 40
0.4694418149629392
 40
0.5721317672948418
 40
0.6745445881155834
 40
0.7225206521221855
 40
0.7704888797708545
 40
0.8171412936045863
 40
0.863789873426746
 40
0.9102318000825882
 40
0.9566751324135273
 40
1.00417517574946
 40
1.05168310014286
 40
1.153672388761934
 40
1.256049376711161
 40
1.370745138132361
 40
1.48538540191329
 40
1.611534903948993
 40
1.737631875993862
 40
1.737631875993862
 40
1.737631875993862
 40
1.737631875993862
 10
10.6941563801
 20
278.9103339724
 30
0.0
 10
10.65890136249661
 20
278.8900544471351
 30
0.0
 10
10.58838186337621
 20
278.849489952737
 30
0.0
 10
10.48072946019036
 20
278.7986940918453
 30
0.0
 10
10.37257144431906
 20
278.7569424559763
 30
0.0
 10
10.26699222335066
 20
278.7275278708349
 30
0.0
 10
10.16216067820493
 20
278.7106132834467
 30
0.0
 10
10.07743300835556
 20
278.7087480602185
 30
0.0
 10
10.01160907195179
 20
278.7157033682381
 30
0.0
 10
9.964901868737735
 20
278.7249004953917
 30
0.0
 10
9.919721251433701
 20
278.7384339403789
 30
0.0
 10
9.876581640781898
 20
278.7562271991848
 30
0.0
 10
9.835627164203874
 20
278.7784555568888
 30
0.0
 10
9.796979737732842
 20
278.8049905885906
 30
0.0
 10
9.761073659099852
 20
278.8356858661219
 30
0.0
 10
9.715634337561596
 20
278.883223339242
 30
0.0
 10
9.667091197474866
 20
278.9523927063455
 30
0.0
 10
9.620865488507592
 20
279.0485507610689
 30
0.0
 10
9.586899614725017
 20
279.1541261940665
 30
0.0
 10
9.56394419054727
 20
279.2705438849752
 30
0.0
 10
9.550499632197546
 20
279.3922911936309
 30
0.0
 10
9.5490422458996
 20
279.4763945571479
 30
0.0
 10
9.5483137045
 20
279.5184374817
 30
0.0
 11
10.6941563801
 21
278.9103339724
 31
0.0
 11
10.58761175603946
 21
278.8509495212398
 31
0.0
 11
10.47731886687079
 21
278.7987792469431
 31
0.0
 11
10.37200085901836
 21
278.7586692225487
 31
0.0
 11
10.26327713047531
 21
278.7287749142496
 31
0.0
 11
10.16181297835416
 21
278.7129555544565
 31
0.0
 11
10.05941343776976
 21
278.7113063253744
 31
0.0
 11
10.01170958155721
 21
278.71640973796
 31
0.0
 11
9.964658811295765
 21
278.725746540494
 31
0.0
 11
9.919979243862343
 21
278.7391698027828
 31
0.0
 11
9.876873107266412
 21
278.7570009829793
 31
0.0
 11
9.836050514469553
 21
278.7791452478993
 31
0.0
 11
9.797763257923403
 21
278.8054334411459
 31
0.0
 11
9.761626160912847
 21
278.8362614209137
 31
0.0
 11
9.728773660540963
 21
278.8705792894298
 31
0.0
 11
9.669601266287138
 21
278.9536481930658
 31
0.0
 11
9.62470154268608
 21
279.0456539672439
 31
0.0
 11
9.589063383118589
 21
279.1546724944337
 31
0.0
 11
9.566211819752347
 21
279.2670121407367
 31
0.0
 11
9.552445063429793
 21
279.3924082064015
 31
0.0
 11
9.5483137045
 21
279.5184374817
 31
0.0
  0
SPLINE
  5
F5
330
1F
100
AcDbEntity
  8
BEZUGSACHSEN
  6
Continuous
 62
     7
100
AcDbSpline
210
0.0
220
0.0
230
1.0
 70
     8
 71
     3
 72
    15
 73
    11
 74
     9
 42
0.0000000001
 43
0.0000000001
 44
0.00000001
 40
0.0
 40
0.0
 40
0.0
 40
0.0
 40
0.1110371613695815
 40
0.2222522337394033
 40
0.3333980191928226
 40
0.4445069474965786
 40
0.5556201065443496
 40
0.6667525642513946
 40
0.7778876033878264
 40
0.8889820915721147
 40
0.8889820915721147
 40
0.8889820915721147
 40
0.8889820915721147
 10
11.4482392198
 20
278.4761375816
 30
0.0
 10
11.41159749291848
 20
278.4816697344195
 30
0.0
 10
11.33825532938478
 20
278.4927429040355
 30
0.0
 10
11.23173877938525
 20
278.525761467619
 30
0.0
 10
11.12932587163996
 20
278.569351755083
 30
0.0
 10
11.03187590600993
 20
278.6231312628976
 30
0.0
 10
10.93957111027756
 20
278.6852263982622
 30
0.0
 10
10.8525744821511
 20
278.7545130719142
 30
0.0
 10
10.77032172670672
 20
278.8293950235269
 30
0.0
 10
10.71954174030524
 20
278.8833576050188
 30
0.0
 10
10.6941563801
 20
278.9103339724
 30
0.0
 11
11.4482392198
 21
278.4761375816
 31
0.0
 11
11.33889693468978
 21
278.4954641408357
 31
0.0
 11
11.23240498112148
 21
278.5275305741801
 31
0.0
 11
11.13013680051432
 21
278.5710576331131
 31
0.0
 11
11.03273393405977
 21
278.6245167348195
 31
0.0
 11
10.94046216727315
 21
278.6864203305765
 31
0.0
 11
10.85336506386438
 21
278.7554458166944
 31
0.0
 11
10.77132515937783
 21
278.8304154838651
 31
0.0
 11
10.6941563801
 21
278.9103339724
 31
0.0
  0
SPLINE
  5
F6
330
1F
100
AcDbEntity
  8
BEZUGSACHSEN
  6
Continuous
 62
     7
100
AcDbSpline
210
0.0
220
0.0
230
1.0
 70
     8
 71
     3
 72
    27
 73
    23
 74
    21
 42
0.0000000001
 43
0.0000000001
 44
0.00000001
 40
0.0
 40
0.0
 40
0.0
 40
0.0
 40
0.1260969826399127
 40
0.2522464960193358
 40
0.3668867953474311
 40
0.4815825894733284
 40
0.5839596007345977
 40
0.6859489161816511
 40
0.7334568411038138
 40
0.7809568849483881
 40
0.8274002264987633
 40
0.8738421607873323
 40
0.9204907319980673
 40
0.9671431400543994
 40
1.015111401942526
 40
1.063087497242463
 40
1.165500418845307
 40
1.268190479079618
 40
1.380949154023397
 40
1.493646517904562
 40
1.615655563877369
 40
1.737631867740302
 40
1.737631867740302
 40
1.737631867740302
 40
1.737631867740302
 10
9.5483137045
 20
308.786902454
 30
0.0
 10
9.549042245975556
 20
308.8289453820902
 30
0.0
 10
9.550499632429748
 20
308.913048752933
 30
0.0
 10
9.563944194379586
 20
309.0347960805281
 30
0.0
 10
9.586899627664678
 20
309.1512137969032
 30
0.0
 10
9.62086552799795
 20
309.2567892546791
 30
0.0
 10
9.667091286856374
 20
309.3529473169184
 30
0.0
 10
9.715634455411092
 20
309.4221166825771
 30
0.0
 10
9.76107378096847
 20
309.4696541641943
 30
0.0
 10
9.796979859059938
 20
309.5003494476766
 30
0.0
 10
9.835627290156824
 20
309.5268844833917
 30
0.0
 10
9.87658177737875
 20
309.5491128292877
 30
0.0
 10
9.919721403579663
 20
309.5669060461598
 30
0.0
 10
9.96490203820831
 20
309.580439453218
 30
0.0
 10
10.01160926119446
 20
309.5896365785555
 30
0.0
 10
10.07743325238862
 20
309.5965918989385
 30
0.0
 10
10.16216100439056
 20
309.5947266423003
 30
0.0
 10
10.26699260789865
 20
309.5778119813639
 30
0.0
 10
10.37257185026471
 20
309.5483973485055
 30
0.0
 10
10.48072978836507
 20
309.5066457110362
 30
0.0
 10
10.58838204961966
 20
309.4558498838618
 30
0.0
 10
10.65890142443683
 20
309.415285455612
 30
0.0
 10
10.6941563801
 20
309.3950059633
 30
0.0
 11
9.5483137045
 21
308.786902454
 31
0.0
 11
9.552445064064646
 21
308.9129317398785
 31
0.0
 11
9.566211823185657
 21
309.0383278166479
 31
0.0
 11
9.589063399267799
 21
309.1506674966395
 31
0.0
 11
9.62470158863866
 21
309.2596860484944
 31
0.0
 11
9.669601353438798
 21
309.3516918285067
 31
0.0
 11
9.728773782392942
 21
309.4347607403632
 31
0.0
 11
9.761626282554468
 21
309.4690786098126
 31
0.0
 11
9.797763377481282
 21
309.4999065928068
 31
0.0
 11
9.836050642344771
 21
309.5261947902276
 31
0.0
 11
9.876873250296406
 21
309.5483390432178
 31
0.0
 11
9.919979393946067
 21
309.5661701838335
 31
0.0
 11
9.964658966013461
 21
309.5795934106188
 31
0.0
 11
10.01170977175967
 21
309.5889302102418
 31
0.0
 11
10.0594136590128
 21
309.594033626859
 31
0.0
 11
10.16181329987244
 21
309.592384365495
 31
0.0
 11
10.26327755020758
 21
309.5765649352001
 31
0.0
 11
10.37200126666441
 21
309.5466705836452
 31
0.0
 11
10.47731925896172
 21
309.5065605309871
 31
0.0
 11
10.58761194486712
 21
309.4543903217201
 31
0.0
 11
10.6941563801
 21
309.3950059633
 31
0.0
  0
SPLINE
  5
F7
330
1F
100
AcDbEntity
  8
BEZUGSACHSEN
  6
Continuous
 62
     7
100
AcDbSpline
210
0.0
220
0.0
230
1.0
 70
     8
 71
     3
 72
    15
 73
    11
 74
     9
 42
0.0000000001
 43
0.0000000001
 44
0.00000001
 40
0.0
 40
0.0
 40
0.0
 40
0.0
 40
0.1110944831772357
 40
0.2222295181664375
 40
0.3333620401947567
 40
0.4444752610226028
 40
0.5555842178353572
 40
0.6667300354298039
 40
0.7779450181900545
 40
0.888982087197247
 40
0.888982087197247
 40
0.888982087197247
 40
0.888982087197247
 10
10.6941563801
 20
309.3950059633
 30
0.0
 10
10.71954173966504
 20
309.4219823290059
 30
0.0
 10
10.77032172498277
 20
309.4759449073561
 30
0.0
 10
10.85257449422218
 20
309.5508268707752
 30
0.0
 10
10.93957114616301
 20
309.6201135796761
 30
0.0
 10
11.0318759865974
 20
309.6822087427469
 30
0.0
 10
11.12932600859225
 20
309.7359882348675
 30
0.0
 10
11.23173892246675
 20
309.7795784804591
 30
0.0
 10
11.33825542106135
 20
309.8125970362635
 30
0.0
 10
11.41159752377994
 20
309.8236702028609
 30
0.0
 10
11.4482392198
 20
309.8292023541
 30
0.0
 11
10.6941563801
 21
309.3950059633
 31
0.0
 11
10.77132515718628
 21
309.4749244469907
 31
0.0
 11
10.85336505740327
 21
309.5498941126858
 31
0.0
 11
10.94046220599455
 21
309.6189196453505
 31
0.0
 11
11.0327340275786
 21
309.6808232703195
 31
0.0
 11
11.13013693567406
 21
309.7342823554086
 31
0.0
 11
11.23240515907434
 21
309.7778093958696
 31
0.0
 11
11.338897027179
 21
309.8098758022467
 31
0.0
 11
11.4482392198
 21
309.8292023541
 31
0.0
  0
SPLINE
  5
F8
330
1F
100
AcDbEntity
  8
0
  6
Continuous
 62
     7
100
AcDbSpline
210
0.0
220
0.0
230
1.0
 70
     8
 71
     3
 72
    19
 73
    15
 74
    13
 42
0.0000000001
 43
0.0000000001
 44
0.00000001
 40
0.0
 40
0.0
 40
0.0
 40
0.0
 40
0.1162460235718655
 40
0.2327881717960441
 40
0.3491890045907669
 40
0.465546855067195
 40
0.5819071370082282
 40
0.6982738489485024
 40
0.8146206073036192
 40
0.930999827842776
 40
1.163276323470238
 40
1.396138921808151
 40
1.629013178105903
 40
1.861351539765745
 40
1.861351539765745
 40
1.861351539765745
 40
1.861351539765745
 10
78.6733137045
 20
260.6302893842
 30
0.0
 10
78.63452963365904
 20
260.6284484373047
 30
0.0
 10
78.55686269359126
 20
260.6247618538935
 30
0.0
 10
78.4432526085339
 20
260.5963563688892
 30
0.0
 10
78.33506492058359
 20
260.5525024546708
 30
0.0
 10
78.23408905460607
 20
260.4939057664444
 30
0.0
 10
78.14132059785292
 20
260.4232209051225
 30
0.0
 10
78.05723321883647
 20
260.3424633000416
 30
0.0
 10
77.98192957544676
 20
260.2534956612983
 30
0.0
 10
77.89327833128426
 20
260.1261362135459
 30
0.0
 10
77.80328158557907
 20
259.9533508354494
 30
0.0
 10
77.72838806645976
 20
259.7324258452585
 30
0.0
 10
77.68185114113354
 20
259.5034059256728
 30
0.0
 10
77.67615733041147
 20
259.3482265328396
 30
0.0
 10
77.6733137045
 20
259.2707262147
 30
0.0
 11
78.6733137045
 21
260.6302893842
 31
0.0
 11
78.55744235294958
 21
260.6209637267889
 31
0.0
 11
78.44411782826153
 21
260.5937676900017
 31
0.0
 11
78.33624469565031
 21
260.5500350804758
 31
0.0
 11
78.23545595612556
 21
260.4918906108118
 31
0.0
 11
78.14276865104466
 21
260.4215430544204
 31
0.0
 11
78.05869328538586
 21
260.3410909286739
 31
0.0
 11
77.98339452744042
 21
260.2523967054594
 31
0.0
 11
77.9167677981289
 21
260.1569765717635
 31
0.0
 11
77.80887801205452
 21
259.95127736301
 31
0.0
 11
77.73311987524191
 21
259.7310826891159
 31
0.0
 11
77.68815986144278
 21
259.5025897649247
 31
0.0
 11
77.6733137045
 21
259.2707262147
 31
0.0
  0
SPLINE
  5
F9
330
1F
100
AcDbEntity
  8
0
  6
Continuous
 62
     7
100
AcDbSpline
210
0.0
220
0.0
230
1.0
 70
     8
 71
     3
 72
    19
 73
    15
 74
    13
 42
0.0000000001
 43
0.0000000001
 44
0.00000001
 40
0.0
 40
0.0
 40
0.0
 40
0.0
 40
0.2323383481159176
 40
0.4652125957009685
 40
0.6980761132671758
 40
0.9303535187254035
 40
1.046733461807722
 40
1.163080940895846
 40
1.279447997469298
 40
1.395808629563674
 40
1.512165904526794
 40
1.628566140366715
 40
1.745106920566932
 40
1.861351602832032
 40
1.861351602832032
 40
1.861351602832032
 40
1.861351602832032
 10
81.4233137045
 20
259.2707262147
 30
0.0
 10
81.4204700788945
 20
259.3482265283589
 30
0.0
 10
81.41477626872555
 20
259.5034059138424
 30
0.0
 10
81.36823929288573
 20
259.732426127857
 30
0.0
 10
81.29334554712534
 20
259.953351689751
 30
0.0
 10
81.20334824287565
 20
260.1261377539719
 30
0.0
 10
81.11469630507071
 20
260.2534976797075
 30
0.0
 10
81.03939204071679
 20
260.3424655786364
 30
0.0
 10
80.95530406690068
 20
260.4232232486054
 30
0.0
 10
80.86253533307023
 20
260.4939078149773
 30
0.0
 10
80.76155952081595
 20
260.5525040391184
 30
0.0
 10
80.65337247130158
 20
260.5963572902542
 30
0.0
 10
80.53976336195772
 20
260.62476204975
 30
0.0
 10
80.46209732716247
 20
260.6284485024119
 30
0.0
 10
80.4233137045
 20
260.6302893842
 30
0.0
 11
81.4233137045
 21
259.2707262147
 31
0.0
 11
81.40846755038223
 21
259.5025897515339
 31
0.0
 11
81.36350754879359
 21
259.7310826692479
 31
0.0
 11
81.28774907011122
 21
259.9512781976336
 31
0.0
 11
81.1798586589336
 21
260.1569781059037
 31
0.0
 11
81.1132313350894
 21
260.2523987057195
 31
0.0
 11
81.03793187852258
 21
260.3410932812633
 31
0.0
 11
80.95385601219215
 21
260.4215453822698
 31
0.0
 11
80.86116818622278
 21
260.4918928315375
 31
0.0
 11
80.76037975131818
 21
260.550036677526
 31
0.0
 11
80.6525070225266
 21
260.5937686942488
 31
0.0
 11
80.53918373397272
 21
260.6209640196009
 31
0.0
 11
80.4233137045
 21
260.6302893842
 31
0.0
  0
SPLINE
  5
FA
330
1F
100
AcDbEntity
  8
BEZUGSACHSEN
  6
Continuous
 62
     7
100
AcDbSpline
210
0.0
220
0.0
230
1.0
 70
     8
 71
     3
 72
    47
 73
    43
 74
    41
 42
0.0000000001
 43
0.0000000001
 44
0.00000001
 40
0.0
 40
0.0
 40
0.0
 40
0.0
 40
0.6366022431822308
 40
1.273595002171288
 40
1.592921746398543
 40
1.912076344881147
 40
2.231392290402852
 40
2.550826842696746
 40
3.189774321129135
 40
3.829081696997238
 40
4.468337152533318
 40
5.10722174481479
 40
5.426176341305855
 40
5.745033356852705
 40
6.063356731631448
 40
6.381780214944547
 40
7.017059195737588
 40
7.652639341053714
 40
8.28753221429139
 40
8.922347946539261
 40
9.559226748592696
 40
10.19613435937264
 40
10.83451785505171
 40
11.47287689977874
 40
12.11234487368209
 40
12.75189588950104
 40
13.39354300521764
 40
14.03487957358301
 40
14.35615205773956
 40
14.6773210771381
 40
14.99840882473933
 40
15.31959604122988
 40
15.96011121028638
 40
16.60099592092071
 40
17.23809108083779
 40
17.87482555207831
 40
18.19205670340849
 40
18.50917199107722
 40
18.82571084634024
 40
19.14241581830779
 40
19.77338974998653
 40
20.40398930745469
 40
20.40398930745469
 40
20.40398930745469
 40
20.40398930745469
 10
38.0488981102
 20
294.1526699484
 30
0.0
 10
38.05490375408671
 20
294.3649497580952
 30
0.0
 10
38.06691872594842
 20
294.7896395979208
 30
0.0
 10
38.14818407115644
 20
295.3157823590365
 30
0.0
 10
38.24090366775726
 20
295.7307567351597
 30
0.0
 10
38.32619663189153
 20
296.0385807108482
 30
0.0
 10
38.42643524530392
 20
296.3418733876258
 30
0.0
 10
38.57992079442732
 20
296.7393107501705
 30
0.0
 10
38.80839274121406
 20
297.2214103270593
 30
0.0
 10
39.13800770180152
 20
297.7702261999049
 30
0.0
 10
39.52023491890927
 20
298.2837617392674
 30
0.0
 10
39.87908961604073
 20
298.6782645013591
 30
0.0
 10
40.18804296960842
 20
298.9711377994064
 30
0.0
 10
40.42993807858348
 20
299.1788596205216
 30
0.0
 10
40.68158133206923
 20
299.374369017654
 30
0.0
 10
41.02887543922598
 20
299.617864220329
 30
0.0
 10
41.48461577398648
 20
299.8897462903736
 30
0.0
 10
42.06009519867563
 20
300.1610754028889
 30
0.0
 10
42.65920596383316
 20
300.3748590337012
 30
0.0
 10
43.27665636627966
 20
300.5295487650733
 30
0.0
 10
43.90692692795724
 20
300.6233557487276
 30
0.0
 10
44.54452086267678
 20
300.6554824735323
 30
0.0
 10
45.18269950691404
 20
300.6250529005823
 30
0.0
 10
45.81571192811379
 20
300.5323816454225
 30
0.0
 10
46.43694561254232
 20
300.3778896841926
 30
0.0
 10
47.04108136449948
 20
300.1628525516462
 30
0.0
 10
47.62156043806304
 20
299.8889291859169
 30
0.0
 10
48.08118946228434
 20
299.6137623078597
 30
0.0
 10
48.43108845094724
 20
299.3671526090025
 30
0.0
 10
48.68422008009647
 20
299.1692484166315
 30
0.0
 10
48.92721871945064
 20
298.9590698872299
 30
0.0
 10
49.23646306295579
 20
298.6635505470744
 30
0.0
 10
49.59478325375296
 20
298.2660795643077
 30
0.0
 10
49.97473367209623
 20
297.750412802753
 30
0.0
 10
50.3012067017078
 20
297.2008166462826
 30
0.0
 10
50.52657784170283
 20
296.7197111045724
 30
0.0
 10
50.67766882486173
 20
296.3237209169521
 30
0.0
 10
50.77608174241097
 20
296.0222945661689
 30
0.0
 10
50.8597485205831
 20
295.7165991982519
 30
0.0
 10
50.95056787802638
 20
295.3050471805363
 30
0.0
 10
51.03008285369977
 20
294.7836219640143
 30
0.0
 10
51.0418551383155
 20
294.3629456748553
 30
0.0
 10
51.0477395339
 20
294.1526699485
 30
0.0
 11
38.0488981102
 21
294.1526699484
 31
0.0
 11
38.0801467812398
 21
294.7885047827579
 31
0.0
 11
38.17358798361341
 21
295.4186067718862
 31
0.0
 11
38.24352849064628
 21
295.7301800298124
 31
0.0
 11
38.32866982961149
 21
296.0377684075704
 31
0.0
 11
38.42889436772474
 21
296.3409477522237
 31
0.0
 11
38.54397425745398
 21
296.6389327387232
 31
0.0
 11
38.81757015170331
 21
297.2163400185916
 31
0.0
 11
39.14678966541644
 21
297.7643623106837
 31
0.0
 11
39.52841392078133
 21
298.2772077700083
 31
0.0
 11
39.95834855691263
 21
298.7497855211872
 31
0.0
 11
40.18982081797376
 21
298.9692225895736
 31
0.0
 11
40.43172321900103
 21
299.1769556508341
 31
0.0
 11
40.68309702615552
 21
299.37225280905
 31
0.0
 11
40.94382630444743
 21
299.5550471146687
 31
0.0
 11
41.48935994865726
 21
299.8805811781284
 31
0.0
 11
42.06426976877597
 21
300.1515808457502
 31
0.0
 11
42.66221595652078
 21
300.3650037054664
 31
0.0
 11
43.27800848872974
 21
300.5192456296799
 31
0.0
 11
43.90794077067614
 21
300.6130535646685
 31
0.0
 11
44.54404389239498
 21
300.6450554897507
 31
0.0
 11
45.18170485143033
 21
300.6146912199991
 31
0.0
 11
45.8133223843576
 21
300.5221625104887
 31
0.0
 11
46.43389525646381
 21
300.3678621538659
 31
0.0
 11
47.03639606358637
 21
300.1533434384779
 31
0.0
 11
47.61670325995287
 21
299.8795650993919
 31
0.0
 11
48.1669282479988
 21
299.5500729804384
 31
0.0
 11
48.42953555214626
 21
299.3649962047896
 31
0.0
 11
48.68255600953812
 21
299.1671826886624
 31
0.0
 11
48.92540431090243
 21
298.9571302090671
 31
0.0
 11
49.15760674630946
 21
298.7352219914906
 31
0.0
 11
49.5865228040437
 21
298.2595217736967
 31
0.0
 11
49.96663346271679
 21
297.7435284602827
 31
0.0
 11
50.29207260844196
 21
297.1958245208962
 31
0.0
 11
50.56215346657164
 21
296.6192075623025
 31
0.0
 11
50.67524391175585
 21
296.3228190426491
 31
0.0
 11
50.773688015095
 21
296.0213710965772
 31
0.0
 11
50.85717082047064
 21
295.716039362069
 31
0.0
 11
50.92572024391468
 21
295.4068419885121
 31
0.0
 11
51.01714732183921
 21
294.7825270104119
 31
0.0
 11
51.0477395339
 21
294.1526699485
 31
0.0
  0
SPLINE
  5
FB
330
1F
100
AcDbEntity
  8
BEZUGSACHSEN
  6
Continuous
 62
     7
100
AcDbSpline
210
0.0
220
0.0
230
1.0
 70
     8
 71
     3
 72
    11
 73
     7
 74
     5
 42
0.0000000001
 43
0.0000000001
 44
0.00000001
 40
0.0
 40
0.0
 40
0.0
 40
0.0
 40
0.5462907431785018
 40
1.093000863669364
 40
1.646070107191223
 40
2.198197048702532
 40
2.198197048702532
 40
2.198197048702532
 40
2.198197048702532
 10
19.1021596514
 20
309.1626699679
 30
0.0
 10
19.16523045325689
 20
308.9917383386451
 30
0.0
 10
19.29142047526019
 20
308.6497438590809
 30
0.0
 10
19.43105778825556
 20
308.1184697298449
 30
0.0
 10
19.52854615230584
 20
307.5750453249219
 30
0.0
 10
19.54172826683892
 20
307.2064606843803
 30
0.0
 10
19.5483137045
 20
307.0223254937
 30
0.0
 11
19.1021596514
 21
309.1626699679
 31
0.0
 11
19.28301098400429
 21
308.647183429203
 31
0.0
 11
19.42350246867751
 21
308.1188330733013
 31
0.0
 11
19.51556912193283
 21
307.5734806005938
 31
0.0
 11
19.5483137045
 21
307.0223254937
 31
0.0
  0
SPLINE
  5
FC
330
1F
100
AcDbEntity
  8
BEZUGSACHSEN
  6
Continuous
 62
     7
100
AcDbSpline
210
0.0
220
0.0
230
1.0
 70
     8
 71
     3
 72
    19
 73
    15
 74
    13
 42
0.0000000001
 43
0.0000000001
 44
0.00000001
 40
0.0
 40
0.0
 40
0.0
 40
0.0
 40
0.1462385987779287
 40
0.2927479274823123
 40
0.4364790706284253
 40
0.5801659236551244
 40
0.7203799972778825
 40
0.8606059382464057
 40
0.9980411883699285
 40
1.135484020416805
 40
1.40541563107885
 40
1.675815514078743
 40
1.943997429514593
 40
2.211934834741443
 40
2.211934834741443
 40
2.211934834741443
 40
2.211934834741443
 10
17.5483137045
 20
310.5113175553
 30
0.0
 10
17.59702850983834
 20
310.5146256326466
 30
0.0
 10
17.69454830570398
 20
310.5212479115471
 30
0.0
 10
17.83988456602059
 20
310.5048885987728
 30
0.0
 10
17.98054150314327
 20
310.4697168326701
 30
0.0
 10
18.1133936365875
 20
310.416911146025
 30
0.0
 10
18.23784809964497
 20
310.3492393582969
 30
0.0
 10
18.35265065680228
 20
310.2699391569149
 30
0.0
 10
18.45876059457671
 20
310.1808545173397
 30
0.0
 10
18.58786305975621
 20
310.052906981771
 30
0.0
 10
18.73090290965697
 20
309.8771046928621
 30
0.0
 10
18.87581051135603
 20
309.6494192269776
 30
0.0
 10
19.00044725979888
 20
309.4107566075069
 30
0.0
 10
19.06826583096728
 20
309.2453403670738
 30
0.0
 10
19.1021596514
 20
309.1626699679
 30
0.0
 11
17.5483137045
 21
310.5113175553
 31
0.0
 11
17.69444756631905
 21
310.5168512884327
 31
0.0
 11
17.8401569271657
 21
310.5015618947538
 31
0.0
 11
17.9795870087228
 21
310.4666635585891
 31
0.0
 11
18.11321934565171
 21
310.4138591055606
 31
0.0
 11
18.23653313645136
 21
310.3471230924904
 31
0.0
 11
18.35206424775922
 21
310.2676506013977
 31
0.0
 11
18.45747679753365
 21
310.1794653286671
 31
0.0
 11
18.55526530122783
 21
310.0828840643022
 31
0.0
 11
18.72651369711767
 21
309.8742286993107
 31
0.0
 11
18.87285611765233
 21
309.6468523753928
 31
0.0
 11
18.9967237434591
 21
309.4089903333519
 31
0.0
 11
19.1021596514
 21
309.1626699679
 31
0.0
  0
SPLINE
  5
FD
330
1F
100
AcDbEntity
  8
BEZUGSACHSEN
  6
Continuous
 62
     7
100
AcDbSpline
210
0.0
220
0.0
230
1.0
 70
     8
 71
     3
 72
    11
 73
     7
 74
     5
 42
0.0000000001
 43
0.0000000001
 44
0.00000001
 40
0.0
 40
0.0
 40
0.0
 40
0.0
 40
0.5521269407036971
 40
1.105196183339768
 40
1.65190630469867
 40
2.198197048720039
 40
2.198197048720039
 40
2.198197048720039
 40
2.198197048720039
 10
19.5483137045
 20
281.2830144421
 30
0.0
 10
19.54172826687225
 20
281.0988792516891
 30
0.0
 10
19.5285461524068
 20
280.7302946117123
 30
0.0
 10
19.43105778860956
 20
280.1868702070269
 30
0.0
 10
19.29142047557705
 20
279.6555960775099
 30
0.0
 10
19.16523045336153
 20
279.3136015974159
 30
0.0
 10
19.1021596514
 20
279.1426699679
 30
0.0
 11
19.5483137045
 21
281.2830144421
 31
0.0
 11
19.5155691220732
 21
280.7318593360069
 31
0.0
 11
19.42350246912982
 21
280.186506864145
 31
0.0
 11
19.2830109842964
 21
279.6581565073877
 31
0.0
 11
19.1021596514
 21
279.1426699679
 31
0.0
  0
SPLINE
  5
FE
330
1F
100
AcDbEntity
  8
BEZUGSACHSEN
  6
Continuous
 62
     7
100
AcDbSpline
210
0.0
220
0.0
230
1.0
 70
     8
 71
     3
 72
    11
 73
     7
 74
     5
 42
0.0000000001
 43
0.0000000001
 44
0.00000001
 40
0.0
 40
0.0
 40
0.0
 40
0.0
 40
0.9140556660003346
 40
1.828030949185932
 40
2.279806974871118
 40
2.73094412476256
 40
2.73094412476256
 40
2.73094412476256
 40
2.73094412476256
 10
10.8152666313854
 20
279.142669968085
 30
0.0
 10
10.94792133834878
 20
279.4173865657516
 30
0.0
 10
11.21321908651038
 20
279.9667956022789
 30
0.0
 10
11.42857429982298
 20
280.6995065233835
 30
0.0
 10
11.53226851348539
 20
281.2974517294898
 30
0.0
 10
11.54296783100649
 20
281.5985749449165
 30
0.0
 10
11.5483137045
 20
281.7490300195
 30
0.0
 11
10.8152666313854
 21
279.142669968085
 31
0.0
 11
11.19007416116086
 21
279.9763468096555
 31
0.0
 11
11.44936552155873
 21
280.852770684671
 31
0.0
 11
11.52208249505736
 21
281.2986561174327
 31
0.0
 11
11.5483137045
 21
281.7490300195
 31
0.0
  0
SPLINE
  5
FF
330
1F
100
AcDbEntity
  8
BEZUGSACHSEN
  6
Continuous
 62
     7
100
AcDbSpline
210
0.0
220
0.0
230
1.0
 70
     8
 71
     3
 72
    11
 73
     7
 74
     5
 42
0.0000000001
 43
0.0000000001
 44
0.00000001
 40
0.0
 40
0.0
 40
0.0
 40
0.0
 40
0.8249192366724155
 40
1.650116891930982
 40
2.190492152293428
 40
2.730585915378205
 40
2.730585915378205
 40
2.730585915378205
 40
2.730585915378205
 10
11.5483137045
 20
306.5563099163
 30
0.0
 10
11.53058040016182
 20
306.8315002082769
 30
0.0
 10
11.49510780631589
 20
307.3819736717377
 30
0.0
 10
11.28667298968049
 20
308.0867072568905
 30
0.0
 10
11.0564465587008
 20
308.6789209819708
 30
0.0
 10
10.89564597589882
 20
309.0014483154159
 30
0.0
 10
10.8152666313854
 20
309.162669967715
 30
0.0
 11
11.5483137045
 21
306.5563099163
 31
0.0
 11
11.4647382503843
 21
307.3769845719959
 31
0.0
 11
11.24677680827253
 21
308.1728765118953
 31
0.0
 11
11.04884172971333
 21
308.675695690813
 31
0.0
 11
10.8152666313854
 21
309.162669967715
 31
0.0
  0
DIMENSION
  5
10C
330
1F
100
AcDbEntity
  8
1
100
AcDbDimension
  2
*D2
 10
270.614205527457
 20
298.1526699679
 30
0.0
 11
266.864205527457
 21
294.005627030496
 31
0.0
 70
    32
  1
<>
 71
     5
 42
-1.0
 53
90.0
  3
ME10_DIM_10
100
AcDbAlignedDimension
 13
259.5483137045
 23
290.1526699679
 33
0.0
 14
259.5483137045
 24
298.1526699679
 34
0.0
 50
90.0
100
AcDbRotatedDimension
  0
DIMENSION
  5
117
330
1F
100
AcDbEntity
  8
1
100
AcDbDimension
  2
*D3
 10
279.844062288962
 20
304.6526699679528
 30
0.0
 11
276.094062288962
 21
294.291086517966
 31
0.0
 70
    32
  1
<>
 71
     5
 42
-1.0
 53
90.0
  3
ME10_DIM_11
100
AcDbAlignedDimension
 13
259.5483137045
 23
283.6526699678487
 33
0.0
 14
259.5483137045
 24
304.6526699679528
 34
0.0
 50
90.0
100
AcDbRotatedDimension
  0
DIMENSION
  5
122
330
1F
100
AcDbEntity
  8
1
100
AcDbDimension
  2
*D4
 10
288.503000075528
 20
307.6526699679
 30
0.0
 11
284.753000075528
 21
294.386239680455
 31
0.0
 70
    32
  1
<>
 71
     5
 42
-1.0
 53
90.0
  3
ME10_DIM_12
100
AcDbAlignedDimension
 13
221.429699496
 23
280.6526699679
 33
0.0
 14
221.429699496
 24
307.6526699679
 34
0.0
 50
90.0
100
AcDbRotatedDimension
  0
DIMENSION
  5
12D
330
1F
100
AcDbEntity
  8
1
100
AcDbDimension
  2
*D5
 10
259.5483137045
 20
351.661136033977
 30
0.0
 11
176.77549322596
 21
355.411136033977
 31
0.0
 70
    32
  1
<>
 71
     5
 42
-1.0
 53
0.00013888888889
  3
ME10_DIM_13
100
AcDbAlignedDimension
 13
88.5483137045
 23
344.1526330468
 33
0.0
 14
259.5483137045
 24
303.7282794762
 34
0.0
100
AcDbRotatedDimension
  0
DIMENSION
  5
138
330
1F
100
AcDbEntity
  8
1
100
AcDbDimension
  2
*D6
 10
59.5483137045
 20
359.473401448487
 30
0.0
 11
164.406072986319
 21
363.223401448487
 31
0.0
 70
    32
  1
<>
 71
     5
 42
-1.0
 53
0.00013888888889
  3
ME10_DIM_14
100
AcDbAlignedDimension
 13
259.5483137045
 23
303.7282794762
 33
0.0
 14
59.5483137045
 24
344.1526699679
 34
0.0
100
AcDbRotatedDimension
  0
DIMENSION
  5
143
330
1F
100
AcDbEntity
  8
1
100
AcDbDimension
  2
*D7
 10
9.5483137045
 20
367.654975629612
 30
0.0
 11
146.662494923303
 21
371.404975629612
 31
0.0
 70
    32
  1
<>
 71
     5
 42
-1.0
 53
0.00013888888889
  3
ME10_DIM_15
100
AcDbAlignedDimension
 13
259.5483137045
 23
303.7282794762
 33
0.0
 14
9.5483137045
 24
327.7528615304
 34
0.0
100
AcDbRotatedDimension
  0
INSERT
  5
14A
330
1F
100
AcDbEntity
  8
1
100
AcDbBlockReference
  2
*D8
 10
0.0
 20
0.0
 30
0.0
  0
DIMENSION
  5
155
330
1F
100
AcDbEntity
  8
1
100
AcDbDimension
  2
*D9
 10
245.7051957585773
 20
306.6988831220859
 30
0.0
 11
248.6313674254253
 21
314.4752711381378
 31
0.0
 70
    37
  1
<>
 71
     5
 42
-1.0
  3
ME10_DIM_16
100
AcDb3PointAngularDimension
 13
245.6490347348808
 23
305.7465669464561
 33
0.0
 14
223.8591221190561
 24
307.6526699679001
 34
0.0
 15
221.429699496
 25
307.6526699679001
 35
0.0
  0
ENDSEC
  0
SECTION
  2
OBJECTS
  0
DICTIONARY
  5
C
330
0
100
AcDbDictionary
281
     1
  3
ACAD_GROUP
350
D
  3
ACAD_LAYOUT
350
1A
  3
ACAD_MLEADERSTYLE
350
158
  3
ACAD_MLINESTYLE
350
17
  3
ACAD_PLOTSETTINGS
350
19
  3
ACAD_PLOTSTYLENAME
350
E
  3
ACAD_SCALELIST
350
4A
  3
ACAD_VISUALSTYLE
350
2A
  3
AcDbVariableDictionary
350
156
  0
DICTIONARY
  5
D
102
{ACAD_REACTORS
330
C
102
}
330
C
100
AcDbDictionary
281
     1
  0
DICTIONARY
  5
1A
102
{ACAD_REACTORS
330
C
102
}
330
C
100
AcDbDictionary
281
     1
  3
Layout1
350
1E
  3
Layout2
350
26
  3
Model
350
22
  0
DICTIONARY
  5
158
102
{ACAD_REACTORS
330
C
102
}
330
C
100
AcDbDictionary
281
     1
  0
DICTIONARY
  5
17
102
{ACAD_REACTORS
330
C
102
}
330
C
100
AcDbDictionary
281
     1
  3
Standard
350
18
  0
DICTIONARY
  5
19
102
{ACAD_REACTORS
330
C
102
}
330
C
100
AcDbDictionary
281
     1
  0
ACDBDICTIONARYWDFLT
  5
E
102
{ACAD_REACTORS
330
C
102
}
330
C
100
AcDbDictionary
281
     1
  3
Normal
350
F
100
AcDbDictionaryWithDefault
340
F
  0
DICTIONARY
  5
4A
102
{ACAD_REACTORS
330
C
102
}
330
C
100
AcDbDictionary
281
     1
  3
A0
350
4B
  3
A1
350
4C
  3
A2
350
4D
  3
A3
350
4E
  3
A4
350
4F
  3
A5
350
50
  3
A6
350
51
  3
A7
350
52
  3
A8
350
53
  3
A9
350
54
  3
B0
350
55
  3
B1
350
56
  3
B2
350
57
  3
B3
350
58
  3
B4
350
59
  3
B5
350
5A
  3
B6
350
5B
  3
B7
350
5C
  3
B8
350
5D
  3
B9
350
5E
  3
C0
350
5F
  3
C1
350
60
  3
C2
350
61
  3
C3
350
62
  3
C4
350
63
  3
C5
350
64
  3
C6
350
65
  3
C7
350
66
  3
C8
350
67
  3
C9
350
68
  3
D0
350
69
  3
D1
350
6A
  3
D2
350
6B
  0
DICTIONARY
  5
2A
102
{ACAD_REACTORS
330
C
102
}
330
C
100
AcDbDictionary
281
     1
  3
2dWireframe
350
2F
  3
3D Hidden
350
31
  3
3dWireframe
350
30
  3
Basic
350
32
  3
Brighten
350
36
  3
ColorChange
350
3A
  3
Conceptual
350
34
  3
Dim
350
35
  3
Facepattern
350
39
  3
Flat
350
2B
  3
FlatWithEdges
350
2C
  3
Gouraud
350
2D
  3
GouraudWithEdges
350
2E
  3
Linepattern
350
38
  3
Realistic
350
33
  3
Thicken
350
37
  0
DICTIONARY
  5
156
102
{ACAD_REACTORS
330
C
102
}
330
C
100
AcDbDictionary
281
     1
  3
CANNOSCALE
350
159
  0
LAYOUT
  5
1E
102
{ACAD_REACTORS
330
1A
102
}
330
1A
100
AcDbPlotSettings
  1

  2
none_device
  4

  6

 40
0.0
 41
0.0
 42
0.0
 43
0.0
 44
0.0
 45
0.0
 46
0.0
 47
0.0
 48
0.0
 49
0.0
140
0.0
141
0.0
142
1.0
143
1.0
 70
   688
 72
     0
 73
     0
 74
     5
  7

 75
    16
147
1.0
148
0.0
149
0.0
100
AcDbLayout
  1
Layout1
 70
     1
 71
     1
 10
0.0
 20
0.0
 11
12.0
 21
9.0
 12
0.0
 22
0.0
 32
0.0
 14
1.00000000000000E+20
 24
1.00000000000000E+20
 34
1.00000000000000E+20
 15
-1.00000000000000E+20
 25
-1.00000000000000E+20
 35
-1.00000000000000E+20
146
0.0
 13
0.0
 23
0.0
 33
0.0
 16
1.0
 26
0.0
 36
0.0
 17
0.0
 27
1.0
 37
0.0
 76
     0
330
1B
  0
LAYOUT
  5
26
102
{ACAD_REACTORS
330
1A
102
}
330
1A
100
AcDbPlotSettings
  1

  2
none_device
  4

  6

 40
0.0
 41
0.0
 42
0.0
 43
0.0
 44
0.0
 45
0.0
 46
0.0
 47
0.0
 48
0.0
 49
0.0
140
0.0
141
0.0
142
1.0
143
1.0
 70
   688
 72
     0
 73
     0
 74
     5
  7

 75
    16
147
1.0
148
0.0
149
0.0
100
AcDbLayout
  1
Layout2
 70
     1
 71
     2
 10
0.0
 20
0.0
 11
0.0
 21
0.0
 12
0.0
 22
0.0
 32
0.0
 14
0.0
 24
0.0
 34
0.0
 15
0.0
 25
0.0
 35
0.0
146
0.0
 13
0.0
 23
0.0
 33
0.0
 16
1.0
 26
0.0
 36
0.0
 17
0.0
 27
1.0
 37
0.0
 76
     0
330
23
  0
LAYOUT
  5
22
102
{ACAD_REACTORS
330
1A
102
}
330
1A
100
AcDbPlotSettings
  1

  2
none_device
  4

  6

 40
0.0
 41
0.0
 42
0.0
 43
0.0
 44
0.0
 45
0.0
 46
0.0
 47
0.0
 48
0.0
 49
0.0
140
0.0
141
0.0
142
1.0
143
1.0
 70
  1712
 72
     0
 73
     0
 74
     0
  7

 75
     0
147
1.0
148
0.0
149
0.0
100
AcDbLayout
  1
Model
 70
     1
 71
     0
 10
0.0
 20
0.0
 11
12.0
 21
9.0
 12
0.0
 22
0.0
 32
0.0
 14
-10.48813189030157
 24
244.1526699679
 34
0.0
 15
290.503000075528
 25
373.154975629612
 35
0.0
146
0.0
 13
0.0
 23
0.0
 33
0.0
 16
1.0
 26
0.0
 36
0.0
 17
0.0
 27
1.0
 37
0.0
 76
     0
330
1F
331
29
  0
MLINESTYLE
  5
18
102
{ACAD_REACTORS
330
17
102
}
330
17
100
AcDbMlineStyle
  2
Standard
 70
     0
  3

 62
   256
 51
90.0
 52
90.0
 71
     2
 49
0.5
 62
   256
  6
BYLAYER
 49
-0.5
 62
   256
  6
BYLAYER
  0
ACDBPLACEHOLDER
  5
F
102
{ACAD_REACTORS
330
E
102
}
330
E
  0
SCALE
  5
4B
102
{ACAD_REACTORS
330
4A
102
}
330
4A
100
AcDbScale
 70
     0
300
1:1
140
1.0
141
1.0
290
     1
  0
SCALE
  5
4C
102
{ACAD_REACTORS
330
4A
102
}
330
4A
100
AcDbScale
 70
     0
300
1:2
140
1.0
141
2.0
290
     0
  0
SCALE
  5
4D
102
{ACAD_REACTORS
330
4A
102
}
330
4A
100
AcDbScale
 70
     0
300
1:4
140
1.0
141
4.0
290
     0
  0
SCALE
  5
4E
102
{ACAD_REACTORS
330
4A
102
}
330
4A
100
AcDbScale
 70
     0
300
1:5
140
1.0
141
5.0
290
     0
  0
SCALE
  5
4F
102
{ACAD_REACTORS
330
4A
102
}
330
4A
100
AcDbScale
 70
     0
300
1:8
140
1.0
141
8.0
290
     0
  0
SCALE
  5
50
102
{ACAD_REACTORS
330
4A
102
}
330
4A
100
AcDbScale
 70
     0
300
1:10
140
1.0
141
10.0
290
     0
  0
SCALE
  5
51
102
{ACAD_REACTORS
330
4A
102
}
330
4A
100
AcDbScale
 70
     0
300
1:16
140
1.0
141
16.0
290
     0
  0
SCALE
  5
52
102
{ACAD_REACTORS
330
4A
102
}
330
4A
100
AcDbScale
 70
     0
300
1:20
140
1.0
141
20.0
290
     0
  0
SCALE
  5
53
102
{ACAD_REACTORS
330
4A
102
}
330
4A
100
AcDbScale
 70
     0
300
1:30
140
1.0
141
30.0
290
     0
  0
SCALE
  5
54
102
{ACAD_REACTORS
330
4A
102
}
330
4A
100
AcDbScale
 70
     0
300
1:40
140
1.0
141
40.0
290
     0
  0
SCALE
  5
55
102
{ACAD_REACTORS
330
4A
102
}
330
4A
100
AcDbScale
 70
     0
300
1:50
140
1.0
141
50.0
290
     0
  0
SCALE
  5
56
102
{ACAD_REACTORS
330
4A
102
}
330
4A
100
AcDbScale
 70
     0
300
1:100
140
1.0
141
100.0
290
     0
  0
SCALE
  5
57
102
{ACAD_REACTORS
330
4A
102
}
330
4A
100
AcDbScale
 70
     0
300
2:1
140
2.0
141
1.0
290
     0
  0
SCALE
  5
58
102
{ACAD_REACTORS
330
4A
102
}
330
4A
100
AcDbScale
 70
     0
300
4:1
140
4.0
141
1.0
290
     0
  0
SCALE
  5
59
102
{ACAD_REACTORS
330
4A
102
}
330
4A
100
AcDbScale
 70
     0
300
8:1
140
8.0
141
1.0
290
     0
  0
SCALE
  5
5A
102
{ACAD_REACTORS
330
4A
102
}
330
4A
100
AcDbScale
 70
     0
300
10:1
140
10.0
141
1.0
290
     0
  0
SCALE
  5
5B
102
{ACAD_REACTORS
330
4A
102
}
330
4A
100
AcDbScale
 70
     0
300
100:1
140
100.0
141
1.0
290
     0
  0
SCALE
  5
5C
102
{ACAD_REACTORS
330
4A
102
}
330
4A
100
AcDbScale
 70
     0
300
1/128" = 1'-0"
140
0.0078125
141
12.0
290
     0
  0
SCALE
  5
5D
102
{ACAD_REACTORS
330
4A
102
}
330
4A
100
AcDbScale
 70
     0
300
1/64" = 1'-0"
140
0.015625
141
12.0
290
     0
  0
SCALE
  5
5E
102
{ACAD_REACTORS
330
4A
102
}
330
4A
100
AcDbScale
 70
     0
300
1/32" = 1'-0"
140
0.03125
141
12.0
290
     0
  0
SCALE
  5
5F
102
{ACAD_REACTORS
330
4A
102
}
330
4A
100
AcDbScale
 70
     0
300
1/16" = 1'-0"
140
0.0625
141
12.0
290
     0
  0
SCALE
  5
60
102
{ACAD_REACTORS
330
4A
102
}
330
4A
100
AcDbScale
 70
     0
300
3/32" = 1'-0"
140
0.09375
141
12.0
290
     0
  0
SCALE
  5
61
102
{ACAD_REACTORS
330
4A
102
}
330
4A
100
AcDbScale
 70
     0
300
1/8" = 1'-0"
140
0.125
141
12.0
290
     0
  0
SCALE
  5
62
102
{ACAD_REACTORS
330
4A
102
}
330
4A
100
AcDbScale
 70
     0
300
3/16" = 1'-0"
140
0.1875
141
12.0
290
     0
  0
SCALE
  5
63
102
{ACAD_REACTORS
330
4A
102
}
330
4A
100
AcDbScale
 70
     0
300
1/4" = 1'-0"
140
0.25
141
12.0
290
     0
  0
SCALE
  5
64
102
{ACAD_REACTORS
330
4A
102
}
330
4A
100
AcDbScale
 70
     0
300
3/8" = 1'-0"
140
0.375
141
12.0
290
     0
  0
SCALE
  5
65
102
{ACAD_REACTORS
330
4A
102
}
330
4A
100
AcDbScale
 70
     0
300
1/2" = 1'-0"
140
0.5
141
12.0
290
     0
  0
SCALE
  5
66
102
{ACAD_REACTORS
330
4A
102
}
330
4A
100
AcDbScale
 70
     0
300
3/4" = 1'-0"
140
0.75
141
12.0
290
     0
  0
SCALE
  5
67
102
{ACAD_REACTORS
330
4A
102
}
330
4A
100
AcDbScale
 70
     0
300
1" = 1'-0"
140
1.0
141
12.0
290
     0
  0
SCALE
  5
68
102
{ACAD_REACTORS
330
4A
102
}
330
4A
100
AcDbScale
 70
     0
300
1-1/2" = 1'-0"
140
1.5
141
12.0
290
     0
  0
SCALE
  5
69
102
{ACAD_REACTORS
330
4A
102
}
330
4A
100
AcDbScale
 70
     0
300
3" = 1'-0"
140
3.0
141
12.0
290
     0
  0
SCALE
  5
6A
102
{ACAD_REACTORS
330
4A
102
}
330
4A
100
AcDbScale
 70
     0
300
6" = 1'-0"
140
6.0
141
12.0
290
     0
  0
SCALE
  5
6B
102
{ACAD_REACTORS
330
4A
102
}
330
4A
100
AcDbScale
 70
     0
300
1'-0" = 1'-0"
140
12.0
141
12.0
290
     0
  0
VISUALSTYLE
  5
2F
102
{ACAD_REACTORS
330
2A
102
}
330
2A
100
AcDbVisualStyle
  2
2dWireframe
 70
     4
 71
     0
 72
     2
 73
     0
 90
        0
 40
-0.6
 41
-30.0
 62
     5
 63
     7
 74
     1
 91
        4
 64
     7
 65
   257
 75
     1
175
     1
 42
1.0
 92
        0
 66
   257
 43
1.0
 76
     1
 77
     6
 78
     2
 67
     7
 79
     5
170
     0
171
     0
290
     0
174
     0
 93
        1
 44
0.0
173
     0
291
     0
 45
0.0
1001
ACAD
1000
AcDbSavedByObjectVersion
1070
     0
  0
VISUALSTYLE
  5
31
102
{ACAD_REACTORS
330
2A
102
}
330
2A
100
AcDbVisualStyle
  2
3D Hidden
 70
     6
 71
     1
 72
     2
 73
     2
 90
        0
 40
-0.6
 41
-30.0
 62
     5
 63
     7
 74
     2
 91
        2
 64
     7
 65
   257
 75
     2
175
     1
 42
40.0
 92
        0
 66
   257
 43
1.0
 76
     1
 77
     6
 78
     2
 67
     7
 79
     3
170
     0
171
     0
290
     0
174
     0
 93
        1
 44
0.0
173
     0
291
     0
 45
0.0
1001
ACAD
1000
AcDbSavedByObjectVersion
1070
     0
  0
VISUALSTYLE
  5
30
102
{ACAD_REACTORS
330
2A
102
}
330
2A
100
AcDbVisualStyle
  2
3dWireframe
 70
     5
 71
     0
 72
     2
 73
     0
 90
        0
 40
-0.6
 41
-30.0
 62
     5
 63
     7
 74
     1
 91
        4
 64
     7
 65
   257
 75
     1
175
     1
 42
1.0
 92
        0
 66
   257
 43
1.0
 76
     1
 77
     6
 78
     2
 67
     7
 79
     5
170
     0
171
     0
290
     0
174
     0
 93
        1
 44
0.0
173
     0
291
     0
 45
0.0
1001
ACAD
1000
AcDbSavedByObjectVersion
1070
     0
  0
VISUALSTYLE
  5
32
102
{ACAD_REACTORS
330
2A
102
}
330
2A
100
AcDbVisualStyle
  2
Basic
 70
     7
 71
     1
 72
     0
 73
     1
 90
        0
 40
-0.6
 41
-30.0
 62
     5
 63
     7
 74
     0
 91
        4
 64
     7
 65
   257
 75
     1
175
     1
 42
1.0
 92
        8
 66
     7
 43
1.0
 76
     1
 77
     6
 78
     2
 67
     7
 79
     5
170
     0
171
     0
290
     0
174
     0
 93
        1
 44
0.0
173
     0
291
     1
 45
0.0
1001
ACAD
1000
AcDbSavedByObjectVersion
1070
     0
  0
VISUALSTYLE
  5
36
102
{ACAD_REACTORS
330
2A
102
}
330
2A
100
AcDbVisualStyle
  2
Brighten
 70
    12
 71
     2
 72
     2
 73
     0
 90
        0
 40
-0.6
 41
-30.0
 62
     5
 63
     7
 74
     1
 91
        4
 64
     7
 65
   257
 75
     1
175
     1
 42
1.0
 92
        8
 66
     7
 43
1.0
 76
     1
 77
     6
 78
     2
 67
     7
 79
     5
170
     0
171
     0
290
     0
174
     0
 93
        1
 44
50.0
173
     0
291
     1
 45
0.0
1001
ACAD
1000
AcDbSavedByObjectVersion
1070
     0
  0
VISUALSTYLE
  5
3A
102
{ACAD_REACTORS
330
2A
102
}
330
2A
100
AcDbVisualStyle
  2
ColorChange
 70
    16
 71
     2
 72
     2
 73
     3
 90
        0
 40
-0.6
 41
-30.0
 62
     5
 63
     8
 74
     1
 91
        4
 64
     7
 65
   257
 75
     1
175
     1
 42
1.0
 92
        8
 66
     8
 43
1.0
 76
     1
 77
     6
 78
     2
 67
     7
 79
     5
170
     0
171
     0
290
     0
174
     0
 93
        1
 44
0.0
173
     0
291
     1
 45
0.0
1001
ACAD
1000
AcDbSavedByObjectVersion
1070
     0
  0
VISUALSTYLE
  5
34
102
{ACAD_REACTORS
330
2A
102
}
330
2A
100
AcDbVisualStyle
  2
Conceptual
 70
     9
 71
     3
 72
     2
 73
     0
 90
        0
 40
-0.6
 41
-30.0
 62
     5
 63
     7
 74
     2
 91
        2
 64
     7
 65
   257
 75
     1
175
     1
 42
40.0
 92
        8
 66
     7
 43
1.0
 76
     1
 77
     6
 78
     2
 67
     7
 79
     3
170
     0
171
     0
290
     0
174
     0
 93
        1
 44
0.0
173
     0
291
     0
 45
0.0
1001
ACAD
1000
AcDbSavedByObjectVersion
1070
     0
  0
VISUALSTYLE
  5
35
102
{ACAD_REACTORS
330
2A
102
}
330
2A
100
AcDbVisualStyle
  2
Dim
 70
    11
 71
     2
 72
     2
 73
     0
 90
        0
 40
-0.6
 41
-30.0
 62
     5
 63
     7
 74
     1
 91
        4
 64
     7
 65
   257
 75
     1
175
     1
 42
1.0
 92
        8
 66
     7
 43
1.0
 76
     1
 77
     6
 78
     2
 67
     7
 79
     5
170
     0
171
     0
290
     0
174
     0
 93
        1
 44
-50.0
173
     0
291
     1
 45
0.0
1001
ACAD
1000
AcDbSavedByObjectVersion
1070
     0
  0
VISUALSTYLE
  5
39
102
{ACAD_REACTORS
330
2A
102
}
330
2A
100
AcDbVisualStyle
  2
Facepattern
 70
    15
 71
     2
 72
     2
 73
     0
 90
        0
 40
-0.6
 41
-30.0
 62
     5
 63
     7
 74
     1
 91
        4
 64
     7
 65
   257
 75
     1
175
     1
 42
1.0
 92
        8
 66
     7
 43
1.0
 76
     1
 77
     6
 78
     2
 67
     7
 79
     5
170
     0
171
     0
290
     0
174
     0
 93
        1
 44
0.0
173
     0
291
     1
 45
0.0
1001
ACAD
1000
AcDbSavedByObjectVersion
1070
     0
  0
VISUALSTYLE
  5
2B
102
{ACAD_REACTORS
330
2A
102
}
330
2A
100
AcDbVisualStyle
  2
Flat
 70
     0
 71
     2
 72
     1
 73
     1
 90
        2
 40
-0.6
 41
30.0
 62
     5
 63
     7
 74
     0
 91
        4
 64
     7
 65
   257
 75
     1
175
     1
 42
1.0
 92
        8
 66
     7
 43
1.0
 76
     1
 77
     6
 78
     2
 67
     7
 79
     5
170
     0
171
     0
290
     0
174
     0
 93
       13
 44
0.0
173
     0
291
     1
 45
0.0
1001
ACAD
1000
AcDbSavedByObjectVersion
1070
     0
  0
VISUALSTYLE
  5
2C
102
{ACAD_REACTORS
330
2A
102
}
330
2A
100
AcDbVisualStyle
  2
FlatWithEdges
 70
     1
 71
     2
 72
     1
 73
     1
 90
        2
 40
-0.6
 41
30.0
 62
     5
 63
     7
 74
     1
 91
        4
 64
     7
 65
   257
 75
     1
175
     1
 42
1.0
 92
        0
 66
   257
 43
1.0
 76
     1
 77
     6
 78
     2
 67
     7
 79
     5
170
     0
171
     0
290
     0
174
     0
 93
       13
 44
0.0
173
     0
291
     1
 45
0.0
1001
ACAD
1000
AcDbSavedByObjectVersion
1070
     0
  0
VISUALSTYLE
  5
2D
102
{ACAD_REACTORS
330
2A
102
}
330
2A
100
AcDbVisualStyle
  2
Gouraud
 70
     2
 71
     2
 72
     2
 73
     1
 90
        2
 40
-0.6
 41
30.0
 62
     5
 63
     7
 74
     0
 91
        4
 64
     7
 65
   257
 75
     1
175
     1
 42
1.0
 92
        0
 66
     7
 43
1.0
 76
     1
 77
     6
 78
     2
 67
     7
 79
     5
170
     0
171
     0
290
     0
174
     0
 93
       13
 44
0.0
173
     0
291
     1
 45
0.0
1001
ACAD
1000
AcDbSavedByObjectVersion
1070
     0
  0
VISUALSTYLE
  5
2E
102
{ACAD_REACTORS
330
2A
102
}
330
2A
100
AcDbVisualStyle
  2
GouraudWithEdges
 70
     3
 71
     2
 72
     2
 73
     1
 90
        2
 40
-0.6
 41
30.0
 62
     5
 63
     7
 74
     1
 91
        4
 64
     7
 65
   257
 75
     1
175
     1
 42
1.0
 92
        0
 66
   257
 43
1.0
 76
     1
 77
     6
 78
     2
 67
     7
 79
     5
170
     0
171
     0
290
     0
174
     0
 93
       13
 44
0.0
173
     0
291
     1
 45
0.0
1001
ACAD
1000
AcDbSavedByObjectVersion
1070
     0
  0
VISUALSTYLE
  5
38
102
{ACAD_REACTORS
330
2A
102
}
330
2A
100
AcDbVisualStyle
  2
Linepattern
 70
    14
 71
     2
 72
     2
 73
     0
 90
        0
 40
-0.6
 41
-30.0
 62
     5
 63
     7
 74
     1
 91
        4
 64
     7
 65
   257
 75
     7
175
     7
 42
1.0
 92
        8
 66
     7
 43
1.0
 76
     1
 77
     6
 78
     2
 67
     7
 79
     5
170
     0
171
     0
290
     0
174
     0
 93
        1
 44
0.0
173
     0
291
     1
 45
0.0
1001
ACAD
1000
AcDbSavedByObjectVersion
1070
     0
  0
VISUALSTYLE
  5
33
102
{ACAD_REACTORS
330
2A
102
}
330
2A
100
AcDbVisualStyle
  2
Realistic
 70
     8
 71
     2
 72
     2
 73
     0
 90
        0
 40
-0.6
 41
-30.0
 62
     5
 63
     7
 74
     1
 91
        0
 64
     7
 65
   257
 75
     1
175
     1
 42
1.0
 92
        8
 66
     8
 43
1.0
 76
     1
 77
     6
 78
     2
 67
     7
 79
     5
170
     0
171
     0
290
     0
174
     0
 93
       13
 44
0.0
173
     0
291
     0
 45
0.0
1001
ACAD
1000
AcDbSavedByObjectVersion
1070
     0
  0
VISUALSTYLE
  5
37
102
{ACAD_REACTORS
330
2A
102
}
330
2A
100
AcDbVisualStyle
  2
Thicken
 70
    13
 71
     2
 72
     2
 73
     0
 90
        0
 40
-0.6
 41
-30.0
 62
     5
 63
     7
 74
     1
 91
        4
 64
     7
 65
   257
 75
     1
175
     1
 42
1.0
 92
       12
 66
     7
 43
1.0
 76
     1
 77
     6
 78
     2
 67
     7
 79
     5
170
     0
171
     0
290
     0
174
     0
 93
        1
 44
0.0
173
     0
291
     1
 45
0.0
1001
ACAD
1000
AcDbSavedByObjectVersion
1070
     0
  0
DICTIONARYVAR
  5
159
102
{ACAD_REACTORS
330
156
102
}
330
156
100
DictionaryVariables
280
     0
  1
1:1
  0
ENDSEC
  0
EOF
