  0
SECTION
  2
HEADER
  9
$ACADVER
  1
AC1015
  9
$ACADMAINTVER
 70
     6
  9
$DWGCODEPAGE
  3
ANSI_1252
  9
$INSBASE
 10
0.0
 20
0.0
 30
0.0
  9
$EXTMIN
 10
-33.1226467230757
 20
253.2749263919
 30
0.0
  9
$EXTMAX
 10
271.341794651229
 20
381.748389595528
 30
0.0
  9
$LIMMIN
 10
0.0
 20
0.0
  9
$LIMMAX
 10
12.0
 20
9.0
  9
$ORTHOMODE
 70
     0
  9
$REGENMODE
 70
     1
  9
$FILLMODE
 70
     1
  9
$QTEXTMODE
 70
     0
  9
$MIRRTEXT
 70
     1
  9
$LTSCALE
 40
1.0
  9
$ATTMODE
 70
     1
  9
$TEXTSIZE
 40
0.2
  9
$TRACEWID
 40
0.05
  9
$TEXTSTYLE
  7
Standard
  9
$CLAYER
  8
0
  9
$CELTYPE
  6
ByLayer
  9
$CECOLOR
 62
   256
  9
$CELTSCALE
 40
1.0
  9
$DISPSILH
 70
     0
  9
$DIMSCALE
 40
1.0
  9
$DIMASZ
 40
0.18
  9
$DIMEXO
 40
0.0625
  9
$DIMDLI
 40
0.38
  9
$DIMRND
 40
0.0
  9
$DIMDLE
 40
0.0
  9
$DIMEXE
 40
0.18
  9
$DIMTP
 40
0.0
  9
$DIMTM
 40
0.0
  9
$DIMTXT
 40
0.18
  9
$DIMCEN
 40
0.09
  9
$DIMTSZ
 40
0.0
  9
$DIMTOL
 70
     0
  9
$DIMLIM
 70
     0
  9
$DIMTIH
 70
     1
  9
$DIMTOH
 70
     1
  9
$DIMSE1
 70
     0
  9
$DIMSE2
 70
     0
  9
$DIMTAD
 70
     0
  9
$DIMZIN
 70
     0
  9
$DIMBLK
  1

  9
$DIMASO
 70
     1
  9
$DIMSHO
 70
     1
  9
$DIMPOST
  1

  9
$DIMAPOST
  1

  9
$DIMALT
 70
     0
  9
$DIMALTD
 70
     2
  9
$DIMALTF
 40
25.4
  9
$DIMLFAC
 40
1.0
  9
$DIMTOFL
 70
     0
  9
$DIMTVP
 40
0.0
  9
$DIMTIX
 70
     0
  9
$DIMSOXD
 70
     0
  9
$DIMSAH
 70
     0
  9
$DIMBLK1
  1

  9
$DIMBLK2
  1

  9
$DIMSTYLE
  2
Standard
  9
$DIMCLRD
 70
     0
  9
$DIMCLRE
 70
     0
  9
$DIMCLRT
 70
     0
  9
$DIMTFAC
 40
1.0
  9
$DIMGAP
 40
0.09
  9
$DIMJUST
 70
     0
  9
$DIMSD1
 70
     0
  9
$DIMSD2
 70
     0
  9
$DIMTOLJ
 70
     1
  9
$DIMTZIN
 70
     0
  9
$DIMALTZ
 70
     0
  9
$DIMALTTZ
 70
     0
  9
$DIMUPT
 70
     0
  9
$DIMDEC
 70
     4
  9
$DIMTDEC
 70
     4
  9
$DIMALTU
 70
     2
  9
$DIMALTTD
 70
     2
  9
$DIMTXSTY
  7
Standard
  9
$DIMAUNIT
 70
     0
  9
$DIMADEC
 70
     0
  9
$DIMALTRND
 40
0.0
  9
$DIMAZIN
 70
     0
  9
$DIMDSEP
 70
    46
  9
$DIMATFIT
 70
     3
  9
$DIMFRAC
 70
     0
  9
$DIMLDRBLK
  1

  9
$DIMLUNIT
 70
     2
  9
$DIMLWD
 70
    -2
  9
$DIMLWE
 70
    -2
  9
$DIMTMOVE
 70
     0
  9
$LUNITS
 70
     2
  9
$LUPREC
 70
     4
  9
$SKETCHINC
 40
0.1
  9
$FILLETRAD
 40
0.5
  9
$AUNITS
 70
     0
  9
$AUPREC
 70
     0
  9
$MENU
  1
.
  9
$ELEVATION
 40
0.0
  9
$PELEVATION
 40
0.0
  9
$THICKNESS
 40
0.0
  9
$LIMCHECK
 70
     0
  9
$CHAMFERA
 40
0.5
  9
$CHAMFERB
 40
0.5
  9
$CHAMFERC
 40
1.0
  9
$CHAMFERD
 40
0.0
  9
$SKPOLY
 70
     0
  9
$TDCREATE
 40
2456748.729716933
  9
$TDUCREATE
 40
2456748.646383599
  9
$TDUPDATE
 40
2456748.729716945
  9
$TDUUPDATE
 40
2456748.646383611
  9
$TDINDWG
 40
0.0000000116
  9
$TDUSRTIMER
 40
0.0000000116
  9
$USRTIMER
 70
     1
  9
$ANGBASE
 50
0.0
  9
$ANGDIR
 70
     0
  9
$PDMODE
 70
     0
  9
$PDSIZE
 40
0.0
  9
$PLINEWID
 40
0.0
  9
$SPLFRAME
 70
     0
  9
$SPLINETYPE
 70
     6
  9
$SPLINESEGS
 70
     8
  9
$HANDSEED
  5
15A
  9
$SURFTAB1
 70
     6
  9
$SURFTAB2
 70
     6
  9
$SURFTYPE
 70
     6
  9
$SURFU
 70
     6
  9
$SURFV
 70
     6
  9
$UCSBASE
  2

  9
$UCSNAME
  2

  9
$UCSORG
 10
0.0
 20
0.0
 30
0.0
  9
$UCSXDIR
 10
1.0
 20
0.0
 30
0.0
  9
$UCSYDIR
 10
0.0
 20
1.0
 30
0.0
  9
$UCSORTHOREF
  2

  9
$UCSORTHOVIEW
 70
     0
  9
$UCSORGTOP
 10
0.0
 20
0.0
 30
0.0
  9
$UCSORGBOTTOM
 10
0.0
 20
0.0
 30
0.0
  9
$UCSORGLEFT
 10
0.0
 20
0.0
 30
0.0
  9
$UCSORGRIGHT
 10
0.0
 20
0.0
 30
0.0
  9
$UCSORGFRONT
 10
0.0
 20
0.0
 30
0.0
  9
$UCSORGBACK
 10
0.0
 20
0.0
 30
0.0
  9
$PUCSBASE
  2

  9
$PUCSNAME
  2

  9
$PUCSORG
 10
0.0
 20
0.0
 30
0.0
  9
$PUCSXDIR
 10
1.0
 20
0.0
 30
0.0
  9
$PUCSYDIR
 10
0.0
 20
1.0
 30
0.0
  9
$PUCSORTHOREF
  2

  9
$PUCSORTHOVIEW
 70
     0
  9
$PUCSORGTOP
 10
0.0
 20
0.0
 30
0.0
  9
$PUCSORGBOTTOM
 10
0.0
 20
0.0
 30
0.0
  9
$PUCSORGLEFT
 10
0.0
 20
0.0
 30
0.0
  9
$PUCSORGRIGHT
 10
0.0
 20
0.0
 30
0.0
  9
$PUCSORGFRONT
 10
0.0
 20
0.0
 30
0.0
  9
$PUCSORGBACK
 10
0.0
 20
0.0
 30
0.0
  9
$USERI1
 70
     0
  9
$USERI2
 70
     0
  9
$USERI3
 70
     0
  9
$USERI4
 70
     0
  9
$USERI5
 70
     0
  9
$USERR1
 40
16.5
  9
$USERR2
 40
0.0
  9
$USERR3
 40
0.0
  9
$USERR4
 40
0.0
  9
$USERR5
 40
0.0
  9
$WORLDVIEW
 70
     1
  9
$SHADEDGE
 70
     3
  9
$SHADEDIF
 70
    70
  9
$TILEMODE
 70
     1
  9
$MAXACTVP
 70
    64
  9
$PINSBASE
 10
0.0
 20
0.0
 30
0.0
  9
$PLIMCHECK
 70
     0
  9
$PEXTMIN
 10
1.00000000000000E+20
 20
1.00000000000000E+20
 30
1.00000000000000E+20
  9
$PEXTMAX
 10
-1.00000000000000E+20
 20
-1.00000000000000E+20
 30
-1.00000000000000E+20
  9
$PLIMMIN
 10
0.0
 20
0.0
  9
$PLIMMAX
 10
12.0
 20
9.0
  9
$UNITMODE
 70
     0
  9
$VISRETAIN
 70
     1
  9
$PLINEGEN
 70
     0
  9
$PSLTSCALE
 70
     1
  9
$TREEDEPTH
 70
  3020
  9
$CMLSTYLE
  2
Standard
  9
$CMLJUST
 70
     0
  9
$CMLSCALE
 40
1.0
  9
$PROXYGRAPHICS
 70
     1
  9
$MEASUREMENT
 70
     1
  9
$CELWEIGHT
370
    -1
  9
$ENDCAPS
280
     0
  9
$JOINSTYLE
280
     0
  9
$LWDISPLAY
290
     0
  9
$INSUNITS
 70
     1
  9
$HYPERLINKBASE
  1

  9
$STYLESHEET
  1

  9
$XEDIT
290
     1
  9
$CEPSNTYPE
380
     0
  9
$PSTYLEMODE
290
     1
  9
$FINGERPRINTGUID
  2
{49F2B510-899D-41F7-A64B-E034C52CD318}
  9
$VERSIONGUID
  2
{FAEB1C32-E019-11D5-929B-00C0DF256EC4}
  9
$EXTNAMES
290
     1
  9
$PSVPSCALE
 40
0.0
  9
$OLESTARTUP
290
     0
  0
ENDSEC
  0
SECTION
  2
CLASSES
  0
CLASS
  1
ACDBDICTIONARYWDFLT
  2
AcDbDictionaryWithDefault
  3
ObjectDBX Classes
 90
        0
280
     0
281
     0
  0
CLASS
  1
VISUALSTYLE
  2
AcDbVisualStyle
  3
ObjectDBX Classes
 90
     4095
280
     0
281
     0
  0
CLASS
  1
SCALE
  2
AcDbScale
  3
ObjectDBX Classes
 90
     1153
280
     0
281
     0
  0
CLASS
  1

  2
exOdDbPolyline
  3

 90
        0
280
     0
281
     1
  0
CLASS
  1

  2
exOdDbCircle
  3

 90
        0
280
     0
281
     1
  0
CLASS
  1

  2
exOdDbSpline
  3

 90
        0
280
     0
281
     1
  0
CLASS
  1
DICTIONARYVAR
  2
AcDbDictionaryVar
  3
ObjectDBX Classes
 90
        0
280
     0
281
     0
  0
CLASS
  1
ACDBPLACEHOLDER
  2
AcDbPlaceHolder
  3
ObjectDBX Classes
 90
        0
280
     0
281
     0
  0
CLASS
  1
LAYOUT
  2
AcDbLayout
  3
ObjectDBX Classes
 90
        0
280
     0
281
     0
  0
ENDSEC
  0
SECTION
  2
TABLES
  0
TABLE
  2
VPORT
  5
8
330
0
100
AcDbSymbolTable
 70
     1
  0
VPORT
  5
29
330
8
100
AcDbSymbolTableRecord
100
AcDbViewportTableRecord
  2
*Active
 70
     0
 10
0.0
 20
0.0
 11
1.0
 21
1.0
 12
119.1095739640767
 22
317.511657993714
 13
0.0
 23
0.0
 14
0.5
 24
0.5
 15
0.5
 25
0.5
 16
0.0
 26
0.0
 36
1.0
 17
0.0
 27
0.0
 37
0.0
 40
208.9694661688822
 41
1.60267857142857
 42
50.0
 43
0.0
 44
0.0
 50
0.0
 51
0.0
 71
     0
 72
   100
 73
     1
 74
     3
 75
     0
 76
     0
 77
     0
 78
     0
281
     0
 65
     1
110
0.0
120
0.0
130
0.0
111
1.0
121
0.0
131
0.0
112
0.0
122
1.0
132
0.0
 79
     0
146
0.0
  0
ENDTAB
  0
TABLE
  2
LTYPE
  5
5
330
0
100
AcDbSymbolTable
 70
     8
  0
LTYPE
  5
14
330
5
100
AcDbSymbolTableRecord
100
AcDbLinetypeTableRecord
  2
ByBlock
 70
     0
  3

 72
    65
 73
     0
 40
0.0
  0
LTYPE
  5
15
330
5
100
AcDbSymbolTableRecord
100
AcDbLinetypeTableRecord
  2
ByLayer
 70
     0
  3

 72
    65
 73
     0
 40
0.0
  0
LTYPE
  5
16
330
5
100
AcDbSymbolTableRecord
100
AcDbLinetypeTableRecord
  2
Continuous
 70
     0
  3
Solid line
 72
    65
 73
     0
 40
0.0
  0
LTYPE
  5
3B
330
5
100
AcDbSymbolTableRecord
100
AcDbLinetypeTableRecord
  2
DASHED
 70
     0
  3
Dashed
 72
    65
 73
     2
 40
15.0
 49
7.0
 74
     0
 49
-8.0
 74
     0
  0
LTYPE
  5
3C
330
5
100
AcDbSymbolTableRecord
100
AcDbLinetypeTableRecord
  2
DOTTED
 70
     0
  3
Dotted
 72
    65
 73
     2
 40
1.0
 49
0.0
 74
     0
 49
-1.0
 74
     0
  0
LTYPE
  5
3D
330
5
100
AcDbSymbolTableRecord
100
AcDbLinetypeTableRecord
  2
DOT_CENTER
 70
     0
  3
Dot_Center
 72
    65
 73
     4
 40
14.0
 49
12.0
 74
     0
 49
-1.0
 74
     0
 49
0.0
 74
     0
 49
-1.0
 74
     0
  0
LTYPE
  5
3E
330
5
100
AcDbSymbolTableRecord
100
AcDbLinetypeTableRecord
  2
LONG_DASHED
 70
     0
  3
Long_Dashed
 72
    65
 73
     2
 40
15.0
 49
10.0
 74
     0
 49
-5.0
 74
     0
  0
LTYPE
  5
3F
330
5
100
AcDbSymbolTableRecord
100
AcDbLinetypeTableRecord
  2
DASH_CENTER
 70
     0
  3
Dash_Center
 72
    65
 73
     4
 40
14.0
 49
11.0
 74
     0
 49
-1.0
 74
     0
 49
1.0
 74
     0
 49
-1.0
 74
     0
  0
LTYPE
  5
40
330
5
100
AcDbSymbolTableRecord
100
AcDbLinetypeTableRecord
  2
PHANTOM
 70
     0
  3
Phantom
 72
    65
 73
     6
 40
13.0
 49
10.0
 74
     0
 49
-1.0
 74
     0
 49
0.0
 74
     0
 49
-1.0
 74
     0
 49
0.0
 74
     0
 49
-1.0
 74
     0
  0
LTYPE
  5
41
330
5
100
AcDbSymbolTableRecord
100
AcDbLinetypeTableRecord
  2
CENTER_DASH_DASH
 70
     0
  3
Center_Dash_Dash
 72
    65
 73
     6
 40
14.0
 49
9.0
 74
     0
 49
-1.0
 74
     0
 49
1.0
 74
     0
 49
-1.0
 74
     0
 49
1.0
 74
     0
 49
-1.0
 74
     0
  0
ENDTAB
  0
TABLE
  2
LAYER
  5
2
330
0
100
AcDbSymbolTable
 70
     6
  0
LAYER
  5
10
330
2
100
AcDbSymbolTableRecord
100
AcDbLayerTableRecord
  2
0
 70
     0
 62
     7
  6
Continuous
370
    -3
390
F
  0
LAYER
  5
42
330
2
100
AcDbSymbolTableRecord
100
AcDbLayerTableRecord
  2
1
 70
     0
 62
     7
  6
Continuous
370
    -3
390
F
  0
LAYER
  5
43
330
2
100
AcDbSymbolTableRecord
100
AcDbLayerTableRecord
  2
BEZUGSACHSEN
 70
     0
 62
     7
  6
Continuous
370
    -3
390
F
  0
LAYER
  5
44
330
2
100
AcDbSymbolTableRecord
100
AcDbLayerTableRecord
  2
DEFAULT_2
 70
     0
 62
     7
  6
Continuous
370
    -3
390
F
  0
LAYER
  5
45
330
2
100
AcDbSymbolTableRecord
100
AcDbLayerTableRecord
  2
FASEN
 70
     0
 62
     7
  6
Continuous
370
    -3
390
F
  0
LAYER
  5
46
330
2
100
AcDbSymbolTableRecord
100
AcDbLayerTableRecord
  2
RUNDUNGEN
 70
     0
 62
     7
  6
Continuous
370
    -3
390
F
  0
ENDTAB
  0
TABLE
  2
STYLE
  5
3
330
0
100
AcDbSymbolTable
 70
     2
  0
STYLE
  5
11
330
3
100
AcDbSymbolTableRecord
100
AcDbTextStyleTableRecord
  2
Standard
 70
     0
 40
0.0
 41
1.0
 50
0.0
 71
     0
 42
0.2
  3
txt
  4

  0
STYLE
  5
6D
330
3
100
AcDbSymbolTableRecord
100
AcDbTextStyleTableRecord
  2
CONVERTER_11
 70
     0
 40
0.0
 41
0.72
 50
0.0
 71
     0
 42
0.2
  3
txt.shx
  4

  0
ENDTAB
  0
TABLE
  2
VIEW
  5
6
330
0
100
AcDbSymbolTable
 70
     0
  0
ENDTAB
  0
TABLE
  2
UCS
  5
7
330
0
100
AcDbSymbolTable
 70
     0
  0
ENDTAB
  0
TABLE
  2
APPID
  5
9
330
0
100
AcDbSymbolTable
 70
     1
  0
APPID
  5
12
330
9
100
AcDbSymbolTableRecord
100
AcDbRegAppTableRecord
  2
ACAD
 70
     0
  0
ENDTAB
  0
TABLE
  2
DIMSTYLE
  5
A
330
0
100
AcDbSymbolTable
 70
     8
100
AcDbDimStyleTable
  0
DIMSTYLE
105
27
330
A
100
AcDbSymbolTableRecord
100
AcDbDimStyleTableRecord
  2
Standard
 70
     0
340
11
  0
DIMSTYLE
105
10B
102
{ACAD_REACTORS
330
10C
102
}
330
A
100
AcDbSymbolTableRecord
100
AcDbDimStyleTableRecord
  2
ME10_DIM_10
 70
     0
  3
\U+2300<>
 41
3.5
 42
2.0
 44
2.0
 71
     1
 73
     0
 74
     0
 77
     1
 78
     8
140
3.5
146
0.7
147
2.0
172
     1
173
     1
176
     2
177
     2
178
     3
271
     2
272
     0
340
6D
  0
DIMSTYLE
105
116
102
{ACAD_REACTORS
330
117
102
}
330
A
100
AcDbSymbolTableRecord
100
AcDbDimStyleTableRecord
  2
ME10_DIM_11
 70
     0
  3
\U+2300<>
 41
3.5
 42
2.0
 44
2.0
 71
     1
 73
     0
 74
     0
 77
     1
 78
     8
140
3.5
146
0.7
147
2.0
172
     1
173
     1
176
     2
177
     2
178
     3
271
     2
272
     0
340
6D
  0
DIMSTYLE
105
121
102
{ACAD_REACTORS
330
122
102
}
330
A
100
AcDbSymbolTableRecord
100
AcDbDimStyleTableRecord
  2
ME10_DIM_12
 70
     0
  3
\U+2300<>
 41
3.5
 42
2.0
 44
2.0
 71
     1
 73
     0
 74
     0
 77
     1
 78
     8
140
3.5
146
0.7
147
2.0
172
     1
173
     1
176
     2
177
     2
178
     3
271
     2
272
     0
340
6D
  0
DIMSTYLE
105
12C
102
{ACAD_REACTORS
330
12D
102
}
330
A
100
AcDbSymbolTableRecord
100
AcDbDimStyleTableRecord
  2
ME10_DIM_13
 70
     0
  3
<>
 41
3.5
 42
2.0
 44
2.0
 71
     1
 73
     0
 74
     0
 77
     1
 78
     8
140
3.5
146
0.7
147
2.0
172
     1
173
     1
176
     2
177
     2
178
     3
271
     2
272
     0
340
6D
  0
DIMSTYLE
105
137
102
{ACAD_REACTORS
330
138
102
}
330
A
100
AcDbSymbolTableRecord
100
AcDbDimStyleTableRecord
  2
ME10_DIM_14
 70
     0
  3
<>
 41
3.5
 42
2.0
 44
2.0
 71
     1
 73
     0
 74
     0
 77
     1
 78
     8
140
3.5
146
0.7
147
2.0
172
     1
173
     1
176
     2
177
     2
178
     3
271
     2
272
     0
340
6D
  0
DIMSTYLE
105
142
102
{ACAD_REACTORS
330
143
102
}
330
A
100
AcDbSymbolTableRecord
100
AcDbDimStyleTableRecord
  2
ME10_DIM_15
 70
     0
  3
<>
 41
3.5
 42
2.0
 44
2.0
 71
     1
 73
     0
 74
     0
 77
     1
 78
     8
140
3.5
146
0.7
147
2.0
172
     1
173
     1
176
     2
177
     2
178
     3
271
     2
272
     0
340
6D
  0
DIMSTYLE
105
154
102
{ACAD_REACTORS
330
155
102
}
330
A
100
AcDbSymbolTableRecord
100
AcDbDimStyleTableRecord
  2
ME10_DIM_16
 70
     0
  3
<>
 41
3.5
 42
2.0
 44
2.0
 71
     1
 73
     0
 74
     0
 77
     1
 78
     8
140
3.5
146
0.7
147
2.0
172
     1
173
     1
176
     2
177
     2
178
     3
271
     2
272
     0
340
6D
  0
ENDTAB
  0
TABLE
  2
BLOCK_RECORD
  5
1
330
0
100
AcDbSymbolTable
 70
    10
  0
BLOCK_RECORD
  5
1F
330
1
100
AcDbSymbolTableRecord
100
AcDbBlockTableRecord
  2
*Model_Space
340
22
  0
BLOCK_RECORD
  5
1B
330
1
100
AcDbSymbolTableRecord
100
AcDbBlockTableRecord
  2
*Paper_Space
340
1E
  0
BLOCK_RECORD
  5
23
330
1
100
AcDbSymbolTableRecord
100
AcDbBlockTableRecord
  2
*Paper_Space0
340
26
  0
BLOCK_RECORD
  5
47
330
1
100
AcDbSymbolTableRecord
100
AcDbBlockTableRecord
  2
Urheberrecht_DE-EN
340
0
102
{BLKREFS
331
6C
102
}
  0
BLOCK_RECORD
  5
100
330
1
100
AcDbSymbolTableRecord
100
AcDbBlockTableRecord
  2
*D2
340
0
  0
BLOCK_RECORD
  5
10D
330
1
100
AcDbSymbolTableRecord
100
AcDbBlockTableRecord
  2
*D3
340
0
  0
BLOCK_RECORD
  5
118
330
1
100
AcDbSymbolTableRecord
100
AcDbBlockTableRecord
  2
*D4
340
0
  0
BLOCK_RECORD
  5
123
330
1
100
AcDbSymbolTableRecord
100
AcDbBlockTableRecord
  2
*D5
340
0
  0
BLOCK_RECORD
  5
12E
330
1
100
AcDbSymbolTableRecord
100
AcDbBlockTableRecord
  2
*D6
340
0
  0
BLOCK_RECORD
  5
139
330
1
100
AcDbSymbolTableRecord
100
AcDbBlockTableRecord
  2
*D7
340
0
  0
BLOCK_RECORD
  5
144
330
1
100
AcDbSymbolTableRecord
100
AcDbBlockTableRecord
  2
*D8
340
0
102
{BLKREFS
331
14A
102
}
  0
BLOCK_RECORD
  5
14B
330
1
100
AcDbSymbolTableRecord
100
AcDbBlockTableRecord
  2
*D9
340
0
  0
ENDTAB
  0
ENDSEC
  0
SECTION
  2
BLOCKS
  0
BLOCK
  5
20
330
1F
100
AcDbEntity
  8
0
100
AcDbBlockBegin
  2
*Model_Space
 70
     0
 10
0.0
 20
0.0
 30
0.0
  3
*Model_Space
  1

  0
ENDBLK
  5
21
330
1F
100
AcDbEntity
  8
0
100
AcDbBlockEnd
  0
BLOCK
  5
1C
330
1B
100
AcDbEntity
 67
     1
  8
0
100
AcDbBlockBegin
  2
*Paper_Space
 70
     0
 10
0.0
 20
0.0
 30
0.0
  3
*Paper_Space
  1

  0
ENDBLK
  5
1D
330
1B
100
AcDbEntity
 67
     1
  8
0
100
AcDbBlockEnd
  0
BLOCK
  5
24
330
23
100
AcDbEntity
  8
0
100
AcDbBlockBegin
  2
*Paper_Space0
 70
     0
 10
0.0
 20
0.0
 30
0.0
  3
*Paper_Space0
  1

  0
ENDBLK
  5
25
330
23
100
AcDbEntity
  8
0
100
AcDbBlockEnd
  0
BLOCK
  5
48
330
47
100
AcDbEntity
  8
0
100
AcDbBlockBegin
  2
Urheberrecht_DE-EN
 70
     0
 10
-19.1226467230757
 20
322.474973486838
 30
0.0
  3
Urheberrecht_DE-EN
  1

  0
MTEXT
  5
6E
330
47
100
AcDbEntity
  8
1
 62
     1
100
AcDbMText
 10
-19.1226467230757
 20
322.474973486838
 30
0.0
 40
2.0
 41
0.0
 71
     7
 72
     1
  1
We own the copyright of this document. It \Pdetermined and may neither be copied or \Pmade accessible to outsiders without our\Ppermission.
  7
CONVERTER_11
 11
0.0
 21
1.0
 31
0.0
 73
     1
 44
0.90036014405762
  0
MTEXT
  5
6F
330
47
100
AcDbEntity
  8
1
 62
     1
100
AcDbMText
 10
-19.1226467230757
 20
266.1855865695318
 30
0.0
 40
2.0
 41
0.0
 71
     7
 72
     1
  1
F\U+00fcr diese Unterlage behalten wir das Ur-\Pheberrecht. Sie darf nur f\U+00fcr den von uns \Pbestimmten Zweck benutzt und ohne unsere \PZustimmung weder vervielf\U+00e4ltigt noch\PDritten zug\U+00e4nglich gemacht werden.
  7
CONVERTER_11
 11
0.0
 21
1.0
 31
0.0
 73
     1
 44
0.90036014405762
  0
ENDBLK
  5
49
330
47
100
AcDbEntity
  8
0
100
AcDbBlockEnd
  0
BLOCK
  5
109
330
100
100
AcDbEntity
  8
0
100
AcDbBlockBegin
  2
*D2
 70
     1
 10
0.0
 20
0.0
 30
0.0
  3
*D2
  1

  0
LINE
  5
101
330
100
100
AcDbEntity
  8
1
  6
Continuous
 62
     2
100
AcDbLine
 10
250.137704911895
 20
313.2749263919
 30
0.0
 11
250.137704911895
 21
306.2749263919
 31
0.0
  0
LINE
  5
102
330
100
100
AcDbEntity
  8
1
  6
Continuous
 62
     2
100
AcDbLine
 10
250.137704911895
 20
306.2749263919
 30
0.0
 11
250.137704911895
 21
300.2749263919
 31
0.0
  0
LINE
  5
103
330
100
100
AcDbEntity
  8
1
  6
Continuous
 62
     2
100
AcDbLine
 10
250.137704911895
 20
300.2749263919
 30
0.0
 11
250.137704911895
 21
293.2749263919
 31
0.0
  0
LINE
  5
104
330
100
100
AcDbEntity
  8
1
  6
Continuous
 62
     2
100
AcDbLine
 10
241.6939908994
 20
306.2749263919
 30
0.0
 11
252.137704911895
 21
306.2749263919
 31
0.0
  0
LINE
  5
105
330
100
100
AcDbEntity
  8
1
  6
Continuous
 62
     2
100
AcDbLine
 10
241.6939908994
 20
300.2749263919
 30
0.0
 11
252.137704911895
 21
300.2749263919
 31
0.0
  0
SOLID
  5
106
330
100
100
AcDbEntity
  8
1
 62
     2
100
AcDbTrace
 10
249.6769211703391
 20
309.7749263919
 30
0.0
 11
250.5984886534509
 21
309.7749263919
 31
0.0
 12
250.137704911895
 22
306.2749263919
 32
0.0
 13
250.137704911895
 23
306.2749263919
 33
0.0
  0
SOLID
  5
107
330
100
100
AcDbEntity
  8
1
 62
     2
100
AcDbTrace
 10
250.5984886534509
 20
296.7749263919
 30
0.0
 11
249.6769211703391
 21
296.7749263919
 31
0.0
 12
250.137704911895
 22
300.2749263919
 32
0.0
 13
250.137704911895
 23
300.2749263919
 33
0.0
  0
MTEXT
  5
108
330
100
100
AcDbEntity
  8
1
 62
     3
100
AcDbMText
 10
248.137704911895
 20
302.705753518019
 30
0.0
 40
3.5
 41
0.0
 71
     7
 72
     1
  1
\C3;%%c\C3;\C3;6\C2;\H2.45;\S^ ;\C3;
  7
CONVERTER_11
 11
0.0
 21
1.0
 31
0.0
 73
     1
 44
0.60024009603842
  0
ENDBLK
  5
10A
330
100
100
AcDbEntity
  8
0
100
AcDbBlockEnd
  0
BLOCK
  5
114
330
10D
100
AcDbEntity
  8
0
100
AcDbBlockBegin
  2
*D3
 70
     1
 10
0.0
 20
0.0
 30
0.0
  3
*D3
  1

  0
LINE
  5
10E
330
10D
100
AcDbEntity
  8
1
  6
Continuous
 62
     2
100
AcDbLine
 10
260.88494779354
 20
313.7749263918466
 30
0.0
 11
260.88494779354
 21
292.7749263918487
 31
0.0
  0
LINE
  5
10F
330
10D
100
AcDbEntity
  8
1
  6
Continuous
 62
     2
100
AcDbLine
 10
241.6939908994
 20
313.7749263918466
 30
0.0
 11
262.88494779354
 21
313.7749263918466
 31
0.0
  0
LINE
  5
110
330
10D
100
AcDbEntity
  8
1
  6
Continuous
 62
     2
100
AcDbLine
 10
241.6939908994
 20
292.7749263918487
 30
0.0
 11
262.88494779354
 21
292.7749263918487
 31
0.0
  0
SOLID
  5
111
330
10D
100
AcDbEntity
  8
1
 62
     2
100
AcDbTrace
 10
261.3457315350959
 20
310.2749263918466
 30
0.0
 11
260.4241640519841
 21
310.2749263918466
 31
0.0
 12
260.88494779354
 22
313.7749263918466
 32
0.0
 13
260.88494779354
 23
313.7749263918466
 33
0.0
  0
SOLID
  5
112
330
10D
100
AcDbEntity
  8
1
 62
     2
100
AcDbTrace
 10
260.4241640519841
 20
296.2749263918487
 30
0.0
 11
261.3457315350959
 21
296.2749263918487
 31
0.0
 12
260.88494779354
 22
292.7749263918487
 32
0.0
 13
260.88494779354
 23
292.7749263918487
 33
0.0
  0
MTEXT
  5
113
330
10D
100
AcDbEntity
  8
1
 62
     3
100
AcDbMText
 10
258.88494779354
 20
294.818381136612
 30
0.0
 40
3.5
 41
0.0
 71
     7
 72
     1
  1
\C3;%%c\C3;\C3;21\C2;\H2.45;\S^ ;\C3;
  7
CONVERTER_11
 11
0.0
 21
1.0
 31
0.0
 73
     1
 44
0.60024009603842
  0
ENDBLK
  5
115
330
10D
100
AcDbEntity
  8
0
100
AcDbBlockEnd
  0
BLOCK
  5
11F
330
118
100
AcDbEntity
  8
0
100
AcDbBlockBegin
  2
*D4
 70
     1
 10
0.0
 20
0.0
 30
0.0
  3
*D4
  1

  0
LINE
  5
119
330
118
100
AcDbEntity
  8
1
  6
Continuous
 62
     2
100
AcDbLine
 10
269.341794651229
 20
316.7749263919
 30
0.0
 11
269.341794651229
 21
289.7749263919
 31
0.0
  0
LINE
  5
11A
330
118
100
AcDbEntity
  8
1
  6
Continuous
 62
     2
100
AcDbLine
 10
203.5753766908
 20
316.7749263919
 30
0.0
 11
271.341794651229
 21
316.7749263919
 31
0.0
  0
LINE
  5
11B
330
118
100
AcDbEntity
  8
1
  6
Continuous
 62
     2
100
AcDbLine
 10
203.5753766908
 20
289.7749263919
 30
0.0
 11
271.341794651229
 21
289.7749263919
 31
0.0
  0
SOLID
  5
11C
330
118
100
AcDbEntity
  8
1
 62
     2
100
AcDbTrace
 10
269.8025783927849
 20
313.2749263919
 30
0.0
 11
268.8810109096731
 21
313.2749263919
 31
0.0
 12
269.341794651229
 22
316.7749263919
 32
0.0
 13
269.341794651229
 23
316.7749263919
 33
0.0
  0
SOLID
  5
11D
330
118
100
AcDbEntity
  8
1
 62
     2
100
AcDbTrace
 10
268.8810109096731
 20
293.2749263919
 30
0.0
 11
269.8025783927849
 21
293.2749263919
 31
0.0
 12
269.341794651229
 22
289.7749263919
 32
0.0
 13
269.341794651229
 23
289.7749263919
 33
0.0
  0
MTEXT
  5
11E
330
118
100
AcDbEntity
  8
1
 62
     3
100
AcDbMText
 10
267.341794651229
 20
294.398381136612
 30
0.0
 40
3.5
 41
0.0
 71
     7
 72
     1
  1
\C3;%%c\C3;\C3;27\C2;\H2.45;\S^ ;\C3;
  7
CONVERTER_11
 11
0.0
 21
1.0
 31
0.0
 73
     1
 44
0.60024009603842
  0
ENDBLK
  5
120
330
118
100
AcDbEntity
  8
0
100
AcDbBlockEnd
  0
BLOCK
  5
12A
330
123
100
AcDbEntity
  8
0
100
AcDbBlockBegin
  2
*D5
 70
     1
 10
0.0
 20
0.0
 30
0.0
  3
*D5
  1

  0
LINE
  5
124
330
123
100
AcDbEntity
  8
1
  6
Continuous
 62
     2
100
AcDbLine
 10
239.6939908994
 20
361.746571902291
 30
0.0
 11
68.6939908994
 21
361.746571902291
 31
0.0
  0
LINE
  5
125
330
123
100
AcDbEntity
  8
1
  6
Continuous
 62
     2
100
AcDbLine
 10
239.6939908994
 20
314.8505359002
 30
0.0
 11
239.6939908994
 21
363.746571902291
 31
0.0
  0
LINE
  5
126
330
123
100
AcDbEntity
  8
1
  6
Continuous
 62
     2
100
AcDbLine
 10
68.6939908994
 20
355.2748894707
 30
0.0
 11
68.6939908994
 21
363.746571902291
 31
0.0
  0
SOLID
  5
127
330
123
100
AcDbEntity
  8
1
 62
     2
100
AcDbTrace
 10
236.1939908994
 20
361.2857881607351
 30
0.0
 11
236.1939908994
 21
362.2073556438469
 31
0.0
 12
239.6939908994
 22
361.746571902291
 32
0.0
 13
239.6939908994
 23
361.746571902291
 33
0.0
  0
SOLID
  5
128
330
123
100
AcDbEntity
  8
1
 62
     2
100
AcDbTrace
 10
72.1939908994
 20
362.2073556438469
 30
0.0
 11
72.1939908994
 21
361.2857881607351
 31
0.0
 12
68.6939908994
 22
361.746571902291
 32
0.0
 13
68.6939908994
 23
361.746571902291
 33
0.0
  0
MTEXT
  5
129
330
123
100
AcDbEntity
  8
1
 62
     3
100
AcDbMText
 10
150.363966048477
 20
363.746571902291
 30
0.0
 40
3.5
 41
0.0
 71
     7
 72
     1
  1
\C3;\C3;\C3;171\C2;\H2.45;\S^ ;\C3;
  7
CONVERTER_11
 11
0.9999999999970619
 21
2.424068405545306E-6
 31
0.0
 73
     1
 44
0.60024009603842
  0
ENDBLK
  5
12B
330
123
100
AcDbEntity
  8
0
100
AcDbBlockEnd
  0
BLOCK
  5
135
330
12E
100
AcDbEntity
  8
0
100
AcDbBlockBegin
  2
*D6
 70
     1
 10
0.0
 20
0.0
 30
0.0
  3
*D6
  1

  0
LINE
  5
12F
330
12E
100
AcDbEntity
  8
1
  6
Continuous
 62
     2
100
AcDbLine
 10
239.6939908994
 20
369.09223155825
 30
0.0
 11
39.69399089940001
 21
369.09223155825
 31
0.0
  0
LINE
  5
130
330
12E
100
AcDbEntity
  8
1
  6
Continuous
 62
     2
100
AcDbLine
 10
239.6939908994
 20
314.8505359002
 30
0.0
 11
239.6939908994
 21
371.09223155825
 31
0.0
  0
LINE
  5
131
330
12E
100
AcDbEntity
  8
1
  6
Continuous
 62
     2
100
AcDbLine
 10
39.69399089940001
 20
355.2749263919
 30
0.0
 11
39.69399089940001
 21
371.09223155825
 31
0.0
  0
SOLID
  5
132
330
12E
100
AcDbEntity
  8
1
 62
     2
100
AcDbTrace
 10
236.1939908994
 20
368.6314478166941
 30
0.0
 11
236.1939908994
 21
369.5530152998058
 31
0.0
 12
239.6939908994
 22
369.09223155825
 32
0.0
 13
239.6939908994
 23
369.09223155825
 33
0.0
  0
SOLID
  5
133
330
12E
100
AcDbEntity
  8
1
 62
     2
100
AcDbTrace
 10
43.19399089940001
 20
369.5530152998058
 30
0.0
 11
43.19399089940001
 21
368.6314478166941
 31
0.0
 12
39.69399089940001
 22
369.09223155825
 32
0.0
 13
39.69399089940001
 23
369.09223155825
 33
0.0
  0
MTEXT
  5
134
330
12E
100
AcDbEntity
  8
1
 62
     3
100
AcDbMText
 10
133.317136831382
 20
371.09223155825
 30
0.0
 40
3.5
 41
0.0
 71
     7
 72
     1
  1
\C3;\C3;\C3;200\C2;\H2.45;\S^ ;\C3;
  7
CONVERTER_11
 11
0.9999999999970619
 21
2.424068405545306E-6
 31
0.0
 73
     1
 44
0.60024009603842
  0
ENDBLK
  5
136
330
12E
100
AcDbEntity
  8
0
100
AcDbBlockEnd
  0
BLOCK
  5
140
330
139
100
AcDbEntity
  8
0
100
AcDbBlockBegin
  2
*D7
 70
     1
 10
0.0
 20
0.0
 30
0.0
  3
*D7
  1

  0
LINE
  5
13A
330
139
100
AcDbEntity
  8
1
  6
Continuous
 62
     2
100
AcDbLine
 10
239.6939908994
 20
376.248389595528
 30
0.0
 11
-10.30600910060001
 21
376.248389595528
 31
0.0
  0
LINE
  5
13B
330
139
100
AcDbEntity
  8
1
  6
Continuous
 62
     2
100
AcDbLine
 10
239.6939908994
 20
314.8505359002
 30
0.0
 11
239.6939908994
 21
378.248389595528
 31
0.0
  0
LINE
  5
13C
330
139
100
AcDbEntity
  8
1
  6
Continuous
 62
     2
100
AcDbLine
 10
-10.30600910060001
 20
338.8751179544
 30
0.0
 11
-10.30600910060001
 21
378.248389595528
 31
0.0
  0
SOLID
  5
13D
330
139
100
AcDbEntity
  8
1
 62
     2
100
AcDbTrace
 10
236.1939908994
 20
375.7876058539721
 30
0.0
 11
236.1939908994
 21
376.7091733370839
 31
0.0
 12
239.6939908994
 22
376.248389595528
 32
0.0
 13
239.6939908994
 23
376.248389595528
 33
0.0
  0
SOLID
  5
13E
330
139
100
AcDbEntity
  8
1
 62
     2
100
AcDbTrace
 10
-6.80600910060001
 20
376.7091733370839
 30
0.0
 11
-6.80600910060001
 21
375.7876058539721
 31
0.0
 12
-10.30600910060001
 22
376.248389595528
 32
0.0
 13
-10.30600910060001
 23
376.248389595528
 33
0.0
  0
MTEXT
  5
13F
330
139
100
AcDbEntity
  8
1
 62
     3
100
AcDbMText
 10
121.253898997113
 20
378.248389595528
 30
0.0
 40
3.5
 41
0.0
 71
     7
 72
     1
  1
\C3;\C3;\C3;250\C2;\H2.45;\S^ ;\C3;
  7
CONVERTER_11
 11
0.9999999999970619
 21
2.424068405545306E-6
 31
0.0
 73
     1
 44
0.60024009603842
  0
ENDBLK
  5
141
330
139
100
AcDbEntity
  8
0
100
AcDbBlockEnd
  0
BLOCK
  5
148
330
144
100
AcDbEntity
  8
0
100
AcDbBlockBegin
  2
*D8
 70
     1
 10
0.0
 20
0.0
 30
0.0
  3
*D8
  1

  0
LINE
  5
145
330
144
100
AcDbEntity
  8
1
  6
Continuous
 62
     2
100
AcDbLine
 10
82.57797514036645
 20
338.0406467099956
 30
0.0
 11
72.25099228560072
 21
330.8900628336146
 31
0.0
  0
SOLID
  5
146
330
144
100
AcDbEntity
  8
1
 62
     2
100
AcDbTrace
 10
74.86620621357068
 20
333.2613447163595
 30
0.0
 11
75.39082787245873
 21
332.5036780739933
 31
0.0
 12
72.25099228560072
 22
330.8900628336146
 32
0.0
 13
72.25099228560072
 23
330.8900628336146
 33
0.0
  0
MTEXT
  5
147
330
144
100
AcDbEntity
  8
1
 62
     3
100
AcDbMText
 10
73.26726279413259
 20
334.0263926565395
 30
0.0
 40
3.5
 41
0.0
 71
     7
 72
     1
  1
\C3; R\C3;\C3;20\C2;\H2.45;\S^ ;\C3;
  7
CONVERTER_11
 11
0.8221499306897055
 21
0.5692710175890853
 31
0.0
 73
     1
 44
0.60024009603842
  0
ENDBLK
  5
149
330
144
100
AcDbEntity
  8
0
100
AcDbBlockEnd
  0
BLOCK
  5
152
330
14B
100
AcDbEntity
  8
0
100
AcDbBlockBegin
  2
*D9
 70
     1
 10
0.0
 20
0.0
 30
0.0
  3
*D9
  1

  0
LINE
  5
14C
330
14B
100
AcDbEntity
  8
1
  6
Continuous
 62
     2
100
AcDbLine
 10
225.7548575930241
 20
316.7749263919
 30
0.0
 11
227.7548575930241
 21
316.7749263919
 31
0.0
  0
LINE
  5
14D
330
14B
100
AcDbEntity
  8
1
  6
Continuous
 62
     2
100
AcDbLine
 10
203.5753766908
 20
316.7749263919
 30
0.0
 11
225.7548575930241
 21
316.7749263919
 31
0.0
  0
ARC
  5
14E
330
14B
100
AcDbEntity
  8
1
  6
Continuous
 62
     2
100
AcDbCircle
 10
201.5753766908
 20
316.7749263919
 30
0.0
 40
24.17948090222403
100
AcDbArc
 50
343.0595822895169
 51
20.85348673934005
  0
SOLID
  5
14F
330
14B
100
AcDbEntity
  8
1
 62
     2
100
AcDbTrace
 10
225.6096661580315
 20
311.3483319372662
 30
0.0
 11
224.6985733094
 21
311.4868831808604
 31
0.0
 12
225.6803203228927
 22
314.8778261850969
 32
0.0
 13
225.6803203228927
 23
314.8778261850969
 33
0.0
  0
SOLID
  5
150
330
14B
100
AcDbEntity
  8
1
 62
     2
100
AcDbTrace
 10
225.0421872997161
 20
320.2324432334379
 30
0.0
 11
225.9613421584417
 21
320.2990838487578
 31
0.0
 12
225.7548575930241
 22
316.7749263919
 32
0.0
 13
225.7548575930241
 23
316.7749263919
 33
0.0
  0
MTEXT
  5
151
330
14B
100
AcDbEntity
  8
1
 62
     3
100
AcDbMText
 10
226.26196150833
 20
326.1788604280792
 30
0.0
 40
3.5
 41
0.0
 71
     7
 72
     1
  1
\C3;\C3;\C3;4.5%%d\C2;\H2.45;\S^ ;\C3;
  7
CONVERTER_11
 11
0.2277286347369225
 21
-0.9737246371130071
 31
0.0
 73
     1
 44
0.60024009603842
  0
ENDBLK
  5
153
330
14B
100
AcDbEntity
  8
0
100
AcDbBlockEnd
  0
ENDSEC
  0
SECTION
  2
ENTITIES
  0
INSERT
  5
6C
330
1F
100
AcDbEntity
  8
0
100
AcDbBlockReference
  2
Urheberrecht_DE-EN
 10
-19.1226467230757
 20
322.474973486838
 30
0.0
  0
LINE
  5
70
330
1F
100
AcDbEntity
  8
BEZUGSACHSEN
  6
Continuous
 62
     7
100
AcDbLine
 10
-10.3060091006
 20
269.6747348289
 30
0.0
 11
-10.3060091006
 21
291.2649263919
 31
0.0
  0
LINE
  5
71
330
1F
100
AcDbEntity
  8
BEZUGSACHSEN
  6
Continuous
 62
     7
100
AcDbLine
 10
-10.3060091006
 20
315.2849263919
 30
0.0
 11
-10.3060091006
 21
336.8751179544
 31
0.0
  0
LINE
  5
72
330
1F
100
AcDbEntity
  8
BEZUGSACHSEN
  6
Continuous
 62
     9
100
AcDbLine
 10
-8.4060835854
 20
338.8726126602
 30
0.0
 11
-8.4060835854
 21
318.9514587781
 31
0.0
  0
LINE
  5
73
330
1F
100
AcDbEntity
  8
BEZUGSACHSEN
  6
Continuous
 62
     9
100
AcDbLine
 10
-8.4060835854
 20
287.5983940056
 30
0.0
 11
-8.4060835854
 21
267.6772401235
 31
0.0
  0
LINE
  5
74
330
1F
100
AcDbEntity
  8
BEZUGSACHSEN
  6
Continuous
 62
     7
100
AcDbLine
 10
-8.3060091006
 20
290.8712864435
 30
0.0
 11
-8.3060091006
 21
293.2649263919
 31
0.0
  0
LINE
  5
75
330
1F
100
AcDbEntity
  8
BEZUGSACHSEN
  6
Continuous
 62
     7
100
AcDbLine
 10
-8.3060091006
 20
313.2849263919
 30
0.0
 11
-8.3060091006
 21
315.6785663402
 31
0.0
  0
LINE
  5
76
330
1F
100
AcDbEntity
  8
BEZUGSACHSEN
  6
Continuous
 62
     9
100
AcDbLine
 10
-2.3060091006
 20
286.9162788044
 30
0.0
 11
-2.3060091006
 21
293.2649263919
 31
0.0
  0
LINE
  5
77
330
1F
100
AcDbEntity
  8
BEZUGSACHSEN
  6
Continuous
 62
     9
100
AcDbLine
 10
-2.3060091006
 20
313.2849263919
 30
0.0
 11
-2.3060091006
 21
319.6335739793
 31
0.0
  0
LINE
  5
78
330
1F
100
AcDbEntity
  8
BEZUGSACHSEN
  6
Continuous
 62
     7
100
AcDbLine
 10
-0.3060091006
 20
316.1445819177
 30
0.0
 11
-0.3060091006
 21
290.4052708661
 31
0.0
  0
LINE
  5
79
330
1F
100
AcDbEntity
  8
BEZUGSACHSEN
  6
Continuous
 62
     7
100
AcDbLine
 10
-9.0390561736
 20
288.2649263919
 30
0.0
 11
-9.1601664251
 21
288.0325903964
 31
0.0
  0
LINE
  5
7A
330
1F
100
AcDbEntity
  8
BEZUGSACHSEN
  6
Continuous
 62
     7
100
AcDbLine
 10
-9.1601664251
 20
318.5172623873
 30
0.0
 11
-9.0390561736
 21
318.2849263919
 31
0.0
  0
LWPOLYLINE
  5
7B
330
1F
100
AcDbEntity
  8
BEZUGSACHSEN
  6
DOT_CENTER
 62
     7
100
AcDbPolyline
 90
        2
 70
     0
 43
0.25
 10
24.6939908994
 20
303.2749263919
 10
24.6939908994
 20
294.2749263919
  0
LWPOLYLINE
  5
7C
330
1F
100
AcDbEntity
  8
BEZUGSACHSEN
  6
DOT_CENTER
 62
     7
100
AcDbPolyline
 90
        2
 70
     0
 43
0.25
 10
24.6939908994
 20
303.2749263919
 10
24.6939908994
 20
312.2749263919
  0
LINE
  5
7D
330
1F
100
AcDbEntity
  8
BEZUGSACHSEN
  6
Continuous
 62
     7
100
AcDbLine
 10
-10.3060091006
 20
291.2649263919
 30
0.0
 11
-8.3060091006
 21
293.2649263919
 31
0.0
  0
LINE
  5
7E
330
1F
100
AcDbEntity
  8
BEZUGSACHSEN
  6
Continuous
 62
     7
100
AcDbLine
 10
-8.3060091006
 20
313.2849263919
 30
0.0
 11
-10.3060091006
 21
315.2849263919
 31
0.0
  0
LINE
  5
7F
330
1F
100
AcDbEntity
  8
BEZUGSACHSEN
  6
Continuous
 62
     7
100
AcDbLine
 10
37.1939908994
 20
341.1571763919
 30
0.0
 11
37.1939908994
 21
265.3926763919
 31
0.0
  0
LINE
  5
80
330
1F
100
AcDbEntity
  8
BEZUGSACHSEN
  6
Continuous
 62
     9
100
AcDbLine
 10
37.8132345134
 20
265.5586022182
 30
0.0
 11
37.8132345134
 21
340.9912505656
 31
0.0
  0
LINE
  5
81
330
1F
100
AcDbEntity
  8
BEZUGSACHSEN
  6
Continuous
 62
     9
100
AcDbLine
 10
38.0720535585
 20
265.5926763919
 30
0.0
 11
38.0720535585
 21
340.9571763919
 31
0.0
  0
LINE
  5
82
330
1F
100
AcDbEntity
  8
BEZUGSACHSEN
  6
Continuous
 62
     9
100
AcDbLine
 10
38.9934196107
 20
265.5926763919
 30
0.0
 11
38.9934196107
 21
340.9571763919
 31
0.0
  0
LINE
  5
83
330
1F
100
AcDbEntity
  8
BEZUGSACHSEN
  6
Continuous
 62
     7
100
AcDbLine
 10
39.6939908994
 20
353.2749263919
 30
0.0
 11
39.6939908994
 21
253.2749263919
 31
0.0
  0
LWPOLYLINE
  5
84
330
1F
100
AcDbEntity
  8
BEZUGSACHSEN
  6
DOT_CENTER
 62
     7
100
AcDbPolyline
 90
        2
 70
     0
 43
0.25
 10
46.6939908994
 20
345.4242982472
 10
46.6939908994
 20
356.2749263919
  0
LINE
  5
85
330
1F
100
AcDbEntity
  8
FASEN
  6
Continuous
 62
     9
100
AcDbLine
 10
52.6658648212
 20
271.3749263919
 30
0.0
 11
52.6658648212
 21
271.7749263919
 31
0.0
  0
LINE
  5
86
330
1F
100
AcDbEntity
  8
BEZUGSACHSEN
  6
Continuous
 62
     7
100
AcDbLine
 10
61.5689908994
 20
350.8975216561
 30
0.0
 11
62.9415861635
 21
353.2749263919
 31
0.0
  0
LINE
  5
87
330
1F
100
AcDbEntity
  8
BEZUGSACHSEN
  6
Continuous
 62
     7
100
AcDbLine
 10
61.5689908994
 20
255.6523311277
 30
0.0
 11
62.9415861635
 21
253.2749263919
 31
0.0
  0
LINE
  5
88
330
1F
100
AcDbEntity
  8
FASEN
  6
Continuous
 62
     9
100
AcDbLine
 10
54.6939908994
 20
293.6749263919
 30
0.0
 11
54.6939908994
 21
293.2749263919
 31
0.0
  0
LINE
  5
89
330
1F
100
AcDbEntity
  8
FASEN
  6
Continuous
 62
     9
100
AcDbLine
 10
54.6939908994
 20
312.8749263919
 30
0.0
 11
54.6939908994
 21
313.2749263919
 31
0.0
  0
LINE
  5
8A
330
1F
100
AcDbEntity
  8
0
  6
Continuous
 62
     7
100
AcDbLine
 10
56.4463956352
 20
353.2749263919
 30
0.0
 11
56.4463956352
 21
313.2749263919
 31
0.0
  0
LINE
  5
8B
330
1F
100
AcDbEntity
  8
0
  6
Continuous
 62
     7
100
AcDbLine
 10
56.4463956352
 20
293.2749263919
 30
0.0
 11
56.4463956352
 21
271.7749263919
 31
0.0
  0
LINE
  5
8C
330
1F
100
AcDbEntity
  8
0
  6
Continuous
 62
     7
100
AcDbLine
 10
56.4463956352
 20
264.4451697612
 30
0.0
 11
56.4463956352
 21
253.2749263919
 31
0.0
  0
LINE
  5
8D
330
1F
100
AcDbEntity
  8
0
  6
Continuous
 62
     7
100
AcDbLine
 10
57.8189908994
 20
350.8974882295
 30
0.0
 11
57.8189908994
 21
313.2749263919
 31
0.0
  0
LINE
  5
8E
330
1F
100
AcDbEntity
  8
0
  6
Continuous
 62
     7
100
AcDbLine
 10
57.8189908994
 20
293.2749263919
 30
0.0
 11
57.8189908994
 21
271.7749263919
 31
0.0
  0
LINE
  5
8F
330
1F
100
AcDbEntity
  8
0
  6
Continuous
 62
     7
100
AcDbLine
 10
57.8189908994
 20
255.6523686616
 30
0.0
 11
57.8189908994
 21
268.3929826387
 31
0.0
  0
LINE
  5
90
330
1F
100
AcDbEntity
  8
0
  6
Continuous
 62
     9
100
AcDbLine
 10
58.8189908994
 20
257.2749263919
 30
0.0
 11
58.8189908994
 21
269.7525458081
 31
0.0
  0
LINE
  5
91
330
1F
100
AcDbEntity
  8
0
  6
Continuous
 62
     9
100
AcDbLine
 10
58.8189908994
 20
271.7749263919
 30
0.0
 11
58.8189908994
 21
293.2749263919
 31
0.0
  0
LINE
  5
92
330
1F
100
AcDbEntity
  8
0
  6
Continuous
 62
     9
100
AcDbLine
 10
58.8189908994
 20
313.2749263919
 30
0.0
 11
58.8189908994
 21
349.2749263919
 31
0.0
  0
LINE
  5
93
330
1F
100
AcDbEntity
  8
0
  6
Continuous
 62
     9
100
AcDbLine
 10
60.5689908994
 20
257.2749263919
 30
0.0
 11
60.5689908994
 21
269.7525458081
 31
0.0
  0
LINE
  5
94
330
1F
100
AcDbEntity
  8
0
  6
Continuous
 62
     9
100
AcDbLine
 10
60.5689908994
 20
271.7749263919
 30
0.0
 11
60.5689908994
 21
293.2749263919
 31
0.0
  0
LINE
  5
95
330
1F
100
AcDbEntity
  8
0
  6
Continuous
 62
     9
100
AcDbLine
 10
60.5689908994
 20
313.2749263919
 30
0.0
 11
60.5689908994
 21
349.2749263919
 31
0.0
  0
LINE
  5
96
330
1F
100
AcDbEntity
  8
0
  6
Continuous
 62
     7
100
AcDbLine
 10
61.5689908994
 20
255.6523686616
 30
0.0
 11
61.5689908994
 21
268.3929826387
 31
0.0
  0
LINE
  5
97
330
1F
100
AcDbEntity
  8
0
  6
Continuous
 62
     7
100
AcDbLine
 10
61.5689908994
 20
271.7749263919
 30
0.0
 11
61.5689908994
 21
293.2749263919
 31
0.0
  0
LINE
  5
98
330
1F
100
AcDbEntity
  8
0
  6
Continuous
 62
     7
100
AcDbLine
 10
61.5689908994
 20
313.2749263919
 30
0.0
 11
61.5689908994
 21
350.8974882295
 31
0.0
  0
LINE
  5
99
330
1F
100
AcDbEntity
  8
0
  6
Continuous
 62
     7
100
AcDbLine
 10
62.9415861635
 20
353.2749263919
 30
0.0
 11
62.9415861635
 21
313.2749263919
 31
0.0
  0
LINE
  5
9A
330
1F
100
AcDbEntity
  8
0
  6
Continuous
 62
     7
100
AcDbLine
 10
62.9415861635
 20
293.2749263919
 30
0.0
 11
62.9415861635
 21
271.7749263919
 31
0.0
  0
LINE
  5
9B
330
1F
100
AcDbEntity
  8
0
  6
Continuous
 62
     7
100
AcDbLine
 10
62.9415861635
 20
264.4451697612
 30
0.0
 11
62.9415861635
 21
253.2749263919
 31
0.0
  0
LINE
  5
9C
330
1F
100
AcDbEntity
  8
0
  6
Continuous
 62
     7
100
AcDbLine
 10
68.6939908994
 20
353.2748894707
 30
0.0
 11
68.6939908994
 21
313.2749263919
 31
0.0
  0
LINE
  5
9D
330
1F
100
AcDbEntity
  8
0
  6
Continuous
 62
     7
100
AcDbLine
 10
68.6939908994
 20
293.2749263919
 30
0.0
 11
68.6939908994
 21
271.7749263919
 31
0.0
  0
LINE
  5
9E
330
1F
100
AcDbEntity
  8
0
  6
Continuous
 62
     7
100
AcDbLine
 10
68.6939908994
 20
264.4451697612
 30
0.0
 11
68.6939908994
 21
253.2749282596
 31
0.0
  0
LINE
  5
9F
330
1F
100
AcDbEntity
  8
FASEN
  6
Continuous
 62
     7
100
AcDbLine
 10
68.6939908994
 20
264.4451697612
 30
0.0
 11
68.6939908994
 21
271.7749263919
 31
0.0
  0
LINE
  5
A0
330
1F
100
AcDbEntity
  8
FASEN
  6
Continuous
 62
     7
100
AcDbLine
 10
68.6939908994
 20
293.2749263919
 30
0.0
 11
68.6939908994
 21
313.2749263919
 31
0.0
  0
LINE
  5
A1
330
1F
100
AcDbEntity
  8
BEZUGSACHSEN
  6
Continuous
 62
     9
100
AcDbLine
 10
-10.3060091006
 20
289.8287424228
 30
0.0
 11
-8.3060091006
 21
290.8712864435
 31
0.0
  0
LINE
  5
A2
330
1F
100
AcDbEntity
  8
BEZUGSACHSEN
  6
Continuous
 62
     7
100
AcDbLine
 10
56.4463956352
 20
253.2749263919
 30
0.0
 11
39.6939908994
 21
253.2749263919
 31
0.0
  0
LINE
  5
A3
330
1F
100
AcDbEntity
  8
BEZUGSACHSEN
  6
Continuous
 62
     7
100
AcDbLine
 10
62.9415861635
 20
253.2749263919
 30
0.0
 11
68.6939908994
 21
253.2749263919
 31
0.0
  0
LINE
  5
A4
330
1F
100
AcDbEntity
  8
BEZUGSACHSEN
  6
Continuous
 62
     7
100
AcDbLine
 10
58.8189908994
 20
257.2749263919
 30
0.0
 11
60.5689908994
 21
257.2749263919
 31
0.0
  0
LINE
  5
A5
330
1F
100
AcDbEntity
  8
BEZUGSACHSEN
  6
Continuous
 62
     9
100
AcDbLine
 10
-8.3060091006
 20
315.6785663402
 30
0.0
 11
-10.3060091006
 21
316.7211103609
 31
0.0
  0
LINE
  5
A6
330
1F
100
AcDbEntity
  8
FASEN
  6
Continuous
 62
     7
100
AcDbLine
 10
45.0954768638
 20
264.4451697612
 30
0.0
 11
56.4463956352
 21
264.4451697612
 31
0.0
  0
LINE
  5
A7
330
1F
100
AcDbEntity
  8
0
  6
Continuous
 62
     7
100
AcDbLine
 10
62.9415861635
 20
264.4451697612
 30
0.0
 11
68.6939908994
 21
264.4451697612
 31
0.0
  0
LINE
  5
A8
330
1F
100
AcDbEntity
  8
BEZUGSACHSEN
  6
Continuous
 62
     7
100
AcDbLine
 10
38.9934196107
 20
265.5926763919
 30
0.0
 11
38.0720535585
 21
265.5926763919
 31
0.0
  0
LINE
  5
A9
330
1F
100
AcDbEntity
  8
BEZUGSACHSEN
  6
Continuous
 62
     7
100
AcDbLine
 10
-8.4060835854
 20
267.6772401235
 30
0.0
 11
37.1939908994
 21
265.3926763919
 31
0.0
  0
LINE
  5
AA
330
1F
100
AcDbEntity
  8
RUNDUNGEN
  6
Continuous
 62
     9
100
AcDbLine
 10
84.3461648124
 20
322.7537924718
 30
0.0
 11
84.3461648124
 21
283.7960603119
 31
0.0
  0
LINE
  5
AB
330
1F
100
AcDbEntity
  8
0
  6
Continuous
 62
     7
100
AcDbLine
 10
58.8189908994
 20
269.7525458081
 30
0.0
 11
60.5689908994
 21
269.7525458081
 31
0.0
  0
LINE
  5
AC
330
1F
100
AcDbEntity
  8
FASEN
  6
Continuous
 62
     7
100
AcDbLine
 10
52.6658648212
 20
271.3749263919
 30
0.0
 11
68.6939908994
 21
271.3749263919
 31
0.0
  0
LINE
  5
AD
330
1F
100
AcDbEntity
  8
0
  6
Continuous
 62
     7
100
AcDbLine
 10
52.6658648212
 20
271.7749263919
 30
0.0
 11
68.6939908994
 21
271.7749263919
 31
0.0
  0
LINE
  5
AE
330
1F
100
AcDbEntity
  8
BEZUGSACHSEN
  6
Continuous
 62
     7
100
AcDbLine
 10
56.4463956352
 20
253.2749263919
 30
0.0
 11
57.8189908994
 21
255.6523311277
 31
0.0
  0
LINE
  5
AF
330
1F
100
AcDbEntity
  8
RUNDUNGEN
  6
Continuous
 62
     7
100
AcDbLine
 10
238.7724499951
 20
292.7023995498
 30
0.0
 11
201.5753766908
 21
289.7749263919
 31
0.0
  0
LINE
  5
B0
330
1F
100
AcDbEntity
  8
0
  6
Continuous
 62
     7
100
AcDbLine
 10
201.5753766908
 20
289.7749263919
 30
0.0
 11
238.7724499951
 21
292.7023995498
 31
0.0
  0
LINE
  5
B1
330
1F
100
AcDbEntity
  8
BEZUGSACHSEN
  6
Continuous
 62
     7
100
AcDbLine
 10
56.4463956352
 20
353.2749263919
 30
0.0
 11
57.8189908994
 21
350.8975216561
 31
0.0
  0
LINE
  5
B2
330
1F
100
AcDbEntity
  8
BEZUGSACHSEN
  6
Continuous
 62
     7
100
AcDbLine
 10
37.8132345134
 20
265.5586022182
 30
0.0
 11
37.1939908994
 21
265.3926763919
 31
0.0
  0
LINE
  5
B3
330
1F
100
AcDbEntity
  8
BEZUGSACHSEN
  6
Continuous
 62
     9
100
AcDbLine
 10
-0.7521631537
 20
288.2649263919
 30
0.0
 11
-9.0390561736
 21
288.2649263919
 31
0.0
  0
LINE
  5
B4
330
1F
100
AcDbEntity
  8
0
  6
Continuous
 62
     7
100
AcDbLine
 10
201.5753766908
 20
289.7749263919
 30
0.0
 11
138.6939908994
 21
289.7749263919
 31
0.0
  0
LINE
  5
B5
330
1F
100
AcDbEntity
  8
BEZUGSACHSEN
  6
Continuous
 62
     7
100
AcDbLine
 10
-2.3060091006
 20
293.2649263919
 30
0.0
 11
-8.3060091006
 21
293.2649263919
 31
0.0
  0
LINE
  5
B6
330
1F
100
AcDbEntity
  8
0
  6
Continuous
 62
     7
100
AcDbLine
 10
54.6939908994
 20
293.2749263919
 30
0.0
 11
68.6939908994
 21
293.2749263919
 31
0.0
  0
LINE
  5
B7
330
1F
100
AcDbEntity
  8
FASEN
  6
Continuous
 62
     7
100
AcDbLine
 10
68.6939908994
 20
293.6749263919
 30
0.0
 11
54.6939908994
 21
293.6749263919
 31
0.0
  0
LWPOLYLINE
  5
B8
330
1F
100
AcDbEntity
  8
DEFAULT_2
  6
DASHED
 62
     8
100
AcDbPolyline
 90
        2
 70
     0
 43
0.35
 10
239.6939908994
 20
300.2749263919
 10
203.6939908994
 20
300.2749263919
  0
LWPOLYLINE
  5
B9
330
1F
100
AcDbEntity
  8
BEZUGSACHSEN
  6
DOT_CENTER
 62
     7
100
AcDbPolyline
 90
        2
 70
     0
 43
0.25
 10
242.6939908994
 20
303.2749263919
 10
-13.3060091006
 20
303.2749263919
  0
LWPOLYLINE
  5
BA
330
1F
100
AcDbEntity
  8
DEFAULT_2
  6
DASHED
 62
     8
100
AcDbPolyline
 90
        2
 70
     0
 43
0.35
 10
239.6939908994
 20
306.2749263919
 10
203.6939908994
 20
306.2749263919
  0
LINE
  5
BB
330
1F
100
AcDbEntity
  8
FASEN
  6
Continuous
 62
     7
100
AcDbLine
 10
54.6939908994
 20
312.8749263919
 30
0.0
 11
68.6939908994
 21
312.8749263919
 31
0.0
  0
LINE
  5
BC
330
1F
100
AcDbEntity
  8
0
  6
Continuous
 62
     7
100
AcDbLine
 10
54.6939908994
 20
313.2749263919
 30
0.0
 11
68.6939908994
 21
313.2749263919
 31
0.0
  0
LINE
  5
BD
330
1F
100
AcDbEntity
  8
BEZUGSACHSEN
  6
Continuous
 62
     7
100
AcDbLine
 10
-2.3060091006
 20
313.2849263919
 30
0.0
 11
-8.3060091006
 21
313.2849263919
 31
0.0
  0
LINE
  5
BE
330
1F
100
AcDbEntity
  8
0
  6
Continuous
 62
     7
100
AcDbLine
 10
201.5753766908
 20
316.7749263919
 30
0.0
 11
138.6939908994
 21
316.7749263919
 31
0.0
  0
LINE
  5
BF
330
1F
100
AcDbEntity
  8
BEZUGSACHSEN
  6
Continuous
 62
     9
100
AcDbLine
 10
-0.7521631537
 20
318.2849263919
 30
0.0
 11
-9.0390561736
 21
318.2849263919
 31
0.0
  0
LINE
  5
C0
330
1F
100
AcDbEntity
  8
BEZUGSACHSEN
  6
Continuous
 62
     7
100
AcDbLine
 10
37.8132345134
 20
340.9912505656
 30
0.0
 11
37.1939908994
 21
341.1571763919
 31
0.0
  0
LINE
  5
C1
330
1F
100
AcDbEntity
  8
0
  6
Continuous
 62
     9
100
AcDbLine
 10
138.6939908994
 20
316.7749263919
 30
0.0
 11
138.6939908994
 21
289.7749263919
 31
0.0
  0
LINE
  5
C2
330
1F
100
AcDbEntity
  8
RUNDUNGEN
  6
Continuous
 62
     7
100
AcDbLine
 10
238.7724499951
 20
313.8474532339
 30
0.0
 11
201.5753766908
 21
316.7749263919
 31
0.0
  0
LINE
  5
C3
330
1F
100
AcDbEntity
  8
0
  6
Continuous
 62
     7
100
AcDbLine
 10
201.5753766908
 20
316.7749263919
 30
0.0
 11
238.7724499951
 21
313.8474532339
 31
0.0
  0
LINE
  5
C4
330
1F
100
AcDbEntity
  8
BEZUGSACHSEN
  6
Continuous
 62
     7
100
AcDbLine
 10
37.1939908994
 20
341.1571763919
 30
0.0
 11
-8.4060835854
 21
338.8726126602
 31
0.0
  0
LINE
  5
C5
330
1F
100
AcDbEntity
  8
BEZUGSACHSEN
  6
Continuous
 62
     7
100
AcDbLine
 10
38.9934196107
 20
340.9571763919
 30
0.0
 11
38.0720535585
 21
340.9571763919
 31
0.0
  0
LINE
  5
C6
330
1F
100
AcDbEntity
  8
BEZUGSACHSEN
  6
Continuous
 62
     7
100
AcDbLine
 10
58.8189908994
 20
349.2749263919
 30
0.0
 11
60.5689908994
 21
349.2749263919
 31
0.0
  0
LINE
  5
C7
330
1F
100
AcDbEntity
  8
BEZUGSACHSEN
  6
Continuous
 62
     7
100
AcDbLine
 10
56.4463956352
 20
353.2749263919
 30
0.0
 11
51.6939908994
 21
353.2749263919
 31
0.0
  0
LINE
  5
C8
330
1F
100
AcDbEntity
  8
BEZUGSACHSEN
  6
Continuous
 62
     7
100
AcDbLine
 10
41.6939908994
 20
353.2749263919
 30
0.0
 11
39.6939908994
 21
353.2749263919
 31
0.0
  0
LINE
  5
C9
330
1F
100
AcDbEntity
  8
BEZUGSACHSEN
  6
Continuous
 62
     7
100
AcDbLine
 10
62.9415861635
 20
353.2749263919
 30
0.0
 11
68.6939908994
 21
353.2749263919
 31
0.0
  0
LINE
  5
CA
330
1F
100
AcDbEntity
  8
0
  6
Continuous
 62
     7
100
AcDbLine
 10
201.5753766908
 20
316.7749263919
 30
0.0
 11
201.5753766908
 21
289.7749263919
 31
0.0
  0
LWPOLYLINE
  5
CB
330
1F
100
AcDbEntity
  8
DEFAULT_2
  6
DASHED
 62
     8
100
AcDbPolyline
 90
        2
 70
     0
 43
0.35
 10
203.6939908994
 20
306.2749263919
 10
203.6939908994
 20
300.2749263919
  0
LINE
  5
CC
330
1F
100
AcDbEntity
  8
RUNDUNGEN
  6
Continuous
 62
     9
100
AcDbLine
 10
238.7724499951
 20
292.7023995498
 30
0.0
 11
238.7724499951
 21
313.8474532339
 31
0.0
  0
LINE
  5
CD
330
1F
100
AcDbEntity
  8
RUNDUNGEN
  6
Continuous
 62
     7
100
AcDbLine
 10
239.6939908994
 20
293.6993168835
 30
0.0
 11
239.6939908994
 21
312.8505359002
 31
0.0
  0
LWPOLYLINE
  5
CE
330
1F
100
AcDbEntity
  8
1
  6
Continuous
 62
     7
100
AcDbPolyline
 90
        2
 70
     0
 43
0.25
 10
239.6939908994
 20
312.8505359002
 10
239.6939908994
 20
313.7749263918466
  0
LWPOLYLINE
  5
CF
330
1F
100
AcDbEntity
  8
1
  6
Continuous
 62
     7
100
AcDbPolyline
 90
        2
 70
     0
 43
0.25
 10
238.7724499951
 20
313.8474532339
 10
239.6939908993949
 20
313.7749263918466
  0
LWPOLYLINE
  5
D0
330
1F
100
AcDbEntity
  8
1
  6
Continuous
 62
     7
100
AcDbPolyline
 90
        2
 70
     0
 43
0.25
 10
238.7724499951
 20
292.7023995498
 10
239.6939908994
 20
292.7749263918487
  0
LWPOLYLINE
  5
D1
330
1F
100
AcDbEntity
  8
1
  6
Continuous
 62
     7
100
AcDbPolyline
 90
        2
 70
     0
 43
0.25
 10
239.6939908994
 20
293.6993168835
 10
239.6939908994
 20
292.7749263918487
  0
ARC
  5
D2
330
1F
100
AcDbEntity
  8
FASEN
  6
Continuous
 62
     7
100
AcDbCircle
 10
57.5946449223
 20
278.8061896619
 30
0.0
 40
19.03859487309966
100
AcDbArc
 50
227.4837701982989
 51
228.965195337302
  0
ARC
  5
D3
330
1F
100
AcDbEntity
  8
FASEN
  6
Continuous
 62
     7
100
AcDbCircle
 10
52.6658648212
 20
263.7749263919
 30
0.0
 40
8.0
100
AcDbArc
 50
90.0
 51
172.8323734889971
  0
ARC
  5
D4
330
1F
100
AcDbEntity
  8
FASEN
  6
Continuous
 62
     7
100
AcDbCircle
 10
52.6658648212
 20
263.7749263919
 30
0.0
 40
7.599982194900008
100
AcDbArc
 50
90.0
 51
174.9405171273017
  0
ARC
  5
D5
330
1F
100
AcDbEntity
  8
BEZUGSACHSEN
  6
Continuous
 62
     7
100
AcDbCircle
 10
-2.3060091006
 20
295.2649263919
 30
0.0
 40
2.0
100
AcDbArc
 50
270.0
 51
359.9999999999137
  0
ARC
  5
D6
330
1F
100
AcDbEntity
  8
BEZUGSACHSEN
  6
Continuous
 62
     7
100
AcDbCircle
 10
-8.3060091006
 20
269.6747348288
 30
0.0
 40
2.0
100
AcDbArc
 50
179.9999999971356
 51
267.1318795127
  0
ARC
  5
D7
330
1F
100
AcDbEntity
  8
BEZUGSACHSEN
  6
Continuous
 62
     7
100
AcDbCircle
 10
58.8189908994
 20
256.2749263919
 30
0.0
 40
1.0
100
AcDbArc
 50
90.0
 51
180.0
  0
ARC
  5
D8
330
1F
100
AcDbEntity
  8
BEZUGSACHSEN
  6
Continuous
 62
     7
100
AcDbCircle
 10
38.0720535585
 20
264.5926763919
 30
0.0
 40
1.0
100
AcDbArc
 50
90.0
 51
104.9999999996985
  0
ARC
  5
D9
330
1F
100
AcDbEntity
  8
BEZUGSACHSEN
  6
Continuous
 62
     7
100
AcDbCircle
 10
38.9934196107
 20
264.5926763919
 30
0.0
 40
0.9999999999998127
100
AcDbArc
 50
45.49026120128689
 51
90.0
  0
ARC
  5
DA
330
1F
100
AcDbEntity
  8
0
  6
Continuous
 62
     7
100
AcDbCircle
 10
-184.9037889835
 20
372.7093939824
 30
0.0
 40
264.5204223905951
100
AcDbArc
 50
335.8400764706147
 51
336.5770705490999
  0
ARC
  5
DB
330
1F
100
AcDbEntity
  8
BEZUGSACHSEN
  6
Continuous
 62
     7
100
AcDbCircle
 10
46.7091989105
 20
403.3276961587
 30
0.0
 40
50.30340021035248
100
AcDbArc
 50
264.2781515101899
 51
269.9826780125999
  0
ARC
  5
DC
330
1F
100
AcDbEntity
  8
BEZUGSACHSEN
  6
Continuous
 62
     7
100
AcDbCircle
 10
46.6787828983
 20
403.327695958
 30
0.0
 40
50.30340000969741
100
AcDbArc
 50
270.017321976058
 51
275.7218485012678
  0
ARC
  5
DD
330
1F
100
AcDbEntity
  8
0
  6
Continuous
 62
     7
100
AcDbCircle
 10
54.6939908994
 20
303.2749263919
 30
0.0
 40
10.0
100
AcDbArc
 50
90.0
 51
270.0
  0
ARC
  5
DE
330
1F
100
AcDbEntity
  8
FASEN
  6
Continuous
 62
     7
100
AcDbCircle
 10
54.6939908994
 20
303.2749263919
 30
0.0
 40
9.599999195900011
100
AcDbArc
 50
90.0
 51
270.0
  0
ARC
  5
DF
330
1F
100
AcDbEntity
  8
BEZUGSACHSEN
  6
Continuous
 62
     7
100
AcDbCircle
 10
-2.3060091006
 20
311.2849263919
 30
0.0
 40
2.0
100
AcDbArc
 50
0.0
 51
90.0
  0
ARC
  5
E0
330
1F
100
AcDbEntity
  8
BEZUGSACHSEN
  6
Continuous
 62
     7
100
AcDbCircle
 10
-8.3060091006
 20
336.8751179549
 30
0.0
 40
2.000000000000039
100
AcDbArc
 50
92.86812048730002
 51
180.0000000143238
  0
ARC
  5
E1
330
1F
100
AcDbEntity
  8
BEZUGSACHSEN
  6
Continuous
 62
     7
100
AcDbCircle
 10
58.8189908994
 20
350.2749263919
 30
0.0
 40
1.0
100
AcDbArc
 50
180.0
 51
270.0
  0
ARC
  5
E2
330
1F
100
AcDbEntity
  8
BEZUGSACHSEN
  6
Continuous
 62
     7
100
AcDbCircle
 10
38.0720535585
 20
341.9571763919
 30
0.0
 40
1.000000000009916
100
AcDbArc
 50
255.0000000003015
 51
270.0
  0
ARC
  5
E3
330
1F
100
AcDbEntity
  8
BEZUGSACHSEN
  6
Continuous
 62
     7
100
AcDbCircle
 10
38.9934196107
 20
341.9571763919
 30
0.0
 40
1.0
100
AcDbArc
 50
270.0
 51
314.5097387987131
  0
ARC
  5
E4
330
1F
100
AcDbEntity
  8
BEZUGSACHSEN
  6
Continuous
 62
     7
100
AcDbCircle
 10
176.0240375018
 20
-1302.7678329358
 30
0.0
 40
1632.172763736
100
AcDbArc
 50
96.2726189838
 51
96.48809068979999
  0
ARC
  5
E5
330
1F
100
AcDbEntity
  8
0
  6
Continuous
 62
     7
100
AcDbCircle
 10
138.6939908994
 20
39.7749263919
 30
0.0
 40
250.0
100
AcDbArc
 50
90.0
 51
102.5558577985977
  0
ARC
  5
E6
330
1F
100
AcDbEntity
  8
RUNDUNGEN
  6
Continuous
 62
     7
100
AcDbCircle
 10
138.6939908994
 20
39.7749263919
 30
0.0
 40
250.0
100
AcDbArc
 50
90.0
 51
102.5558577985977
  0
ARC
  5
E7
330
1F
100
AcDbEntity
  8
RUNDUNGEN
  6
Continuous
 62
     7
100
AcDbCircle
 10
88.6939908994
 20
264.2743695983
 30
0.0
 40
20.00000000000639
100
AcDbArc
 50
102.5558577987095
 51
179.5107663282991
  0
ARC
  5
E8
330
1F
100
AcDbEntity
  8
RUNDUNGEN
  6
Continuous
 62
     7
100
AcDbCircle
 10
238.6939908994
 20
293.6993168835
 30
0.0
 40
0.9999999999647582
100
AcDbArc
 50
274.4999999985585
 51
0.0
  0
ARC
  5
E9
330
1F
100
AcDbEntity
  8
BEZUGSACHSEN
  6
Continuous
 62
     7
100
AcDbCircle
 10
60.5689908994
 20
256.2749263919
 30
0.0
 40
1.0
100
AcDbArc
 50
0.0
 51
90.0
  0
ARC
  5
EA
330
1F
100
AcDbEntity
  8
BEZUGSACHSEN
  6
Continuous
 62
     7
100
AcDbCircle
 10
176.0240375018
 20
1909.3176857196
 30
0.0
 40
1632.172763736
100
AcDbArc
 50
263.5119093102
 51
263.7273810162
  0
ARC
  5
EB
330
1F
100
AcDbEntity
  8
0
  6
Continuous
 62
     7
100
AcDbCircle
 10
304.2917707822
 20
372.7093939824
 30
0.0
 40
264.5204223905999
100
AcDbArc
 50
203.4229294508999
 51
204.1599235293853
  0
ARC
  5
EC
330
1F
100
AcDbEntity
  8
0
  6
Continuous
 62
     7
100
AcDbCircle
 10
138.6939908994
 20
566.7749263919
 30
0.0
 40
250.0000000000683
100
AcDbArc
 50
257.4441422014073
 51
270.0
  0
ARC
  5
ED
330
1F
100
AcDbEntity
  8
RUNDUNGEN
  6
Continuous
 62
     7
100
AcDbCircle
 10
138.6939908994
 20
566.7749263919
 30
0.0
 40
250.0000000000683
100
AcDbArc
 50
257.4441422014073
 51
270.0
  0
ARC
  5
EE
330
1F
100
AcDbEntity
  8
RUNDUNGEN
  6
Continuous
 62
     7
100
AcDbCircle
 10
88.6939908994
 20
342.2754831854
 30
0.0
 40
20.0
100
AcDbArc
 50
180.0
 51
257.4441422012904
  0
ARC
  5
EF
330
1F
100
AcDbEntity
  8
RUNDUNGEN
  6
Continuous
 62
     7
100
AcDbCircle
 10
238.6939908994
 20
312.8505359002
 30
0.0
 40
1.0
100
AcDbArc
 50
0.0
 51
85.50000000144182
  0
ARC
  5
F0
330
1F
100
AcDbEntity
  8
BEZUGSACHSEN
  6
Continuous
 62
     7
100
AcDbCircle
 10
60.5689908994
 20
350.2749263919
 30
0.0
 40
1.0
100
AcDbArc
 50
270.0
 51
0.0
  0
CIRCLE
  5
F1
330
1F
100
AcDbEntity
  8
BEZUGSACHSEN
  6
Continuous
 62
     7
100
AcDbCircle
 10
24.6939908994
 20
303.2749263919
 30
0.0
 40
6.0
  0
SPLINE
  5
F2
330
1F
100
AcDbEntity
  8
BEZUGSACHSEN
  6
Continuous
 62
     7
100
AcDbSpline
210
0.0
220
0.0
230
1.0
 70
     8
 71
     3
 72
    19
 73
    15
 74
    13
 42
0.0000000001
 43
0.0000000001
 44
0.00000001
 40
0.0
 40
0.0
 40
0.0
 40
0.0
 40
0.2679411643612569
 40
0.5361267937603582
 40
0.806530477457446
 40
1.076465993310995
 40
1.213913376207467
 40
1.3513531049151
 40
1.491586367083325
 40
1.631807897573221
 40
1.775491562791518
 40
1.919219204777506
 40
2.065713007411383
 40
2.211936409334961
 40
2.211936409334961
 40
2.211936409334961
 40
2.211936409334961
 10
-0.7521631537
 20
288.2649263919
 30
0.0
 10
-0.7860573974999752
 20
288.1822548121872
 30
0.0
 10
-0.8538768096411885
 20
288.0168362245948
 30
0.0
 10
-0.978515315918727
 20
287.7781702508888
 30
0.0
 10
-1.123426115257331
 20
287.5504822548613
 30
0.0
 10
-1.266469746783222
 20
287.374677763548
 30
0.0
 10
-1.395576133685109
 20
287.2467280444397
 30
0.0
 10
-1.501691232747478
 20
287.1576410236492
 30
0.0
 10
-1.616500660393802
 20
287.0783393833423
 30
0.0
 10
-1.740960272627952
 20
287.0106689159144
 30
0.0
 10
-1.873813827764952
 20
286.9578662292322
 30
0.0
 10
-2.014464626638463
 20
286.9226999652278
 30
0.0
 10
-2.159790009727831
 20
286.9063477632835
 30
0.0
 10
-2.257299428772394
 20
286.9129704966353
 30
0.0
 10
-2.3060091006
 20
286.9162788044
 30
0.0
 11
-0.7521631537
 21
288.2649263919
 31
0.0
 11
-0.857600413418934
 21
288.0186025160328
 31
0.0
 11
-0.9814699289955611
 21
287.7807372707215
 31
0.0
 11
-1.12781541530884
 21
287.5533584001274
 31
0.0
 11
-1.299067606437335
 21
287.3447010979479
 31
0.0
 11
-1.396860045116653
 21
287.248117341538
 31
0.0
 11
-1.502277034371351
 21
287.1599303957711
 31
0.0
 11
-1.617815678084773
 21
287.0804559368097
 31
0.0
 11
-1.741137687978136
 21
287.0137194438782
 31
0.0
 11
-1.874768376177991
 21
286.9609194929143
 31
0.0
 11
-2.014196077385775
 21
286.9260260665023
 31
0.0
 11
-2.159890515903943
 21
286.910743239702
 31
0.0
 11
-2.3060091006
 21
286.9162788044
 31
0.0
  0
SPLINE
  5
F3
330
1F
100
AcDbEntity
  8
BEZUGSACHSEN
  6
Continuous
 62
     7
100
AcDbSpline
210
0.0
220
0.0
230
1.0
 70
     8
 71
     3
 72
    27
 73
    23
 74
    21
 42
0.0000000001
 43
0.0000000001
 44
0.00000001
 40
0.0
 40
0.0
 40
0.0
 40
0.0
 40
0.1219765139006462
 40
0.2439857714558471
 40
0.3566831398305201
 40
0.4694418149439503
 40
0.5721317672374502
 40
0.67454458802532
 40
0.7225206520268661
 40
0.7704888796748148
 40
0.8171412935085286
 40
0.8637898733307132
 40
0.9102317999865268
 40
0.956675132317498
 40
1.00417517565343
 40
1.051683100046869
 40
1.153672388665897
 40
1.256049376615174
 40
1.37074513803362
 40
1.485385401795165
 40
1.611534903795553
 40
1.737631875898541
 40
1.737631875898541
 40
1.737631875898541
 40
1.737631875898541
 10
-9.1601664251
 20
288.0325903964
 30
0.0
 10
-9.195421442682225
 20
288.0123108711319
 30
0.0
 10
-9.265940941784287
 20
287.9717463767136
 30
0.0
 10
-9.373593344983789
 20
287.9209505158507
 30
0.0
 10
-9.48175136086535
 20
287.8791988799813
 30
0.0
 10
-9.587330581819717
 20
287.8497842948377
 30
0.0
 10
-9.692162126935443
 20
287.8328697074459
 30
0.0
 10
-9.77688979675957
 20
287.8310044842189
 30
0.0
 10
-9.842713733150337
 20
287.8379597922387
 30
0.0
 10
-9.889420936362487
 20
287.8471569193917
 30
0.0
 10
-9.934601553666328
 20
287.8606903643788
 30
0.0
 10
-9.977741164318068
 20
287.8784836231849
 30
0.0
 10
-10.01869564089617
 20
287.9007119808887
 30
0.0
 10
-10.05734306736713
 20
287.9272470125906
 30
0.0
 10
-10.09324914600018
 20
287.9579422901219
 30
0.0
 10
-10.13868846753835
 20
288.0054797632421
 30
0.0
 10
-10.18723160762519
 20
288.0746491303455
 30
0.0
 10
-10.23345731659196
 20
288.1708071850682
 30
0.0
 10
-10.2674231903726
 20
288.2763826180584
 30
0.0
 10
-10.29037861455186
 20
288.3928003089471
 30
0.0
 10
-10.30382317290603
 20
288.5145476176037
 30
0.0
 10
-10.30528055920141
 20
288.5986509811285
 30
0.0
 10
-10.3060091006
 20
288.6406939057
 30
0.0
 11
-9.1601664251
 21
288.0325903964
 31
0.0
 11
-9.26671104910216
 21
287.9732059452398
 31
0.0
 11
-9.377003938306157
 21
287.921035670943
 31
0.0
 11
-9.482321946175958
 21
287.8809256465487
 31
0.0
 11
-9.591045674702244
 21
287.8510313382496
 31
0.0
 11
-9.69250982678453
 21
287.8352119784565
 31
0.0
 11
-9.794909367336054
 21
287.8335627493744
 31
0.0
 11
-9.84261322354351
 21
287.83866616196
 31
0.0
 11
-9.889663993804238
 21
287.848002964494
 31
0.0
 11
-9.934343561237657
 21
287.8614262267828
 31
0.0
 11
-9.977449697833592
 21
287.8792574069793
 31
0.0
 11
-10.01827229063045
 21
287.9014016718992
 31
0.0
 11
-10.0565595471766
 21
287.9276898651459
 31
0.0
 11
-10.09269664418715
 21
287.9585178449137
 31
0.0
 11
-10.12554914455904
 21
287.9928357134298
 31
0.0
 11
-10.18472153881286
 21
288.0759046170658
 31
0.0
 11
-10.22962126241392
 21
288.1679103912439
 31
0.0
 11
-10.26525942198141
 21
288.2769289184308
 31
0.0
 11
-10.28811098534765
 21
288.389268564714
 31
0.0
 11
-10.30187774167021
 21
288.5146646303433
 31
0.0
 11
-10.3060091006
 21
288.6406939057
 31
0.0
  0
SPLINE
  5
F4
330
1F
100
AcDbEntity
  8
BEZUGSACHSEN
  6
Continuous
 62
     7
100
AcDbSpline
210
0.0
220
0.0
230
1.0
 70
     8
 71
     3
 72
    15
 73
    11
 74
     9
 42
0.0000000001
 43
0.0000000001
 44
0.00000001
 40
0.0
 40
0.0
 40
0.0
 40
0.0
 40
0.1110371613090659
 40
0.222252233697828
 40
0.3333980191426527
 40
0.4445069474326762
 40
0.5556201064917035
 40
0.6667525641924739
 40
0.7778876032910986
 40
0.8889820915608092
 40
0.8889820915608092
 40
0.8889820915608092
 40
0.8889820915608092
 10
-8.4060835854
 20
287.5983940056
 30
0.0
 10
-8.442725312260485
 20
287.6039261584219
 30
0.0
 10
-8.516067475778353
 20
287.6149993280467
 30
0.0
 10
-8.62258402576525
 20
287.6480178916128
 30
0.0
 10
-8.724996933508336
 20
287.6916081790815
 30
0.0
 10
-8.822446899128282
 20
287.7453876869057
 30
0.0
 10
-8.91475169486471
 20
287.8074828222577
 30
0.0
 10
-9.001748323001006
 20
287.87676949588
 30
0.0
 10
-9.08400107846236
 20
287.9516514474949
 30
0.0
 10
-9.134781064875064
 20
288.0056140289981
 30
0.0
 10
-9.1601664251
 20
288.0325903964
 30
0.0
 11
-8.4060835854
 21
287.5983940056
 31
0.0
 11
-8.515425870448759
 21
287.6177205648357
 31
0.0
 11
-8.621917824036853
 21
287.6497869981801
 31
0.0
 11
-8.724186004634648
 21
287.6933140571132
 31
0.0
 11
-8.82158887107356
 21
287.7467731588195
 31
0.0
 11
-8.9138606378758
 21
287.8086767545734
 31
0.0
 11
-9.000957741293956
 21
287.8777022406694
 31
0.0
 11
-9.082997645760711
 21
287.9526719078057
 31
0.0
 11
-9.1601664251
 21
288.0325903964
 31
0.0
  0
SPLINE
  5
F5
330
1F
100
AcDbEntity
  8
BEZUGSACHSEN
  6
Continuous
 62
     7
100
AcDbSpline
210
0.0
220
0.0
230
1.0
 70
     8
 71
     3
 72
    27
 73
    23
 74
    21
 42
0.0000000001
 43
0.0000000001
 44
0.00000001
 40
0.0
 40
0.0
 40
0.0
 40
0.0
 40
0.1260969825525343
 40
0.2522464959194141
 40
0.3668867952504064
 40
0.4815825893953209
 40
0.5839596006913814
 40
0.685948916165009
 40
0.7334568410907826
 40
0.7809568849358391
 40
0.8274002264845508
 40
0.8738421607604415
 40
0.9204907319419666
 40
0.9671431399762347
 40
1.01511140187312
 40
1.063087497193884
 40
1.165500418794855
 40
1.268190478997093
 40
1.380949153929889
 40
1.493646517813308
 40
1.615655563772698
 40
1.737631867622597
 40
1.737631867622597
 40
1.737631867622597
 40
1.737631867622597
 10
-10.3060091006
 20
317.909158878
 30
0.0
 10
-10.30528055912372
 20
317.951201806061
 30
0.0
 10
-10.30382317266766
 20
318.0353051768706
 30
0.0
 10
-10.29037861071921
 20
318.157052504433
 30
0.0
 10
-10.26742317743365
 20
318.2734702208114
 30
0.0
 10
-10.23345727709778
 20
318.3790456786057
 30
0.0
 10
-10.1872315182453
 20
318.475203740877
 30
0.0
 10
-10.13868834969403
 20
318.5443731065652
 30
0.0
 10
-10.0932490241327
 20
318.5919105881932
 30
0.0
 10
-10.05734294604057
 20
318.6226058716762
 30
0.0
 10
-10.01869551494776
 20
318.6491409073888
 30
0.0
 10
-9.977741027742127
 20
318.6713692532835
 30
0.0
 10
-9.934601401566667
 20
318.6891624701614
 30
0.0
 10
-9.88942076695321
 20
318.7026958772223
 30
0.0
 10
-9.842713543963587
 20
318.7118930025561
 30
0.0
 10
-9.776889552760155
 20
318.7188483229369
 30
0.0
 10
-9.692161800762264
 20
318.716983066303
 30
0.0
 10
-9.587330197270841
 20
318.7000684053498
 30
0.0
 10
-9.481750954928753
 20
318.670653772456
 30
0.0
 10
-9.373593016844074
 20
318.6289021349708
 30
0.0
 10
-9.265940755578924
 20
318.5781063078388
 30
0.0
 10
-9.195421380762738
 20
318.5375418796043
 30
0.0
 10
-9.1601664251
 20
318.5172623873
 30
0.0
 11
-10.3060091006
 21
317.909158878
 31
0.0
 11
-10.30187774103536
 21
318.0351881637911
 31
0.0
 11
-10.28811098191434
 21
318.1605842405479
 31
0.0
 11
-10.2652594058322
 21
318.2729239205424
 31
0.0
 11
-10.22962121646134
 21
318.3819424724173
 31
0.0
 11
-10.1847214516612
 21
318.4739482524683
 31
0.0
 11
-10.12554902270706
 21
318.5570171643575
 31
0.0
 11
-10.09269652254553
 21
318.5913350338119
 31
0.0
 11
-10.05655942761872
 21
318.6221630168068
 31
0.0
 11
-10.01827216275728
 21
318.6484512142277
 31
0.0
 11
-9.977449554820012
 21
318.6705954672177
 31
0.0
 11
-9.934343411201962
 21
318.6884266078334
 31
0.0
 11
-9.889663839157622
 21
318.7018498346188
 31
0.0
 11
-9.842613033402488
 21
318.7111866342418
 31
0.0
 11
-9.794909146128413
 21
318.7162900508591
 31
0.0
 11
-9.692509505270674
 21
318.7146407894932
 31
0.0
 11
-9.59104525496997
 21
318.6988213591857
 31
0.0
 11
-9.482321538532782
 21
318.6689270076007
 31
0.0
 11
-9.377003546238281
 21
318.628816954929
 31
0.0
 11
-9.266710860332882
 21
318.5766467456933
 31
0.0
 11
-9.1601664251
 21
318.5172623873
 31
0.0
  0
SPLINE
  5
F6
330
1F
100
AcDbEntity
  8
BEZUGSACHSEN
  6
Continuous
 62
     7
100
AcDbSpline
210
0.0
220
0.0
230
1.0
 70
     8
 71
     3
 72
    15
 73
    11
 74
     9
 42
0.0000000001
 43
0.0000000001
 44
0.00000001
 40
0.0
 40
0.0
 40
0.0
 40
0.0
 40
0.1110944831353131
 40
0.2222295181605404
 40
0.3333620402238178
 40
0.4444752610525292
 40
0.5555842178313333
 40
0.6667300354115522
 40
0.777945018200067
 40
0.8889820871512689
 40
0.8889820871512689
 40
0.8889820871512689
 40
0.8889820871512689
 10
-9.1601664251
 20
318.5172623873
 30
0.0
 10
-9.134781065522667
 20
318.5442387529749
 30
0.0
 10
-9.084001080162539
 20
318.598201331282
 30
0.0
 10
-9.001748310898416
 20
318.6730832946859
 30
0.0
 10
-8.914751658950804
 20
318.7423700036157
 30
0.0
 10
-8.8224468185321
 20
318.8044651667116
 30
0.0
 10
-8.72499679654904
 20
318.8582446588233
 30
0.0
 10
-8.622583882675679
 20
318.9018349043981
 30
0.0
 10
-8.51606738410533
 20
318.9348534602296
 30
0.0
 10
-8.442725281399683
 20
318.9459266268509
 30
0.0
 10
-8.4060835854
 20
318.9514587781
 30
0.0
 11
-9.1601664251
 21
318.5172623873
 31
0.0
 11
-9.082997647985598
 21
318.5971808709053
 31
0.0
 11
-9.00095774772172
 21
318.6721505366025
 31
0.0
 11
-8.913860599110656
 21
318.7411760692985
 31
0.0
 11
-8.821588777538077
 21
318.8030796942861
 31
0.0
 11
-8.724185869472825
 21
318.8565387793597
 31
0.0
 11
-8.621917646083999
 21
318.9000658198112
 31
0.0
 11
-8.51542577795954
 21
318.9321322262206
 31
0.0
 11
-8.4060835854
 21
318.9514587781
 31
0.0
  0
SPLINE
  5
F7
330
1F
100
AcDbEntity
  8
BEZUGSACHSEN
  6
Continuous
 62
     7
100
AcDbSpline
210
0.0
220
0.0
230
1.0
 70
     8
 71
     3
 72
    47
 73
    43
 74
    41
 42
0.0000000001
 43
0.0000000001
 44
0.00000001
 40
0.0
 40
0.0
 40
0.0
 40
0.0
 40
0.6366022431795031
 40
1.273595002170144
 40
1.592921746393654
 40
1.912076344872728
 40
2.231392290399004
 40
2.550826842702655
 40
3.18977432114646
 40
3.829081697007649
 40
4.468337152520386
 40
5.107221744778908
 40
5.426176341265746
 40
5.745033356811929
 40
6.063356731590149
 40
6.381780214899854
 40
7.017059195676497
 40
7.652639340982156
 40
8.287532214227099
 40
8.922347946496533
 40
9.559226748583024
 40
10.19613435938188
 40
10.83451785504444
 40
11.47287689975704
 40
12.11234487368596
 40
12.75189588953969
 40
13.39354300525906
 40
14.03487957360972
 40
14.3561520577629
 40
14.67732107716088
 40
14.99840882476214
 40
15.31959604125269
 40
15.96011121030747
 40
16.60099592093139
 40
17.23809108083061
 40
17.87482555206908
 40
18.19205670340889
 40
18.5091719910957
 40
18.82571084638453
 40
19.14241581836873
 40
19.77338975001818
 40
20.40398930745698
 40
20.40398930745698
 40
20.40398930745698
 40
20.40398930745698
 10
18.1945753051
 20
303.2749263724
 30
0.0
 10
18.2005809489608
 20
303.4872061820959
 30
0.0
 10
18.21259592077071
 20
303.9118960219243
 30
0.0
 10
18.29386126602518
 20
304.4380387830323
 30
0.0
 10
18.38658086259448
 20
304.8530131591596
 30
0.0
 10
18.47187382671166
 20
305.1608371348526
 30
0.0
 10
18.57211244014237
 20
305.4641298116282
 30
0.0
 10
18.72559798930515
 20
305.8615671741671
 30
0.0
 10
18.95406993610967
 20
306.343666751051
 30
0.0
 10
19.28368489668158
 20
306.8924826238974
 30
0.0
 10
19.665912113749
 20
307.4060181632676
 30
0.0
 10
20.02476681085173
 20
307.8005209253635
 30
0.0
 10
20.33372016440977
 20
308.0933942234077
 30
0.0
 10
20.57561527338352
 20
308.3011160445215
 30
0.0
 10
20.82725852686807
 20
308.4966254416532
 30
0.0
 10
21.17455263402249
 20
308.7401206443197
 30
0.0
 10
21.63029296878936
 20
309.0120027143353
 30
0.0
 10
22.20577239348445
 20
309.2833318268201
 30
0.0
 10
22.80488315863961
 20
309.497115457653
 30
0.0
 10
23.42233356109872
 20
309.651805189062
 30
0.0
 10
24.05260412280029
 20
309.7456121727263
 30
0.0
 10
24.69019805753158
 20
309.7777388975324
 30
0.0
 10
25.32837670176509
 20
309.7473093245827
 30
0.0
 10
25.96138912296123
 20
309.6546380694057
 30
0.0
 10
26.58262280739673
 20
309.5001461081406
 30
0.0
 10
27.18675855936988
 20
309.2851089755804
 30
0.0
 10
27.76723763295516
 20
309.0111856098815
 30
0.0
 10
28.2268666571874
 20
308.7360187318511
 30
0.0
 10
28.57676564584837
 20
308.4894090330016
 30
0.0
 10
28.82989727499664
 20
308.2915048406315
 30
0.0
 10
29.07289591435061
 20
308.0813263112299
 30
0.0
 10
29.38214025785535
 20
307.7858069710747
 30
0.0
 10
29.74046044865004
 20
307.3883359883113
 30
0.0
 10
30.12041086697865
 20
306.8726692267571
 30
0.0
 10
30.44688389655191
 20
306.3230730702753
 30
0.0
 10
30.6722550365335
 20
305.8419675285645
 30
0.0
 10
30.82334601972568
 20
305.4459773409483
 30
0.0
 10
30.92175893730299
 20
305.144550990155
 30
0.0
 10
31.00542571548158
 20
304.8388556222187
 30
0.0
 10
31.0962450729114
 20
304.4273036044949
 30
0.0
 10
31.17576004852279
 20
303.9058783879803
 30
0.0
 10
31.18753233318984
 20
303.485202098844
 30
0.0
 10
31.1934167288
 20
303.2749263725
 30
0.0
 11
18.1945753051
 21
303.2749263724
 31
0.0
 11
18.22582397608423
 21
303.9107612067579
 31
0.0
 11
18.31926517846902
 21
304.5408631958861
 31
0.0
 11
18.38920568548454
 21
304.8524364538124
 31
0.0
 11
18.47434702443652
 21
305.1600248315704
 31
0.0
 11
18.57457156256433
 21
305.4632041762237
 31
0.0
 11
18.68965145232065
 21
305.7611891627232
 31
0.0
 11
18.96324734659664
 21
306.3385964425916
 31
0.0
 11
19.29246686029644
 21
306.8866187346836
 31
0.0
 11
19.67409111562215
 21
307.3994641940083
 31
0.0
 11
20.10402575171928
 21
307.8720419451872
 31
0.0
 11
20.33549801277459
 21
308.0914790135736
 31
0.0
 11
20.57740041380103
 21
308.2992120748341
 31
0.0
 11
20.82877422095552
 21
308.4945092330491
 31
0.0
 11
21.08950349924744
 21
308.6773035386619
 31
0.0
 11
21.63503714345726
 21
309.0028376020896
 31
0.0
 11
22.20994696357598
 21
309.2738372696869
 31
0.0
 11
22.80789315132285
 21
309.4872601294189
 31
0.0
 11
23.42368568354633
 21
309.6415020536632
 31
0.0
 11
24.05361796552398
 21
309.7353099886664
 31
0.0
 11
24.68972108726164
 21
309.7673119137507
 31
0.0
 11
25.32738204628037
 21
309.736947643997
 31
0.0
 11
25.95899957919094
 21
309.6444189344721
 31
0.0
 11
26.57957245131583
 21
309.4901185778185
 31
0.0
 11
27.18207325846963
 21
309.2755998624145
 31
0.0
 11
27.76238045485078
 21
309.0018215233531
 31
0.0
 11
28.31260544289881
 21
308.6723294044317
 31
0.0
 11
28.57521274704626
 21
308.4872526287888
 31
0.0
 11
28.82823320443811
 21
308.2894391126624
 31
0.0
 11
29.07108150580243
 21
308.0793866330671
 31
0.0
 11
29.30328394120945
 21
307.8574784154906
 31
0.0
 11
29.73219999894119
 21
307.3817781976967
 31
0.0
 11
30.11231065759664
 21
306.8657848842827
 31
0.0
 11
30.43774980328685
 21
306.3180809448962
 31
0.0
 11
30.70783066141171
 21
305.7414639863025
 31
0.0
 11
30.82092110661873
 21
305.4450754666476
 31
0.0
 11
30.91936520998255
 21
305.1436275205647
 31
0.0
 11
31.00284801536768
 21
304.8382957860322
 31
0.0
 11
31.07139743880349
 21
304.5290984124565
 31
0.0
 11
31.16282451668777
 21
303.90478343438
 31
0.0
 11
31.1934167288
 21
303.2749263725
 31
0.0
  0
SPLINE
  5
F8
330
1F
100
AcDbEntity
  8
0
  6
Continuous
 62
     7
100
AcDbSpline
210
0.0
220
0.0
230
1.0
 70
     8
 71
     3
 72
    19
 73
    15
 74
    13
 42
0.0000000001
 43
0.0000000001
 44
0.00000001
 40
0.0
 40
0.0
 40
0.0
 40
0.0
 40
0.1162460235976479
 40
0.2327881718564628
 40
0.3491890046613368
 40
0.4655468551262651
 40
0.5819071370407253
 40
0.6982738489569277
 40
0.8146206073031803
 40
0.9309998278443998
 40
1.163276323486332
 40
1.396138921829869
 40
1.629013178121947
 40
1.861351539780151
 40
1.861351539780151
 40
1.861351539780151
 40
1.861351539780151
 10
58.8189908994
 20
269.7525458081
 30
0.0
 10
58.7802068285506
 20
269.7507048612115
 30
0.0
 10
58.70253988846301
 20
269.7470182778139
 30
0.0
 10
58.58892980336567
 20
269.7186127928754
 30
0.0
 10
58.48074211539301
 20
269.6747588786753
 30
0.0
 10
58.37976624942522
 20
269.6161621904492
 30
0.0
 10
58.28699779270165
 20
269.5454773291217
 30
0.0
 10
58.20291041371826
 20
269.4647197240358
 30
0.0
 10
58.12760677034353
 20
269.3757520852938
 30
0.0
 10
58.0389555261756
 20
269.2483926375428
 30
0.0
 10
57.94895878044164
 20
269.0756072594541
 30
0.0
 10
57.87406526129399
 20
268.8546822692647
 30
0.0
 10
57.82752833601138
 20
268.6256623496699
 30
0.0
 10
57.82183452530411
 20
268.470482956839
 30
0.0
 10
57.8189908994
 20
268.3929826387
 30
0.0
 11
58.8189908994
 21
269.7525458081
 31
0.0
 11
58.70311954782144
 21
269.7432201507171
 31
0.0
 11
58.58979502308653
 21
269.7160241139767
 31
0.0
 11
58.48192189045551
 21
269.6722915044726
 31
0.0
 11
58.3811331509422
 21
269.6141470348118
 31
0.0
 11
58.28844584589466
 21
269.5437994784204
 31
0.0
 11
58.20437048026918
 21
269.4633473526739
 31
0.0
 11
58.12907172233751
 21
269.3746531294594
 31
0.0
 11
58.06244499302222
 21
269.2792329957636
 31
0.0
 11
57.95455520691679
 21
269.07353378701
 31
0.0
 11
57.8787970700869
 21
268.8533391131159
 31
0.0
 11
57.83383705631716
 21
268.6248461889247
 31
0.0
 11
57.8189908994
 21
268.3929826387
 31
0.0
  0
SPLINE
  5
F9
330
1F
100
AcDbEntity
  8
0
  6
Continuous
 62
     7
100
AcDbSpline
210
0.0
220
0.0
230
1.0
 70
     8
 71
     3
 72
    19
 73
    15
 74
    13
 42
0.0000000001
 43
0.0000000001
 44
0.00000001
 40
0.0
 40
0.0
 40
0.0
 40
0.0
 40
0.2323383481160769
 40
0.465212595704508
 40
0.6980761132821492
 40
0.9303535187426732
 40
1.046733461811397
 40
1.163080940881836
 40
1.27944799744986
 40
1.395808629558235
 40
1.512165904539069
 40
1.628566140364156
 40
1.745106920511285
 40
1.861351602746266
 40
1.861351602746266
 40
1.861351602746266
 40
1.861351602746266
 10
61.5689908994
 20
268.3929826387
 30
0.0
 10
61.5661472737945
 20
268.470482952359
 30
0.0
 10
61.56045346362552
 20
268.6256623378438
 30
0.0
 10
61.51391648776946
 20
268.8546825518615
 30
0.0
 10
61.43902274196627
 20
269.0756081137476
 30
0.0
 10
61.34902543770978
 20
269.2483941779613
 30
0.0
 10
61.2603734999348
 20
269.3757541037057
 30
0.0
 10
61.18506923559063
 20
269.4647220026288
 30
0.0
 10
61.10098126174275
 20
269.5454796725622
 30
0.0
 10
61.00821252788016
 20
269.6161642389035
 30
0.0
 10
60.90723671563102
 20
269.67476046306
 30
0.0
 10
60.7990496661416
 20
269.7186137142177
 30
0.0
 10
60.68544055682042
 20
269.7470184736744
 30
0.0
 10
60.60777452205259
 20
269.75070492632
 30
0.0
 10
60.5689908994
 20
269.7525458081
 30
0.0
 11
61.5689908994
 21
268.3929826387
 31
0.0
 11
61.55414474527973
 21
268.6248461755339
 31
0.0
 11
61.50918474367359
 21
268.8533390932479
 31
0.0
 11
61.43342626495623
 21
269.0735346216337
 31
0.0
 11
61.32553585377356
 21
269.2792345299037
 31
0.0
 11
61.25890852995009
 21
269.3746551297174
 31
0.0
 11
61.1836090733934
 21
269.4633497052466
 31
0.0
 11
61.09953320704056
 21
269.5438018062218
 31
0.0
 11
61.00684538103943
 21
269.6141492554709
 31
0.0
 11
60.90605694612339
 21
269.6722931014749
 31
0.0
 11
60.79818421735163
 21
269.7160251182071
 31
0.0
 11
60.6848609288446
 21
269.743220443527
 31
0.0
 11
60.5689908994
 21
269.7525458081
 31
0.0
  0
SPLINE
  5
FA
330
1F
100
AcDbEntity
  8
BEZUGSACHSEN
  6
Continuous
 62
     7
100
AcDbSpline
210
0.0
220
0.0
230
1.0
 70
     8
 71
     3
 72
    11
 73
     7
 74
     5
 42
0.0000000001
 43
0.0000000001
 44
0.00000001
 40
0.0
 40
0.0
 40
0.0
 40
0.0
 40
0.5462907431587488
 40
1.093000863658466
 40
1.646070107183949
 40
2.198197048695501
 40
2.198197048695501
 40
2.198197048695501
 40
2.198197048695501
 10
-0.7521631537
 20
318.2849263919
 30
0.0
 10
-0.6890923518708414
 20
318.1139947626424
 30
0.0
 10
-0.5629023299197107
 20
317.7720002830642
 30
0.0
 10
-0.423265016862024
 20
317.2407261538498
 30
0.0
 10
-0.3257766527947869
 20
316.6973017489231
 30
0.0
 10
-0.3125945382612766
 20
316.3287171083804
 30
0.0
 10
-0.3060091006
 20
316.1445819177
 30
0.0
 11
-0.7521631537
 21
318.2849263919
 31
0.0
 11
-0.5713118211552206
 21
317.7694398532031
 31
0.0
 11
-0.4308203364477531
 21
317.2410894973013
 31
0.0
 11
-0.3387536831703314
 21
316.6957370245939
 31
0.0
 11
-0.3060091006
 21
316.1445819177
 31
0.0
  0
SPLINE
  5
FB
330
1F
100
AcDbEntity
  8
BEZUGSACHSEN
  6
Continuous
 62
     7
100
AcDbSpline
210
0.0
220
0.0
230
1.0
 70
     8
 71
     3
 72
    19
 73
    15
 74
    13
 42
0.0000000001
 43
0.0000000001
 44
0.00000001
 40
0.0
 40
0.0
 40
0.0
 40
0.0
 40
0.1462385987747976
 40
0.292747927467614
 40
0.4364790705803884
 40
0.580165923579121
 40
0.7203799972121758
 40
0.8606059382052043
 40
0.9980411883395716
 40
1.135484020387923
 40
1.405415631048016
 40
1.675815514035942
 40
1.943997429455953
 40
2.211934834706202
 40
2.211934834706202
 40
2.211934834706202
 40
2.211934834706202
 10
-2.3060091006
 20
319.6335739793
 30
0.0
 10
-2.257294295261915
 20
319.6368820566392
 30
0.0
 10
-2.159774499399577
 20
319.643504335525
 30
0.0
 10
-2.014438239104907
 20
319.6271450227057
 30
0.0
 10
-1.873781302005075
 20
319.591973256621
 30
0.0
 10
-1.74092916856794
 20
319.5391675700037
 30
0.0
 10
-1.61647470549859
 20
319.4714957822927
 30
0.0
 10
-1.501672148316306
 20
319.3921955809197
 30
0.0
 10
-1.395562210526611
 20
319.303110941343
 30
0.0
 10
-1.266459745344483
 20
319.1751634057717
 30
0.0
 10
-1.123419895446907
 20
318.9993611168661
 30
0.0
 10
-0.9785122937618599
 20
318.7716756509819
 30
0.0
 10
-0.853875545376305
 20
318.5330130314853
 30
0.0
 10
-0.7860569741594291
 20
318.3675967910707
 30
0.0
 10
-0.7521631537
 20
318.2849263919
 30
0.0
 11
-2.3060091006
 21
319.6335739793
 31
0.0
 11
-2.159875238783098
 21
319.6391077124066
 31
0.0
 11
-2.014165877951452
 21
319.6238183186955
 31
0.0
 11
-1.874735796425702
 21
319.5889199825428
 31
0.0
 11
-1.74110345951493
 21
319.5361155295445
 31
0.0
 11
-1.617789668695947
 21
319.4693795164884
 31
0.0
 11
-1.50225855735694
 21
319.3899070253977
 31
0.0
 11
-1.396846007568366
 21
319.3017217526672
 31
0.0
 11
-1.299057503872173
 21
319.2051404883022
 31
0.0
 11
-1.127809107985472
 21
318.9964851233106
 31
0.0
 11
-0.9814666874728455
 21
318.7691087993928
 31
0.0
 11
-0.8575990617003616
 21
318.5312467573519
 31
0.0
 11
-0.7521631537
 21
318.2849263919
 31
0.0
  0
SPLINE
  5
FC
330
1F
100
AcDbEntity
  8
BEZUGSACHSEN
  6
Continuous
 62
     7
100
AcDbSpline
210
0.0
220
0.0
230
1.0
 70
     8
 71
     3
 72
    47
 73
    43
 74
    41
 42
0.0000000001
 43
0.0000000001
 44
0.00000001
 40
0.0
 40
0.0
 40
0.0
 40
0.0
 40
0.6302393214806752
 40
1.26085486735982
 40
1.577476088434157
 40
1.893930800251788
 40
2.210999113891929
 40
2.528183472230254
 40
3.16488703827156
 40
3.801951183418506
 40
4.442851001648295
 40
5.083381259827902
 40
5.404527292350703
 40
5.725573838793485
 40
6.046670710064221
 40
6.367871027186243
 40
7.009090242568226
 40
7.650619763967975
 40
8.290330346499704
 40
8.929958764490395
 40
9.568647011376939
 40
10.20735923017991
 40
10.84445705819758
 40
11.48152626498336
 40
12.11643462224216
 40
12.75141965580933
 40
13.3869190873965
 40
14.02211738534401
 40
14.3405044914705
 40
14.65879153796664
 40
14.97761586873175
 40
15.29653774949698
 40
15.93537694107
 40
16.5745869407431
 40
17.21386274997832
 40
17.85277859077121
 40
18.17219860083053
 40
18.49150024075529
 40
18.81067156635521
 40
19.13001452422672
 40
19.76719627023773
 40
20.40398968279458
 40
20.40398968279458
 40
20.40398968279458
 40
20.40398968279458
 10
31.1934045372
 20
303.2749264106
 30
0.0
 10
31.18753533542959
 20
303.0647703887046
 30
0.0
 10
31.1757934282405
 20
302.6443328912644
 30
0.0
 10
31.09634668573035
 20
302.1231694489927
 30
0.0
 10
31.00561518063335
 20
301.7117779815726
 30
0.0
 10
30.92200979831172
 20
301.4061401412905
 30
0.0
 10
30.82365785693614
 20
301.1047562951059
 30
0.0
 10
30.67263904608832
 20
300.7087831155107
 30
0.0
 10
30.44735645851808
 20
300.2276763068143
 30
0.0
 10
30.12097842379695
 20
299.678042081793
 30
0.0
 10
29.74111136173924
 20
299.1623142191348
 30
0.0
 10
29.38285692243447
 20
298.7647888169386
 30
0.0
 10
29.07367618475914
 20
298.4692354620006
 30
0.0
 10
28.83075122872847
 20
298.259050553566
 30
0.0
 10
28.57770232540167
 20
298.0611410892507
 30
0.0
 10
28.22791981693775
 20
297.8145177377913
 30
0.0
 10
27.76843457918543
 20
297.539311128518
 30
0.0
 10
27.18803887222937
 20
297.265271021806
 30
0.0
 10
26.5838845643996
 20
297.0500825444489
 30
0.0
 10
25.96246941699388
 20
296.8954207054089
 30
0.0
 10
25.32920020555127
 20
296.8026103323773
 30
0.0
 10
24.69074074111019
 20
296.7720995825694
 30
0.0
 10
24.05290772755531
 20
296.8042013249512
 30
0.0
 10
23.42247774056212
 20
296.8980143873275
 30
0.0
 10
22.80490407106501
 20
297.0527282036169
 30
0.0
 10
22.20576065963207
 20
297.2665247756903
 30
0.0
 10
21.6303034381659
 20
297.5378461441467
 30
0.0
 10
21.17461804521078
 20
297.8096910277956
 30
0.0
 10
20.82736214746021
 20
298.0531515803871
 30
0.0
 10
20.57574256615531
 20
298.2486341067067
 30
0.0
 10
20.33386751587997
 20
298.4563271653966
 30
0.0
 10
20.02493123219396
 20
298.7491647135293
 30
0.0
 10
19.66608847530613
 20
299.143622362482
 30
0.0
 10
19.2838615700703
 20
299.6571070284467
 30
0.0
 10
18.95423712481181
 20
300.2058748071527
 30
0.0
 10
18.72574967890703
 20
300.6879382236276
 30
0.0
 10
18.57224817898032
 20
301.0853477827837
 30
0.0
 10
18.47199137608257
 20
301.3886301460677
 30
0.0
 10
18.38667488317117
 20
301.6964540177767
 30
0.0
 10
18.29391242780658
 20
302.1114948848865
 30
0.0
 10
18.21262006085104
 20
302.6377676839618
 30
0.0
 10
18.20058026129202
 20
303.0625833336611
 30
0.0
 10
18.1945621965
 20
303.2749264123
 30
0.0
 11
31.1934045372
 21
303.2749264106
 31
0.0
 11
31.16286495842318
 21
302.6454274539142
 31
0.0
 11
31.07153368290759
 21
302.0214606560658
 31
0.0
 11
31.00303894420217
 21
301.712336945548
 31
0.0
 11
30.91962011934124
 21
301.407074952679
 31
0.0
 11
30.82123337549201
 21
301.1056576934695
 31
0.0
 11
30.70820274439369
 21
300.8092964382285
 31
0.0
 11
30.43822260791296
 21
300.232666438215
 31
0.0
 11
30.11288598608138
 21
299.6849376663516
 31
0.0
 11
29.73284949126787
 21
299.1688709656075
 31
0.0
 11
29.30399899357543
 21
298.693091329355
 31
0.0
 11
29.07186185919954
 21
298.4711743965876
 31
0.0
 11
28.82907936586236
 21
298.2611088213217
 31
0.0
 11
28.57614975756402
 21
298.0632962484505
 31
0.0
 11
28.31363536172968
 21
297.8782129274866
 31
0.0
 11
27.76357718013087
 21
297.5486707010098
 31
0.0
 11
27.18343634847988
 21
297.27481537008
 31
0.0
 11
26.58083103818833
 21
297.0601144864966
 31
0.0
 11
25.96013176786704
 21
296.9056576027915
 31
0.0
 11
25.32820295394465
 21
296.812982628577
 31
0.0
 11
24.69021682676347
 21
296.7825359543319
 31
0.0
 11
24.0539218386386
 21
296.8145098585665
 31
0.0
 11
23.42379856453094
 21
296.9083279467078
 31
0.0
 11
22.80791465628949
 21
297.0625862809601
 31
0.0
 11
22.20988218647051
 21
297.2760415640911
 31
0.0
 11
21.6350464379238
 21
297.5470090708891
 31
0.0
 11
21.08957975038242
 21
297.8724978886664
 31
0.0
 11
20.82887745760551
 21
298.0552673168771
 31
0.0
 11
20.57752820579718
 21
298.2505368679664
 31
0.0
 11
20.33564490744762
 21
298.4582420048008
 31
0.0
 11
20.10418907614742
 21
298.6776488510658
 31
0.0
 11
19.6742660452672
 21
299.1501757817358
 31
0.0
 11
19.2926449058094
 21
299.6629668986645
 31
0.0
 11
18.96341343163452
 21
300.2109451798819
 31
0.0
 11
18.68979912451965
 21
300.788308724417
 31
0.0
 11
18.57470687208834
 21
301.0862733469087
 31
0.0
 11
18.47446718368698
 21
301.3894326154918
 31
0.0
 11
18.38930010347929
 21
301.6970312233139
 31
0.0
 11
18.3193370759974
 21
302.0086160424686
 31
0.0
 11
18.22584817900441
 21
302.6389020121591
 31
0.0
 11
18.1945621965
 21
303.2749264123
 31
0.0
  0
SPLINE
  5
FD
330
1F
100
AcDbEntity
  8
BEZUGSACHSEN
  6
Continuous
 62
     7
100
AcDbSpline
210
0.0
220
0.0
230
1.0
 70
     8
 71
     3
 72
    11
 73
     7
 74
     5
 42
0.0000000001
 43
0.0000000001
 44
0.00000001
 40
0.0
 40
0.0
 40
0.0
 40
0.0
 40
0.552126940707062
 40
1.105196183368504
 40
1.651906304769386
 40
2.198197048714897
 40
2.198197048714897
 40
2.198197048714897
 40
2.198197048714897
 10
-0.3060091006
 20
290.4052708661
 30
0.0
 10
-0.3125945382279868
 20
290.2211356756879
 30
0.0
 10
-0.3257766526941669
 20
289.8525510357015
 30
0.0
 10
-0.4232650165119219
 20
289.3091266309943
 30
0.0
 10
-0.562902329586489
 20
288.777852501493
 30
0.0
 10
-0.6890923517641745
 20
288.4358580213981
 30
0.0
 10
-0.7521631537
 20
288.2649263919
 30
0.0
 11
-0.3060091006
 21
290.4052708661
 31
0.0
 11
-0.3387536830299623
 21
289.8541157600037
 31
0.0
 11
-0.430820335995437
 21
289.3087632881198
 31
0.0
 11
-0.5713118208630968
 21
288.7804129313282
 31
0.0
 11
-0.7521631537
 21
288.2649263919
 31
0.0
  0
SPLINE
  5
FE
330
1F
100
AcDbEntity
  8
BEZUGSACHSEN
  6
Continuous
 62
     7
100
AcDbSpline
210
0.0
220
0.0
230
1.0
 70
     8
 71
     3
 72
    11
 73
     7
 74
     5
 42
0.0000000001
 43
0.0000000001
 44
0.00000001
 40
0.0
 40
0.0
 40
0.0
 40
0.0
 40
0.9140556660003273
 40
1.828030949185921
 40
2.279806974872761
 40
2.730944124783993
 40
2.730944124783993
 40
2.730944124783993
 40
2.730944124783993
 10
-9.03905617371456
 20
288.264926392085
 30
0.0
 10
-8.906401466750836
 20
288.5396429897517
 30
0.0
 10
-8.641103718588537
 20
289.0890520262791
 30
0.0
 10
-8.425748505280204
 20
289.8217629473834
 30
0.0
 10
-8.32205429160756
 20
290.4197081534986
 30
0.0
 10
-8.311354974151666
 20
290.7208313689361
 30
0.0
 10
-8.30600910069063
 20
290.871286443528
 30
0.0
 11
-9.03905617371456
 21
288.264926392085
 31
0.0
 11
-8.664248643939114
 21
289.0986032336555
 31
0.0
 11
-8.404957283541263
 21
289.975027108671
 31
0.0
 11
-8.332240310053962
 21
290.4209125414362
 31
0.0
 11
-8.30600910069063
 21
290.871286443528
 31
0.0
  0
SPLINE
  5
FF
330
1F
100
AcDbEntity
  8
BEZUGSACHSEN
  6
Continuous
 62
     7
100
AcDbSpline
210
0.0
220
0.0
230
1.0
 70
     8
 71
     3
 72
    11
 73
     7
 74
     5
 42
0.0000000001
 43
0.0000000001
 44
0.00000001
 40
0.0
 40
0.0
 40
0.0
 40
0.0
 40
0.8249192366890388
 40
1.650116891948183
 40
2.19049215231036
 40
2.730585915394903
 40
2.730585915394903
 40
2.730585915394903
 40
2.730585915394903
 10
-8.30600910069063
 20
315.678566340272
 30
0.0
 10
-8.323742404996127
 20
315.9537566322576
 30
0.0
 10
-8.359214998776341
 20
316.5042300957305
 30
0.0
 10
-8.567649815420422
 20
317.208963680891
 30
0.0
 10
-8.797876246399042
 20
317.801177405971
 30
0.0
 10
-8.958676829201094
 20
318.123704739416
 30
0.0
 10
-9.03905617371456
 20
318.284926391715
 30
0.0
 11
-8.30600910069063
 21
315.678566340272
 31
0.0
 11
-8.389584554727048
 21
316.4992409959927
 31
0.0
 11
-8.607545996827513
 21
317.2951329358958
 31
0.0
 11
-8.805481075386698
 21
317.7979521148133
 31
0.0
 11
-9.03905617371456
 21
318.284926391715
 31
0.0
  0
DIMENSION
  5
10C
330
1F
100
AcDbEntity
  8
1
100
AcDbDimension
  2
*D2
 10
250.137704911895
 20
306.2749263919
 30
0.0
 11
246.387704911895
 21
310.300753518019
 31
0.0
 70
    32
  1
<>
 71
     5
 42
-1.0
 53
90.0
  3
ME10_DIM_10
100
AcDbAlignedDimension
 13
239.6939908994
 23
300.2749263919
 33
0.0
 14
239.6939908994
 24
306.2749263919
 34
0.0
 50
90.0
100
AcDbRotatedDimension
  0
DIMENSION
  5
117
330
1F
100
AcDbEntity
  8
1
100
AcDbDimension
  2
*D3
 10
260.88494779354
 20
313.7749263918466
 30
0.0
 11
257.13494779354
 21
303.253381136612
 31
0.0
 70
    32
  1
<>
 71
     5
 42
-1.0
 53
90.0
  3
ME10_DIM_11
100
AcDbAlignedDimension
 13
239.6939908994
 23
292.7749263918487
 33
0.0
 14
239.6939908994
 24
313.7749263918466
 34
0.0
 50
90.0
100
AcDbRotatedDimension
  0
DIMENSION
  5
122
330
1F
100
AcDbEntity
  8
1
100
AcDbDimension
  2
*D4
 10
269.341794651229
 20
316.7749263919
 30
0.0
 11
265.591794651229
 21
303.253381136612
 31
0.0
 70
    32
  1
<>
 71
     5
 42
-1.0
 53
90.0
  3
ME10_DIM_12
100
AcDbAlignedDimension
 13
201.5753766908
 23
289.7749263919
 33
0.0
 14
201.5753766908
 24
316.7749263919
 34
0.0
 50
90.0
100
AcDbRotatedDimension
  0
DIMENSION
  5
12D
330
1F
100
AcDbEntity
  8
1
100
AcDbDimension
  2
*D5
 10
239.6939908994
 20
361.746571902291
 30
0.0
 11
152.883966048477
 21
365.496571902291
 31
0.0
 70
    32
  1
<>
 71
     5
 42
-1.0
 53
0.00013888888889
  3
ME10_DIM_13
100
AcDbAlignedDimension
 13
68.6939908994
 23
353.2748894707
 33
0.0
 14
239.6939908994
 24
312.8505359002
 34
0.0
100
AcDbRotatedDimension
  0
DIMENSION
  5
138
330
1F
100
AcDbEntity
  8
1
100
AcDbDimension
  2
*D6
 10
239.6939908994
 20
369.09223155825
 30
0.0
 11
136.677136831382
 21
372.84223155825
 31
0.0
 70
    32
  1
<>
 71
     5
 42
-1.0
 53
0.00013888888889
  3
ME10_DIM_14
100
AcDbAlignedDimension
 13
39.6939908994
 23
353.2749263919
 33
0.0
 14
239.6939908994
 24
312.8505359002
 34
0.0
100
AcDbRotatedDimension
  0
DIMENSION
  5
143
330
1F
100
AcDbEntity
  8
1
100
AcDbDimension
  2
*D7
 10
239.6939908994
 20
376.248389595528
 30
0.0
 11
124.613898997113
 21
379.998389595528
 31
0.0
 70
    32
  1
<>
 71
     5
 42
-1.0
 53
0.00013888888889
  3
ME10_DIM_15
100
AcDbAlignedDimension
 13
-10.3060091006
 23
336.8751179544
 33
0.0
 14
239.6939908994
 24
312.8505359002
 34
0.0
100
AcDbRotatedDimension
  0
INSERT
  5
14A
330
1F
100
AcDbEntity
  8
1
100
AcDbBlockReference
  2
*D8
 10
0.0
 20
0.0
 30
0.0
  0
DIMENSION
  5
155
330
1F
100
AcDbEntity
  8
1
100
AcDbDimension
  2
*D9
 10
225.7362160895294
 20
315.8256444265058
 30
0.0
 11
228.7710003470728
 21
323.1352689466744
 31
0.0
 70
    37
  1
<>
 71
     5
 42
-1.0
  3
ME10_DIM_16
100
AcDb3PointAngularDimension
 13
225.6803203228927
 23
314.877826185097
 33
0.0
 14
203.9933247810224
 24
316.7749263919
 34
0.0
 15
201.5753766908
 25
316.7749263919
 35
0.0
  0
ENDSEC
  0
SECTION
  2
OBJECTS
  0
DICTIONARY
  5
C
330
0
100
AcDbDictionary
281
     1
  3
ACAD_GROUP
350
D
  3
ACAD_LAYOUT
350
1A
  3
ACAD_MLEADERSTYLE
350
158
  3
ACAD_MLINESTYLE
350
17
  3
ACAD_PLOTSETTINGS
350
19
  3
ACAD_PLOTSTYLENAME
350
E
  3
ACAD_SCALELIST
350
4A
  3
ACAD_VISUALSTYLE
350
2A
  3
AcDbVariableDictionary
350
156
  0
DICTIONARY
  5
D
102
{ACAD_REACTORS
330
C
102
}
330
C
100
AcDbDictionary
281
     1
  0
DICTIONARY
  5
1A
102
{ACAD_REACTORS
330
C
102
}
330
C
100
AcDbDictionary
281
     1
  3
Layout1
350
1E
  3
Layout2
350
26
  3
Model
350
22
  0
DICTIONARY
  5
158
102
{ACAD_REACTORS
330
C
102
}
330
C
100
AcDbDictionary
281
     1
  0
DICTIONARY
  5
17
102
{ACAD_REACTORS
330
C
102
}
330
C
100
AcDbDictionary
281
     1
  3
Standard
350
18
  0
DICTIONARY
  5
19
102
{ACAD_REACTORS
330
C
102
}
330
C
100
AcDbDictionary
281
     1
  0
ACDBDICTIONARYWDFLT
  5
E
102
{ACAD_REACTORS
330
C
102
}
330
C
100
AcDbDictionary
281
     1
  3
Normal
350
F
100
AcDbDictionaryWithDefault
340
F
  0
DICTIONARY
  5
4A
102
{ACAD_REACTORS
330
C
102
}
330
C
100
AcDbDictionary
281
     1
  3
A0
350
4B
  3
A1
350
4C
  3
A2
350
4D
  3
A3
350
4E
  3
A4
350
4F
  3
A5
350
50
  3
A6
350
51
  3
A7
350
52
  3
A8
350
53
  3
A9
350
54
  3
B0
350
55
  3
B1
350
56
  3
B2
350
57
  3
B3
350
58
  3
B4
350
59
  3
B5
350
5A
  3
B6
350
5B
  3
B7
350
5C
  3
B8
350
5D
  3
B9
350
5E
  3
C0
350
5F
  3
C1
350
60
  3
C2
350
61
  3
C3
350
62
  3
C4
350
63
  3
C5
350
64
  3
C6
350
65
  3
C7
350
66
  3
C8
350
67
  3
C9
350
68
  3
D0
350
69
  3
D1
350
6A
  3
D2
350
6B
  0
DICTIONARY
  5
2A
102
{ACAD_REACTORS
330
C
102
}
330
C
100
AcDbDictionary
281
     1
  3
2dWireframe
350
2F
  3
3D Hidden
350
31
  3
3dWireframe
350
30
  3
Basic
350
32
  3
Brighten
350
36
  3
ColorChange
350
3A
  3
Conceptual
350
34
  3
Dim
350
35
  3
Facepattern
350
39
  3
Flat
350
2B
  3
FlatWithEdges
350
2C
  3
Gouraud
350
2D
  3
GouraudWithEdges
350
2E
  3
Linepattern
350
38
  3
Realistic
350
33
  3
Thicken
350
37
  0
DICTIONARY
  5
156
102
{ACAD_REACTORS
330
C
102
}
330
C
100
AcDbDictionary
281
     1
  3
CANNOSCALE
350
159
  0
LAYOUT
  5
1E
102
{ACAD_REACTORS
330
1A
102
}
330
1A
100
AcDbPlotSettings
  1

  2
none_device
  4

  6

 40
0.0
 41
0.0
 42
0.0
 43
0.0
 44
0.0
 45
0.0
 46
0.0
 47
0.0
 48
0.0
 49
0.0
140
0.0
141
0.0
142
1.0
143
1.0
 70
   688
 72
     0
 73
     0
 74
     5
  7

 75
    16
147
1.0
148
0.0
149
0.0
100
AcDbLayout
  1
Layout1
 70
     1
 71
     1
 10
0.0
 20
0.0
 11
12.0
 21
9.0
 12
0.0
 22
0.0
 32
0.0
 14
1.00000000000000E+20
 24
1.00000000000000E+20
 34
1.00000000000000E+20
 15
-1.00000000000000E+20
 25
-1.00000000000000E+20
 35
-1.00000000000000E+20
146
0.0
 13
0.0
 23
0.0
 33
0.0
 16
1.0
 26
0.0
 36
0.0
 17
0.0
 27
1.0
 37
0.0
 76
     0
330
1B
  0
LAYOUT
  5
26
102
{ACAD_REACTORS
330
1A
102
}
330
1A
100
AcDbPlotSettings
  1

  2
none_device
  4

  6

 40
0.0
 41
0.0
 42
0.0
 43
0.0
 44
0.0
 45
0.0
 46
0.0
 47
0.0
 48
0.0
 49
0.0
140
0.0
141
0.0
142
1.0
143
1.0
 70
   688
 72
     0
 73
     0
 74
     5
  7

 75
    16
147
1.0
148
0.0
149
0.0
100
AcDbLayout
  1
Layout2
 70
     1
 71
     2
 10
0.0
 20
0.0
 11
0.0
 21
0.0
 12
0.0
 22
0.0
 32
0.0
 14
0.0
 24
0.0
 34
0.0
 15
0.0
 25
0.0
 35
0.0
146
0.0
 13
0.0
 23
0.0
 33
0.0
 16
1.0
 26
0.0
 36
0.0
 17
0.0
 27
1.0
 37
0.0
 76
     0
330
23
  0
LAYOUT
  5
22
102
{ACAD_REACTORS
330
1A
102
}
330
1A
100
AcDbPlotSettings
  1

  2
none_device
  4

  6

 40
0.0
 41
0.0
 42
0.0
 43
0.0
 44
0.0
 45
0.0
 46
0.0
 47
0.0
 48
0.0
 49
0.0
140
0.0
141
0.0
142
1.0
143
1.0
 70
  1712
 72
     0
 73
     0
 74
     0
  7

 75
     0
147
1.0
148
0.0
149
0.0
100
AcDbLayout
  1
Model
 70
     1
 71
     0
 10
0.0
 20
0.0
 11
12.0
 21
9.0
 12
0.0
 22
0.0
 32
0.0
 14
-33.1226467230757
 24
253.2749263919
 34
0.0
 15
271.341794651229
 25
381.748389595528
 35
0.0
146
0.0
 13
0.0
 23
0.0
 33
0.0
 16
1.0
 26
0.0
 36
0.0
 17
0.0
 27
1.0
 37
0.0
 76
     0
330
1F
331
29
  0
MLINESTYLE
  5
18
102
{ACAD_REACTORS
330
17
102
}
330
17
100
AcDbMlineStyle
  2
Standard
 70
     0
  3

 62
   256
 51
90.0
 52
90.0
 71
     2
 49
0.5
 62
   256
  6
BYLAYER
 49
-0.5
 62
   256
  6
BYLAYER
  0
ACDBPLACEHOLDER
  5
F
102
{ACAD_REACTORS
330
E
102
}
330
E
  0
SCALE
  5
4B
102
{ACAD_REACTORS
330
4A
102
}
330
4A
100
AcDbScale
 70
     0
300
1:1
140
1.0
141
1.0
290
     1
  0
SCALE
  5
4C
102
{ACAD_REACTORS
330
4A
102
}
330
4A
100
AcDbScale
 70
     0
300
1:2
140
1.0
141
2.0
290
     0
  0
SCALE
  5
4D
102
{ACAD_REACTORS
330
4A
102
}
330
4A
100
AcDbScale
 70
     0
300
1:4
140
1.0
141
4.0
290
     0
  0
SCALE
  5
4E
102
{ACAD_REACTORS
330
4A
102
}
330
4A
100
AcDbScale
 70
     0
300
1:5
140
1.0
141
5.0
290
     0
  0
SCALE
  5
4F
102
{ACAD_REACTORS
330
4A
102
}
330
4A
100
AcDbScale
 70
     0
300
1:8
140
1.0
141
8.0
290
     0
  0
SCALE
  5
50
102
{ACAD_REACTORS
330
4A
102
}
330
4A
100
AcDbScale
 70
     0
300
1:10
140
1.0
141
10.0
290
     0
  0
SCALE
  5
51
102
{ACAD_REACTORS
330
4A
102
}
330
4A
100
AcDbScale
 70
     0
300
1:16
140
1.0
141
16.0
290
     0
  0
SCALE
  5
52
102
{ACAD_REACTORS
330
4A
102
}
330
4A
100
AcDbScale
 70
     0
300
1:20
140
1.0
141
20.0
290
     0
  0
SCALE
  5
53
102
{ACAD_REACTORS
330
4A
102
}
330
4A
100
AcDbScale
 70
     0
300
1:30
140
1.0
141
30.0
290
     0
  0
SCALE
  5
54
102
{ACAD_REACTORS
330
4A
102
}
330
4A
100
AcDbScale
 70
     0
300
1:40
140
1.0
141
40.0
290
     0
  0
SCALE
  5
55
102
{ACAD_REACTORS
330
4A
102
}
330
4A
100
AcDbScale
 70
     0
300
1:50
140
1.0
141
50.0
290
     0
  0
SCALE
  5
56
102
{ACAD_REACTORS
330
4A
102
}
330
4A
100
AcDbScale
 70
     0
300
1:100
140
1.0
141
100.0
290
     0
  0
SCALE
  5
57
102
{ACAD_REACTORS
330
4A
102
}
330
4A
100
AcDbScale
 70
     0
300
2:1
140
2.0
141
1.0
290
     0
  0
SCALE
  5
58
102
{ACAD_REACTORS
330
4A
102
}
330
4A
100
AcDbScale
 70
     0
300
4:1
140
4.0
141
1.0
290
     0
  0
SCALE
  5
59
102
{ACAD_REACTORS
330
4A
102
}
330
4A
100
AcDbScale
 70
     0
300
8:1
140
8.0
141
1.0
290
     0
  0
SCALE
  5
5A
102
{ACAD_REACTORS
330
4A
102
}
330
4A
100
AcDbScale
 70
     0
300
10:1
140
10.0
141
1.0
290
     0
  0
SCALE
  5
5B
102
{ACAD_REACTORS
330
4A
102
}
330
4A
100
AcDbScale
 70
     0
300
100:1
140
100.0
141
1.0
290
     0
  0
SCALE
  5
5C
102
{ACAD_REACTORS
330
4A
102
}
330
4A
100
AcDbScale
 70
     0
300
1/128" = 1'-0"
140
0.0078125
141
12.0
290
     0
  0
SCALE
  5
5D
102
{ACAD_REACTORS
330
4A
102
}
330
4A
100
AcDbScale
 70
     0
300
1/64" = 1'-0"
140
0.015625
141
12.0
290
     0
  0
SCALE
  5
5E
102
{ACAD_REACTORS
330
4A
102
}
330
4A
100
AcDbScale
 70
     0
300
1/32" = 1'-0"
140
0.03125
141
12.0
290
     0
  0
SCALE
  5
5F
102
{ACAD_REACTORS
330
4A
102
}
330
4A
100
AcDbScale
 70
     0
300
1/16" = 1'-0"
140
0.0625
141
12.0
290
     0
  0
SCALE
  5
60
102
{ACAD_REACTORS
330
4A
102
}
330
4A
100
AcDbScale
 70
     0
300
3/32" = 1'-0"
140
0.09375
141
12.0
290
     0
  0
SCALE
  5
61
102
{ACAD_REACTORS
330
4A
102
}
330
4A
100
AcDbScale
 70
     0
300
1/8" = 1'-0"
140
0.125
141
12.0
290
     0
  0
SCALE
  5
62
102
{ACAD_REACTORS
330
4A
102
}
330
4A
100
AcDbScale
 70
     0
300
3/16" = 1'-0"
140
0.1875
141
12.0
290
     0
  0
SCALE
  5
63
102
{ACAD_REACTORS
330
4A
102
}
330
4A
100
AcDbScale
 70
     0
300
1/4" = 1'-0"
140
0.25
141
12.0
290
     0
  0
SCALE
  5
64
102
{ACAD_REACTORS
330
4A
102
}
330
4A
100
AcDbScale
 70
     0
300
3/8" = 1'-0"
140
0.375
141
12.0
290
     0
  0
SCALE
  5
65
102
{ACAD_REACTORS
330
4A
102
}
330
4A
100
AcDbScale
 70
     0
300
1/2" = 1'-0"
140
0.5
141
12.0
290
     0
  0
SCALE
  5
66
102
{ACAD_REACTORS
330
4A
102
}
330
4A
100
AcDbScale
 70
     0
300
3/4" = 1'-0"
140
0.75
141
12.0
290
     0
  0
SCALE
  5
67
102
{ACAD_REACTORS
330
4A
102
}
330
4A
100
AcDbScale
 70
     0
300
1" = 1'-0"
140
1.0
141
12.0
290
     0
  0
SCALE
  5
68
102
{ACAD_REACTORS
330
4A
102
}
330
4A
100
AcDbScale
 70
     0
300
1-1/2" = 1'-0"
140
1.5
141
12.0
290
     0
  0
SCALE
  5
69
102
{ACAD_REACTORS
330
4A
102
}
330
4A
100
AcDbScale
 70
     0
300
3" = 1'-0"
140
3.0
141
12.0
290
     0
  0
SCALE
  5
6A
102
{ACAD_REACTORS
330
4A
102
}
330
4A
100
AcDbScale
 70
     0
300
6" = 1'-0"
140
6.0
141
12.0
290
     0
  0
SCALE
  5
6B
102
{ACAD_REACTORS
330
4A
102
}
330
4A
100
AcDbScale
 70
     0
300
1'-0" = 1'-0"
140
12.0
141
12.0
290
     0
  0
VISUALSTYLE
  5
2F
102
{ACAD_REACTORS
330
2A
102
}
330
2A
100
AcDbVisualStyle
  2
2dWireframe
 70
     4
 71
     0
 72
     2
 73
     0
 90
        0
 40
-0.6
 41
-30.0
 62
     5
 63
     7
 74
     1
 91
        4
 64
     7
 65
   257
 75
     1
175
     1
 42
1.0
 92
        0
 66
   257
 43
1.0
 76
     1
 77
     6
 78
     2
 67
     7
 79
     5
170
     0
171
     0
290
     0
174
     0
 93
        1
 44
0.0
173
     0
291
     0
 45
0.0
1001
ACAD
1000
AcDbSavedByObjectVersion
1070
     0
  0
VISUALSTYLE
  5
31
102
{ACAD_REACTORS
330
2A
102
}
330
2A
100
AcDbVisualStyle
  2
3D Hidden
 70
     6
 71
     1
 72
     2
 73
     2
 90
        0
 40
-0.6
 41
-30.0
 62
     5
 63
     7
 74
     2
 91
        2
 64
     7
 65
   257
 75
     2
175
     1
 42
40.0
 92
        0
 66
   257
 43
1.0
 76
     1
 77
     6
 78
     2
 67
     7
 79
     3
170
     0
171
     0
290
     0
174
     0
 93
        1
 44
0.0
173
     0
291
     0
 45
0.0
1001
ACAD
1000
AcDbSavedByObjectVersion
1070
     0
  0
VISUALSTYLE
  5
30
102
{ACAD_REACTORS
330
2A
102
}
330
2A
100
AcDbVisualStyle
  2
3dWireframe
 70
     5
 71
     0
 72
     2
 73
     0
 90
        0
 40
-0.6
 41
-30.0
 62
     5
 63
     7
 74
     1
 91
        4
 64
     7
 65
   257
 75
     1
175
     1
 42
1.0
 92
        0
 66
   257
 43
1.0
 76
     1
 77
     6
 78
     2
 67
     7
 79
     5
170
     0
171
     0
290
     0
174
     0
 93
        1
 44
0.0
173
     0
291
     0
 45
0.0
1001
ACAD
1000
AcDbSavedByObjectVersion
1070
     0
  0
VISUALSTYLE
  5
32
102
{ACAD_REACTORS
330
2A
102
}
330
2A
100
AcDbVisualStyle
  2
Basic
 70
     7
 71
     1
 72
     0
 73
     1
 90
        0
 40
-0.6
 41
-30.0
 62
     5
 63
     7
 74
     0
 91
        4
 64
     7
 65
   257
 75
     1
175
     1
 42
1.0
 92
        8
 66
     7
 43
1.0
 76
     1
 77
     6
 78
     2
 67
     7
 79
     5
170
     0
171
     0
290
     0
174
     0
 93
        1
 44
0.0
173
     0
291
     1
 45
0.0
1001
ACAD
1000
AcDbSavedByObjectVersion
1070
     0
  0
VISUALSTYLE
  5
36
102
{ACAD_REACTORS
330
2A
102
}
330
2A
100
AcDbVisualStyle
  2
Brighten
 70
    12
 71
     2
 72
     2
 73
     0
 90
        0
 40
-0.6
 41
-30.0
 62
     5
 63
     7
 74
     1
 91
        4
 64
     7
 65
   257
 75
     1
175
     1
 42
1.0
 92
        8
 66
     7
 43
1.0
 76
     1
 77
     6
 78
     2
 67
     7
 79
     5
170
     0
171
     0
290
     0
174
     0
 93
        1
 44
50.0
173
     0
291
     1
 45
0.0
1001
ACAD
1000
AcDbSavedByObjectVersion
1070
     0
  0
VISUALSTYLE
  5
3A
102
{ACAD_REACTORS
330
2A
102
}
330
2A
100
AcDbVisualStyle
  2
ColorChange
 70
    16
 71
     2
 72
     2
 73
     3
 90
        0
 40
-0.6
 41
-30.0
 62
     5
 63
     8
 74
     1
 91
        4
 64
     7
 65
   257
 75
     1
175
     1
 42
1.0
 92
        8
 66
     8
 43
1.0
 76
     1
 77
     6
 78
     2
 67
     7
 79
     5
170
     0
171
     0
290
     0
174
     0
 93
        1
 44
0.0
173
     0
291
     1
 45
0.0
1001
ACAD
1000
AcDbSavedByObjectVersion
1070
     0
  0
VISUALSTYLE
  5
34
102
{ACAD_REACTORS
330
2A
102
}
330
2A
100
AcDbVisualStyle
  2
Conceptual
 70
     9
 71
     3
 72
     2
 73
     0
 90
        0
 40
-0.6
 41
-30.0
 62
     5
 63
     7
 74
     2
 91
        2
 64
     7
 65
   257
 75
     1
175
     1
 42
40.0
 92
        8
 66
     7
 43
1.0
 76
     1
 77
     6
 78
     2
 67
     7
 79
     3
170
     0
171
     0
290
     0
174
     0
 93
        1
 44
0.0
173
     0
291
     0
 45
0.0
1001
ACAD
1000
AcDbSavedByObjectVersion
1070
     0
  0
VISUALSTYLE
  5
35
102
{ACAD_REACTORS
330
2A
102
}
330
2A
100
AcDbVisualStyle
  2
Dim
 70
    11
 71
     2
 72
     2
 73
     0
 90
        0
 40
-0.6
 41
-30.0
 62
     5
 63
     7
 74
     1
 91
        4
 64
     7
 65
   257
 75
     1
175
     1
 42
1.0
 92
        8
 66
     7
 43
1.0
 76
     1
 77
     6
 78
     2
 67
     7
 79
     5
170
     0
171
     0
290
     0
174
     0
 93
        1
 44
-50.0
173
     0
291
     1
 45
0.0
1001
ACAD
1000
AcDbSavedByObjectVersion
1070
     0
  0
VISUALSTYLE
  5
39
102
{ACAD_REACTORS
330
2A
102
}
330
2A
100
AcDbVisualStyle
  2
Facepattern
 70
    15
 71
     2
 72
     2
 73
     0
 90
        0
 40
-0.6
 41
-30.0
 62
     5
 63
     7
 74
     1
 91
        4
 64
     7
 65
   257
 75
     1
175
     1
 42
1.0
 92
        8
 66
     7
 43
1.0
 76
     1
 77
     6
 78
     2
 67
     7
 79
     5
170
     0
171
     0
290
     0
174
     0
 93
        1
 44
0.0
173
     0
291
     1
 45
0.0
1001
ACAD
1000
AcDbSavedByObjectVersion
1070
     0
  0
VISUALSTYLE
  5
2B
102
{ACAD_REACTORS
330
2A
102
}
330
2A
100
AcDbVisualStyle
  2
Flat
 70
     0
 71
     2
 72
     1
 73
     1
 90
        2
 40
-0.6
 41
30.0
 62
     5
 63
     7
 74
     0
 91
        4
 64
     7
 65
   257
 75
     1
175
     1
 42
1.0
 92
        8
 66
     7
 43
1.0
 76
     1
 77
     6
 78
     2
 67
     7
 79
     5
170
     0
171
     0
290
     0
174
     0
 93
       13
 44
0.0
173
     0
291
     1
 45
0.0
1001
ACAD
1000
AcDbSavedByObjectVersion
1070
     0
  0
VISUALSTYLE
  5
2C
102
{ACAD_REACTORS
330
2A
102
}
330
2A
100
AcDbVisualStyle
  2
FlatWithEdges
 70
     1
 71
     2
 72
     1
 73
     1
 90
        2
 40
-0.6
 41
30.0
 62
     5
 63
     7
 74
     1
 91
        4
 64
     7
 65
   257
 75
     1
175
     1
 42
1.0
 92
        0
 66
   257
 43
1.0
 76
     1
 77
     6
 78
     2
 67
     7
 79
     5
170
     0
171
     0
290
     0
174
     0
 93
       13
 44
0.0
173
     0
291
     1
 45
0.0
1001
ACAD
1000
AcDbSavedByObjectVersion
1070
     0
  0
VISUALSTYLE
  5
2D
102
{ACAD_REACTORS
330
2A
102
}
330
2A
100
AcDbVisualStyle
  2
Gouraud
 70
     2
 71
     2
 72
     2
 73
     1
 90
        2
 40
-0.6
 41
30.0
 62
     5
 63
     7
 74
     0
 91
        4
 64
     7
 65
   257
 75
     1
175
     1
 42
1.0
 92
        0
 66
     7
 43
1.0
 76
     1
 77
     6
 78
     2
 67
     7
 79
     5
170
     0
171
     0
290
     0
174
     0
 93
       13
 44
0.0
173
     0
291
     1
 45
0.0
1001
ACAD
1000
AcDbSavedByObjectVersion
1070
     0
  0
VISUALSTYLE
  5
2E
102
{ACAD_REACTORS
330
2A
102
}
330
2A
100
AcDbVisualStyle
  2
GouraudWithEdges
 70
     3
 71
     2
 72
     2
 73
     1
 90
        2
 40
-0.6
 41
30.0
 62
     5
 63
     7
 74
     1
 91
        4
 64
     7
 65
   257
 75
     1
175
     1
 42
1.0
 92
        0
 66
   257
 43
1.0
 76
     1
 77
     6
 78
     2
 67
     7
 79
     5
170
     0
171
     0
290
     0
174
     0
 93
       13
 44
0.0
173
     0
291
     1
 45
0.0
1001
ACAD
1000
AcDbSavedByObjectVersion
1070
     0
  0
VISUALSTYLE
  5
38
102
{ACAD_REACTORS
330
2A
102
}
330
2A
100
AcDbVisualStyle
  2
Linepattern
 70
    14
 71
     2
 72
     2
 73
     0
 90
        0
 40
-0.6
 41
-30.0
 62
     5
 63
     7
 74
     1
 91
        4
 64
     7
 65
   257
 75
     7
175
     7
 42
1.0
 92
        8
 66
     7
 43
1.0
 76
     1
 77
     6
 78
     2
 67
     7
 79
     5
170
     0
171
     0
290
     0
174
     0
 93
        1
 44
0.0
173
     0
291
     1
 45
0.0
1001
ACAD
1000
AcDbSavedByObjectVersion
1070
     0
  0
VISUALSTYLE
  5
33
102
{ACAD_REACTORS
330
2A
102
}
330
2A
100
AcDbVisualStyle
  2
Realistic
 70
     8
 71
     2
 72
     2
 73
     0
 90
        0
 40
-0.6
 41
-30.0
 62
     5
 63
     7
 74
     1
 91
        0
 64
     7
 65
   257
 75
     1
175
     1
 42
1.0
 92
        8
 66
     8
 43
1.0
 76
     1
 77
     6
 78
     2
 67
     7
 79
     5
170
     0
171
     0
290
     0
174
     0
 93
       13
 44
0.0
173
     0
291
     0
 45
0.0
1001
ACAD
1000
AcDbSavedByObjectVersion
1070
     0
  0
VISUALSTYLE
  5
37
102
{ACAD_REACTORS
330
2A
102
}
330
2A
100
AcDbVisualStyle
  2
Thicken
 70
    13
 71
     2
 72
     2
 73
     0
 90
        0
 40
-0.6
 41
-30.0
 62
     5
 63
     7
 74
     1
 91
        4
 64
     7
 65
   257
 75
     1
175
     1
 42
1.0
 92
       12
 66
     7
 43
1.0
 76
     1
 77
     6
 78
     2
 67
     7
 79
     5
170
     0
171
     0
290
     0
174
     0
 93
        1
 44
0.0
173
     0
291
     1
 45
0.0
1001
ACAD
1000
AcDbSavedByObjectVersion
1070
     0
  0
DICTIONARYVAR
  5
159
102
{ACAD_REACTORS
330
156
102
}
330
156
100
DictionaryVariables
280
     0
  1
1:1
  0
ENDSEC
  0
EOF
