  0
SECTION
  2
HEADER
  9
$ACADVER
  1
AC1015
  9
$ACADMAINTVER
 70
     6
  9
$DWGCODEPAGE
  3
ANSI_1252
  9
$INSBASE
 10
0.0
 20
0.0
 30
0.0
  9
$EXTMIN
 10
-7.75676350369969
 20
234.8962627141
 30
0.0
  9
$EXTMAX
 10
256.295575563314
 20
363.482552089358
 30
0.0
  9
$LIMMIN
 10
0.0
 20
0.0
  9
$LIMMAX
 10
12.0
 20
9.0
  9
$ORTHOMODE
 70
     0
  9
$REGENMODE
 70
     1
  9
$FILLMODE
 70
     1
  9
$QTEXTMODE
 70
     0
  9
$MIRRTEXT
 70
     1
  9
$LTSCALE
 40
1.0
  9
$ATTMODE
 70
     1
  9
$TEXTSIZE
 40
0.2
  9
$TRACEWID
 40
0.05
  9
$TEXTSTYLE
  7
Standard
  9
$CLAYER
  8
0
  9
$CELTYPE
  6
ByLayer
  9
$CECOLOR
 62
   256
  9
$CELTSCALE
 40
1.0
  9
$DISPSILH
 70
     0
  9
$DIMSCALE
 40
1.0
  9
$DIMASZ
 40
0.18
  9
$DIMEXO
 40
0.0625
  9
$DIMDLI
 40
0.38
  9
$DIMRND
 40
0.0
  9
$DIMDLE
 40
0.0
  9
$DIMEXE
 40
0.18
  9
$DIMTP
 40
0.0
  9
$DIMTM
 40
0.0
  9
$DIMTXT
 40
0.18
  9
$DIMCEN
 40
0.09
  9
$DIMTSZ
 40
0.0
  9
$DIMTOL
 70
     0
  9
$DIMLIM
 70
     0
  9
$DIMTIH
 70
     1
  9
$DIMTOH
 70
     1
  9
$DIMSE1
 70
     0
  9
$DIMSE2
 70
     0
  9
$DIMTAD
 70
     0
  9
$DIMZIN
 70
     0
  9
$DIMBLK
  1

  9
$DIMASO
 70
     1
  9
$DIMSHO
 70
     1
  9
$DIMPOST
  1

  9
$DIMAPOST
  1

  9
$DIMALT
 70
     0
  9
$DIMALTD
 70
     2
  9
$DIMALTF
 40
25.4
  9
$DIMLFAC
 40
1.0
  9
$DIMTOFL
 70
     0
  9
$DIMTVP
 40
0.0
  9
$DIMTIX
 70
     0
  9
$DIMSOXD
 70
     0
  9
$DIMSAH
 70
     0
  9
$DIMBLK1
  1

  9
$DIMBLK2
  1

  9
$DIMSTYLE
  2
Standard
  9
$DIMCLRD
 70
     0
  9
$DIMCLRE
 70
     0
  9
$DIMCLRT
 70
     0
  9
$DIMTFAC
 40
1.0
  9
$DIMGAP
 40
0.09
  9
$DIMJUST
 70
     0
  9
$DIMSD1
 70
     0
  9
$DIMSD2
 70
     0
  9
$DIMTOLJ
 70
     1
  9
$DIMTZIN
 70
     0
  9
$DIMALTZ
 70
     0
  9
$DIMALTTZ
 70
     0
  9
$DIMUPT
 70
     0
  9
$DIMDEC
 70
     4
  9
$DIMTDEC
 70
     4
  9
$DIMALTU
 70
     2
  9
$DIMALTTD
 70
     2
  9
$DIMTXSTY
  7
Standard
  9
$DIMAUNIT
 70
     0
  9
$DIMADEC
 70
     0
  9
$DIMALTRND
 40
0.0
  9
$DIMAZIN
 70
     0
  9
$DIMDSEP
 70
    46
  9
$DIMATFIT
 70
     3
  9
$DIMFRAC
 70
     0
  9
$DIMLDRBLK
  1

  9
$DIMLUNIT
 70
     2
  9
$DIMLWD
 70
    -2
  9
$DIMLWE
 70
    -2
  9
$DIMTMOVE
 70
     0
  9
$LUNITS
 70
     2
  9
$LUPREC
 70
     4
  9
$SKETCHINC
 40
0.1
  9
$FILLETRAD
 40
0.5
  9
$AUNITS
 70
     0
  9
$AUPREC
 70
     0
  9
$MENU
  1
.
  9
$ELEVATION
 40
0.0
  9
$PELEVATION
 40
0.0
  9
$THICKNESS
 40
0.0
  9
$LIMCHECK
 70
     0
  9
$CHAMFERA
 40
0.5
  9
$CHAMFERB
 40
0.5
  9
$CHAMFERC
 40
1.0
  9
$CHAMFERD
 40
0.0
  9
$SKPOLY
 70
     0
  9
$TDCREATE
 40
2456748.730495301
  9
$TDUCREATE
 40
2456748.647161968
  9
$TDUPDATE
 40
2456748.730495313
  9
$TDUUPDATE
 40
2456748.647161979
  9
$TDINDWG
 40
0.0000000116
  9
$TDUSRTIMER
 40
0.0000000116
  9
$USRTIMER
 70
     1
  9
$ANGBASE
 50
0.0
  9
$ANGDIR
 70
     0
  9
$PDMODE
 70
     0
  9
$PDSIZE
 40
0.0
  9
$PLINEWID
 40
0.0
  9
$SPLFRAME
 70
     0
  9
$SPLINETYPE
 70
     6
  9
$SPLINESEGS
 70
     8
  9
$HANDSEED
  5
155
  9
$SURFTAB1
 70
     6
  9
$SURFTAB2
 70
     6
  9
$SURFTYPE
 70
     6
  9
$SURFU
 70
     6
  9
$SURFV
 70
     6
  9
$UCSBASE
  2

  9
$UCSNAME
  2

  9
$UCSORG
 10
0.0
 20
0.0
 30
0.0
  9
$UCSXDIR
 10
1.0
 20
0.0
 30
0.0
  9
$UCSYDIR
 10
0.0
 20
1.0
 30
0.0
  9
$UCSORTHOREF
  2

  9
$UCSORTHOVIEW
 70
     0
  9
$UCSORGTOP
 10
0.0
 20
0.0
 30
0.0
  9
$UCSORGBOTTOM
 10
0.0
 20
0.0
 30
0.0
  9
$UCSORGLEFT
 10
0.0
 20
0.0
 30
0.0
  9
$UCSORGRIGHT
 10
0.0
 20
0.0
 30
0.0
  9
$UCSORGFRONT
 10
0.0
 20
0.0
 30
0.0
  9
$UCSORGBACK
 10
0.0
 20
0.0
 30
0.0
  9
$PUCSBASE
  2

  9
$PUCSNAME
  2

  9
$PUCSORG
 10
0.0
 20
0.0
 30
0.0
  9
$PUCSXDIR
 10
1.0
 20
0.0
 30
0.0
  9
$PUCSYDIR
 10
0.0
 20
1.0
 30
0.0
  9
$PUCSORTHOREF
  2

  9
$PUCSORTHOVIEW
 70
     0
  9
$PUCSORGTOP
 10
0.0
 20
0.0
 30
0.0
  9
$PUCSORGBOTTOM
 10
0.0
 20
0.0
 30
0.0
  9
$PUCSORGLEFT
 10
0.0
 20
0.0
 30
0.0
  9
$PUCSORGRIGHT
 10
0.0
 20
0.0
 30
0.0
  9
$PUCSORGFRONT
 10
0.0
 20
0.0
 30
0.0
  9
$PUCSORGBACK
 10
0.0
 20
0.0
 30
0.0
  9
$USERI1
 70
     0
  9
$USERI2
 70
     0
  9
$USERI3
 70
     0
  9
$USERI4
 70
     0
  9
$USERI5
 70
     0
  9
$USERR1
 40
16.5
  9
$USERR2
 40
0.0
  9
$USERR3
 40
0.0
  9
$USERR4
 40
0.0
  9
$USERR5
 40
0.0
  9
$WORLDVIEW
 70
     1
  9
$SHADEDGE
 70
     3
  9
$SHADEDIF
 70
    70
  9
$TILEMODE
 70
     1
  9
$MAXACTVP
 70
    64
  9
$PINSBASE
 10
0.0
 20
0.0
 30
0.0
  9
$PLIMCHECK
 70
     0
  9
$PEXTMIN
 10
1.00000000000000E+20
 20
1.00000000000000E+20
 30
1.00000000000000E+20
  9
$PEXTMAX
 10
-1.00000000000000E+20
 20
-1.00000000000000E+20
 30
-1.00000000000000E+20
  9
$PLIMMIN
 10
0.0
 20
0.0
  9
$PLIMMAX
 10
12.0
 20
9.0
  9
$UNITMODE
 70
     0
  9
$VISRETAIN
 70
     1
  9
$PLINEGEN
 70
     0
  9
$PSLTSCALE
 70
     1
  9
$TREEDEPTH
 70
  3020
  9
$CMLSTYLE
  2
Standard
  9
$CMLJUST
 70
     0
  9
$CMLSCALE
 40
1.0
  9
$PROXYGRAPHICS
 70
     1
  9
$MEASUREMENT
 70
     1
  9
$CELWEIGHT
370
    -1
  9
$ENDCAPS
280
     0
  9
$JOINSTYLE
280
     0
  9
$LWDISPLAY
290
     0
  9
$INSUNITS
 70
     1
  9
$HYPERLINKBASE
  1

  9
$STYLESHEET
  1

  9
$XEDIT
290
     1
  9
$CEPSNTYPE
380
     0
  9
$PSTYLEMODE
290
     1
  9
$FINGERPRINTGUID
  2
{677FD0E7-800E-450F-8E92-CBD3F6ED87B4}
  9
$VERSIONGUID
  2
{FAEB1C32-E019-11D5-929B-00C0DF256EC4}
  9
$EXTNAMES
290
     1
  9
$PSVPSCALE
 40
0.0
  9
$OLESTARTUP
290
     0
  0
ENDSEC
  0
SECTION
  2
CLASSES
  0
CLASS
  1
ACDBDICTIONARYWDFLT
  2
AcDbDictionaryWithDefault
  3
ObjectDBX Classes
 90
        0
280
     0
281
     0
  0
CLASS
  1
VISUALSTYLE
  2
AcDbVisualStyle
  3
ObjectDBX Classes
 90
     4095
280
     0
281
     0
  0
CLASS
  1
SCALE
  2
AcDbScale
  3
ObjectDBX Classes
 90
     1153
280
     0
281
     0
  0
CLASS
  1

  2
exOdDbPolyline
  3

 90
        0
280
     0
281
     1
  0
CLASS
  1

  2
exOdDbCircle
  3

 90
        0
280
     0
281
     1
  0
CLASS
  1

  2
exOdDbSpline
  3

 90
        0
280
     0
281
     1
  0
CLASS
  1
DICTIONARYVAR
  2
AcDbDictionaryVar
  3
ObjectDBX Classes
 90
        0
280
     0
281
     0
  0
CLASS
  1
ACDBPLACEHOLDER
  2
AcDbPlaceHolder
  3
ObjectDBX Classes
 90
        0
280
     0
281
     0
  0
CLASS
  1
LAYOUT
  2
AcDbLayout
  3
ObjectDBX Classes
 90
        0
280
     0
281
     0
  0
ENDSEC
  0
SECTION
  2
TABLES
  0
TABLE
  2
VPORT
  5
8
330
0
100
AcDbSymbolTable
 70
     1
  0
VPORT
  5
29
330
8
100
AcDbSymbolTableRecord
100
AcDbViewportTableRecord
  2
*Active
 70
     0
 10
0.0
 20
0.0
 11
1.0
 21
1.0
 12
124.2694060298072
 22
299.189407401729
 13
0.0
 23
0.0
 14
0.5
 24
0.5
 15
0.5
 25
0.5
 16
0.0
 26
0.0
 36
1.0
 17
0.0
 27
0.0
 37
0.0
 40
181.2325803512875
 41
1.60267857142857
 42
50.0
 43
0.0
 44
0.0
 50
0.0
 51
0.0
 71
     0
 72
   100
 73
     1
 74
     3
 75
     0
 76
     0
 77
     0
 78
     0
281
     0
 65
     1
110
0.0
120
0.0
130
0.0
111
1.0
121
0.0
131
0.0
112
0.0
122
1.0
132
0.0
 79
     0
146
0.0
  0
ENDTAB
  0
TABLE
  2
LTYPE
  5
5
330
0
100
AcDbSymbolTable
 70
     8
  0
LTYPE
  5
14
330
5
100
AcDbSymbolTableRecord
100
AcDbLinetypeTableRecord
  2
ByBlock
 70
     0
  3

 72
    65
 73
     0
 40
0.0
  0
LTYPE
  5
15
330
5
100
AcDbSymbolTableRecord
100
AcDbLinetypeTableRecord
  2
ByLayer
 70
     0
  3

 72
    65
 73
     0
 40
0.0
  0
LTYPE
  5
16
330
5
100
AcDbSymbolTableRecord
100
AcDbLinetypeTableRecord
  2
Continuous
 70
     0
  3
Solid line
 72
    65
 73
     0
 40
0.0
  0
LTYPE
  5
3B
330
5
100
AcDbSymbolTableRecord
100
AcDbLinetypeTableRecord
  2
DASHED
 70
     0
  3
Dashed
 72
    65
 73
     2
 40
15.0
 49
7.0
 74
     0
 49
-8.0
 74
     0
  0
LTYPE
  5
3C
330
5
100
AcDbSymbolTableRecord
100
AcDbLinetypeTableRecord
  2
DOTTED
 70
     0
  3
Dotted
 72
    65
 73
     2
 40
1.0
 49
0.0
 74
     0
 49
-1.0
 74
     0
  0
LTYPE
  5
3D
330
5
100
AcDbSymbolTableRecord
100
AcDbLinetypeTableRecord
  2
DOT_CENTER
 70
     0
  3
Dot_Center
 72
    65
 73
     4
 40
14.0
 49
12.0
 74
     0
 49
-1.0
 74
     0
 49
0.0
 74
     0
 49
-1.0
 74
     0
  0
LTYPE
  5
3E
330
5
100
AcDbSymbolTableRecord
100
AcDbLinetypeTableRecord
  2
LONG_DASHED
 70
     0
  3
Long_Dashed
 72
    65
 73
     2
 40
15.0
 49
10.0
 74
     0
 49
-5.0
 74
     0
  0
LTYPE
  5
3F
330
5
100
AcDbSymbolTableRecord
100
AcDbLinetypeTableRecord
  2
DASH_CENTER
 70
     0
  3
Dash_Center
 72
    65
 73
     4
 40
14.0
 49
11.0
 74
     0
 49
-1.0
 74
     0
 49
1.0
 74
     0
 49
-1.0
 74
     0
  0
LTYPE
  5
40
330
5
100
AcDbSymbolTableRecord
100
AcDbLinetypeTableRecord
  2
PHANTOM
 70
     0
  3
Phantom
 72
    65
 73
     6
 40
13.0
 49
10.0
 74
     0
 49
-1.0
 74
     0
 49
0.0
 74
     0
 49
-1.0
 74
     0
 49
0.0
 74
     0
 49
-1.0
 74
     0
  0
LTYPE
  5
41
330
5
100
AcDbSymbolTableRecord
100
AcDbLinetypeTableRecord
  2
CENTER_DASH_DASH
 70
     0
  3
Center_Dash_Dash
 72
    65
 73
     6
 40
14.0
 49
9.0
 74
     0
 49
-1.0
 74
     0
 49
1.0
 74
     0
 49
-1.0
 74
     0
 49
1.0
 74
     0
 49
-1.0
 74
     0
  0
ENDTAB
  0
TABLE
  2
LAYER
  5
2
330
0
100
AcDbSymbolTable
 70
     6
  0
LAYER
  5
10
330
2
100
AcDbSymbolTableRecord
100
AcDbLayerTableRecord
  2
0
 70
     0
 62
     7
  6
Continuous
370
    -3
390
F
  0
LAYER
  5
42
330
2
100
AcDbSymbolTableRecord
100
AcDbLayerTableRecord
  2
1
 70
     0
 62
     7
  6
Continuous
370
    -3
390
F
  0
LAYER
  5
43
330
2
100
AcDbSymbolTableRecord
100
AcDbLayerTableRecord
  2
BEZUGSACHSEN
 70
     0
 62
     7
  6
Continuous
370
    -3
390
F
  0
LAYER
  5
44
330
2
100
AcDbSymbolTableRecord
100
AcDbLayerTableRecord
  2
DEFAULT_2
 70
     0
 62
     7
  6
Continuous
370
    -3
390
F
  0
LAYER
  5
45
330
2
100
AcDbSymbolTableRecord
100
AcDbLayerTableRecord
  2
FASEN
 70
     0
 62
     7
  6
Continuous
370
    -3
390
F
  0
LAYER
  5
46
330
2
100
AcDbSymbolTableRecord
100
AcDbLayerTableRecord
  2
RUNDUNGEN
 70
     0
 62
     7
  6
Continuous
370
    -3
390
F
  0
ENDTAB
  0
TABLE
  2
STYLE
  5
3
330
0
100
AcDbSymbolTable
 70
     2
  0
STYLE
  5
11
330
3
100
AcDbSymbolTableRecord
100
AcDbTextStyleTableRecord
  2
Standard
 70
     0
 40
0.0
 41
1.0
 50
0.0
 71
     0
 42
0.2
  3
txt
  4

  0
STYLE
  5
6D
330
3
100
AcDbSymbolTableRecord
100
AcDbTextStyleTableRecord
  2
CONVERTER_11
 70
     0
 40
0.0
 41
0.72
 50
0.0
 71
     0
 42
0.2
  3
txt.shx
  4

  0
ENDTAB
  0
TABLE
  2
VIEW
  5
6
330
0
100
AcDbSymbolTable
 70
     0
  0
ENDTAB
  0
TABLE
  2
UCS
  5
7
330
0
100
AcDbSymbolTable
 70
     0
  0
ENDTAB
  0
TABLE
  2
APPID
  5
9
330
0
100
AcDbSymbolTable
 70
     1
  0
APPID
  5
12
330
9
100
AcDbSymbolTableRecord
100
AcDbRegAppTableRecord
  2
ACAD
 70
     0
  0
ENDTAB
  0
TABLE
  2
DIMSTYLE
  5
A
330
0
100
AcDbSymbolTable
 70
     8
100
AcDbDimStyleTable
  0
DIMSTYLE
105
27
330
A
100
AcDbSymbolTableRecord
100
AcDbDimStyleTableRecord
  2
Standard
 70
     0
340
11
  0
DIMSTYLE
105
106
102
{ACAD_REACTORS
330
107
102
}
330
A
100
AcDbSymbolTableRecord
100
AcDbDimStyleTableRecord
  2
ME10_DIM_10
 70
     0
  3
\U+2300<>
 41
3.5
 42
2.0
 44
2.0
 71
     1
 73
     0
 74
     0
 77
     1
 78
     8
140
3.5
146
0.7
147
2.0
172
     1
173
     1
176
     2
177
     2
178
     3
271
     2
272
     0
340
6D
  0
DIMSTYLE
105
111
102
{ACAD_REACTORS
330
112
102
}
330
A
100
AcDbSymbolTableRecord
100
AcDbDimStyleTableRecord
  2
ME10_DIM_11
 70
     0
  3
\U+2300<>
 41
3.5
 42
2.0
 44
2.0
 71
     1
 73
     0
 74
     0
 77
     1
 78
     8
140
3.5
146
0.7
147
2.0
172
     1
173
     1
176
     2
177
     2
178
     3
271
     2
272
     0
340
6D
  0
DIMSTYLE
105
11C
102
{ACAD_REACTORS
330
11D
102
}
330
A
100
AcDbSymbolTableRecord
100
AcDbDimStyleTableRecord
  2
ME10_DIM_12
 70
     0
  3
\U+2300<>
 41
3.5
 42
2.0
 44
2.0
 71
     1
 73
     0
 74
     0
 77
     1
 78
     8
140
3.5
146
0.7
147
2.0
172
     1
173
     1
176
     2
177
     2
178
     3
271
     2
272
     0
340
6D
  0
DIMSTYLE
105
127
102
{ACAD_REACTORS
330
128
102
}
330
A
100
AcDbSymbolTableRecord
100
AcDbDimStyleTableRecord
  2
ME10_DIM_13
 70
     0
  3
<>
 41
3.5
 42
2.0
 44
2.0
 71
     1
 73
     0
 74
     0
 77
     1
 78
     8
140
3.5
146
0.7
147
2.0
172
     1
173
     1
176
     2
177
     2
178
     3
271
     2
272
     0
340
6D
  0
DIMSTYLE
105
132
102
{ACAD_REACTORS
330
133
102
}
330
A
100
AcDbSymbolTableRecord
100
AcDbDimStyleTableRecord
  2
ME10_DIM_14
 70
     0
  3
<>
 41
3.5
 42
2.0
 44
2.0
 71
     1
 73
     0
 74
     0
 77
     1
 78
     8
140
3.5
146
0.7
147
2.0
172
     1
173
     1
176
     2
177
     2
178
     3
271
     2
272
     0
340
6D
  0
DIMSTYLE
105
13D
102
{ACAD_REACTORS
330
13E
102
}
330
A
100
AcDbSymbolTableRecord
100
AcDbDimStyleTableRecord
  2
ME10_DIM_15
 70
     0
  3
<>
 41
3.5
 42
2.0
 44
2.0
 71
     1
 73
     0
 74
     0
 77
     1
 78
     8
140
3.5
146
0.7
147
2.0
172
     1
173
     1
176
     2
177
     2
178
     3
271
     2
272
     0
340
6D
  0
DIMSTYLE
105
14F
102
{ACAD_REACTORS
330
150
102
}
330
A
100
AcDbSymbolTableRecord
100
AcDbDimStyleTableRecord
  2
ME10_DIM_16
 70
     0
  3
<>
 41
3.5
 42
2.0
 44
2.0
 71
     1
 73
     0
 74
     0
 77
     1
 78
     8
140
3.5
146
0.7
147
2.0
172
     1
173
     1
176
     2
177
     2
178
     3
271
     2
272
     0
340
6D
  0
ENDTAB
  0
TABLE
  2
BLOCK_RECORD
  5
1
330
0
100
AcDbSymbolTable
 70
    10
  0
BLOCK_RECORD
  5
1F
330
1
100
AcDbSymbolTableRecord
100
AcDbBlockTableRecord
  2
*Model_Space
340
22
  0
BLOCK_RECORD
  5
1B
330
1
100
AcDbSymbolTableRecord
100
AcDbBlockTableRecord
  2
*Paper_Space
340
1E
  0
BLOCK_RECORD
  5
23
330
1
100
AcDbSymbolTableRecord
100
AcDbBlockTableRecord
  2
*Paper_Space0
340
26
  0
BLOCK_RECORD
  5
47
330
1
100
AcDbSymbolTableRecord
100
AcDbBlockTableRecord
  2
Urheberrecht_DE-EN
340
0
102
{BLKREFS
331
6C
102
}
  0
BLOCK_RECORD
  5
FD
330
1
100
AcDbSymbolTableRecord
100
AcDbBlockTableRecord
  2
*D2
340
0
  0
BLOCK_RECORD
  5
108
330
1
100
AcDbSymbolTableRecord
100
AcDbBlockTableRecord
  2
*D3
340
0
  0
BLOCK_RECORD
  5
113
330
1
100
AcDbSymbolTableRecord
100
AcDbBlockTableRecord
  2
*D4
340
0
  0
BLOCK_RECORD
  5
11E
330
1
100
AcDbSymbolTableRecord
100
AcDbBlockTableRecord
  2
*D5
340
0
  0
BLOCK_RECORD
  5
129
330
1
100
AcDbSymbolTableRecord
100
AcDbBlockTableRecord
  2
*D6
340
0
  0
BLOCK_RECORD
  5
134
330
1
100
AcDbSymbolTableRecord
100
AcDbBlockTableRecord
  2
*D7
340
0
  0
BLOCK_RECORD
  5
13F
330
1
100
AcDbSymbolTableRecord
100
AcDbBlockTableRecord
  2
*D8
340
0
102
{BLKREFS
331
145
102
}
  0
BLOCK_RECORD
  5
146
330
1
100
AcDbSymbolTableRecord
100
AcDbBlockTableRecord
  2
*D9
340
0
  0
ENDTAB
  0
ENDSEC
  0
SECTION
  2
BLOCKS
  0
BLOCK
  5
20
330
1F
100
AcDbEntity
  8
0
100
AcDbBlockBegin
  2
*Model_Space
 70
     0
 10
0.0
 20
0.0
 30
0.0
  3
*Model_Space
  1

  0
ENDBLK
  5
21
330
1F
100
AcDbEntity
  8
0
100
AcDbBlockEnd
  0
BLOCK
  5
1C
330
1B
100
AcDbEntity
 67
     1
  8
0
100
AcDbBlockBegin
  2
*Paper_Space
 70
     0
 10
0.0
 20
0.0
 30
0.0
  3
*Paper_Space
  1

  0
ENDBLK
  5
1D
330
1B
100
AcDbEntity
 67
     1
  8
0
100
AcDbBlockEnd
  0
BLOCK
  5
24
330
23
100
AcDbEntity
  8
0
100
AcDbBlockBegin
  2
*Paper_Space0
 70
     0
 10
0.0
 20
0.0
 30
0.0
  3
*Paper_Space0
  1

  0
ENDBLK
  5
25
330
23
100
AcDbEntity
  8
0
100
AcDbBlockEnd
  0
BLOCK
  5
48
330
47
100
AcDbEntity
  8
0
100
AcDbBlockBegin
  2
Urheberrecht_DE-EN
 70
     0
 10
6.24323649630031
 20
299.801996016306
 30
0.0
  3
Urheberrecht_DE-EN
  1

  0
MTEXT
  5
6E
330
47
100
AcDbEntity
  8
1
 62
     1
100
AcDbMText
 10
6.24323649630031
 20
299.801996016306
 30
0.0
 40
2.0
 41
0.0
 71
     7
 72
     1
  1
We own the copyright of this document. It \Pdetermined and may neither be copied or \Pmade accessible to outsiders without our\Ppermission.
  7
CONVERTER_11
 11
0.0
 21
1.0
 31
0.0
 73
     1
 44
0.90036014405762
  0
MTEXT
  5
6F
330
47
100
AcDbEntity
  8
1
 62
     1
100
AcDbMText
 10
6.24323649630031
 20
243.5126090989998
 30
0.0
 40
2.0
 41
0.0
 71
     7
 72
     1
  1
F\U+00fcr diese Unterlage behalten wir das Ur-\Pheberrecht. Sie darf nur f\U+00fcr den von uns \Pbestimmten Zweck benutzt und ohne unsere \PZustimmung weder vervielf\U+00e4ltigt noch\PDritten zug\U+00e4nglich gemacht werden.
  7
CONVERTER_11
 11
0.0
 21
1.0
 31
0.0
 73
     1
 44
0.90036014405762
  0
ENDBLK
  5
49
330
47
100
AcDbEntity
  8
0
100
AcDbBlockEnd
  0
BLOCK
  5
104
330
FD
100
AcDbEntity
  8
0
100
AcDbBlockBegin
  2
*D2
 70
     1
 10
0.0
 20
0.0
 30
0.0
  3
*D2
  1

  0
LINE
  5
FE
330
FD
100
AcDbEntity
  8
1
  6
Continuous
 62
     2
100
AcDbLine
 10
237.487859364432
 20
300.8962627141
 30
0.0
 11
237.487859364432
 21
268.8962627141
 31
0.0
  0
LINE
  5
FF
330
FD
100
AcDbEntity
  8
1
  6
Continuous
 62
     2
100
AcDbLine
 10
227.1103306511
 20
300.8962627141
 30
0.0
 11
239.487859364432
 21
300.8962627141
 31
0.0
  0
LINE
  5
100
330
FD
100
AcDbEntity
  8
1
  6
Continuous
 62
     2
100
AcDbLine
 10
227.1103306511
 20
268.8962627141
 30
0.0
 11
239.487859364432
 21
268.8962627141
 31
0.0
  0
SOLID
  5
101
330
FD
100
AcDbEntity
  8
1
 62
     2
100
AcDbTrace
 10
237.9486431059879
 20
297.3962627141
 30
0.0
 11
237.0270756228761
 21
297.3962627141
 31
0.0
 12
237.487859364432
 22
300.8962627141
 32
0.0
 13
237.487859364432
 23
300.8962627141
 33
0.0
  0
SOLID
  5
102
330
FD
100
AcDbEntity
  8
1
 62
     2
100
AcDbTrace
 10
237.0270756228761
 20
272.3962627141
 30
0.0
 11
237.9486431059879
 21
272.3962627141
 31
0.0
 12
237.487859364432
 22
268.8962627141
 32
0.0
 13
237.487859364432
 23
268.8962627141
 33
0.0
  0
MTEXT
  5
103
330
FD
100
AcDbEntity
  8
1
 62
     3
100
AcDbMText
 10
235.487859364432
 20
275.247480885482
 30
0.0
 40
3.5
 41
0.0
 71
     7
 72
     1
  1
\C3;%%c\C3;\C3;32\C2;\H2.45;\S^ ;\C3;
  7
CONVERTER_11
 11
0.0
 21
1.0
 31
0.0
 73
     1
 44
0.60024009603842
  0
ENDBLK
  5
105
330
FD
100
AcDbEntity
  8
0
100
AcDbBlockEnd
  0
BLOCK
  5
10F
330
108
100
AcDbEntity
  8
0
100
AcDbBlockBegin
  2
*D3
 70
     1
 10
0.0
 20
0.0
 30
0.0
  3
*D3
  1

  0
LINE
  5
109
330
108
100
AcDbEntity
  8
1
  6
Continuous
 62
     2
100
AcDbLine
 10
245.245266840839
 20
306.8962627141466
 30
0.0
 11
245.245266840839
 21
262.8962627141486
 31
0.0
  0
LINE
  5
10A
330
108
100
AcDbEntity
  8
1
  6
Continuous
 62
     2
100
AcDbLine
 10
227.1103306511
 20
306.8962627141466
 30
0.0
 11
247.245266840839
 21
306.8962627141466
 31
0.0
  0
LINE
  5
10B
330
108
100
AcDbEntity
  8
1
  6
Continuous
 62
     2
100
AcDbLine
 10
227.1103306511
 20
262.8962627141486
 30
0.0
 11
247.245266840839
 21
262.8962627141486
 31
0.0
  0
SOLID
  5
10C
330
108
100
AcDbEntity
  8
1
 62
     2
100
AcDbTrace
 10
245.7060505823949
 20
303.3962627141466
 30
0.0
 11
244.7844830992831
 21
303.3962627141466
 31
0.0
 12
245.245266840839
 22
306.8962627141466
 32
0.0
 13
245.245266840839
 23
306.8962627141466
 33
0.0
  0
SOLID
  5
10D
330
108
100
AcDbEntity
  8
1
 62
     2
100
AcDbTrace
 10
244.7844830992831
 20
266.3962627141486
 30
0.0
 11
245.7060505823949
 21
266.3962627141486
 31
0.0
 12
245.245266840839
 22
262.8962627141486
 32
0.0
 13
245.245266840839
 23
262.8962627141486
 33
0.0
  0
MTEXT
  5
10E
330
108
100
AcDbEntity
  8
1
 62
     3
100
AcDbMText
 10
243.245266840839
 20
275.801581419511
 30
0.0
 40
3.5
 41
0.0
 71
     7
 72
     1
  1
\C3;%%c\C3;\C3;44\C2;\H2.45;\S^ ;\C3;
  7
CONVERTER_11
 11
0.0
 21
1.0
 31
0.0
 73
     1
 44
0.60024009603842
  0
ENDBLK
  5
110
330
108
100
AcDbEntity
  8
0
100
AcDbBlockEnd
  0
BLOCK
  5
11A
330
113
100
AcDbEntity
  8
0
100
AcDbBlockBegin
  2
*D4
 70
     1
 10
0.0
 20
0.0
 30
0.0
  3
*D4
  1

  0
LINE
  5
114
330
113
100
AcDbEntity
  8
1
  6
Continuous
 62
     2
100
AcDbLine
 10
254.295575563314
 20
311.3962627141
 30
0.0
 11
254.295575563314
 21
258.3962627141
 31
0.0
  0
LINE
  5
115
330
113
100
AcDbEntity
  8
1
  6
Continuous
 62
     2
100
AcDbLine
 10
169.9324093383
 20
311.3962627141
 30
0.0
 11
256.295575563314
 21
311.3962627141
 31
0.0
  0
LINE
  5
116
330
113
100
AcDbEntity
  8
1
  6
Continuous
 62
     2
100
AcDbLine
 10
169.9324093383
 20
258.3962627141
 30
0.0
 11
256.295575563314
 21
258.3962627141
 31
0.0
  0
SOLID
  5
117
330
113
100
AcDbEntity
  8
1
 62
     2
100
AcDbTrace
 10
254.7563593048699
 20
307.8962627141
 30
0.0
 11
253.8347918217581
 21
307.8962627141
 31
0.0
 12
254.295575563314
 22
311.3962627141
 32
0.0
 13
254.295575563314
 23
311.3962627141
 33
0.0
  0
SOLID
  5
118
330
113
100
AcDbEntity
  8
1
 62
     2
100
AcDbTrace
 10
253.8347918217581
 20
261.8962627141
 30
0.0
 11
254.7563593048699
 21
261.8962627141
 31
0.0
 12
254.295575563314
 22
258.3962627141
 32
0.0
 13
254.295575563314
 23
258.3962627141
 33
0.0
  0
MTEXT
  5
119
330
113
100
AcDbEntity
  8
1
 62
     3
100
AcDbMText
 10
252.295575563314
 20
275.801581419511
 30
0.0
 40
3.5
 41
0.0
 71
     7
 72
     1
  1
\C3;%%c\C3;\C3;53\C2;\H2.45;\S^ ;\C3;
  7
CONVERTER_11
 11
0.0
 21
1.0
 31
0.0
 73
     1
 44
0.60024009603842
  0
ENDBLK
  5
11B
330
113
100
AcDbEntity
  8
0
100
AcDbBlockEnd
  0
BLOCK
  5
125
330
11E
100
AcDbEntity
  8
0
100
AcDbBlockBegin
  2
*D5
 70
     1
 10
0.0
 20
0.0
 30
0.0
  3
*D5
  1

  0
LINE
  5
11F
330
11E
100
AcDbEntity
  8
1
  6
Continuous
 62
     2
100
AcDbLine
 10
225.1103306511
 20
343.021837670573
 30
0.0
 11
94.1103306511
 21
343.021837670573
 31
0.0
  0
LINE
  5
120
330
11E
100
AcDbEntity
  8
1
  6
Continuous
 62
     2
100
AcDbLine
 10
225.1103306511
 20
307.9718722225
 30
0.0
 11
225.1103306511
 21
345.021837670573
 31
0.0
  0
LINE
  5
121
330
11E
100
AcDbEntity
  8
1
  6
Continuous
 62
     2
100
AcDbLine
 10
94.1103306511
 20
336.8962627141
 30
0.0
 11
94.1103306511
 21
345.021837670573
 31
0.0
  0
SOLID
  5
122
330
11E
100
AcDbEntity
  8
1
 62
     2
100
AcDbTrace
 10
221.6103306511
 20
342.5610539290171
 30
0.0
 11
221.6103306511
 21
343.4826214121289
 31
0.0
 12
225.1103306511
 22
343.021837670573
 32
0.0
 13
225.1103306511
 23
343.021837670573
 33
0.0
  0
SOLID
  5
123
330
11E
100
AcDbEntity
  8
1
 62
     2
100
AcDbTrace
 10
97.6103306511
 20
343.4826214121289
 30
0.0
 11
97.6103306511
 21
342.5610539290171
 31
0.0
 12
94.1103306511
 22
343.021837670573
 32
0.0
 13
94.1103306511
 23
343.021837670573
 33
0.0
  0
MTEXT
  5
124
330
11E
100
AcDbEntity
  8
1
 62
     3
100
AcDbMText
 10
157.763184956382
 20
345.021837670573
 30
0.0
 40
3.5
 41
0.0
 71
     7
 72
     1
  1
\C3;\C3;\C3;131\C2;\H2.45;\S^ ;\C3;
  7
CONVERTER_11
 11
0.9999999999970619
 21
2.424068405545306E-6
 31
0.0
 73
     1
 44
0.60024009603842
  0
ENDBLK
  5
126
330
11E
100
AcDbEntity
  8
0
100
AcDbBlockEnd
  0
BLOCK
  5
130
330
129
100
AcDbEntity
  8
0
100
AcDbBlockBegin
  2
*D6
 70
     1
 10
0.0
 20
0.0
 30
0.0
  3
*D6
  1

  0
LINE
  5
12A
330
129
100
AcDbEntity
  8
1
  6
Continuous
 62
     2
100
AcDbLine
 10
225.1103306511
 20
350.77924514698
 30
0.0
 11
65.1103306511
 21
350.77924514698
 31
0.0
  0
LINE
  5
12B
330
129
100
AcDbEntity
  8
1
  6
Continuous
 62
     2
100
AcDbLine
 10
225.1103306511
 20
307.9718722225
 30
0.0
 11
225.1103306511
 21
352.77924514698
 31
0.0
  0
LINE
  5
12C
330
129
100
AcDbEntity
  8
1
  6
Continuous
 62
     2
100
AcDbLine
 10
65.1103306511
 20
336.8962627141
 30
0.0
 11
65.1103306511
 21
352.77924514698
 31
0.0
  0
SOLID
  5
12D
330
129
100
AcDbEntity
  8
1
 62
     2
100
AcDbTrace
 10
221.6103306511
 20
350.3184614054241
 30
0.0
 11
221.6103306511
 21
351.2400288885358
 31
0.0
 12
225.1103306511
 22
350.77924514698
 32
0.0
 13
225.1103306511
 23
350.77924514698
 33
0.0
  0
SOLID
  5
12E
330
129
100
AcDbEntity
  8
1
 62
     2
100
AcDbTrace
 10
68.6103306511
 20
351.2400288885358
 30
0.0
 11
68.6103306511
 21
350.3184614054241
 31
0.0
 12
65.1103306511
 22
350.77924514698
 32
0.0
 13
65.1103306511
 23
350.77924514698
 33
0.0
  0
MTEXT
  5
12F
330
129
100
AcDbEntity
  8
1
 62
     3
100
AcDbMText
 10
140.904869113519
 20
352.77924514698
 30
0.0
 40
3.5
 41
0.0
 71
     7
 72
     1
  1
\C3;\C3;\C3;160\C2;\H2.45;\S^ ;\C3;
  7
CONVERTER_11
 11
0.9999999999970619
 21
2.424068405545306E-6
 31
0.0
 73
     1
 44
0.60024009603842
  0
ENDBLK
  5
131
330
129
100
AcDbEntity
  8
0
100
AcDbBlockEnd
  0
BLOCK
  5
13B
330
134
100
AcDbEntity
  8
0
100
AcDbBlockBegin
  2
*D7
 70
     1
 10
0.0
 20
0.0
 30
0.0
  3
*D7
  1

  0
LINE
  5
135
330
134
100
AcDbEntity
  8
1
  6
Continuous
 62
     2
100
AcDbLine
 10
225.1103306511
 20
357.982552089358
 30
0.0
 11
15.1103306511
 21
357.982552089358
 31
0.0
  0
LINE
  5
136
330
134
100
AcDbEntity
  8
1
  6
Continuous
 62
     2
100
AcDbLine
 10
225.1103306511
 20
307.9718722225
 30
0.0
 11
225.1103306511
 21
359.982552089358
 31
0.0
  0
LINE
  5
137
330
134
100
AcDbEntity
  8
1
  6
Continuous
 62
     2
100
AcDbLine
 10
15.1103306511
 20
320.4964542767
 30
0.0
 11
15.1103306511
 21
359.982552089358
 31
0.0
  0
SOLID
  5
138
330
134
100
AcDbEntity
  8
1
 62
     2
100
AcDbTrace
 10
221.6103306511
 20
357.5217683478022
 30
0.0
 11
221.6103306511
 21
358.4433358309139
 31
0.0
 12
225.1103306511
 22
357.982552089358
 32
0.0
 13
225.1103306511
 23
357.982552089358
 33
0.0
  0
SOLID
  5
139
330
134
100
AcDbEntity
  8
1
 62
     2
100
AcDbTrace
 10
18.6103306511
 20
358.4433358309139
 30
0.0
 11
18.6103306511
 21
357.5217683478022
 31
0.0
 12
15.1103306511
 22
357.982552089358
 32
0.0
 13
15.1103306511
 23
357.982552089358
 33
0.0
  0
MTEXT
  5
13A
330
134
100
AcDbEntity
  8
1
 62
     3
100
AcDbMText
 10
122.80425166857
 20
359.982552089358
 30
0.0
 40
3.5
 41
0.0
 71
     7
 72
     1
  1
\C3;\C3;\C3;210\C2;\H2.45;\S^ ;\C3;
  7
CONVERTER_11
 11
0.9999999999970619
 21
2.424068405545306E-6
 31
0.0
 73
     1
 44
0.60024009603842
  0
ENDBLK
  5
13C
330
134
100
AcDbEntity
  8
0
100
AcDbBlockEnd
  0
BLOCK
  5
143
330
13F
100
AcDbEntity
  8
0
100
AcDbBlockBegin
  2
*D8
 70
     1
 10
0.0
 20
0.0
 30
0.0
  3
*D8
  1

  0
LINE
  5
140
330
13F
100
AcDbEntity
  8
1
  6
Continuous
 62
     2
100
AcDbLine
 10
108.0608192717168
 20
324.9687540386466
 30
0.0
 11
99.78856896609257
 21
315.1708287456098
 31
0.0
  0
SOLID
  5
141
330
13F
100
AcDbEntity
  8
1
 62
     2
100
AcDbTrace
 10
101.6943742593038
 20
318.1423986742587
 30
0.0
 11
102.398534410072
 21
317.5478861781754
 31
0.0
 12
99.78856896609257
 22
315.1708287456098
 32
0.0
 13
99.78856896609257
 23
315.1708287456098
 33
0.0
  0
MTEXT
  5
142
330
13F
100
AcDbEntity
  8
1
 62
     3
100
AcDbMText
 10
100.6621380673076
 20
319.3057586796937
 30
0.0
 40
3.5
 41
0.0
 71
     7
 72
     1
  1
\C3; R\C3;\C3;16\C2;\H2.45;\S^ ;\C3;
  7
CONVERTER_11
 11
0.645110105312963
 21
0.7640896230306351
 31
0.0
 73
     1
 44
0.60024009603842
  0
ENDBLK
  5
144
330
13F
100
AcDbEntity
  8
0
100
AcDbBlockEnd
  0
BLOCK
  5
14D
330
146
100
AcDbEntity
  8
0
100
AcDbBlockBegin
  2
*D9
 70
     1
 10
0.0
 20
0.0
 30
0.0
  3
*D9
  1

  0
LINE
  5
147
330
146
100
AcDbEntity
  8
1
  6
Continuous
 62
     2
100
AcDbLine
 10
203.2260281664163
 20
311.3962627140999
 30
0.0
 11
205.2260281664163
 21
311.3962627140999
 31
0.0
  0
LINE
  5
148
330
146
100
AcDbEntity
  8
1
  6
Continuous
 62
     2
100
AcDbLine
 10
169.9324093383001
 20
311.3962627140999
 30
0.0
 11
203.2260281664163
 21
311.3962627140999
 31
0.0
  0
ARC
  5
149
330
146
100
AcDbEntity
  8
1
  6
Continuous
 62
     2
100
AcDbCircle
 10
167.9324093383001
 20
311.3962627140999
 30
0.0
 40
35.2936188281162
100
AcDbArc
 50
346.9771323420313
 51
17.87424781146238
  0
SOLID
  5
14A
330
146
100
AcDbEntity
  8
1
 62
     2
100
AcDbTrace
 10
203.1270289919485
 20
305.0969695345007
 30
0.0
 11
202.2130152643559
 21
305.2147215268457
 31
0.0
 12
203.1172297182202
 22
308.6271572958976
 32
0.0
 13
203.1172297182202
 23
308.6271572958976
 33
0.0
  0
SOLID
  5
14B
330
146
100
AcDbEntity
  8
1
 62
     2
100
AcDbTrace
 10
202.5923377286147
 20
314.8691229309127
 30
0.0
 11
203.5127725717613
 21
314.9147992426136
 31
0.0
 12
203.2260281664163
 22
311.3962627140999
 32
0.0
 13
203.2260281664163
 23
311.3962627140999
 33
0.0
  0
MTEXT
  5
14C
330
146
100
AcDbEntity
  8
1
 62
     3
100
AcDbMText
 10
203.5850517969851
 20
322.8940588511859
 30
0.0
 40
3.5
 41
0.0
 71
     7
 72
     1
  1
\C3;\C3;\C3;4.5%%d\C2;\H2.45;\S^ ;\C3;
  7
CONVERTER_11
 11
0.2157486839844266
 21
-0.9764489261395028
 31
0.0
 73
     1
 44
0.60024009603842
  0
ENDBLK
  5
14E
330
146
100
AcDbEntity
  8
0
100
AcDbBlockEnd
  0
ENDSEC
  0
SECTION
  2
ENTITIES
  0
INSERT
  5
6C
330
1F
100
AcDbEntity
  8
0
100
AcDbBlockReference
  2
Urheberrecht_DE-EN
 10
6.24323649630031
 20
299.801996016306
 30
0.0
  0
LINE
  5
70
330
1F
100
AcDbEntity
  8
BEZUGSACHSEN
  6
Continuous
 62
     7
100
AcDbLine
 10
15.1103306511
 20
251.2960711512
 30
0.0
 11
15.1103306511
 21
272.8862627141
 31
0.0
  0
LINE
  5
71
330
1F
100
AcDbEntity
  8
BEZUGSACHSEN
  6
Continuous
 62
     7
100
AcDbLine
 10
15.1103306511
 20
296.9062627141
 30
0.0
 11
15.1103306511
 21
318.4964542767
 31
0.0
  0
LINE
  5
72
330
1F
100
AcDbEntity
  8
BEZUGSACHSEN
  6
Continuous
 62
     9
100
AcDbLine
 10
17.0102561664
 20
320.4939489824
 30
0.0
 11
17.0102561664
 21
300.5727951004
 31
0.0
  0
LINE
  5
73
330
1F
100
AcDbEntity
  8
BEZUGSACHSEN
  6
Continuous
 62
     9
100
AcDbLine
 10
17.0102561664
 20
269.2197303279
 30
0.0
 11
17.0102561664
 21
249.2985764458
 31
0.0
  0
LINE
  5
74
330
1F
100
AcDbEntity
  8
BEZUGSACHSEN
  6
Continuous
 62
     7
100
AcDbLine
 10
17.1103306511
 20
272.4926227658
 30
0.0
 11
17.1103306511
 21
274.8862627141
 31
0.0
  0
LINE
  5
75
330
1F
100
AcDbEntity
  8
BEZUGSACHSEN
  6
Continuous
 62
     7
100
AcDbLine
 10
17.1103306511
 20
294.9062627141
 30
0.0
 11
17.1103306511
 21
297.2999026625
 31
0.0
  0
LINE
  5
76
330
1F
100
AcDbEntity
  8
BEZUGSACHSEN
  6
Continuous
 62
     9
100
AcDbLine
 10
23.1103306511
 20
268.5376151267
 30
0.0
 11
23.1103306511
 21
274.8862627141
 31
0.0
  0
LINE
  5
77
330
1F
100
AcDbEntity
  8
BEZUGSACHSEN
  6
Continuous
 62
     9
100
AcDbLine
 10
23.1103306511
 20
294.9062627141
 30
0.0
 11
23.1103306511
 21
301.2549103016
 31
0.0
  0
LINE
  5
78
330
1F
100
AcDbEntity
  8
BEZUGSACHSEN
  6
Continuous
 62
     7
100
AcDbLine
 10
25.1103306511
 20
297.7659182399
 30
0.0
 11
25.1103306511
 21
272.0266071883
 31
0.0
  0
LINE
  5
79
330
1F
100
AcDbEntity
  8
BEZUGSACHSEN
  6
Continuous
 62
     7
100
AcDbLine
 10
16.3772835781
 20
269.8862627141
 30
0.0
 11
16.2561733267
 21
269.6539267187
 31
0.0
  0
LINE
  5
7A
330
1F
100
AcDbEntity
  8
BEZUGSACHSEN
  6
Continuous
 62
     7
100
AcDbLine
 10
16.2561733267
 20
300.1385987096
 30
0.0
 11
16.3772835781
 21
299.9062627141
 31
0.0
  0
LWPOLYLINE
  5
7B
330
1F
100
AcDbEntity
  8
BEZUGSACHSEN
  6
DOT_CENTER
 62
     7
100
AcDbPolyline
 90
        2
 70
     0
 43
0.25
 10
50.1103306511
 20
284.8962627141
 10
50.1103306511
 20
275.8962627141
  0
LWPOLYLINE
  5
7C
330
1F
100
AcDbEntity
  8
BEZUGSACHSEN
  6
DOT_CENTER
 62
     7
100
AcDbPolyline
 90
        2
 70
     0
 43
0.25
 10
50.1103306511
 20
284.8962627141
 10
50.1103306511
 20
293.8962627141
  0
LINE
  5
7D
330
1F
100
AcDbEntity
  8
BEZUGSACHSEN
  6
Continuous
 62
     7
100
AcDbLine
 10
15.1103306511
 20
272.8862627141
 30
0.0
 11
17.1103306511
 21
274.8862627141
 31
0.0
  0
LINE
  5
7E
330
1F
100
AcDbEntity
  8
BEZUGSACHSEN
  6
Continuous
 62
     7
100
AcDbLine
 10
17.1103306511
 20
294.9062627141
 30
0.0
 11
15.1103306511
 21
296.9062627141
 31
0.0
  0
LINE
  5
7F
330
1F
100
AcDbEntity
  8
BEZUGSACHSEN
  6
Continuous
 62
     7
100
AcDbLine
 10
62.6103306511
 20
322.7785127141
 30
0.0
 11
62.6103306511
 21
247.0140127141
 31
0.0
  0
LINE
  5
80
330
1F
100
AcDbEntity
  8
BEZUGSACHSEN
  6
Continuous
 62
     9
100
AcDbLine
 10
63.2295742651
 20
247.1799385404
 30
0.0
 11
63.2295742651
 21
322.6125868878
 31
0.0
  0
LINE
  5
81
330
1F
100
AcDbEntity
  8
BEZUGSACHSEN
  6
Continuous
 62
     9
100
AcDbLine
 10
63.4883933102
 20
247.2140127141
 30
0.0
 11
63.4883933102
 21
322.5785127141
 31
0.0
  0
LINE
  5
82
330
1F
100
AcDbEntity
  8
BEZUGSACHSEN
  6
Continuous
 62
     9
100
AcDbLine
 10
64.4097593624
 20
247.2140127141
 30
0.0
 11
64.4097593624
 21
322.5785127141
 31
0.0
  0
LINE
  5
83
330
1F
100
AcDbEntity
  8
BEZUGSACHSEN
  6
Continuous
 62
     7
100
AcDbLine
 10
65.1103306511
 20
334.8962627141
 30
0.0
 11
65.1103306511
 21
234.8962627141
 31
0.0
  0
LWPOLYLINE
  5
84
330
1F
100
AcDbEntity
  8
BEZUGSACHSEN
  6
DOT_CENTER
 62
     7
100
AcDbPolyline
 90
        2
 70
     0
 43
0.25
 10
72.1103306511
 20
327.0456345695
 10
72.1103306511
 20
337.8962627141
  0
LINE
  5
85
330
1F
100
AcDbEntity
  8
BEZUGSACHSEN
  6
Continuous
 62
     7
100
AcDbLine
 10
86.9853306511
 20
332.5188579783
 30
0.0
 11
88.3579259153
 21
334.8962627141
 31
0.0
  0
LINE
  5
86
330
1F
100
AcDbEntity
  8
BEZUGSACHSEN
  6
Continuous
 62
     7
100
AcDbLine
 10
81.8627353869
 20
234.8962627141
 30
0.0
 11
65.1103306511
 21
234.8962627141
 31
0.0
  0
LINE
  5
87
330
1F
100
AcDbEntity
  8
BEZUGSACHSEN
  6
Continuous
 62
     7
100
AcDbLine
 10
88.3579259153
 20
234.8962627141
 30
0.0
 11
94.1103306511
 21
234.8962627141
 31
0.0
  0
LINE
  5
88
330
1F
100
AcDbEntity
  8
BEZUGSACHSEN
  6
Continuous
 62
     7
100
AcDbLine
 10
84.2353306511
 20
238.8962627141
 30
0.0
 11
85.9853306511
 21
238.8962627141
 31
0.0
  0
LINE
  5
89
330
1F
100
AcDbEntity
  8
BEZUGSACHSEN
  6
Continuous
 62
     7
100
AcDbLine
 10
86.9853306511
 20
237.2736674499
 30
0.0
 11
88.3579259153
 21
234.8962627141
 31
0.0
  0
LINE
  5
8A
330
1F
100
AcDbEntity
  8
FASEN
  6
Continuous
 62
     9
100
AcDbLine
 10
78.082204573
 20
252.9962627141
 30
0.0
 11
78.082204573
 21
253.3962627141
 31
0.0
  0
LINE
  5
8B
330
1F
100
AcDbEntity
  8
FASEN
  6
Continuous
 62
     9
100
AcDbLine
 10
80.1103306511
 20
275.2962627141
 30
0.0
 11
80.1103306511
 21
274.8962627141
 31
0.0
  0
LINE
  5
8C
330
1F
100
AcDbEntity
  8
FASEN
  6
Continuous
 62
     9
100
AcDbLine
 10
80.1103306511
 20
294.4962627141
 30
0.0
 11
80.1103306511
 21
294.8962627141
 31
0.0
  0
LINE
  5
8D
330
1F
100
AcDbEntity
  8
0
  6
Continuous
 62
     7
100
AcDbLine
 10
81.8627353869
 20
334.8962627141
 30
0.0
 11
81.8627353869
 21
294.8962627141
 31
0.0
  0
LINE
  5
8E
330
1F
100
AcDbEntity
  8
0
  6
Continuous
 62
     7
100
AcDbLine
 10
81.8627353869
 20
274.8962627141
 30
0.0
 11
81.8627353869
 21
253.3962627141
 31
0.0
  0
LINE
  5
8F
330
1F
100
AcDbEntity
  8
0
  6
Continuous
 62
     7
100
AcDbLine
 10
81.8627353869
 20
246.0665060834
 30
0.0
 11
81.8627353869
 21
234.8962627141
 31
0.0
  0
LINE
  5
90
330
1F
100
AcDbEntity
  8
FASEN
  6
Continuous
 62
     7
100
AcDbLine
 10
70.5118166155
 20
246.0665060834
 30
0.0
 11
81.8627353869
 21
246.0665060834
 31
0.0
  0
LINE
  5
91
330
1F
100
AcDbEntity
  8
0
  6
Continuous
 62
     7
100
AcDbLine
 10
88.3579259153
 20
246.0665060834
 30
0.0
 11
94.1103306511
 21
246.0665060834
 31
0.0
  0
LINE
  5
92
330
1F
100
AcDbEntity
  8
BEZUGSACHSEN
  6
Continuous
 62
     7
100
AcDbLine
 10
62.6103306511
 20
247.0140127141
 30
0.0
 11
17.0102561664
 21
249.2985764458
 31
0.0
  0
LINE
  5
93
330
1F
100
AcDbEntity
  8
0
  6
Continuous
 62
     7
100
AcDbLine
 10
83.2353306511
 20
332.5188245518
 30
0.0
 11
83.2353306511
 21
294.8962627141
 31
0.0
  0
LINE
  5
94
330
1F
100
AcDbEntity
  8
0
  6
Continuous
 62
     7
100
AcDbLine
 10
83.2353306511
 20
274.8962627141
 30
0.0
 11
83.2353306511
 21
253.3962627141
 31
0.0
  0
LINE
  5
95
330
1F
100
AcDbEntity
  8
0
  6
Continuous
 62
     7
100
AcDbLine
 10
83.2353306511
 20
237.2737049839
 30
0.0
 11
83.2353306511
 21
250.014318961
 31
0.0
  0
LINE
  5
96
330
1F
100
AcDbEntity
  8
0
  6
Continuous
 62
     9
100
AcDbLine
 10
84.2353306511
 20
238.8962627141
 30
0.0
 11
84.2353306511
 21
251.3738821304
 31
0.0
  0
LINE
  5
97
330
1F
100
AcDbEntity
  8
0
  6
Continuous
 62
     9
100
AcDbLine
 10
84.2353306511
 20
253.3962627141
 30
0.0
 11
84.2353306511
 21
274.8962627141
 31
0.0
  0
LINE
  5
98
330
1F
100
AcDbEntity
  8
0
  6
Continuous
 62
     9
100
AcDbLine
 10
84.2353306511
 20
294.8962627141
 30
0.0
 11
84.2353306511
 21
330.8962627141
 31
0.0
  0
LINE
  5
99
330
1F
100
AcDbEntity
  8
0
  6
Continuous
 62
     9
100
AcDbLine
 10
85.9853306511
 20
238.8962627141
 30
0.0
 11
85.9853306511
 21
251.3738821304
 31
0.0
  0
LINE
  5
9A
330
1F
100
AcDbEntity
  8
0
  6
Continuous
 62
     9
100
AcDbLine
 10
85.9853306511
 20
253.3962627141
 30
0.0
 11
85.9853306511
 21
274.8962627141
 31
0.0
  0
LINE
  5
9B
330
1F
100
AcDbEntity
  8
0
  6
Continuous
 62
     9
100
AcDbLine
 10
85.9853306511
 20
294.8962627141
 30
0.0
 11
85.9853306511
 21
330.8962627141
 31
0.0
  0
LINE
  5
9C
330
1F
100
AcDbEntity
  8
0
  6
Continuous
 62
     7
100
AcDbLine
 10
86.9853306511
 20
237.2737049839
 30
0.0
 11
86.9853306511
 21
250.014318961
 31
0.0
  0
LINE
  5
9D
330
1F
100
AcDbEntity
  8
0
  6
Continuous
 62
     7
100
AcDbLine
 10
86.9853306511
 20
253.3962627141
 30
0.0
 11
86.9853306511
 21
274.8962627141
 31
0.0
  0
LINE
  5
9E
330
1F
100
AcDbEntity
  8
0
  6
Continuous
 62
     7
100
AcDbLine
 10
86.9853306511
 20
294.8962627141
 30
0.0
 11
86.9853306511
 21
332.5188245518
 31
0.0
  0
LINE
  5
9F
330
1F
100
AcDbEntity
  8
0
  6
Continuous
 62
     7
100
AcDbLine
 10
88.3579259153
 20
334.8962627141
 30
0.0
 11
88.3579259153
 21
294.8962627141
 31
0.0
  0
LINE
  5
A0
330
1F
100
AcDbEntity
  8
0
  6
Continuous
 62
     7
100
AcDbLine
 10
88.3579259153
 20
274.8962627141
 30
0.0
 11
88.3579259153
 21
253.3962627141
 31
0.0
  0
LINE
  5
A1
330
1F
100
AcDbEntity
  8
0
  6
Continuous
 62
     7
100
AcDbLine
 10
88.3579259153
 20
246.0665060834
 30
0.0
 11
88.3579259153
 21
234.8962627141
 31
0.0
  0
LINE
  5
A2
330
1F
100
AcDbEntity
  8
BEZUGSACHSEN
  6
Continuous
 62
     9
100
AcDbLine
 10
15.1103306511
 20
271.4500787451
 30
0.0
 11
17.1103306511
 21
272.4926227658
 31
0.0
  0
LINE
  5
A3
330
1F
100
AcDbEntity
  8
RUNDUNGEN
  6
Continuous
 62
     7
100
AcDbLine
 10
224.1887897468
 20
262.8237358721
 30
0.0
 11
167.9324093383
 21
258.3962627141
 31
0.0
  0
LINE
  5
A4
330
1F
100
AcDbEntity
  8
0
  6
Continuous
 62
     7
100
AcDbLine
 10
167.9324093383
 20
258.3962627141
 30
0.0
 11
224.1887897468
 21
262.8237358721
 31
0.0
  0
LINE
  5
A5
330
1F
100
AcDbEntity
  8
BEZUGSACHSEN
  6
Continuous
 62
     7
100
AcDbLine
 10
64.4097593624
 20
247.2140127141
 30
0.0
 11
63.4883933102
 21
247.2140127141
 31
0.0
  0
LINE
  5
A6
330
1F
100
AcDbEntity
  8
0
  6
Continuous
 62
     7
100
AcDbLine
 10
84.2353306511
 20
251.3738821304
 30
0.0
 11
85.9853306511
 21
251.3738821304
 31
0.0
  0
LINE
  5
A7
330
1F
100
AcDbEntity
  8
FASEN
  6
Continuous
 62
     7
100
AcDbLine
 10
78.082204573
 20
252.9962627141
 30
0.0
 11
94.1103306511
 21
252.9962627141
 31
0.0
  0
LINE
  5
A8
330
1F
100
AcDbEntity
  8
0
  6
Continuous
 62
     7
100
AcDbLine
 10
78.082204573
 20
253.3962627141
 30
0.0
 11
94.1103306511
 21
253.3962627141
 31
0.0
  0
LINE
  5
A9
330
1F
100
AcDbEntity
  8
BEZUGSACHSEN
  6
Continuous
 62
     9
100
AcDbLine
 10
17.1103306511
 20
297.2999026625
 30
0.0
 11
15.1103306511
 21
298.3424466832
 31
0.0
  0
LINE
  5
AA
330
1F
100
AcDbEntity
  8
0
  6
Continuous
 62
     7
100
AcDbLine
 10
94.1103306511
 20
334.896225793
 30
0.0
 11
94.1103306511
 21
294.8962627141
 31
0.0
  0
LINE
  5
AB
330
1F
100
AcDbEntity
  8
0
  6
Continuous
 62
     7
100
AcDbLine
 10
94.1103306511
 20
274.8962627141
 30
0.0
 11
94.1103306511
 21
253.3962627141
 31
0.0
  0
LINE
  5
AC
330
1F
100
AcDbEntity
  8
0
  6
Continuous
 62
     7
100
AcDbLine
 10
94.1103306511
 20
246.0665060834
 30
0.0
 11
94.1103306511
 21
234.8962645819
 31
0.0
  0
LINE
  5
AD
330
1F
100
AcDbEntity
  8
FASEN
  6
Continuous
 62
     7
100
AcDbLine
 10
94.1103306511
 20
246.0665060834
 30
0.0
 11
94.1103306511
 21
253.3962627141
 31
0.0
  0
LINE
  5
AE
330
1F
100
AcDbEntity
  8
FASEN
  6
Continuous
 62
     7
100
AcDbLine
 10
94.1103306511
 20
274.8962627141
 30
0.0
 11
94.1103306511
 21
294.8962627141
 31
0.0
  0
LINE
  5
AF
330
1F
100
AcDbEntity
  8
RUNDUNGEN
  6
Continuous
 62
     7
100
AcDbLine
 10
167.9324093383
 20
258.3962627141
 30
0.0
 11
110.1103306511
 21
258.3962627141
 31
0.0
  0
LINE
  5
B0
330
1F
100
AcDbEntity
  8
0
  6
Continuous
 62
     7
100
AcDbLine
 10
110.1103306511
 20
258.3962627141
 30
0.0
 11
167.9324093383
 21
258.3962627141
 31
0.0
  0
LINE
  5
B1
330
1F
100
AcDbEntity
  8
BEZUGSACHSEN
  6
Continuous
 62
     7
100
AcDbLine
 10
63.2295742651
 20
247.1799385404
 30
0.0
 11
62.6103306511
 21
247.0140127141
 31
0.0
  0
LWPOLYLINE
  5
B2
330
1F
100
AcDbEntity
  8
DEFAULT_2
  6
DASHED
 62
     8
100
AcDbPolyline
 90
        2
 70
     0
 43
0.35
 10
225.1103306511
 20
268.8962627141
 10
167.1103306511
 20
268.8962627141
  0
LINE
  5
B3
330
1F
100
AcDbEntity
  8
BEZUGSACHSEN
  6
Continuous
 62
     9
100
AcDbLine
 10
24.664176598
 20
269.8862627141
 30
0.0
 11
16.3772835781
 21
269.8862627141
 31
0.0
  0
LINE
  5
B4
330
1F
100
AcDbEntity
  8
RUNDUNGEN
  6
Continuous
 62
     9
100
AcDbLine
 10
110.1103306511
 20
311.3962627141
 30
0.0
 11
110.1103306511
 21
258.3962627141
 31
0.0
  0
LINE
  5
B5
330
1F
100
AcDbEntity
  8
BEZUGSACHSEN
  6
Continuous
 62
     7
100
AcDbLine
 10
81.8627353869
 20
234.8962627141
 30
0.0
 11
83.2353306511
 21
237.2736674499
 31
0.0
  0
LINE
  5
B6
330
1F
100
AcDbEntity
  8
BEZUGSACHSEN
  6
Continuous
 62
     7
100
AcDbLine
 10
23.1103306511
 20
274.8862627141
 30
0.0
 11
17.1103306511
 21
274.8862627141
 31
0.0
  0
LINE
  5
B7
330
1F
100
AcDbEntity
  8
0
  6
Continuous
 62
     7
100
AcDbLine
 10
80.1103306511
 20
274.8962627141
 30
0.0
 11
94.1103306511
 21
274.8962627141
 31
0.0
  0
LINE
  5
B8
330
1F
100
AcDbEntity
  8
FASEN
  6
Continuous
 62
     7
100
AcDbLine
 10
94.1103306511
 20
275.2962627141
 30
0.0
 11
80.1103306511
 21
275.2962627141
 31
0.0
  0
LINE
  5
B9
330
1F
100
AcDbEntity
  8
BEZUGSACHSEN
  6
Continuous
 62
     7
100
AcDbLine
 10
81.8627353869
 20
334.8962627141
 30
0.0
 11
83.2353306511
 21
332.5188579783
 31
0.0
  0
LWPOLYLINE
  5
BA
330
1F
100
AcDbEntity
  8
BEZUGSACHSEN
  6
DOT_CENTER
 62
     7
100
AcDbPolyline
 90
        2
 70
     0
 43
0.25
 10
228.1103306511
 20
284.8962627141
 10
12.1103306511
 20
284.8962627141
  0
LINE
  5
BB
330
1F
100
AcDbEntity
  8
FASEN
  6
Continuous
 62
     7
100
AcDbLine
 10
80.1103306511
 20
294.4962627141
 30
0.0
 11
94.1103306511
 21
294.4962627141
 31
0.0
  0
LINE
  5
BC
330
1F
100
AcDbEntity
  8
0
  6
Continuous
 62
     7
100
AcDbLine
 10
80.1103306511
 20
294.8962627141
 30
0.0
 11
94.1103306511
 21
294.8962627141
 31
0.0
  0
LINE
  5
BD
330
1F
100
AcDbEntity
  8
BEZUGSACHSEN
  6
Continuous
 62
     7
100
AcDbLine
 10
23.1103306511
 20
294.9062627141
 30
0.0
 11
17.1103306511
 21
294.9062627141
 31
0.0
  0
LINE
  5
BE
330
1F
100
AcDbEntity
  8
BEZUGSACHSEN
  6
Continuous
 62
     9
100
AcDbLine
 10
16.3772835781
 20
299.9062627141
 30
0.0
 11
24.664176598
 21
299.9062627141
 31
0.0
  0
LWPOLYLINE
  5
BF
330
1F
100
AcDbEntity
  8
DEFAULT_2
  6
DASHED
 62
     8
100
AcDbPolyline
 90
        2
 70
     0
 43
0.35
 10
225.1103306511
 20
300.8962627141
 10
167.1103306511
 20
300.8962627141
  0
LINE
  5
C0
330
1F
100
AcDbEntity
  8
BEZUGSACHSEN
  6
Continuous
 62
     7
100
AcDbLine
 10
63.2295742651
 20
322.6125868878
 30
0.0
 11
62.6103306511
 21
322.7785127141
 31
0.0
  0
LINE
  5
C1
330
1F
100
AcDbEntity
  8
RUNDUNGEN
  6
Continuous
 62
     7
100
AcDbLine
 10
167.9324093383
 20
311.3962627141
 30
0.0
 11
110.1103306511
 21
311.3962627141
 31
0.0
  0
LINE
  5
C2
330
1F
100
AcDbEntity
  8
0
  6
Continuous
 62
     7
100
AcDbLine
 10
110.1103306511
 20
311.3962627141
 30
0.0
 11
167.9324093383
 21
311.3962627141
 31
0.0
  0
LINE
  5
C3
330
1F
100
AcDbEntity
  8
RUNDUNGEN
  6
Continuous
 62
     7
100
AcDbLine
 10
224.1887897468
 20
306.9687895562
 30
0.0
 11
167.9324093383
 21
311.3962627141
 31
0.0
  0
LINE
  5
C4
330
1F
100
AcDbEntity
  8
0
  6
Continuous
 62
     7
100
AcDbLine
 10
167.9324093383
 20
311.3962627141
 30
0.0
 11
224.1887897468
 21
306.9687895562
 31
0.0
  0
LINE
  5
C5
330
1F
100
AcDbEntity
  8
BEZUGSACHSEN
  6
Continuous
 62
     7
100
AcDbLine
 10
64.4097593624
 20
322.5785127141
 30
0.0
 11
63.4883933102
 21
322.5785127141
 31
0.0
  0
LWPOLYLINE
  5
C6
330
1F
100
AcDbEntity
  8
DEFAULT_2
  6
DASHED
 62
     8
100
AcDbPolyline
 90
        2
 70
     0
 43
0.35
 10
167.1103306511
 20
300.8962627141
 10
167.1103306511
 20
268.8962627141
  0
LINE
  5
C7
330
1F
100
AcDbEntity
  8
BEZUGSACHSEN
  6
Continuous
 62
     7
100
AcDbLine
 10
62.6103306511
 20
322.7785127141
 30
0.0
 11
17.0102561664
 21
320.4939489824
 31
0.0
  0
LINE
  5
C8
330
1F
100
AcDbEntity
  8
BEZUGSACHSEN
  6
Continuous
 62
     7
100
AcDbLine
 10
84.2353306511
 20
330.8962627141
 30
0.0
 11
85.9853306511
 21
330.8962627141
 31
0.0
  0
LINE
  5
C9
330
1F
100
AcDbEntity
  8
0
  6
Continuous
 62
     7
100
AcDbLine
 10
167.9324093383
 20
311.3962627141
 30
0.0
 11
167.9324093383
 21
258.3962627141
 31
0.0
  0
LINE
  5
CA
330
1F
100
AcDbEntity
  8
BEZUGSACHSEN
  6
Continuous
 62
     7
100
AcDbLine
 10
81.8627353869
 20
334.8962627141
 30
0.0
 11
77.1103306511
 21
334.8962627141
 31
0.0
  0
LINE
  5
CB
330
1F
100
AcDbEntity
  8
BEZUGSACHSEN
  6
Continuous
 62
     7
100
AcDbLine
 10
67.1103306511
 20
334.8962627141
 30
0.0
 11
65.1103306511
 21
334.8962627141
 31
0.0
  0
LINE
  5
CC
330
1F
100
AcDbEntity
  8
BEZUGSACHSEN
  6
Continuous
 62
     7
100
AcDbLine
 10
88.3579259153
 20
334.8962627141
 30
0.0
 11
94.1103306511
 21
334.8962627141
 31
0.0
  0
LINE
  5
CD
330
1F
100
AcDbEntity
  8
RUNDUNGEN
  6
Continuous
 62
     9
100
AcDbLine
 10
224.1887897468
 20
262.8237358721
 30
0.0
 11
224.1887897468
 21
306.9687895562
 31
0.0
  0
LINE
  5
CE
330
1F
100
AcDbEntity
  8
RUNDUNGEN
  6
Continuous
 62
     7
100
AcDbLine
 10
225.1103306511
 20
263.8206532058
 30
0.0
 11
225.1103306511
 21
305.9718722225
 31
0.0
  0
LWPOLYLINE
  5
CF
330
1F
100
AcDbEntity
  8
1
  6
Continuous
 62
     7
100
AcDbPolyline
 90
        2
 70
     0
 43
0.25
 10
225.1103306511
 20
305.9718722225
 10
225.1103306511
 20
306.8962627141466
  0
LWPOLYLINE
  5
D0
330
1F
100
AcDbEntity
  8
1
  6
Continuous
 62
     7
100
AcDbPolyline
 90
        2
 70
     0
 43
0.25
 10
224.1887897468
 20
306.9687895562
 10
225.1103306510949
 20
306.8962627141466
  0
LWPOLYLINE
  5
D1
330
1F
100
AcDbEntity
  8
1
  6
Continuous
 62
     7
100
AcDbPolyline
 90
        2
 70
     0
 43
0.25
 10
224.1887897468
 20
262.8237358721
 10
225.1103306511
 20
262.8962627141486
  0
LWPOLYLINE
  5
D2
330
1F
100
AcDbEntity
  8
1
  6
Continuous
 62
     7
100
AcDbPolyline
 90
        2
 70
     0
 43
0.25
 10
225.1103306511
 20
263.8206532058
 10
225.1103306511
 20
262.8962627141486
  0
ARC
  5
D3
330
1F
100
AcDbEntity
  8
FASEN
  6
Continuous
 62
     7
100
AcDbCircle
 10
83.010984674
 20
260.4275259841
 30
0.0
 40
19.03859487309964
100
AcDbArc
 50
227.4837701982989
 51
228.9651953373019
  0
ARC
  5
D4
330
1F
100
AcDbEntity
  8
FASEN
  6
Continuous
 62
     7
100
AcDbCircle
 10
78.082204573
 20
245.3962627141
 30
0.0
 40
8.0
100
AcDbArc
 50
90.0
 51
172.8323734889969
  0
ARC
  5
D5
330
1F
100
AcDbEntity
  8
FASEN
  6
Continuous
 62
     7
100
AcDbCircle
 10
78.082204573
 20
245.3962627141
 30
0.0
 40
7.599982194900008
100
AcDbArc
 50
90.0
 51
174.9405171273015
  0
ARC
  5
D6
330
1F
100
AcDbEntity
  8
BEZUGSACHSEN
  6
Continuous
 62
     7
100
AcDbCircle
 10
23.1103306511
 20
276.8862627141
 30
0.0
 40
2.0
100
AcDbArc
 50
270.0
 51
355.2355361864949
  0
ARC
  5
D7
330
1F
100
AcDbEntity
  8
BEZUGSACHSEN
  6
Continuous
 62
     7
100
AcDbCircle
 10
17.1103306511
 20
251.2960711511
 30
0.0
 40
2.0
100
AcDbArc
 50
179.9999999971348
 51
267.1318795137018
  0
ARC
  5
D8
330
1F
100
AcDbEntity
  8
BEZUGSACHSEN
  6
Continuous
 62
     7
100
AcDbCircle
 10
84.2353306511
 20
237.8962627141
 30
0.0
 40
1.0
100
AcDbArc
 50
90.0
 51
180.0
  0
ARC
  5
D9
330
1F
100
AcDbEntity
  8
BEZUGSACHSEN
  6
Continuous
 62
     7
100
AcDbCircle
 10
63.4883933102
 20
246.2140127141
 30
0.0
 40
1.0
100
AcDbArc
 50
90.0
 51
104.9999999996985
  0
ARC
  5
DA
330
1F
100
AcDbEntity
  8
BEZUGSACHSEN
  6
Continuous
 62
     7
100
AcDbCircle
 10
64.4097593624
 20
246.2140127141
 30
0.0
 40
0.9999999999998127
100
AcDbArc
 50
45.49026120128689
 51
90.0
  0
ARC
  5
DB
330
1F
100
AcDbEntity
  8
0
  6
Continuous
 62
     7
100
AcDbCircle
 10
-159.4874492321
 20
354.3307303048
 30
0.0
 40
264.5204223909507
100
AcDbArc
 50
335.8400764706018
 51
336.5770705490999
  0
ARC
  5
DC
330
1F
100
AcDbEntity
  8
BEZUGSACHSEN
  6
Continuous
 62
     7
100
AcDbCircle
 10
72.1255386622
 20
384.949032481
 30
0.0
 40
50.30340021045203
100
AcDbArc
 50
264.2781515102013
 51
269.9826780125999
  0
ARC
  5
DD
330
1F
100
AcDbEntity
  8
BEZUGSACHSEN
  6
Continuous
 62
     7
100
AcDbCircle
 10
72.09512265
 20
384.9490322803
 30
0.0
 40
50.30340000969741
100
AcDbArc
 50
270.017321976058
 51
275.7218485012565
  0
ARC
  5
DE
330
1F
100
AcDbEntity
  8
0
  6
Continuous
 62
     7
100
AcDbCircle
 10
80.1103306511
 20
284.8962627141
 30
0.0
 40
10.0
100
AcDbArc
 50
90.0
 51
270.0
  0
ARC
  5
DF
330
1F
100
AcDbEntity
  8
FASEN
  6
Continuous
 62
     7
100
AcDbCircle
 10
80.1103306511
 20
284.8962627141
 30
0.0
 40
9.599999195900011
100
AcDbArc
 50
90.0
 51
270.0
  0
ARC
  5
E0
330
1F
100
AcDbEntity
  8
BEZUGSACHSEN
  6
Continuous
 62
     7
100
AcDbCircle
 10
23.1103306511
 20
292.9062627141
 30
0.0
 40
1.999999999999983
100
AcDbArc
 50
4.76446378498716
 51
90.0
  0
ARC
  5
E1
330
1F
100
AcDbEntity
  8
BEZUGSACHSEN
  6
Continuous
 62
     7
100
AcDbCircle
 10
17.1103306511
 20
318.4964542772
 30
0.0
 40
1.999999999947541
100
AcDbArc
 50
92.86812048644141
 51
180.0000000143238
  0
ARC
  5
E2
330
1F
100
AcDbEntity
  8
BEZUGSACHSEN
  6
Continuous
 62
     7
100
AcDbCircle
 10
84.2353306511
 20
331.8962627141
 30
0.0
 40
1.0
100
AcDbArc
 50
180.0
 51
270.0
  0
ARC
  5
E3
330
1F
100
AcDbEntity
  8
BEZUGSACHSEN
  6
Continuous
 62
     7
100
AcDbCircle
 10
63.4883933102
 20
323.5785127141
 30
0.0
 40
1.000000000009916
100
AcDbArc
 50
255.0000000003015
 51
270.0
  0
ARC
  5
E4
330
1F
100
AcDbEntity
  8
BEZUGSACHSEN
  6
Continuous
 62
     7
100
AcDbCircle
 10
64.4097593624
 20
323.5785127141
 30
0.0
 40
1.0
100
AcDbArc
 50
270.0
 51
314.5097387987131
  0
ARC
  5
E5
330
1F
100
AcDbEntity
  8
BEZUGSACHSEN
  6
Continuous
 62
     7
100
AcDbCircle
 10
201.4403772493
 20
-1321.1464965758
 30
0.0
 40
1632.172763697999
100
AcDbArc
 50
96.2726189838
 51
96.48809068979999
  0
ARC
  5
E6
330
1F
100
AcDbEntity
  8
RUNDUNGEN
  6
Continuous
 62
     7
100
AcDbCircle
 10
110.1103306511
 20
242.3962627141
 30
0.0
 40
15.99999999999997
100
AcDbArc
 50
90.0
 51
180.0
  0
ARC
  5
E7
330
1F
100
AcDbEntity
  8
RUNDUNGEN
  6
Continuous
 62
     7
100
AcDbCircle
 10
224.1103306511
 20
263.8206532058
 30
0.0
 40
0.9999999999648148
100
AcDbArc
 50
274.4999999985582
 51
0.0
  0
ARC
  5
E8
330
1F
100
AcDbEntity
  8
BEZUGSACHSEN
  6
Continuous
 62
     7
100
AcDbCircle
 10
85.9853306511
 20
237.8962627141
 30
0.0
 40
1.0
100
AcDbArc
 50
0.0
 51
90.0
  0
ARC
  5
E9
330
1F
100
AcDbEntity
  8
BEZUGSACHSEN
  6
Continuous
 62
     7
100
AcDbCircle
 10
201.4403772546
 20
1890.9390220513
 30
0.0
 40
1632.1727637455
100
AcDbArc
 50
263.5119093102
 51
263.7273810162
  0
ARC
  5
EA
330
1F
100
AcDbEntity
  8
0
  6
Continuous
 62
     7
100
AcDbCircle
 10
329.708110534
 20
354.3307303047
 30
0.0
 40
264.5204223905998
100
AcDbArc
 50
203.4229294508999
 51
204.159923529405
  0
ARC
  5
EB
330
1F
100
AcDbEntity
  8
RUNDUNGEN
  6
Continuous
 62
     7
100
AcDbCircle
 10
110.1103306511
 20
327.3962627141
 30
0.0
 40
16.0
100
AcDbArc
 50
180.0
 51
270.0
  0
ARC
  5
EC
330
1F
100
AcDbEntity
  8
RUNDUNGEN
  6
Continuous
 62
     7
100
AcDbCircle
 10
224.1103306511
 20
305.9718722225
 30
0.0
 40
1.0
100
AcDbArc
 50
0.0
 51
85.50000000144182
  0
ARC
  5
ED
330
1F
100
AcDbEntity
  8
BEZUGSACHSEN
  6
Continuous
 62
     7
100
AcDbCircle
 10
85.9853306511
 20
331.8962627141
 30
0.0
 40
1.0
100
AcDbArc
 50
270.0
 51
0.0
  0
CIRCLE
  5
EE
330
1F
100
AcDbEntity
  8
BEZUGSACHSEN
  6
Continuous
 62
     7
100
AcDbCircle
 10
50.1103306511
 20
284.8962627141
 30
0.0
 40
6.0
  0
SPLINE
  5
EF
330
1F
100
AcDbEntity
  8
BEZUGSACHSEN
  6
Continuous
 62
     7
100
AcDbSpline
210
0.0
220
0.0
230
1.0
 70
     8
 71
     3
 72
    19
 73
    15
 74
    13
 42
0.0000000001
 43
0.0000000001
 44
0.00000001
 40
0.0
 40
0.0
 40
0.0
 40
0.0
 40
0.1462385987746966
 40
0.2927479274788226
 40
0.4364790706173171
 40
0.5801659236373315
 40
0.7203799972685578
 40
0.8606059382483273
 40
0.9980411883643703
 40
1.135484020392593
 40
1.405415631032536
 40
1.67581551402894
 40
1.94399742947593
 40
2.211934834783154
 40
2.211934834783154
 40
2.211934834783154
 40
2.211934834783154
 10
23.1103306511
 20
301.2549103016
 30
0.0
 10
23.15904545643876
 20
301.2582183789109
 30
0.0
 10
23.25656525230625
 20
301.2648406577402
 30
0.0
 10
23.40190151261603
 20
301.248481344988
 30
0.0
 10
23.5425584497435
 20
301.2133095789205
 30
0.0
 10
23.67541058319539
 20
301.1605038922966
 30
0.0
 10
23.79986504624637
 20
301.0928321045448
 30
0.0
 10
23.91466760339377
 20
301.0135319031431
 30
0.0
 10
24.02077754117259
 20
300.924447263582
 30
0.0
 10
24.14988000636129
 20
300.7964997280452
 30
0.0
 10
24.29291985626248
 20
300.6206974391541
 30
0.0
 10
24.43782745795817
 20
300.3930119732734
 30
0.0
 10
24.56246420641594
 20
300.1543493537763
 30
0.0
 10
24.63028277757005
 20
299.9889331133041
 30
0.0
 10
24.664176598
 20
299.9062627141
 30
0.0
 11
23.1103306511
 21
301.2549103016
 31
0.0
 11
23.25646451291904
 21
301.2604440346474
 31
0.0
 11
23.4021738737657
 21
301.245154640971
 31
0.0
 11
23.5416039553228
 21
301.2102563048376
 31
0.0
 11
23.67523629225171
 21
301.1574518518273
 31
0.0
 11
23.79855008305136
 21
301.0907158387393
 31
0.0
 11
23.91408119435922
 21
301.0112433476268
 31
0.0
 11
24.01949374413365
 21
300.9230580749078
 31
0.0
 11
24.11728224782783
 21
300.8264768105695
 31
0.0
 11
24.28853064371767
 21
300.6178214456065
 31
0.0
 11
24.43487306425233
 21
300.3904451216928
 31
0.0
 11
24.5587406900591
 21
300.1525830796394
 31
0.0
 11
24.664176598
 21
299.9062627141
 31
0.0
  0
SPLINE
  5
F0
330
1F
100
AcDbEntity
  8
BEZUGSACHSEN
  6
Continuous
 62
     7
100
AcDbSpline
210
0.0
220
0.0
230
1.0
 70
     8
 71
     3
 72
    11
 73
     7
 74
     5
 42
0.0000000001
 43
0.0000000001
 44
0.00000001
 40
0.0
 40
0.0
 40
0.0
 40
0.0
 40
0.552126940619433
 40
1.105196183264977
 40
1.651906304669036
 40
2.198197048716902
 40
2.198197048716902
 40
2.198197048716902
 40
2.198197048716902
 10
25.1103306511
 20
272.0266071883
 30
0.0
 10
25.10374521347094
 20
271.8424719979172
 30
0.0
 10
25.09056309900177
 20
271.4738873579657
 30
0.0
 10
24.99307473520433
 20
270.9304629532908
 30
0.0
 10
24.85343742218085
 20
270.3991888237435
 30
0.0
 10
24.72724739996208
 20
270.0571943436251
 30
0.0
 10
24.664176598
 20
269.8862627141
 30
0.0
 11
25.1103306511
 21
272.0266071883
 31
0.0
 11
25.0775860686732
 21
271.4754520822913
 31
0.0
 11
24.98551941572982
 21
270.9300996104198
 31
0.0
 11
24.8450279308964
 21
270.4017492536158
 31
0.0
 11
24.664176598
 21
269.8862627141
 31
0.0
  0
SPLINE
  5
F1
330
1F
100
AcDbEntity
  8
BEZUGSACHSEN
  6
Continuous
 62
     7
100
AcDbSpline
210
0.0
220
0.0
230
1.0
 70
     8
 71
     3
 72
    19
 73
    15
 74
    13
 42
0.0000000001
 43
0.0000000001
 44
0.00000001
 40
0.0
 40
0.0
 40
0.0
 40
0.0
 40
0.2679411643344174
 40
0.5361267936840337
 40
0.8065304773437229
 40
1.076465993191165
 40
1.213913376105249
 40
1.351353104840998
 40
1.491586367035728
 40
1.631807897530553
 40
1.775491562725201
 40
1.919219204694837
 40
2.065713007355716
 40
2.211936409306552
 40
2.211936409306552
 40
2.211936409306552
 40
2.211936409306552
 10
24.664176598
 20
269.8862627141
 30
0.0
 10
24.63028235420106
 20
269.8035911343964
 30
0.0
 10
24.56246294206478
 20
269.6381725468293
 30
0.0
 10
24.43782443579257
 20
269.3995065731638
 30
0.0
 10
24.29291363649401
 20
269.1718185771489
 30
0.0
 10
24.14987000497805
 20
268.9960140858361
 30
0.0
 10
24.02076361804896
 20
268.8680643667361
 30
0.0
 10
23.91464851896269
 20
268.7789773459376
 30
0.0
 10
23.79983909131546
 20
268.699675705599
 30
0.0
 10
23.67537947909861
 20
268.6320052381337
 30
0.0
 10
23.54252592398146
 20
268.5792025514304
 30
0.0
 10
23.40187512510564
 20
268.5440362874411
 30
0.0
 10
23.25654974199668
 20
268.5276840855622
 30
0.0
 10
23.15904032293581
 20
268.5343068189282
 30
0.0
 10
23.1103306511
 20
268.5376151267
 30
0.0
 11
24.664176598
 21
269.8862627141
 31
0.0
 11
24.55873933828354
 21
269.6399388382609
 31
0.0
 11
24.43486982272421
 21
269.4020735929964
 31
0.0
 11
24.28852433644595
 21
269.1746947224242
 31
0.0
 11
24.11727214532313
 21
268.966037420248
 31
0.0
 11
24.01947970662113
 21
268.869453663836
 31
0.0
 11
23.91406271734157
 21
268.781266718055
 31
0.0
 11
23.79852407361885
 21
268.7017922590603
 31
0.0
 11
23.67520206373797
 21
268.6350557660954
 31
0.0
 11
23.54157137556829
 21
268.5822558151195
 31
0.0
 11
23.40214367437252
 21
268.5473623887269
 31
0.0
 11
23.25644923582226
 21
268.5320795619737
 31
0.0
 11
23.1103306511
 21
268.5376151267
 31
0.0
  0
SPLINE
  5
F2
330
1F
100
AcDbEntity
  8
BEZUGSACHSEN
  6
Continuous
 62
     7
100
AcDbSpline
210
0.0
220
0.0
230
1.0
 70
     8
 71
     3
 72
    47
 73
    43
 74
    41
 42
0.0000000001
 43
0.0000000001
 44
0.00000001
 40
0.0
 40
0.0
 40
0.0
 40
0.0
 40
0.6366022431821172
 40
1.273595002171229
 40
1.592921746398827
 40
1.912076344884403
 40
2.231392290413048
 40
2.550826842709698
 40
3.189774321111384
 40
3.829081696942853
 40
4.468337152485952
 40
5.107221744789118
 40
5.426176341283155
 40
5.745033356823339
 40
6.063356731586464
 40
6.381780214883052
 40
7.017059195661209
 40
7.652639340975566
 40
8.287532214213234
 40
8.922347946461112
 40
9.559226748514538
 40
10.19613435929449
 40
10.83451785497353
 40
11.47287689970058
 40
12.11234487360332
 40
12.75189588941641
 40
13.3935430051181
 40
14.03487957348086
 40
14.35615205765055
 40
14.67732107706428
 40
14.99840882467212
 40
15.31959604115969
 40
15.96011121019078
 40
16.60099592079354
 40
17.23809108069571
 40
17.87482555193396
 40
18.19205670326563
 40
18.50917199094478
 40
18.82571084623242
 40
19.142415818228
 40
19.77338974993554
 40
20.40398930740778
 40
20.40398930740778
 40
20.40398930740778
 40
20.40398930740778
 10
43.6109150568
 20
284.8962626947
 30
0.0
 10
43.61692070068673
 20
285.1085425043952
 30
0.0
 10
43.62893567254845
 20
285.5332323442209
 30
0.0
 10
43.71020101775643
 20
286.0593751053365
 30
0.0
 10
43.80292061435755
 20
286.4743494814609
 30
0.0
 10
43.88821357850158
 20
286.7821734571504
 30
0.0
 10
43.98845219194083
 20
287.0854661339238
 30
0.0
 10
44.14193774109389
 20
287.4829034964494
 30
0.0
 10
44.37040968787173
 20
287.9650030733169
 30
0.0
 10
44.7000246484305
 20
288.5138189461558
 30
0.0
 10
45.08225186551429
 20
289.0273544855327
 30
0.0
 10
45.44110656263629
 20
289.4218572476478
 30
0.0
 10
45.7500599162048
 20
289.7147305457033
 30
0.0
 10
45.99195502517973
 20
289.922452366809
 30
0.0
 10
46.24359827866888
 20
290.1179617639165
 30
0.0
 10
46.5908923858325
 20
290.3614569665539
 30
0.0
 10
47.04663272059216
 20
290.6333390365764
 30
0.0
 10
47.62211214527615
 20
290.904668149089
 30
0.0
 10
48.22122291043318
 20
291.1184517799012
 30
0.0
 10
48.83867331287964
 20
291.2731415112733
 30
0.0
 10
49.46894387455724
 20
291.3669484949274
 30
0.0
 10
50.10653780927677
 20
291.3990752197323
 30
0.0
 10
50.74471645351405
 20
291.3686456467824
 30
0.0
 10
51.37772887471359
 20
291.2759743916224
 30
0.0
 10
51.99896255913995
 20
291.1214824303934
 30
0.0
 10
52.60309831109443
 20
290.9064452978633
 30
0.0
 10
53.18357738466818
 20
290.6325219321745
 30
0.0
 10
53.64320640889464
 20
290.3573550541253
 30
0.0
 10
53.99310539754809
 20
290.1107453552392
 30
0.0
 10
54.24623702669283
 20
289.912841162844
 30
0.0
 10
54.48923566604706
 20
289.7026626334331
 30
0.0
 10
54.7984800095504
 20
289.4071432932865
 30
0.0
 10
55.15680020035113
 20
289.0096723105507
 30
0.0
 10
55.53675061870154
 20
288.4940055490303
 30
0.0
 10
55.86322364831067
 20
287.9444093925769
 30
0.0
 10
56.08859478830331
 20
287.4633038508712
 30
0.0
 10
56.23968577146327
 20
287.067313663248
 30
0.0
 10
56.33809868901321
 20
286.765887312452
 30
0.0
 10
56.42176546718342
 20
286.4601919445126
 30
0.0
 10
56.51258482462391
 20
286.0486399267688
 30
0.0
 10
56.59209980029902
 20
285.5272147102266
 30
0.0
 10
56.60387208491532
 20
285.1065384210567
 30
0.0
 10
56.6097564805
 20
284.8962626947
 30
0.0
 11
43.6109150568
 21
284.8962626947
 31
0.0
 11
43.64216372783981
 21
285.5320975290578
 31
0.0
 11
43.73560493021341
 21
286.1621995181861
 31
0.0
 11
43.80554543724784
 21
286.4737727761124
 31
0.0
 11
43.89068677622399
 21
286.7813611538704
 31
0.0
 11
43.99091131436193
 21
287.0845404985229
 31
0.0
 11
44.10599120411398
 21
287.3825254850165
 31
0.0
 11
44.3795870983583
 21
287.9599327648533
 31
0.0
 11
44.70880661203644
 21
288.5079550569237
 31
0.0
 11
45.09043086738382
 21
289.02080051627
 31
0.0
 11
45.52036550351262
 21
289.4933782674805
 31
0.0
 11
45.75183776457376
 21
289.7128153358713
 31
0.0
 11
45.99374016560103
 21
289.9205483971216
 31
0.0
 11
46.24511397275552
 21
290.115845555312
 31
0.0
 11
46.50584325104744
 21
290.2986398609019
 31
0.0
 11
47.05137689525726
 21
290.6241739243326
 31
0.0
 11
47.62628671537598
 21
290.8951735919503
 31
0.0
 11
48.22423290312077
 21
291.1085964516665
 31
0.0
 11
48.84002543532974
 21
291.2628383758799
 31
0.0
 11
49.46995771727615
 21
291.3566463108684
 31
0.0
 11
50.10606083899498
 21
291.3886482359507
 31
0.0
 11
50.74372179803031
 21
291.3582839661991
 31
0.0
 11
51.3753393309576
 21
291.2657552566886
 31
0.0
 11
51.99591220306382
 21
291.1114549000685
 31
0.0
 11
52.59841301018637
 21
290.8969361846979
 31
0.0
 11
53.17872020655287
 21
290.6231578456469
 31
0.0
 11
53.72894519459881
 21
290.2936657266984
 31
0.0
 11
53.99155249874626
 21
290.1085889510268
 31
0.0
 11
54.24457295613811
 21
289.9107754348749
 31
0.0
 11
54.48742125750242
 21
289.7007229552696
 31
0.0
 11
54.71962369290945
 21
289.4788147376973
 31
0.0
 11
55.14853975064371
 21
289.0031145199376
 31
0.0
 11
55.52865040931679
 21
288.4871212065628
 31
0.0
 11
55.85408955504197
 21
287.9394172671937
 31
0.0
 11
56.12417041317164
 21
287.3628003086025
 31
0.0
 11
56.23726085835585
 21
287.0664117889476
 31
0.0
 11
56.335704961695
 21
286.7649638428647
 31
0.0
 11
56.41918776707063
 21
286.4596321083309
 31
0.0
 11
56.48773719051466
 21
286.1504347347453
 31
0.0
 11
56.5791642684392
 21
285.526119756616
 31
0.0
 11
56.6097564805
 21
284.8962626947
 31
0.0
  0
SPLINE
  5
F3
330
1F
100
AcDbEntity
  8
BEZUGSACHSEN
  6
Continuous
 62
     7
100
AcDbSpline
210
0.0
220
0.0
230
1.0
 70
     8
 71
     3
 72
    47
 73
    43
 74
    41
 42
0.0000000001
 43
0.0000000001
 44
0.00000001
 40
0.0
 40
0.0
 40
0.0
 40
0.0
 40
0.6302393213905455
 40
1.260854867258941
 40
1.577476088329248
 40
1.893930800140451
 40
2.210999113777489
 40
2.52818347211732
 40
3.164887038171974
 40
3.801951183330095
 40
4.442851001549558
 40
5.08338125972736
 40
5.404527292266654
 40
5.725573838726989
 40
6.046670710001949
 40
6.36787102711833
 40
7.009090242491042
 40
7.650619763895776
 40
8.2903303464457
 40
8.929958764446535
 40
9.568647011312354
 40
10.20735923008402
 40
10.84445705808716
 40
11.48152626487091
 40
12.11643462213148
 40
12.75141965570925
 40
13.38691908731139
 40
14.02211738524578
 40
14.34050449135108
 40
14.65879153783391
 40
14.9776158686068
 40
15.29653774938661
 40
15.93537694095594
 40
16.57458694060094
 40
17.21386274982695
 40
17.85277859065643
 40
18.17219860075125
 40
18.49150024069785
 40
18.81067156628792
 40
19.13001452414285
 40
19.76719627017547
 40
20.40398968275993
 40
20.40398968275993
 40
20.40398968275993
 40
20.40398968275993
 10
56.6097442889
 20
284.8962627328
 30
0.0
 10
56.60387508715453
 20
284.6861067109332
 30
0.0
 10
56.59213318001457
 20
284.2656692135236
 30
0.0
 10
56.51268643746052
 20
283.7445057712931
 30
0.0
 10
56.42195493239637
 20
283.3331143038737
 30
0.0
 10
56.33834955010171
 20
283.0274764635887
 30
0.0
 10
56.2399976087354
 20
282.7260926174037
 30
0.0
 10
56.08897879788011
 20
282.3301194378068
 30
0.0
 10
55.86369621027821
 20
281.849012629115
 30
0.0
 10
55.53731817553398
 20
281.2993784041036
 30
0.0
 10
55.15745111349734
 20
280.7836505414315
 30
0.0
 10
54.79919667419621
 20
280.3861251392278
 30
0.0
 10
54.49001593649614
 20
280.0905717843002
 30
0.0
 10
54.24709098045293
 20
279.8803868758612
 30
0.0
 10
53.99404207714334
 20
279.682477411516
 30
0.0
 10
53.6442595687157
 20
279.4358540600111
 30
0.0
 10
53.18477433097898
 20
279.1606474507145
 30
0.0
 10
52.60437862401
 20
278.8866073440157
 30
0.0
 10
52.00022431615297
 20
278.6714188667007
 30
0.0
 10
51.37880916873583
 20
278.5167570276997
 30
0.0
 10
50.74553995730685
 20
278.4239466546774
 30
0.0
 10
50.10708049288797
 20
278.3934359048693
 30
0.0
 10
49.4692474793491
 20
278.4255376472519
 30
0.0
 10
48.83881749236088
 20
278.5193507096279
 30
0.0
 10
48.22124382286049
 20
278.674064525918
 30
0.0
 10
47.62210041141395
 20
278.8878610979766
 30
0.0
 10
47.04664318991917
 20
279.1591824663802
 30
0.0
 10
46.59095779694908
 20
279.4310273499948
 30
0.0
 10
46.24370189921932
 20
279.6744879025891
 30
0.0
 10
45.99208231793686
 20
279.8699704289235
 30
0.0
 10
45.75020726767751
 20
280.0776634876364
 30
0.0
 10
45.44127098400457
 20
280.3705010357917
 30
0.0
 10
45.08242822711375
 20
280.7649586847318
 30
0.0
 10
44.7002013218643
 20
281.2784433506699
 30
0.0
 10
44.37057687660067
 20
281.8272111293731
 30
0.0
 10
44.14208943068041
 20
282.3092745458633
 30
0.0
 10
43.98858793072031
 20
282.7066841050397
 30
0.0
 10
43.88833112779712
 20
283.0099664683322
 30
0.0
 10
43.80301463487155
 20
283.3177903400357
 30
0.0
 10
43.71025217950246
 20
283.7328312071427
 30
0.0
 10
43.62895981254498
 20
284.2591040062315
 30
0.0
 10
43.6169200130567
 20
284.6839196559505
 30
0.0
 10
43.6109019483
 20
284.8962627346
 30
0.0
 11
56.6097442889
 21
284.8962627328
 31
0.0
 11
56.57920471017877
 21
284.2667637762017
 31
0.0
 11
56.48787343465196
 21
283.6427969783658
 31
0.0
 11
56.41937869596543
 21
283.333673267848
 31
0.0
 11
56.33595987112867
 21
283.028411274979
 31
0.0
 11
56.23757312728962
 21
282.7269940157694
 31
0.0
 11
56.12454249618708
 21
282.4306327605285
 31
0.0
 11
55.85456235967474
 21
281.854002760515
 31
0.0
 11
55.52922573782138
 21
281.3062739886515
 31
0.0
 11
55.14918924302528
 21
280.7902072879075
 31
0.0
 11
54.72033874533548
 21
280.314427651655
 31
0.0
 11
54.48820161093834
 21
280.092510718886
 31
0.0
 11
54.24541911758739
 21
279.8824451436091
 31
0.0
 11
53.99248950930365
 21
279.6846325707124
 31
0.0
 11
53.72997511349642
 21
279.4995492497199
 31
0.0
 11
53.17991693192462
 21
279.170007023216
 31
0.0
 11
52.59977610026316
 21
278.8961516922967
 31
0.0
 11
51.99717078994036
 21
278.6814508087468
 31
0.0
 11
51.37647151960036
 21
278.5269939250748
 31
0.0
 11
50.74454270569679
 21
278.4343189508749
 31
0.0
 11
50.10655657854686
 21
278.4038722766319
 31
0.0
 11
49.47026159043653
 21
278.4358461808664
 31
0.0
 11
48.84013831633093
 21
278.5296642690079
 31
0.0
 11
48.22425440808698
 21
278.6839226032575
 31
0.0
 11
47.62622193825053
 21
278.897377886371
 31
0.0
 11
47.05138618966883
 21
279.16834539313
 31
0.0
 11
46.50591950212235
 21
279.4938342108731
 31
0.0
 11
46.24521720936825
 21
279.6766036390794
 31
0.0
 11
45.99386795758463
 21
279.8718731901789
 31
0.0
 11
45.75198465924605
 21
280.0795783270379
 31
0.0
 11
45.52052882794742
 21
280.2989851733258
 31
0.0
 11
45.0906057970672
 21
280.7715121039908
 31
0.0
 11
44.7089846576094
 21
281.2843032208845
 31
0.0
 11
44.37975318343036
 21
281.8322815020887
 31
0.0
 11
44.10613887628632
 21
282.4096450466504
 31
0.0
 11
43.99104662382637
 21
282.7076096691691
 31
0.0
 11
43.89080693539947
 21
283.0107689377667
 31
0.0
 11
43.80563985518084
 21
283.3183675455756
 31
0.0
 11
43.7356768276974
 21
283.629952364713
 31
0.0
 11
43.64218793071691
 21
284.2602383344272
 31
0.0
 11
43.6109019483
 21
284.8962627346
 31
0.0
  0
SPLINE
  5
F4
330
1F
100
AcDbEntity
  8
BEZUGSACHSEN
  6
Continuous
 62
     7
100
AcDbSpline
210
0.0
220
0.0
230
1.0
 70
     8
 71
     3
 72
    27
 73
    23
 74
    21
 42
0.0000000001
 43
0.0000000001
 44
0.00000001
 40
0.0
 40
0.0
 40
0.0
 40
0.0
 40
0.1219765139516402
 40
0.2439857714749086
 40
0.3566831398333902
 40
0.4694418149629538
 40
0.5721317672955395
 40
0.6745445881167799
 40
0.7225206521206127
 40
0.7704888797673989
 40
0.8171412936077563
 40
0.8637898734420185
 40
0.910231800104691
 40
0.9566751324368526
 40
1.004175175772269
 40
1.051683100162096
 40
1.153672388754593
 40
1.256049376669032
 40
1.370745138071106
 40
1.48538540184925
 40
1.611534903897385
 40
1.737631876029688
 40
1.737631876029688
 40
1.737631876029688
 40
1.737631876029688
 10
16.2561733267
 20
269.6539267187
 30
0.0
 10
16.22091830909661
 20
269.6336471934352
 30
0.0
 10
16.15039880997619
 20
269.5930826990369
 30
0.0
 10
16.04274640679036
 20
269.5422868381453
 30
0.0
 10
15.9345883909191
 20
269.5005352022761
 30
0.0
 10
15.82900916995037
 20
269.4711206171349
 30
0.0
 10
15.72417762480447
 20
269.4542060297467
 30
0.0
 10
15.63944995495833
 20
269.4523408064964
 30
0.0
 10
15.57362601855161
 20
269.4592961144739
 30
0.0
 10
15.52691881533314
 20
269.4684932416143
 30
0.0
 10
15.48173819803083
 20
269.4820266866305
 30
0.0
 10
15.43859858738474
 20
269.4998199454713
 30
0.0
 10
15.39764411080633
 20
269.5220483031871
 30
0.0
 10
15.35899668433333
 20
269.5485833348903
 30
0.0
 10
15.32309060570096
 20
269.5792786124209
 30
0.0
 10
15.27765128416677
 20
269.6268160855302
 30
0.0
 10
15.22910814407653
 20
269.695985452604
 30
0.0
 10
15.18288243510335
 20
269.7921435072956
 30
0.0
 10
15.1489165613233
 20
269.8977189402745
 30
0.0
 10
15.12596113714609
 20
270.0141366311802
 30
0.0
 10
15.11251657879493
 20
270.1358839398683
 30
0.0
 10
15.11105919249887
 20
270.2199873034187
 30
0.0
 10
15.1103306511
 20
270.262030228
 30
0.0
 11
16.2561733267
 21
269.6539267187
 31
0.0
 11
16.14962870263946
 21
269.5945422675399
 31
0.0
 11
16.03933581347079
 21
269.542371993243
 31
0.0
 11
15.93401780561836
 21
269.5022619688486
 31
0.0
 11
15.82529407707531
 21
269.4723676605497
 31
0.0
 11
15.72382992495416
 21
269.456548300752
 31
0.0
 11
15.62143038436976
 21
269.454899071639
 31
0.0
 11
15.57372652815721
 21
269.4600024841985
 31
0.0
 11
15.52667575789577
 21
269.4693392867229
 31
0.0
 11
15.48199619046234
 21
269.4827625490348
 31
0.0
 11
15.43889005386641
 21
269.5005937292628
 31
0.0
 11
15.39806746106955
 21
269.5227379941972
 31
0.0
 11
15.3597802045234
 21
269.549026187446
 31
0.0
 11
15.32364310751285
 21
269.579854167213
 31
0.0
 11
15.29079060714096
 21
269.6141720357241
 31
0.0
 11
15.23161821288714
 21
269.6972409393275
 31
0.0
 11
15.18671848928608
 21
269.7892467134669
 31
0.0
 11
15.15108032971859
 21
269.8982652406365
 31
0.0
 11
15.12822876635235
 21
270.0106048869367
 31
0.0
 11
15.11446201002979
 21
270.136000952614
 31
0.0
 11
15.1103306511
 21
270.262030228
 31
0.0
  0
SPLINE
  5
F5
330
1F
100
AcDbEntity
  8
BEZUGSACHSEN
  6
Continuous
 62
     7
100
AcDbSpline
210
0.0
220
0.0
230
1.0
 70
     8
 71
     3
 72
    27
 73
    23
 74
    21
 42
0.0000000001
 43
0.0000000001
 44
0.00000001
 40
0.0
 40
0.0
 40
0.0
 40
0.0
 40
0.1260969825526702
 40
0.2522464959214482
 40
0.3668867952585376
 40
0.4815825894074185
 40
0.5839596006878855
 40
0.6859489161182925
 40
0.7334568410218854
 40
0.7809568848600505
 40
0.8274002264234245
 40
0.8738421607270648
 40
0.9204907319427705
 40
0.9671431399967999
 40
1.015111401880103
 40
1.063087497177046
 40
1.165500418780389
 40
1.268190479015383
 40
1.380949153958405
 40
1.493646517832392
 40
1.615655563784733
 40
1.737631867633497
 40
1.737631867633497
 40
1.737631867633497
 40
1.737631867633497
 10
15.1103306511
 20
299.5304952003
 30
0.0
 10
15.11105919257628
 20
299.572538128361
 30
0.0
 10
15.11251657903236
 20
299.6566414991713
 30
0.0
 10
15.12596114099519
 20
299.7783888267357
 30
0.0
 10
15.14891657431997
 20
299.8948065431107
 30
0.0
 10
15.18288247467119
 20
300.0003820008961
 30
0.0
 10
15.22910823348445
 20
300.0965400631639
 30
0.0
 10
15.27765140200958
 20
300.1657094288414
 30
0.0
 10
15.32309072757294
 20
300.2132469104347
 30
0.0
 10
15.35899680566858
 20
300.2439421939047
 30
0.0
 10
15.39764423675759
 20
300.2704772296421
 30
0.0
 10
15.43859872397366
 20
300.2927055755728
 30
0.0
 10
15.48173835017625
 20
300.3104987924585
 30
0.0
 10
15.52691898480711
 20
300.324032199509
 30
0.0
 10
15.5736262077955
 20
300.33322932482
 30
0.0
 10
15.6394501989914
 20
300.3401846451603
 30
0.0
 10
15.72417795099013
 20
300.3383193885004
 30
0.0
 10
15.82900955449814
 20
300.321404727564
 30
0.0
 10
15.93458879686187
 20
300.2919900947067
 30
0.0
 10
16.04274673495825
 20
300.2502384572563
 30
0.0
 10
16.15039899622377
 20
300.1994426301372
 30
0.0
 10
16.22091837103759
 20
300.1588782019042
 30
0.0
 10
16.2561733267
 20
300.1385987096
 30
0.0
 11
15.1103306511
 21
299.5304952003
 31
0.0
 11
15.11446201066706
 21
299.6565244860911
 31
0.0
 11
15.12822876980495
 21
299.781920562848
 31
0.0
 11
15.15108034591824
 21
299.8942602428423
 31
0.0
 11
15.18671853530169
 21
300.0032787947173
 31
0.0
 11
15.23161830007536
 21
300.0952845747639
 31
0.0
 11
15.29079072899866
 21
300.178353486622
 31
0.0
 11
15.32364322915518
 21
300.2126713560505
 31
0.0
 11
15.35978032408128
 21
300.2434993390356
 31
0.0
 11
15.39806758894477
 21
300.2697875364794
 31
0.0
 11
15.43889019689641
 21
300.2919317895011
 31
0.0
 11
15.48199634054606
 21
300.3097629301299
 31
0.0
 11
15.52667591261346
 21
300.3231861569071
 31
0.0
 11
15.57372671835967
 21
300.3325229565054
 31
0.0
 11
15.6214306056128
 21
300.3376263730945
 31
0.0
 11
15.72383024647244
 21
300.3359771116994
 31
0.0
 11
15.82529449680758
 21
300.3201576814001
 31
0.0
 11
15.93401821326441
 21
300.290263329848
 31
0.0
 11
16.03933620556172
 21
300.2501532772102
 31
0.0
 11
16.14962889146712
 21
300.197983067991
 31
0.0
 11
16.2561733267
 21
300.1385987096
 31
0.0
  0
SPLINE
  5
F6
330
1F
100
AcDbEntity
  8
BEZUGSACHSEN
  6
Continuous
 62
     7
100
AcDbSpline
210
0.0
220
0.0
230
1.0
 70
     8
 71
     3
 72
    15
 73
    11
 74
     9
 42
0.0000000001
 43
0.0000000001
 44
0.00000001
 40
0.0
 40
0.0
 40
0.0
 40
0.0
 40
0.1110371613650635
 40
0.2222522337255743
 40
0.3333980191826462
 40
0.4445069474939217
 40
0.5556201065312751
 40
0.6667525642189019
 40
0.7778876033539136
 40
0.8889820915996621
 40
0.8889820915996621
 40
0.8889820915996621
 40
0.8889820915996621
 10
17.0102561664
 20
269.2197303279
 30
0.0
 10
16.97361443951913
 20
269.225262480712
 30
0.0
 10
16.9002722759883
 20
269.2363356503128
 30
0.0
 10
16.79375572597787
 20
269.269354213852
 30
0.0
 10
16.69134281823785
 20
269.3129445013345
 30
0.0
 10
16.59389285261886
 20
269.3667240091673
 30
0.0
 10
16.50158805688105
 20
269.428819144509
 30
0.0
 10
16.4145914287454
 20
269.4981058181327
 30
0.0
 10
16.33233867328089
 20
269.5729877697459
 30
0.0
 10
16.28155868690142
 20
269.6269503512867
 30
0.0
 10
16.2561733267
 20
269.6539267187
 30
0.0
 11
17.0102561664
 21
269.2197303279
 31
0.0
 11
16.90091388128977
 21
269.2390568871097
 31
0.0
 11
16.79442192772148
 21
269.2711233204218
 31
0.0
 11
16.69215374711432
 21
269.3146503793641
 31
0.0
 11
16.59475088065977
 21
269.3681094810861
 31
0.0
 11
16.50247911387315
 21
269.4300130768244
 31
0.0
 11
16.41538201046437
 21
269.499038562911
 31
0.0
 11
16.33334210597783
 21
269.5740082300797
 31
0.0
 11
16.2561733267
 21
269.6539267187
 31
0.0
  0
SPLINE
  5
F7
330
1F
100
AcDbEntity
  8
BEZUGSACHSEN
  6
Continuous
 62
     7
100
AcDbSpline
210
0.0
220
0.0
230
1.0
 70
     8
 71
     3
 72
    15
 73
    11
 74
     9
 42
0.0000000001
 43
0.0000000001
 44
0.00000001
 40
0.0
 40
0.0
 40
0.0
 40
0.0
 40
0.1110944831157756
 40
0.2222295181063961
 40
0.3333620401540969
 40
0.4444752609923937
 40
0.5555842177976558
 40
0.6667300353884295
 40
0.7779450181579892
 40
0.8889820871697149
 40
0.8889820871697149
 40
0.8889820871697149
 40
0.8889820871697149
 10
16.2561733267
 20
300.1385987096
 30
0.0
 10
16.28155868626886
 20
300.1655750752738
 30
0.0
 10
16.33233867160861
 20
300.219537653575
 30
0.0
 10
16.41459144082786
 20
300.2944196169936
 30
0.0
 10
16.50158809275955
 20
300.3637063259229
 30
0.0
 10
16.59389293318847
 20
300.4258014890165
 30
0.0
 10
16.69134295519433
 20
300.4795809811192
 30
0.0
 10
16.79375586907414
 20
300.5231712266919
 30
0.0
 10
16.90027236765783
 20
300.5561897825409
 30
0.0
 10
16.9736144703793
 20
300.5672629491534
 30
0.0
 10
17.0102561664
 20
300.5727951004
 30
0.0
 11
16.2561733267
 21
300.1385987096
 31
0.0
 11
16.33334210378628
 21
300.2185171932053
 31
0.0
 11
16.41538200400327
 21
300.2934868589025
 31
0.0
 11
16.50247915259455
 21
300.3625123915984
 31
0.0
 11
16.5947509741786
 21
300.4244160165861
 31
0.0
 11
16.69215388227406
 21
300.4778751016597
 31
0.0
 11
16.79442210567434
 21
300.5214021421112
 31
0.0
 11
16.900913973779
 21
300.5534685485206
 31
0.0
 11
17.0102561664
 21
300.5727951004
 31
0.0
  0
SPLINE
  5
F8
330
1F
100
AcDbEntity
  8
0
  6
Continuous
 62
     7
100
AcDbSpline
210
0.0
220
0.0
230
1.0
 70
     8
 71
     3
 72
    19
 73
    15
 74
    13
 42
0.0000000001
 43
0.0000000001
 44
0.00000001
 40
0.0
 40
0.0
 40
0.0
 40
0.0
 40
0.1162460235697746
 40
0.2327881717864188
 40
0.3491890045846655
 40
0.465546855068903
 40
0.5819071369995351
 40
0.69827384892577
 40
0.8146206072886435
 40
0.930999827844765
 40
1.163276323467765
 40
1.396138921772626
 40
1.629013178053141
 40
1.861351539710544
 40
1.861351539710544
 40
1.861351539710544
 40
1.861351539710544
 10
84.2353306511
 20
251.3738821304
 30
0.0
 10
84.1965465802597
 20
251.3720411835121
 30
0.0
 10
84.11887964019509
 20
251.3683546001158
 30
0.0
 10
84.00526955512751
 20
251.3399491151571
 30
0.0
 10
83.89708186718117
 20
251.296095200919
 30
0.0
 10
83.79610600121505
 20
251.2374985126753
 30
0.0
 10
83.70333754445437
 20
251.1668136513743
 30
0.0
 10
83.6192501654278
 20
251.0860560463108
 30
0.0
 10
83.54394652204407
 20
250.9970884075566
 30
0.0
 10
83.45529527789391
 20
250.8697289597881
 30
0.0
 10
83.36529853218397
 20
250.6969435817035
 30
0.0
 10
83.29040501305676
 20
250.4760185915338
 30
0.0
 10
83.243868087733
 20
250.2469986719655
 30
0.0
 10
83.23817427701135
 20
250.0918192791388
 30
0.0
 10
83.2353306511
 20
250.014318961
 30
0.0
 11
84.2353306511
 21
251.3738821304
 31
0.0
 11
84.11945929954958
 21
251.364556473015
 31
0.0
 11
84.00613477486152
 21
251.33736043626
 31
0.0
 11
83.8982616422503
 21
251.2936278267247
 31
0.0
 11
83.79747290272554
 21
251.2354833570451
 31
0.0
 11
83.70478559764467
 21
251.1651358006709
 31
0.0
 11
83.62071023198585
 21
251.0846836749448
 31
0.0
 11
83.54541147404042
 21
250.9959894517201
 31
0.0
 11
83.4787847447289
 21
250.9005693180035
 31
0.0
 11
83.37089495865453
 21
250.694870109255
 31
0.0
 11
83.29513682184191
 21
250.4746754353958
 31
0.0
 11
83.2501768080428
 21
250.2461825112223
 31
0.0
 11
83.2353306511
 21
250.014318961
 31
0.0
  0
SPLINE
  5
F9
330
1F
100
AcDbEntity
  8
0
  6
Continuous
 62
     7
100
AcDbSpline
210
0.0
220
0.0
230
1.0
 70
     8
 71
     3
 72
    19
 73
    15
 74
    13
 42
0.0000000001
 43
0.0000000001
 44
0.00000001
 40
0.0
 40
0.0
 40
0.0
 40
0.0
 40
0.2323383480566659
 40
0.4652125956755131
 40
0.6980761132584101
 40
0.9303535186936076
 40
1.046733461752437
 40
1.163080940821061
 40
1.279447997388413
 40
1.39580862949067
 40
1.512165904468888
 40
1.628566140313102
 40
1.745106920505791
 40
1.8613516027688
 40
1.8613516027688
 40
1.8613516027688
 40
1.8613516027688
 10
86.9853306511
 20
250.014318961
 30
0.0
 10
86.98248702549269
 20
250.0918192746389
 30
0.0
 10
86.97679321531899
 20
250.2469986601136
 30
0.0
 10
86.93025623948746
 20
250.4760188741262
 30
0.0
 10
86.85536249373344
 20
250.6969444360326
 30
0.0
 10
86.76536518948137
 20
250.8697305002425
 30
0.0
 10
86.6767132516696
 20
250.9970904259467
 30
0.0
 10
86.60140898731203
 20
251.086058324851
 30
0.0
 10
86.51732101349526
 20
251.16681599481
 30
0.0
 10
86.42455227966659
 20
251.237500561192
 30
0.0
 10
86.32357646742126
 20
251.2960967853653
 30
0.0
 10
86.2153894179082
 20
251.339950036522
 30
0.0
 10
86.10178030855388
 20
251.3683547959724
 30
0.0
 10
86.0241142737618
 20
251.3720412486194
 30
0.0
 10
85.9853306511
 20
251.3738821304
 30
0.0
 11
86.9853306511
 21
250.014318961
 31
0.0
 11
86.97048449698222
 21
250.2461824977746
 31
0.0
 11
86.9255244953936
 21
250.474675415523
 31
0.0
 11
86.84976601671123
 21
250.6948709439263
 31
0.0
 11
86.74187560553361
 21
250.9005708521704
 31
0.0
 11
86.6752482816894
 21
250.9959914519575
 31
0.0
 11
86.5999488251226
 21
251.0846860274758
 31
0.0
 11
86.51587295879214
 21
251.1651381284734
 31
0.0
 11
86.42318513282277
 21
251.2354855777542
 31
0.0
 11
86.32239669791818
 21
251.2936294237728
 31
0.0
 11
86.2145239691266
 21
251.3373614405071
 31
0.0
 11
86.10120068057272
 21
251.364556765827
 31
0.0
 11
85.9853306511
 21
251.3738821304
 31
0.0
  0
SPLINE
  5
FA
330
1F
100
AcDbEntity
  8
BEZUGSACHSEN
  6
Continuous
 62
     7
100
AcDbSpline
210
0.0
220
0.0
230
1.0
 70
     8
 71
     3
 72
    11
 73
     7
 74
     5
 42
0.0000000001
 43
0.0000000001
 44
0.00000001
 40
0.0
 40
0.0
 40
0.0
 40
0.0
 40
0.5462907431041437
 40
1.093000863589423
 40
1.646070107119469
 40
2.198197048716675
 40
2.198197048716675
 40
2.198197048716675
 40
2.198197048716675
 10
24.664176598
 20
299.9062627141
 30
0.0
 10
24.72724739986547
 20
299.7353310848747
 30
0.0
 10
24.85343742189389
 20
299.3933366053482
 30
0.0
 10
24.99307473491982
 20
298.8620624761432
 30
0.0
 10
25.09056309893244
 20
298.3186380711824
 30
0.0
 10
25.10374521344747
 20
297.950053430609
 30
0.0
 10
25.1103306511
 20
297.7659182399
 30
0.0
 11
24.664176598
 21
299.9062627141
 31
0.0
 11
24.84502793062919
 21
299.3907761754906
 31
0.0
 11
24.98551941532751
 21
298.8624258196014
 31
0.0
 11
25.07758606855793
 21
298.3170733468813
 31
0.0
 11
25.1103306511
 21
297.7659182399
 31
0.0
  0
SPLINE
  5
FB
330
1F
100
AcDbEntity
  8
BEZUGSACHSEN
  6
Continuous
 62
     7
100
AcDbSpline
210
0.0
220
0.0
230
1.0
 70
     8
 71
     3
 72
    11
 73
     7
 74
     5
 42
0.0000000001
 43
0.0000000001
 44
0.00000001
 40
0.0
 40
0.0
 40
0.0
 40
0.0
 40
0.9140556660002828
 40
1.828030949185935
 40
2.279806974883463
 40
2.730944124862182
 40
2.730944124862182
 40
2.730944124862182
 40
2.730944124862182
 10
16.3772835779854
 20
269.886262714285
 30
0.0
 10
16.50993828494866
 20
270.1609793119516
 30
0.0
 10
16.77523603311005
 20
270.7103883484789
 30
0.0
 10
16.99059124642524
 20
271.4430992695874
 30
0.0
 10
17.09428546008975
 20
272.0410444757271
 30
0.0
 10
17.10498477760765
 20
272.3421676911873
 30
0.0
 10
17.1103306511
 20
272.4926227658
 30
0.0
 11
16.3772835779854
 21
269.886262714285
 31
0.0
 11
16.75209110776086
 21
270.7199395558554
 31
0.0
 11
17.01138246815873
 21
271.596363430871
 31
0.0
 11
17.08409944165736
 21
272.0422488636452
 31
0.0
 11
17.1103306511
 21
272.4926227658
 31
0.0
  0
SPLINE
  5
FC
330
1F
100
AcDbEntity
  8
BEZUGSACHSEN
  6
Continuous
 62
     7
100
AcDbSpline
210
0.0
220
0.0
230
1.0
 70
     8
 71
     3
 72
    11
 73
     7
 74
     5
 42
0.0000000001
 43
0.0000000001
 44
0.00000001
 40
0.0
 40
0.0
 40
0.0
 40
0.0
 40
0.8249192366724156
 40
1.650116891930982
 40
2.190492152293428
 40
2.730585915378205
 40
2.730585915378205
 40
2.730585915378205
 40
2.730585915378205
 10
17.1103306511
 20
297.2999026625
 30
0.0
 10
17.09259734676182
 20
297.5750929544769
 30
0.0
 10
17.05712475291589
 20
298.1255664179378
 30
0.0
 10
16.84868993628049
 20
298.8303000030905
 30
0.0
 10
16.6184635053008
 20
299.4225137281708
 30
0.0
 10
16.45766292249882
 20
299.745041061616
 30
0.0
 10
16.3772835779854
 20
299.906262713915
 30
0.0
 11
17.1103306511
 21
297.2999026625
 31
0.0
 11
17.02675519698429
 21
298.1205773181959
 31
0.0
 11
16.80879375487253
 21
298.9164692580953
 31
0.0
 11
16.61085867631333
 21
299.4192884370131
 31
0.0
 11
16.3772835779854
 21
299.906262713915
 31
0.0
  0
DIMENSION
  5
107
330
1F
100
AcDbEntity
  8
1
100
AcDbDimension
  2
*D2
 10
237.487859364432
 20
300.8962627141
 30
0.0
 11
233.737859364432
 21
284.102480885482
 31
0.0
 70
    32
  1
<>
 71
     5
 42
-1.0
 53
90.0
  3
ME10_DIM_10
100
AcDbAlignedDimension
 13
225.1103306511
 23
268.8962627141
 33
0.0
 14
225.1103306511
 24
300.8962627141
 34
0.0
 50
90.0
100
AcDbRotatedDimension
  0
DIMENSION
  5
112
330
1F
100
AcDbEntity
  8
1
100
AcDbDimension
  2
*D3
 10
245.245266840839
 20
306.8962627141466
 30
0.0
 11
241.495266840839
 21
284.656581419511
 31
0.0
 70
    32
  1
<>
 71
     5
 42
-1.0
 53
90.0
  3
ME10_DIM_11
100
AcDbAlignedDimension
 13
225.1103306511
 23
262.8962627141486
 33
0.0
 14
225.1103306511
 24
306.8962627141466
 34
0.0
 50
90.0
100
AcDbRotatedDimension
  0
DIMENSION
  5
11D
330
1F
100
AcDbEntity
  8
1
100
AcDbDimension
  2
*D4
 10
254.295575563314
 20
311.3962627141
 30
0.0
 11
250.545575563314
 21
284.656581419511
 31
0.0
 70
    32
  1
<>
 71
     5
 42
-1.0
 53
90.0
  3
ME10_DIM_12
100
AcDbAlignedDimension
 13
167.9324093383
 23
258.3962627141
 33
0.0
 14
167.9324093383
 24
311.3962627141
 34
0.0
 50
90.0
100
AcDbRotatedDimension
  0
DIMENSION
  5
128
330
1F
100
AcDbEntity
  8
1
100
AcDbDimension
  2
*D5
 10
225.1103306511
 20
343.021837670573
 30
0.0
 11
160.283184956382
 21
346.771837670573
 31
0.0
 70
    32
  1
<>
 71
     5
 42
-1.0
 53
0.00013888888889
  3
ME10_DIM_13
100
AcDbAlignedDimension
 13
94.1103306511
 23
334.8962627141
 33
0.0
 14
225.1103306511
 24
305.9718722225
 34
0.0
100
AcDbRotatedDimension
  0
DIMENSION
  5
133
330
1F
100
AcDbEntity
  8
1
100
AcDbDimension
  2
*D6
 10
225.1103306511
 20
350.77924514698
 30
0.0
 11
143.844869113519
 21
354.52924514698
 31
0.0
 70
    32
  1
<>
 71
     5
 42
-1.0
 53
0.00013888888889
  3
ME10_DIM_14
100
AcDbAlignedDimension
 13
65.1103306511
 23
334.8962627141
 33
0.0
 14
225.1103306511
 24
305.9718722225
 34
0.0
100
AcDbRotatedDimension
  0
DIMENSION
  5
13E
330
1F
100
AcDbEntity
  8
1
100
AcDbDimension
  2
*D7
 10
225.1103306511
 20
357.982552089358
 30
0.0
 11
125.74425166857
 21
361.732552089358
 31
0.0
 70
    32
  1
<>
 71
     5
 42
-1.0
 53
0.00013888888889
  3
ME10_DIM_15
100
AcDbAlignedDimension
 13
15.1103306511
 23
318.4964542767
 33
0.0
 14
225.1103306511
 24
305.9718722225
 34
0.0
100
AcDbRotatedDimension
  0
INSERT
  5
145
330
1F
100
AcDbEntity
  8
1
100
AcDbBlockReference
  2
*D8
 10
0.0
 20
0.0
 30
0.0
  0
DIMENSION
  5
150
330
1F
100
AcDbEntity
  8
1
100
AcDbDimension
  2
*D9
 10
203.1988180653663
 20
310.0106417414448
 30
0.0
 11
206.0565090156142
 21
319.8198720942556
 31
0.0
 70
    37
  1
<>
 71
     5
 42
-1.0
  3
ME10_DIM_16
100
AcDb3PointAngularDimension
 13
203.1172297182202
 23
308.6271572958976
 33
0.0
 14
171.4617712211117
 24
311.3962627140999
 34
0.0
 15
167.9324093383001
 25
311.3962627140999
 35
0.0
  0
ENDSEC
  0
SECTION
  2
OBJECTS
  0
DICTIONARY
  5
C
330
0
100
AcDbDictionary
281
     1
  3
ACAD_GROUP
350
D
  3
ACAD_LAYOUT
350
1A
  3
ACAD_MLEADERSTYLE
350
153
  3
ACAD_MLINESTYLE
350
17
  3
ACAD_PLOTSETTINGS
350
19
  3
ACAD_PLOTSTYLENAME
350
E
  3
ACAD_SCALELIST
350
4A
  3
ACAD_VISUALSTYLE
350
2A
  3
AcDbVariableDictionary
350
151
  0
DICTIONARY
  5
D
102
{ACAD_REACTORS
330
C
102
}
330
C
100
AcDbDictionary
281
     1
  0
DICTIONARY
  5
1A
102
{ACAD_REACTORS
330
C
102
}
330
C
100
AcDbDictionary
281
     1
  3
Layout1
350
1E
  3
Layout2
350
26
  3
Model
350
22
  0
DICTIONARY
  5
153
102
{ACAD_REACTORS
330
C
102
}
330
C
100
AcDbDictionary
281
     1
  0
DICTIONARY
  5
17
102
{ACAD_REACTORS
330
C
102
}
330
C
100
AcDbDictionary
281
     1
  3
Standard
350
18
  0
DICTIONARY
  5
19
102
{ACAD_REACTORS
330
C
102
}
330
C
100
AcDbDictionary
281
     1
  0
ACDBDICTIONARYWDFLT
  5
E
102
{ACAD_REACTORS
330
C
102
}
330
C
100
AcDbDictionary
281
     1
  3
Normal
350
F
100
AcDbDictionaryWithDefault
340
F
  0
DICTIONARY
  5
4A
102
{ACAD_REACTORS
330
C
102
}
330
C
100
AcDbDictionary
281
     1
  3
A0
350
4B
  3
A1
350
4C
  3
A2
350
4D
  3
A3
350
4E
  3
A4
350
4F
  3
A5
350
50
  3
A6
350
51
  3
A7
350
52
  3
A8
350
53
  3
A9
350
54
  3
B0
350
55
  3
B1
350
56
  3
B2
350
57
  3
B3
350
58
  3
B4
350
59
  3
B5
350
5A
  3
B6
350
5B
  3
B7
350
5C
  3
B8
350
5D
  3
B9
350
5E
  3
C0
350
5F
  3
C1
350
60
  3
C2
350
61
  3
C3
350
62
  3
C4
350
63
  3
C5
350
64
  3
C6
350
65
  3
C7
350
66
  3
C8
350
67
  3
C9
350
68
  3
D0
350
69
  3
D1
350
6A
  3
D2
350
6B
  0
DICTIONARY
  5
2A
102
{ACAD_REACTORS
330
C
102
}
330
C
100
AcDbDictionary
281
     1
  3
2dWireframe
350
2F
  3
3D Hidden
350
31
  3
3dWireframe
350
30
  3
Basic
350
32
  3
Brighten
350
36
  3
ColorChange
350
3A
  3
Conceptual
350
34
  3
Dim
350
35
  3
Facepattern
350
39
  3
Flat
350
2B
  3
FlatWithEdges
350
2C
  3
Gouraud
350
2D
  3
GouraudWithEdges
350
2E
  3
Linepattern
350
38
  3
Realistic
350
33
  3
Thicken
350
37
  0
DICTIONARY
  5
151
102
{ACAD_REACTORS
330
C
102
}
330
C
100
AcDbDictionary
281
     1
  3
CANNOSCALE
350
154
  0
LAYOUT
  5
1E
102
{ACAD_REACTORS
330
1A
102
}
330
1A
100
AcDbPlotSettings
  1

  2
none_device
  4

  6

 40
0.0
 41
0.0
 42
0.0
 43
0.0
 44
0.0
 45
0.0
 46
0.0
 47
0.0
 48
0.0
 49
0.0
140
0.0
141
0.0
142
1.0
143
1.0
 70
   688
 72
     0
 73
     0
 74
     5
  7

 75
    16
147
1.0
148
0.0
149
0.0
100
AcDbLayout
  1
Layout1
 70
     1
 71
     1
 10
0.0
 20
0.0
 11
12.0
 21
9.0
 12
0.0
 22
0.0
 32
0.0
 14
1.00000000000000E+20
 24
1.00000000000000E+20
 34
1.00000000000000E+20
 15
-1.00000000000000E+20
 25
-1.00000000000000E+20
 35
-1.00000000000000E+20
146
0.0
 13
0.0
 23
0.0
 33
0.0
 16
1.0
 26
0.0
 36
0.0
 17
0.0
 27
1.0
 37
0.0
 76
     0
330
1B
  0
LAYOUT
  5
26
102
{ACAD_REACTORS
330
1A
102
}
330
1A
100
AcDbPlotSettings
  1

  2
none_device
  4

  6

 40
0.0
 41
0.0
 42
0.0
 43
0.0
 44
0.0
 45
0.0
 46
0.0
 47
0.0
 48
0.0
 49
0.0
140
0.0
141
0.0
142
1.0
143
1.0
 70
   688
 72
     0
 73
     0
 74
     5
  7

 75
    16
147
1.0
148
0.0
149
0.0
100
AcDbLayout
  1
Layout2
 70
     1
 71
     2
 10
0.0
 20
0.0
 11
0.0
 21
0.0
 12
0.0
 22
0.0
 32
0.0
 14
0.0
 24
0.0
 34
0.0
 15
0.0
 25
0.0
 35
0.0
146
0.0
 13
0.0
 23
0.0
 33
0.0
 16
1.0
 26
0.0
 36
0.0
 17
0.0
 27
1.0
 37
0.0
 76
     0
330
23
  0
LAYOUT
  5
22
102
{ACAD_REACTORS
330
1A
102
}
330
1A
100
AcDbPlotSettings
  1

  2
none_device
  4

  6

 40
0.0
 41
0.0
 42
0.0
 43
0.0
 44
0.0
 45
0.0
 46
0.0
 47
0.0
 48
0.0
 49
0.0
140
0.0
141
0.0
142
1.0
143
1.0
 70
  1712
 72
     0
 73
     0
 74
     0
  7

 75
     0
147
1.0
148
0.0
149
0.0
100
AcDbLayout
  1
Model
 70
     1
 71
     0
 10
0.0
 20
0.0
 11
12.0
 21
9.0
 12
0.0
 22
0.0
 32
0.0
 14
-7.75676350369969
 24
234.8962627141
 34
0.0
 15
256.295575563314
 25
363.482552089358
 35
0.0
146
0.0
 13
0.0
 23
0.0
 33
0.0
 16
1.0
 26
0.0
 36
0.0
 17
0.0
 27
1.0
 37
0.0
 76
     0
330
1F
331
29
  0
MLINESTYLE
  5
18
102
{ACAD_REACTORS
330
17
102
}
330
17
100
AcDbMlineStyle
  2
Standard
 70
     0
  3

 62
   256
 51
90.0
 52
90.0
 71
     2
 49
0.5
 62
   256
  6
BYLAYER
 49
-0.5
 62
   256
  6
BYLAYER
  0
ACDBPLACEHOLDER
  5
F
102
{ACAD_REACTORS
330
E
102
}
330
E
  0
SCALE
  5
4B
102
{ACAD_REACTORS
330
4A
102
}
330
4A
100
AcDbScale
 70
     0
300
1:1
140
1.0
141
1.0
290
     1
  0
SCALE
  5
4C
102
{ACAD_REACTORS
330
4A
102
}
330
4A
100
AcDbScale
 70
     0
300
1:2
140
1.0
141
2.0
290
     0
  0
SCALE
  5
4D
102
{ACAD_REACTORS
330
4A
102
}
330
4A
100
AcDbScale
 70
     0
300
1:4
140
1.0
141
4.0
290
     0
  0
SCALE
  5
4E
102
{ACAD_REACTORS
330
4A
102
}
330
4A
100
AcDbScale
 70
     0
300
1:5
140
1.0
141
5.0
290
     0
  0
SCALE
  5
4F
102
{ACAD_REACTORS
330
4A
102
}
330
4A
100
AcDbScale
 70
     0
300
1:8
140
1.0
141
8.0
290
     0
  0
SCALE
  5
50
102
{ACAD_REACTORS
330
4A
102
}
330
4A
100
AcDbScale
 70
     0
300
1:10
140
1.0
141
10.0
290
     0
  0
SCALE
  5
51
102
{ACAD_REACTORS
330
4A
102
}
330
4A
100
AcDbScale
 70
     0
300
1:16
140
1.0
141
16.0
290
     0
  0
SCALE
  5
52
102
{ACAD_REACTORS
330
4A
102
}
330
4A
100
AcDbScale
 70
     0
300
1:20
140
1.0
141
20.0
290
     0
  0
SCALE
  5
53
102
{ACAD_REACTORS
330
4A
102
}
330
4A
100
AcDbScale
 70
     0
300
1:30
140
1.0
141
30.0
290
     0
  0
SCALE
  5
54
102
{ACAD_REACTORS
330
4A
102
}
330
4A
100
AcDbScale
 70
     0
300
1:40
140
1.0
141
40.0
290
     0
  0
SCALE
  5
55
102
{ACAD_REACTORS
330
4A
102
}
330
4A
100
AcDbScale
 70
     0
300
1:50
140
1.0
141
50.0
290
     0
  0
SCALE
  5
56
102
{ACAD_REACTORS
330
4A
102
}
330
4A
100
AcDbScale
 70
     0
300
1:100
140
1.0
141
100.0
290
     0
  0
SCALE
  5
57
102
{ACAD_REACTORS
330
4A
102
}
330
4A
100
AcDbScale
 70
     0
300
2:1
140
2.0
141
1.0
290
     0
  0
SCALE
  5
58
102
{ACAD_REACTORS
330
4A
102
}
330
4A
100
AcDbScale
 70
     0
300
4:1
140
4.0
141
1.0
290
     0
  0
SCALE
  5
59
102
{ACAD_REACTORS
330
4A
102
}
330
4A
100
AcDbScale
 70
     0
300
8:1
140
8.0
141
1.0
290
     0
  0
SCALE
  5
5A
102
{ACAD_REACTORS
330
4A
102
}
330
4A
100
AcDbScale
 70
     0
300
10:1
140
10.0
141
1.0
290
     0
  0
SCALE
  5
5B
102
{ACAD_REACTORS
330
4A
102
}
330
4A
100
AcDbScale
 70
     0
300
100:1
140
100.0
141
1.0
290
     0
  0
SCALE
  5
5C
102
{ACAD_REACTORS
330
4A
102
}
330
4A
100
AcDbScale
 70
     0
300
1/128" = 1'-0"
140
0.0078125
141
12.0
290
     0
  0
SCALE
  5
5D
102
{ACAD_REACTORS
330
4A
102
}
330
4A
100
AcDbScale
 70
     0
300
1/64" = 1'-0"
140
0.015625
141
12.0
290
     0
  0
SCALE
  5
5E
102
{ACAD_REACTORS
330
4A
102
}
330
4A
100
AcDbScale
 70
     0
300
1/32" = 1'-0"
140
0.03125
141
12.0
290
     0
  0
SCALE
  5
5F
102
{ACAD_REACTORS
330
4A
102
}
330
4A
100
AcDbScale
 70
     0
300
1/16" = 1'-0"
140
0.0625
141
12.0
290
     0
  0
SCALE
  5
60
102
{ACAD_REACTORS
330
4A
102
}
330
4A
100
AcDbScale
 70
     0
300
3/32" = 1'-0"
140
0.09375
141
12.0
290
     0
  0
SCALE
  5
61
102
{ACAD_REACTORS
330
4A
102
}
330
4A
100
AcDbScale
 70
     0
300
1/8" = 1'-0"
140
0.125
141
12.0
290
     0
  0
SCALE
  5
62
102
{ACAD_REACTORS
330
4A
102
}
330
4A
100
AcDbScale
 70
     0
300
3/16" = 1'-0"
140
0.1875
141
12.0
290
     0
  0
SCALE
  5
63
102
{ACAD_REACTORS
330
4A
102
}
330
4A
100
AcDbScale
 70
     0
300
1/4" = 1'-0"
140
0.25
141
12.0
290
     0
  0
SCALE
  5
64
102
{ACAD_REACTORS
330
4A
102
}
330
4A
100
AcDbScale
 70
     0
300
3/8" = 1'-0"
140
0.375
141
12.0
290
     0
  0
SCALE
  5
65
102
{ACAD_REACTORS
330
4A
102
}
330
4A
100
AcDbScale
 70
     0
300
1/2" = 1'-0"
140
0.5
141
12.0
290
     0
  0
SCALE
  5
66
102
{ACAD_REACTORS
330
4A
102
}
330
4A
100
AcDbScale
 70
     0
300
3/4" = 1'-0"
140
0.75
141
12.0
290
     0
  0
SCALE
  5
67
102
{ACAD_REACTORS
330
4A
102
}
330
4A
100
AcDbScale
 70
     0
300
1" = 1'-0"
140
1.0
141
12.0
290
     0
  0
SCALE
  5
68
102
{ACAD_REACTORS
330
4A
102
}
330
4A
100
AcDbScale
 70
     0
300
1-1/2" = 1'-0"
140
1.5
141
12.0
290
     0
  0
SCALE
  5
69
102
{ACAD_REACTORS
330
4A
102
}
330
4A
100
AcDbScale
 70
     0
300
3" = 1'-0"
140
3.0
141
12.0
290
     0
  0
SCALE
  5
6A
102
{ACAD_REACTORS
330
4A
102
}
330
4A
100
AcDbScale
 70
     0
300
6" = 1'-0"
140
6.0
141
12.0
290
     0
  0
SCALE
  5
6B
102
{ACAD_REACTORS
330
4A
102
}
330
4A
100
AcDbScale
 70
     0
300
1'-0" = 1'-0"
140
12.0
141
12.0
290
     0
  0
VISUALSTYLE
  5
2F
102
{ACAD_REACTORS
330
2A
102
}
330
2A
100
AcDbVisualStyle
  2
2dWireframe
 70
     4
 71
     0
 72
     2
 73
     0
 90
        0
 40
-0.6
 41
-30.0
 62
     5
 63
     7
 74
     1
 91
        4
 64
     7
 65
   257
 75
     1
175
     1
 42
1.0
 92
        0
 66
   257
 43
1.0
 76
     1
 77
     6
 78
     2
 67
     7
 79
     5
170
     0
171
     0
290
     0
174
     0
 93
        1
 44
0.0
173
     0
291
     0
 45
0.0
1001
ACAD
1000
AcDbSavedByObjectVersion
1070
     0
  0
VISUALSTYLE
  5
31
102
{ACAD_REACTORS
330
2A
102
}
330
2A
100
AcDbVisualStyle
  2
3D Hidden
 70
     6
 71
     1
 72
     2
 73
     2
 90
        0
 40
-0.6
 41
-30.0
 62
     5
 63
     7
 74
     2
 91
        2
 64
     7
 65
   257
 75
     2
175
     1
 42
40.0
 92
        0
 66
   257
 43
1.0
 76
     1
 77
     6
 78
     2
 67
     7
 79
     3
170
     0
171
     0
290
     0
174
     0
 93
        1
 44
0.0
173
     0
291
     0
 45
0.0
1001
ACAD
1000
AcDbSavedByObjectVersion
1070
     0
  0
VISUALSTYLE
  5
30
102
{ACAD_REACTORS
330
2A
102
}
330
2A
100
AcDbVisualStyle
  2
3dWireframe
 70
     5
 71
     0
 72
     2
 73
     0
 90
        0
 40
-0.6
 41
-30.0
 62
     5
 63
     7
 74
     1
 91
        4
 64
     7
 65
   257
 75
     1
175
     1
 42
1.0
 92
        0
 66
   257
 43
1.0
 76
     1
 77
     6
 78
     2
 67
     7
 79
     5
170
     0
171
     0
290
     0
174
     0
 93
        1
 44
0.0
173
     0
291
     0
 45
0.0
1001
ACAD
1000
AcDbSavedByObjectVersion
1070
     0
  0
VISUALSTYLE
  5
32
102
{ACAD_REACTORS
330
2A
102
}
330
2A
100
AcDbVisualStyle
  2
Basic
 70
     7
 71
     1
 72
     0
 73
     1
 90
        0
 40
-0.6
 41
-30.0
 62
     5
 63
     7
 74
     0
 91
        4
 64
     7
 65
   257
 75
     1
175
     1
 42
1.0
 92
        8
 66
     7
 43
1.0
 76
     1
 77
     6
 78
     2
 67
     7
 79
     5
170
     0
171
     0
290
     0
174
     0
 93
        1
 44
0.0
173
     0
291
     1
 45
0.0
1001
ACAD
1000
AcDbSavedByObjectVersion
1070
     0
  0
VISUALSTYLE
  5
36
102
{ACAD_REACTORS
330
2A
102
}
330
2A
100
AcDbVisualStyle
  2
Brighten
 70
    12
 71
     2
 72
     2
 73
     0
 90
        0
 40
-0.6
 41
-30.0
 62
     5
 63
     7
 74
     1
 91
        4
 64
     7
 65
   257
 75
     1
175
     1
 42
1.0
 92
        8
 66
     7
 43
1.0
 76
     1
 77
     6
 78
     2
 67
     7
 79
     5
170
     0
171
     0
290
     0
174
     0
 93
        1
 44
50.0
173
     0
291
     1
 45
0.0
1001
ACAD
1000
AcDbSavedByObjectVersion
1070
     0
  0
VISUALSTYLE
  5
3A
102
{ACAD_REACTORS
330
2A
102
}
330
2A
100
AcDbVisualStyle
  2
ColorChange
 70
    16
 71
     2
 72
     2
 73
     3
 90
        0
 40
-0.6
 41
-30.0
 62
     5
 63
     8
 74
     1
 91
        4
 64
     7
 65
   257
 75
     1
175
     1
 42
1.0
 92
        8
 66
     8
 43
1.0
 76
     1
 77
     6
 78
     2
 67
     7
 79
     5
170
     0
171
     0
290
     0
174
     0
 93
        1
 44
0.0
173
     0
291
     1
 45
0.0
1001
ACAD
1000
AcDbSavedByObjectVersion
1070
     0
  0
VISUALSTYLE
  5
34
102
{ACAD_REACTORS
330
2A
102
}
330
2A
100
AcDbVisualStyle
  2
Conceptual
 70
     9
 71
     3
 72
     2
 73
     0
 90
        0
 40
-0.6
 41
-30.0
 62
     5
 63
     7
 74
     2
 91
        2
 64
     7
 65
   257
 75
     1
175
     1
 42
40.0
 92
        8
 66
     7
 43
1.0
 76
     1
 77
     6
 78
     2
 67
     7
 79
     3
170
     0
171
     0
290
     0
174
     0
 93
        1
 44
0.0
173
     0
291
     0
 45
0.0
1001
ACAD
1000
AcDbSavedByObjectVersion
1070
     0
  0
VISUALSTYLE
  5
35
102
{ACAD_REACTORS
330
2A
102
}
330
2A
100
AcDbVisualStyle
  2
Dim
 70
    11
 71
     2
 72
     2
 73
     0
 90
        0
 40
-0.6
 41
-30.0
 62
     5
 63
     7
 74
     1
 91
        4
 64
     7
 65
   257
 75
     1
175
     1
 42
1.0
 92
        8
 66
     7
 43
1.0
 76
     1
 77
     6
 78
     2
 67
     7
 79
     5
170
     0
171
     0
290
     0
174
     0
 93
        1
 44
-50.0
173
     0
291
     1
 45
0.0
1001
ACAD
1000
AcDbSavedByObjectVersion
1070
     0
  0
VISUALSTYLE
  5
39
102
{ACAD_REACTORS
330
2A
102
}
330
2A
100
AcDbVisualStyle
  2
Facepattern
 70
    15
 71
     2
 72
     2
 73
     0
 90
        0
 40
-0.6
 41
-30.0
 62
     5
 63
     7
 74
     1
 91
        4
 64
     7
 65
   257
 75
     1
175
     1
 42
1.0
 92
        8
 66
     7
 43
1.0
 76
     1
 77
     6
 78
     2
 67
     7
 79
     5
170
     0
171
     0
290
     0
174
     0
 93
        1
 44
0.0
173
     0
291
     1
 45
0.0
1001
ACAD
1000
AcDbSavedByObjectVersion
1070
     0
  0
VISUALSTYLE
  5
2B
102
{ACAD_REACTORS
330
2A
102
}
330
2A
100
AcDbVisualStyle
  2
Flat
 70
     0
 71
     2
 72
     1
 73
     1
 90
        2
 40
-0.6
 41
30.0
 62
     5
 63
     7
 74
     0
 91
        4
 64
     7
 65
   257
 75
     1
175
     1
 42
1.0
 92
        8
 66
     7
 43
1.0
 76
     1
 77
     6
 78
     2
 67
     7
 79
     5
170
     0
171
     0
290
     0
174
     0
 93
       13
 44
0.0
173
     0
291
     1
 45
0.0
1001
ACAD
1000
AcDbSavedByObjectVersion
1070
     0
  0
VISUALSTYLE
  5
2C
102
{ACAD_REACTORS
330
2A
102
}
330
2A
100
AcDbVisualStyle
  2
FlatWithEdges
 70
     1
 71
     2
 72
     1
 73
     1
 90
        2
 40
-0.6
 41
30.0
 62
     5
 63
     7
 74
     1
 91
        4
 64
     7
 65
   257
 75
     1
175
     1
 42
1.0
 92
        0
 66
   257
 43
1.0
 76
     1
 77
     6
 78
     2
 67
     7
 79
     5
170
     0
171
     0
290
     0
174
     0
 93
       13
 44
0.0
173
     0
291
     1
 45
0.0
1001
ACAD
1000
AcDbSavedByObjectVersion
1070
     0
  0
VISUALSTYLE
  5
2D
102
{ACAD_REACTORS
330
2A
102
}
330
2A
100
AcDbVisualStyle
  2
Gouraud
 70
     2
 71
     2
 72
     2
 73
     1
 90
        2
 40
-0.6
 41
30.0
 62
     5
 63
     7
 74
     0
 91
        4
 64
     7
 65
   257
 75
     1
175
     1
 42
1.0
 92
        0
 66
     7
 43
1.0
 76
     1
 77
     6
 78
     2
 67
     7
 79
     5
170
     0
171
     0
290
     0
174
     0
 93
       13
 44
0.0
173
     0
291
     1
 45
0.0
1001
ACAD
1000
AcDbSavedByObjectVersion
1070
     0
  0
VISUALSTYLE
  5
2E
102
{ACAD_REACTORS
330
2A
102
}
330
2A
100
AcDbVisualStyle
  2
GouraudWithEdges
 70
     3
 71
     2
 72
     2
 73
     1
 90
        2
 40
-0.6
 41
30.0
 62
     5
 63
     7
 74
     1
 91
        4
 64
     7
 65
   257
 75
     1
175
     1
 42
1.0
 92
        0
 66
   257
 43
1.0
 76
     1
 77
     6
 78
     2
 67
     7
 79
     5
170
     0
171
     0
290
     0
174
     0
 93
       13
 44
0.0
173
     0
291
     1
 45
0.0
1001
ACAD
1000
AcDbSavedByObjectVersion
1070
     0
  0
VISUALSTYLE
  5
38
102
{ACAD_REACTORS
330
2A
102
}
330
2A
100
AcDbVisualStyle
  2
Linepattern
 70
    14
 71
     2
 72
     2
 73
     0
 90
        0
 40
-0.6
 41
-30.0
 62
     5
 63
     7
 74
     1
 91
        4
 64
     7
 65
   257
 75
     7
175
     7
 42
1.0
 92
        8
 66
     7
 43
1.0
 76
     1
 77
     6
 78
     2
 67
     7
 79
     5
170
     0
171
     0
290
     0
174
     0
 93
        1
 44
0.0
173
     0
291
     1
 45
0.0
1001
ACAD
1000
AcDbSavedByObjectVersion
1070
     0
  0
VISUALSTYLE
  5
33
102
{ACAD_REACTORS
330
2A
102
}
330
2A
100
AcDbVisualStyle
  2
Realistic
 70
     8
 71
     2
 72
     2
 73
     0
 90
        0
 40
-0.6
 41
-30.0
 62
     5
 63
     7
 74
     1
 91
        0
 64
     7
 65
   257
 75
     1
175
     1
 42
1.0
 92
        8
 66
     8
 43
1.0
 76
     1
 77
     6
 78
     2
 67
     7
 79
     5
170
     0
171
     0
290
     0
174
     0
 93
       13
 44
0.0
173
     0
291
     0
 45
0.0
1001
ACAD
1000
AcDbSavedByObjectVersion
1070
     0
  0
VISUALSTYLE
  5
37
102
{ACAD_REACTORS
330
2A
102
}
330
2A
100
AcDbVisualStyle
  2
Thicken
 70
    13
 71
     2
 72
     2
 73
     0
 90
        0
 40
-0.6
 41
-30.0
 62
     5
 63
     7
 74
     1
 91
        4
 64
     7
 65
   257
 75
     1
175
     1
 42
1.0
 92
       12
 66
     7
 43
1.0
 76
     1
 77
     6
 78
     2
 67
     7
 79
     5
170
     0
171
     0
290
     0
174
     0
 93
        1
 44
0.0
173
     0
291
     1
 45
0.0
1001
ACAD
1000
AcDbSavedByObjectVersion
1070
     0
  0
DICTIONARYVAR
  5
154
102
{ACAD_REACTORS
330
151
102
}
330
151
100
DictionaryVariables
280
     0
  1
1:1
  0
ENDSEC
  0
EOF
