  0
SECTION
  2
HEADER
  9
$ACADVER
  1
AC1015
  9
$ACADMAINTVER
 70
     6
  9
$DWGCODEPAGE
  3
ANSI_1252
  9
$INSBASE
 10
0.0
 20
0.0
 30
0.0
  9
$EXTMIN
 10
13.2297855004425
 20
240.3964467345
 30
0.0
  9
$EXTMAX
 10
277.979440171513
 20
369.208004877204
 30
0.0
  9
$LIMMIN
 10
0.0
 20
0.0
  9
$LIMMAX
 10
12.0
 20
9.0
  9
$ORTHOMODE
 70
     0
  9
$REGENMODE
 70
     1
  9
$FILLMODE
 70
     1
  9
$QTEXTMODE
 70
     0
  9
$MIRRTEXT
 70
     1
  9
$LTSCALE
 40
1.0
  9
$ATTMODE
 70
     1
  9
$TEXTSIZE
 40
0.2
  9
$TRACEWID
 40
0.05
  9
$TEXTSTYLE
  7
Standard
  9
$CLAYER
  8
0
  9
$CELTYPE
  6
ByLayer
  9
$CECOLOR
 62
   256
  9
$CELTSCALE
 40
1.0
  9
$DISPSILH
 70
     0
  9
$DIMSCALE
 40
1.0
  9
$DIMASZ
 40
0.18
  9
$DIMEXO
 40
0.0625
  9
$DIMDLI
 40
0.38
  9
$DIMRND
 40
0.0
  9
$DIMDLE
 40
0.0
  9
$DIMEXE
 40
0.18
  9
$DIMTP
 40
0.0
  9
$DIMTM
 40
0.0
  9
$DIMTXT
 40
0.18
  9
$DIMCEN
 40
0.09
  9
$DIMTSZ
 40
0.0
  9
$DIMTOL
 70
     0
  9
$DIMLIM
 70
     0
  9
$DIMTIH
 70
     1
  9
$DIMTOH
 70
     1
  9
$DIMSE1
 70
     0
  9
$DIMSE2
 70
     0
  9
$DIMTAD
 70
     0
  9
$DIMZIN
 70
     0
  9
$DIMBLK
  1

  9
$DIMASO
 70
     1
  9
$DIMSHO
 70
     1
  9
$DIMPOST
  1

  9
$DIMAPOST
  1

  9
$DIMALT
 70
     0
  9
$DIMALTD
 70
     2
  9
$DIMALTF
 40
25.4
  9
$DIMLFAC
 40
1.0
  9
$DIMTOFL
 70
     0
  9
$DIMTVP
 40
0.0
  9
$DIMTIX
 70
     0
  9
$DIMSOXD
 70
     0
  9
$DIMSAH
 70
     0
  9
$DIMBLK1
  1

  9
$DIMBLK2
  1

  9
$DIMSTYLE
  2
Standard
  9
$DIMCLRD
 70
     0
  9
$DIMCLRE
 70
     0
  9
$DIMCLRT
 70
     0
  9
$DIMTFAC
 40
1.0
  9
$DIMGAP
 40
0.09
  9
$DIMJUST
 70
     0
  9
$DIMSD1
 70
     0
  9
$DIMSD2
 70
     0
  9
$DIMTOLJ
 70
     1
  9
$DIMTZIN
 70
     0
  9
$DIMALTZ
 70
     0
  9
$DIMALTTZ
 70
     0
  9
$DIMUPT
 70
     0
  9
$DIMDEC
 70
     4
  9
$DIMTDEC
 70
     4
  9
$DIMALTU
 70
     2
  9
$DIMALTTD
 70
     2
  9
$DIMTXSTY
  7
Standard
  9
$DIMAUNIT
 70
     0
  9
$DIMADEC
 70
     0
  9
$DIMALTRND
 40
0.0
  9
$DIMAZIN
 70
     0
  9
$DIMDSEP
 70
    46
  9
$DIMATFIT
 70
     3
  9
$DIMFRAC
 70
     0
  9
$DIMLDRBLK
  1

  9
$DIMLUNIT
 70
     2
  9
$DIMLWD
 70
    -2
  9
$DIMLWE
 70
    -2
  9
$DIMTMOVE
 70
     0
  9
$LUNITS
 70
     2
  9
$LUPREC
 70
     4
  9
$SKETCHINC
 40
0.1
  9
$FILLETRAD
 40
0.5
  9
$AUNITS
 70
     0
  9
$AUPREC
 70
     0
  9
$MENU
  1
.
  9
$ELEVATION
 40
0.0
  9
$PELEVATION
 40
0.0
  9
$THICKNESS
 40
0.0
  9
$LIMCHECK
 70
     0
  9
$CHAMFERA
 40
0.5
  9
$CHAMFERB
 40
0.5
  9
$CHAMFERC
 40
1.0
  9
$CHAMFERD
 40
0.0
  9
$SKPOLY
 70
     0
  9
$TDCREATE
 40
2456748.730573785
  9
$TDUCREATE
 40
2456748.647240452
  9
$TDUPDATE
 40
2456748.730573796
  9
$TDUUPDATE
 40
2456748.647240463
  9
$TDINDWG
 40
0.0000000116
  9
$TDUSRTIMER
 40
0.0000000116
  9
$USRTIMER
 70
     1
  9
$ANGBASE
 50
0.0
  9
$ANGDIR
 70
     0
  9
$PDMODE
 70
     0
  9
$PDSIZE
 40
0.0
  9
$PLINEWID
 40
0.0
  9
$SPLFRAME
 70
     0
  9
$SPLINETYPE
 70
     6
  9
$SPLINESEGS
 70
     8
  9
$HANDSEED
  5
155
  9
$SURFTAB1
 70
     6
  9
$SURFTAB2
 70
     6
  9
$SURFTYPE
 70
     6
  9
$SURFU
 70
     6
  9
$SURFV
 70
     6
  9
$UCSBASE
  2

  9
$UCSNAME
  2

  9
$UCSORG
 10
0.0
 20
0.0
 30
0.0
  9
$UCSXDIR
 10
1.0
 20
0.0
 30
0.0
  9
$UCSYDIR
 10
0.0
 20
1.0
 30
0.0
  9
$UCSORTHOREF
  2

  9
$UCSORTHOVIEW
 70
     0
  9
$UCSORGTOP
 10
0.0
 20
0.0
 30
0.0
  9
$UCSORGBOTTOM
 10
0.0
 20
0.0
 30
0.0
  9
$UCSORGLEFT
 10
0.0
 20
0.0
 30
0.0
  9
$UCSORGRIGHT
 10
0.0
 20
0.0
 30
0.0
  9
$UCSORGFRONT
 10
0.0
 20
0.0
 30
0.0
  9
$UCSORGBACK
 10
0.0
 20
0.0
 30
0.0
  9
$PUCSBASE
  2

  9
$PUCSNAME
  2

  9
$PUCSORG
 10
0.0
 20
0.0
 30
0.0
  9
$PUCSXDIR
 10
1.0
 20
0.0
 30
0.0
  9
$PUCSYDIR
 10
0.0
 20
1.0
 30
0.0
  9
$PUCSORTHOREF
  2

  9
$PUCSORTHOVIEW
 70
     0
  9
$PUCSORGTOP
 10
0.0
 20
0.0
 30
0.0
  9
$PUCSORGBOTTOM
 10
0.0
 20
0.0
 30
0.0
  9
$PUCSORGLEFT
 10
0.0
 20
0.0
 30
0.0
  9
$PUCSORGRIGHT
 10
0.0
 20
0.0
 30
0.0
  9
$PUCSORGFRONT
 10
0.0
 20
0.0
 30
0.0
  9
$PUCSORGBACK
 10
0.0
 20
0.0
 30
0.0
  9
$USERI1
 70
     0
  9
$USERI2
 70
     0
  9
$USERI3
 70
     0
  9
$USERI4
 70
     0
  9
$USERI5
 70
     0
  9
$USERR1
 40
16.5
  9
$USERR2
 40
0.0
  9
$USERR3
 40
0.0
  9
$USERR4
 40
0.0
  9
$USERR5
 40
0.0
  9
$WORLDVIEW
 70
     1
  9
$SHADEDGE
 70
     3
  9
$SHADEDIF
 70
    70
  9
$TILEMODE
 70
     1
  9
$MAXACTVP
 70
    64
  9
$PINSBASE
 10
0.0
 20
0.0
 30
0.0
  9
$PLIMCHECK
 70
     0
  9
$PEXTMIN
 10
1.00000000000000E+20
 20
1.00000000000000E+20
 30
1.00000000000000E+20
  9
$PEXTMAX
 10
-1.00000000000000E+20
 20
-1.00000000000000E+20
 30
-1.00000000000000E+20
  9
$PLIMMIN
 10
0.0
 20
0.0
  9
$PLIMMAX
 10
12.0
 20
9.0
  9
$UNITMODE
 70
     0
  9
$VISRETAIN
 70
     1
  9
$PLINEGEN
 70
     0
  9
$PSLTSCALE
 70
     1
  9
$TREEDEPTH
 70
  3020
  9
$CMLSTYLE
  2
Standard
  9
$CMLJUST
 70
     0
  9
$CMLSCALE
 40
1.0
  9
$PROXYGRAPHICS
 70
     1
  9
$MEASUREMENT
 70
     1
  9
$CELWEIGHT
370
    -1
  9
$ENDCAPS
280
     0
  9
$JOINSTYLE
280
     0
  9
$LWDISPLAY
290
     0
  9
$INSUNITS
 70
     1
  9
$HYPERLINKBASE
  1

  9
$STYLESHEET
  1

  9
$XEDIT
290
     1
  9
$CEPSNTYPE
380
     0
  9
$PSTYLEMODE
290
     1
  9
$FINGERPRINTGUID
  2
{A8CBE7AD-E9A5-4F06-A449-197A69784DB2}
  9
$VERSIONGUID
  2
{FAEB1C32-E019-11D5-929B-00C0DF256EC4}
  9
$EXTNAMES
290
     1
  9
$PSVPSCALE
 40
0.0
  9
$OLESTARTUP
290
     0
  0
ENDSEC
  0
SECTION
  2
CLASSES
  0
CLASS
  1
ACDBDICTIONARYWDFLT
  2
AcDbDictionaryWithDefault
  3
ObjectDBX Classes
 90
        0
280
     0
281
     0
  0
CLASS
  1
VISUALSTYLE
  2
AcDbVisualStyle
  3
ObjectDBX Classes
 90
     4095
280
     0
281
     0
  0
CLASS
  1
SCALE
  2
AcDbScale
  3
ObjectDBX Classes
 90
     1153
280
     0
281
     0
  0
CLASS
  1

  2
exOdDbPolyline
  3

 90
        0
280
     0
281
     1
  0
CLASS
  1

  2
exOdDbCircle
  3

 90
        0
280
     0
281
     1
  0
CLASS
  1

  2
exOdDbSpline
  3

 90
        0
280
     0
281
     1
  0
CLASS
  1
DICTIONARYVAR
  2
AcDbDictionaryVar
  3
ObjectDBX Classes
 90
        0
280
     0
281
     0
  0
CLASS
  1
ACDBPLACEHOLDER
  2
AcDbPlaceHolder
  3
ObjectDBX Classes
 90
        0
280
     0
281
     0
  0
CLASS
  1
LAYOUT
  2
AcDbLayout
  3
ObjectDBX Classes
 90
        0
280
     0
281
     0
  0
ENDSEC
  0
SECTION
  2
TABLES
  0
TABLE
  2
VPORT
  5
8
330
0
100
AcDbSymbolTable
 70
     1
  0
VPORT
  5
29
330
8
100
AcDbSymbolTableRecord
100
AcDbViewportTableRecord
  2
*Active
 70
     0
 10
0.0
 20
0.0
 11
1.0
 21
1.0
 12
145.6046128359777
 22
304.802225805852
 13
0.0
 23
0.0
 14
0.5
 24
0.5
 15
0.5
 25
0.5
 16
0.0
 26
0.0
 36
1.0
 17
0.0
 27
0.0
 37
0.0
 40
181.711183595966
 41
1.60267857142857
 42
50.0
 43
0.0
 44
0.0
 50
0.0
 51
0.0
 71
     0
 72
   100
 73
     1
 74
     3
 75
     0
 76
     0
 77
     0
 78
     0
281
     0
 65
     1
110
0.0
120
0.0
130
0.0
111
1.0
121
0.0
131
0.0
112
0.0
122
1.0
132
0.0
 79
     0
146
0.0
  0
ENDTAB
  0
TABLE
  2
LTYPE
  5
5
330
0
100
AcDbSymbolTable
 70
     8
  0
LTYPE
  5
14
330
5
100
AcDbSymbolTableRecord
100
AcDbLinetypeTableRecord
  2
ByBlock
 70
     0
  3

 72
    65
 73
     0
 40
0.0
  0
LTYPE
  5
15
330
5
100
AcDbSymbolTableRecord
100
AcDbLinetypeTableRecord
  2
ByLayer
 70
     0
  3

 72
    65
 73
     0
 40
0.0
  0
LTYPE
  5
16
330
5
100
AcDbSymbolTableRecord
100
AcDbLinetypeTableRecord
  2
Continuous
 70
     0
  3
Solid line
 72
    65
 73
     0
 40
0.0
  0
LTYPE
  5
3B
330
5
100
AcDbSymbolTableRecord
100
AcDbLinetypeTableRecord
  2
DASHED
 70
     0
  3
Dashed
 72
    65
 73
     2
 40
15.0
 49
7.0
 74
     0
 49
-8.0
 74
     0
  0
LTYPE
  5
3C
330
5
100
AcDbSymbolTableRecord
100
AcDbLinetypeTableRecord
  2
DOTTED
 70
     0
  3
Dotted
 72
    65
 73
     2
 40
1.0
 49
0.0
 74
     0
 49
-1.0
 74
     0
  0
LTYPE
  5
3D
330
5
100
AcDbSymbolTableRecord
100
AcDbLinetypeTableRecord
  2
DOT_CENTER
 70
     0
  3
Dot_Center
 72
    65
 73
     4
 40
14.0
 49
12.0
 74
     0
 49
-1.0
 74
     0
 49
0.0
 74
     0
 49
-1.0
 74
     0
  0
LTYPE
  5
3E
330
5
100
AcDbSymbolTableRecord
100
AcDbLinetypeTableRecord
  2
LONG_DASHED
 70
     0
  3
Long_Dashed
 72
    65
 73
     2
 40
15.0
 49
10.0
 74
     0
 49
-5.0
 74
     0
  0
LTYPE
  5
3F
330
5
100
AcDbSymbolTableRecord
100
AcDbLinetypeTableRecord
  2
DASH_CENTER
 70
     0
  3
Dash_Center
 72
    65
 73
     4
 40
14.0
 49
11.0
 74
     0
 49
-1.0
 74
     0
 49
1.0
 74
     0
 49
-1.0
 74
     0
  0
LTYPE
  5
40
330
5
100
AcDbSymbolTableRecord
100
AcDbLinetypeTableRecord
  2
PHANTOM
 70
     0
  3
Phantom
 72
    65
 73
     6
 40
13.0
 49
10.0
 74
     0
 49
-1.0
 74
     0
 49
0.0
 74
     0
 49
-1.0
 74
     0
 49
0.0
 74
     0
 49
-1.0
 74
     0
  0
LTYPE
  5
41
330
5
100
AcDbSymbolTableRecord
100
AcDbLinetypeTableRecord
  2
CENTER_DASH_DASH
 70
     0
  3
Center_Dash_Dash
 72
    65
 73
     6
 40
14.0
 49
9.0
 74
     0
 49
-1.0
 74
     0
 49
1.0
 74
     0
 49
-1.0
 74
     0
 49
1.0
 74
     0
 49
-1.0
 74
     0
  0
ENDTAB
  0
TABLE
  2
LAYER
  5
2
330
0
100
AcDbSymbolTable
 70
     6
  0
LAYER
  5
10
330
2
100
AcDbSymbolTableRecord
100
AcDbLayerTableRecord
  2
0
 70
     0
 62
     7
  6
Continuous
370
    -3
390
F
  0
LAYER
  5
42
330
2
100
AcDbSymbolTableRecord
100
AcDbLayerTableRecord
  2
1
 70
     0
 62
     7
  6
Continuous
370
    -3
390
F
  0
LAYER
  5
43
330
2
100
AcDbSymbolTableRecord
100
AcDbLayerTableRecord
  2
BEZUGSACHSEN
 70
     0
 62
     7
  6
Continuous
370
    -3
390
F
  0
LAYER
  5
44
330
2
100
AcDbSymbolTableRecord
100
AcDbLayerTableRecord
  2
DEFAULT_2
 70
     0
 62
     7
  6
Continuous
370
    -3
390
F
  0
LAYER
  5
45
330
2
100
AcDbSymbolTableRecord
100
AcDbLayerTableRecord
  2
FASEN
 70
     0
 62
     7
  6
Continuous
370
    -3
390
F
  0
LAYER
  5
46
330
2
100
AcDbSymbolTableRecord
100
AcDbLayerTableRecord
  2
RUNDUNGEN
 70
     0
 62
     7
  6
Continuous
370
    -3
390
F
  0
ENDTAB
  0
TABLE
  2
STYLE
  5
3
330
0
100
AcDbSymbolTable
 70
     2
  0
STYLE
  5
11
330
3
100
AcDbSymbolTableRecord
100
AcDbTextStyleTableRecord
  2
Standard
 70
     0
 40
0.0
 41
1.0
 50
0.0
 71
     0
 42
0.2
  3
txt
  4

  0
STYLE
  5
6D
330
3
100
AcDbSymbolTableRecord
100
AcDbTextStyleTableRecord
  2
CONVERTER_11
 70
     0
 40
0.0
 41
0.72
 50
0.0
 71
     0
 42
0.2
  3
txt.shx
  4

  0
ENDTAB
  0
TABLE
  2
VIEW
  5
6
330
0
100
AcDbSymbolTable
 70
     0
  0
ENDTAB
  0
TABLE
  2
UCS
  5
7
330
0
100
AcDbSymbolTable
 70
     0
  0
ENDTAB
  0
TABLE
  2
APPID
  5
9
330
0
100
AcDbSymbolTable
 70
     1
  0
APPID
  5
12
330
9
100
AcDbSymbolTableRecord
100
AcDbRegAppTableRecord
  2
ACAD
 70
     0
  0
ENDTAB
  0
TABLE
  2
DIMSTYLE
  5
A
330
0
100
AcDbSymbolTable
 70
     8
100
AcDbDimStyleTable
  0
DIMSTYLE
105
27
330
A
100
AcDbSymbolTableRecord
100
AcDbDimStyleTableRecord
  2
Standard
 70
     0
340
11
  0
DIMSTYLE
105
106
102
{ACAD_REACTORS
330
107
102
}
330
A
100
AcDbSymbolTableRecord
100
AcDbDimStyleTableRecord
  2
ME10_DIM_10
 70
     0
  3
\U+2300<>
 41
3.5
 42
2.0
 44
2.0
 71
     1
 73
     0
 74
     0
 77
     1
 78
     8
140
3.5
146
0.7
147
2.0
172
     1
173
     1
176
     2
177
     2
178
     3
271
     2
272
     0
340
6D
  0
DIMSTYLE
105
111
102
{ACAD_REACTORS
330
112
102
}
330
A
100
AcDbSymbolTableRecord
100
AcDbDimStyleTableRecord
  2
ME10_DIM_11
 70
     0
  3
\U+2300<>
 41
3.5
 42
2.0
 44
2.0
 71
     1
 73
     0
 74
     0
 77
     1
 78
     8
140
3.5
146
0.7
147
2.0
172
     1
173
     1
176
     2
177
     2
178
     3
271
     2
272
     0
340
6D
  0
DIMSTYLE
105
11C
102
{ACAD_REACTORS
330
11D
102
}
330
A
100
AcDbSymbolTableRecord
100
AcDbDimStyleTableRecord
  2
ME10_DIM_12
 70
     0
  3
\U+2300<>
 41
3.5
 42
2.0
 44
2.0
 71
     1
 73
     0
 74
     0
 77
     1
 78
     8
140
3.5
146
0.7
147
2.0
172
     1
173
     1
176
     2
177
     2
178
     3
271
     2
272
     0
340
6D
  0
DIMSTYLE
105
127
102
{ACAD_REACTORS
330
128
102
}
330
A
100
AcDbSymbolTableRecord
100
AcDbDimStyleTableRecord
  2
ME10_DIM_13
 70
     0
  3
<>
 41
3.5
 42
2.0
 44
2.0
 71
     1
 73
     0
 74
     0
 77
     1
 78
     8
140
3.5
146
0.7
147
2.0
172
     1
173
     1
176
     2
177
     2
178
     3
271
     2
272
     0
340
6D
  0
DIMSTYLE
105
132
102
{ACAD_REACTORS
330
133
102
}
330
A
100
AcDbSymbolTableRecord
100
AcDbDimStyleTableRecord
  2
ME10_DIM_14
 70
     0
  3
<>
 41
3.5
 42
2.0
 44
2.0
 71
     1
 73
     0
 74
     0
 77
     1
 78
     8
140
3.5
146
0.7
147
2.0
172
     1
173
     1
176
     2
177
     2
178
     3
271
     2
272
     0
340
6D
  0
DIMSTYLE
105
13D
102
{ACAD_REACTORS
330
13E
102
}
330
A
100
AcDbSymbolTableRecord
100
AcDbDimStyleTableRecord
  2
ME10_DIM_15
 70
     0
  3
<>
 41
3.5
 42
2.0
 44
2.0
 71
     1
 73
     0
 74
     0
 77
     1
 78
     8
140
3.5
146
0.7
147
2.0
172
     1
173
     1
176
     2
177
     2
178
     3
271
     2
272
     0
340
6D
  0
DIMSTYLE
105
14F
102
{ACAD_REACTORS
330
150
102
}
330
A
100
AcDbSymbolTableRecord
100
AcDbDimStyleTableRecord
  2
ME10_DIM_16
 70
     0
  3
<>
 41
3.5
 42
2.0
 44
2.0
 71
     1
 73
     0
 74
     0
 77
     1
 78
     8
140
3.5
146
0.7
147
2.0
172
     1
173
     1
176
     2
177
     2
178
     3
271
     2
272
     0
340
6D
  0
ENDTAB
  0
TABLE
  2
BLOCK_RECORD
  5
1
330
0
100
AcDbSymbolTable
 70
    10
  0
BLOCK_RECORD
  5
1F
330
1
100
AcDbSymbolTableRecord
100
AcDbBlockTableRecord
  2
*Model_Space
340
22
  0
BLOCK_RECORD
  5
1B
330
1
100
AcDbSymbolTableRecord
100
AcDbBlockTableRecord
  2
*Paper_Space
340
1E
  0
BLOCK_RECORD
  5
23
330
1
100
AcDbSymbolTableRecord
100
AcDbBlockTableRecord
  2
*Paper_Space0
340
26
  0
BLOCK_RECORD
  5
47
330
1
100
AcDbSymbolTableRecord
100
AcDbBlockTableRecord
  2
Urheberrecht_DE-EN
340
0
102
{BLKREFS
331
6C
102
}
  0
BLOCK_RECORD
  5
FD
330
1
100
AcDbSymbolTableRecord
100
AcDbBlockTableRecord
  2
*D2
340
0
  0
BLOCK_RECORD
  5
108
330
1
100
AcDbSymbolTableRecord
100
AcDbBlockTableRecord
  2
*D3
340
0
  0
BLOCK_RECORD
  5
113
330
1
100
AcDbSymbolTableRecord
100
AcDbBlockTableRecord
  2
*D4
340
0
  0
BLOCK_RECORD
  5
11E
330
1
100
AcDbSymbolTableRecord
100
AcDbBlockTableRecord
  2
*D5
340
0
  0
BLOCK_RECORD
  5
129
330
1
100
AcDbSymbolTableRecord
100
AcDbBlockTableRecord
  2
*D6
340
0
  0
BLOCK_RECORD
  5
134
330
1
100
AcDbSymbolTableRecord
100
AcDbBlockTableRecord
  2
*D7
340
0
  0
BLOCK_RECORD
  5
13F
330
1
100
AcDbSymbolTableRecord
100
AcDbBlockTableRecord
  2
*D8
340
0
102
{BLKREFS
331
145
102
}
  0
BLOCK_RECORD
  5
146
330
1
100
AcDbSymbolTableRecord
100
AcDbBlockTableRecord
  2
*D9
340
0
  0
ENDTAB
  0
ENDSEC
  0
SECTION
  2
BLOCKS
  0
BLOCK
  5
20
330
1F
100
AcDbEntity
  8
0
100
AcDbBlockBegin
  2
*Model_Space
 70
     0
 10
0.0
 20
0.0
 30
0.0
  3
*Model_Space
  1

  0
ENDBLK
  5
21
330
1F
100
AcDbEntity
  8
0
100
AcDbBlockEnd
  0
BLOCK
  5
1C
330
1B
100
AcDbEntity
 67
     1
  8
0
100
AcDbBlockBegin
  2
*Paper_Space
 70
     0
 10
0.0
 20
0.0
 30
0.0
  3
*Paper_Space
  1

  0
ENDBLK
  5
1D
330
1B
100
AcDbEntity
 67
     1
  8
0
100
AcDbBlockEnd
  0
BLOCK
  5
24
330
23
100
AcDbEntity
  8
0
100
AcDbBlockBegin
  2
*Paper_Space0
 70
     0
 10
0.0
 20
0.0
 30
0.0
  3
*Paper_Space0
  1

  0
ENDBLK
  5
25
330
23
100
AcDbEntity
  8
0
100
AcDbBlockEnd
  0
BLOCK
  5
48
330
47
100
AcDbEntity
  8
0
100
AcDbBlockBegin
  2
Urheberrecht_DE-EN
 70
     0
 10
27.2297855004425
 20
304.920608535187
 30
0.0
  3
Urheberrecht_DE-EN
  1

  0
MTEXT
  5
6E
330
47
100
AcDbEntity
  8
1
 62
     1
100
AcDbMText
 10
27.2297855004425
 20
304.920608535187
 30
0.0
 40
2.0
 41
0.0
 71
     7
 72
     1
  1
We own the copyright of this document. It \Pdetermined and may neither be copied or \Pmade accessible to outsiders without our\Ppermission.
  7
CONVERTER_11
 11
0.0
 21
1.0
 31
0.0
 73
     1
 44
0.90036014405762
  0
MTEXT
  5
6F
330
47
100
AcDbEntity
  8
1
 62
     1
100
AcDbMText
 10
27.2297855004425
 20
248.6312216178808
 30
0.0
 40
2.0
 41
0.0
 71
     7
 72
     1
  1
F\U+00fcr diese Unterlage behalten wir das Ur-\Pheberrecht. Sie darf nur f\U+00fcr den von uns \Pbestimmten Zweck benutzt und ohne unsere \PZustimmung weder vervielf\U+00e4ltigt noch\PDritten zug\U+00e4nglich gemacht werden.
  7
CONVERTER_11
 11
0.0
 21
1.0
 31
0.0
 73
     1
 44
0.90036014405762
  0
ENDBLK
  5
49
330
47
100
AcDbEntity
  8
0
100
AcDbBlockEnd
  0
BLOCK
  5
104
330
FD
100
AcDbEntity
  8
0
100
AcDbBlockBegin
  2
*D2
 70
     1
 10
0.0
 20
0.0
 30
0.0
  3
*D2
  1

  0
LINE
  5
FE
330
FD
100
AcDbEntity
  8
1
  6
Continuous
 62
     2
100
AcDbLine
 10
258.211607695008
 20
302.8964467345
 30
0.0
 11
258.211607695008
 21
277.8964467345
 31
0.0
  0
LINE
  5
FF
330
FD
100
AcDbEntity
  8
1
  6
Continuous
 62
     2
100
AcDbLine
 10
248.5241568522
 20
302.8964467345
 30
0.0
 11
260.211607695008
 21
302.8964467345
 31
0.0
  0
LINE
  5
100
330
FD
100
AcDbEntity
  8
1
  6
Continuous
 62
     2
100
AcDbLine
 10
248.5241568522
 20
277.8964467345
 30
0.0
 11
260.211607695008
 21
277.8964467345
 31
0.0
  0
SOLID
  5
101
330
FD
100
AcDbEntity
  8
1
 62
     2
100
AcDbTrace
 10
258.6723914365639
 20
299.3964467345
 30
0.0
 11
257.7508239534521
 21
299.3964467345
 31
0.0
 12
258.211607695008
 22
302.8964467345
 32
0.0
 13
258.211607695008
 23
302.8964467345
 33
0.0
  0
SOLID
  5
102
330
FD
100
AcDbEntity
  8
1
 62
     2
100
AcDbTrace
 10
257.7508239534521
 20
281.3964467345
 30
0.0
 11
258.6723914365639
 21
281.3964467345
 31
0.0
 12
258.211607695008
 22
277.8964467345
 32
0.0
 13
258.211607695008
 23
277.8964467345
 33
0.0
  0
MTEXT
  5
103
330
FD
100
AcDbEntity
  8
1
 62
     3
100
AcDbMText
 10
256.211607695008
 20
281.368759449683
 30
0.0
 40
3.5
 41
0.0
 71
     7
 72
     1
  1
\C3;%%c\C3;\C3;25\C2;\H2.45;\S^ ;\C3;
  7
CONVERTER_11
 11
0.0
 21
1.0
 31
0.0
 73
     1
 44
0.60024009603842
  0
ENDBLK
  5
105
330
FD
100
AcDbEntity
  8
0
100
AcDbBlockEnd
  0
BLOCK
  5
10F
330
108
100
AcDbEntity
  8
0
100
AcDbBlockBegin
  2
*D3
 70
     1
 10
0.0
 20
0.0
 30
0.0
  3
*D3
  1

  0
LINE
  5
109
330
108
100
AcDbEntity
  8
1
  6
Continuous
 62
     2
100
AcDbLine
 10
266.54713404201
 20
312.396446734468
 30
0.0
 11
266.54713404201
 21
268.3964467345343
 31
0.0
  0
LINE
  5
10A
330
108
100
AcDbEntity
  8
1
  6
Continuous
 62
     2
100
AcDbLine
 10
248.5241568522105
 20
312.396446734468
 30
0.0
 11
268.54713404201
 21
312.396446734468
 31
0.0
  0
LINE
  5
10B
330
108
100
AcDbEntity
  8
1
  6
Continuous
 62
     2
100
AcDbLine
 10
248.5241568522
 20
268.3964467345343
 30
0.0
 11
268.54713404201
 21
268.3964467345343
 31
0.0
  0
SOLID
  5
10C
330
108
100
AcDbEntity
  8
1
 62
     2
100
AcDbTrace
 10
267.0079177835659
 20
308.896446734468
 30
0.0
 11
266.0863503004541
 21
308.896446734468
 31
0.0
 12
266.54713404201
 22
312.396446734468
 32
0.0
 13
266.54713404201
 23
312.396446734468
 33
0.0
  0
SOLID
  5
10D
330
108
100
AcDbEntity
  8
1
 62
     2
100
AcDbTrace
 10
266.0863503004541
 20
271.8964467345343
 30
0.0
 11
267.0079177835659
 21
271.8964467345343
 31
0.0
 12
266.54713404201
 22
268.3964467345343
 32
0.0
 13
266.54713404201
 23
268.3964467345343
 33
0.0
  0
MTEXT
  5
10E
330
108
100
AcDbEntity
  8
1
 62
     3
100
AcDbMText
 10
264.54713404201
 20
281.368759449683
 30
0.0
 40
3.5
 41
0.0
 71
     7
 72
     1
  1
\C3;%%c\C3;\C3;44\C2;\H2.45;\S^ ;\C3;
  7
CONVERTER_11
 11
0.0
 21
1.0
 31
0.0
 73
     1
 44
0.60024009603842
  0
ENDBLK
  5
110
330
108
100
AcDbEntity
  8
0
100
AcDbBlockEnd
  0
BLOCK
  5
11A
330
113
100
AcDbEntity
  8
0
100
AcDbBlockBegin
  2
*D4
 70
     1
 10
0.0
 20
0.0
 30
0.0
  3
*D4
  1

  0
LINE
  5
114
330
113
100
AcDbEntity
  8
1
  6
Continuous
 62
     2
100
AcDbLine
 10
275.979440171513
 20
316.8964467345
 30
0.0
 11
275.979440171513
 21
263.8964467345
 31
0.0
  0
LINE
  5
115
330
113
100
AcDbEntity
  8
1
  6
Continuous
 62
     2
100
AcDbLine
 10
191.3462355395
 20
316.8964467345
 30
0.0
 11
277.979440171513
 21
316.8964467345
 31
0.0
  0
LINE
  5
116
330
113
100
AcDbEntity
  8
1
  6
Continuous
 62
     2
100
AcDbLine
 10
191.3462355395
 20
263.8964467345
 30
0.0
 11
277.979440171513
 21
263.8964467345
 31
0.0
  0
SOLID
  5
117
330
113
100
AcDbEntity
  8
1
 62
     2
100
AcDbTrace
 10
276.4402239130688
 20
313.3964467345
 30
0.0
 11
275.5186564299571
 21
313.3964467345
 31
0.0
 12
275.979440171513
 22
316.8964467345
 32
0.0
 13
275.979440171513
 23
316.8964467345
 33
0.0
  0
SOLID
  5
118
330
113
100
AcDbEntity
  8
1
 62
     2
100
AcDbTrace
 10
275.5186564299571
 20
267.3964467345
 30
0.0
 11
276.4402239130688
 21
267.3964467345
 31
0.0
 12
275.979440171513
 22
263.8964467345
 32
0.0
 13
275.979440171513
 23
263.8964467345
 33
0.0
  0
MTEXT
  5
119
330
113
100
AcDbEntity
  8
1
 62
     3
100
AcDbMText
 10
273.979440171513
 20
281.149403493183
 30
0.0
 40
3.5
 41
0.0
 71
     7
 72
     1
  1
\C3;%%c\C3;\C3;53\C2;\H2.45;\S^ ;\C3;
  7
CONVERTER_11
 11
0.0
 21
1.0
 31
0.0
 73
     1
 44
0.60024009603842
  0
ENDBLK
  5
11B
330
113
100
AcDbEntity
  8
0
100
AcDbBlockEnd
  0
BLOCK
  5
125
330
11E
100
AcDbEntity
  8
0
100
AcDbBlockBegin
  2
*D5
 70
     1
 10
0.0
 20
0.0
 30
0.0
  3
*D5
  1

  0
LINE
  5
11F
330
11E
100
AcDbEntity
  8
1
  6
Continuous
 62
     2
100
AcDbLine
 10
246.5241568522
 20
348.7917998352
 30
0.0
 11
115.5241568522
 21
348.7917998352
 31
0.0
  0
LINE
  5
120
330
11E
100
AcDbEntity
  8
1
  6
Continuous
 62
     2
100
AcDbLine
 10
246.5241568522
 20
313.4720562428
 30
0.0
 11
246.5241568522
 21
350.7917998352
 31
0.0
  0
LINE
  5
121
330
11E
100
AcDbEntity
  8
1
  6
Continuous
 62
     2
100
AcDbLine
 10
115.5241568522
 20
342.3964098133
 30
0.0
 11
115.5241568522
 21
350.7917998352
 31
0.0
  0
SOLID
  5
122
330
11E
100
AcDbEntity
  8
1
 62
     2
100
AcDbTrace
 10
243.0241568522
 20
348.3310160936441
 30
0.0
 11
243.0241568522
 21
349.2525835767559
 31
0.0
 12
246.5241568522
 22
348.7917998352
 32
0.0
 13
246.5241568522
 23
348.7917998352
 33
0.0
  0
SOLID
  5
123
330
11E
100
AcDbEntity
  8
1
 62
     2
100
AcDbTrace
 10
119.0241568522
 20
349.2525835767559
 30
0.0
 11
119.0241568522
 21
348.3310160936441
 31
0.0
 12
115.5241568522
 22
348.7917998352
 32
0.0
 13
115.5241568522
 23
348.7917998352
 33
0.0
  0
MTEXT
  5
124
330
11E
100
AcDbEntity
  8
1
 62
     3
100
AcDbMText
 10
178.697666963486
 20
350.7917998352
 30
0.0
 40
3.5
 41
0.0
 71
     7
 72
     1
  1
\C3;\C3;\C3;131\C2;\H2.45;\S^ ;\C3;
  7
CONVERTER_11
 11
0.9999999999970619
 21
2.424068405545306E-6
 31
0.0
 73
     1
 44
0.60024009603842
  0
ENDBLK
  5
126
330
11E
100
AcDbEntity
  8
0
100
AcDbBlockEnd
  0
BLOCK
  5
130
330
129
100
AcDbEntity
  8
0
100
AcDbBlockBegin
  2
*D6
 70
     1
 10
0.0
 20
0.0
 30
0.0
  3
*D6
  1

  0
LINE
  5
12A
330
129
100
AcDbEntity
  8
1
  6
Continuous
 62
     2
100
AcDbLine
 10
246.5241568522
 20
356.030546399702
 30
0.0
 11
86.5241568522
 21
356.030546399702
 31
0.0
  0
LINE
  5
12B
330
129
100
AcDbEntity
  8
1
  6
Continuous
 62
     2
100
AcDbLine
 10
246.5241568522
 20
313.4720562428
 30
0.0
 11
246.5241568522
 21
358.030546399702
 31
0.0
  0
LINE
  5
12C
330
129
100
AcDbEntity
  8
1
  6
Continuous
 62
     2
100
AcDbLine
 10
86.5241568522
 20
342.3964467345
 30
0.0
 11
86.5241568522
 21
358.030546399702
 31
0.0
  0
SOLID
  5
12D
330
129
100
AcDbEntity
  8
1
 62
     2
100
AcDbTrace
 10
243.0241568522
 20
355.5697626581461
 30
0.0
 11
243.0241568522
 21
356.4913301412579
 31
0.0
 12
246.5241568522
 22
356.030546399702
 32
0.0
 13
246.5241568522
 23
356.030546399702
 33
0.0
  0
SOLID
  5
12E
330
129
100
AcDbEntity
  8
1
 62
     2
100
AcDbTrace
 10
90.0241568522
 20
356.4913301412579
 30
0.0
 11
90.0241568522
 21
355.5697626581461
 31
0.0
 12
86.5241568522
 22
356.030546399702
 32
0.0
 13
86.5241568522
 23
356.030546399702
 33
0.0
  0
MTEXT
  5
12F
330
129
100
AcDbEntity
  8
1
 62
     3
100
AcDbMText
 10
162.484038095482
 20
358.030546399702
 30
0.0
 40
3.5
 41
0.0
 71
     7
 72
     1
  1
\C3;\C3;\C3;160\C2;\H2.45;\S^ ;\C3;
  7
CONVERTER_11
 11
0.9999999999970619
 21
2.424068405545306E-6
 31
0.0
 73
     1
 44
0.60024009603842
  0
ENDBLK
  5
131
330
129
100
AcDbEntity
  8
0
100
AcDbBlockEnd
  0
BLOCK
  5
13B
330
134
100
AcDbEntity
  8
0
100
AcDbBlockBegin
  2
*D7
 70
     1
 10
0.0
 20
0.0
 30
0.0
  3
*D7
  1

  0
LINE
  5
135
330
134
100
AcDbEntity
  8
1
  6
Continuous
 62
     2
100
AcDbLine
 10
246.5241568522
 20
363.708004877204
 30
0.0
 11
36.52415685220001
 21
363.708004877204
 31
0.0
  0
LINE
  5
136
330
134
100
AcDbEntity
  8
1
  6
Continuous
 62
     2
100
AcDbLine
 10
246.5241568522
 20
313.4720562428
 30
0.0
 11
246.5241568522
 21
365.708004877204
 31
0.0
  0
LINE
  5
137
330
134
100
AcDbEntity
  8
1
  6
Continuous
 62
     2
100
AcDbLine
 10
36.52415685220001
 20
325.996638297
 30
0.0
 11
36.52415685220001
 21
365.708004877204
 31
0.0
  0
SOLID
  5
138
330
134
100
AcDbEntity
  8
1
 62
     2
100
AcDbTrace
 10
243.0241568522
 20
363.2472211356481
 30
0.0
 11
243.0241568522
 21
364.1687886187599
 31
0.0
 12
246.5241568522
 22
363.708004877204
 32
0.0
 13
246.5241568522
 23
363.708004877204
 33
0.0
  0
SOLID
  5
139
330
134
100
AcDbEntity
  8
1
 62
     2
100
AcDbTrace
 10
40.02415685220001
 20
364.1687886187599
 30
0.0
 11
40.02415685220001
 21
363.2472211356481
 31
0.0
 12
36.52415685220001
 22
363.708004877204
 32
0.0
 13
36.52415685220001
 23
363.708004877204
 33
0.0
  0
MTEXT
  5
13A
330
134
100
AcDbEntity
  8
1
 62
     3
100
AcDbMText
 10
146.690409227477
 20
365.708004877204
 30
0.0
 40
3.5
 41
0.0
 71
     7
 72
     1
  1
\C3;\C3;\C3;210\C2;\H2.45;\S^ ;\C3;
  7
CONVERTER_11
 11
0.9999999999970619
 21
2.424068405545306E-6
 31
0.0
 73
     1
 44
0.60024009603842
  0
ENDBLK
  5
13C
330
134
100
AcDbEntity
  8
0
100
AcDbBlockEnd
  0
BLOCK
  5
143
330
13F
100
AcDbEntity
  8
0
100
AcDbBlockBegin
  2
*D8
 70
     1
 10
0.0
 20
0.0
 30
0.0
  3
*D8
  1

  0
LINE
  5
140
330
13F
100
AcDbEntity
  8
1
  6
Continuous
 62
     2
100
AcDbLine
 10
130.0309884709698
 20
331.7165214511468
 30
0.0
 11
118.9705649896904
 21
322.9763997915902
 31
0.0
  0
SOLID
  5
141
330
13F
100
AcDbEntity
  8
1
 62
     2
100
AcDbTrace
 10
121.4309759379417
 20
325.507940749625
 30
0.0
 11
122.0023504812872
 21
324.7848793710784
 31
0.0
 12
118.9705649896904
 22
322.9763997915902
 32
0.0
 13
118.9705649896904
 23
322.9763997915902
 33
0.0
  0
MTEXT
  5
142
330
13F
100
AcDbEntity
  8
1
 62
     3
100
AcDbMText
 10
121.6511272313038
 20
327.6436937351806
 30
0.0
 40
3.5
 41
0.0
 71
     7
 72
     1
  1
\C3; R\C3;\C3;16\C2;\H2.45;\S^ ;\C3;
  7
CONVERTER_11
 11
0.7845994914068471
 21
0.6200029339318619
 31
0.0
 73
     1
 44
0.60024009603842
  0
ENDBLK
  5
144
330
13F
100
AcDbEntity
  8
0
100
AcDbBlockEnd
  0
BLOCK
  5
14D
330
146
100
AcDbEntity
  8
0
100
AcDbBlockBegin
  2
*D9
 70
     1
 10
0.0
 20
0.0
 30
0.0
  3
*D9
  1

  0
LINE
  5
147
330
146
100
AcDbEntity
  8
1
  6
Continuous
 62
     2
100
AcDbLine
 10
225.6413367525427
 20
316.8964467344999
 30
0.0
 11
227.6413367525427
 21
316.8964467344999
 31
0.0
  0
LINE
  5
148
330
146
100
AcDbEntity
  8
1
  6
Continuous
 62
     2
100
AcDbLine
 10
191.3462355395
 20
316.8964467344999
 30
0.0
 11
225.6413367525427
 21
316.8964467344999
 31
0.0
  0
ARC
  5
149
330
146
100
AcDbEntity
  8
1
  6
Continuous
 62
     2
100
AcDbCircle
 10
189.3462355395
 20
316.8964467344999
 30
0.0
 40
36.29510121304278
100
AcDbArc
 50
347.2123018702395
 51
18.69501571588284
  0
SOLID
  5
14A
330
146
100
AcDbEntity
  8
1
 62
     2
100
AcDbTrace
 10
225.5440801961408
 20
310.5185948635863
 30
0.0
 11
224.6299062203865
 21
310.6350962283098
 31
0.0
 12
225.5294510683818
 22
314.0487659139893
 32
0.0
 13
225.5294510683818
 23
314.0487659139893
 33
0.0
  0
SOLID
  5
14B
330
146
100
AcDbEntity
  8
1
 62
     2
100
AcDbTrace
 10
225.0123983377564
 20
320.3701706911332
 30
0.0
 11
225.9328948119609
 21
320.4145876575544
 31
0.0
 12
225.6413367525427
 22
316.8964467344999
 32
0.0
 13
225.6413367525427
 23
316.8964467344999
 33
0.0
  0
MTEXT
  5
14C
330
146
100
AcDbEntity
  8
1
 62
     3
100
AcDbMText
 10
225.7750376116558
 20
329.2233839658193
 30
0.0
 40
3.5
 41
0.0
 71
     7
 72
     1
  1
\C3;\C3;\C3;4.5%%d\C2;\H2.45;\S^ ;\C3;
  7
CONVERTER_11
 11
0.2321047599714556
 21
-0.972690793828436
 31
0.0
 73
     1
 44
0.60024009603842
  0
ENDBLK
  5
14E
330
146
100
AcDbEntity
  8
0
100
AcDbBlockEnd
  0
ENDSEC
  0
SECTION
  2
ENTITIES
  0
INSERT
  5
6C
330
1F
100
AcDbEntity
  8
0
100
AcDbBlockReference
  2
Urheberrecht_DE-EN
 10
27.2297855004425
 20
304.920608535187
 30
0.0
  0
LINE
  5
70
330
1F
100
AcDbEntity
  8
BEZUGSACHSEN
  6
Continuous
 62
     7
100
AcDbLine
 10
36.5241568522
 20
256.7962551715
 30
0.0
 11
36.5241568522
 21
278.3864467345
 31
0.0
  0
LINE
  5
71
330
1F
100
AcDbEntity
  8
BEZUGSACHSEN
  6
Continuous
 62
     7
100
AcDbLine
 10
36.5241568522
 20
302.4064467345
 30
0.0
 11
36.5241568522
 21
323.996638297
 31
0.0
  0
LINE
  5
72
330
1F
100
AcDbEntity
  8
BEZUGSACHSEN
  6
Continuous
 62
     9
100
AcDbLine
 10
38.4240823675
 20
325.9941330028
 30
0.0
 11
38.4240823675
 21
306.0729791207
 31
0.0
  0
LINE
  5
73
330
1F
100
AcDbEntity
  8
BEZUGSACHSEN
  6
Continuous
 62
     9
100
AcDbLine
 10
38.4240823675
 20
274.7199143482
 30
0.0
 11
38.4240823675
 21
254.7987604662
 31
0.0
  0
LINE
  5
74
330
1F
100
AcDbEntity
  8
BEZUGSACHSEN
  6
Continuous
 62
     7
100
AcDbLine
 10
38.5241568522
 20
277.9928067861
 30
0.0
 11
38.5241568522
 21
280.3864467345
 31
0.0
  0
LINE
  5
75
330
1F
100
AcDbEntity
  8
BEZUGSACHSEN
  6
Continuous
 62
     7
100
AcDbLine
 10
38.5241568522
 20
300.4064467345
 30
0.0
 11
38.5241568522
 21
302.8000866829
 31
0.0
  0
LINE
  5
76
330
1F
100
AcDbEntity
  8
BEZUGSACHSEN
  6
Continuous
 62
     9
100
AcDbLine
 10
44.5241568522
 20
274.037799147
 30
0.0
 11
44.5241568522
 21
280.3864467345
 31
0.0
  0
LINE
  5
77
330
1F
100
AcDbEntity
  8
BEZUGSACHSEN
  6
Continuous
 62
     9
100
AcDbLine
 10
44.5241568522
 20
300.4064467345
 30
0.0
 11
44.5241568522
 21
306.7550943219
 31
0.0
  0
LINE
  5
78
330
1F
100
AcDbEntity
  8
BEZUGSACHSEN
  6
Continuous
 62
     7
100
AcDbLine
 10
46.5241568522
 20
303.2661022603
 30
0.0
 11
46.5241568522
 21
277.5267912087
 31
0.0
  0
LINE
  5
79
330
1F
100
AcDbEntity
  8
BEZUGSACHSEN
  6
Continuous
 62
     7
100
AcDbLine
 10
37.7911097793
 20
275.3864467345
 30
0.0
 11
37.6699995278
 21
275.154110739
 31
0.0
  0
LINE
  5
7A
330
1F
100
AcDbEntity
  8
BEZUGSACHSEN
  6
Continuous
 62
     7
100
AcDbLine
 10
37.6699995278
 20
305.6387827299
 30
0.0
 11
37.7911097793
 21
305.4064467345
 31
0.0
  0
LWPOLYLINE
  5
7B
330
1F
100
AcDbEntity
  8
BEZUGSACHSEN
  6
DOT_CENTER
 62
     7
100
AcDbPolyline
 90
        2
 70
     0
 43
0.25
 10
71.5241568522
 20
290.3964467345
 10
71.5241568522
 20
281.3964467345
  0
LWPOLYLINE
  5
7C
330
1F
100
AcDbEntity
  8
BEZUGSACHSEN
  6
DOT_CENTER
 62
     7
100
AcDbPolyline
 90
        2
 70
     0
 43
0.25
 10
71.5241568522
 20
290.3964467345
 10
71.5241568522
 20
299.3964467345
  0
LINE
  5
7D
330
1F
100
AcDbEntity
  8
BEZUGSACHSEN
  6
Continuous
 62
     7
100
AcDbLine
 10
36.5241568522
 20
278.3864467345
 30
0.0
 11
38.5241568522
 21
280.3864467345
 31
0.0
  0
LINE
  5
7E
330
1F
100
AcDbEntity
  8
BEZUGSACHSEN
  6
Continuous
 62
     7
100
AcDbLine
 10
38.5241568522
 20
300.4064467345
 30
0.0
 11
36.5241568522
 21
302.4064467345
 31
0.0
  0
LINE
  5
7F
330
1F
100
AcDbEntity
  8
BEZUGSACHSEN
  6
Continuous
 62
     7
100
AcDbLine
 10
84.0241568522
 20
328.2786967345
 30
0.0
 11
84.0241568522
 21
252.5141967345
 31
0.0
  0
LINE
  5
80
330
1F
100
AcDbEntity
  8
BEZUGSACHSEN
  6
Continuous
 62
     9
100
AcDbLine
 10
84.6434004662
 20
252.6801225608
 30
0.0
 11
84.6434004662
 21
328.1127709082
 31
0.0
  0
LINE
  5
81
330
1F
100
AcDbEntity
  8
BEZUGSACHSEN
  6
Continuous
 62
     9
100
AcDbLine
 10
84.9022195113
 20
252.7141967345
 30
0.0
 11
84.9022195113
 21
328.0786967345
 31
0.0
  0
LINE
  5
82
330
1F
100
AcDbEntity
  8
BEZUGSACHSEN
  6
Continuous
 62
     9
100
AcDbLine
 10
85.8235855636
 20
252.7141967345
 30
0.0
 11
85.8235855636
 21
328.0786967345
 31
0.0
  0
LINE
  5
83
330
1F
100
AcDbEntity
  8
BEZUGSACHSEN
  6
Continuous
 62
     7
100
AcDbLine
 10
86.5241568522
 20
340.3964467345
 30
0.0
 11
86.5241568522
 21
240.3964467345
 31
0.0
  0
LWPOLYLINE
  5
84
330
1F
100
AcDbEntity
  8
BEZUGSACHSEN
  6
DOT_CENTER
 62
     7
100
AcDbPolyline
 90
        2
 70
     0
 43
0.25
 10
93.5241568522
 20
332.5458185898
 10
93.5241568522
 20
343.3964467345
  0
LINE
  5
85
330
1F
100
AcDbEntity
  8
BEZUGSACHSEN
  6
Continuous
 62
     7
100
AcDbLine
 10
108.3991568522
 20
338.0190419987
 30
0.0
 11
109.7717521164
 21
340.3964467345
 31
0.0
  0
LINE
  5
86
330
1F
100
AcDbEntity
  8
BEZUGSACHSEN
  6
Continuous
 62
     7
100
AcDbLine
 10
103.2765615881
 20
240.3964467345
 30
0.0
 11
86.5241568522
 21
240.3964467345
 31
0.0
  0
LINE
  5
87
330
1F
100
AcDbEntity
  8
BEZUGSACHSEN
  6
Continuous
 62
     7
100
AcDbLine
 10
109.7717521164
 20
240.3964467345
 30
0.0
 11
115.5241568522
 21
240.3964467345
 31
0.0
  0
LINE
  5
88
330
1F
100
AcDbEntity
  8
BEZUGSACHSEN
  6
Continuous
 62
     7
100
AcDbLine
 10
105.6491568522
 20
244.3964467345
 30
0.0
 11
107.3991568522
 21
244.3964467345
 31
0.0
  0
LINE
  5
89
330
1F
100
AcDbEntity
  8
BEZUGSACHSEN
  6
Continuous
 62
     7
100
AcDbLine
 10
108.3991568522
 20
242.7738514703
 30
0.0
 11
109.7717521164
 21
240.3964467345
 31
0.0
  0
LINE
  5
8A
330
1F
100
AcDbEntity
  8
FASEN
  6
Continuous
 62
     9
100
AcDbLine
 10
99.4960307741
 20
258.4964467345
 30
0.0
 11
99.4960307741
 21
258.8964467345
 31
0.0
  0
LINE
  5
8B
330
1F
100
AcDbEntity
  8
FASEN
  6
Continuous
 62
     9
100
AcDbLine
 10
101.5241568522
 20
280.7964467345
 30
0.0
 11
101.5241568522
 21
280.3964467345
 31
0.0
  0
LINE
  5
8C
330
1F
100
AcDbEntity
  8
FASEN
  6
Continuous
 62
     9
100
AcDbLine
 10
101.5241568522
 20
299.9964467345
 30
0.0
 11
101.5241568522
 21
300.3964467345
 31
0.0
  0
LINE
  5
8D
330
1F
100
AcDbEntity
  8
0
  6
Continuous
 62
     7
100
AcDbLine
 10
103.2765615881
 20
340.3964467345
 30
0.0
 11
103.2765615881
 21
300.3964467345
 31
0.0
  0
LINE
  5
8E
330
1F
100
AcDbEntity
  8
0
  6
Continuous
 62
     7
100
AcDbLine
 10
103.2765615881
 20
280.3964467345
 30
0.0
 11
103.2765615881
 21
258.8964467345
 31
0.0
  0
LINE
  5
8F
330
1F
100
AcDbEntity
  8
0
  6
Continuous
 62
     7
100
AcDbLine
 10
103.2765615881
 20
251.5666901038
 30
0.0
 11
103.2765615881
 21
240.3964467345
 31
0.0
  0
LINE
  5
90
330
1F
100
AcDbEntity
  8
FASEN
  6
Continuous
 62
     7
100
AcDbLine
 10
91.9256428167
 20
251.5666901038
 30
0.0
 11
103.2765615881
 21
251.5666901038
 31
0.0
  0
LINE
  5
91
330
1F
100
AcDbEntity
  8
0
  6
Continuous
 62
     7
100
AcDbLine
 10
109.7717521164
 20
251.5666901038
 30
0.0
 11
115.5241568522
 21
251.5666901038
 31
0.0
  0
LINE
  5
92
330
1F
100
AcDbEntity
  8
BEZUGSACHSEN
  6
Continuous
 62
     7
100
AcDbLine
 10
84.0241568522
 20
252.5141967345
 30
0.0
 11
38.4240823675
 21
254.7987604662
 31
0.0
  0
LINE
  5
93
330
1F
100
AcDbEntity
  8
0
  6
Continuous
 62
     7
100
AcDbLine
 10
104.6491568522
 20
338.0190085721
 30
0.0
 11
104.6491568522
 21
300.3964467345
 31
0.0
  0
LINE
  5
94
330
1F
100
AcDbEntity
  8
0
  6
Continuous
 62
     7
100
AcDbLine
 10
104.6491568522
 20
280.3964467345
 30
0.0
 11
104.6491568522
 21
258.8964467345
 31
0.0
  0
LINE
  5
95
330
1F
100
AcDbEntity
  8
0
  6
Continuous
 62
     7
100
AcDbLine
 10
104.6491568522
 20
242.7738890042
 30
0.0
 11
104.6491568522
 21
255.5145029813
 31
0.0
  0
LINE
  5
96
330
1F
100
AcDbEntity
  8
0
  6
Continuous
 62
     9
100
AcDbLine
 10
105.6491568522
 20
244.3964467345
 30
0.0
 11
105.6491568522
 21
256.8740661508
 31
0.0
  0
LINE
  5
97
330
1F
100
AcDbEntity
  8
0
  6
Continuous
 62
     9
100
AcDbLine
 10
105.6491568522
 20
258.8964467345
 30
0.0
 11
105.6491568522
 21
280.3964467345
 31
0.0
  0
LINE
  5
98
330
1F
100
AcDbEntity
  8
0
  6
Continuous
 62
     9
100
AcDbLine
 10
105.6491568522
 20
300.3964467345
 30
0.0
 11
105.6491568522
 21
336.3964467345
 31
0.0
  0
LINE
  5
99
330
1F
100
AcDbEntity
  8
0
  6
Continuous
 62
     9
100
AcDbLine
 10
107.3991568522
 20
244.3964467345
 30
0.0
 11
107.3991568522
 21
256.8740661508
 31
0.0
  0
LINE
  5
9A
330
1F
100
AcDbEntity
  8
0
  6
Continuous
 62
     9
100
AcDbLine
 10
107.3991568522
 20
258.8964467345
 30
0.0
 11
107.3991568522
 21
280.3964467345
 31
0.0
  0
LINE
  5
9B
330
1F
100
AcDbEntity
  8
0
  6
Continuous
 62
     9
100
AcDbLine
 10
107.3991568522
 20
300.3964467345
 30
0.0
 11
107.3991568522
 21
336.3964467345
 31
0.0
  0
LINE
  5
9C
330
1F
100
AcDbEntity
  8
0
  6
Continuous
 62
     7
100
AcDbLine
 10
108.3991568522
 20
242.7738890042
 30
0.0
 11
108.3991568522
 21
255.5145029813
 31
0.0
  0
LINE
  5
9D
330
1F
100
AcDbEntity
  8
0
  6
Continuous
 62
     7
100
AcDbLine
 10
108.3991568522
 20
258.8964467345
 30
0.0
 11
108.3991568522
 21
280.3964467345
 31
0.0
  0
LINE
  5
9E
330
1F
100
AcDbEntity
  8
0
  6
Continuous
 62
     7
100
AcDbLine
 10
108.3991568522
 20
300.3964467345
 30
0.0
 11
108.3991568522
 21
338.0190085721
 31
0.0
  0
LINE
  5
9F
330
1F
100
AcDbEntity
  8
0
  6
Continuous
 62
     7
100
AcDbLine
 10
109.7717521164
 20
340.3964467345
 30
0.0
 11
109.7717521164
 21
300.3964467345
 31
0.0
  0
LINE
  5
A0
330
1F
100
AcDbEntity
  8
0
  6
Continuous
 62
     7
100
AcDbLine
 10
109.7717521164
 20
280.3964467345
 30
0.0
 11
109.7717521164
 21
258.8964467345
 31
0.0
  0
LINE
  5
A1
330
1F
100
AcDbEntity
  8
0
  6
Continuous
 62
     7
100
AcDbLine
 10
109.7717521164
 20
251.5666901038
 30
0.0
 11
109.7717521164
 21
240.3964467345
 31
0.0
  0
LINE
  5
A2
330
1F
100
AcDbEntity
  8
BEZUGSACHSEN
  6
Continuous
 62
     9
100
AcDbLine
 10
36.5241568522
 20
276.9502627654
 30
0.0
 11
38.5241568522
 21
277.9928067861
 31
0.0
  0
LINE
  5
A3
330
1F
100
AcDbEntity
  8
RUNDUNGEN
  6
Continuous
 62
     7
100
AcDbLine
 10
245.602615948
 20
268.3239198924
 30
0.0
 11
189.3462355395
 21
263.8964467345
 31
0.0
  0
LINE
  5
A4
330
1F
100
AcDbEntity
  8
0
  6
Continuous
 62
     7
100
AcDbLine
 10
189.3462355395
 20
263.8964467345
 30
0.0
 11
245.602615948
 21
268.3239198924
 31
0.0
  0
LINE
  5
A5
330
1F
100
AcDbEntity
  8
BEZUGSACHSEN
  6
Continuous
 62
     7
100
AcDbLine
 10
85.8235855636
 20
252.7141967345
 30
0.0
 11
84.9022195113
 21
252.7141967345
 31
0.0
  0
LINE
  5
A6
330
1F
100
AcDbEntity
  8
0
  6
Continuous
 62
     7
100
AcDbLine
 10
105.6491568522
 20
256.8740661508
 30
0.0
 11
107.3991568522
 21
256.8740661508
 31
0.0
  0
LINE
  5
A7
330
1F
100
AcDbEntity
  8
FASEN
  6
Continuous
 62
     7
100
AcDbLine
 10
99.4960307741
 20
258.4964467345
 30
0.0
 11
115.5241568522
 21
258.4964467345
 31
0.0
  0
LINE
  5
A8
330
1F
100
AcDbEntity
  8
0
  6
Continuous
 62
     7
100
AcDbLine
 10
99.4960307741
 20
258.8964467345
 30
0.0
 11
115.5241568522
 21
258.8964467345
 31
0.0
  0
LINE
  5
A9
330
1F
100
AcDbEntity
  8
BEZUGSACHSEN
  6
Continuous
 62
     9
100
AcDbLine
 10
38.5241568522
 20
302.8000866829
 30
0.0
 11
36.5241568522
 21
303.8426307035
 31
0.0
  0
LINE
  5
AA
330
1F
100
AcDbEntity
  8
0
  6
Continuous
 62
     7
100
AcDbLine
 10
115.5241568522
 20
340.3964098133
 30
0.0
 11
115.5241568522
 21
300.3964467345
 31
0.0
  0
LINE
  5
AB
330
1F
100
AcDbEntity
  8
0
  6
Continuous
 62
     7
100
AcDbLine
 10
115.5241568522
 20
280.3964467345
 30
0.0
 11
115.5241568522
 21
258.8964467345
 31
0.0
  0
LINE
  5
AC
330
1F
100
AcDbEntity
  8
0
  6
Continuous
 62
     7
100
AcDbLine
 10
115.5241568522
 20
251.5666901038
 30
0.0
 11
115.5241568522
 21
240.3964486022
 31
0.0
  0
LINE
  5
AD
330
1F
100
AcDbEntity
  8
FASEN
  6
Continuous
 62
     7
100
AcDbLine
 10
115.5241568522
 20
251.5666901038
 30
0.0
 11
115.5241568522
 21
258.8964467345
 31
0.0
  0
LINE
  5
AE
330
1F
100
AcDbEntity
  8
FASEN
  6
Continuous
 62
     7
100
AcDbLine
 10
115.5241568522
 20
280.3964467345
 30
0.0
 11
115.5241568522
 21
300.3964467345
 31
0.0
  0
LINE
  5
AF
330
1F
100
AcDbEntity
  8
RUNDUNGEN
  6
Continuous
 62
     7
100
AcDbLine
 10
189.3462355395
 20
263.8964467345
 30
0.0
 11
131.5241568522
 21
263.8964467345
 31
0.0
  0
LINE
  5
B0
330
1F
100
AcDbEntity
  8
0
  6
Continuous
 62
     7
100
AcDbLine
 10
131.5241568522
 20
263.8964467345
 30
0.0
 11
189.3462355395
 21
263.8964467345
 31
0.0
  0
LINE
  5
B1
330
1F
100
AcDbEntity
  8
BEZUGSACHSEN
  6
Continuous
 62
     7
100
AcDbLine
 10
84.6434004662
 20
252.6801225608
 30
0.0
 11
84.0241568522
 21
252.5141967345
 31
0.0
  0
LINE
  5
B2
330
1F
100
AcDbEntity
  8
BEZUGSACHSEN
  6
Continuous
 62
     9
100
AcDbLine
 10
46.0780027992
 20
275.3864467345
 30
0.0
 11
37.7911097793
 21
275.3864467345
 31
0.0
  0
LINE
  5
B3
330
1F
100
AcDbEntity
  8
RUNDUNGEN
  6
Continuous
 62
     9
100
AcDbLine
 10
131.5241568522
 20
316.8964467345
 30
0.0
 11
131.5241568522
 21
263.8964467345
 31
0.0
  0
LINE
  5
B4
330
1F
100
AcDbEntity
  8
BEZUGSACHSEN
  6
Continuous
 62
     7
100
AcDbLine
 10
103.2765615881
 20
240.3964467345
 30
0.0
 11
104.6491568522
 21
242.7738514703
 31
0.0
  0
LWPOLYLINE
  5
B5
330
1F
100
AcDbEntity
  8
DEFAULT_2
  6
DASHED
 62
     8
100
AcDbPolyline
 90
        2
 70
     0
 43
0.35
 10
246.5241568522
 20
277.8964467345
 10
188.5241568522
 20
277.8964467345
  0
LINE
  5
B6
330
1F
100
AcDbEntity
  8
BEZUGSACHSEN
  6
Continuous
 62
     7
100
AcDbLine
 10
44.5241568522
 20
280.3864467345
 30
0.0
 11
38.5241568522
 21
280.3864467345
 31
0.0
  0
LINE
  5
B7
330
1F
100
AcDbEntity
  8
0
  6
Continuous
 62
     7
100
AcDbLine
 10
101.5241568522
 20
280.3964467345
 30
0.0
 11
115.5241568522
 21
280.3964467345
 31
0.0
  0
LINE
  5
B8
330
1F
100
AcDbEntity
  8
FASEN
  6
Continuous
 62
     7
100
AcDbLine
 10
115.5241568522
 20
280.7964467345
 30
0.0
 11
101.5241568522
 21
280.7964467345
 31
0.0
  0
LINE
  5
B9
330
1F
100
AcDbEntity
  8
BEZUGSACHSEN
  6
Continuous
 62
     7
100
AcDbLine
 10
103.2765615881
 20
340.3964467345
 30
0.0
 11
104.6491568522
 21
338.0190419987
 31
0.0
  0
LWPOLYLINE
  5
BA
330
1F
100
AcDbEntity
  8
BEZUGSACHSEN
  6
DOT_CENTER
 62
     7
100
AcDbPolyline
 90
        2
 70
     0
 43
0.25
 10
249.5241568522
 20
290.3964467345
 10
33.5241568522
 20
290.3964467345
  0
LINE
  5
BB
330
1F
100
AcDbEntity
  8
FASEN
  6
Continuous
 62
     7
100
AcDbLine
 10
101.5241568522
 20
299.9964467345
 30
0.0
 11
115.5241568522
 21
299.9964467345
 31
0.0
  0
LINE
  5
BC
330
1F
100
AcDbEntity
  8
0
  6
Continuous
 62
     7
100
AcDbLine
 10
101.5241568522
 20
300.3964467345
 30
0.0
 11
115.5241568522
 21
300.3964467345
 31
0.0
  0
LINE
  5
BD
330
1F
100
AcDbEntity
  8
BEZUGSACHSEN
  6
Continuous
 62
     7
100
AcDbLine
 10
44.5241568522
 20
300.4064467345
 30
0.0
 11
38.5241568522
 21
300.4064467345
 31
0.0
  0
LWPOLYLINE
  5
BE
330
1F
100
AcDbEntity
  8
DEFAULT_2
  6
DASHED
 62
     8
100
AcDbPolyline
 90
        2
 70
     0
 43
0.35
 10
246.5241568522
 20
302.8964467345
 10
188.5241568522
 20
302.8964467345
  0
LINE
  5
BF
330
1F
100
AcDbEntity
  8
BEZUGSACHSEN
  6
Continuous
 62
     9
100
AcDbLine
 10
37.7911097793
 20
305.4064467345
 30
0.0
 11
46.0780027992
 21
305.4064467345
 31
0.0
  0
LINE
  5
C0
330
1F
100
AcDbEntity
  8
BEZUGSACHSEN
  6
Continuous
 62
     7
100
AcDbLine
 10
84.6434004662
 20
328.1127709082
 30
0.0
 11
84.0241568522
 21
328.2786967345
 31
0.0
  0
LINE
  5
C1
330
1F
100
AcDbEntity
  8
RUNDUNGEN
  6
Continuous
 62
     7
100
AcDbLine
 10
189.3462355395
 20
316.8964467345
 30
0.0
 11
131.5241568522
 21
316.8964467345
 31
0.0
  0
LINE
  5
C2
330
1F
100
AcDbEntity
  8
0
  6
Continuous
 62
     7
100
AcDbLine
 10
131.5241568522
 20
316.8964467345
 30
0.0
 11
189.3462355395
 21
316.8964467345
 31
0.0
  0
LINE
  5
C3
330
1F
100
AcDbEntity
  8
RUNDUNGEN
  6
Continuous
 62
     7
100
AcDbLine
 10
245.602615948
 20
312.4689735766
 30
0.0
 11
189.3462355395
 21
316.8964467345
 31
0.0
  0
LINE
  5
C4
330
1F
100
AcDbEntity
  8
0
  6
Continuous
 62
     7
100
AcDbLine
 10
189.3462355395
 20
316.8964467345
 30
0.0
 11
245.602615948
 21
312.4689735766
 31
0.0
  0
LINE
  5
C5
330
1F
100
AcDbEntity
  8
BEZUGSACHSEN
  6
Continuous
 62
     7
100
AcDbLine
 10
85.8235855636
 20
328.0786967345
 30
0.0
 11
84.9022195113
 21
328.0786967345
 31
0.0
  0
LWPOLYLINE
  5
C6
330
1F
100
AcDbEntity
  8
DEFAULT_2
  6
DASHED
 62
     8
100
AcDbPolyline
 90
        2
 70
     0
 43
0.35
 10
188.5241568522
 20
302.8964467345
 10
188.5241568522
 20
277.8964467345
  0
LINE
  5
C7
330
1F
100
AcDbEntity
  8
BEZUGSACHSEN
  6
Continuous
 62
     7
100
AcDbLine
 10
84.0241568522
 20
328.2786967345
 30
0.0
 11
38.4240823675
 21
325.9941330028
 31
0.0
  0
LINE
  5
C8
330
1F
100
AcDbEntity
  8
BEZUGSACHSEN
  6
Continuous
 62
     7
100
AcDbLine
 10
105.6491568522
 20
336.3964467345
 30
0.0
 11
107.3991568522
 21
336.3964467345
 31
0.0
  0
LINE
  5
C9
330
1F
100
AcDbEntity
  8
0
  6
Continuous
 62
     7
100
AcDbLine
 10
189.3462355395
 20
316.8964467345
 30
0.0
 11
189.3462355395
 21
263.8964467345
 31
0.0
  0
LINE
  5
CA
330
1F
100
AcDbEntity
  8
BEZUGSACHSEN
  6
Continuous
 62
     7
100
AcDbLine
 10
103.2765615881
 20
340.3964467345
 30
0.0
 11
98.5241568522
 21
340.3964467345
 31
0.0
  0
LINE
  5
CB
330
1F
100
AcDbEntity
  8
BEZUGSACHSEN
  6
Continuous
 62
     7
100
AcDbLine
 10
88.5241568522
 20
340.3964467345
 30
0.0
 11
86.5241568522
 21
340.3964467345
 31
0.0
  0
LINE
  5
CC
330
1F
100
AcDbEntity
  8
BEZUGSACHSEN
  6
Continuous
 62
     7
100
AcDbLine
 10
109.7717521164
 20
340.3964467345
 30
0.0
 11
115.5241568522
 21
340.3964467345
 31
0.0
  0
LINE
  5
CD
330
1F
100
AcDbEntity
  8
RUNDUNGEN
  6
Continuous
 62
     9
100
AcDbLine
 10
245.602615948
 20
268.3239198924
 30
0.0
 11
245.602615948
 21
312.4689735766
 31
0.0
  0
LINE
  5
CE
330
1F
100
AcDbEntity
  8
RUNDUNGEN
  6
Continuous
 62
     7
100
AcDbLine
 10
246.5241568522
 20
269.3208372261
 30
0.0
 11
246.5241568522
 21
311.4720562428
 31
0.0
  0
LWPOLYLINE
  5
CF
330
1F
100
AcDbEntity
  8
1
  6
Continuous
 62
     7
100
AcDbPolyline
 90
        2
 70
     0
 43
0.25
 10
246.5241568522
 20
311.4720562428
 10
246.5241568522
 20
312.396446734468
  0
LWPOLYLINE
  5
D0
330
1F
100
AcDbEntity
  8
1
  6
Continuous
 62
     7
100
AcDbPolyline
 90
        2
 70
     0
 43
0.25
 10
245.602615948
 20
312.4689735766
 10
246.5241568522105
 20
312.396446734468
  0
LWPOLYLINE
  5
D1
330
1F
100
AcDbEntity
  8
1
  6
Continuous
 62
     7
100
AcDbPolyline
 90
        2
 70
     0
 43
0.25
 10
245.602615948
 20
268.3239198924
 10
246.5241568522
 20
268.3964467345343
  0
LWPOLYLINE
  5
D2
330
1F
100
AcDbEntity
  8
1
  6
Continuous
 62
     7
100
AcDbPolyline
 90
        2
 70
     0
 43
0.25
 10
246.5241568522
 20
269.3208372261
 10
246.5241568522
 20
268.3964467345343
  0
ARC
  5
D3
330
1F
100
AcDbEntity
  8
FASEN
  6
Continuous
 62
     7
100
AcDbCircle
 10
104.4248108752
 20
265.9277100045
 30
0.0
 40
19.0385948731999
100
AcDbArc
 50
227.4837701982995
 51
228.965195337302
  0
ARC
  5
D4
330
1F
100
AcDbEntity
  8
FASEN
  6
Continuous
 62
     7
100
AcDbCircle
 10
99.4960307741
 20
250.8964467345
 30
0.0
 40
8.0
100
AcDbArc
 50
90.0
 51
172.8323734889969
  0
ARC
  5
D5
330
1F
100
AcDbEntity
  8
FASEN
  6
Continuous
 62
     7
100
AcDbCircle
 10
99.4960307741
 20
250.8964467345
 30
0.0
 40
7.599982194900008
100
AcDbArc
 50
90.0
 51
174.9405171273015
  0
ARC
  5
D6
330
1F
100
AcDbEntity
  8
BEZUGSACHSEN
  6
Continuous
 62
     7
100
AcDbCircle
 10
44.5241568522
 20
282.3864467345
 30
0.0
 40
2.0
100
AcDbArc
 50
270.0
 51
355.2355361864946
  0
ARC
  5
D7
330
1F
100
AcDbEntity
  8
BEZUGSACHSEN
  6
Continuous
 62
     7
100
AcDbCircle
 10
38.5241568522
 20
256.7962551714
 30
0.0
 40
2.0
100
AcDbArc
 50
179.9999999971356
 51
267.1318795135584
  0
ARC
  5
D8
330
1F
100
AcDbEntity
  8
BEZUGSACHSEN
  6
Continuous
 62
     7
100
AcDbCircle
 10
105.6491568522
 20
243.3964467345
 30
0.0
 40
1.0
100
AcDbArc
 50
90.0
 51
180.0
  0
ARC
  5
D9
330
1F
100
AcDbEntity
  8
BEZUGSACHSEN
  6
Continuous
 62
     7
100
AcDbCircle
 10
84.9022195113
 20
251.7141967345
 30
0.0
 40
1.0
100
AcDbArc
 50
90.0
 51
104.9999999996985
  0
ARC
  5
DA
330
1F
100
AcDbEntity
  8
BEZUGSACHSEN
  6
Continuous
 62
     7
100
AcDbCircle
 10
85.8235855636
 20
251.7141967345
 30
0.0
 40
0.9999999999998127
100
AcDbArc
 50
45.49026120128689
 51
90.0
  0
ARC
  5
DB
330
1F
100
AcDbEntity
  8
0
  6
Continuous
 62
     7
100
AcDbCircle
 10
-138.0736230309
 20
359.8309143251
 30
0.0
 40
264.5204223909097
100
AcDbArc
 50
335.8400764706216
 51
336.5770705490999
  0
ARC
  5
DC
330
1F
100
AcDbEntity
  8
BEZUGSACHSEN
  6
Continuous
 62
     7
100
AcDbCircle
 10
93.5393648634
 20
390.4492165013
 30
0.0
 40
50.30340021039981
100
AcDbArc
 50
264.2781515101999
 51
269.9826780125999
  0
ARC
  5
DD
330
1F
100
AcDbEntity
  8
BEZUGSACHSEN
  6
Continuous
 62
     7
100
AcDbCircle
 10
93.5089488512
 20
390.4492163006
 30
0.0
 40
50.30340000969741
100
AcDbArc
 50
270.017321976058
 51
275.7218485011545
  0
ARC
  5
DE
330
1F
100
AcDbEntity
  8
0
  6
Continuous
 62
     7
100
AcDbCircle
 10
101.5241568522
 20
290.3964467345
 30
0.0
 40
10.0
100
AcDbArc
 50
90.0
 51
270.0
  0
ARC
  5
DF
330
1F
100
AcDbEntity
  8
FASEN
  6
Continuous
 62
     7
100
AcDbCircle
 10
101.5241568522
 20
290.3964467345
 30
0.0
 40
9.599999195900011
100
AcDbArc
 50
90.0
 51
270.0
  0
ARC
  5
E0
330
1F
100
AcDbEntity
  8
BEZUGSACHSEN
  6
Continuous
 62
     7
100
AcDbCircle
 10
44.5241568522
 20
298.4064467345
 30
0.0
 40
1.999999999999984
100
AcDbArc
 50
4.76446378498879
 51
90.0
  0
ARC
  5
E1
330
1F
100
AcDbEntity
  8
BEZUGSACHSEN
  6
Continuous
 62
     7
100
AcDbCircle
 10
38.5241568522
 20
323.9966382975
 30
0.0
 40
2.000000000047404
100
AcDbArc
 50
92.86812048629818
 51
180.0000000143238
  0
ARC
  5
E2
330
1F
100
AcDbEntity
  8
BEZUGSACHSEN
  6
Continuous
 62
     7
100
AcDbCircle
 10
105.6491568522
 20
337.3964467345
 30
0.0
 40
1.0
100
AcDbArc
 50
180.0
 51
270.0
  0
ARC
  5
E3
330
1F
100
AcDbEntity
  8
BEZUGSACHSEN
  6
Continuous
 62
     7
100
AcDbCircle
 10
84.9022195113
 20
329.0786967345
 30
0.0
 40
1.000000000009914
100
AcDbArc
 50
255.0000000003019
 51
270.0
  0
ARC
  5
E4
330
1F
100
AcDbEntity
  8
BEZUGSACHSEN
  6
Continuous
 62
     7
100
AcDbCircle
 10
85.8235855636
 20
329.0786967345
 30
0.0
 40
1.0
100
AcDbArc
 50
270.0
 51
314.5097387987131
  0
ARC
  5
E5
330
1F
100
AcDbEntity
  8
BEZUGSACHSEN
  6
Continuous
 62
     7
100
AcDbCircle
 10
222.8542034547
 20
-1315.6463125932
 30
0.0
 40
1632.1727637359
100
AcDbArc
 50
96.2726189838
 51
96.48809068979999
  0
ARC
  5
E6
330
1F
100
AcDbEntity
  8
RUNDUNGEN
  6
Continuous
 62
     7
100
AcDbCircle
 10
131.5241568522
 20
247.8964467345
 30
0.0
 40
16.0
100
AcDbArc
 50
90.0
 51
180.0
  0
ARC
  5
E7
330
1F
100
AcDbEntity
  8
RUNDUNGEN
  6
Continuous
 62
     7
100
AcDbCircle
 10
245.5241568522
 20
269.3208372261
 30
0.0
 40
0.9999999999726598
100
AcDbArc
 50
274.5000000042694
 51
0.0
  0
ARC
  5
E8
330
1F
100
AcDbEntity
  8
BEZUGSACHSEN
  6
Continuous
 62
     7
100
AcDbCircle
 10
107.3991568522
 20
243.3964467345
 30
0.0
 40
1.0
100
AcDbArc
 50
0.0
 51
90.0
  0
ARC
  5
E9
330
1F
100
AcDbEntity
  8
BEZUGSACHSEN
  6
Continuous
 62
     7
100
AcDbCircle
 10
222.8542034557
 20
1896.4392060714
 30
0.0
 40
1632.1727637452
100
AcDbArc
 50
263.5119093102
 51
263.7273810162
  0
ARC
  5
EA
330
1F
100
AcDbEntity
  8
0
  6
Continuous
 62
     7
100
AcDbCircle
 10
351.1219367351
 20
359.830914325
 30
0.0
 40
264.5204223905999
100
AcDbArc
 50
203.4229294508999
 51
204.1599235293853
  0
ARC
  5
EB
330
1F
100
AcDbEntity
  8
RUNDUNGEN
  6
Continuous
 62
     7
100
AcDbCircle
 10
131.5241568522
 20
332.8964467345
 30
0.0
 40
16.00000000000001
100
AcDbArc
 50
180.0
 51
270.0
  0
ARC
  5
EC
330
1F
100
AcDbEntity
  8
RUNDUNGEN
  6
Continuous
 62
     7
100
AcDbCircle
 10
245.5241568522
 20
311.4720562428
 30
0.0
 40
1.0
100
AcDbArc
 50
0.0
 51
85.49999999617982
  0
ARC
  5
ED
330
1F
100
AcDbEntity
  8
BEZUGSACHSEN
  6
Continuous
 62
     7
100
AcDbCircle
 10
107.3991568522
 20
337.3964467345
 30
0.0
 40
1.0
100
AcDbArc
 50
270.0
 51
0.0
  0
CIRCLE
  5
EE
330
1F
100
AcDbEntity
  8
BEZUGSACHSEN
  6
Continuous
 62
     7
100
AcDbCircle
 10
71.5241568522
 20
290.3964467345
 30
0.0
 40
6.0
  0
SPLINE
  5
EF
330
1F
100
AcDbEntity
  8
BEZUGSACHSEN
  6
Continuous
 62
     7
100
AcDbSpline
210
0.0
220
0.0
230
1.0
 70
     8
 71
     3
 72
    19
 73
    15
 74
    13
 42
0.0000000001
 43
0.0000000001
 44
0.00000001
 40
0.0
 40
0.0
 40
0.0
 40
0.0
 40
0.1462385988632251
 40
0.292747927565113
 40
0.4364790706808013
 40
0.5801659236906406
 40
0.7203799973304053
 40
0.8606059383245519
 40
0.9980411884588889
 40
1.135484020507281
 40
1.405415631167289
 40
1.675815514155258
 40
1.94399742957532
 40
2.21193483482557
 40
2.21193483482557
 40
2.21193483482557
 40
2.21193483482557
 10
44.5241568522
 20
306.7550943219
 30
0.0
 10
44.57287165756676
 20
306.7584023992473
 30
0.0
 10
44.67039145346002
 20
306.7650246781474
 30
0.0
 10
44.81572771379456
 20
306.7486653653766
 30
0.0
 10
44.95638465089942
 20
306.7134935992682
 30
0.0
 10
45.0892367843296
 20
306.6606879126168
 30
0.0
 10
45.21369124739894
 20
306.5930161248943
 30
0.0
 10
45.32849380458338
 20
306.51371592352
 30
0.0
 10
45.43460374237342
 20
306.424631283943
 30
0.0
 10
45.56370620755545
 20
306.2966837483718
 30
0.0
 10
45.70674605745317
 20
306.1208814594661
 30
0.0
 10
45.85165365913814
 20
305.8931959935819
 30
0.0
 10
45.97629040752368
 20
305.6545333740852
 30
0.0
 10
46.04410897874057
 20
305.4891171336707
 30
0.0
 10
46.0780027992
 20
305.4064467345
 30
0.0
 11
44.5241568522
 21
306.7550943219
 31
0.0
 11
44.6702907141044
 21
306.7606280550327
 31
0.0
 11
44.81600007494854
 21
306.7453386613537
 31
0.0
 11
44.95543015647431
 21
306.7104403251891
 31
0.0
 11
45.08906249338507
 21
306.6576358721606
 31
0.0
 11
45.21237628420405
 21
306.5908998590904
 31
0.0
 11
45.32790739554305
 21
306.5114273679977
 31
0.0
 11
45.43331994533163
 21
306.4232420952672
 31
0.0
 11
45.53110844902783
 21
306.3266608309022
 31
0.0
 11
45.70235684491453
 21
306.1180054659107
 31
0.0
 11
45.84869926542715
 21
305.8906291419928
 31
0.0
 11
45.97256689119963
 21
305.6527670999519
 31
0.0
 11
46.0780027992
 21
305.4064467345
 31
0.0
  0
SPLINE
  5
F0
330
1F
100
AcDbEntity
  8
BEZUGSACHSEN
  6
Continuous
 62
     7
100
AcDbSpline
210
0.0
220
0.0
230
1.0
 70
     8
 71
     3
 72
    11
 73
     7
 74
     5
 42
0.0000000001
 43
0.0000000001
 44
0.00000001
 40
0.0
 40
0.0
 40
0.0
 40
0.0
 40
0.5521269407022089
 40
1.105196183334078
 40
1.651906304696218
 40
2.198197048696917
 40
2.198197048696917
 40
2.198197048696917
 40
2.198197048696917
 10
46.5241568522
 20
277.5267912087
 30
0.0
 10
46.51757141457942
 20
277.3426560182896
 30
0.0
 10
46.50438930012837
 20
276.9740713783149
 30
0.0
 10
46.40690093637404
 20
276.4306469736206
 30
0.0
 10
46.2672636232961
 20
275.8993728441243
 30
0.0
 10
46.14107360113364
 20
275.5573783640182
 30
0.0
 10
46.0780027992
 20
275.3864467345
 30
0.0
 11
46.5241568522
 21
277.5267912087
 31
0.0
 11
46.49141226979829
 21
276.9756361026069
 31
0.0
 11
46.39934561687982
 21
276.4302836307451
 31
0.0
 11
46.2588541320338
 21
275.9019332739878
 31
0.0
 11
46.0780027992
 21
275.3864467345
 31
0.0
  0
SPLINE
  5
F1
330
1F
100
AcDbEntity
  8
BEZUGSACHSEN
  6
Continuous
 62
     7
100
AcDbSpline
210
0.0
220
0.0
230
1.0
 70
     8
 71
     3
 72
    19
 73
    15
 74
    13
 42
0.0000000001
 43
0.0000000001
 44
0.00000001
 40
0.0
 40
0.0
 40
0.0
 40
0.0
 40
0.2679411643354936
 40
0.5361267936930525
 40
0.8065304773750843
 40
1.07646599324823
 40
1.213913376164905
 40
1.351353104889031
 40
1.491586367063698
 40
1.631807897554353
 40
1.775491562772658
 40
1.919219204758642
 40
2.065713007404938
 40
2.211936409415953
 40
2.211936409415953
 40
2.211936409415953
 40
2.211936409415953
 10
46.0780027992
 20
275.3864467345
 30
0.0
 10
46.04410855540092
 20
275.303775154796
 30
0.0
 10
45.9762891432635
 20
275.1383565672262
 30
0.0
 10
45.85165063697386
 20
274.899690593557
 30
0.0
 10
45.70673983763255
 20
274.6720025975471
 30
0.0
 10
45.56369620611064
 20
274.4961981062213
 30
0.0
 10
45.43458981921629
 20
274.3682483870793
 30
0.0
 10
45.32847472015697
 20
274.2791613662622
 30
0.0
 10
45.21366529250862
 20
274.1998597259436
 30
0.0
 10
45.08920568027226
 20
274.1321892585145
 30
0.0
 10
44.95635212513505
 20
274.0793865718323
 30
0.0
 10
44.81570132625751
 20
274.044220307826
 30
0.0
 10
44.67037594313468
 20
274.0278681058829
 30
0.0
 10
44.57286652405678
 20
274.0344908392345
 30
0.0
 10
44.5241568522
 20
274.037799147
 30
0.0
 11
46.0780027992
 21
275.3864467345
 31
0.0
 11
45.97256553948107
 21
275.1401228586608
 31
0.0
 11
45.84869602390444
 21
274.9022576133964
 31
0.0
 11
45.70235053759116
 21
274.6748787428201
 31
0.0
 11
45.53109834646266
 21
274.4662214406153
 31
0.0
 11
45.43330590778336
 21
274.3696376841767
 31
0.0
 11
45.32788891852865
 21
274.281450738384
 31
0.0
 11
45.21235027481523
 21
274.2019762794113
 31
0.0
 11
45.08902826492186
 21
274.1352397864782
 31
0.0
 11
44.955397576722
 21
274.0824398355143
 31
0.0
 11
44.81596987551422
 21
274.0475464091023
 31
0.0
 11
44.67027543698356
 21
274.0322635823021
 31
0.0
 11
44.5241568522
 21
274.037799147
 31
0.0
  0
SPLINE
  5
F2
330
1F
100
AcDbEntity
  8
BEZUGSACHSEN
  6
Continuous
 62
     7
100
AcDbSpline
210
0.0
220
0.0
230
1.0
 70
     8
 71
     3
 72
    47
 73
    43
 74
    41
 42
0.0000000001
 43
0.0000000001
 44
0.00000001
 40
0.0
 40
0.0
 40
0.0
 40
0.0
 40
0.6366022431793891
 40
1.273595002170144
 40
1.592921746393597
 40
1.912076344872724
 40
2.231392290398947
 40
2.550826842702597
 40
3.189774321146453
 40
3.829081697007688
 40
4.468337152520379
 40
5.107221744778866
 40
5.426176341265707
 40
5.74503335681189
 40
6.063356731590708
 40
6.381780214903729
 40
7.0170591956968
 40
7.652639341012932
 40
8.287532214252556
 40
8.922347946514494
 40
9.559226748598851
 40
10.1961343593976
 40
10.83451785506005
 40
11.47287689977055
 40
12.11234487369203
 40
12.75189588954042
 40
13.39354300527029
 40
14.03487957363745
 40
14.35615205779404
 40
14.6773210771925
 40
14.99840882479377
 40
15.31959604128428
 40
15.9601112103391
 40
16.60099592096298
 40
17.23809108086006
 40
17.87482555208616
 40
18.19205670341484
 40
18.50917199108672
 40
18.82571084635606
 40
19.14241581832771
 40
19.77338975000312
 40
20.40398930746962
 40
20.40398930746962
 40
20.40398930746962
 40
20.40398930746962
 10
65.024741258
 20
290.396446715
 30
0.0
 10
65.03074690186081
 20
290.608726524696
 30
0.0
 10
65.04276187367074
 20
291.0334163645243
 30
0.0
 10
65.12402721892516
 20
291.5595591256322
 30
0.0
 10
65.21674681549449
 20
291.9745335017596
 30
0.0
 10
65.30203977961163
 20
292.2823574774525
 30
0.0
 10
65.40227839304238
 20
292.5856501542282
 30
0.0
 10
65.55576394220515
 20
292.9830875167671
 30
0.0
 10
65.78423588900966
 20
293.465187093651
 30
0.0
 10
66.11385084958154
 20
294.0140029664976
 30
0.0
 10
66.496078066649
 20
294.5275385058677
 30
0.0
 10
66.85493276375175
 20
294.9220412679634
 30
0.0
 10
67.16388611730974
 20
295.2149145660077
 30
0.0
 10
67.40578122628372
 20
295.4226363871217
 30
0.0
 10
67.65742447976916
 20
295.6181457842542
 30
0.0
 10
68.00471858692606
 20
295.8616409869288
 30
0.0
 10
68.46045892168647
 20
296.1335230569737
 30
0.0
 10
69.03593834637621
 20
296.4048521694891
 30
0.0
 10
69.63504911153888
 20
296.6186358003031
 30
0.0
 10
70.25249951400177
 20
296.7733255316751
 30
0.0
 10
70.88277007570117
 20
296.8671325153265
 30
0.0
 10
71.52036401043158
 20
296.8992592401323
 30
0.0
 10
72.15854265466425
 20
296.868829667183
 30
0.0
 10
72.79155507585823
 20
296.7761584120188
 30
0.0
 10
73.41278876029742
 20
296.6216664507906
 30
0.0
 10
74.01692451227814
 20
296.4066293182497
 30
0.0
 10
74.59740358585806
 20
296.1327059525196
 30
0.0
 10
75.05703261008391
 20
295.8575390744602
 30
0.0
 10
75.40693159874718
 20
295.6109293756023
 30
0.0
 10
75.66006322789654
 20
295.4130251832318
 30
0.0
 10
75.90306186725059
 20
295.2028466538297
 30
0.0
 10
76.21230621075541
 20
294.9073273136748
 30
0.0
 10
76.57062640155002
 20
294.5098563309112
 30
0.0
 10
76.9505768198782
 20
293.9941895693577
 30
0.0
 10
77.27704984944931
 20
293.4445934128801
 30
0.0
 10
77.50242098941115
 20
292.9634878711681
 30
0.0
 10
77.65351197256251
 20
292.56749768355
 30
0.0
 10
77.7519248901209
 20
292.2660713327671
 30
0.0
 10
77.83559166832029
 20
291.9603759648533
 30
0.0
 10
77.9264110257941
 20
291.5488239471411
 30
0.0
 10
78.00592600142879
 20
291.0273987306122
 30
0.0
 10
78.01769828602517
 20
290.6067224414548
 30
0.0
 10
78.0235826816
 20
290.3964467151
 30
0.0
 11
65.024741258
 21
290.396446715
 31
0.0
 11
65.05598992898423
 21
291.0322815493578
 31
0.0
 11
65.14943113136903
 21
291.6623835384862
 31
0.0
 11
65.21937163838454
 21
291.9739567964124
 31
0.0
 11
65.30451297733651
 21
292.2815451741704
 31
0.0
 11
65.40473751546433
 21
292.5847245188237
 31
0.0
 11
65.51981740522065
 21
292.8827095053232
 31
0.0
 11
65.79341329949663
 21
293.4601167851916
 31
0.0
 11
66.12263281319643
 21
294.0081390772837
 31
0.0
 11
66.50425706852214
 21
294.5209845366083
 31
0.0
 11
66.93419170461928
 21
294.9935622877872
 31
0.0
 11
67.1656639656746
 21
295.2129993561736
 31
0.0
 11
67.40756636670103
 21
295.4207324174341
 31
0.0
 11
67.65894017385553
 21
295.6160295756501
 31
0.0
 11
67.91966945214743
 21
295.7988238812687
 31
0.0
 11
68.46520309635726
 21
296.1243579447284
 31
0.0
 11
69.04011291647598
 21
296.3953576123503
 31
0.0
 11
69.63805910422285
 21
296.6087804720665
 31
0.0
 11
70.25385163644633
 21
296.7630223962799
 31
0.0
 11
70.88378391842399
 21
296.8568303312685
 31
0.0
 11
71.51988704016165
 21
296.8888322563507
 31
0.0
 11
72.15754799918037
 21
296.8584679865992
 31
0.0
 11
72.78916553209093
 21
296.7659392770887
 31
0.0
 11
73.40973840421583
 21
296.611638920466
 31
0.0
 11
74.01223921136963
 21
296.397120205078
 31
0.0
 11
74.59254640775077
 21
296.1233418659919
 31
0.0
 11
75.1427713957988
 21
295.7938497470383
 31
0.0
 11
75.40537869994627
 21
295.6087729713896
 31
0.0
 11
75.65839915733811
 21
295.4109594552624
 31
0.0
 11
75.90124745870243
 21
295.2009069756671
 31
0.0
 11
76.13344989410946
 21
294.9789987580907
 31
0.0
 11
76.5623659518412
 21
294.5032985402967
 31
0.0
 11
76.94247661049664
 21
293.9873052268827
 31
0.0
 11
77.26791575618267
 21
293.4396012874963
 31
0.0
 11
77.53799661427826
 21
292.8629843289025
 31
0.0
 11
77.65108705945823
 21
292.5665958092491
 31
0.0
 11
77.74953116280756
 21
292.2651478631772
 31
0.0
 11
77.83301396820737
 21
291.959816128669
 31
0.0
 11
77.90156339167031
 21
291.6506187551121
 31
0.0
 11
77.99299046957113
 21
291.0263037770118
 31
0.0
 11
78.0235826816
 21
290.3964467151
 31
0.0
  0
SPLINE
  5
F3
330
1F
100
AcDbEntity
  8
BEZUGSACHSEN
  6
Continuous
 62
     7
100
AcDbSpline
210
0.0
220
0.0
230
1.0
 70
     8
 71
     3
 72
    47
 73
    43
 74
    41
 42
0.0000000001
 43
0.0000000001
 44
0.00000001
 40
0.0
 40
0.0
 40
0.0
 40
0.0
 40
0.6302393214806762
 40
1.260854867359763
 40
1.577476088434155
 40
1.893930800251729
 40
2.210999113891318
 40
2.528183472226395
 40
3.164887038252426
 40
3.801951183391822
 40
4.442851001626125
 40
5.083381259808048
 40
5.404527292330689
 40
5.725573838773398
 40
6.046670710044108
 40
6.367871027166144
 40
7.009090242548137
 40
7.650619763947871
 40
8.290330346479562
 40
8.929958764470301
 40
9.568647011356841
 40
10.20735923015981
 40
10.84445705817747
 40
11.48152626496328
 40
12.11643462222203
 40
12.75141965578922
 40
13.38691908737636
 40
14.02211738532392
 40
14.34050449145038
 40
14.65879153794651
 40
14.97761586871166
 40
15.29653774947688
 40
15.93537694104992
 40
16.57458694072301
 40
17.21386274996047
 40
17.85277859076575
 40
18.17219860083482
 40
18.49150024076416
 40
18.81067156636154
 40
19.1300145242366
 40
19.76719627028315
 40
20.40398968278853
 40
20.40398968278853
 40
20.40398968278853
 40
20.40398968278853
 10
78.0235704901
 20
290.3964467532
 30
0.0
 10
78.01770128832958
 20
290.1862907313046
 30
0.0
 10
78.00595938114046
 20
289.7658532338643
 30
0.0
 10
77.92651263863033
 20
289.2446897915929
 30
0.0
 10
77.83578113353336
 20
288.8332983241725
 30
0.0
 10
77.75217575121175
 20
288.5276604838906
 30
0.0
 10
77.65382380983657
 20
288.2262766377074
 30
0.0
 10
77.50280499898318
 20
287.8303034581206
 30
0.0
 10
77.27752241137624
 20
287.3491966494501
 30
0.0
 10
76.95114437662308
 20
286.7995624244573
 30
0.0
 10
76.57127731460017
 20
286.2838345617765
 30
0.0
 10
76.21302287532855
 20
285.886309159546
 30
0.0
 10
75.9038421376591
 20
285.5907558046006
 30
0.0
 10
75.66091718162845
 20
285.3805708961658
 30
0.0
 10
75.40786827830162
 20
285.1826614318507
 30
0.0
 10
75.05808576983782
 20
284.9360380803913
 30
0.0
 10
74.59860053208546
 20
284.6608314711181
 30
0.0
 10
74.01820482512935
 20
284.386791364406
 30
0.0
 10
73.41405051729959
 20
284.1716028870491
 30
0.0
 10
72.79263536989389
 20
284.0169410480088
 30
0.0
 10
72.15936615845125
 20
283.9241306749773
 30
0.0
 10
71.5209066940102
 20
283.8936199251693
 30
0.0
 10
70.88307368045531
 20
283.9257216675511
 30
0.0
 10
70.25264369346215
 20
284.0195347299275
 30
0.0
 10
69.635070023965
 20
284.1742485462169
 30
0.0
 10
69.03592661253211
 20
284.3880451182903
 30
0.0
 10
68.46046939106589
 20
284.6593664867466
 30
0.0
 10
68.00478399811081
 20
284.9312113703954
 30
0.0
 10
67.65752810036018
 20
285.174671922987
 30
0.0
 10
67.4059085190553
 20
285.3701544493067
 30
0.0
 10
67.16403346877999
 20
285.5778475079965
 30
0.0
 10
66.85509718509397
 20
285.8706850561294
 30
0.0
 10
66.4962544282061
 20
286.2651427050818
 30
0.0
 10
66.11402752296979
 20
286.7786273710474
 30
0.0
 10
65.78440307770921
 20
287.3273951497575
 30
0.0
 10
65.55591563178491
 20
287.8094585662309
 30
0.0
 10
65.4024141318188
 20
288.2068681253812
 30
0.0
 10
65.30215732890255
 20
288.5101504886637
 30
0.0
 10
65.2168408360078
 20
288.8179743603798
 30
0.0
 10
65.12407838068353
 20
289.233015227511
 30
0.0
 10
65.04278601375611
 20
289.7592880265848
 30
0.0
 10
65.03074621419344
 20
290.1841036762785
 30
0.0
 10
65.0247281494
 20
290.3964467549
 30
0.0
 11
78.0235704901
 21
290.3964467532
 31
0.0
 11
77.99303091132316
 21
289.7669477965142
 31
0.0
 11
77.90169963580757
 21
289.1429809986658
 31
0.0
 11
77.83320489710216
 21
288.833857288148
 31
0.0
 11
77.74978607224124
 21
288.528595295279
 31
0.0
 11
77.65139932839118
 21
288.2271780360704
 31
0.0
 11
77.53836869728707
 21
287.9308167808351
 31
0.0
 11
77.26838856077474
 21
287.3541867808532
 31
0.0
 11
76.94305193892139
 21
286.8064580090115
 31
0.0
 11
76.56301544412943
 21
286.290391308246
 31
0.0
 11
76.13416494646873
 21
285.8146116719618
 31
0.0
 11
75.90202781209871
 21
285.5926947391885
 31
0.0
 11
75.65924531876236
 21
285.3826291639216
 31
0.0
 11
75.40631571046401
 21
285.1848165910505
 31
0.0
 11
75.1438013146297
 21
284.9997332700866
 31
0.0
 11
74.59374313303087
 21
284.6701910436098
 31
0.0
 11
74.01360230137988
 21
284.39633571268
 31
0.0
 11
73.41099699108834
 21
284.1816348290967
 31
0.0
 11
72.79029772076703
 21
284.0271779453914
 31
0.0
 11
72.15836890684464
 21
283.934502971177
 31
0.0
 11
71.52038277966348
 21
283.9040562969319
 31
0.0
 11
70.8840877915386
 21
283.9360302011664
 31
0.0
 11
70.25396451743093
 21
284.0298482893078
 31
0.0
 11
69.6380806091895
 21
284.1841066235601
 31
0.0
 11
69.04004813937053
 21
284.3975619066911
 31
0.0
 11
68.46521239082381
 21
284.6685294134891
 31
0.0
 11
67.91974570328242
 21
284.9940182312664
 31
0.0
 11
67.6590434105055
 21
285.176787659477
 31
0.0
 11
67.40769415869718
 21
285.3720572105664
 31
0.0
 11
67.16581086034762
 21
285.5797623474007
 31
0.0
 11
66.93435502904742
 21
285.7991691936658
 31
0.0
 11
66.50443199816719
 21
286.2716961243358
 31
0.0
 11
66.1228108587094
 21
286.7844872412645
 31
0.0
 11
65.79357938453036
 21
287.332465522482
 31
0.0
 11
65.51996507738632
 21
287.909829067017
 31
0.0
 11
65.40487282492793
 21
288.2077936895087
 31
0.0
 11
65.30463313651201
 21
288.5109529580918
 31
0.0
 11
65.21946605631894
 21
288.8185515659153
 31
0.0
 11
65.14950302886416
 21
289.1301363850798
 31
0.0
 11
65.05601413190024
 21
289.7604223548105
 31
0.0
 11
65.0247281494
 21
290.3964467549
 31
0.0
  0
SPLINE
  5
F4
330
1F
100
AcDbEntity
  8
BEZUGSACHSEN
  6
Continuous
 62
     7
100
AcDbSpline
210
0.0
220
0.0
230
1.0
 70
     8
 71
     3
 72
    27
 73
    23
 74
    21
 42
0.0000000001
 43
0.0000000001
 44
0.00000001
 40
0.0
 40
0.0
 40
0.0
 40
0.0
 40
0.1219765139516402
 40
0.2439857714748875
 40
0.3566831398307462
 40
0.4694418149413715
 40
0.5721317672348802
 40
0.6745445880227421
 40
0.7225206520242804
 40
0.7704888796722384
 40
0.8171412935079528
 40
0.8637898733435745
 40
0.9102318000271605
 40
0.9566751323770504
 40
1.004175175705575
 40
1.051683100081023
 40
1.153672388683132
 40
1.256049376635788
 40
1.37074513806709
 40
1.4853854018548
 40
1.611534903892402
 40
1.737631875937293
 40
1.737631875937293
 40
1.737631875937293
 40
1.737631875937293
 10
37.6699995278
 20
275.154110739
 30
0.0
 10
37.63474451019662
 20
275.1338312137351
 30
0.0
 10
37.56422501107622
 20
275.093266719337
 30
0.0
 10
37.4565726078911
 20
275.0424708584457
 30
0.0
 10
37.34841459202671
 20
275.0007192225789
 30
0.0
 10
37.24283537107937
 20
274.9713046374376
 30
0.0
 10
37.13800382596456
 20
274.9543900500458
 30
0.0
 10
37.05327615614044
 20
274.9525248268191
 30
0.0
 10
36.98745221974966
 20
274.9594801348386
 30
0.0
 10
36.94074501653687
 20
274.9686772619918
 30
0.0
 10
36.89556439922813
 20
274.9822107069805
 30
0.0
 10
36.85242478856199
 20
275.0000039657886
 30
0.0
 10
36.8114703119583
 20
275.0222323234866
 30
0.0
 10
36.77282288546605
 20
275.0487673551817
 30
0.0
 10
36.73691680683915
 20
275.0794626327181
 30
0.0
 10
36.69147748533297
 20
275.1270001058494
 30
0.0
 10
36.64293434527028
 20
275.1961694729544
 30
0.0
 10
36.59670863629582
 20
275.2923275276716
 30
0.0
 10
36.56274276247913
 20
275.3979029606646
 30
0.0
 10
36.5397873382617
 20
275.5143206515723
 30
0.0
 10
36.52634277989756
 20
275.6360679602301
 30
0.0
 10
36.5248853935996
 20
275.7201713237479
 30
0.0
 10
36.5241568522
 20
275.7622142483
 30
0.0
 11
37.6699995278
 21
275.154110739
 31
0.0
 11
37.56345490373946
 21
275.0947262878398
 31
0.0
 11
37.45316201457079
 21
275.042556013543
 31
0.0
 11
37.34784400672116
 21
275.0024459891486
 31
0.0
 11
37.23912027819775
 21
274.9725516808497
 31
0.0
 11
37.13765612611547
 21
274.9567323210565
 31
0.0
 11
37.03525658556395
 21
274.9550830919745
 31
0.0
 11
36.98755272935649
 21
274.96018650456
 31
0.0
 11
36.94050195909577
 21
274.969523307094
 31
0.0
 11
36.89582239166026
 21
274.9829465693828
 31
0.0
 11
36.85271625504978
 21
275.0007777495793
 31
0.0
 11
36.8118936622213
 21
275.0229220144992
 31
0.0
 11
36.7736064056522
 21
275.0492102077459
 31
0.0
 11
36.73746930865138
 21
275.0800381875137
 31
0.0
 11
36.70461680830546
 21
275.1143560560297
 31
0.0
 11
36.64544441408096
 21
275.1974249596659
 31
0.0
 11
36.60054469047208
 21
275.2894307338439
 31
0.0
 11
36.5649065308719
 21
275.3984492610336
 31
0.0
 11
36.54205496747164
 21
275.5107889073366
 31
0.0
 11
36.52828821113221
 21
275.6361849730015
 31
0.0
 11
36.5241568522
 21
275.7622142483
 31
0.0
  0
SPLINE
  5
F5
330
1F
100
AcDbEntity
  8
BEZUGSACHSEN
  6
Continuous
 62
     7
100
AcDbSpline
210
0.0
220
0.0
230
1.0
 70
     8
 71
     3
 72
    27
 73
    23
 74
    21
 42
0.0000000001
 43
0.0000000001
 44
0.00000001
 40
0.0
 40
0.0
 40
0.0
 40
0.0
 40
0.1260969826140578
 40
0.2522464959677005
 40
0.3668867953137285
 40
0.4815825894687654
 40
0.5839596007410675
 40
0.6859489161896014
 40
0.7334568411117678
 40
0.7809568849563434
 40
0.8274002265050273
 40
0.8738421607809326
 40
0.9204907319624175
 40
0.9671431399967234
 40
1.015111401893609
 40
1.063087497214359
 40
1.165500418815296
 40
1.268190479015576
 40
1.380949153940447
 40
1.493646517818971
 40
1.615655563791809
 40
1.737631867654711
 40
1.737631867654711
 40
1.737631867654711
 40
1.737631867654711
 10
36.5241568522
 20
305.0306792206
 30
0.0
 10
36.52488539368294
 20
305.0727221486816
 30
0.0
 10
36.52634278015188
 20
305.1568255195075
 30
0.0
 10
36.53978734216658
 20
305.2785728470841
 30
0.0
 10
36.56274277546636
 20
305.3949905634619
 30
0.0
 10
36.59670867579471
 20
305.5005660212595
 30
0.0
 10
36.64293443465378
 20
305.5967240835144
 30
0.0
 10
36.69147760321076
 20
305.6658934491769
 30
0.0
 10
36.73691692876847
 20
305.7134309307943
 30
0.0
 10
36.77282300685954
 20
305.7441262142763
 30
0.0
 10
36.81147043795229
 20
305.7706612499886
 30
0.0
 10
36.85242492515783
 20
305.7928895958838
 30
0.0
 10
36.89556455133339
 20
305.8106828127612
 30
0.0
 10
36.94074518594677
 20
305.8242162198223
 30
0.0
 10
36.98745240893641
 20
305.8334133451561
 30
0.0
 10
37.05327640013986
 20
305.8403686655367
 30
0.0
 10
37.13800415213689
 20
305.8385034089031
 30
0.0
 10
37.24283575562604
 20
305.8215887479618
 30
0.0
 10
37.34841499797228
 20
305.7921741151028
 30
0.0
 10
37.45657293606589
 20
305.750422477636
 30
0.0
 10
37.56422519731963
 20
305.6996266504617
 30
0.0
 10
37.63474457213683
 20
305.659062222212
 30
0.0
 10
37.6699995278
 20
305.6387827299
 30
0.0
 11
36.5241568522
 21
305.0306792206
 31
0.0
 11
36.52828821179397
 21
305.1567085064517
 31
0.0
 11
36.542054970963
 21
305.2821045831899
 31
0.0
 11
36.56490654706496
 21
305.3944442631957
 31
0.0
 11
36.60054473643866
 21
305.5034628150803
 31
0.0
 11
36.6454445012388
 21
305.5954685951049
 31
0.0
 11
36.70461693019294
 21
305.6785375069633
 31
0.0
 11
36.73746943035447
 21
305.7128553764127
 31
0.0
 11
36.77360652528129
 21
305.7436833594068
 31
0.0
 11
36.81189379014273
 21
305.7699715568277
 31
0.0
 11
36.85271639807998
 21
305.7921158098177
 31
0.0
 11
36.89582254169804
 21
305.8099469504334
 31
0.0
 11
36.94050211374238
 21
305.8233701772188
 31
0.0
 11
36.98755291949752
 21
305.8327069768418
 31
0.0
 11
37.03525680677159
 21
305.8378103934591
 31
0.0
 11
37.13765644762932
 21
305.836161132095
 31
0.0
 11
37.23912069793003
 21
305.8203417018002
 31
0.0
 11
37.34784441436722
 21
305.7904473502451
 31
0.0
 11
37.45316240666172
 21
305.7503372975872
 31
0.0
 11
37.56345509256712
 21
305.6981670883201
 31
0.0
 11
37.6699995278
 21
305.6387827299
 31
0.0
  0
SPLINE
  5
F6
330
1F
100
AcDbEntity
  8
BEZUGSACHSEN
  6
Continuous
 62
     7
100
AcDbSpline
210
0.0
220
0.0
230
1.0
 70
     8
 71
     3
 72
    15
 73
    11
 74
     9
 42
0.0000000001
 43
0.0000000001
 44
0.00000001
 40
0.0
 40
0.0
 40
0.0
 40
0.0
 40
0.1110371613090606
 40
0.2222522336978261
 40
0.3333980191426525
 40
0.4445069474327032
 40
0.5556201064960642
 40
0.6667525642275354
 40
0.7778876033747343
 40
0.8889820915604713
 40
0.8889820915604713
 40
0.8889820915604713
 40
0.8889820915604713
 10
38.4240823675
 20
274.7199143482
 30
0.0
 10
38.38744064063951
 20
274.7254465010218
 30
0.0
 10
38.31409847712165
 20
274.7365196706467
 30
0.0
 10
38.20758192713476
 20
274.7695382342129
 30
0.0
 10
38.10516901939165
 20
274.8131285216814
 30
0.0
 10
38.00771905377047
 20
274.8669080295065
 30
0.0
 10
37.91541425802437
 20
274.929003164865
 30
0.0
 10
37.82841762986968
 20
274.9982898385092
 30
0.0
 10
37.74616487440993
 20
275.0731717901235
 30
0.0
 10
37.69538488800561
 20
275.1271343716185
 30
0.0
 10
37.6699995278
 20
275.154110739
 30
0.0
 11
38.4240823675
 21
274.7199143482
 31
0.0
 11
38.31474008245124
 21
274.7392409074357
 31
0.0
 11
38.20824812886315
 21
274.7713073407801
 31
0.0
 11
38.10597994826535
 21
274.8148343997132
 31
0.0
 11
38.00857708182644
 21
274.8682935014195
 31
0.0
 11
37.91630531502108
 21
274.9301970971766
 31
0.0
 11
37.82920821158105
 21
274.9992225832943
 31
0.0
 11
37.74716830707992
 21
275.0741922504651
 31
0.0
 11
37.6699995278
 21
275.154110739
 31
0.0
  0
SPLINE
  5
F7
330
1F
100
AcDbEntity
  8
BEZUGSACHSEN
  6
Continuous
 62
     7
100
AcDbSpline
210
0.0
220
0.0
230
1.0
 70
     8
 71
     3
 72
    15
 73
    11
 74
     9
 42
0.0000000001
 43
0.0000000001
 44
0.00000001
 40
0.0
 40
0.0
 40
0.0
 40
0.0
 40
0.1110944831967733
 40
0.2222295182205779
 40
0.333362040263101
 40
0.4444752610732876
 40
0.5555842178450323
 40
0.6667300354244563
 40
0.7779450182129644
 40
0.8889820871641628
 40
0.8889820871641628
 40
0.8889820871641628
 40
0.8889820871641628
 10
37.6699995278
 20
305.6387827299
 30
0.0
 10
37.69538488737352
 20
305.6657590956071
 30
0.0
 10
37.74616487271163
 20
305.719721673963
 30
0.0
 10
37.82841764199553
 20
305.7946036373673
 30
0.0
 10
37.91541429394992
 20
305.8638903462667
 30
0.0
 10
38.00771913437335
 20
305.9259855093273
 30
0.0
 10
38.10516915635372
 20
305.9797650014244
 30
0.0
 10
38.20758207022456
 20
306.0233552469982
 30
0.0
 10
38.31409856879468
 20
306.0563738028297
 30
0.0
 10
38.38744067150031
 20
306.067446969451
 30
0.0
 10
38.4240823675
 20
306.0729791207
 30
0.0
 11
37.6699995278
 21
305.6387827299
 31
0.0
 11
37.7471683049144
 21
305.7187012135907
 31
0.0
 11
37.82920820517828
 21
305.7936708792859
 31
0.0
 11
37.91630535378935
 21
305.8626964119484
 31
0.0
 11
38.00857717536193
 21
305.9246000369028
 31
0.0
 11
38.10598008342718
 21
305.9780591219617
 31
0.0
 11
38.20824830681601
 21
306.0215861624112
 31
0.0
 11
38.31474017494046
 21
306.0536525688206
 31
0.0
 11
38.4240823675
 21
306.0729791207
 31
0.0
  0
SPLINE
  5
F8
330
1F
100
AcDbEntity
  8
0
  6
Continuous
 62
     7
100
AcDbSpline
210
0.0
220
0.0
230
1.0
 70
     8
 71
     3
 72
    19
 73
    15
 74
    13
 42
0.0000000001
 43
0.0000000001
 44
0.00000001
 40
0.0
 40
0.0
 40
0.0
 40
0.0
 40
0.116246023512698
 40
0.2327881717702628
 40
0.3491890045833524
 40
0.465546855049843
 40
0.5819071369642975
 40
0.698273848880505
 40
0.8146206072267623
 40
0.9309998277679737
 40
1.163276323411354
 40
1.396138921762009
 40
1.629013178063164
 40
1.861351539723167
 40
1.861351539723167
 40
1.861351539723167
 40
1.861351539723167
 10
105.6491568522
 20
256.8740661508
 30
0.0
 10
105.6103727813791
 20
256.8722252039024
 30
0.0
 10
105.5327058413206
 20
256.8685386204853
 30
0.0
 10
105.4190957562639
 20
256.8401331354914
 30
0.0
 10
105.3109080682962
 20
256.7962792212774
 30
0.0
 10
105.2099322023257
 20
256.7376825330495
 30
0.0
 10
105.1171637456016
 20
256.6669976717217
 30
0.0
 10
105.0330763666182
 20
256.5862400666357
 30
0.0
 10
104.9577727232435
 20
256.4972724278938
 30
0.0
 10
104.8691214790753
 20
256.3699129801423
 30
0.0
 10
104.7791247333401
 20
256.1971276020513
 30
0.0
 10
104.704231214176
 20
255.9762026118634
 30
0.0
 10
104.6576942888337
 20
255.7471826922743
 30
0.0
 10
104.6520004781115
 20
255.5920032994397
 30
0.0
 10
104.6491568522
 20
255.5145029813
 30
0.0
 11
105.6491568522
 21
256.8740661508
 31
0.0
 11
105.5332855007089
 21
256.8647404933889
 31
0.0
 11
105.4199609759865
 21
256.8375444566017
 31
0.0
 11
105.3120878433555
 21
256.7938118470757
 31
0.0
 11
105.2112991038422
 21
256.7356673774118
 31
0.0
 11
105.1186117987947
 21
256.6653198210204
 31
0.0
 11
105.0345364331692
 21
256.5848676952739
 31
0.0
 11
104.9592376752375
 21
256.4961734720594
 31
0.0
 11
104.8926109459222
 21
256.4007533383636
 31
0.0
 11
104.7847211598137
 21
256.1950541296101
 31
0.0
 11
104.7089630229619
 21
255.9748594557159
 31
0.0
 11
104.6640030091453
 21
255.7463665315247
 31
0.0
 11
104.6491568522
 21
255.5145029813
 31
0.0
  0
SPLINE
  5
F9
330
1F
100
AcDbEntity
  8
0
  6
Continuous
 62
     7
100
AcDbSpline
210
0.0
220
0.0
230
1.0
 70
     8
 71
     3
 72
    19
 73
    15
 74
    13
 42
0.0000000001
 43
0.0000000001
 44
0.00000001
 40
0.0
 40
0.0
 40
0.0
 40
0.0
 40
0.2323383481143078
 40
0.4652125956936848
 40
0.6980761132641058
 40
0.9303535187232312
 40
1.046733461791955
 40
1.163080940862394
 40
1.279447997430463
 40
1.395808629538832
 40
1.512165904521235
 40
1.628566140354522
 40
1.745106920524734
 40
1.861351602849203
 40
1.861351602849203
 40
1.861351602849203
 40
1.861351602849203
 10
108.3991568522
 20
255.5145029813
 30
0.0
 10
108.3963132266018
 20
255.5920032949583
 30
0.0
 10
108.3906194164477
 20
255.7471826804395
 30
0.0
 10
108.3440824406515
 20
255.9762028944629
 30
0.0
 10
108.2691886948647
 20
256.1971284563505
 30
0.0
 10
108.1791913906095
 20
256.3699145205618
 30
0.0
 10
108.0905394528348
 20
256.4972744463056
 30
0.0
 10
108.0152351884906
 20
256.5862423452289
 30
0.0
 10
107.9311472146428
 20
256.6670000151622
 30
0.0
 10
107.8383784807798
 20
256.737684581504
 30
0.0
 10
107.7374026685277
 20
256.7962808056617
 30
0.0
 10
107.6292156190362
 20
256.8401340568381
 30
0.0
 10
107.5156065096885
 20
256.8685388163581
 30
0.0
 10
107.4379404748827
 20
256.8722252690142
 30
0.0
 10
107.3991568522
 20
256.8740661508
 30
0.0
 11
108.3991568522
 21
255.5145029813
 31
0.0
 11
108.3843106981079
 21
255.746366518134
 31
0.0
 11
108.3393506965486
 21
255.974859435848
 31
0.0
 11
108.2635922178531
 21
256.1950549642336
 31
0.0
 11
108.1557018066736
 21
256.4007548725037
 31
0.0
 11
108.0890744828501
 21
256.4961754723174
 31
0.0
 11
108.0137750262934
 21
256.5848700478466
 31
0.0
 11
107.9296991599406
 21
256.6653221488219
 31
0.0
 11
107.8370113339394
 21
256.7356695980709
 31
0.0
 11
107.7362228990234
 21
256.7938134440781
 31
0.0
 11
107.6283501702516
 21
256.8375454608321
 31
0.0
 11
107.5150268817321
 21
256.8647407861989
 31
0.0
 11
107.3991568522
 21
256.8740661508
 31
0.0
  0
SPLINE
  5
FA
330
1F
100
AcDbEntity
  8
BEZUGSACHSEN
  6
Continuous
 62
     7
100
AcDbSpline
210
0.0
220
0.0
230
1.0
 70
     8
 71
     3
 72
    11
 73
     7
 74
     5
 42
0.0000000001
 43
0.0000000001
 44
0.00000001
 40
0.0
 40
0.0
 40
0.0
 40
0.0
 40
0.5462907431577805
 40
1.093000863651877
 40
1.646070107169481
 40
2.198197048679415
 40
2.198197048679415
 40
2.198197048679415
 40
2.198197048679415
 10
46.0780027992
 20
305.4064467345
 30
0.0
 10
46.14107360102901
 20
305.2355151052428
 30
0.0
 10
46.26726362297927
 20
304.8935206256666
 30
0.0
 10
46.40690093602002
 20
304.3622464964512
 30
0.0
 10
46.50438930002743
 20
303.8188220915192
 30
0.0
 10
46.5175714145461
 20
303.4502374509798
 30
0.0
 10
46.5241568522
 20
303.2661022603
 30
0.0
 11
46.0780027992
 21
305.4064467345
 31
0.0
 11
46.25885413174169
 21
304.890960195803
 31
0.0
 11
46.3993456164275
 21
304.3626098399013
 31
0.0
 11
46.49141226965793
 21
303.8172573671939
 31
0.0
 11
46.5241568522
 21
303.2661022603
 31
0.0
  0
SPLINE
  5
FB
330
1F
100
AcDbEntity
  8
BEZUGSACHSEN
  6
Continuous
 62
     7
100
AcDbSpline
210
0.0
220
0.0
230
1.0
 70
     8
 71
     3
 72
    11
 73
     7
 74
     5
 42
0.0000000001
 43
0.0000000001
 44
0.00000001
 40
0.0
 40
0.0
 40
0.0
 40
0.0
 40
0.9140556660003477
 40
1.828030949185893
 40
2.279806974871131
 40
2.730944124762515
 40
2.730944124762515
 40
2.730944124762515
 40
2.730944124762515
 10
37.7911097790854
 20
275.386446734685
 30
0.0
 10
37.92376448604878
 20
275.6611633323516
 30
0.0
 10
38.18906223421038
 20
276.2105723688788
 30
0.0
 10
38.40441744752307
 20
276.9432832899838
 30
0.0
 10
38.5081116611854
 20
277.5412284960897
 30
0.0
 10
38.5188109787065
 20
277.8423517115166
 30
0.0
 10
38.5241568522
 20
277.9928067861
 30
0.0
 11
37.7911097790854
 21
275.386446734685
 31
0.0
 11
38.1659173088609
 21
276.2201235762555
 31
0.0
 11
38.42520866925877
 21
277.096547451271
 31
0.0
 11
38.49792564275738
 21
277.5424328840327
 31
0.0
 11
38.5241568522
 21
277.9928067861
 31
0.0
  0
SPLINE
  5
FC
330
1F
100
AcDbEntity
  8
BEZUGSACHSEN
  6
Continuous
 62
     7
100
AcDbSpline
210
0.0
220
0.0
230
1.0
 70
     8
 71
     3
 72
    11
 73
     7
 74
     5
 42
0.0000000001
 43
0.0000000001
 44
0.00000001
 40
0.0
 40
0.0
 40
0.0
 40
0.0
 40
0.8249192366724755
 40
1.650116891930991
 40
2.190492152293483
 40
2.730585915378246
 40
2.730585915378246
 40
2.730585915378246
 40
2.730585915378246
 10
38.5241568522
 20
302.8000866829
 30
0.0
 10
38.50642354786181
 20
303.0752769748769
 30
0.0
 10
38.47095095401587
 20
303.6257504383377
 30
0.0
 10
38.26251613738042
 20
304.3304840234905
 30
0.0
 10
38.03228970640079
 20
304.9226977485708
 30
0.0
 10
37.87148912359881
 20
305.245225082016
 30
0.0
 10
37.7911097790854
 20
305.406446734315
 30
0.0
 11
38.5241568522
 21
302.8000866829
 31
0.0
 11
38.44058139808426
 21
303.6207613385959
 31
0.0
 11
38.22261995597248
 21
304.4166532784952
 31
0.0
 11
38.0246848774133
 21
304.9194724574131
 31
0.0
 11
37.7911097790854
 21
305.406446734315
 31
0.0
  0
DIMENSION
  5
107
330
1F
100
AcDbEntity
  8
1
100
AcDbDimension
  2
*D2
 10
258.211607695008
 20
302.8964467345
 30
0.0
 11
254.461607695008
 21
290.223759449683
 31
0.0
 70
    32
  1
<>
 71
     5
 42
-1.0
 53
90.0
  3
ME10_DIM_10
100
AcDbAlignedDimension
 13
246.5241568522
 23
277.8964467345
 33
0.0
 14
246.5241568522
 24
302.8964467345
 34
0.0
 50
90.0
100
AcDbRotatedDimension
  0
DIMENSION
  5
112
330
1F
100
AcDbEntity
  8
1
100
AcDbDimension
  2
*D3
 10
266.54713404201
 20
312.396446734468
 30
0.0
 11
262.79713404201
 21
290.223759449683
 31
0.0
 70
    32
  1
<>
 71
     5
 42
-1.0
 53
90.0
  3
ME10_DIM_11
100
AcDbAlignedDimension
 13
246.5241568522
 23
268.3964467345343
 33
0.0
 14
246.5241568522105
 24
312.396446734468
 34
0.0
 50
90.0
100
AcDbRotatedDimension
  0
DIMENSION
  5
11D
330
1F
100
AcDbEntity
  8
1
100
AcDbDimension
  2
*D4
 10
275.979440171513
 20
316.8964467345
 30
0.0
 11
272.229440171513
 21
290.004403493183
 31
0.0
 70
    32
  1
<>
 71
     5
 42
-1.0
 53
90.0
  3
ME10_DIM_12
100
AcDbAlignedDimension
 13
189.3462355395
 23
263.8964467345
 33
0.0
 14
189.3462355395
 24
316.8964467345
 34
0.0
 50
90.0
100
AcDbRotatedDimension
  0
DIMENSION
  5
128
330
1F
100
AcDbEntity
  8
1
100
AcDbDimension
  2
*D5
 10
246.5241568522
 20
348.7917998352
 30
0.0
 11
181.217666963486
 21
352.5417998352
 31
0.0
 70
    32
  1
<>
 71
     5
 42
-1.0
 53
0.00013888888889
  3
ME10_DIM_13
100
AcDbAlignedDimension
 13
115.5241568522
 23
340.3964098133
 33
0.0
 14
246.5241568522
 24
311.4720562428
 34
0.0
100
AcDbRotatedDimension
  0
DIMENSION
  5
133
330
1F
100
AcDbEntity
  8
1
100
AcDbDimension
  2
*D6
 10
246.5241568522
 20
356.030546399702
 30
0.0
 11
165.424038095482
 21
359.780546399702
 31
0.0
 70
    32
  1
<>
 71
     5
 42
-1.0
 53
0.00013888888889
  3
ME10_DIM_14
100
AcDbAlignedDimension
 13
86.5241568522
 23
340.3964467345
 33
0.0
 14
246.5241568522
 24
311.4720562428
 34
0.0
100
AcDbRotatedDimension
  0
DIMENSION
  5
13E
330
1F
100
AcDbEntity
  8
1
100
AcDbDimension
  2
*D7
 10
246.5241568522
 20
363.708004877204
 30
0.0
 11
149.630409227477
 21
367.458004877204
 31
0.0
 70
    32
  1
<>
 71
     5
 42
-1.0
 53
0.00013888888889
  3
ME10_DIM_15
100
AcDbAlignedDimension
 13
36.5241568522
 23
323.996638297
 33
0.0
 14
246.5241568522
 24
311.4720562428
 34
0.0
100
AcDbRotatedDimension
  0
INSERT
  5
145
330
1F
100
AcDbEntity
  8
1
100
AcDbBlockReference
  2
*D8
 10
0.0
 20
0.0
 30
0.0
  0
DIMENSION
  5
150
330
1F
100
AcDbEntity
  8
1
100
AcDbDimension
  2
*D9
 10
225.6133545448685
 20
315.4715077479268
 30
0.0
 11
228.2977368273546
 21
326.1911053395859
 31
0.0
 70
    37
  1
<>
 71
     5
 42
-1.0
  3
ME10_DIM_16
100
AcDb3PointAngularDimension
 13
225.5294510683818
 23
314.0487659139894
 33
0.0
 14
192.9757456608043
 24
316.8964467344999
 34
0.0
 15
189.3462355395
 25
316.8964467344999
 35
0.0
  0
ENDSEC
  0
SECTION
  2
OBJECTS
  0
DICTIONARY
  5
C
330
0
100
AcDbDictionary
281
     1
  3
ACAD_GROUP
350
D
  3
ACAD_LAYOUT
350
1A
  3
ACAD_MLEADERSTYLE
350
153
  3
ACAD_MLINESTYLE
350
17
  3
ACAD_PLOTSETTINGS
350
19
  3
ACAD_PLOTSTYLENAME
350
E
  3
ACAD_SCALELIST
350
4A
  3
ACAD_VISUALSTYLE
350
2A
  3
AcDbVariableDictionary
350
151
  0
DICTIONARY
  5
D
102
{ACAD_REACTORS
330
C
102
}
330
C
100
AcDbDictionary
281
     1
  0
DICTIONARY
  5
1A
102
{ACAD_REACTORS
330
C
102
}
330
C
100
AcDbDictionary
281
     1
  3
Layout1
350
1E
  3
Layout2
350
26
  3
Model
350
22
  0
DICTIONARY
  5
153
102
{ACAD_REACTORS
330
C
102
}
330
C
100
AcDbDictionary
281
     1
  0
DICTIONARY
  5
17
102
{ACAD_REACTORS
330
C
102
}
330
C
100
AcDbDictionary
281
     1
  3
Standard
350
18
  0
DICTIONARY
  5
19
102
{ACAD_REACTORS
330
C
102
}
330
C
100
AcDbDictionary
281
     1
  0
ACDBDICTIONARYWDFLT
  5
E
102
{ACAD_REACTORS
330
C
102
}
330
C
100
AcDbDictionary
281
     1
  3
Normal
350
F
100
AcDbDictionaryWithDefault
340
F
  0
DICTIONARY
  5
4A
102
{ACAD_REACTORS
330
C
102
}
330
C
100
AcDbDictionary
281
     1
  3
A0
350
4B
  3
A1
350
4C
  3
A2
350
4D
  3
A3
350
4E
  3
A4
350
4F
  3
A5
350
50
  3
A6
350
51
  3
A7
350
52
  3
A8
350
53
  3
A9
350
54
  3
B0
350
55
  3
B1
350
56
  3
B2
350
57
  3
B3
350
58
  3
B4
350
59
  3
B5
350
5A
  3
B6
350
5B
  3
B7
350
5C
  3
B8
350
5D
  3
B9
350
5E
  3
C0
350
5F
  3
C1
350
60
  3
C2
350
61
  3
C3
350
62
  3
C4
350
63
  3
C5
350
64
  3
C6
350
65
  3
C7
350
66
  3
C8
350
67
  3
C9
350
68
  3
D0
350
69
  3
D1
350
6A
  3
D2
350
6B
  0
DICTIONARY
  5
2A
102
{ACAD_REACTORS
330
C
102
}
330
C
100
AcDbDictionary
281
     1
  3
2dWireframe
350
2F
  3
3D Hidden
350
31
  3
3dWireframe
350
30
  3
Basic
350
32
  3
Brighten
350
36
  3
ColorChange
350
3A
  3
Conceptual
350
34
  3
Dim
350
35
  3
Facepattern
350
39
  3
Flat
350
2B
  3
FlatWithEdges
350
2C
  3
Gouraud
350
2D
  3
GouraudWithEdges
350
2E
  3
Linepattern
350
38
  3
Realistic
350
33
  3
Thicken
350
37
  0
DICTIONARY
  5
151
102
{ACAD_REACTORS
330
C
102
}
330
C
100
AcDbDictionary
281
     1
  3
CANNOSCALE
350
154
  0
LAYOUT
  5
1E
102
{ACAD_REACTORS
330
1A
102
}
330
1A
100
AcDbPlotSettings
  1

  2
none_device
  4

  6

 40
0.0
 41
0.0
 42
0.0
 43
0.0
 44
0.0
 45
0.0
 46
0.0
 47
0.0
 48
0.0
 49
0.0
140
0.0
141
0.0
142
1.0
143
1.0
 70
   688
 72
     0
 73
     0
 74
     5
  7

 75
    16
147
1.0
148
0.0
149
0.0
100
AcDbLayout
  1
Layout1
 70
     1
 71
     1
 10
0.0
 20
0.0
 11
12.0
 21
9.0
 12
0.0
 22
0.0
 32
0.0
 14
1.00000000000000E+20
 24
1.00000000000000E+20
 34
1.00000000000000E+20
 15
-1.00000000000000E+20
 25
-1.00000000000000E+20
 35
-1.00000000000000E+20
146
0.0
 13
0.0
 23
0.0
 33
0.0
 16
1.0
 26
0.0
 36
0.0
 17
0.0
 27
1.0
 37
0.0
 76
     0
330
1B
  0
LAYOUT
  5
26
102
{ACAD_REACTORS
330
1A
102
}
330
1A
100
AcDbPlotSettings
  1

  2
none_device
  4

  6

 40
0.0
 41
0.0
 42
0.0
 43
0.0
 44
0.0
 45
0.0
 46
0.0
 47
0.0
 48
0.0
 49
0.0
140
0.0
141
0.0
142
1.0
143
1.0
 70
   688
 72
     0
 73
     0
 74
     5
  7

 75
    16
147
1.0
148
0.0
149
0.0
100
AcDbLayout
  1
Layout2
 70
     1
 71
     2
 10
0.0
 20
0.0
 11
0.0
 21
0.0
 12
0.0
 22
0.0
 32
0.0
 14
0.0
 24
0.0
 34
0.0
 15
0.0
 25
0.0
 35
0.0
146
0.0
 13
0.0
 23
0.0
 33
0.0
 16
1.0
 26
0.0
 36
0.0
 17
0.0
 27
1.0
 37
0.0
 76
     0
330
23
  0
LAYOUT
  5
22
102
{ACAD_REACTORS
330
1A
102
}
330
1A
100
AcDbPlotSettings
  1

  2
none_device
  4

  6

 40
0.0
 41
0.0
 42
0.0
 43
0.0
 44
0.0
 45
0.0
 46
0.0
 47
0.0
 48
0.0
 49
0.0
140
0.0
141
0.0
142
1.0
143
1.0
 70
  1712
 72
     0
 73
     0
 74
     0
  7

 75
     0
147
1.0
148
0.0
149
0.0
100
AcDbLayout
  1
Model
 70
     1
 71
     0
 10
0.0
 20
0.0
 11
12.0
 21
9.0
 12
0.0
 22
0.0
 32
0.0
 14
13.2297855004425
 24
240.3964467345
 34
0.0
 15
277.979440171513
 25
369.208004877204
 35
0.0
146
0.0
 13
0.0
 23
0.0
 33
0.0
 16
1.0
 26
0.0
 36
0.0
 17
0.0
 27
1.0
 37
0.0
 76
     0
330
1F
331
29
  0
MLINESTYLE
  5
18
102
{ACAD_REACTORS
330
17
102
}
330
17
100
AcDbMlineStyle
  2
Standard
 70
     0
  3

 62
   256
 51
90.0
 52
90.0
 71
     2
 49
0.5
 62
   256
  6
BYLAYER
 49
-0.5
 62
   256
  6
BYLAYER
  0
ACDBPLACEHOLDER
  5
F
102
{ACAD_REACTORS
330
E
102
}
330
E
  0
SCALE
  5
4B
102
{ACAD_REACTORS
330
4A
102
}
330
4A
100
AcDbScale
 70
     0
300
1:1
140
1.0
141
1.0
290
     1
  0
SCALE
  5
4C
102
{ACAD_REACTORS
330
4A
102
}
330
4A
100
AcDbScale
 70
     0
300
1:2
140
1.0
141
2.0
290
     0
  0
SCALE
  5
4D
102
{ACAD_REACTORS
330
4A
102
}
330
4A
100
AcDbScale
 70
     0
300
1:4
140
1.0
141
4.0
290
     0
  0
SCALE
  5
4E
102
{ACAD_REACTORS
330
4A
102
}
330
4A
100
AcDbScale
 70
     0
300
1:5
140
1.0
141
5.0
290
     0
  0
SCALE
  5
4F
102
{ACAD_REACTORS
330
4A
102
}
330
4A
100
AcDbScale
 70
     0
300
1:8
140
1.0
141
8.0
290
     0
  0
SCALE
  5
50
102
{ACAD_REACTORS
330
4A
102
}
330
4A
100
AcDbScale
 70
     0
300
1:10
140
1.0
141
10.0
290
     0
  0
SCALE
  5
51
102
{ACAD_REACTORS
330
4A
102
}
330
4A
100
AcDbScale
 70
     0
300
1:16
140
1.0
141
16.0
290
     0
  0
SCALE
  5
52
102
{ACAD_REACTORS
330
4A
102
}
330
4A
100
AcDbScale
 70
     0
300
1:20
140
1.0
141
20.0
290
     0
  0
SCALE
  5
53
102
{ACAD_REACTORS
330
4A
102
}
330
4A
100
AcDbScale
 70
     0
300
1:30
140
1.0
141
30.0
290
     0
  0
SCALE
  5
54
102
{ACAD_REACTORS
330
4A
102
}
330
4A
100
AcDbScale
 70
     0
300
1:40
140
1.0
141
40.0
290
     0
  0
SCALE
  5
55
102
{ACAD_REACTORS
330
4A
102
}
330
4A
100
AcDbScale
 70
     0
300
1:50
140
1.0
141
50.0
290
     0
  0
SCALE
  5
56
102
{ACAD_REACTORS
330
4A
102
}
330
4A
100
AcDbScale
 70
     0
300
1:100
140
1.0
141
100.0
290
     0
  0
SCALE
  5
57
102
{ACAD_REACTORS
330
4A
102
}
330
4A
100
AcDbScale
 70
     0
300
2:1
140
2.0
141
1.0
290
     0
  0
SCALE
  5
58
102
{ACAD_REACTORS
330
4A
102
}
330
4A
100
AcDbScale
 70
     0
300
4:1
140
4.0
141
1.0
290
     0
  0
SCALE
  5
59
102
{ACAD_REACTORS
330
4A
102
}
330
4A
100
AcDbScale
 70
     0
300
8:1
140
8.0
141
1.0
290
     0
  0
SCALE
  5
5A
102
{ACAD_REACTORS
330
4A
102
}
330
4A
100
AcDbScale
 70
     0
300
10:1
140
10.0
141
1.0
290
     0
  0
SCALE
  5
5B
102
{ACAD_REACTORS
330
4A
102
}
330
4A
100
AcDbScale
 70
     0
300
100:1
140
100.0
141
1.0
290
     0
  0
SCALE
  5
5C
102
{ACAD_REACTORS
330
4A
102
}
330
4A
100
AcDbScale
 70
     0
300
1/128" = 1'-0"
140
0.0078125
141
12.0
290
     0
  0
SCALE
  5
5D
102
{ACAD_REACTORS
330
4A
102
}
330
4A
100
AcDbScale
 70
     0
300
1/64" = 1'-0"
140
0.015625
141
12.0
290
     0
  0
SCALE
  5
5E
102
{ACAD_REACTORS
330
4A
102
}
330
4A
100
AcDbScale
 70
     0
300
1/32" = 1'-0"
140
0.03125
141
12.0
290
     0
  0
SCALE
  5
5F
102
{ACAD_REACTORS
330
4A
102
}
330
4A
100
AcDbScale
 70
     0
300
1/16" = 1'-0"
140
0.0625
141
12.0
290
     0
  0
SCALE
  5
60
102
{ACAD_REACTORS
330
4A
102
}
330
4A
100
AcDbScale
 70
     0
300
3/32" = 1'-0"
140
0.09375
141
12.0
290
     0
  0
SCALE
  5
61
102
{ACAD_REACTORS
330
4A
102
}
330
4A
100
AcDbScale
 70
     0
300
1/8" = 1'-0"
140
0.125
141
12.0
290
     0
  0
SCALE
  5
62
102
{ACAD_REACTORS
330
4A
102
}
330
4A
100
AcDbScale
 70
     0
300
3/16" = 1'-0"
140
0.1875
141
12.0
290
     0
  0
SCALE
  5
63
102
{ACAD_REACTORS
330
4A
102
}
330
4A
100
AcDbScale
 70
     0
300
1/4" = 1'-0"
140
0.25
141
12.0
290
     0
  0
SCALE
  5
64
102
{ACAD_REACTORS
330
4A
102
}
330
4A
100
AcDbScale
 70
     0
300
3/8" = 1'-0"
140
0.375
141
12.0
290
     0
  0
SCALE
  5
65
102
{ACAD_REACTORS
330
4A
102
}
330
4A
100
AcDbScale
 70
     0
300
1/2" = 1'-0"
140
0.5
141
12.0
290
     0
  0
SCALE
  5
66
102
{ACAD_REACTORS
330
4A
102
}
330
4A
100
AcDbScale
 70
     0
300
3/4" = 1'-0"
140
0.75
141
12.0
290
     0
  0
SCALE
  5
67
102
{ACAD_REACTORS
330
4A
102
}
330
4A
100
AcDbScale
 70
     0
300
1" = 1'-0"
140
1.0
141
12.0
290
     0
  0
SCALE
  5
68
102
{ACAD_REACTORS
330
4A
102
}
330
4A
100
AcDbScale
 70
     0
300
1-1/2" = 1'-0"
140
1.5
141
12.0
290
     0
  0
SCALE
  5
69
102
{ACAD_REACTORS
330
4A
102
}
330
4A
100
AcDbScale
 70
     0
300
3" = 1'-0"
140
3.0
141
12.0
290
     0
  0
SCALE
  5
6A
102
{ACAD_REACTORS
330
4A
102
}
330
4A
100
AcDbScale
 70
     0
300
6" = 1'-0"
140
6.0
141
12.0
290
     0
  0
SCALE
  5
6B
102
{ACAD_REACTORS
330
4A
102
}
330
4A
100
AcDbScale
 70
     0
300
1'-0" = 1'-0"
140
12.0
141
12.0
290
     0
  0
VISUALSTYLE
  5
2F
102
{ACAD_REACTORS
330
2A
102
}
330
2A
100
AcDbVisualStyle
  2
2dWireframe
 70
     4
 71
     0
 72
     2
 73
     0
 90
        0
 40
-0.6
 41
-30.0
 62
     5
 63
     7
 74
     1
 91
        4
 64
     7
 65
   257
 75
     1
175
     1
 42
1.0
 92
        0
 66
   257
 43
1.0
 76
     1
 77
     6
 78
     2
 67
     7
 79
     5
170
     0
171
     0
290
     0
174
     0
 93
        1
 44
0.0
173
     0
291
     0
 45
0.0
1001
ACAD
1000
AcDbSavedByObjectVersion
1070
     0
  0
VISUALSTYLE
  5
31
102
{ACAD_REACTORS
330
2A
102
}
330
2A
100
AcDbVisualStyle
  2
3D Hidden
 70
     6
 71
     1
 72
     2
 73
     2
 90
        0
 40
-0.6
 41
-30.0
 62
     5
 63
     7
 74
     2
 91
        2
 64
     7
 65
   257
 75
     2
175
     1
 42
40.0
 92
        0
 66
   257
 43
1.0
 76
     1
 77
     6
 78
     2
 67
     7
 79
     3
170
     0
171
     0
290
     0
174
     0
 93
        1
 44
0.0
173
     0
291
     0
 45
0.0
1001
ACAD
1000
AcDbSavedByObjectVersion
1070
     0
  0
VISUALSTYLE
  5
30
102
{ACAD_REACTORS
330
2A
102
}
330
2A
100
AcDbVisualStyle
  2
3dWireframe
 70
     5
 71
     0
 72
     2
 73
     0
 90
        0
 40
-0.6
 41
-30.0
 62
     5
 63
     7
 74
     1
 91
        4
 64
     7
 65
   257
 75
     1
175
     1
 42
1.0
 92
        0
 66
   257
 43
1.0
 76
     1
 77
     6
 78
     2
 67
     7
 79
     5
170
     0
171
     0
290
     0
174
     0
 93
        1
 44
0.0
173
     0
291
     0
 45
0.0
1001
ACAD
1000
AcDbSavedByObjectVersion
1070
     0
  0
VISUALSTYLE
  5
32
102
{ACAD_REACTORS
330
2A
102
}
330
2A
100
AcDbVisualStyle
  2
Basic
 70
     7
 71
     1
 72
     0
 73
     1
 90
        0
 40
-0.6
 41
-30.0
 62
     5
 63
     7
 74
     0
 91
        4
 64
     7
 65
   257
 75
     1
175
     1
 42
1.0
 92
        8
 66
     7
 43
1.0
 76
     1
 77
     6
 78
     2
 67
     7
 79
     5
170
     0
171
     0
290
     0
174
     0
 93
        1
 44
0.0
173
     0
291
     1
 45
0.0
1001
ACAD
1000
AcDbSavedByObjectVersion
1070
     0
  0
VISUALSTYLE
  5
36
102
{ACAD_REACTORS
330
2A
102
}
330
2A
100
AcDbVisualStyle
  2
Brighten
 70
    12
 71
     2
 72
     2
 73
     0
 90
        0
 40
-0.6
 41
-30.0
 62
     5
 63
     7
 74
     1
 91
        4
 64
     7
 65
   257
 75
     1
175
     1
 42
1.0
 92
        8
 66
     7
 43
1.0
 76
     1
 77
     6
 78
     2
 67
     7
 79
     5
170
     0
171
     0
290
     0
174
     0
 93
        1
 44
50.0
173
     0
291
     1
 45
0.0
1001
ACAD
1000
AcDbSavedByObjectVersion
1070
     0
  0
VISUALSTYLE
  5
3A
102
{ACAD_REACTORS
330
2A
102
}
330
2A
100
AcDbVisualStyle
  2
ColorChange
 70
    16
 71
     2
 72
     2
 73
     3
 90
        0
 40
-0.6
 41
-30.0
 62
     5
 63
     8
 74
     1
 91
        4
 64
     7
 65
   257
 75
     1
175
     1
 42
1.0
 92
        8
 66
     8
 43
1.0
 76
     1
 77
     6
 78
     2
 67
     7
 79
     5
170
     0
171
     0
290
     0
174
     0
 93
        1
 44
0.0
173
     0
291
     1
 45
0.0
1001
ACAD
1000
AcDbSavedByObjectVersion
1070
     0
  0
VISUALSTYLE
  5
34
102
{ACAD_REACTORS
330
2A
102
}
330
2A
100
AcDbVisualStyle
  2
Conceptual
 70
     9
 71
     3
 72
     2
 73
     0
 90
        0
 40
-0.6
 41
-30.0
 62
     5
 63
     7
 74
     2
 91
        2
 64
     7
 65
   257
 75
     1
175
     1
 42
40.0
 92
        8
 66
     7
 43
1.0
 76
     1
 77
     6
 78
     2
 67
     7
 79
     3
170
     0
171
     0
290
     0
174
     0
 93
        1
 44
0.0
173
     0
291
     0
 45
0.0
1001
ACAD
1000
AcDbSavedByObjectVersion
1070
     0
  0
VISUALSTYLE
  5
35
102
{ACAD_REACTORS
330
2A
102
}
330
2A
100
AcDbVisualStyle
  2
Dim
 70
    11
 71
     2
 72
     2
 73
     0
 90
        0
 40
-0.6
 41
-30.0
 62
     5
 63
     7
 74
     1
 91
        4
 64
     7
 65
   257
 75
     1
175
     1
 42
1.0
 92
        8
 66
     7
 43
1.0
 76
     1
 77
     6
 78
     2
 67
     7
 79
     5
170
     0
171
     0
290
     0
174
     0
 93
        1
 44
-50.0
173
     0
291
     1
 45
0.0
1001
ACAD
1000
AcDbSavedByObjectVersion
1070
     0
  0
VISUALSTYLE
  5
39
102
{ACAD_REACTORS
330
2A
102
}
330
2A
100
AcDbVisualStyle
  2
Facepattern
 70
    15
 71
     2
 72
     2
 73
     0
 90
        0
 40
-0.6
 41
-30.0
 62
     5
 63
     7
 74
     1
 91
        4
 64
     7
 65
   257
 75
     1
175
     1
 42
1.0
 92
        8
 66
     7
 43
1.0
 76
     1
 77
     6
 78
     2
 67
     7
 79
     5
170
     0
171
     0
290
     0
174
     0
 93
        1
 44
0.0
173
     0
291
     1
 45
0.0
1001
ACAD
1000
AcDbSavedByObjectVersion
1070
     0
  0
VISUALSTYLE
  5
2B
102
{ACAD_REACTORS
330
2A
102
}
330
2A
100
AcDbVisualStyle
  2
Flat
 70
     0
 71
     2
 72
     1
 73
     1
 90
        2
 40
-0.6
 41
30.0
 62
     5
 63
     7
 74
     0
 91
        4
 64
     7
 65
   257
 75
     1
175
     1
 42
1.0
 92
        8
 66
     7
 43
1.0
 76
     1
 77
     6
 78
     2
 67
     7
 79
     5
170
     0
171
     0
290
     0
174
     0
 93
       13
 44
0.0
173
     0
291
     1
 45
0.0
1001
ACAD
1000
AcDbSavedByObjectVersion
1070
     0
  0
VISUALSTYLE
  5
2C
102
{ACAD_REACTORS
330
2A
102
}
330
2A
100
AcDbVisualStyle
  2
FlatWithEdges
 70
     1
 71
     2
 72
     1
 73
     1
 90
        2
 40
-0.6
 41
30.0
 62
     5
 63
     7
 74
     1
 91
        4
 64
     7
 65
   257
 75
     1
175
     1
 42
1.0
 92
        0
 66
   257
 43
1.0
 76
     1
 77
     6
 78
     2
 67
     7
 79
     5
170
     0
171
     0
290
     0
174
     0
 93
       13
 44
0.0
173
     0
291
     1
 45
0.0
1001
ACAD
1000
AcDbSavedByObjectVersion
1070
     0
  0
VISUALSTYLE
  5
2D
102
{ACAD_REACTORS
330
2A
102
}
330
2A
100
AcDbVisualStyle
  2
Gouraud
 70
     2
 71
     2
 72
     2
 73
     1
 90
        2
 40
-0.6
 41
30.0
 62
     5
 63
     7
 74
     0
 91
        4
 64
     7
 65
   257
 75
     1
175
     1
 42
1.0
 92
        0
 66
     7
 43
1.0
 76
     1
 77
     6
 78
     2
 67
     7
 79
     5
170
     0
171
     0
290
     0
174
     0
 93
       13
 44
0.0
173
     0
291
     1
 45
0.0
1001
ACAD
1000
AcDbSavedByObjectVersion
1070
     0
  0
VISUALSTYLE
  5
2E
102
{ACAD_REACTORS
330
2A
102
}
330
2A
100
AcDbVisualStyle
  2
GouraudWithEdges
 70
     3
 71
     2
 72
     2
 73
     1
 90
        2
 40
-0.6
 41
30.0
 62
     5
 63
     7
 74
     1
 91
        4
 64
     7
 65
   257
 75
     1
175
     1
 42
1.0
 92
        0
 66
   257
 43
1.0
 76
     1
 77
     6
 78
     2
 67
     7
 79
     5
170
     0
171
     0
290
     0
174
     0
 93
       13
 44
0.0
173
     0
291
     1
 45
0.0
1001
ACAD
1000
AcDbSavedByObjectVersion
1070
     0
  0
VISUALSTYLE
  5
38
102
{ACAD_REACTORS
330
2A
102
}
330
2A
100
AcDbVisualStyle
  2
Linepattern
 70
    14
 71
     2
 72
     2
 73
     0
 90
        0
 40
-0.6
 41
-30.0
 62
     5
 63
     7
 74
     1
 91
        4
 64
     7
 65
   257
 75
     7
175
     7
 42
1.0
 92
        8
 66
     7
 43
1.0
 76
     1
 77
     6
 78
     2
 67
     7
 79
     5
170
     0
171
     0
290
     0
174
     0
 93
        1
 44
0.0
173
     0
291
     1
 45
0.0
1001
ACAD
1000
AcDbSavedByObjectVersion
1070
     0
  0
VISUALSTYLE
  5
33
102
{ACAD_REACTORS
330
2A
102
}
330
2A
100
AcDbVisualStyle
  2
Realistic
 70
     8
 71
     2
 72
     2
 73
     0
 90
        0
 40
-0.6
 41
-30.0
 62
     5
 63
     7
 74
     1
 91
        0
 64
     7
 65
   257
 75
     1
175
     1
 42
1.0
 92
        8
 66
     8
 43
1.0
 76
     1
 77
     6
 78
     2
 67
     7
 79
     5
170
     0
171
     0
290
     0
174
     0
 93
       13
 44
0.0
173
     0
291
     0
 45
0.0
1001
ACAD
1000
AcDbSavedByObjectVersion
1070
     0
  0
VISUALSTYLE
  5
37
102
{ACAD_REACTORS
330
2A
102
}
330
2A
100
AcDbVisualStyle
  2
Thicken
 70
    13
 71
     2
 72
     2
 73
     0
 90
        0
 40
-0.6
 41
-30.0
 62
     5
 63
     7
 74
     1
 91
        4
 64
     7
 65
   257
 75
     1
175
     1
 42
1.0
 92
       12
 66
     7
 43
1.0
 76
     1
 77
     6
 78
     2
 67
     7
 79
     5
170
     0
171
     0
290
     0
174
     0
 93
        1
 44
0.0
173
     0
291
     1
 45
0.0
1001
ACAD
1000
AcDbSavedByObjectVersion
1070
     0
  0
DICTIONARYVAR
  5
154
102
{ACAD_REACTORS
330
151
102
}
330
151
100
DictionaryVariables
280
     0
  1
1:1
  0
ENDSEC
  0
EOF
