  0
SECTION
  2
HEADER
  9
$ACADVER
  1
AC1015
  9
$ACADMAINTVER
 70
     6
  9
$DWGCODEPAGE
  3
ANSI_1252
  9
$INSBASE
 10
0.0
 20
0.0
 30
0.0
  9
$EXTMIN
 10
-13.21346966962851
 20
258.3726579229
 30
0.0
  9
$EXTMAX
 10
250.317331580513
 20
387.782090501038
 30
0.0
  9
$LIMMIN
 10
0.0
 20
0.0
  9
$LIMMAX
 10
12.0
 20
9.0
  9
$ORTHOMODE
 70
     0
  9
$REGENMODE
 70
     1
  9
$FILLMODE
 70
     1
  9
$QTEXTMODE
 70
     0
  9
$MIRRTEXT
 70
     1
  9
$LTSCALE
 40
1.0
  9
$ATTMODE
 70
     1
  9
$TEXTSIZE
 40
0.2
  9
$TRACEWID
 40
0.05
  9
$TEXTSTYLE
  7
Standard
  9
$CLAYER
  8
0
  9
$CELTYPE
  6
ByLayer
  9
$CECOLOR
 62
   256
  9
$CELTSCALE
 40
1.0
  9
$DISPSILH
 70
     0
  9
$DIMSCALE
 40
1.0
  9
$DIMASZ
 40
0.18
  9
$DIMEXO
 40
0.0625
  9
$DIMDLI
 40
0.38
  9
$DIMRND
 40
0.0
  9
$DIMDLE
 40
0.0
  9
$DIMEXE
 40
0.18
  9
$DIMTP
 40
0.0
  9
$DIMTM
 40
0.0
  9
$DIMTXT
 40
0.18
  9
$DIMCEN
 40
0.09
  9
$DIMTSZ
 40
0.0
  9
$DIMTOL
 70
     0
  9
$DIMLIM
 70
     0
  9
$DIMTIH
 70
     1
  9
$DIMTOH
 70
     1
  9
$DIMSE1
 70
     0
  9
$DIMSE2
 70
     0
  9
$DIMTAD
 70
     0
  9
$DIMZIN
 70
     0
  9
$DIMBLK
  1

  9
$DIMASO
 70
     1
  9
$DIMSHO
 70
     1
  9
$DIMPOST
  1

  9
$DIMAPOST
  1

  9
$DIMALT
 70
     0
  9
$DIMALTD
 70
     2
  9
$DIMALTF
 40
25.4
  9
$DIMLFAC
 40
1.0
  9
$DIMTOFL
 70
     0
  9
$DIMTVP
 40
0.0
  9
$DIMTIX
 70
     0
  9
$DIMSOXD
 70
     0
  9
$DIMSAH
 70
     0
  9
$DIMBLK1
  1

  9
$DIMBLK2
  1

  9
$DIMSTYLE
  2
Standard
  9
$DIMCLRD
 70
     0
  9
$DIMCLRE
 70
     0
  9
$DIMCLRT
 70
     0
  9
$DIMTFAC
 40
1.0
  9
$DIMGAP
 40
0.09
  9
$DIMJUST
 70
     0
  9
$DIMSD1
 70
     0
  9
$DIMSD2
 70
     0
  9
$DIMTOLJ
 70
     1
  9
$DIMTZIN
 70
     0
  9
$DIMALTZ
 70
     0
  9
$DIMALTTZ
 70
     0
  9
$DIMUPT
 70
     0
  9
$DIMDEC
 70
     4
  9
$DIMTDEC
 70
     4
  9
$DIMALTU
 70
     2
  9
$DIMALTTD
 70
     2
  9
$DIMTXSTY
  7
Standard
  9
$DIMAUNIT
 70
     0
  9
$DIMADEC
 70
     0
  9
$DIMALTRND
 40
0.0
  9
$DIMAZIN
 70
     0
  9
$DIMDSEP
 70
    46
  9
$DIMATFIT
 70
     3
  9
$DIMFRAC
 70
     0
  9
$DIMLDRBLK
  1

  9
$DIMLUNIT
 70
     2
  9
$DIMLWD
 70
    -2
  9
$DIMLWE
 70
    -2
  9
$DIMTMOVE
 70
     0
  9
$LUNITS
 70
     2
  9
$LUPREC
 70
     4
  9
$SKETCHINC
 40
0.1
  9
$FILLETRAD
 40
0.5
  9
$AUNITS
 70
     0
  9
$AUPREC
 70
     0
  9
$MENU
  1
.
  9
$ELEVATION
 40
0.0
  9
$PELEVATION
 40
0.0
  9
$THICKNESS
 40
0.0
  9
$LIMCHECK
 70
     0
  9
$CHAMFERA
 40
0.5
  9
$CHAMFERB
 40
0.5
  9
$CHAMFERC
 40
1.0
  9
$CHAMFERD
 40
0.0
  9
$SKPOLY
 70
     0
  9
$TDCREATE
 40
2456748.730648113
  9
$TDUCREATE
 40
2456748.64731478
  9
$TDUPDATE
 40
2456748.730648125
  9
$TDUUPDATE
 40
2456748.647314792
  9
$TDINDWG
 40
0.0000000116
  9
$TDUSRTIMER
 40
0.0000000116
  9
$USRTIMER
 70
     1
  9
$ANGBASE
 50
0.0
  9
$ANGDIR
 70
     0
  9
$PDMODE
 70
     0
  9
$PDSIZE
 40
0.0
  9
$PLINEWID
 40
0.0
  9
$SPLFRAME
 70
     0
  9
$SPLINETYPE
 70
     6
  9
$SPLINESEGS
 70
     8
  9
$HANDSEED
  5
158
  9
$SURFTAB1
 70
     6
  9
$SURFTAB2
 70
     6
  9
$SURFTYPE
 70
     6
  9
$SURFU
 70
     6
  9
$SURFV
 70
     6
  9
$UCSBASE
  2

  9
$UCSNAME
  2

  9
$UCSORG
 10
0.0
 20
0.0
 30
0.0
  9
$UCSXDIR
 10
1.0
 20
0.0
 30
0.0
  9
$UCSYDIR
 10
0.0
 20
1.0
 30
0.0
  9
$UCSORTHOREF
  2

  9
$UCSORTHOVIEW
 70
     0
  9
$UCSORGTOP
 10
0.0
 20
0.0
 30
0.0
  9
$UCSORGBOTTOM
 10
0.0
 20
0.0
 30
0.0
  9
$UCSORGLEFT
 10
0.0
 20
0.0
 30
0.0
  9
$UCSORGRIGHT
 10
0.0
 20
0.0
 30
0.0
  9
$UCSORGFRONT
 10
0.0
 20
0.0
 30
0.0
  9
$UCSORGBACK
 10
0.0
 20
0.0
 30
0.0
  9
$PUCSBASE
  2

  9
$PUCSNAME
  2

  9
$PUCSORG
 10
0.0
 20
0.0
 30
0.0
  9
$PUCSXDIR
 10
1.0
 20
0.0
 30
0.0
  9
$PUCSYDIR
 10
0.0
 20
1.0
 30
0.0
  9
$PUCSORTHOREF
  2

  9
$PUCSORTHOVIEW
 70
     0
  9
$PUCSORGTOP
 10
0.0
 20
0.0
 30
0.0
  9
$PUCSORGBOTTOM
 10
0.0
 20
0.0
 30
0.0
  9
$PUCSORGLEFT
 10
0.0
 20
0.0
 30
0.0
  9
$PUCSORGRIGHT
 10
0.0
 20
0.0
 30
0.0
  9
$PUCSORGFRONT
 10
0.0
 20
0.0
 30
0.0
  9
$PUCSORGBACK
 10
0.0
 20
0.0
 30
0.0
  9
$USERI1
 70
     0
  9
$USERI2
 70
     0
  9
$USERI3
 70
     0
  9
$USERI4
 70
     0
  9
$USERI5
 70
     0
  9
$USERR1
 40
16.5
  9
$USERR2
 40
0.0
  9
$USERR3
 40
0.0
  9
$USERR4
 40
0.0
  9
$USERR5
 40
0.0
  9
$WORLDVIEW
 70
     1
  9
$SHADEDGE
 70
     3
  9
$SHADEDIF
 70
    70
  9
$TILEMODE
 70
     1
  9
$MAXACTVP
 70
    64
  9
$PINSBASE
 10
0.0
 20
0.0
 30
0.0
  9
$PLIMCHECK
 70
     0
  9
$PEXTMIN
 10
1.00000000000000E+20
 20
1.00000000000000E+20
 30
1.00000000000000E+20
  9
$PEXTMAX
 10
-1.00000000000000E+20
 20
-1.00000000000000E+20
 30
-1.00000000000000E+20
  9
$PLIMMIN
 10
0.0
 20
0.0
  9
$PLIMMAX
 10
12.0
 20
9.0
  9
$UNITMODE
 70
     0
  9
$VISRETAIN
 70
     1
  9
$PLINEGEN
 70
     0
  9
$PSLTSCALE
 70
     1
  9
$TREEDEPTH
 70
  3020
  9
$CMLSTYLE
  2
Standard
  9
$CMLJUST
 70
     0
  9
$CMLSCALE
 40
1.0
  9
$PROXYGRAPHICS
 70
     1
  9
$MEASUREMENT
 70
     1
  9
$CELWEIGHT
370
    -1
  9
$ENDCAPS
280
     0
  9
$JOINSTYLE
280
     0
  9
$LWDISPLAY
290
     0
  9
$INSUNITS
 70
     1
  9
$HYPERLINKBASE
  1

  9
$STYLESHEET
  1

  9
$XEDIT
290
     1
  9
$CEPSNTYPE
380
     0
  9
$PSTYLEMODE
290
     1
  9
$FINGERPRINTGUID
  2
{60D79672-B739-4546-8DFA-1BA6B1AF9D21}
  9
$VERSIONGUID
  2
{FAEB1C32-E019-11D5-929B-00C0DF256EC4}
  9
$EXTNAMES
290
     1
  9
$PSVPSCALE
 40
0.0
  9
$OLESTARTUP
290
     0
  0
ENDSEC
  0
SECTION
  2
CLASSES
  0
CLASS
  1
ACDBDICTIONARYWDFLT
  2
AcDbDictionaryWithDefault
  3
ObjectDBX Classes
 90
        0
280
     0
281
     0
  0
CLASS
  1
VISUALSTYLE
  2
AcDbVisualStyle
  3
ObjectDBX Classes
 90
     4095
280
     0
281
     0
  0
CLASS
  1
SCALE
  2
AcDbScale
  3
ObjectDBX Classes
 90
     1153
280
     0
281
     0
  0
CLASS
  1

  2
exOdDbPolyline
  3

 90
        0
280
     0
281
     1
  0
CLASS
  1

  2
exOdDbCircle
  3

 90
        0
280
     0
281
     1
  0
CLASS
  1

  2
exOdDbSpline
  3

 90
        0
280
     0
281
     1
  0
CLASS
  1
DICTIONARYVAR
  2
AcDbDictionaryVar
  3
ObjectDBX Classes
 90
        0
280
     0
281
     0
  0
CLASS
  1
ACDBPLACEHOLDER
  2
AcDbPlaceHolder
  3
ObjectDBX Classes
 90
        0
280
     0
281
     0
  0
CLASS
  1
LAYOUT
  2
AcDbLayout
  3
ObjectDBX Classes
 90
        0
280
     0
281
     0
  0
ENDSEC
  0
SECTION
  2
TABLES
  0
TABLE
  2
VPORT
  5
8
330
0
100
AcDbSymbolTable
 70
     1
  0
VPORT
  5
29
330
8
100
AcDbSymbolTableRecord
100
AcDbViewportTableRecord
  2
*Active
 70
     0
 10
0.0
 20
0.0
 11
1.0
 21
1.0
 12
118.5519309554422
 22
323.077374211969
 13
0.0
 23
0.0
 14
0.5
 24
0.5
 15
0.5
 25
0.5
 16
0.0
 26
0.0
 36
1.0
 17
0.0
 27
0.0
 37
0.0
 40
180.8746223622142
 41
1.60267857142857
 42
50.0
 43
0.0
 44
0.0
 50
0.0
 51
0.0
 71
     0
 72
   100
 73
     1
 74
     3
 75
     0
 76
     0
 77
     0
 78
     0
281
     0
 65
     1
110
0.0
120
0.0
130
0.0
111
1.0
121
0.0
131
0.0
112
0.0
122
1.0
132
0.0
 79
     0
146
0.0
  0
ENDTAB
  0
TABLE
  2
LTYPE
  5
5
330
0
100
AcDbSymbolTable
 70
     8
  0
LTYPE
  5
14
330
5
100
AcDbSymbolTableRecord
100
AcDbLinetypeTableRecord
  2
ByBlock
 70
     0
  3

 72
    65
 73
     0
 40
0.0
  0
LTYPE
  5
15
330
5
100
AcDbSymbolTableRecord
100
AcDbLinetypeTableRecord
  2
ByLayer
 70
     0
  3

 72
    65
 73
     0
 40
0.0
  0
LTYPE
  5
16
330
5
100
AcDbSymbolTableRecord
100
AcDbLinetypeTableRecord
  2
Continuous
 70
     0
  3
Solid line
 72
    65
 73
     0
 40
0.0
  0
LTYPE
  5
3B
330
5
100
AcDbSymbolTableRecord
100
AcDbLinetypeTableRecord
  2
DASHED
 70
     0
  3
Dashed
 72
    65
 73
     2
 40
15.0
 49
7.0
 74
     0
 49
-8.0
 74
     0
  0
LTYPE
  5
3C
330
5
100
AcDbSymbolTableRecord
100
AcDbLinetypeTableRecord
  2
DOTTED
 70
     0
  3
Dotted
 72
    65
 73
     2
 40
1.0
 49
0.0
 74
     0
 49
-1.0
 74
     0
  0
LTYPE
  5
3D
330
5
100
AcDbSymbolTableRecord
100
AcDbLinetypeTableRecord
  2
DOT_CENTER
 70
     0
  3
Dot_Center
 72
    65
 73
     4
 40
14.0
 49
12.0
 74
     0
 49
-1.0
 74
     0
 49
0.0
 74
     0
 49
-1.0
 74
     0
  0
LTYPE
  5
3E
330
5
100
AcDbSymbolTableRecord
100
AcDbLinetypeTableRecord
  2
LONG_DASHED
 70
     0
  3
Long_Dashed
 72
    65
 73
     2
 40
15.0
 49
10.0
 74
     0
 49
-5.0
 74
     0
  0
LTYPE
  5
3F
330
5
100
AcDbSymbolTableRecord
100
AcDbLinetypeTableRecord
  2
DASH_CENTER
 70
     0
  3
Dash_Center
 72
    65
 73
     4
 40
14.0
 49
11.0
 74
     0
 49
-1.0
 74
     0
 49
1.0
 74
     0
 49
-1.0
 74
     0
  0
LTYPE
  5
40
330
5
100
AcDbSymbolTableRecord
100
AcDbLinetypeTableRecord
  2
PHANTOM
 70
     0
  3
Phantom
 72
    65
 73
     6
 40
13.0
 49
10.0
 74
     0
 49
-1.0
 74
     0
 49
0.0
 74
     0
 49
-1.0
 74
     0
 49
0.0
 74
     0
 49
-1.0
 74
     0
  0
LTYPE
  5
41
330
5
100
AcDbSymbolTableRecord
100
AcDbLinetypeTableRecord
  2
CENTER_DASH_DASH
 70
     0
  3
Center_Dash_Dash
 72
    65
 73
     6
 40
14.0
 49
9.0
 74
     0
 49
-1.0
 74
     0
 49
1.0
 74
     0
 49
-1.0
 74
     0
 49
1.0
 74
     0
 49
-1.0
 74
     0
  0
ENDTAB
  0
TABLE
  2
LAYER
  5
2
330
0
100
AcDbSymbolTable
 70
     6
  0
LAYER
  5
10
330
2
100
AcDbSymbolTableRecord
100
AcDbLayerTableRecord
  2
0
 70
     0
 62
     7
  6
Continuous
370
    -3
390
F
  0
LAYER
  5
42
330
2
100
AcDbSymbolTableRecord
100
AcDbLayerTableRecord
  2
1
 70
     0
 62
     7
  6
Continuous
370
    -3
390
F
  0
LAYER
  5
43
330
2
100
AcDbSymbolTableRecord
100
AcDbLayerTableRecord
  2
BEZUGSACHSEN
 70
     0
 62
     7
  6
Continuous
370
    -3
390
F
  0
LAYER
  5
44
330
2
100
AcDbSymbolTableRecord
100
AcDbLayerTableRecord
  2
DEFAULT_2
 70
     0
 62
     7
  6
Continuous
370
    -3
390
F
  0
LAYER
  5
45
330
2
100
AcDbSymbolTableRecord
100
AcDbLayerTableRecord
  2
FASEN
 70
     0
 62
     7
  6
Continuous
370
    -3
390
F
  0
LAYER
  5
46
330
2
100
AcDbSymbolTableRecord
100
AcDbLayerTableRecord
  2
RUNDUNGEN
 70
     0
 62
     7
  6
Continuous
370
    -3
390
F
  0
ENDTAB
  0
TABLE
  2
STYLE
  5
3
330
0
100
AcDbSymbolTable
 70
     2
  0
STYLE
  5
11
330
3
100
AcDbSymbolTableRecord
100
AcDbTextStyleTableRecord
  2
Standard
 70
     0
 40
0.0
 41
1.0
 50
0.0
 71
     0
 42
0.2
  3
txt
  4

  0
STYLE
  5
6D
330
3
100
AcDbSymbolTableRecord
100
AcDbTextStyleTableRecord
  2
CONVERTER_11
 70
     0
 40
0.0
 41
0.72
 50
0.0
 71
     0
 42
0.2
  3
txt.shx
  4

  0
ENDTAB
  0
TABLE
  2
VIEW
  5
6
330
0
100
AcDbSymbolTable
 70
     0
  0
ENDTAB
  0
TABLE
  2
UCS
  5
7
330
0
100
AcDbSymbolTable
 70
     0
  0
ENDTAB
  0
TABLE
  2
APPID
  5
9
330
0
100
AcDbSymbolTable
 70
     1
  0
APPID
  5
12
330
9
100
AcDbSymbolTableRecord
100
AcDbRegAppTableRecord
  2
ACAD
 70
     0
  0
ENDTAB
  0
TABLE
  2
DIMSTYLE
  5
A
330
0
100
AcDbSymbolTable
 70
     8
100
AcDbDimStyleTable
  0
DIMSTYLE
105
27
330
A
100
AcDbSymbolTableRecord
100
AcDbDimStyleTableRecord
  2
Standard
 70
     0
340
11
  0
DIMSTYLE
105
109
102
{ACAD_REACTORS
330
10A
102
}
330
A
100
AcDbSymbolTableRecord
100
AcDbDimStyleTableRecord
  2
ME10_DIM_10
 70
     0
  3
\U+2300<>
 41
3.5
 42
2.0
 44
2.0
 71
     1
 73
     0
 74
     0
 77
     1
 78
     8
140
3.5
146
0.7
147
2.0
172
     1
173
     1
176
     2
177
     2
178
     3
271
     2
272
     0
340
6D
  0
DIMSTYLE
105
114
102
{ACAD_REACTORS
330
115
102
}
330
A
100
AcDbSymbolTableRecord
100
AcDbDimStyleTableRecord
  2
ME10_DIM_11
 70
     0
  3
\U+2300<>
 41
3.5
 42
2.0
 44
2.0
 71
     1
 73
     0
 74
     0
 77
     1
 78
     8
140
3.5
146
0.7
147
2.0
172
     1
173
     1
176
     2
177
     2
178
     3
271
     2
272
     0
340
6D
  0
DIMSTYLE
105
11F
102
{ACAD_REACTORS
330
120
102
}
330
A
100
AcDbSymbolTableRecord
100
AcDbDimStyleTableRecord
  2
ME10_DIM_12
 70
     0
  3
\U+2300<>
 41
3.5
 42
2.0
 44
2.0
 71
     1
 73
     0
 74
     0
 77
     1
 78
     8
140
3.5
146
0.7
147
2.0
172
     1
173
     1
176
     2
177
     2
178
     3
271
     2
272
     0
340
6D
  0
DIMSTYLE
105
12A
102
{ACAD_REACTORS
330
12B
102
}
330
A
100
AcDbSymbolTableRecord
100
AcDbDimStyleTableRecord
  2
ME10_DIM_13
 70
     0
  3
<>
 41
3.5
 42
2.0
 44
2.0
 71
     1
 73
     0
 74
     0
 77
     1
 78
     8
140
3.5
146
0.7
147
2.0
172
     1
173
     1
176
     2
177
     2
178
     3
271
     2
272
     0
340
6D
  0
DIMSTYLE
105
135
102
{ACAD_REACTORS
330
136
102
}
330
A
100
AcDbSymbolTableRecord
100
AcDbDimStyleTableRecord
  2
ME10_DIM_14
 70
     0
  3
<>
 41
3.5
 42
2.0
 44
2.0
 71
     1
 73
     0
 74
     0
 77
     1
 78
     8
140
3.5
146
0.7
147
2.0
172
     1
173
     1
176
     2
177
     2
178
     3
271
     2
272
     0
340
6D
  0
DIMSTYLE
105
140
102
{ACAD_REACTORS
330
141
102
}
330
A
100
AcDbSymbolTableRecord
100
AcDbDimStyleTableRecord
  2
ME10_DIM_15
 70
     0
  3
<>
 41
3.5
 42
2.0
 44
2.0
 71
     1
 73
     0
 74
     0
 77
     1
 78
     8
140
3.5
146
0.7
147
2.0
172
     1
173
     1
176
     2
177
     2
178
     3
271
     2
272
     0
340
6D
  0
DIMSTYLE
105
152
102
{ACAD_REACTORS
330
153
102
}
330
A
100
AcDbSymbolTableRecord
100
AcDbDimStyleTableRecord
  2
ME10_DIM_16
 70
     0
  3
<>
 41
3.5
 42
2.0
 44
2.0
 71
     1
 73
     0
 74
     0
 77
     1
 78
     8
140
3.5
146
0.7
147
2.0
172
     1
173
     1
176
     2
177
     2
178
     3
271
     2
272
     0
340
6D
  0
ENDTAB
  0
TABLE
  2
BLOCK_RECORD
  5
1
330
0
100
AcDbSymbolTable
 70
    10
  0
BLOCK_RECORD
  5
1F
330
1
100
AcDbSymbolTableRecord
100
AcDbBlockTableRecord
  2
*Model_Space
340
22
  0
BLOCK_RECORD
  5
1B
330
1
100
AcDbSymbolTableRecord
100
AcDbBlockTableRecord
  2
*Paper_Space
340
1E
  0
BLOCK_RECORD
  5
23
330
1
100
AcDbSymbolTableRecord
100
AcDbBlockTableRecord
  2
*Paper_Space0
340
26
  0
BLOCK_RECORD
  5
47
330
1
100
AcDbSymbolTableRecord
100
AcDbBlockTableRecord
  2
Urheberrecht_DE-EN
340
0
102
{BLKREFS
331
6C
102
}
  0
BLOCK_RECORD
  5
100
330
1
100
AcDbSymbolTableRecord
100
AcDbBlockTableRecord
  2
*D2
340
0
  0
BLOCK_RECORD
  5
10B
330
1
100
AcDbSymbolTableRecord
100
AcDbBlockTableRecord
  2
*D3
340
0
  0
BLOCK_RECORD
  5
116
330
1
100
AcDbSymbolTableRecord
100
AcDbBlockTableRecord
  2
*D4
340
0
  0
BLOCK_RECORD
  5
121
330
1
100
AcDbSymbolTableRecord
100
AcDbBlockTableRecord
  2
*D5
340
0
  0
BLOCK_RECORD
  5
12C
330
1
100
AcDbSymbolTableRecord
100
AcDbBlockTableRecord
  2
*D6
340
0
  0
BLOCK_RECORD
  5
137
330
1
100
AcDbSymbolTableRecord
100
AcDbBlockTableRecord
  2
*D7
340
0
  0
BLOCK_RECORD
  5
142
330
1
100
AcDbSymbolTableRecord
100
AcDbBlockTableRecord
  2
*D8
340
0
102
{BLKREFS
331
148
102
}
  0
BLOCK_RECORD
  5
149
330
1
100
AcDbSymbolTableRecord
100
AcDbBlockTableRecord
  2
*D9
340
0
  0
ENDTAB
  0
ENDSEC
  0
SECTION
  2
BLOCKS
  0
BLOCK
  5
20
330
1F
100
AcDbEntity
  8
0
100
AcDbBlockBegin
  2
*Model_Space
 70
     0
 10
0.0
 20
0.0
 30
0.0
  3
*Model_Space
  1

  0
ENDBLK
  5
21
330
1F
100
AcDbEntity
  8
0
100
AcDbBlockEnd
  0
BLOCK
  5
1C
330
1B
100
AcDbEntity
 67
     1
  8
0
100
AcDbBlockBegin
  2
*Paper_Space
 70
     0
 10
0.0
 20
0.0
 30
0.0
  3
*Paper_Space
  1

  0
ENDBLK
  5
1D
330
1B
100
AcDbEntity
 67
     1
  8
0
100
AcDbBlockEnd
  0
BLOCK
  5
24
330
23
100
AcDbEntity
  8
0
100
AcDbBlockBegin
  2
*Paper_Space0
 70
     0
 10
0.0
 20
0.0
 30
0.0
  3
*Paper_Space0
  1

  0
ENDBLK
  5
25
330
23
100
AcDbEntity
  8
0
100
AcDbBlockEnd
  0
BLOCK
  5
48
330
47
100
AcDbEntity
  8
0
100
AcDbBlockBegin
  2
Urheberrecht_DE-EN
 70
     0
 10
0.78653033037149
 20
323.222109851882
 30
0.0
  3
Urheberrecht_DE-EN
  1

  0
MTEXT
  5
6E
330
47
100
AcDbEntity
  8
1
 62
     1
100
AcDbMText
 10
0.78653033037149
 20
323.222109851882
 30
0.0
 40
2.0
 41
0.0
 71
     7
 72
     1
  1
We own the copyright of this document. It \Pdetermined and may neither be copied or \Pmade accessible to outsiders without our\Ppermission.
  7
CONVERTER_11
 11
0.0
 21
1.0
 31
0.0
 73
     1
 44
0.90036014405762
  0
MTEXT
  5
6F
330
47
100
AcDbEntity
  8
1
 62
     1
100
AcDbMText
 10
0.78653033037149
 20
266.9327229345758
 30
0.0
 40
2.0
 41
0.0
 71
     7
 72
     1
  1
F\U+00fcr diese Unterlage behalten wir das Ur-\Pheberrecht. Sie darf nur f\U+00fcr den von uns \Pbestimmten Zweck benutzt und ohne unsere \PZustimmung weder vervielf\U+00e4ltigt noch\PDritten zug\U+00e4nglich gemacht werden.
  7
CONVERTER_11
 11
0.0
 21
1.0
 31
0.0
 73
     1
 44
0.90036014405762
  0
ENDBLK
  5
49
330
47
100
AcDbEntity
  8
0
100
AcDbBlockEnd
  0
BLOCK
  5
107
330
100
100
AcDbEntity
  8
0
100
AcDbBlockBegin
  2
*D2
 70
     1
 10
0.0
 20
0.0
 30
0.0
  3
*D2
  1

  0
LINE
  5
101
330
100
100
AcDbEntity
  8
1
  6
Continuous
 62
     2
100
AcDbLine
 10
231.38101360024
 20
318.3726579229
 30
0.0
 11
231.38101360024
 21
298.3726579229
 31
0.0
  0
LINE
  5
102
330
100
100
AcDbEntity
  8
1
  6
Continuous
 62
     2
100
AcDbLine
 10
220.3524826017
 20
318.3726579229
 30
0.0
 11
233.38101360024
 21
318.3726579229
 31
0.0
  0
LINE
  5
103
330
100
100
AcDbEntity
  8
1
  6
Continuous
 62
     2
100
AcDbLine
 10
220.3524826017
 20
298.3726579229
 30
0.0
 11
233.38101360024
 21
298.3726579229
 31
0.0
  0
SOLID
  5
104
330
100
100
AcDbEntity
  8
1
 62
     2
100
AcDbTrace
 10
231.8417973417959
 20
314.8726579229
 30
0.0
 11
230.9202298586841
 21
314.8726579229
 31
0.0
 12
231.38101360024
 22
318.3726579229
 32
0.0
 13
231.38101360024
 23
318.3726579229
 33
0.0
  0
SOLID
  5
105
330
100
100
AcDbEntity
  8
1
 62
     2
100
AcDbTrace
 10
230.9202298586841
 20
301.8726579229
 30
0.0
 11
231.8417973417959
 21
301.8726579229
 31
0.0
 12
231.38101360024
 22
298.3726579229
 32
0.0
 13
231.38101360024
 23
298.3726579229
 33
0.0
  0
MTEXT
  5
106
330
100
100
AcDbEntity
  8
1
 62
     3
100
AcDbMText
 10
229.38101360024
 20
299.167850125996
 30
0.0
 40
3.5
 41
0.0
 71
     7
 72
     1
  1
\C3;%%c\C3;\C3;20\C2;\H2.45;\S^ ;\C3;
  7
CONVERTER_11
 11
0.0
 21
1.0
 31
0.0
 73
     1
 44
0.60024009603842
  0
ENDBLK
  5
108
330
100
100
AcDbEntity
  8
0
100
AcDbBlockEnd
  0
BLOCK
  5
112
330
10B
100
AcDbEntity
  8
0
100
AcDbBlockBegin
  2
*D3
 70
     1
 10
0.0
 20
0.0
 30
0.0
  3
*D3
  1

  0
LINE
  5
10C
330
10B
100
AcDbEntity
  8
1
  6
Continuous
 62
     2
100
AcDbLine
 10
239.632040308578
 20
324.8726579229466
 30
0.0
 11
239.632040308578
 21
291.8726579228559
 31
0.0
  0
LINE
  5
10D
330
10B
100
AcDbEntity
  8
1
  6
Continuous
 62
     2
100
AcDbLine
 10
220.3524826017
 20
324.8726579229466
 30
0.0
 11
241.632040308578
 21
324.8726579229466
 31
0.0
  0
LINE
  5
10E
330
10B
100
AcDbEntity
  8
1
  6
Continuous
 62
     2
100
AcDbLine
 10
220.3524826017
 20
291.8726579228559
 30
0.0
 11
241.632040308578
 21
291.8726579228559
 31
0.0
  0
SOLID
  5
10F
330
10B
100
AcDbEntity
  8
1
 62
     2
100
AcDbTrace
 10
240.0928240501339
 20
321.3726579229466
 30
0.0
 11
239.1712565670221
 21
321.3726579229466
 31
0.0
 12
239.632040308578
 22
324.8726579229466
 32
0.0
 13
239.632040308578
 23
324.8726579229466
 33
0.0
  0
SOLID
  5
110
330
10B
100
AcDbEntity
  8
1
 62
     2
100
AcDbTrace
 10
239.1712565670221
 20
295.3726579228559
 30
0.0
 11
240.0928240501339
 21
295.3726579228559
 31
0.0
 12
239.632040308578
 22
291.8726579228559
 32
0.0
 13
239.632040308578
 23
291.8726579228559
 33
0.0
  0
MTEXT
  5
111
330
10B
100
AcDbEntity
  8
1
 62
     3
100
AcDbMText
 10
237.632040308578
 20
299.819246971391
 30
0.0
 40
3.5
 41
0.0
 71
     7
 72
     1
  1
\C3;%%c\C3;\C3;33\C2;\H2.45;\S^ ;\C3;
  7
CONVERTER_11
 11
0.0
 21
1.0
 31
0.0
 73
     1
 44
0.60024009603842
  0
ENDBLK
  5
113
330
10B
100
AcDbEntity
  8
0
100
AcDbBlockEnd
  0
BLOCK
  5
11D
330
116
100
AcDbEntity
  8
0
100
AcDbBlockBegin
  2
*D4
 70
     1
 10
0.0
 20
0.0
 30
0.0
  3
*D4
  1

  0
LINE
  5
117
330
116
100
AcDbEntity
  8
1
  6
Continuous
 62
     2
100
AcDbLine
 10
248.317331580513
 20
329.3726579229
 30
0.0
 11
248.317331580513
 21
287.3726579229
 31
0.0
  0
LINE
  5
118
330
116
100
AcDbEntity
  8
1
  6
Continuous
 62
     2
100
AcDbLine
 10
163.1745612889
 20
329.3726579229
 30
0.0
 11
250.317331580513
 21
329.3726579229
 31
0.0
  0
LINE
  5
119
330
116
100
AcDbEntity
  8
1
  6
Continuous
 62
     2
100
AcDbLine
 10
163.1745612889
 20
287.3726579229
 30
0.0
 11
250.317331580513
 21
287.3726579229
 31
0.0
  0
SOLID
  5
11A
330
116
100
AcDbEntity
  8
1
 62
     2
100
AcDbTrace
 10
248.7781153220689
 20
325.8726579229
 30
0.0
 11
247.8565478389571
 21
325.8726579229
 31
0.0
 12
248.317331580513
 22
329.3726579229
 32
0.0
 13
248.317331580513
 23
329.3726579229
 33
0.0
  0
SOLID
  5
11B
330
116
100
AcDbEntity
  8
1
 62
     2
100
AcDbTrace
 10
247.8565478389571
 20
290.8726579229
 30
0.0
 11
248.7781153220689
 21
290.8726579229
 31
0.0
 12
248.317331580513
 22
287.3726579229
 32
0.0
 13
248.317331580513
 23
287.3726579229
 33
0.0
  0
MTEXT
  5
11C
330
116
100
AcDbEntity
  8
1
 62
     3
100
AcDbMText
 10
246.317331580513
 20
299.602114689593
 30
0.0
 40
3.5
 41
0.0
 71
     7
 72
     1
  1
\C3;%%c\C3;\C3;42\C2;\H2.45;\S^ ;\C3;
  7
CONVERTER_11
 11
0.0
 21
1.0
 31
0.0
 73
     1
 44
0.60024009603842
  0
ENDBLK
  5
11E
330
116
100
AcDbEntity
  8
0
100
AcDbBlockEnd
  0
BLOCK
  5
128
330
121
100
AcDbEntity
  8
0
100
AcDbBlockBegin
  2
*D5
 70
     1
 10
0.0
 20
0.0
 30
0.0
  3
*D5
  1

  0
LINE
  5
122
330
121
100
AcDbEntity
  8
1
  6
Continuous
 62
     2
100
AcDbLine
 10
218.3524826017
 20
367.299963056951
 30
0.0
 11
87.3524826017
 21
367.299963056951
 31
0.0
  0
LINE
  5
123
330
121
100
AcDbEntity
  8
1
  6
Continuous
 62
     2
100
AcDbLine
 10
218.3524826017
 20
325.9482674313
 30
0.0
 11
218.3524826017
 21
369.299963056951
 31
0.0
  0
LINE
  5
124
330
121
100
AcDbEntity
  8
1
  6
Continuous
 62
     2
100
AcDbLine
 10
87.3524826017
 20
360.3726210018
 30
0.0
 11
87.3524826017
 21
369.299963056951
 31
0.0
  0
SOLID
  5
125
330
121
100
AcDbEntity
  8
1
 62
     2
100
AcDbTrace
 10
214.8524826017
 20
366.8391793153951
 30
0.0
 11
214.8524826017
 21
367.7607467985069
 31
0.0
 12
218.3524826017
 22
367.299963056951
 32
0.0
 13
218.3524826017
 23
367.299963056951
 33
0.0
  0
SOLID
  5
126
330
121
100
AcDbEntity
  8
1
 62
     2
100
AcDbTrace
 10
90.8524826017
 20
367.7607467985069
 30
0.0
 11
90.8524826017
 21
366.8391793153951
 31
0.0
 12
87.3524826017
 22
367.299963056951
 32
0.0
 13
87.3524826017
 23
367.299963056951
 33
0.0
  0
MTEXT
  5
127
330
121
100
AcDbEntity
  8
1
 62
     3
100
AcDbMText
 10
151.127656716424
 20
369.299963056951
 30
0.0
 40
3.5
 41
0.0
 71
     7
 72
     1
  1
\C3;\C3;\C3;131\C2;\H2.45;\S^ ;\C3;
  7
CONVERTER_11
 11
0.9999999999970619
 21
2.424068405545306E-6
 31
0.0
 73
     1
 44
0.60024009603842
  0
ENDBLK
  5
129
330
121
100
AcDbEntity
  8
0
100
AcDbBlockEnd
  0
BLOCK
  5
133
330
12C
100
AcDbEntity
  8
0
100
AcDbBlockBegin
  2
*D6
 70
     1
 10
0.0
 20
0.0
 30
0.0
  3
*D6
  1

  0
LINE
  5
12D
330
12C
100
AcDbEntity
  8
1
  6
Continuous
 62
     2
100
AcDbLine
 10
218.3524826017
 20
375.116725201692
 30
0.0
 11
58.35248260169999
 21
375.116725201692
 31
0.0
  0
LINE
  5
12E
330
12C
100
AcDbEntity
  8
1
  6
Continuous
 62
     2
100
AcDbLine
 10
218.3524826017
 20
325.9482674313
 30
0.0
 11
218.3524826017
 21
377.116725201692
 31
0.0
  0
LINE
  5
12F
330
12C
100
AcDbEntity
  8
1
  6
Continuous
 62
     2
100
AcDbLine
 10
58.35248260169999
 20
360.3726579229
 30
0.0
 11
58.35248260169999
 21
377.116725201692
 31
0.0
  0
SOLID
  5
130
330
12C
100
AcDbEntity
  8
1
 62
     2
100
AcDbTrace
 10
214.8524826017
 20
374.6559414601361
 30
0.0
 11
214.8524826017
 21
375.5775089432479
 31
0.0
 12
218.3524826017
 22
375.116725201692
 32
0.0
 13
218.3524826017
 23
375.116725201692
 33
0.0
  0
SOLID
  5
131
330
12C
100
AcDbEntity
  8
1
 62
     2
100
AcDbTrace
 10
61.85248260169999
 20
375.5775089432479
 30
0.0
 11
61.85248260169999
 21
374.6559414601361
 31
0.0
 12
58.35248260169999
 22
375.116725201692
 32
0.0
 13
58.35248260169999
 23
375.116725201692
 33
0.0
  0
MTEXT
  5
132
330
12C
100
AcDbEntity
  8
1
 62
     3
100
AcDbMText
 10
132.251412763562
 20
377.116725201692
 30
0.0
 40
3.5
 41
0.0
 71
     7
 72
     1
  1
\C3;\C3;\C3;160\C2;\H2.45;\S^ ;\C3;
  7
CONVERTER_11
 11
0.9999999999970619
 21
2.424068405545306E-6
 31
0.0
 73
     1
 44
0.60024009603842
  0
ENDBLK
  5
134
330
12C
100
AcDbEntity
  8
0
100
AcDbBlockEnd
  0
BLOCK
  5
13E
330
137
100
AcDbEntity
  8
0
100
AcDbBlockBegin
  2
*D7
 70
     1
 10
0.0
 20
0.0
 30
0.0
  3
*D7
  1

  0
LINE
  5
138
330
137
100
AcDbEntity
  8
1
  6
Continuous
 62
     2
100
AcDbLine
 10
218.3524826017
 20
382.282090501038
 30
0.0
 11
8.35248260169999
 21
382.282090501038
 31
0.0
  0
LINE
  5
139
330
137
100
AcDbEntity
  8
1
  6
Continuous
 62
     2
100
AcDbLine
 10
218.3524826017
 20
325.9482674313
 30
0.0
 11
218.3524826017
 21
384.282090501038
 31
0.0
  0
LINE
  5
13A
330
137
100
AcDbEntity
  8
1
  6
Continuous
 62
     2
100
AcDbLine
 10
8.35248260169999
 20
343.9728494855
 30
0.0
 11
8.35248260169999
 21
384.282090501038
 31
0.0
  0
SOLID
  5
13B
330
137
100
AcDbEntity
  8
1
 62
     2
100
AcDbTrace
 10
214.8524826017
 20
381.8213067594821
 30
0.0
 11
214.8524826017
 21
382.7428742425939
 31
0.0
 12
218.3524826017
 22
382.282090501038
 32
0.0
 13
218.3524826017
 23
382.282090501038
 33
0.0
  0
SOLID
  5
13C
330
137
100
AcDbEntity
  8
1
 62
     2
100
AcDbTrace
 10
11.85248260169999
 20
382.7428742425939
 30
0.0
 11
11.85248260169999
 21
381.8213067594821
 31
0.0
 12
8.35248260169999
 22
382.282090501038
 32
0.0
 13
8.35248260169999
 23
382.282090501038
 33
0.0
  0
MTEXT
  5
13D
330
137
100
AcDbEntity
  8
1
 62
     3
100
AcDbMText
 10
115.315094783289
 20
384.282090501038
 30
0.0
 40
3.5
 41
0.0
 71
     7
 72
     1
  1
\C3;\C3;\C3;210\C2;\H2.45;\S^ ;\C3;
  7
CONVERTER_11
 11
0.9999999999970619
 21
2.424068405545306E-6
 31
0.0
 73
     1
 44
0.60024009603842
  0
ENDBLK
  5
13F
330
137
100
AcDbEntity
  8
0
100
AcDbBlockEnd
  0
BLOCK
  5
146
330
142
100
AcDbEntity
  8
0
100
AcDbBlockBegin
  2
*D8
 70
     1
 10
0.0
 20
0.0
 30
0.0
  3
*D8
  1

  0
LINE
  5
143
330
142
100
AcDbEntity
  8
1
  6
Continuous
 62
     2
100
AcDbLine
 10
102.7344577960448
 20
346.4059482543823
 30
0.0
 11
93.48415914287314
 21
336.3574071728675
 31
0.0
  0
SOLID
  5
144
330
142
100
AcDbEntity
  8
1
 62
     2
100
AcDbTrace
 10
95.51562957428189
 20
339.2445250337789
 30
0.0
 11
96.19364998577299
 21
338.6203656410511
 31
0.0
 12
93.48415914287314
 22
336.3574071728675
 32
0.0
 13
93.48415914287314
 23
336.3574071728675
 33
0.0
  0
MTEXT
  5
145
330
142
100
AcDbEntity
  8
1
 62
     3
100
AcDbMText
 10
95.09975775970219
 20
341.0654093906467
 30
0.0
 40
3.5
 41
0.0
 71
     7
 72
     1
  1
\C3; R\C3;\C3;19\C2;\H2.45;\S^ ;\C3;
  7
CONVERTER_11
 11
0.6772801820440777
 21
0.7357251898707431
 31
0.0
 73
     1
 44
0.60024009603842
  0
ENDBLK
  5
147
330
142
100
AcDbEntity
  8
0
100
AcDbBlockEnd
  0
BLOCK
  5
150
330
149
100
AcDbEntity
  8
0
100
AcDbBlockBegin
  2
*D9
 70
     1
 10
0.0
 20
0.0
 30
0.0
  3
*D9
  1

  0
LINE
  5
14A
330
149
100
AcDbEntity
  8
1
  6
Continuous
 62
     2
100
AcDbLine
 10
197.9792565072228
 20
329.3726579229
 30
0.0
 11
199.9792565072228
 21
329.3726579229
 31
0.0
  0
LINE
  5
14B
330
149
100
AcDbEntity
  8
1
  6
Continuous
 62
     2
100
AcDbLine
 10
163.1745612889
 20
329.3726579229
 30
0.0
 11
197.9792565072228
 21
329.3726579229
 31
0.0
  0
ARC
  5
14C
330
149
100
AcDbEntity
  8
1
  6
Continuous
 62
     2
100
AcDbCircle
 10
161.1745612889
 20
329.3726579229
 30
0.0
 40
36.80469521832281
100
AcDbArc
 50
347.3270524817976
 51
14.23102736338226
  0
SOLID
  5
14D
330
149
100
AcDbEntity
  8
1
 62
     2
100
AcDbTrace
 10
197.8827857530766
 20
322.9548343200935
 30
0.0
 11
196.9685342056634
 21
323.0707253636713
 31
0.0
 12
197.865799914812
 22
326.484994817547
 32
0.0
 13
197.865799914812
 23
326.484994817547
 33
0.0
  0
SOLID
  5
14E
330
149
100
AcDbEntity
  8
1
 62
     2
100
AcDbTrace
 10
197.352637262729
 20
332.8468009796713
 30
0.0
 11
198.2731631842196
 21
332.890603420161
 31
0.0
 12
197.9792565072228
 22
329.3726579229
 32
0.0
 13
197.9792565072228
 23
329.3726579229
 33
0.0
  0
MTEXT
  5
14F
330
149
100
AcDbEntity
  8
1
 62
     3
100
AcDbMText
 10
198.9441829725576
 20
338.9516074404779
 30
0.0
 40
3.5
 41
0.0
 71
     7
 72
     1
  1
\C3;\C3;\C3;4.5%%d\C2;\H2.45;\S^ ;\C3;
  7
CONVERTER_11
 11
0.1568810580191808
 21
-0.9876175037102078
 31
0.0
 73
     1
 44
0.60024009603842
  0
ENDBLK
  5
151
330
149
100
AcDbEntity
  8
0
100
AcDbBlockEnd
  0
ENDSEC
  0
SECTION
  2
ENTITIES
  0
INSERT
  5
6C
330
1F
100
AcDbEntity
  8
0
100
AcDbBlockReference
  2
Urheberrecht_DE-EN
 10
0.78653033037149
 20
323.222109851882
 30
0.0
  0
LINE
  5
70
330
1F
100
AcDbEntity
  8
BEZUGSACHSEN
  6
Continuous
 62
     7
100
AcDbLine
 10
8.3524826017
 20
274.77246636
 30
0.0
 11
8.3524826017
 21
296.3626579229
 31
0.0
  0
LINE
  5
71
330
1F
100
AcDbEntity
  8
BEZUGSACHSEN
  6
Continuous
 62
     7
100
AcDbLine
 10
8.3524826017
 20
320.3826579229
 30
0.0
 11
8.3524826017
 21
341.9728494855
 31
0.0
  0
LINE
  5
72
330
1F
100
AcDbEntity
  8
BEZUGSACHSEN
  6
Continuous
 62
     9
100
AcDbLine
 10
10.252408117
 20
343.9703441912
 30
0.0
 11
10.252408117
 21
324.0491903092
 31
0.0
  0
LINE
  5
73
330
1F
100
AcDbEntity
  8
BEZUGSACHSEN
  6
Continuous
 62
     9
100
AcDbLine
 10
10.252408117
 20
292.6961255367
 30
0.0
 11
10.252408117
 21
272.7749716546
 31
0.0
  0
LINE
  5
74
330
1F
100
AcDbEntity
  8
BEZUGSACHSEN
  6
Continuous
 62
     7
100
AcDbLine
 10
10.3524826017
 20
295.9690179745
 30
0.0
 11
10.3524826017
 21
298.3626579229
 31
0.0
  0
LINE
  5
75
330
1F
100
AcDbEntity
  8
BEZUGSACHSEN
  6
Continuous
 62
     7
100
AcDbLine
 10
10.3524826017
 20
318.3826579229
 30
0.0
 11
10.3524826017
 21
320.7762978713
 31
0.0
  0
LINE
  5
76
330
1F
100
AcDbEntity
  8
BEZUGSACHSEN
  6
Continuous
 62
     9
100
AcDbLine
 10
16.3524826017
 20
292.0140103355
 30
0.0
 11
16.3524826017
 21
298.3626579229
 31
0.0
  0
LINE
  5
77
330
1F
100
AcDbEntity
  8
BEZUGSACHSEN
  6
Continuous
 62
     9
100
AcDbLine
 10
16.3524826017
 20
318.3826579229
 30
0.0
 11
16.3524826017
 21
324.7313055104
 31
0.0
  0
LINE
  5
78
330
1F
100
AcDbEntity
  8
BEZUGSACHSEN
  6
Continuous
 62
     7
100
AcDbLine
 10
18.3524826017
 20
321.2423134487
 30
0.0
 11
18.3524826017
 21
295.5030023971
 31
0.0
  0
LINE
  5
79
330
1F
100
AcDbEntity
  8
BEZUGSACHSEN
  6
Continuous
 62
     7
100
AcDbLine
 10
9.6194355287
 20
293.3626579229
 30
0.0
 11
9.4983252773
 21
293.1303219275
 31
0.0
  0
LINE
  5
7A
330
1F
100
AcDbEntity
  8
BEZUGSACHSEN
  6
Continuous
 62
     7
100
AcDbLine
 10
9.4983252773
 20
323.6149939184
 30
0.0
 11
9.6194355287
 21
323.3826579229
 31
0.0
  0
LWPOLYLINE
  5
7B
330
1F
100
AcDbEntity
  8
BEZUGSACHSEN
  6
DOT_CENTER
 62
     7
100
AcDbPolyline
 90
        2
 70
     0
 43
0.25
 10
43.3524826017
 20
308.3726579229
 10
43.3524826017
 20
299.3726579229
  0
LWPOLYLINE
  5
7C
330
1F
100
AcDbEntity
  8
BEZUGSACHSEN
  6
DOT_CENTER
 62
     7
100
AcDbPolyline
 90
        2
 70
     0
 43
0.25
 10
43.3524826017
 20
308.3726579229
 10
43.3524826017
 20
317.3726579229
  0
LINE
  5
7D
330
1F
100
AcDbEntity
  8
BEZUGSACHSEN
  6
Continuous
 62
     7
100
AcDbLine
 10
8.3524826017
 20
296.3626579229
 30
0.0
 11
10.3524826017
 21
298.3626579229
 31
0.0
  0
LINE
  5
7E
330
1F
100
AcDbEntity
  8
BEZUGSACHSEN
  6
Continuous
 62
     7
100
AcDbLine
 10
10.3524826017
 20
318.3826579229
 30
0.0
 11
8.3524826017
 21
320.3826579229
 31
0.0
  0
LINE
  5
7F
330
1F
100
AcDbEntity
  8
BEZUGSACHSEN
  6
Continuous
 62
     7
100
AcDbLine
 10
55.8524826017
 20
346.2549079229
 30
0.0
 11
55.8524826017
 21
270.4904079229
 31
0.0
  0
LINE
  5
80
330
1F
100
AcDbEntity
  8
BEZUGSACHSEN
  6
Continuous
 62
     9
100
AcDbLine
 10
56.4717262157
 20
270.6563337492
 30
0.0
 11
56.4717262157
 21
346.0889820966
 31
0.0
  0
LINE
  5
81
330
1F
100
AcDbEntity
  8
BEZUGSACHSEN
  6
Continuous
 62
     9
100
AcDbLine
 10
56.7305452608
 20
270.6904079229
 30
0.0
 11
56.7305452608
 21
346.0549079229
 31
0.0
  0
LINE
  5
82
330
1F
100
AcDbEntity
  8
BEZUGSACHSEN
  6
Continuous
 62
     9
100
AcDbLine
 10
57.651911313
 20
270.6904079229
 30
0.0
 11
57.651911313
 21
346.0549079229
 31
0.0
  0
LINE
  5
83
330
1F
100
AcDbEntity
  8
BEZUGSACHSEN
  6
Continuous
 62
     7
100
AcDbLine
 10
58.3524826017
 20
358.3726579229
 30
0.0
 11
58.3524826017
 21
258.3726579229
 31
0.0
  0
LWPOLYLINE
  5
84
330
1F
100
AcDbEntity
  8
BEZUGSACHSEN
  6
DOT_CENTER
 62
     7
100
AcDbPolyline
 90
        2
 70
     0
 43
0.25
 10
65.3524826017
 20
350.5220297782
 10
65.3524826017
 20
361.3726579229
  0
LINE
  5
85
330
1F
100
AcDbEntity
  8
BEZUGSACHSEN
  6
Continuous
 62
     7
100
AcDbLine
 10
80.2274826017
 20
355.9952531871
 30
0.0
 11
81.6000778659
 21
358.3726579229
 31
0.0
  0
LINE
  5
86
330
1F
100
AcDbEntity
  8
BEZUGSACHSEN
  6
Continuous
 62
     7
100
AcDbLine
 10
75.1048873375
 20
258.3726579229
 30
0.0
 11
58.3524826017
 21
258.3726579229
 31
0.0
  0
LINE
  5
87
330
1F
100
AcDbEntity
  8
BEZUGSACHSEN
  6
Continuous
 62
     7
100
AcDbLine
 10
81.6000778659
 20
258.3726579229
 30
0.0
 11
87.3524826017
 21
258.3726579229
 31
0.0
  0
LINE
  5
88
330
1F
100
AcDbEntity
  8
BEZUGSACHSEN
  6
Continuous
 62
     7
100
AcDbLine
 10
77.4774826017
 20
262.3726579229
 30
0.0
 11
79.2274826017
 21
262.3726579229
 31
0.0
  0
LINE
  5
89
330
1F
100
AcDbEntity
  8
BEZUGSACHSEN
  6
Continuous
 62
     7
100
AcDbLine
 10
80.2274826017
 20
260.7500626587
 30
0.0
 11
81.6000778659
 21
258.3726579229
 31
0.0
  0
LINE
  5
8A
330
1F
100
AcDbEntity
  8
FASEN
  6
Continuous
 62
     9
100
AcDbLine
 10
71.3243565236
 20
276.4726579229
 30
0.0
 11
71.3243565236
 21
276.8726579229
 31
0.0
  0
LINE
  5
8B
330
1F
100
AcDbEntity
  8
FASEN
  6
Continuous
 62
     9
100
AcDbLine
 10
73.3524826017
 20
298.7726579229
 30
0.0
 11
73.3524826017
 21
298.3726579229
 31
0.0
  0
LINE
  5
8C
330
1F
100
AcDbEntity
  8
FASEN
  6
Continuous
 62
     9
100
AcDbLine
 10
73.3524826017
 20
317.9726579229
 30
0.0
 11
73.3524826017
 21
318.3726579229
 31
0.0
  0
LINE
  5
8D
330
1F
100
AcDbEntity
  8
0
  6
Continuous
 62
     7
100
AcDbLine
 10
75.1048873375
 20
358.3726579229
 30
0.0
 11
75.1048873375
 21
318.3726579229
 31
0.0
  0
LINE
  5
8E
330
1F
100
AcDbEntity
  8
0
  6
Continuous
 62
     7
100
AcDbLine
 10
75.1048873375
 20
298.3726579229
 30
0.0
 11
75.1048873375
 21
276.8726579229
 31
0.0
  0
LINE
  5
8F
330
1F
100
AcDbEntity
  8
0
  6
Continuous
 62
     7
100
AcDbLine
 10
75.1048873375
 20
269.5429012922
 30
0.0
 11
75.1048873375
 21
258.3726579229
 31
0.0
  0
LINE
  5
90
330
1F
100
AcDbEntity
  8
FASEN
  6
Continuous
 62
     7
100
AcDbLine
 10
63.7539685661
 20
269.5429012922
 30
0.0
 11
75.1048873375
 21
269.5429012922
 31
0.0
  0
LINE
  5
91
330
1F
100
AcDbEntity
  8
0
  6
Continuous
 62
     7
100
AcDbLine
 10
81.6000778659
 20
269.5429012922
 30
0.0
 11
87.3524826017
 21
269.5429012922
 31
0.0
  0
LINE
  5
92
330
1F
100
AcDbEntity
  8
BEZUGSACHSEN
  6
Continuous
 62
     7
100
AcDbLine
 10
10.252408117
 20
272.7749716546
 30
0.0
 11
55.8524826017
 21
270.4904079229
 31
0.0
  0
LINE
  5
93
330
1F
100
AcDbEntity
  8
0
  6
Continuous
 62
     7
100
AcDbLine
 10
76.4774826017
 20
355.9952197606
 30
0.0
 11
76.4774826017
 21
318.3726579229
 31
0.0
  0
LINE
  5
94
330
1F
100
AcDbEntity
  8
0
  6
Continuous
 62
     7
100
AcDbLine
 10
76.4774826017
 20
298.3726579229
 30
0.0
 11
76.4774826017
 21
276.8726579229
 31
0.0
  0
LINE
  5
95
330
1F
100
AcDbEntity
  8
0
  6
Continuous
 62
     7
100
AcDbLine
 10
76.4774826017
 20
260.7501001927
 30
0.0
 11
76.4774826017
 21
273.4907141697
 31
0.0
  0
LINE
  5
96
330
1F
100
AcDbEntity
  8
0
  6
Continuous
 62
     9
100
AcDbLine
 10
77.4774826017
 20
262.3726579229
 30
0.0
 11
77.4774826017
 21
274.8502773392
 31
0.0
  0
LINE
  5
97
330
1F
100
AcDbEntity
  8
0
  6
Continuous
 62
     9
100
AcDbLine
 10
77.4774826017
 20
276.8726579229
 30
0.0
 11
77.4774826017
 21
298.3726579229
 31
0.0
  0
LINE
  5
98
330
1F
100
AcDbEntity
  8
0
  6
Continuous
 62
     9
100
AcDbLine
 10
77.4774826017
 20
318.3726579229
 30
0.0
 11
77.4774826017
 21
354.3726579229
 31
0.0
  0
LINE
  5
99
330
1F
100
AcDbEntity
  8
0
  6
Continuous
 62
     9
100
AcDbLine
 10
79.2274826017
 20
262.3726579229
 30
0.0
 11
79.2274826017
 21
274.8502773392
 31
0.0
  0
LINE
  5
9A
330
1F
100
AcDbEntity
  8
0
  6
Continuous
 62
     9
100
AcDbLine
 10
79.2274826017
 20
276.8726579229
 30
0.0
 11
79.2274826017
 21
298.3726579229
 31
0.0
  0
LINE
  5
9B
330
1F
100
AcDbEntity
  8
0
  6
Continuous
 62
     9
100
AcDbLine
 10
79.2274826017
 20
318.3726579229
 30
0.0
 11
79.2274826017
 21
354.3726579229
 31
0.0
  0
LINE
  5
9C
330
1F
100
AcDbEntity
  8
0
  6
Continuous
 62
     7
100
AcDbLine
 10
80.2274826017
 20
260.7501001927
 30
0.0
 11
80.2274826017
 21
273.4907141697
 31
0.0
  0
LINE
  5
9D
330
1F
100
AcDbEntity
  8
0
  6
Continuous
 62
     7
100
AcDbLine
 10
80.2274826017
 20
276.8726579229
 30
0.0
 11
80.2274826017
 21
298.3726579229
 31
0.0
  0
LINE
  5
9E
330
1F
100
AcDbEntity
  8
0
  6
Continuous
 62
     7
100
AcDbLine
 10
80.2274826017
 20
318.3726579229
 30
0.0
 11
80.2274826017
 21
355.9952197606
 31
0.0
  0
LINE
  5
9F
330
1F
100
AcDbEntity
  8
0
  6
Continuous
 62
     7
100
AcDbLine
 10
81.6000778659
 20
358.3726579229
 30
0.0
 11
81.6000778659
 21
318.3726579229
 31
0.0
  0
LINE
  5
A0
330
1F
100
AcDbEntity
  8
0
  6
Continuous
 62
     7
100
AcDbLine
 10
81.6000778659
 20
298.3726579229
 30
0.0
 11
81.6000778659
 21
276.8726579229
 31
0.0
  0
LINE
  5
A1
330
1F
100
AcDbEntity
  8
0
  6
Continuous
 62
     7
100
AcDbLine
 10
81.6000778659
 20
269.5429012922
 30
0.0
 11
81.6000778659
 21
258.3726579229
 31
0.0
  0
LINE
  5
A2
330
1F
100
AcDbEntity
  8
BEZUGSACHSEN
  6
Continuous
 62
     9
100
AcDbLine
 10
8.3524826017
 20
294.9264739539
 30
0.0
 11
10.3524826017
 21
295.9690179745
 31
0.0
  0
LINE
  5
A3
330
1F
100
AcDbEntity
  8
BEZUGSACHSEN
  6
Continuous
 62
     7
100
AcDbLine
 10
57.651911313
 20
270.6904079229
 30
0.0
 11
56.7305452608
 21
270.6904079229
 31
0.0
  0
LINE
  5
A4
330
1F
100
AcDbEntity
  8
0
  6
Continuous
 62
     7
100
AcDbLine
 10
77.4774826017
 20
274.8502773392
 30
0.0
 11
79.2274826017
 21
274.8502773392
 31
0.0
  0
LINE
  5
A5
330
1F
100
AcDbEntity
  8
FASEN
  6
Continuous
 62
     7
100
AcDbLine
 10
71.3243565236
 20
276.4726579229
 30
0.0
 11
87.3524826017
 21
276.4726579229
 31
0.0
  0
LINE
  5
A6
330
1F
100
AcDbEntity
  8
0
  6
Continuous
 62
     7
100
AcDbLine
 10
71.3243565236
 20
276.8726579229
 30
0.0
 11
87.3524826017
 21
276.8726579229
 31
0.0
  0
LINE
  5
A7
330
1F
100
AcDbEntity
  8
BEZUGSACHSEN
  6
Continuous
 62
     9
100
AcDbLine
 10
10.3524826017
 20
320.7762978713
 30
0.0
 11
8.3524826017
 21
321.8188418919
 31
0.0
  0
LINE
  5
A8
330
1F
100
AcDbEntity
  8
0
  6
Continuous
 62
     7
100
AcDbLine
 10
87.3524826017
 20
358.3726210018
 30
0.0
 11
87.3524826017
 21
318.3726579229
 31
0.0
  0
LINE
  5
A9
330
1F
100
AcDbEntity
  8
0
  6
Continuous
 62
     7
100
AcDbLine
 10
87.3524826017
 20
298.3726579229
 30
0.0
 11
87.3524826017
 21
276.8726579229
 31
0.0
  0
LINE
  5
AA
330
1F
100
AcDbEntity
  8
0
  6
Continuous
 62
     7
100
AcDbLine
 10
87.3524826017
 20
269.5429012922
 30
0.0
 11
87.3524826017
 21
258.3726597907
 31
0.0
  0
LINE
  5
AB
330
1F
100
AcDbEntity
  8
FASEN
  6
Continuous
 62
     7
100
AcDbLine
 10
87.3524826017
 20
269.5429012922
 30
0.0
 11
87.3524826017
 21
276.8726579229
 31
0.0
  0
LINE
  5
AC
330
1F
100
AcDbEntity
  8
FASEN
  6
Continuous
 62
     7
100
AcDbLine
 10
87.3524826017
 20
298.3726579229
 30
0.0
 11
87.3524826017
 21
318.3726579229
 31
0.0
  0
LINE
  5
AD
330
1F
100
AcDbEntity
  8
RUNDUNGEN
  6
Continuous
 62
     7
100
AcDbLine
 10
217.4309416974
 20
291.8001310808
 30
0.0
 11
161.1745612889
 21
287.3726579229
 31
0.0
  0
LINE
  5
AE
330
1F
100
AcDbEntity
  8
0
  6
Continuous
 62
     7
100
AcDbLine
 10
161.1745612889
 20
287.3726579229
 30
0.0
 11
217.4309416974
 21
291.8001310808
 31
0.0
  0
LINE
  5
AF
330
1F
100
AcDbEntity
  8
BEZUGSACHSEN
  6
Continuous
 62
     7
100
AcDbLine
 10
56.4717262157
 20
270.6563337492
 30
0.0
 11
55.8524826017
 21
270.4904079229
 31
0.0
  0
LINE
  5
B0
330
1F
100
AcDbEntity
  8
0
  6
Continuous
 62
     7
100
AcDbLine
 10
161.1745612889
 20
287.3726579229
 30
0.0
 11
142.3524826017
 21
287.3726579229
 31
0.0
  0
LINE
  5
B1
330
1F
100
AcDbEntity
  8
BEZUGSACHSEN
  6
Continuous
 62
     9
100
AcDbLine
 10
17.9063285486
 20
293.3626579229
 30
0.0
 11
9.6194355287
 21
293.3626579229
 31
0.0
  0
LINE
  5
B2
330
1F
100
AcDbEntity
  8
RUNDUNGEN
  6
Continuous
 62
     9
100
AcDbLine
 10
104.2860173449
 20
331.4488958387
 30
0.0
 11
104.2860173449
 21
285.2964200072
 31
0.0
  0
LINE
  5
B3
330
1F
100
AcDbEntity
  8
BEZUGSACHSEN
  6
Continuous
 62
     7
100
AcDbLine
 10
75.1048873375
 20
258.3726579229
 30
0.0
 11
76.4774826017
 21
260.7500626587
 31
0.0
  0
LINE
  5
B4
330
1F
100
AcDbEntity
  8
BEZUGSACHSEN
  6
Continuous
 62
     7
100
AcDbLine
 10
16.3524826017
 20
298.3626579229
 30
0.0
 11
10.3524826017
 21
298.3626579229
 31
0.0
  0
LWPOLYLINE
  5
B5
330
1F
100
AcDbEntity
  8
DEFAULT_2
  6
DASHED
 62
     8
100
AcDbPolyline
 90
        2
 70
     0
 43
0.35
 10
218.3524826017
 20
298.3726579229
 10
166.3524826017
 20
298.3726579229
  0
LINE
  5
B6
330
1F
100
AcDbEntity
  8
0
  6
Continuous
 62
     7
100
AcDbLine
 10
73.3524826017
 20
298.3726579229
 30
0.0
 11
87.3524826017
 21
298.3726579229
 31
0.0
  0
LINE
  5
B7
330
1F
100
AcDbEntity
  8
FASEN
  6
Continuous
 62
     7
100
AcDbLine
 10
87.3524826017
 20
298.7726579229
 30
0.0
 11
73.3524826017
 21
298.7726579229
 31
0.0
  0
LINE
  5
B8
330
1F
100
AcDbEntity
  8
BEZUGSACHSEN
  6
Continuous
 62
     7
100
AcDbLine
 10
75.1048873375
 20
358.3726579229
 30
0.0
 11
76.4774826017
 21
355.9952531871
 31
0.0
  0
LWPOLYLINE
  5
B9
330
1F
100
AcDbEntity
  8
BEZUGSACHSEN
  6
DOT_CENTER
 62
     7
100
AcDbPolyline
 90
        2
 70
     0
 43
0.25
 10
221.3524826017
 20
308.3726579229
 10
5.3524826017
 20
308.3726579229
  0
LINE
  5
BA
330
1F
100
AcDbEntity
  8
FASEN
  6
Continuous
 62
     7
100
AcDbLine
 10
73.3524826017
 20
317.9726579229
 30
0.0
 11
87.3524826017
 21
317.9726579229
 31
0.0
  0
LWPOLYLINE
  5
BB
330
1F
100
AcDbEntity
  8
DEFAULT_2
  6
DASHED
 62
     8
100
AcDbPolyline
 90
        2
 70
     0
 43
0.35
 10
218.3524826017
 20
318.3726579229
 10
166.3524826017
 20
318.3726579229
  0
LINE
  5
BC
330
1F
100
AcDbEntity
  8
0
  6
Continuous
 62
     7
100
AcDbLine
 10
73.3524826017
 20
318.3726579229
 30
0.0
 11
87.3524826017
 21
318.3726579229
 31
0.0
  0
LINE
  5
BD
330
1F
100
AcDbEntity
  8
BEZUGSACHSEN
  6
Continuous
 62
     7
100
AcDbLine
 10
16.3524826017
 20
318.3826579229
 30
0.0
 11
10.3524826017
 21
318.3826579229
 31
0.0
  0
LINE
  5
BE
330
1F
100
AcDbEntity
  8
BEZUGSACHSEN
  6
Continuous
 62
     9
100
AcDbLine
 10
9.6194355287
 20
323.3826579229
 30
0.0
 11
17.9063285486
 21
323.3826579229
 31
0.0
  0
LINE
  5
BF
330
1F
100
AcDbEntity
  8
0
  6
Continuous
 62
     7
100
AcDbLine
 10
161.1745612889
 20
329.3726579229
 30
0.0
 11
142.3524826017
 21
329.3726579229
 31
0.0
  0
LINE
  5
C0
330
1F
100
AcDbEntity
  8
BEZUGSACHSEN
  6
Continuous
 62
     7
100
AcDbLine
 10
56.4717262157
 20
346.0889820966
 30
0.0
 11
55.8524826017
 21
346.2549079229
 31
0.0
  0
LINE
  5
C1
330
1F
100
AcDbEntity
  8
0
  6
Continuous
 62
     9
100
AcDbLine
 10
142.3524826017
 20
329.3726579229
 30
0.0
 11
142.3524826017
 21
287.3726579229
 31
0.0
  0
LINE
  5
C2
330
1F
100
AcDbEntity
  8
RUNDUNGEN
  6
Continuous
 62
     7
100
AcDbLine
 10
217.4309416974
 20
324.945184765
 30
0.0
 11
161.1745612889
 21
329.3726579229
 31
0.0
  0
LINE
  5
C3
330
1F
100
AcDbEntity
  8
0
  6
Continuous
 62
     7
100
AcDbLine
 10
161.1745612889
 20
329.3726579229
 30
0.0
 11
217.4309416974
 21
324.945184765
 31
0.0
  0
LINE
  5
C4
330
1F
100
AcDbEntity
  8
BEZUGSACHSEN
  6
Continuous
 62
     7
100
AcDbLine
 10
57.651911313
 20
346.0549079229
 30
0.0
 11
56.7305452608
 21
346.0549079229
 31
0.0
  0
LINE
  5
C5
330
1F
100
AcDbEntity
  8
BEZUGSACHSEN
  6
Continuous
 62
     7
100
AcDbLine
 10
55.8524826017
 20
346.2549079229
 30
0.0
 11
10.252408117
 21
343.9703441912
 31
0.0
  0
LINE
  5
C6
330
1F
100
AcDbEntity
  8
BEZUGSACHSEN
  6
Continuous
 62
     7
100
AcDbLine
 10
77.4774826017
 20
354.3726579229
 30
0.0
 11
79.2274826017
 21
354.3726579229
 31
0.0
  0
LINE
  5
C7
330
1F
100
AcDbEntity
  8
0
  6
Continuous
 62
     7
100
AcDbLine
 10
161.1745612889
 20
329.3726579229
 30
0.0
 11
161.1745612889
 21
287.3726579229
 31
0.0
  0
LWPOLYLINE
  5
C8
330
1F
100
AcDbEntity
  8
DEFAULT_2
  6
DASHED
 62
     8
100
AcDbPolyline
 90
        2
 70
     0
 43
0.35
 10
166.3524826017
 20
318.3726579229
 10
166.3524826017
 20
298.3726579229
  0
LINE
  5
C9
330
1F
100
AcDbEntity
  8
BEZUGSACHSEN
  6
Continuous
 62
     7
100
AcDbLine
 10
75.1048873375
 20
358.3726579229
 30
0.0
 11
70.3524826017
 21
358.3726579229
 31
0.0
  0
LINE
  5
CA
330
1F
100
AcDbEntity
  8
BEZUGSACHSEN
  6
Continuous
 62
     7
100
AcDbLine
 10
60.3524826017
 20
358.3726579229
 30
0.0
 11
58.3524826017
 21
358.3726579229
 31
0.0
  0
LINE
  5
CB
330
1F
100
AcDbEntity
  8
BEZUGSACHSEN
  6
Continuous
 62
     7
100
AcDbLine
 10
81.6000778659
 20
358.3726579229
 30
0.0
 11
87.3524826017
 21
358.3726579229
 31
0.0
  0
LINE
  5
CC
330
1F
100
AcDbEntity
  8
RUNDUNGEN
  6
Continuous
 62
     9
100
AcDbLine
 10
217.4309416974
 20
291.8001310808
 30
0.0
 11
217.4309416974
 21
324.945184765
 31
0.0
  0
LINE
  5
CD
330
1F
100
AcDbEntity
  8
RUNDUNGEN
  6
Continuous
 62
     7
100
AcDbLine
 10
218.3524826017
 20
323.9482674313
 30
0.0
 11
218.3524826017
 21
292.7970484146
 31
0.0
  0
LWPOLYLINE
  5
CE
330
1F
100
AcDbEntity
  8
1
  6
Continuous
 62
     7
100
AcDbPolyline
 90
        2
 70
     0
 43
0.25
 10
218.3524826017
 20
323.9482674313
 10
218.3524826017
 20
324.8726579229466
  0
LWPOLYLINE
  5
CF
330
1F
100
AcDbEntity
  8
1
  6
Continuous
 62
     7
100
AcDbPolyline
 90
        2
 70
     0
 43
0.25
 10
217.4309416974
 20
324.945184765
 10
218.3524826016949
 20
324.8726579229466
  0
LWPOLYLINE
  5
D0
330
1F
100
AcDbEntity
  8
1
  6
Continuous
 62
     7
100
AcDbPolyline
 90
        2
 70
     0
 43
0.25
 10
217.4309416974
 20
291.8001310808
 10
218.3524826017
 20
291.8726579228559
  0
LWPOLYLINE
  5
D1
330
1F
100
AcDbEntity
  8
1
  6
Continuous
 62
     7
100
AcDbPolyline
 90
        2
 70
     0
 43
0.25
 10
218.3524826017
 20
292.7970484146
 10
218.3524826017
 20
291.8726579228559
  0
ARC
  5
D2
330
1F
100
AcDbEntity
  8
FASEN
  6
Continuous
 62
     7
100
AcDbCircle
 10
76.2531366246
 20
283.9039211929
 30
0.0
 40
19.03859487309966
100
AcDbArc
 50
227.4837701982989
 51
228.9651953373019
  0
ARC
  5
D3
330
1F
100
AcDbEntity
  8
FASEN
  6
Continuous
 62
     7
100
AcDbCircle
 10
71.3243565236
 20
268.8726579229
 30
0.0
 40
8.0
100
AcDbArc
 50
90.0
 51
172.8323734889967
  0
ARC
  5
D4
330
1F
100
AcDbEntity
  8
FASEN
  6
Continuous
 62
     7
100
AcDbCircle
 10
71.3243565236
 20
268.8726579229
 30
0.0
 40
7.599982194900008
100
AcDbArc
 50
90.0
 51
174.9405171273013
  0
ARC
  5
D5
330
1F
100
AcDbEntity
  8
BEZUGSACHSEN
  6
Continuous
 62
     7
100
AcDbCircle
 10
16.3524826017
 20
300.3626579229
 30
0.0
 40
2.0
100
AcDbArc
 50
270.0
 51
355.2355361864949
  0
ARC
  5
D6
330
1F
100
AcDbEntity
  8
BEZUGSACHSEN
  6
Continuous
 62
     7
100
AcDbCircle
 10
10.3524826017
 20
274.7724663598
 30
0.0
 40
2.0
100
AcDbArc
 50
179.9999999942695
 51
267.1318795135584
  0
ARC
  5
D7
330
1F
100
AcDbEntity
  8
BEZUGSACHSEN
  6
Continuous
 62
     7
100
AcDbCircle
 10
77.4774826017
 20
261.3726579229
 30
0.0
 40
1.0
100
AcDbArc
 50
90.0
 51
180.0
  0
ARC
  5
D8
330
1F
100
AcDbEntity
  8
BEZUGSACHSEN
  6
Continuous
 62
     7
100
AcDbCircle
 10
56.7305452608
 20
269.6904079229
 30
0.0
 40
1.0
100
AcDbArc
 50
90.0
 51
104.999999999699
  0
ARC
  5
D9
330
1F
100
AcDbEntity
  8
BEZUGSACHSEN
  6
Continuous
 62
     7
100
AcDbCircle
 10
57.651911313
 20
269.6904079229
 30
0.0
 40
0.9999999999998127
100
AcDbArc
 50
45.49026120128689
 51
90.0
  0
ARC
  5
DA
330
1F
100
AcDbEntity
  8
0
  6
Continuous
 62
     7
100
AcDbCircle
 10
-166.2452972811
 20
377.8071255134
 30
0.0
 40
264.5204223905039
100
AcDbArc
 50
335.8400764706058
 51
336.5770705490999
  0
ARC
  5
DB
330
1F
100
AcDbEntity
  8
BEZUGSACHSEN
  6
Continuous
 62
     7
100
AcDbCircle
 10
65.3676906128
 20
408.4254276898
 30
0.0
 40
50.30340021045203
100
AcDbArc
 50
264.2781515102013
 51
269.9826780125999
  0
ARC
  5
DC
330
1F
100
AcDbEntity
  8
BEZUGSACHSEN
  6
Continuous
 62
     7
100
AcDbCircle
 10
65.3372746006
 20
408.425427489
 30
0.0
 40
50.30340000959742
100
AcDbArc
 50
270.017321976058
 51
275.7218485012678
  0
ARC
  5
DD
330
1F
100
AcDbEntity
  8
0
  6
Continuous
 62
     7
100
AcDbCircle
 10
73.3524826017
 20
308.3726579229
 30
0.0
 40
10.0
100
AcDbArc
 50
90.0
 51
270.0
  0
ARC
  5
DE
330
1F
100
AcDbEntity
  8
FASEN
  6
Continuous
 62
     7
100
AcDbCircle
 10
73.3524826017
 20
308.3726579229
 30
0.0
 40
9.599999195900011
100
AcDbArc
 50
90.0
 51
270.0
  0
ARC
  5
DF
330
1F
100
AcDbEntity
  8
BEZUGSACHSEN
  6
Continuous
 62
     7
100
AcDbCircle
 10
16.3524826017
 20
316.3826579229
 30
0.0
 40
1.999999999999983
100
AcDbArc
 50
4.76446378498716
 51
90.0
  0
ARC
  5
E0
330
1F
100
AcDbEntity
  8
BEZUGSACHSEN
  6
Continuous
 62
     7
100
AcDbCircle
 10
10.3524826017
 20
341.972849486
 30
0.0
 40
1.999999999947542
100
AcDbArc
 50
92.86812048644147
 51
180.0000000143238
  0
ARC
  5
E1
330
1F
100
AcDbEntity
  8
BEZUGSACHSEN
  6
Continuous
 62
     7
100
AcDbCircle
 10
77.4774826017
 20
355.3726579229
 30
0.0
 40
1.0
100
AcDbArc
 50
180.0
 51
270.0
  0
ARC
  5
E2
330
1F
100
AcDbEntity
  8
BEZUGSACHSEN
  6
Continuous
 62
     7
100
AcDbCircle
 10
56.7305452608
 20
347.0549079229
 30
0.0
 40
1.000000000009914
100
AcDbArc
 50
255.0000000003019
 51
270.0
  0
ARC
  5
E3
330
1F
100
AcDbEntity
  8
BEZUGSACHSEN
  6
Continuous
 62
     7
100
AcDbCircle
 10
57.651911313
 20
347.0549079229
 30
0.0
 40
1.0
100
AcDbArc
 50
270.0
 51
314.5097387987131
  0
ARC
  5
E4
330
1F
100
AcDbEntity
  8
BEZUGSACHSEN
  6
Continuous
 62
     7
100
AcDbCircle
 10
194.6825291999
 20
-1297.6701013671
 30
0.0
 40
1632.172763698
100
AcDbArc
 50
96.2726189838
 51
96.48809068979999
  0
ARC
  5
E5
330
1F
100
AcDbEntity
  8
0
  6
Continuous
 62
     7
100
AcDbCircle
 10
142.3524826017
 20
-62.6273420771
 30
0.0
 40
350.0
100
AcDbArc
 50
90.0
 51
96.24391656287501
  0
ARC
  5
E6
330
1F
100
AcDbEntity
  8
RUNDUNGEN
  6
Continuous
 62
     7
100
AcDbCircle
 10
142.3524826017
 20
-62.6273420771
 30
0.0
 40
350.0
100
AcDbArc
 50
90.0
 51
96.24391656287501
  0
ARC
  5
E7
330
1F
100
AcDbEntity
  8
RUNDUNGEN
  6
Continuous
 62
     7
100
AcDbCircle
 10
106.3524826017
 20
266.4091300654
 30
0.0
 40
19.00000000008373
100
AcDbArc
 50
96.24391656285535
 51
180.0
  0
ARC
  5
E8
330
1F
100
AcDbEntity
  8
RUNDUNGEN
  6
Continuous
 62
     7
100
AcDbCircle
 10
217.3524826017
 20
292.7970484146
 30
0.0
 40
1.000000000064494
100
AcDbArc
 50
274.4999999981087
 51
0.0
  0
ARC
  5
E9
330
1F
100
AcDbEntity
  8
BEZUGSACHSEN
  6
Continuous
 62
     7
100
AcDbCircle
 10
79.2274826017
 20
261.3726579229
 30
0.0
 40
1.0
100
AcDbArc
 50
0.0
 51
90.0
  0
ARC
  5
EA
330
1F
100
AcDbEntity
  8
BEZUGSACHSEN
  6
Continuous
 62
     7
100
AcDbCircle
 10
194.6825291999
 20
1914.4154172129
 30
0.0
 40
1632.172763698
100
AcDbArc
 50
263.5119093102
 51
263.7273810162
  0
ARC
  5
EB
330
1F
100
AcDbEntity
  8
0
  6
Continuous
 62
     7
100
AcDbCircle
 10
142.3524826017
 20
679.3726579229
 30
0.0
 40
349.9999999999574
100
AcDbArc
 50
263.7560834371232
 51
270.0
  0
ARC
  5
EC
330
1F
100
AcDbEntity
  8
RUNDUNGEN
  6
Continuous
 62
     7
100
AcDbCircle
 10
142.3524826017
 20
679.3726579229
 30
0.0
 40
349.9999999999574
100
AcDbArc
 50
263.7560834371232
 51
270.0
  0
ARC
  5
ED
330
1F
100
AcDbEntity
  8
0
  6
Continuous
 62
     7
100
AcDbCircle
 10
322.9502624846
 20
377.8071255134
 30
0.0
 40
264.5204223905999
100
AcDbArc
 50
203.4229294508999
 51
204.1599235293853
  0
ARC
  5
EE
330
1F
100
AcDbEntity
  8
RUNDUNGEN
  6
Continuous
 62
     7
100
AcDbCircle
 10
106.3524826017
 20
350.3361857804
 30
0.0
 40
19.0
100
AcDbArc
 50
180.0
 51
263.7560834371119
  0
ARC
  5
EF
330
1F
100
AcDbEntity
  8
BEZUGSACHSEN
  6
Continuous
 62
     7
100
AcDbCircle
 10
79.2274826017
 20
355.3726579229
 30
0.0
 40
1.0
100
AcDbArc
 50
270.0
 51
0.0
  0
ARC
  5
F0
330
1F
100
AcDbEntity
  8
RUNDUNGEN
  6
Continuous
 62
     7
100
AcDbCircle
 10
217.3524826017
 20
323.9482674313
 30
0.0
 40
1.0
100
AcDbArc
 50
0.0
 51
85.50000000144182
  0
CIRCLE
  5
F1
330
1F
100
AcDbEntity
  8
BEZUGSACHSEN
  6
Continuous
 62
     7
100
AcDbCircle
 10
43.3524826017
 20
308.3726579229
 30
0.0
 40
6.0
  0
SPLINE
  5
F2
330
1F
100
AcDbEntity
  8
BEZUGSACHSEN
  6
Continuous
 62
     7
100
AcDbSpline
210
0.0
220
0.0
230
1.0
 70
     8
 71
     3
 72
    19
 73
    15
 74
    13
 42
0.0000000001
 43
0.0000000001
 44
0.00000001
 40
0.0
 40
0.0
 40
0.0
 40
0.0
 40
0.2679411643110187
 40
0.5361267936765219
 40
0.8065304773480864
 40
1.076465993197523
 40
1.213913376111609
 40
1.351353104847356
 40
1.491586367042086
 40
1.631807897536911
 40
1.775491562731534
 40
1.919219204701174
 40
2.065713007362059
 40
2.211936409312895
 40
2.211936409312895
 40
2.211936409312895
 40
2.211936409312895
 10
17.9063285486
 20
293.3626579229
 30
0.0
 10
17.87243430482776
 20
293.2799863431933
 30
0.0
 10
17.80461489273994
 20
293.1145677556078
 30
0.0
 10
17.67997638641053
 20
292.875901781968
 30
0.0
 10
17.53506558709781
 20
292.6482137859529
 30
0.0
 10
17.39202195557846
 20
292.4724092946365
 30
0.0
 10
17.26291556864896
 20
292.3444595755361
 30
0.0
 10
17.15680046956269
 20
292.2553725547376
 30
0.0
 10
17.04199104191546
 20
292.1760709143989
 30
0.0
 10
16.91753142969863
 20
292.1084004469338
 30
0.0
 10
16.78467787458144
 20
292.0555977602304
 30
0.0
 10
16.64402707570564
 20
292.0204314962413
 30
0.0
 10
16.49870169259669
 20
292.0040792943623
 30
0.0
 10
16.40119227353581
 20
292.0107020277281
 30
0.0
 10
16.3524826017
 20
292.0140103355
 30
0.0
 11
17.9063285486
 21
293.3626579229
 31
0.0
 11
17.800891288943
 21
293.1163340470609
 31
0.0
 11
17.67702177334939
 21
292.8784688017964
 31
0.0
 11
17.53067628704909
 21
292.6510899312242
 31
0.0
 11
17.35942409592313
 21
292.442432629048
 31
0.0
 11
17.26163165722113
 21
292.345848872636
 31
0.0
 11
17.15621466794157
 21
292.257661926855
 31
0.0
 11
17.04067602421885
 21
292.1781874678603
 31
0.0
 11
16.91735401433797
 21
292.1114509748954
 31
0.0
 11
16.78372332616829
 21
292.0586510239195
 31
0.0
 11
16.64429562497252
 21
292.0237575975269
 31
0.0
 11
16.49860118642226
 21
292.0084747707737
 31
0.0
 11
16.3524826017
 21
292.0140103355
 31
0.0
  0
SPLINE
  5
F3
330
1F
100
AcDbEntity
  8
BEZUGSACHSEN
  6
Continuous
 62
     7
100
AcDbSpline
210
0.0
220
0.0
230
1.0
 70
     8
 71
     3
 72
    47
 73
    43
 74
    41
 42
0.0000000001
 43
0.0000000001
 44
0.00000001
 40
0.0
 40
0.0
 40
0.0
 40
0.0
 40
0.6366022431461787
 40
1.273595002082999
 40
1.592921746302609
 40
1.912076344797388
 40
2.231392290350215
 40
2.550826842673696
 40
3.189774321099422
 40
3.82908169691944
 40
4.468337152431073
 40
5.107221744709054
 40
5.426176341200113
 40
5.745033356746895
 40
6.063356731525714
 40
6.381780214838774
 40
7.017059195631815
 40
7.652639340947942
 40
8.287532214185617
 40
8.922347946433474
 40
9.559226748486916
 40
10.19613435926686
 40
10.83451785494591
 40
11.47287689967296
 40
12.11234487357629
 40
12.75189588939527
 40
13.39354300511189
 40
14.03487957347722
 40
14.35615205763378
 40
14.67732107703228
 40
14.99840882463351
 40
15.3195960411241
 40
15.96011121017866
 40
16.60099592079885
 40
17.23809108068226
 40
17.87482555189194
 40
18.19205670321819
 40
18.50917199089654
 40
18.82571084618418
 40
19.14241581817981
 40
19.77338974988729
 40
20.40398930735953
 40
20.40398930735953
 40
20.40398930735953
 40
20.40398930735953
 10
36.8530670074
 20
308.3726579035
 30
0.0
 10
36.85907265128628
 20
308.5849377131833
 30
0.0
 10
36.87108762314698
 20
309.0096275529797
 30
0.0
 10
36.95235296835925
 20
309.5357703140622
 30
0.0
 10
37.04507256495964
 20
309.9507446901692
 30
0.0
 10
37.13036552910393
 20
310.2585686658675
 30
0.0
 10
37.23060414254137
 20
310.5618613426624
 30
0.0
 10
37.38408969168914
 20
310.959298705217
 30
0.0
 10
37.61256163846322
 20
311.4413982821011
 30
0.0
 10
37.94217659902444
 20
311.9902141549323
 30
0.0
 10
38.32440381611621
 20
312.5037496942754
 30
0.0
 10
38.6832585132416
 20
312.89825245636
 30
0.0
 10
38.99221186680838
 20
313.1911257544066
 30
0.0
 10
39.23410697578354
 20
313.3988475755214
 30
0.0
 10
39.48575022926919
 20
313.5943569726542
 30
0.0
 10
39.83304433642601
 20
313.8378521753289
 30
0.0
 10
40.28878467118648
 20
314.1097342453736
 30
0.0
 10
40.86426409587564
 20
314.3810633578889
 30
0.0
 10
41.46337486103314
 20
314.5948469887012
 30
0.0
 10
42.08082526347967
 20
314.7495367200732
 30
0.0
 10
42.71109582515723
 20
314.8433437037276
 30
0.0
 10
43.34868975987678
 20
314.8754704285323
 30
0.0
 10
43.98686840411405
 20
314.8450408555823
 30
0.0
 10
44.61988082531376
 20
314.7523696004224
 30
0.0
 10
45.24111450974235
 20
314.5978776391926
 30
0.0
 10
45.84525026169948
 20
314.3828405066462
 30
0.0
 10
46.425729335263
 20
314.1089171409167
 30
0.0
 10
46.88535835948436
 20
313.8337502628597
 30
0.0
 10
47.23525734814724
 20
313.5871405640024
 30
0.0
 10
47.48838897729648
 20
313.3892363716316
 30
0.0
 10
47.73138761665064
 20
313.1790578422299
 30
0.0
 10
48.04063196015528
 20
312.8835385020747
 30
0.0
 10
48.39895215094904
 20
312.4860675193124
 30
0.0
 10
48.77890256929015
 20
311.9704007577773
 30
0.0
 10
49.10537559890875
 20
311.420804601342
 30
0.0
 10
49.33074673890626
 20
310.9396990596575
 30
0.0
 10
49.48183772206399
 20
310.5437088720457
 30
0.0
 10
49.58025063961328
 20
310.2422825212518
 30
0.0
 10
49.66391741778342
 20
309.9365871533126
 30
0.0
 10
49.75473677522388
 20
309.5250351355686
 30
0.0
 10
49.83425175089904
 20
309.0036099190266
 30
0.0
 10
49.84602403551533
 20
308.5829336298567
 30
0.0
 10
49.8519084311
 20
308.3726579035
 30
0.0
 11
36.8530670074
 21
308.3726579035
 31
0.0
 11
36.8843156784398
 21
309.0084927378218
 31
0.0
 11
36.97775688081341
 21
309.6385947268973
 31
0.0
 11
37.04769738784784
 21
309.9501679848153
 31
0.0
 11
37.13283872682398
 21
310.2577563625829
 31
0.0
 11
37.23306326496193
 21
310.5609357072609
 31
0.0
 11
37.34814315471398
 21
310.8589206937833
 31
0.0
 11
37.6217390489583
 21
311.4363279736467
 31
0.0
 11
37.95095856263644
 21
311.9843502657037
 31
0.0
 11
38.33258281798383
 21
312.4971957250108
 31
0.0
 11
38.76251745411263
 21
312.9697734761872
 31
0.0
 11
38.99398971517375
 21
313.1892105445737
 31
0.0
 11
39.23589211620103
 21
313.3969436058341
 31
0.0
 11
39.48726592335552
 21
313.5922407640501
 31
0.0
 11
39.74799520164743
 21
313.7750350696687
 31
0.0
 11
40.29352884585726
 21
314.1005691331284
 31
0.0
 11
40.86843866597597
 21
314.3715688007503
 31
0.0
 11
41.46638485372078
 21
314.5849916604665
 31
0.0
 11
42.08217738592974
 21
314.7392335846799
 31
0.0
 11
42.71210966787614
 21
314.8330415196685
 31
0.0
 11
43.34821278959498
 21
314.8650434447507
 31
0.0
 11
43.98587374863032
 21
314.8346791749991
 31
0.0
 11
44.61749128155761
 21
314.7421504654886
 31
0.0
 11
45.23806415366381
 21
314.587850108866
 31
0.0
 11
45.84056496078637
 21
314.3733313934779
 31
0.0
 11
46.42087215715287
 21
314.0995530543918
 31
0.0
 11
46.9710971451988
 21
313.7700609354383
 31
0.0
 11
47.23370444934626
 21
313.5849841597896
 31
0.0
 11
47.48672490673812
 21
313.3871706436624
 31
0.0
 11
47.72957320810242
 21
313.1771181640672
 31
0.0
 11
47.96177564350946
 21
312.9552099464906
 31
0.0
 11
48.3906917012437
 21
312.4795097286993
 31
0.0
 11
48.77080235991679
 21
311.9635164153028
 31
0.0
 11
49.09624150564196
 21
311.4158124759555
 31
0.0
 11
49.36632236377164
 21
310.8391955173959
 31
0.0
 11
49.47941280895584
 21
310.5428069977467
 31
0.0
 11
49.577856912295
 21
310.2413590516647
 31
0.0
 11
49.66133971767064
 21
309.9360273171309
 31
0.0
 11
49.72988914111466
 21
309.6268299435453
 31
0.0
 11
49.8213162190392
 21
309.002514965416
 31
0.0
 11
49.8519084311
 21
308.3726579035
 31
0.0
  0
SPLINE
  5
F4
330
1F
100
AcDbEntity
  8
BEZUGSACHSEN
  6
Continuous
 62
     7
100
AcDbSpline
210
0.0
220
0.0
230
1.0
 70
     8
 71
     3
 72
    47
 73
    43
 74
    41
 42
0.0000000001
 43
0.0000000001
 44
0.00000001
 40
0.0
 40
0.0
 40
0.0
 40
0.0
 40
0.6302393213906023
 40
1.260854867258943
 40
1.577476088330747
 40
1.893930800152477
 40
2.210999113812916
 40
2.528183472174045
 40
3.164887038224427
 40
3.801951183352431
 40
4.442851001555198
 40
5.083381259711713
 40
5.404527292231363
 40
5.725573838680687
 40
6.04667070996715
 40
6.367871027105712
 40
7.009090242503333
 40
7.650619763911856
 40
8.290330346461799
 40
8.929958764462622
 40
9.568647011328746
 40
10.20735923010111
 40
10.84445705810257
 40
11.48152626488141
 40
12.11643462213667
 40
12.75141965570314
 40
13.38691908729031
 40
14.02211738523782
 40
14.34050449136523
 40
14.65879153786807
 40
14.97761586864925
 40
15.2965377494302
 40
15.93537694099947
 40
16.57458694064453
 40
17.21386274987054
 40
17.85277859069996
 40
18.1721986007949
 40
18.49150024074143
 40
18.81067156633113
 40
19.13001452418393
 40
19.76719627021058
 40
20.40398968279763
 40
20.40398968279763
 40
20.40398968279763
 40
20.40398968279763
 10
49.8518962395
 20
308.3726579416
 30
0.0
 10
49.84602703775452
 20
308.1625019197332
 30
0.0
 10
49.83428513061455
 20
307.7420644223235
 30
0.0
 10
49.75483838806045
 20
307.2209009800926
 30
0.0
 10
49.66410688299536
 20
306.8095095126694
 30
0.0
 10
49.5805015006996
 20
306.5038716723724
 30
0.0
 10
49.48214955933562
 20
306.2024878261673
 30
0.0
 10
49.33113074848765
 20
305.8065146465532
 30
0.0
 10
49.10584816088478
 20
305.3254078378658
 30
0.0
 10
48.77947012612906
 20
304.7757736128809
 30
0.0
 10
48.39960306409833
 20
304.2600457502335
 30
0.0
 10
48.04134862482317
 20
303.8625203480339
 30
0.0
 10
47.73216788715551
 20
303.5669669930973
 30
0.0
 10
47.48924293112466
 20
303.3567820846534
 30
0.0
 10
47.23619402780133
 20
303.158872620313
 30
0.0
 10
46.88641151934412
 20
302.9122492688164
 30
0.0
 10
46.42692628158858
 20
302.6370426595195
 30
0.0
 10
45.84653057461124
 20
302.3630025528161
 30
0.0
 10
45.24237626675298
 20
302.1478140755007
 30
0.0
 10
44.62096111933572
 20
301.9931522364997
 30
0.0
 10
43.98769190790652
 20
301.9003418634774
 30
0.0
 10
43.34923244348921
 20
301.8698311136567
 30
0.0
 10
42.71139942995096
 20
301.9019328560016
 30
0.0
 10
42.08096944296066
 20
301.9957459183402
 30
0.0
 10
41.4633957734635
 20
302.1504597346174
 30
0.0
 10
40.86425236203184
 20
302.3642563066903
 30
0.0
 10
40.28879514056591
 20
302.6355776751467
 30
0.0
 10
39.83310974761051
 20
302.9074225587956
 30
0.0
 10
39.48585384985788
 20
303.1508831113887
 30
0.0
 10
39.23423426855127
 20
303.3463656377194
 30
0.0
 10
38.99235921828009
 20
303.554058696434
 30
0.0
 10
38.68342293460482
 20
303.8468962445913
 30
0.0
 10
38.32458017771373
 20
304.2413538935318
 30
0.0
 10
37.9423532724643
 20
304.7548385594699
 30
0.0
 10
37.61272882720067
 20
305.303606338173
 30
0.0
 10
37.38424138128035
 20
305.7856697546632
 30
0.0
 10
37.23073988132036
 20
306.1830793138398
 30
0.0
 10
37.13048307839706
 20
306.4863616771319
 30
0.0
 10
37.04516658547207
 20
306.7941855488349
 30
0.0
 10
36.95240413011227
 20
307.2092264159418
 30
0.0
 10
36.87111176322263
 20
307.7354992150367
 30
0.0
 10
36.8590719636826
 20
308.1603148647512
 30
0.0
 10
36.8530538989
 20
308.3726579434
 30
0.0
 11
49.8518962395
 21
308.3726579416
 31
0.0
 11
49.82135666077877
 21
307.7431589850016
 31
0.0
 11
49.73002538525195
 21
307.1191921871658
 31
0.0
 11
49.66153064656542
 21
306.8100684766464
 31
0.0
 11
49.57811182172867
 21
306.5048064837665
 31
0.0
 11
49.47972507788961
 21
306.2033892245324
 31
0.0
 11
49.36669444678706
 21
305.9070279692686
 31
0.0
 11
49.09671431027473
 21
305.3303979692599
 31
0.0
 11
48.77137768842139
 21
304.7826691974314
 31
0.0
 11
48.39134119362944
 21
304.266602496705
 31
0.0
 11
47.96249069596872
 21
303.790822860455
 31
0.0
 11
47.7303535615987
 21
303.568905927686
 31
0.0
 11
47.48757106826236
 21
303.3588403524091
 31
0.0
 11
47.23464145996402
 21
303.1610277795124
 31
0.0
 11
46.97212706412969
 21
302.9759444585198
 31
0.0
 11
46.42206888252878
 21
302.6464022320161
 31
0.0
 11
45.84192805086316
 21
302.3725469010967
 31
0.0
 11
45.23932274054036
 21
302.1578460175467
 31
0.0
 11
44.61862347020037
 21
302.0033891338748
 31
0.0
 11
43.98669465629679
 21
301.9107141596728
 31
0.0
 11
43.34870852914686
 21
301.8802674854152
 31
0.0
 11
42.71241354103653
 21
301.9122413896163
 31
0.0
 11
42.08229026693094
 21
302.0060594777244
 31
0.0
 11
41.46640635868948
 21
302.1603178119622
 31
0.0
 11
40.86837388887051
 21
302.3737730950911
 31
0.0
 11
40.2935381403238
 21
302.6447406018891
 31
0.0
 11
39.74807145278242
 21
302.9702294196664
 31
0.0
 11
39.48736916000551
 21
303.1529988478787
 31
0.0
 11
39.23601990819717
 21
303.3482683989789
 31
0.0
 11
38.99413660984762
 21
303.5559735358379
 31
0.0
 11
38.76268077854742
 21
303.7753803821258
 31
0.0
 11
38.3327577476672
 21
304.2479073127907
 31
0.0
 11
37.9511366082094
 21
304.7606984296845
 31
0.0
 11
37.62190513403036
 21
305.3086767108887
 31
0.0
 11
37.34829082688633
 21
305.8860402554504
 31
0.0
 11
37.23319857442636
 21
306.1840048779691
 31
0.0
 11
37.13295888599948
 21
306.4871641465667
 31
0.0
 11
37.04779180578224
 21
306.7947627543756
 31
0.0
 11
36.97782877830856
 21
307.106347573513
 31
0.0
 11
36.88433988136833
 21
307.7366335432271
 31
0.0
 11
36.8530538989
 21
308.3726579434
 31
0.0
  0
SPLINE
  5
F5
330
1F
100
AcDbEntity
  8
BEZUGSACHSEN
  6
Continuous
 62
     7
100
AcDbSpline
210
0.0
220
0.0
230
1.0
 70
     8
 71
     3
 72
    27
 73
    23
 74
    21
 42
0.0000000001
 43
0.0000000001
 44
0.00000001
 40
0.0
 40
0.0
 40
0.0
 40
0.0
 40
0.1219765139930718
 40
0.2439857715146583
 40
0.3566831398610416
 40
0.4694418149819416
 40
0.5721317673125745
 40
0.6745445881337857
 40
0.7225206521373887
 40
0.7704888797812446
 40
0.8171412936126196
 40
0.8637898734398202
 40
0.910231800110678
 40
0.95667513245468
 40
1.004175175783688
 40
1.051683100154944
 40
1.153672388730795
 40
1.256049376664432
 40
1.370745138089543
 40
1.485385401876682
 40
1.611534903914227
 40
1.737631875959174
 40
1.737631875959174
 40
1.737631875959174
 40
1.737631875959174
 10
9.4983252773
 20
293.1303219275
 30
0.0
 10
9.463070259699839
 20
293.1100424022011
 30
0.0
 10
9.39255076059834
 20
293.0694779077421
 30
0.0
 10
9.28489835739432
 20
293.0186820468619
 30
0.0
 10
9.176740341517476
 20
292.9769304110282
 30
0.0
 10
9.07116112054698
 20
292.947515825923
 30
0.0
 10
8.966329575403659
 20
292.9306012385467
 30
0.0
 10
8.881601905558371
 20
292.9287360152965
 30
0.0
 10
8.815777969152812
 20
292.9356913232738
 30
0.0
 10
8.769070765936585
 20
292.9448884504008
 30
0.0
 10
8.72389014863021
 20
292.9584218953798
 30
0.0
 10
8.680750537976897
 20
292.9762151541999
 30
0.0
 10
8.63979606140455
 20
292.9984435119381
 30
0.0
 10
8.601148634941683
 20
293.0249785436625
 30
0.0
 10
8.565242556305426
 20
293.0556738211804
 30
0.0
 10
8.519803234765275
 20
293.103211294266
 30
0.0
 10
8.47126009470461
 20
293.1723806613584
 30
0.0
 10
8.425034385776573
 20
293.2685387160787
 30
0.0
 10
8.391068511978613
 20
293.3741141490671
 30
0.0
 10
8.368113087761685
 20
293.4905318399725
 30
0.0
 10
8.354668529397557
 20
293.6122791486301
 30
0.0
 10
8.3532111430996
 20
293.6963825121479
 30
0.0
 10
8.3524826017
 20
293.7384254367
 30
0.0
 11
9.4983252773
 21
293.1303219275
 31
0.0
 11
9.391780653239456
 21
293.0709374762548
 31
0.0
 11
9.28148776407079
 21
293.0187672019619
 31
0.0
 11
9.176169756218357
 21
292.9786571776014
 31
0.0
 11
9.067446027675306
 21
292.9487628693352
 31
0.0
 11
8.965981875554162
 21
292.9329435095502
 31
0.0
 11
8.863582334969761
 21
292.931294280439
 31
0.0
 11
8.815878478757213
 21
292.9363976929964
 31
0.0
 11
8.768827708495763
 21
292.9457344955056
 31
0.0
 11
8.724148141062344
 21
292.9591577577863
 31
0.0
 11
8.681042004466413
 21
292.9769889379959
 31
0.0
 11
8.640219411669554
 21
292.9991332029475
 31
0.0
 11
8.601932155123404
 21
293.0254213962172
 31
0.0
 11
8.565795058113562
 21
293.0562493759751
 31
0.0
 11
8.532942557746681
 21
293.0905672444653
 31
0.0
 11
8.473770163523705
 21
293.1736361480703
 31
0.0
 11
8.428870439949108
 21
293.2656419222439
 31
0.0
 11
8.393232280369029
 21
293.3746604494337
 31
0.0
 11
8.370380716971638
 21
293.4870000957367
 31
0.0
 11
8.356613960632204
 21
293.6123961614015
 31
0.0
 11
8.3524826017
 21
293.7384254367
 31
0.0
  0
SPLINE
  5
F6
330
1F
100
AcDbEntity
  8
BEZUGSACHSEN
  6
Continuous
 62
     7
100
AcDbSpline
210
0.0
220
0.0
230
1.0
 70
     8
 71
     3
 72
    15
 73
    11
 74
     9
 42
0.0000000001
 43
0.0000000001
 44
0.00000001
 40
0.0
 40
0.0
 40
0.0
 40
0.0
 40
0.1110371613646922
 40
0.2222522337209943
 40
0.3333980191658654
 40
0.4445069474681171
 40
0.5556201065158881
 40
0.6667525642229332
 40
0.7778876033678009
 40
0.8889820916150228
 40
0.8889820916150228
 40
0.8889820916150228
 40
0.8889820916150228
 10
10.252408117
 20
292.6961255367
 30
0.0
 10
10.21576639011929
 20
292.701657689512
 30
0.0
 10
10.14242422659005
 20
292.7127308591125
 30
0.0
 10
10.03590767658219
 20
292.7457494226378
 30
0.0
 10
9.933494768836631
 20
292.789339710085
 30
0.0
 10
9.836044803209559
 20
292.843119217898
 30
0.0
 10
9.74374000747733
 20
292.905214353262
 30
0.0
 10
9.656743379349763
 20
292.9745010269166
 30
0.0
 10
9.574490623883868
 20
293.0493829785428
 30
0.0
 10
9.523710637501779
 20
293.1033455600864
 30
0.0
 10
9.4983252773
 20
293.1303219275
 30
0.0
 11
10.252408117
 21
292.6961255367
 31
0.0
 11
10.14306583188978
 21
292.7154520959076
 31
0.0
 11
10.03657387832148
 21
292.7475185292051
 31
0.0
 11
9.93430569771432
 21
292.7910455881163
 31
0.0
 11
9.836902831259774
 21
292.8445046898195
 31
0.0
 11
9.744631064473149
 21
292.9064082855765
 31
0.0
 11
9.657533961064376
 21
292.9754337716944
 31
0.0
 11
9.575494056577831
 21
293.0504034388777
 31
0.0
 11
9.4983252773
 21
293.1303219275
 31
0.0
  0
SPLINE
  5
F7
330
1F
100
AcDbEntity
  8
BEZUGSACHSEN
  6
Continuous
 62
     7
100
AcDbSpline
210
0.0
220
0.0
230
1.0
 70
     8
 71
     3
 72
    27
 73
    23
 74
    21
 42
0.0000000001
 43
0.0000000001
 44
0.00000001
 40
0.0
 40
0.0
 40
0.0
 40
0.0
 40
0.1260969825526702
 40
0.2522464959214483
 40
0.3668867952585934
 40
0.4815825894074197
 40
0.5839596006898847
 40
0.6859489161382707
 40
0.7334568410597724
 40
0.780956884907013
 40
0.8274002264583228
 40
0.8738421607348735
 40
0.9204907319150109
 40
0.967143139939515
 40
1.01511140181285
 40
1.063087497110636
 40
1.165500418713481
 40
1.2681904789478
 40
1.380949153890824
 40
1.493646517764809
 40
1.615655563717149
 40
1.737631867565912
 40
1.737631867565912
 40
1.737631867565912
 40
1.737631867565912
 10
8.3524826017
 20
323.0068904091
 30
0.0
 10
8.353211143176276
 20
323.048933337161
 30
0.0
 10
8.354668529632356
 20
323.1330367079712
 30
0.0
 10
8.368113091595198
 20
323.2547840355357
 30
0.0
 10
8.391068524919964
 20
323.3712017519107
 30
0.0
 10
8.425034425271365
 20
323.4767772096966
 30
0.0
 10
8.471260184087793
 20
323.5729352719709
 30
0.0
 10
8.519803352637927
 20
323.6421046376484
 30
0.0
 10
8.56524267823406
 20
323.6896421192315
 30
0.0
 10
8.601148756350666
 20
323.7203374026852
 30
0.0
 10
8.639796187451307
 20
323.7468724383879
 30
0.0
 10
8.680750674657201
 20
323.7691007842835
 30
0.0
 10
8.723890300829463
 20
323.7868940011597
 30
0.0
 10
8.769070935430713
 20
323.8004274082206
 30
0.0
 10
8.81577815840078
 20
323.8096245335565
 30
0.0
 10
8.881602149589348
 20
323.8165798539383
 30
0.0
 10
8.966329901590564
 20
323.8147145973007
 30
0.0
 10
9.071161505098406
 20
323.7977999363637
 30
0.0
 10
9.176740747461853
 20
323.7683853035067
 30
0.0
 10
9.284898685558252
 20
323.7266336660562
 30
0.0
 10
9.392550946823771
 20
323.6758378389372
 30
0.0
 10
9.463070321637591
 20
323.6352734107041
 30
0.0
 10
9.4983252773
 20
323.6149939184
 30
0.0
 11
8.3524826017
 21
323.0068904091
 31
0.0
 11
8.356613961267055
 21
323.1329196948911
 31
0.0
 11
8.370380720404949
 21
323.258315771648
 31
0.0
 11
8.393232296518239
 21
323.3706554516424
 31
0.0
 11
8.428870485901685
 21
323.4796740035173
 31
0.0
 11
8.473770250679799
 21
323.571679783564
 31
0.0
 11
8.532942679634164
 21
323.654748695422
 31
0.0
 11
8.565795179818783
 21
323.6890665648484
 31
0.0
 11
8.601932274769565
 21
323.7198945478185
 31
0.0
 11
8.640219539641253
 21
323.7461827452291
 31
0.0
 11
8.681042147579985
 21
323.7683269982178
 31
0.0
 11
8.724148291196581
 21
323.7861581388334
 31
0.0
 11
8.768827863230708
 21
323.7995813656188
 31
0.0
 11
8.81587866896182
 21
323.8089181652419
 31
0.0
 11
8.8635825562128
 21
323.814021581859
 31
0.0
 11
8.965982197072442
 21
323.8123723204951
 31
0.0
 11
9.067446447407583
 21
323.7965528902001
 31
0.0
 11
9.176170163864413
 21
323.766658538648
 31
0.0
 11
9.281488156161721
 21
323.7265484860102
 31
0.0
 11
9.391780842067119
 21
323.674378276791
 31
0.0
 11
9.4983252773
 21
323.6149939184
 31
0.0
  0
SPLINE
  5
F8
330
1F
100
AcDbEntity
  8
BEZUGSACHSEN
  6
Continuous
 62
     7
100
AcDbSpline
210
0.0
220
0.0
230
1.0
 70
     8
 71
     3
 72
    15
 73
    11
 74
     9
 42
0.0000000001
 43
0.0000000001
 44
0.00000001
 40
0.0
 40
0.0
 40
0.0
 40
0.0
 40
0.1110944831142613
 40
0.2222295180950681
 40
0.333362040123352
 40
0.4444752609511965
 40
0.555584217765484
 40
0.6667300353685218
 40
0.7779450181422609
 40
0.8889820871543527
 40
0.8889820871543527
 40
0.8889820871543527
 40
0.8889820871543527
 10
9.4983252773
 20
323.6149939184
 30
0.0
 10
9.52371063686851
 20
323.6419702840735
 30
0.0
 10
9.57449062220566
 20
323.695932862372
 30
0.0
 10
9.65674339142348
 20
323.7708148257775
 30
0.0
 10
9.743740043363257
 20
323.8401015346759
 30
0.0
 10
9.836044883797781
 20
323.9021966977471
 30
0.0
 10
9.93349490579559
 20
323.9559761898695
 30
0.0
 10
10.03590781966976
 20
323.999566435478
 30
0.0
 10
10.14242431825611
 20
324.0325849913406
 30
0.0
 10
10.21576642097914
 20
324.0436581579533
 30
0.0
 10
10.252408117
 20
324.0491903092
 30
0.0
 11
9.4983252773
 21
323.6149939184
 31
0.0
 11
9.575494054386272
 21
323.6949124020032
 31
0.0
 11
9.657533954603274
 21
323.7698820676858
 31
0.0
 11
9.744631103194555
 21
323.8389076003505
 31
0.0
 11
9.836902924778599
 21
323.9008112253194
 31
0.0
 11
9.934305832874063
 21
323.9542703104117
 31
0.0
 11
10.03657405627433
 21
323.9977973508946
 31
0.0
 11
10.143065924379
 21
324.0298637573185
 31
0.0
 11
10.252408117
 21
324.0491903092
 31
0.0
  0
SPLINE
  5
F9
330
1F
100
AcDbEntity
  8
0
  6
Continuous
 62
     7
100
AcDbSpline
210
0.0
220
0.0
230
1.0
 70
     8
 71
     3
 72
    19
 73
    15
 74
    13
 42
0.0000000001
 43
0.0000000001
 44
0.00000001
 40
0.0
 40
0.0
 40
0.0
 40
0.0
 40
0.1162460235697769
 40
0.2327881717864078
 40
0.3491890045834873
 40
0.4655468550623813
 40
0.5819071369857247
 40
0.6982738489033368
 40
0.8146206072489348
 40
0.9309998277854087
 40
1.163276323398529
 40
1.396138921712144
 40
1.62901317800831
 40
1.861351539753176
 40
1.861351539753176
 40
1.861351539753176
 40
1.861351539753176
 10
77.4774826017
 20
274.8502773392
 30
0.0
 10
77.43869853085972
 20
274.8484363923121
 30
0.0
 10
77.36103159079512
 20
274.8447498089158
 30
0.0
 10
77.24742150572794
 20
274.8163443239573
 30
0.0
 10
77.13923381778326
 20
274.7724904097198
 30
0.0
 10
77.03825795182834
 20
274.7138937214636
 30
0.0
 10
76.94548949510452
 20
274.6432088601243
 30
0.0
 10
76.86140211611871
 20
274.5624512550363
 30
0.0
 10
76.78609847274484
 20
274.4734836162954
 30
0.0
 10
76.69744722858
 20
274.3461241685563
 30
0.0
 10
76.60745048284112
 20
274.1733387904949
 30
0.0
 10
76.53255696367096
 20
273.9524138003337
 30
0.0
 10
76.48602003832814
 20
273.7233938807296
 30
0.0
 10
76.48032622761005
 20
273.5682144878682
 30
0.0
 10
76.4774826017
 20
273.4907141697
 30
0.0
 11
77.4774826017
 21
274.8502773392
 31
0.0
 11
77.36161125014958
 21
274.8409516818149
 31
0.0
 11
77.24828672546153
 21
274.81375564506
 31
0.0
 11
77.1404135928524
 21
274.7700230355227
 31
0.0
 11
77.03962485334222
 21
274.7118785658285
 31
0.0
 11
76.94693754829466
 21
274.6415310094225
 31
0.0
 11
76.86286218266918
 21
274.5610788836739
 31
0.0
 11
76.78756342473751
 21
274.4723846604602
 31
0.0
 11
76.72093669542221
 21
274.3769645267702
 31
0.0
 11
76.61304690931368
 21
274.1712653180509
 31
0.0
 11
76.53728877246192
 21
273.9510706441959
 31
0.0
 11
76.4923287586453
 21
273.7225777200098
 31
0.0
 11
76.4774826017
 21
273.4907141697
 31
0.0
  0
SPLINE
  5
FA
330
1F
100
AcDbEntity
  8
0
  6
Continuous
 62
     7
100
AcDbSpline
210
0.0
220
0.0
230
1.0
 70
     8
 71
     3
 72
    19
 73
    15
 74
    13
 42
0.0000000001
 43
0.0000000001
 44
0.00000001
 40
0.0
 40
0.0
 40
0.0
 40
0.0
 40
0.2323383481439976
 40
0.4652125957750647
 40
0.6980761133579794
 40
0.9303535187931583
 40
1.046733461851987
 40
1.163080940920655
 40
1.279447997487937
 40
1.395808629590229
 40
1.512165904568435
 40
1.628566140412662
 40
1.745106920605344
 40
1.861351602868351
 40
1.861351602868351
 40
1.861351602868351
 40
1.861351602868351
 10
80.2274826017
 20
273.4907141697
 30
0.0
 10
80.22463897609403
 20
273.5682144833682
 30
0.0
 10
80.21894516592393
 20
273.7233938688763
 30
0.0
 10
80.17240819008933
 20
273.9524140829225
 30
0.0
 10
80.09751444433331
 20
274.1733396448327
 30
0.0
 10
80.00751714008138
 20
274.3461257090425
 30
0.0
 10
79.91886520226953
 20
274.4734856347468
 30
0.0
 10
79.84356093791207
 20
274.562453533651
 30
0.0
 10
79.75947296409524
 20
274.64321120361
 30
0.0
 10
79.66670423026662
 20
274.7138957699921
 30
0.0
 10
79.56572841802127
 20
274.7724919941652
 30
0.0
 10
79.45754136850822
 20
274.8163452453221
 30
0.0
 10
79.34393225915392
 20
274.8447500047723
 30
0.0
 10
79.2662662243618
 20
274.8484364574194
 30
0.0
 10
79.2274826017
 20
274.8502773392
 30
0.0
 11
80.2274826017
 21
273.4907141697
 31
0.0
 11
80.21263644758223
 21
273.7225777065621
 31
0.0
 11
80.16767644599358
 21
273.951070624323
 31
0.0
 11
80.09191796731123
 21
274.1712661527263
 31
0.0
 11
79.9840275561336
 21
274.3769660609704
 31
0.0
 11
79.9174002322894
 21
274.4723866607575
 31
0.0
 11
79.84210077572259
 21
274.5610812362759
 31
0.0
 11
79.75802490939215
 21
274.6415333372734
 31
0.0
 11
79.66533708342277
 21
274.7118807865542
 31
0.0
 11
79.5645486485182
 21
274.7700246325729
 31
0.0
 11
79.4566759197266
 21
274.8137566493072
 31
0.0
 11
79.34335263117272
 21
274.840951974627
 31
0.0
 11
79.2274826017
 21
274.8502773392
 31
0.0
  0
SPLINE
  5
FB
330
1F
100
AcDbEntity
  8
BEZUGSACHSEN
  6
Continuous
 62
     7
100
AcDbSpline
210
0.0
220
0.0
230
1.0
 70
     8
 71
     3
 72
    11
 73
     7
 74
     5
 42
0.0000000001
 43
0.0000000001
 44
0.00000001
 40
0.0
 40
0.0
 40
0.0
 40
0.0
 40
0.546290743127636
 40
1.093000863637142
 40
1.646070107142694
 40
2.198197048714818
 40
2.198197048714818
 40
2.198197048714818
 40
2.198197048714818
 10
17.9063285486
 20
323.3826579229
 30
0.0
 10
17.96939935046568
 20
323.2117262936663
 30
0.0
 10
18.09558937249459
 20
322.869731814123
 30
0.0
 10
18.23522668551329
 20
322.3384576849086
 30
0.0
 10
18.33271504953332
 20
321.7950332799577
 30
0.0
 10
18.34589716404776
 20
321.4264486394007
 30
0.0
 10
18.3524826017
 20
321.2423134487
 30
0.0
 11
17.9063285486
 21
323.3826579229
 31
0.0
 11
18.08717988122919
 21
322.8671713842657
 31
0.0
 11
18.2276713659275
 21
322.3388210283514
 31
0.0
 11
18.31973801915792
 21
321.7934685556562
 31
0.0
 11
18.3524826017
 21
321.2423134487
 31
0.0
  0
SPLINE
  5
FC
330
1F
100
AcDbEntity
  8
BEZUGSACHSEN
  6
Continuous
 62
     7
100
AcDbSpline
210
0.0
220
0.0
230
1.0
 70
     8
 71
     3
 72
    19
 73
    15
 74
    13
 42
0.0000000001
 43
0.0000000001
 44
0.00000001
 40
0.0
 40
0.0
 40
0.0
 40
0.0
 40
0.1462385988338104
 40
0.292747927503522
 40
0.4364790706232784
 40
0.5801659236544563
 40
0.7203799973136895
 40
0.8606059383114311
 40
0.9980411884191798
 40
1.135484020432581
 40
1.405415631080885
 40
1.675815514107964
 40
1.943997429559189
 40
2.211934834788288
 40
2.211934834788288
 40
2.211934834788288
 40
2.211934834788288
 10
16.3524826017
 20
324.7313055104
 30
0.0
 10
16.4011974070585
 20
324.734613587712
 30
0.0
 10
16.49871720293429
 20
324.7412358665412
 30
0.0
 10
16.64405346324595
 20
324.7248765537877
 30
0.0
 10
16.78471040035774
 20
324.6897047877154
 30
0.0
 10
16.91756253381661
 20
324.6368991010924
 30
0.0
 10
17.04201699689242
 20
324.5692273133471
 30
0.0
 10
17.15681955406039
 20
324.4899271119519
 30
0.0
 10
17.26292949183233
 20
324.4008424723843
 30
0.0
 10
17.39203195699347
 20
324.2728949368263
 30
0.0
 10
17.53507180686825
 20
324.0970926479042
 30
0.0
 10
17.67997940855181
 20
323.8694071819993
 30
0.0
 10
17.80461615699625
 20
323.630744562513
 30
0.0
 10
17.87243472816696
 20
323.4653283220745
 30
0.0
 10
17.9063285486
 20
323.3826579229
 30
0.0
 11
16.3524826017
 21
324.7313055104
 31
0.0
 11
16.4986164635782
 21
324.7368392434474
 31
0.0
 11
16.64432582439025
 21
324.721549849771
 31
0.0
 11
16.78375590592802
 21
324.6866515136375
 31
0.0
 11
16.91738824286896
 21
324.6338470606273
 31
0.0
 11
17.04070203370042
 21
324.5671110475392
 31
0.0
 11
17.15623314503014
 21
324.4876385564268
 31
0.0
 11
17.26164569479299
 21
324.3994532837069
 31
0.0
 11
17.3594341984605
 21
324.3028720193627
 31
0.0
 11
17.53068259432176
 21
324.0942166543654
 31
0.0
 11
17.67702501485233
 21
323.8668403304126
 31
0.0
 11
17.8008926406591
 21
323.6289782883544
 31
0.0
 11
17.9063285486
 21
323.3826579229
 31
0.0
  0
SPLINE
  5
FD
330
1F
100
AcDbEntity
  8
BEZUGSACHSEN
  6
Continuous
 62
     7
100
AcDbSpline
210
0.0
220
0.0
230
1.0
 70
     8
 71
     3
 72
    11
 73
     7
 74
     5
 42
0.0000000001
 43
0.0000000001
 44
0.00000001
 40
0.0
 40
0.0
 40
0.0
 40
0.0
 40
0.5521269406445137
 40
1.105196183314551
 40
1.651906304694383
 40
2.198197048718757
 40
2.198197048718757
 40
2.198197048718757
 40
2.198197048718757
 10
18.3524826017
 20
295.5030023971
 30
0.0
 10
18.34589716407065
 20
295.3188672067089
 30
0.0
 10
18.33271504960088
 20
294.950282566741
 30
0.0
 10
18.23522668581086
 20
294.406858162056
 30
0.0
 10
18.09558937278014
 20
293.8755840325184
 30
0.0
 10
17.96939935056188
 20
293.5335895524169
 30
0.0
 10
17.9063285486
 20
293.3626579229
 30
0.0
 11
18.3524826017
 21
295.5030023971
 31
0.0
 11
18.3197380192732
 21
294.9518472910661
 31
0.0
 11
18.22767136632982
 21
294.4064948191698
 31
0.0
 11
18.08717988149641
 21
293.8781444623909
 31
0.0
 11
17.9063285486
 21
293.3626579229
 31
0.0
  0
SPLINE
  5
FE
330
1F
100
AcDbEntity
  8
BEZUGSACHSEN
  6
Continuous
 62
     7
100
AcDbSpline
210
0.0
220
0.0
230
1.0
 70
     8
 71
     3
 72
    11
 73
     7
 74
     5
 42
0.0000000001
 43
0.0000000001
 44
0.00000001
 40
0.0
 40
0.0
 40
0.0
 40
0.0
 40
0.9140556660003266
 40
1.828030949185865
 40
2.27980697487105
 40
2.730944124762492
 40
2.730944124762492
 40
2.730944124762492
 40
2.730944124762492
 10
9.61943552858544
 20
293.362657923085
 30
0.0
 10
9.752090235548808
 20
293.6373745207517
 30
0.0
 10
10.01738798371038
 20
294.1867835572789
 30
0.0
 10
10.23274319702299
 20
294.9194944783836
 30
0.0
 10
10.33643741068539
 20
295.5174396844897
 30
0.0
 10
10.34713672820649
 20
295.8185628999165
 30
0.0
 10
10.3524826017
 20
295.9690179745
 30
0.0
 11
9.61943552858544
 21
293.362657923085
 31
0.0
 11
9.994243058360883
 21
294.1963347646555
 31
0.0
 11
10.25353441875873
 21
295.072758639671
 31
0.0
 11
10.32625139225736
 21
295.5186440724327
 31
0.0
 11
10.3524826017
 21
295.9690179745
 31
0.0
  0
SPLINE
  5
FF
330
1F
100
AcDbEntity
  8
BEZUGSACHSEN
  6
Continuous
 62
     7
100
AcDbSpline
210
0.0
220
0.0
230
1.0
 70
     8
 71
     3
 72
    11
 73
     7
 74
     5
 42
0.0000000001
 43
0.0000000001
 44
0.00000001
 40
0.0
 40
0.0
 40
0.0
 40
0.0
 40
0.824919236672755
 40
1.650116891931435
 40
2.190492152293672
 40
2.730585915378217
 40
2.730585915378217
 40
2.730585915378217
 40
2.730585915378217
 10
10.3524826017
 20
320.7762978713
 30
0.0
 10
10.33474929736183
 20
321.0514881632771
 30
0.0
 10
10.2992767035159
 20
321.6019616267381
 30
0.0
 10
10.09084188688055
 20
322.3066952118908
 30
0.0
 10
9.860615455900763
 20
322.898908936971
 30
0.0
 10
9.699814873098838
 20
323.2214362704161
 30
0.0
 10
9.61943552858544
 20
323.382657922715
 30
0.0
 11
10.3524826017
 21
320.7762978713
 31
0.0
 11
10.26890714758429
 21
321.5969725269962
 31
0.0
 11
10.05094570547251
 21
322.3928644668957
 31
0.0
 11
9.853010626913305
 21
322.8956836458133
 31
0.0
 11
9.61943552858544
 21
323.382657922715
 31
0.0
  0
DIMENSION
  5
10A
330
1F
100
AcDbEntity
  8
1
100
AcDbDimension
  2
*D2
 10
231.38101360024
 20
318.3726579229
 30
0.0
 11
227.63101360024
 21
308.022850125996
 31
0.0
 70
    32
  1
<>
 71
     5
 42
-1.0
 53
90.0
  3
ME10_DIM_10
100
AcDbAlignedDimension
 13
218.3524826017
 23
298.3726579229
 33
0.0
 14
218.3524826017
 24
318.3726579229
 34
0.0
 50
90.0
100
AcDbRotatedDimension
  0
DIMENSION
  5
115
330
1F
100
AcDbEntity
  8
1
100
AcDbDimension
  2
*D3
 10
239.632040308578
 20
324.8726579229466
 30
0.0
 11
235.882040308578
 21
308.674246971391
 31
0.0
 70
    32
  1
<>
 71
     5
 42
-1.0
 53
90.0
  3
ME10_DIM_11
100
AcDbAlignedDimension
 13
218.3524826017
 23
291.8726579228559
 33
0.0
 14
218.3524826017
 24
324.8726579229466
 34
0.0
 50
90.0
100
AcDbRotatedDimension
  0
DIMENSION
  5
120
330
1F
100
AcDbEntity
  8
1
100
AcDbDimension
  2
*D4
 10
248.317331580513
 20
329.3726579229
 30
0.0
 11
244.567331580513
 21
308.457114689593
 31
0.0
 70
    32
  1
<>
 71
     5
 42
-1.0
 53
90.0
  3
ME10_DIM_12
100
AcDbAlignedDimension
 13
161.1745612889
 23
287.3726579229
 33
0.0
 14
161.1745612889
 24
329.3726579229
 34
0.0
 50
90.0
100
AcDbRotatedDimension
  0
DIMENSION
  5
12B
330
1F
100
AcDbEntity
  8
1
100
AcDbDimension
  2
*D5
 10
218.3524826017
 20
367.299963056951
 30
0.0
 11
153.647656716424
 21
371.049963056951
 31
0.0
 70
    32
  1
<>
 71
     5
 42
-1.0
 53
0.00013888888889
  3
ME10_DIM_13
100
AcDbAlignedDimension
 13
87.3524826017
 23
358.3726210018
 33
0.0
 14
218.3524826017
 24
323.9482674313
 34
0.0
100
AcDbRotatedDimension
  0
DIMENSION
  5
136
330
1F
100
AcDbEntity
  8
1
100
AcDbDimension
  2
*D6
 10
218.3524826017
 20
375.116725201692
 30
0.0
 11
135.191412763562
 21
378.866725201692
 31
0.0
 70
    32
  1
<>
 71
     5
 42
-1.0
 53
0.00013888888889
  3
ME10_DIM_14
100
AcDbAlignedDimension
 13
58.3524826017
 23
358.3726579229
 33
0.0
 14
218.3524826017
 24
323.9482674313
 34
0.0
100
AcDbRotatedDimension
  0
DIMENSION
  5
141
330
1F
100
AcDbEntity
  8
1
100
AcDbDimension
  2
*D7
 10
218.3524826017
 20
382.282090501038
 30
0.0
 11
118.255094783289
 21
386.032090501038
 31
0.0
 70
    32
  1
<>
 71
     5
 42
-1.0
 53
0.00013888888889
  3
ME10_DIM_15
100
AcDbAlignedDimension
 13
8.3524826017
 23
341.9728494855
 33
0.0
 14
218.3524826017
 24
323.9482674313
 34
0.0
100
AcDbRotatedDimension
  0
INSERT
  5
148
330
1F
100
AcDbEntity
  8
1
100
AcDbBlockReference
  2
*D8
 10
0.0
 20
0.0
 30
0.0
  0
DIMENSION
  5
153
330
1F
100
AcDbEntity
  8
1
100
AcDbDimension
  2
*D9
 10
197.9508814210386
 20
327.9277123695678
 30
0.0
 11
201.2270881441483
 21
335.7349214163959
 31
0.0
 70
    37
  1
<>
 71
     5
 42
-1.0
  3
ME10_DIM_16
100
AcDb3PointAngularDimension
 13
197.865799914812
 23
326.484994817547
 33
0.0
 14
164.8550308107323
 24
329.3726579229
 34
0.0
 15
161.1745612889
 25
329.3726579229
 35
0.0
  0
ENDSEC
  0
SECTION
  2
OBJECTS
  0
DICTIONARY
  5
C
330
0
100
AcDbDictionary
281
     1
  3
ACAD_GROUP
350
D
  3
ACAD_LAYOUT
350
1A
  3
ACAD_MLEADERSTYLE
350
156
  3
ACAD_MLINESTYLE
350
17
  3
ACAD_PLOTSETTINGS
350
19
  3
ACAD_PLOTSTYLENAME
350
E
  3
ACAD_SCALELIST
350
4A
  3
ACAD_VISUALSTYLE
350
2A
  3
AcDbVariableDictionary
350
154
  0
DICTIONARY
  5
D
102
{ACAD_REACTORS
330
C
102
}
330
C
100
AcDbDictionary
281
     1
  0
DICTIONARY
  5
1A
102
{ACAD_REACTORS
330
C
102
}
330
C
100
AcDbDictionary
281
     1
  3
Layout1
350
1E
  3
Layout2
350
26
  3
Model
350
22
  0
DICTIONARY
  5
156
102
{ACAD_REACTORS
330
C
102
}
330
C
100
AcDbDictionary
281
     1
  0
DICTIONARY
  5
17
102
{ACAD_REACTORS
330
C
102
}
330
C
100
AcDbDictionary
281
     1
  3
Standard
350
18
  0
DICTIONARY
  5
19
102
{ACAD_REACTORS
330
C
102
}
330
C
100
AcDbDictionary
281
     1
  0
ACDBDICTIONARYWDFLT
  5
E
102
{ACAD_REACTORS
330
C
102
}
330
C
100
AcDbDictionary
281
     1
  3
Normal
350
F
100
AcDbDictionaryWithDefault
340
F
  0
DICTIONARY
  5
4A
102
{ACAD_REACTORS
330
C
102
}
330
C
100
AcDbDictionary
281
     1
  3
A0
350
4B
  3
A1
350
4C
  3
A2
350
4D
  3
A3
350
4E
  3
A4
350
4F
  3
A5
350
50
  3
A6
350
51
  3
A7
350
52
  3
A8
350
53
  3
A9
350
54
  3
B0
350
55
  3
B1
350
56
  3
B2
350
57
  3
B3
350
58
  3
B4
350
59
  3
B5
350
5A
  3
B6
350
5B
  3
B7
350
5C
  3
B8
350
5D
  3
B9
350
5E
  3
C0
350
5F
  3
C1
350
60
  3
C2
350
61
  3
C3
350
62
  3
C4
350
63
  3
C5
350
64
  3
C6
350
65
  3
C7
350
66
  3
C8
350
67
  3
C9
350
68
  3
D0
350
69
  3
D1
350
6A
  3
D2
350
6B
  0
DICTIONARY
  5
2A
102
{ACAD_REACTORS
330
C
102
}
330
C
100
AcDbDictionary
281
     1
  3
2dWireframe
350
2F
  3
3D Hidden
350
31
  3
3dWireframe
350
30
  3
Basic
350
32
  3
Brighten
350
36
  3
ColorChange
350
3A
  3
Conceptual
350
34
  3
Dim
350
35
  3
Facepattern
350
39
  3
Flat
350
2B
  3
FlatWithEdges
350
2C
  3
Gouraud
350
2D
  3
GouraudWithEdges
350
2E
  3
Linepattern
350
38
  3
Realistic
350
33
  3
Thicken
350
37
  0
DICTIONARY
  5
154
102
{ACAD_REACTORS
330
C
102
}
330
C
100
AcDbDictionary
281
     1
  3
CANNOSCALE
350
157
  0
LAYOUT
  5
1E
102
{ACAD_REACTORS
330
1A
102
}
330
1A
100
AcDbPlotSettings
  1

  2
none_device
  4

  6

 40
0.0
 41
0.0
 42
0.0
 43
0.0
 44
0.0
 45
0.0
 46
0.0
 47
0.0
 48
0.0
 49
0.0
140
0.0
141
0.0
142
1.0
143
1.0
 70
   688
 72
     0
 73
     0
 74
     5
  7

 75
    16
147
1.0
148
0.0
149
0.0
100
AcDbLayout
  1
Layout1
 70
     1
 71
     1
 10
0.0
 20
0.0
 11
12.0
 21
9.0
 12
0.0
 22
0.0
 32
0.0
 14
1.00000000000000E+20
 24
1.00000000000000E+20
 34
1.00000000000000E+20
 15
-1.00000000000000E+20
 25
-1.00000000000000E+20
 35
-1.00000000000000E+20
146
0.0
 13
0.0
 23
0.0
 33
0.0
 16
1.0
 26
0.0
 36
0.0
 17
0.0
 27
1.0
 37
0.0
 76
     0
330
1B
  0
LAYOUT
  5
26
102
{ACAD_REACTORS
330
1A
102
}
330
1A
100
AcDbPlotSettings
  1

  2
none_device
  4

  6

 40
0.0
 41
0.0
 42
0.0
 43
0.0
 44
0.0
 45
0.0
 46
0.0
 47
0.0
 48
0.0
 49
0.0
140
0.0
141
0.0
142
1.0
143
1.0
 70
   688
 72
     0
 73
     0
 74
     5
  7

 75
    16
147
1.0
148
0.0
149
0.0
100
AcDbLayout
  1
Layout2
 70
     1
 71
     2
 10
0.0
 20
0.0
 11
0.0
 21
0.0
 12
0.0
 22
0.0
 32
0.0
 14
0.0
 24
0.0
 34
0.0
 15
0.0
 25
0.0
 35
0.0
146
0.0
 13
0.0
 23
0.0
 33
0.0
 16
1.0
 26
0.0
 36
0.0
 17
0.0
 27
1.0
 37
0.0
 76
     0
330
23
  0
LAYOUT
  5
22
102
{ACAD_REACTORS
330
1A
102
}
330
1A
100
AcDbPlotSettings
  1

  2
none_device
  4

  6

 40
0.0
 41
0.0
 42
0.0
 43
0.0
 44
0.0
 45
0.0
 46
0.0
 47
0.0
 48
0.0
 49
0.0
140
0.0
141
0.0
142
1.0
143
1.0
 70
  1712
 72
     0
 73
     0
 74
     0
  7

 75
     0
147
1.0
148
0.0
149
0.0
100
AcDbLayout
  1
Model
 70
     1
 71
     0
 10
0.0
 20
0.0
 11
12.0
 21
9.0
 12
0.0
 22
0.0
 32
0.0
 14
-13.21346966962851
 24
258.3726579229
 34
0.0
 15
250.317331580513
 25
387.782090501038
 35
0.0
146
0.0
 13
0.0
 23
0.0
 33
0.0
 16
1.0
 26
0.0
 36
0.0
 17
0.0
 27
1.0
 37
0.0
 76
     0
330
1F
331
29
  0
MLINESTYLE
  5
18
102
{ACAD_REACTORS
330
17
102
}
330
17
100
AcDbMlineStyle
  2
Standard
 70
     0
  3

 62
   256
 51
90.0
 52
90.0
 71
     2
 49
0.5
 62
   256
  6
BYLAYER
 49
-0.5
 62
   256
  6
BYLAYER
  0
ACDBPLACEHOLDER
  5
F
102
{ACAD_REACTORS
330
E
102
}
330
E
  0
SCALE
  5
4B
102
{ACAD_REACTORS
330
4A
102
}
330
4A
100
AcDbScale
 70
     0
300
1:1
140
1.0
141
1.0
290
     1
  0
SCALE
  5
4C
102
{ACAD_REACTORS
330
4A
102
}
330
4A
100
AcDbScale
 70
     0
300
1:2
140
1.0
141
2.0
290
     0
  0
SCALE
  5
4D
102
{ACAD_REACTORS
330
4A
102
}
330
4A
100
AcDbScale
 70
     0
300
1:4
140
1.0
141
4.0
290
     0
  0
SCALE
  5
4E
102
{ACAD_REACTORS
330
4A
102
}
330
4A
100
AcDbScale
 70
     0
300
1:5
140
1.0
141
5.0
290
     0
  0
SCALE
  5
4F
102
{ACAD_REACTORS
330
4A
102
}
330
4A
100
AcDbScale
 70
     0
300
1:8
140
1.0
141
8.0
290
     0
  0
SCALE
  5
50
102
{ACAD_REACTORS
330
4A
102
}
330
4A
100
AcDbScale
 70
     0
300
1:10
140
1.0
141
10.0
290
     0
  0
SCALE
  5
51
102
{ACAD_REACTORS
330
4A
102
}
330
4A
100
AcDbScale
 70
     0
300
1:16
140
1.0
141
16.0
290
     0
  0
SCALE
  5
52
102
{ACAD_REACTORS
330
4A
102
}
330
4A
100
AcDbScale
 70
     0
300
1:20
140
1.0
141
20.0
290
     0
  0
SCALE
  5
53
102
{ACAD_REACTORS
330
4A
102
}
330
4A
100
AcDbScale
 70
     0
300
1:30
140
1.0
141
30.0
290
     0
  0
SCALE
  5
54
102
{ACAD_REACTORS
330
4A
102
}
330
4A
100
AcDbScale
 70
     0
300
1:40
140
1.0
141
40.0
290
     0
  0
SCALE
  5
55
102
{ACAD_REACTORS
330
4A
102
}
330
4A
100
AcDbScale
 70
     0
300
1:50
140
1.0
141
50.0
290
     0
  0
SCALE
  5
56
102
{ACAD_REACTORS
330
4A
102
}
330
4A
100
AcDbScale
 70
     0
300
1:100
140
1.0
141
100.0
290
     0
  0
SCALE
  5
57
102
{ACAD_REACTORS
330
4A
102
}
330
4A
100
AcDbScale
 70
     0
300
2:1
140
2.0
141
1.0
290
     0
  0
SCALE
  5
58
102
{ACAD_REACTORS
330
4A
102
}
330
4A
100
AcDbScale
 70
     0
300
4:1
140
4.0
141
1.0
290
     0
  0
SCALE
  5
59
102
{ACAD_REACTORS
330
4A
102
}
330
4A
100
AcDbScale
 70
     0
300
8:1
140
8.0
141
1.0
290
     0
  0
SCALE
  5
5A
102
{ACAD_REACTORS
330
4A
102
}
330
4A
100
AcDbScale
 70
     0
300
10:1
140
10.0
141
1.0
290
     0
  0
SCALE
  5
5B
102
{ACAD_REACTORS
330
4A
102
}
330
4A
100
AcDbScale
 70
     0
300
100:1
140
100.0
141
1.0
290
     0
  0
SCALE
  5
5C
102
{ACAD_REACTORS
330
4A
102
}
330
4A
100
AcDbScale
 70
     0
300
1/128" = 1'-0"
140
0.0078125
141
12.0
290
     0
  0
SCALE
  5
5D
102
{ACAD_REACTORS
330
4A
102
}
330
4A
100
AcDbScale
 70
     0
300
1/64" = 1'-0"
140
0.015625
141
12.0
290
     0
  0
SCALE
  5
5E
102
{ACAD_REACTORS
330
4A
102
}
330
4A
100
AcDbScale
 70
     0
300
1/32" = 1'-0"
140
0.03125
141
12.0
290
     0
  0
SCALE
  5
5F
102
{ACAD_REACTORS
330
4A
102
}
330
4A
100
AcDbScale
 70
     0
300
1/16" = 1'-0"
140
0.0625
141
12.0
290
     0
  0
SCALE
  5
60
102
{ACAD_REACTORS
330
4A
102
}
330
4A
100
AcDbScale
 70
     0
300
3/32" = 1'-0"
140
0.09375
141
12.0
290
     0
  0
SCALE
  5
61
102
{ACAD_REACTORS
330
4A
102
}
330
4A
100
AcDbScale
 70
     0
300
1/8" = 1'-0"
140
0.125
141
12.0
290
     0
  0
SCALE
  5
62
102
{ACAD_REACTORS
330
4A
102
}
330
4A
100
AcDbScale
 70
     0
300
3/16" = 1'-0"
140
0.1875
141
12.0
290
     0
  0
SCALE
  5
63
102
{ACAD_REACTORS
330
4A
102
}
330
4A
100
AcDbScale
 70
     0
300
1/4" = 1'-0"
140
0.25
141
12.0
290
     0
  0
SCALE
  5
64
102
{ACAD_REACTORS
330
4A
102
}
330
4A
100
AcDbScale
 70
     0
300
3/8" = 1'-0"
140
0.375
141
12.0
290
     0
  0
SCALE
  5
65
102
{ACAD_REACTORS
330
4A
102
}
330
4A
100
AcDbScale
 70
     0
300
1/2" = 1'-0"
140
0.5
141
12.0
290
     0
  0
SCALE
  5
66
102
{ACAD_REACTORS
330
4A
102
}
330
4A
100
AcDbScale
 70
     0
300
3/4" = 1'-0"
140
0.75
141
12.0
290
     0
  0
SCALE
  5
67
102
{ACAD_REACTORS
330
4A
102
}
330
4A
100
AcDbScale
 70
     0
300
1" = 1'-0"
140
1.0
141
12.0
290
     0
  0
SCALE
  5
68
102
{ACAD_REACTORS
330
4A
102
}
330
4A
100
AcDbScale
 70
     0
300
1-1/2" = 1'-0"
140
1.5
141
12.0
290
     0
  0
SCALE
  5
69
102
{ACAD_REACTORS
330
4A
102
}
330
4A
100
AcDbScale
 70
     0
300
3" = 1'-0"
140
3.0
141
12.0
290
     0
  0
SCALE
  5
6A
102
{ACAD_REACTORS
330
4A
102
}
330
4A
100
AcDbScale
 70
     0
300
6" = 1'-0"
140
6.0
141
12.0
290
     0
  0
SCALE
  5
6B
102
{ACAD_REACTORS
330
4A
102
}
330
4A
100
AcDbScale
 70
     0
300
1'-0" = 1'-0"
140
12.0
141
12.0
290
     0
  0
VISUALSTYLE
  5
2F
102
{ACAD_REACTORS
330
2A
102
}
330
2A
100
AcDbVisualStyle
  2
2dWireframe
 70
     4
 71
     0
 72
     2
 73
     0
 90
        0
 40
-0.6
 41
-30.0
 62
     5
 63
     7
 74
     1
 91
        4
 64
     7
 65
   257
 75
     1
175
     1
 42
1.0
 92
        0
 66
   257
 43
1.0
 76
     1
 77
     6
 78
     2
 67
     7
 79
     5
170
     0
171
     0
290
     0
174
     0
 93
        1
 44
0.0
173
     0
291
     0
 45
0.0
1001
ACAD
1000
AcDbSavedByObjectVersion
1070
     0
  0
VISUALSTYLE
  5
31
102
{ACAD_REACTORS
330
2A
102
}
330
2A
100
AcDbVisualStyle
  2
3D Hidden
 70
     6
 71
     1
 72
     2
 73
     2
 90
        0
 40
-0.6
 41
-30.0
 62
     5
 63
     7
 74
     2
 91
        2
 64
     7
 65
   257
 75
     2
175
     1
 42
40.0
 92
        0
 66
   257
 43
1.0
 76
     1
 77
     6
 78
     2
 67
     7
 79
     3
170
     0
171
     0
290
     0
174
     0
 93
        1
 44
0.0
173
     0
291
     0
 45
0.0
1001
ACAD
1000
AcDbSavedByObjectVersion
1070
     0
  0
VISUALSTYLE
  5
30
102
{ACAD_REACTORS
330
2A
102
}
330
2A
100
AcDbVisualStyle
  2
3dWireframe
 70
     5
 71
     0
 72
     2
 73
     0
 90
        0
 40
-0.6
 41
-30.0
 62
     5
 63
     7
 74
     1
 91
        4
 64
     7
 65
   257
 75
     1
175
     1
 42
1.0
 92
        0
 66
   257
 43
1.0
 76
     1
 77
     6
 78
     2
 67
     7
 79
     5
170
     0
171
     0
290
     0
174
     0
 93
        1
 44
0.0
173
     0
291
     0
 45
0.0
1001
ACAD
1000
AcDbSavedByObjectVersion
1070
     0
  0
VISUALSTYLE
  5
32
102
{ACAD_REACTORS
330
2A
102
}
330
2A
100
AcDbVisualStyle
  2
Basic
 70
     7
 71
     1
 72
     0
 73
     1
 90
        0
 40
-0.6
 41
-30.0
 62
     5
 63
     7
 74
     0
 91
        4
 64
     7
 65
   257
 75
     1
175
     1
 42
1.0
 92
        8
 66
     7
 43
1.0
 76
     1
 77
     6
 78
     2
 67
     7
 79
     5
170
     0
171
     0
290
     0
174
     0
 93
        1
 44
0.0
173
     0
291
     1
 45
0.0
1001
ACAD
1000
AcDbSavedByObjectVersion
1070
     0
  0
VISUALSTYLE
  5
36
102
{ACAD_REACTORS
330
2A
102
}
330
2A
100
AcDbVisualStyle
  2
Brighten
 70
    12
 71
     2
 72
     2
 73
     0
 90
        0
 40
-0.6
 41
-30.0
 62
     5
 63
     7
 74
     1
 91
        4
 64
     7
 65
   257
 75
     1
175
     1
 42
1.0
 92
        8
 66
     7
 43
1.0
 76
     1
 77
     6
 78
     2
 67
     7
 79
     5
170
     0
171
     0
290
     0
174
     0
 93
        1
 44
50.0
173
     0
291
     1
 45
0.0
1001
ACAD
1000
AcDbSavedByObjectVersion
1070
     0
  0
VISUALSTYLE
  5
3A
102
{ACAD_REACTORS
330
2A
102
}
330
2A
100
AcDbVisualStyle
  2
ColorChange
 70
    16
 71
     2
 72
     2
 73
     3
 90
        0
 40
-0.6
 41
-30.0
 62
     5
 63
     8
 74
     1
 91
        4
 64
     7
 65
   257
 75
     1
175
     1
 42
1.0
 92
        8
 66
     8
 43
1.0
 76
     1
 77
     6
 78
     2
 67
     7
 79
     5
170
     0
171
     0
290
     0
174
     0
 93
        1
 44
0.0
173
     0
291
     1
 45
0.0
1001
ACAD
1000
AcDbSavedByObjectVersion
1070
     0
  0
VISUALSTYLE
  5
34
102
{ACAD_REACTORS
330
2A
102
}
330
2A
100
AcDbVisualStyle
  2
Conceptual
 70
     9
 71
     3
 72
     2
 73
     0
 90
        0
 40
-0.6
 41
-30.0
 62
     5
 63
     7
 74
     2
 91
        2
 64
     7
 65
   257
 75
     1
175
     1
 42
40.0
 92
        8
 66
     7
 43
1.0
 76
     1
 77
     6
 78
     2
 67
     7
 79
     3
170
     0
171
     0
290
     0
174
     0
 93
        1
 44
0.0
173
     0
291
     0
 45
0.0
1001
ACAD
1000
AcDbSavedByObjectVersion
1070
     0
  0
VISUALSTYLE
  5
35
102
{ACAD_REACTORS
330
2A
102
}
330
2A
100
AcDbVisualStyle
  2
Dim
 70
    11
 71
     2
 72
     2
 73
     0
 90
        0
 40
-0.6
 41
-30.0
 62
     5
 63
     7
 74
     1
 91
        4
 64
     7
 65
   257
 75
     1
175
     1
 42
1.0
 92
        8
 66
     7
 43
1.0
 76
     1
 77
     6
 78
     2
 67
     7
 79
     5
170
     0
171
     0
290
     0
174
     0
 93
        1
 44
-50.0
173
     0
291
     1
 45
0.0
1001
ACAD
1000
AcDbSavedByObjectVersion
1070
     0
  0
VISUALSTYLE
  5
39
102
{ACAD_REACTORS
330
2A
102
}
330
2A
100
AcDbVisualStyle
  2
Facepattern
 70
    15
 71
     2
 72
     2
 73
     0
 90
        0
 40
-0.6
 41
-30.0
 62
     5
 63
     7
 74
     1
 91
        4
 64
     7
 65
   257
 75
     1
175
     1
 42
1.0
 92
        8
 66
     7
 43
1.0
 76
     1
 77
     6
 78
     2
 67
     7
 79
     5
170
     0
171
     0
290
     0
174
     0
 93
        1
 44
0.0
173
     0
291
     1
 45
0.0
1001
ACAD
1000
AcDbSavedByObjectVersion
1070
     0
  0
VISUALSTYLE
  5
2B
102
{ACAD_REACTORS
330
2A
102
}
330
2A
100
AcDbVisualStyle
  2
Flat
 70
     0
 71
     2
 72
     1
 73
     1
 90
        2
 40
-0.6
 41
30.0
 62
     5
 63
     7
 74
     0
 91
        4
 64
     7
 65
   257
 75
     1
175
     1
 42
1.0
 92
        8
 66
     7
 43
1.0
 76
     1
 77
     6
 78
     2
 67
     7
 79
     5
170
     0
171
     0
290
     0
174
     0
 93
       13
 44
0.0
173
     0
291
     1
 45
0.0
1001
ACAD
1000
AcDbSavedByObjectVersion
1070
     0
  0
VISUALSTYLE
  5
2C
102
{ACAD_REACTORS
330
2A
102
}
330
2A
100
AcDbVisualStyle
  2
FlatWithEdges
 70
     1
 71
     2
 72
     1
 73
     1
 90
        2
 40
-0.6
 41
30.0
 62
     5
 63
     7
 74
     1
 91
        4
 64
     7
 65
   257
 75
     1
175
     1
 42
1.0
 92
        0
 66
   257
 43
1.0
 76
     1
 77
     6
 78
     2
 67
     7
 79
     5
170
     0
171
     0
290
     0
174
     0
 93
       13
 44
0.0
173
     0
291
     1
 45
0.0
1001
ACAD
1000
AcDbSavedByObjectVersion
1070
     0
  0
VISUALSTYLE
  5
2D
102
{ACAD_REACTORS
330
2A
102
}
330
2A
100
AcDbVisualStyle
  2
Gouraud
 70
     2
 71
     2
 72
     2
 73
     1
 90
        2
 40
-0.6
 41
30.0
 62
     5
 63
     7
 74
     0
 91
        4
 64
     7
 65
   257
 75
     1
175
     1
 42
1.0
 92
        0
 66
     7
 43
1.0
 76
     1
 77
     6
 78
     2
 67
     7
 79
     5
170
     0
171
     0
290
     0
174
     0
 93
       13
 44
0.0
173
     0
291
     1
 45
0.0
1001
ACAD
1000
AcDbSavedByObjectVersion
1070
     0
  0
VISUALSTYLE
  5
2E
102
{ACAD_REACTORS
330
2A
102
}
330
2A
100
AcDbVisualStyle
  2
GouraudWithEdges
 70
     3
 71
     2
 72
     2
 73
     1
 90
        2
 40
-0.6
 41
30.0
 62
     5
 63
     7
 74
     1
 91
        4
 64
     7
 65
   257
 75
     1
175
     1
 42
1.0
 92
        0
 66
   257
 43
1.0
 76
     1
 77
     6
 78
     2
 67
     7
 79
     5
170
     0
171
     0
290
     0
174
     0
 93
       13
 44
0.0
173
     0
291
     1
 45
0.0
1001
ACAD
1000
AcDbSavedByObjectVersion
1070
     0
  0
VISUALSTYLE
  5
38
102
{ACAD_REACTORS
330
2A
102
}
330
2A
100
AcDbVisualStyle
  2
Linepattern
 70
    14
 71
     2
 72
     2
 73
     0
 90
        0
 40
-0.6
 41
-30.0
 62
     5
 63
     7
 74
     1
 91
        4
 64
     7
 65
   257
 75
     7
175
     7
 42
1.0
 92
        8
 66
     7
 43
1.0
 76
     1
 77
     6
 78
     2
 67
     7
 79
     5
170
     0
171
     0
290
     0
174
     0
 93
        1
 44
0.0
173
     0
291
     1
 45
0.0
1001
ACAD
1000
AcDbSavedByObjectVersion
1070
     0
  0
VISUALSTYLE
  5
33
102
{ACAD_REACTORS
330
2A
102
}
330
2A
100
AcDbVisualStyle
  2
Realistic
 70
     8
 71
     2
 72
     2
 73
     0
 90
        0
 40
-0.6
 41
-30.0
 62
     5
 63
     7
 74
     1
 91
        0
 64
     7
 65
   257
 75
     1
175
     1
 42
1.0
 92
        8
 66
     8
 43
1.0
 76
     1
 77
     6
 78
     2
 67
     7
 79
     5
170
     0
171
     0
290
     0
174
     0
 93
       13
 44
0.0
173
     0
291
     0
 45
0.0
1001
ACAD
1000
AcDbSavedByObjectVersion
1070
     0
  0
VISUALSTYLE
  5
37
102
{ACAD_REACTORS
330
2A
102
}
330
2A
100
AcDbVisualStyle
  2
Thicken
 70
    13
 71
     2
 72
     2
 73
     0
 90
        0
 40
-0.6
 41
-30.0
 62
     5
 63
     7
 74
     1
 91
        4
 64
     7
 65
   257
 75
     1
175
     1
 42
1.0
 92
       12
 66
     7
 43
1.0
 76
     1
 77
     6
 78
     2
 67
     7
 79
     5
170
     0
171
     0
290
     0
174
     0
 93
        1
 44
0.0
173
     0
291
     1
 45
0.0
1001
ACAD
1000
AcDbSavedByObjectVersion
1070
     0
  0
DICTIONARYVAR
  5
157
102
{ACAD_REACTORS
330
154
102
}
330
154
100
DictionaryVariables
280
     0
  1
1:1
  0
ENDSEC
  0
EOF
