  0
SECTION
  2
HEADER
  9
$ACADVER
  1
AC1015
  9
$ACADMAINTVER
 70
     6
  9
$DWGCODEPAGE
  3
ANSI_1252
  9
$INSBASE
 10
0.0
 20
0.0
 30
0.0
  9
$EXTMIN
 10
-4.22357673221492
 20
261.1227499331
 30
0.0
  9
$EXTMAX
 10
262.053203074445
 20
389.987298552104
 30
0.0
  9
$LIMMIN
 10
0.0
 20
0.0
  9
$LIMMAX
 10
12.0
 20
9.0
  9
$ORTHOMODE
 70
     0
  9
$REGENMODE
 70
     1
  9
$FILLMODE
 70
     1
  9
$QTEXTMODE
 70
     0
  9
$MIRRTEXT
 70
     1
  9
$LTSCALE
 40
1.0
  9
$ATTMODE
 70
     1
  9
$TEXTSIZE
 40
0.2
  9
$TRACEWID
 40
0.05
  9
$TEXTSTYLE
  7
Standard
  9
$CLAYER
  8
0
  9
$CELTYPE
  6
ByLayer
  9
$CECOLOR
 62
   256
  9
$CELTSCALE
 40
1.0
  9
$DISPSILH
 70
     0
  9
$DIMSCALE
 40
1.0
  9
$DIMASZ
 40
0.18
  9
$DIMEXO
 40
0.0625
  9
$DIMDLI
 40
0.38
  9
$DIMRND
 40
0.0
  9
$DIMDLE
 40
0.0
  9
$DIMEXE
 40
0.18
  9
$DIMTP
 40
0.0
  9
$DIMTM
 40
0.0
  9
$DIMTXT
 40
0.18
  9
$DIMCEN
 40
0.09
  9
$DIMTSZ
 40
0.0
  9
$DIMTOL
 70
     0
  9
$DIMLIM
 70
     0
  9
$DIMTIH
 70
     1
  9
$DIMTOH
 70
     1
  9
$DIMSE1
 70
     0
  9
$DIMSE2
 70
     0
  9
$DIMTAD
 70
     0
  9
$DIMZIN
 70
     0
  9
$DIMBLK
  1

  9
$DIMASO
 70
     1
  9
$DIMSHO
 70
     1
  9
$DIMPOST
  1

  9
$DIMAPOST
  1

  9
$DIMALT
 70
     0
  9
$DIMALTD
 70
     2
  9
$DIMALTF
 40
25.4
  9
$DIMLFAC
 40
1.0
  9
$DIMTOFL
 70
     0
  9
$DIMTVP
 40
0.0
  9
$DIMTIX
 70
     0
  9
$DIMSOXD
 70
     0
  9
$DIMSAH
 70
     0
  9
$DIMBLK1
  1

  9
$DIMBLK2
  1

  9
$DIMSTYLE
  2
Standard
  9
$DIMCLRD
 70
     0
  9
$DIMCLRE
 70
     0
  9
$DIMCLRT
 70
     0
  9
$DIMTFAC
 40
1.0
  9
$DIMGAP
 40
0.09
  9
$DIMJUST
 70
     0
  9
$DIMSD1
 70
     0
  9
$DIMSD2
 70
     0
  9
$DIMTOLJ
 70
     1
  9
$DIMTZIN
 70
     0
  9
$DIMALTZ
 70
     0
  9
$DIMALTTZ
 70
     0
  9
$DIMUPT
 70
     0
  9
$DIMDEC
 70
     4
  9
$DIMTDEC
 70
     4
  9
$DIMALTU
 70
     2
  9
$DIMALTTD
 70
     2
  9
$DIMTXSTY
  7
Standard
  9
$DIMAUNIT
 70
     0
  9
$DIMADEC
 70
     0
  9
$DIMALTRND
 40
0.0
  9
$DIMAZIN
 70
     0
  9
$DIMDSEP
 70
    46
  9
$DIMATFIT
 70
     3
  9
$DIMFRAC
 70
     0
  9
$DIMLDRBLK
  1

  9
$DIMLUNIT
 70
     2
  9
$DIMLWD
 70
    -2
  9
$DIMLWE
 70
    -2
  9
$DIMTMOVE
 70
     0
  9
$LUNITS
 70
     2
  9
$LUPREC
 70
     4
  9
$SKETCHINC
 40
0.1
  9
$FILLETRAD
 40
0.5
  9
$AUNITS
 70
     0
  9
$AUPREC
 70
     0
  9
$MENU
  1
.
  9
$ELEVATION
 40
0.0
  9
$PELEVATION
 40
0.0
  9
$THICKNESS
 40
0.0
  9
$LIMCHECK
 70
     0
  9
$CHAMFERA
 40
0.5
  9
$CHAMFERB
 40
0.5
  9
$CHAMFERC
 40
1.0
  9
$CHAMFERD
 40
0.0
  9
$SKPOLY
 70
     0
  9
$TDCREATE
 40
2456748.731062257
  9
$TDUCREATE
 40
2456748.647728924
  9
$TDUPDATE
 40
2456748.731062268
  9
$TDUUPDATE
 40
2456748.647728935
  9
$TDINDWG
 40
0.0000000116
  9
$TDUSRTIMER
 40
0.0000000116
  9
$USRTIMER
 70
     1
  9
$ANGBASE
 50
0.0
  9
$ANGDIR
 70
     0
  9
$PDMODE
 70
     0
  9
$PDSIZE
 40
0.0
  9
$PLINEWID
 40
0.0
  9
$SPLFRAME
 70
     0
  9
$SPLINETYPE
 70
     6
  9
$SPLINESEGS
 70
     8
  9
$HANDSEED
  5
158
  9
$SURFTAB1
 70
     6
  9
$SURFTAB2
 70
     6
  9
$SURFTYPE
 70
     6
  9
$SURFU
 70
     6
  9
$SURFV
 70
     6
  9
$UCSBASE
  2

  9
$UCSNAME
  2

  9
$UCSORG
 10
0.0
 20
0.0
 30
0.0
  9
$UCSXDIR
 10
1.0
 20
0.0
 30
0.0
  9
$UCSYDIR
 10
0.0
 20
1.0
 30
0.0
  9
$UCSORTHOREF
  2

  9
$UCSORTHOVIEW
 70
     0
  9
$UCSORGTOP
 10
0.0
 20
0.0
 30
0.0
  9
$UCSORGBOTTOM
 10
0.0
 20
0.0
 30
0.0
  9
$UCSORGLEFT
 10
0.0
 20
0.0
 30
0.0
  9
$UCSORGRIGHT
 10
0.0
 20
0.0
 30
0.0
  9
$UCSORGFRONT
 10
0.0
 20
0.0
 30
0.0
  9
$UCSORGBACK
 10
0.0
 20
0.0
 30
0.0
  9
$PUCSBASE
  2

  9
$PUCSNAME
  2

  9
$PUCSORG
 10
0.0
 20
0.0
 30
0.0
  9
$PUCSXDIR
 10
1.0
 20
0.0
 30
0.0
  9
$PUCSYDIR
 10
0.0
 20
1.0
 30
0.0
  9
$PUCSORTHOREF
  2

  9
$PUCSORTHOVIEW
 70
     0
  9
$PUCSORGTOP
 10
0.0
 20
0.0
 30
0.0
  9
$PUCSORGBOTTOM
 10
0.0
 20
0.0
 30
0.0
  9
$PUCSORGLEFT
 10
0.0
 20
0.0
 30
0.0
  9
$PUCSORGRIGHT
 10
0.0
 20
0.0
 30
0.0
  9
$PUCSORGFRONT
 10
0.0
 20
0.0
 30
0.0
  9
$PUCSORGBACK
 10
0.0
 20
0.0
 30
0.0
  9
$USERI1
 70
     0
  9
$USERI2
 70
     0
  9
$USERI3
 70
     0
  9
$USERI4
 70
     0
  9
$USERI5
 70
     0
  9
$USERR1
 40
16.5
  9
$USERR2
 40
0.0
  9
$USERR3
 40
0.0
  9
$USERR4
 40
0.0
  9
$USERR5
 40
0.0
  9
$WORLDVIEW
 70
     1
  9
$SHADEDGE
 70
     3
  9
$SHADEDIF
 70
    70
  9
$TILEMODE
 70
     1
  9
$MAXACTVP
 70
    64
  9
$PINSBASE
 10
0.0
 20
0.0
 30
0.0
  9
$PLIMCHECK
 70
     0
  9
$PEXTMIN
 10
1.00000000000000E+20
 20
1.00000000000000E+20
 30
1.00000000000000E+20
  9
$PEXTMAX
 10
-1.00000000000000E+20
 20
-1.00000000000000E+20
 30
-1.00000000000000E+20
  9
$PLIMMIN
 10
0.0
 20
0.0
  9
$PLIMMAX
 10
12.0
 20
9.0
  9
$UNITMODE
 70
     0
  9
$VISRETAIN
 70
     1
  9
$PLINEGEN
 70
     0
  9
$PSLTSCALE
 70
     1
  9
$TREEDEPTH
 70
  3020
  9
$CMLSTYLE
  2
Standard
  9
$CMLJUST
 70
     0
  9
$CMLSCALE
 40
1.0
  9
$PROXYGRAPHICS
 70
     1
  9
$MEASUREMENT
 70
     1
  9
$CELWEIGHT
370
    -1
  9
$ENDCAPS
280
     0
  9
$JOINSTYLE
280
     0
  9
$LWDISPLAY
290
     0
  9
$INSUNITS
 70
     1
  9
$HYPERLINKBASE
  1

  9
$STYLESHEET
  1

  9
$XEDIT
290
     1
  9
$CEPSNTYPE
380
     0
  9
$PSTYLEMODE
290
     1
  9
$FINGERPRINTGUID
  2
{D1EF9A69-D1CE-4F40-8ACB-23AF33315B8C}
  9
$VERSIONGUID
  2
{FAEB1C32-E019-11D5-929B-00C0DF256EC4}
  9
$EXTNAMES
290
     1
  9
$PSVPSCALE
 40
0.0
  9
$OLESTARTUP
290
     0
  0
ENDSEC
  0
SECTION
  2
CLASSES
  0
CLASS
  1
ACDBDICTIONARYWDFLT
  2
AcDbDictionaryWithDefault
  3
ObjectDBX Classes
 90
        0
280
     0
281
     0
  0
CLASS
  1
VISUALSTYLE
  2
AcDbVisualStyle
  3
ObjectDBX Classes
 90
     4095
280
     0
281
     0
  0
CLASS
  1
SCALE
  2
AcDbScale
  3
ObjectDBX Classes
 90
     1153
280
     0
281
     0
  0
CLASS
  1

  2
exOdDbPolyline
  3

 90
        0
280
     0
281
     1
  0
CLASS
  1

  2
exOdDbCircle
  3

 90
        0
280
     0
281
     1
  0
CLASS
  1

  2
exOdDbSpline
  3

 90
        0
280
     0
281
     1
  0
CLASS
  1
DICTIONARYVAR
  2
AcDbDictionaryVar
  3
ObjectDBX Classes
 90
        0
280
     0
281
     0
  0
CLASS
  1
ACDBPLACEHOLDER
  2
AcDbPlaceHolder
  3
ObjectDBX Classes
 90
        0
280
     0
281
     0
  0
CLASS
  1
LAYOUT
  2
AcDbLayout
  3
ObjectDBX Classes
 90
        0
280
     0
281
     0
  0
ENDSEC
  0
SECTION
  2
TABLES
  0
TABLE
  2
VPORT
  5
8
330
0
100
AcDbSymbolTable
 70
     1
  0
VPORT
  5
29
330
8
100
AcDbSymbolTableRecord
100
AcDbViewportTableRecord
  2
*Active
 70
     0
 10
0.0
 20
0.0
 11
1.0
 21
1.0
 12
128.914813171115
 22
325.555024242602
 13
0.0
 23
0.0
 14
0.5
 24
0.5
 15
0.5
 25
0.5
 16
0.0
 26
0.0
 36
1.0
 17
0.0
 27
0.0
 37
0.0
 40
182.7593274216185
 41
1.60267857142857
 42
50.0
 43
0.0
 44
0.0
 50
0.0
 51
0.0
 71
     0
 72
   100
 73
     1
 74
     3
 75
     0
 76
     0
 77
     0
 78
     0
281
     0
 65
     1
110
0.0
120
0.0
130
0.0
111
1.0
121
0.0
131
0.0
112
0.0
122
1.0
132
0.0
 79
     0
146
0.0
  0
ENDTAB
  0
TABLE
  2
LTYPE
  5
5
330
0
100
AcDbSymbolTable
 70
     8
  0
LTYPE
  5
14
330
5
100
AcDbSymbolTableRecord
100
AcDbLinetypeTableRecord
  2
ByBlock
 70
     0
  3

 72
    65
 73
     0
 40
0.0
  0
LTYPE
  5
15
330
5
100
AcDbSymbolTableRecord
100
AcDbLinetypeTableRecord
  2
ByLayer
 70
     0
  3

 72
    65
 73
     0
 40
0.0
  0
LTYPE
  5
16
330
5
100
AcDbSymbolTableRecord
100
AcDbLinetypeTableRecord
  2
Continuous
 70
     0
  3
Solid line
 72
    65
 73
     0
 40
0.0
  0
LTYPE
  5
3B
330
5
100
AcDbSymbolTableRecord
100
AcDbLinetypeTableRecord
  2
DASHED
 70
     0
  3
Dashed
 72
    65
 73
     2
 40
15.0
 49
7.0
 74
     0
 49
-8.0
 74
     0
  0
LTYPE
  5
3C
330
5
100
AcDbSymbolTableRecord
100
AcDbLinetypeTableRecord
  2
DOTTED
 70
     0
  3
Dotted
 72
    65
 73
     2
 40
1.0
 49
0.0
 74
     0
 49
-1.0
 74
     0
  0
LTYPE
  5
3D
330
5
100
AcDbSymbolTableRecord
100
AcDbLinetypeTableRecord
  2
DOT_CENTER
 70
     0
  3
Dot_Center
 72
    65
 73
     4
 40
14.0
 49
12.0
 74
     0
 49
-1.0
 74
     0
 49
0.0
 74
     0
 49
-1.0
 74
     0
  0
LTYPE
  5
3E
330
5
100
AcDbSymbolTableRecord
100
AcDbLinetypeTableRecord
  2
LONG_DASHED
 70
     0
  3
Long_Dashed
 72
    65
 73
     2
 40
15.0
 49
10.0
 74
     0
 49
-5.0
 74
     0
  0
LTYPE
  5
3F
330
5
100
AcDbSymbolTableRecord
100
AcDbLinetypeTableRecord
  2
DASH_CENTER
 70
     0
  3
Dash_Center
 72
    65
 73
     4
 40
14.0
 49
11.0
 74
     0
 49
-1.0
 74
     0
 49
1.0
 74
     0
 49
-1.0
 74
     0
  0
LTYPE
  5
40
330
5
100
AcDbSymbolTableRecord
100
AcDbLinetypeTableRecord
  2
PHANTOM
 70
     0
  3
Phantom
 72
    65
 73
     6
 40
13.0
 49
10.0
 74
     0
 49
-1.0
 74
     0
 49
0.0
 74
     0
 49
-1.0
 74
     0
 49
0.0
 74
     0
 49
-1.0
 74
     0
  0
LTYPE
  5
41
330
5
100
AcDbSymbolTableRecord
100
AcDbLinetypeTableRecord
  2
CENTER_DASH_DASH
 70
     0
  3
Center_Dash_Dash
 72
    65
 73
     6
 40
14.0
 49
9.0
 74
     0
 49
-1.0
 74
     0
 49
1.0
 74
     0
 49
-1.0
 74
     0
 49
1.0
 74
     0
 49
-1.0
 74
     0
  0
ENDTAB
  0
TABLE
  2
LAYER
  5
2
330
0
100
AcDbSymbolTable
 70
     6
  0
LAYER
  5
10
330
2
100
AcDbSymbolTableRecord
100
AcDbLayerTableRecord
  2
0
 70
     0
 62
     7
  6
Continuous
370
    -3
390
F
  0
LAYER
  5
42
330
2
100
AcDbSymbolTableRecord
100
AcDbLayerTableRecord
  2
1
 70
     0
 62
     7
  6
Continuous
370
    -3
390
F
  0
LAYER
  5
43
330
2
100
AcDbSymbolTableRecord
100
AcDbLayerTableRecord
  2
BEZUGSACHSEN
 70
     0
 62
     7
  6
Continuous
370
    -3
390
F
  0
LAYER
  5
44
330
2
100
AcDbSymbolTableRecord
100
AcDbLayerTableRecord
  2
DEFAULT_2
 70
     0
 62
     7
  6
Continuous
370
    -3
390
F
  0
LAYER
  5
45
330
2
100
AcDbSymbolTableRecord
100
AcDbLayerTableRecord
  2
FASEN
 70
     0
 62
     7
  6
Continuous
370
    -3
390
F
  0
LAYER
  5
46
330
2
100
AcDbSymbolTableRecord
100
AcDbLayerTableRecord
  2
RUNDUNGEN
 70
     0
 62
     7
  6
Continuous
370
    -3
390
F
  0
ENDTAB
  0
TABLE
  2
STYLE
  5
3
330
0
100
AcDbSymbolTable
 70
     2
  0
STYLE
  5
11
330
3
100
AcDbSymbolTableRecord
100
AcDbTextStyleTableRecord
  2
Standard
 70
     0
 40
0.0
 41
1.0
 50
0.0
 71
     0
 42
0.2
  3
txt
  4

  0
STYLE
  5
6D
330
3
100
AcDbSymbolTableRecord
100
AcDbTextStyleTableRecord
  2
CONVERTER_11
 70
     0
 40
0.0
 41
0.72
 50
0.0
 71
     0
 42
0.2
  3
txt.shx
  4

  0
ENDTAB
  0
TABLE
  2
VIEW
  5
6
330
0
100
AcDbSymbolTable
 70
     0
  0
ENDTAB
  0
TABLE
  2
UCS
  5
7
330
0
100
AcDbSymbolTable
 70
     0
  0
ENDTAB
  0
TABLE
  2
APPID
  5
9
330
0
100
AcDbSymbolTable
 70
     1
  0
APPID
  5
12
330
9
100
AcDbSymbolTableRecord
100
AcDbRegAppTableRecord
  2
ACAD
 70
     0
  0
ENDTAB
  0
TABLE
  2
DIMSTYLE
  5
A
330
0
100
AcDbSymbolTable
 70
     8
100
AcDbDimStyleTable
  0
DIMSTYLE
105
27
330
A
100
AcDbSymbolTableRecord
100
AcDbDimStyleTableRecord
  2
Standard
 70
     0
340
11
  0
DIMSTYLE
105
109
102
{ACAD_REACTORS
330
10A
102
}
330
A
100
AcDbSymbolTableRecord
100
AcDbDimStyleTableRecord
  2
ME10_DIM_10
 70
     0
  3
\U+2300<>
 41
3.5
 42
2.0
 44
2.0
 71
     1
 73
     0
 74
     0
 77
     1
 78
     8
140
3.5
146
0.7
147
2.0
172
     1
173
     1
176
     2
177
     2
178
     3
271
     2
272
     0
340
6D
  0
DIMSTYLE
105
114
102
{ACAD_REACTORS
330
115
102
}
330
A
100
AcDbSymbolTableRecord
100
AcDbDimStyleTableRecord
  2
ME10_DIM_11
 70
     0
  3
\U+2300<>
 41
3.5
 42
2.0
 44
2.0
 71
     1
 73
     0
 74
     0
 77
     1
 78
     8
140
3.5
146
0.7
147
2.0
172
     1
173
     1
176
     2
177
     2
178
     3
271
     2
272
     0
340
6D
  0
DIMSTYLE
105
11F
102
{ACAD_REACTORS
330
120
102
}
330
A
100
AcDbSymbolTableRecord
100
AcDbDimStyleTableRecord
  2
ME10_DIM_12
 70
     0
  3
\U+2300<>
 41
3.5
 42
2.0
 44
2.0
 71
     1
 73
     0
 74
     0
 77
     1
 78
     8
140
3.5
146
0.7
147
2.0
172
     1
173
     1
176
     2
177
     2
178
     3
271
     2
272
     0
340
6D
  0
DIMSTYLE
105
12A
102
{ACAD_REACTORS
330
12B
102
}
330
A
100
AcDbSymbolTableRecord
100
AcDbDimStyleTableRecord
  2
ME10_DIM_13
 70
     0
  3
<>
 41
3.5
 42
2.0
 44
2.0
 71
     1
 73
     0
 74
     0
 77
     1
 78
     8
140
3.5
146
0.7
147
2.0
172
     1
173
     1
176
     2
177
     2
178
     3
271
     2
272
     0
340
6D
  0
DIMSTYLE
105
135
102
{ACAD_REACTORS
330
136
102
}
330
A
100
AcDbSymbolTableRecord
100
AcDbDimStyleTableRecord
  2
ME10_DIM_14
 70
     0
  3
<>
 41
3.5
 42
2.0
 44
2.0
 71
     1
 73
     0
 74
     0
 77
     1
 78
     8
140
3.5
146
0.7
147
2.0
172
     1
173
     1
176
     2
177
     2
178
     3
271
     2
272
     0
340
6D
  0
DIMSTYLE
105
140
102
{ACAD_REACTORS
330
141
102
}
330
A
100
AcDbSymbolTableRecord
100
AcDbDimStyleTableRecord
  2
ME10_DIM_15
 70
     0
  3
<>
 41
3.5
 42
2.0
 44
2.0
 71
     1
 73
     0
 74
     0
 77
     1
 78
     8
140
3.5
146
0.7
147
2.0
172
     1
173
     1
176
     2
177
     2
178
     3
271
     2
272
     0
340
6D
  0
DIMSTYLE
105
152
102
{ACAD_REACTORS
330
153
102
}
330
A
100
AcDbSymbolTableRecord
100
AcDbDimStyleTableRecord
  2
ME10_DIM_16
 70
     0
  3
<>
 41
3.5
 42
2.0
 44
2.0
 71
     1
 73
     0
 74
     0
 77
     1
 78
     8
140
3.5
146
0.7
147
2.0
172
     1
173
     1
176
     2
177
     2
178
     3
271
     2
272
     0
340
6D
  0
ENDTAB
  0
TABLE
  2
BLOCK_RECORD
  5
1
330
0
100
AcDbSymbolTable
 70
    10
  0
BLOCK_RECORD
  5
1F
330
1
100
AcDbSymbolTableRecord
100
AcDbBlockTableRecord
  2
*Model_Space
340
22
  0
BLOCK_RECORD
  5
1B
330
1
100
AcDbSymbolTableRecord
100
AcDbBlockTableRecord
  2
*Paper_Space
340
1E
  0
BLOCK_RECORD
  5
23
330
1
100
AcDbSymbolTableRecord
100
AcDbBlockTableRecord
  2
*Paper_Space0
340
26
  0
BLOCK_RECORD
  5
47
330
1
100
AcDbSymbolTableRecord
100
AcDbBlockTableRecord
  2
Urheberrecht_DE-EN
340
0
102
{BLKREFS
331
6C
102
}
  0
BLOCK_RECORD
  5
100
330
1
100
AcDbSymbolTableRecord
100
AcDbBlockTableRecord
  2
*D2
340
0
  0
BLOCK_RECORD
  5
10B
330
1
100
AcDbSymbolTableRecord
100
AcDbBlockTableRecord
  2
*D3
340
0
  0
BLOCK_RECORD
  5
116
330
1
100
AcDbSymbolTableRecord
100
AcDbBlockTableRecord
  2
*D4
340
0
  0
BLOCK_RECORD
  5
121
330
1
100
AcDbSymbolTableRecord
100
AcDbBlockTableRecord
  2
*D5
340
0
  0
BLOCK_RECORD
  5
12C
330
1
100
AcDbSymbolTableRecord
100
AcDbBlockTableRecord
  2
*D6
340
0
  0
BLOCK_RECORD
  5
137
330
1
100
AcDbSymbolTableRecord
100
AcDbBlockTableRecord
  2
*D7
340
0
  0
BLOCK_RECORD
  5
142
330
1
100
AcDbSymbolTableRecord
100
AcDbBlockTableRecord
  2
*D8
340
0
102
{BLKREFS
331
148
102
}
  0
BLOCK_RECORD
  5
149
330
1
100
AcDbSymbolTableRecord
100
AcDbBlockTableRecord
  2
*D9
340
0
  0
ENDTAB
  0
ENDSEC
  0
SECTION
  2
BLOCKS
  0
BLOCK
  5
20
330
1F
100
AcDbEntity
  8
0
100
AcDbBlockBegin
  2
*Model_Space
 70
     0
 10
0.0
 20
0.0
 30
0.0
  3
*Model_Space
  1

  0
ENDBLK
  5
21
330
1F
100
AcDbEntity
  8
0
100
AcDbBlockEnd
  0
BLOCK
  5
1C
330
1B
100
AcDbEntity
 67
     1
  8
0
100
AcDbBlockBegin
  2
*Paper_Space
 70
     0
 10
0.0
 20
0.0
 30
0.0
  3
*Paper_Space
  1

  0
ENDBLK
  5
1D
330
1B
100
AcDbEntity
 67
     1
  8
0
100
AcDbBlockEnd
  0
BLOCK
  5
24
330
23
100
AcDbEntity
  8
0
100
AcDbBlockBegin
  2
*Paper_Space0
 70
     0
 10
0.0
 20
0.0
 30
0.0
  3
*Paper_Space0
  1

  0
ENDBLK
  5
25
330
23
100
AcDbEntity
  8
0
100
AcDbBlockEnd
  0
BLOCK
  5
48
330
47
100
AcDbEntity
  8
0
100
AcDbBlockBegin
  2
Urheberrecht_DE-EN
 70
     0
 10
9.77642326778508
 20
323.629542402218
 30
0.0
  3
Urheberrecht_DE-EN
  1

  0
MTEXT
  5
6E
330
47
100
AcDbEntity
  8
1
 62
     1
100
AcDbMText
 10
9.77642326778508
 20
323.629542402218
 30
0.0
 40
2.0
 41
0.0
 71
     7
 72
     1
  1
We own the copyright of this document. It \Pdetermined and may neither be copied or \Pmade accessible to outsiders without our\Ppermission.
  7
CONVERTER_11
 11
0.0
 21
1.0
 31
0.0
 73
     1
 44
0.90036014405762
  0
MTEXT
  5
6F
330
47
100
AcDbEntity
  8
1
 62
     1
100
AcDbMText
 10
9.77642326778508
 20
267.3401554849118
 30
0.0
 40
2.0
 41
0.0
 71
     7
 72
     1
  1
F\U+00fcr diese Unterlage behalten wir das Ur-\Pheberrecht. Sie darf nur f\U+00fcr den von uns \Pbestimmten Zweck benutzt und ohne unsere \PZustimmung weder vervielf\U+00e4ltigt noch\PDritten zug\U+00e4nglich gemacht werden.
  7
CONVERTER_11
 11
0.0
 21
1.0
 31
0.0
 73
     1
 44
0.90036014405762
  0
ENDBLK
  5
49
330
47
100
AcDbEntity
  8
0
100
AcDbBlockEnd
  0
BLOCK
  5
107
330
100
100
AcDbEntity
  8
0
100
AcDbBlockBegin
  2
*D2
 70
     1
 10
0.0
 20
0.0
 30
0.0
  3
*D2
  1

  0
LINE
  5
101
330
100
100
AcDbEntity
  8
1
  6
Continuous
 62
     2
100
AcDbLine
 10
241.85008793341
 20
316.1227499331
 30
0.0
 11
241.85008793341
 21
306.1227499331
 31
0.0
  0
LINE
  5
102
330
100
100
AcDbEntity
  8
1
  6
Continuous
 62
     2
100
AcDbLine
 10
232.3589818656
 20
316.1227499331
 30
0.0
 11
243.85008793341
 21
316.1227499331
 31
0.0
  0
LINE
  5
103
330
100
100
AcDbEntity
  8
1
  6
Continuous
 62
     2
100
AcDbLine
 10
232.3589818656
 20
306.1227499331
 30
0.0
 11
243.85008793341
 21
306.1227499331
 31
0.0
  0
SOLID
  5
104
330
100
100
AcDbEntity
  8
1
 62
     2
100
AcDbTrace
 10
242.3108716749659
 20
312.6227499331
 30
0.0
 11
241.3893041918541
 21
312.6227499331
 31
0.0
 12
241.85008793341
 22
316.1227499331
 32
0.0
 13
241.85008793341
 23
316.1227499331
 33
0.0
  0
SOLID
  5
105
330
100
100
AcDbEntity
  8
1
 62
     2
100
AcDbTrace
 10
241.3893041918541
 20
309.6227499331
 30
0.0
 11
242.3108716749659
 21
309.6227499331
 31
0.0
 12
241.85008793341
 22
306.1227499331
 32
0.0
 13
241.85008793341
 23
306.1227499331
 33
0.0
  0
MTEXT
  5
106
330
100
100
AcDbEntity
  8
1
 62
     3
100
AcDbMText
 10
239.85008793341
 20
302.589270800145
 30
0.0
 40
3.5
 41
0.0
 71
     7
 72
     1
  1
\C3;%%c\C3;\C3;10\C2;\H2.45;\S^ ;\C3;
  7
CONVERTER_11
 11
0.0
 21
1.0
 31
0.0
 73
     1
 44
0.60024009603842
  0
ENDBLK
  5
108
330
100
100
AcDbEntity
  8
0
100
AcDbBlockEnd
  0
BLOCK
  5
112
330
10B
100
AcDbEntity
  8
0
100
AcDbBlockBegin
  2
*D3
 70
     1
 10
0.0
 20
0.0
 30
0.0
  3
*D3
  1

  0
LINE
  5
10C
330
10B
100
AcDbEntity
  8
1
  6
Continuous
 62
     2
100
AcDbLine
 10
251.453306157421
 20
323.1227499330681
 30
0.0
 11
251.453306157421
 21
299.1227499331344
 31
0.0
  0
LINE
  5
10D
330
10B
100
AcDbEntity
  8
1
  6
Continuous
 62
     2
100
AcDbLine
 10
232.3589818656105
 20
323.1227499330681
 30
0.0
 11
253.453306157421
 21
323.1227499330681
 31
0.0
  0
LINE
  5
10E
330
10B
100
AcDbEntity
  8
1
  6
Continuous
 62
     2
100
AcDbLine
 10
232.3589818656
 20
299.1227499331344
 30
0.0
 11
253.453306157421
 21
299.1227499331344
 31
0.0
  0
SOLID
  5
10F
330
10B
100
AcDbEntity
  8
1
 62
     2
100
AcDbTrace
 10
251.9140898989769
 20
319.6227499330681
 30
0.0
 11
250.9925224158651
 21
319.6227499330681
 31
0.0
 12
251.453306157421
 22
323.1227499330681
 32
0.0
 13
251.453306157421
 23
323.1227499330681
 33
0.0
  0
SOLID
  5
110
330
10B
100
AcDbEntity
  8
1
 62
     2
100
AcDbTrace
 10
250.9925224158651
 20
302.6227499331344
 30
0.0
 11
251.9140898989769
 21
302.6227499331344
 31
0.0
 12
251.453306157421
 22
299.1227499331344
 32
0.0
 13
251.453306157421
 23
299.1227499331344
 33
0.0
  0
MTEXT
  5
111
330
10B
100
AcDbEntity
  8
1
 62
     3
100
AcDbMText
 10
249.453306157421
 20
302.455934030712
 30
0.0
 40
3.5
 41
0.0
 71
     7
 72
     1
  1
\C3;%%c\C3;\C3;24\C2;\H2.45;\S^ ;\C3;
  7
CONVERTER_11
 11
0.0
 21
1.0
 31
0.0
 73
     1
 44
0.60024009603842
  0
ENDBLK
  5
113
330
10B
100
AcDbEntity
  8
0
100
AcDbBlockEnd
  0
BLOCK
  5
11D
330
116
100
AcDbEntity
  8
0
100
AcDbBlockBegin
  2
*D4
 70
     1
 10
0.0
 20
0.0
 30
0.0
  3
*D4
  1

  0
LINE
  5
117
330
116
100
AcDbEntity
  8
1
  6
Continuous
 62
     2
100
AcDbLine
 10
260.053203074445
 20
327.1227499331
 30
0.0
 11
260.053203074445
 21
295.1227499331
 31
0.0
  0
LINE
  5
118
330
116
100
AcDbEntity
  8
1
  6
Continuous
 62
     2
100
AcDbLine
 10
181.5341629209
 20
327.1227499331
 30
0.0
 11
262.053203074445
 21
327.1227499331
 31
0.0
  0
LINE
  5
119
330
116
100
AcDbEntity
  8
1
  6
Continuous
 62
     2
100
AcDbLine
 10
181.5341629209
 20
295.1227499331
 30
0.0
 11
262.053203074445
 21
295.1227499331
 31
0.0
  0
SOLID
  5
11A
330
116
100
AcDbEntity
  8
1
 62
     2
100
AcDbTrace
 10
260.5139868160009
 20
323.6227499331
 30
0.0
 11
259.5924193328891
 21
323.6227499331
 31
0.0
 12
260.053203074445
 22
327.1227499331
 32
0.0
 13
260.053203074445
 23
327.1227499331
 33
0.0
  0
SOLID
  5
11B
330
116
100
AcDbEntity
  8
1
 62
     2
100
AcDbTrace
 10
259.5924193328891
 20
298.6227499331
 30
0.0
 11
260.5139868160009
 21
298.6227499331
 31
0.0
 12
260.053203074445
 22
295.1227499331
 32
0.0
 13
260.053203074445
 23
295.1227499331
 33
0.0
  0
MTEXT
  5
11C
330
116
100
AcDbEntity
  8
1
 62
     3
100
AcDbMText
 10
258.053203074445
 20
302.599265645996
 30
0.0
 40
3.5
 41
0.0
 71
     7
 72
     1
  1
\C3;%%c\C3;\C3;32\C2;\H2.45;\S^ ;\C3;
  7
CONVERTER_11
 11
0.0
 21
1.0
 31
0.0
 73
     1
 44
0.60024009603842
  0
ENDBLK
  5
11E
330
116
100
AcDbEntity
  8
0
100
AcDbBlockEnd
  0
BLOCK
  5
128
330
121
100
AcDbEntity
  8
0
100
AcDbBlockBegin
  2
*D5
 70
     1
 10
0.0
 20
0.0
 30
0.0
  3
*D5
  1

  0
LINE
  5
122
330
121
100
AcDbEntity
  8
1
  6
Continuous
 62
     2
100
AcDbLine
 10
230.3589818656
 20
369.481276487749
 30
0.0
 11
99.3589818656
 21
369.481276487749
 31
0.0
  0
LINE
  5
123
330
121
100
AcDbEntity
  8
1
  6
Continuous
 62
     2
100
AcDbLine
 10
230.3589818656
 20
324.1983594414
 30
0.0
 11
230.3589818656
 21
371.481276487749
 31
0.0
  0
LINE
  5
124
330
121
100
AcDbEntity
  8
1
  6
Continuous
 62
     2
100
AcDbLine
 10
99.3589818656
 20
363.122713012
 30
0.0
 11
99.3589818656
 21
371.481276487749
 31
0.0
  0
SOLID
  5
125
330
121
100
AcDbEntity
  8
1
 62
     2
100
AcDbTrace
 10
226.8589818656
 20
369.0204927461932
 30
0.0
 11
226.8589818656
 21
369.9420602293049
 31
0.0
 12
230.3589818656
 22
369.481276487749
 32
0.0
 13
230.3589818656
 23
369.481276487749
 33
0.0
  0
SOLID
  5
126
330
121
100
AcDbEntity
  8
1
 62
     2
100
AcDbTrace
 10
102.8589818656
 20
369.9420602293049
 30
0.0
 11
102.8589818656
 21
369.0204927461932
 31
0.0
 12
99.3589818656
 22
369.481276487749
 32
0.0
 13
99.3589818656
 23
369.481276487749
 33
0.0
  0
MTEXT
  5
127
330
121
100
AcDbEntity
  8
1
 62
     3
100
AcDbMText
 10
162.318651266126
 20
371.481276487749
 30
0.0
 40
3.5
 41
0.0
 71
     7
 72
     1
  1
\C3;\C3;\C3;131\C2;\H2.45;\S^ ;\C3;
  7
CONVERTER_11
 11
0.9999999999970619
 21
2.424068405545306E-6
 31
0.0
 73
     1
 44
0.60024009603842
  0
ENDBLK
  5
129
330
121
100
AcDbEntity
  8
0
100
AcDbBlockEnd
  0
BLOCK
  5
133
330
12C
100
AcDbEntity
  8
0
100
AcDbBlockBegin
  2
*D6
 70
     1
 10
0.0
 20
0.0
 30
0.0
  3
*D6
  1

  0
LINE
  5
12D
330
12C
100
AcDbEntity
  8
1
  6
Continuous
 62
     2
100
AcDbLine
 10
230.3589818656
 20
377.609538439275
 30
0.0
 11
70.3589818656
 21
377.609538439275
 31
0.0
  0
LINE
  5
12E
330
12C
100
AcDbEntity
  8
1
  6
Continuous
 62
     2
100
AcDbLine
 10
230.3589818656
 20
324.1983594414
 30
0.0
 11
230.3589818656
 21
379.609538439275
 31
0.0
  0
LINE
  5
12F
330
12C
100
AcDbEntity
  8
1
  6
Continuous
 62
     2
100
AcDbLine
 10
70.3589818656
 20
363.1227499331
 30
0.0
 11
70.3589818656
 21
379.609538439275
 31
0.0
  0
SOLID
  5
130
330
12C
100
AcDbEntity
  8
1
 62
     2
100
AcDbTrace
 10
226.8589818656
 20
377.1487546977191
 30
0.0
 11
226.8589818656
 21
378.0703221808309
 31
0.0
 12
230.3589818656
 22
377.609538439275
 32
0.0
 13
230.3589818656
 23
377.609538439275
 33
0.0
  0
SOLID
  5
131
330
12C
100
AcDbEntity
  8
1
 62
     2
100
AcDbTrace
 10
73.8589818656
 20
378.0703221808309
 30
0.0
 11
73.8589818656
 21
377.1487546977191
 31
0.0
 12
70.3589818656
 22
377.609538439275
 32
0.0
 13
70.3589818656
 23
377.609538439275
 33
0.0
  0
MTEXT
  5
132
330
12C
100
AcDbEntity
  8
1
 62
     3
100
AcDbMText
 10
144.80845947061
 20
379.609538439275
 30
0.0
 40
3.5
 41
0.0
 71
     7
 72
     1
  1
\C3;\C3;\C3;160\C2;\H2.45;\S^ ;\C3;
  7
CONVERTER_11
 11
0.9999999999970619
 21
2.424068405545306E-6
 31
0.0
 73
     1
 44
0.60024009603842
  0
ENDBLK
  5
134
330
12C
100
AcDbEntity
  8
0
100
AcDbBlockEnd
  0
BLOCK
  5
13E
330
137
100
AcDbEntity
  8
0
100
AcDbBlockBegin
  2
*D7
 70
     1
 10
0.0
 20
0.0
 30
0.0
  3
*D7
  1

  0
LINE
  5
138
330
137
100
AcDbEntity
  8
1
  6
Continuous
 62
     2
100
AcDbLine
 10
230.3589818656
 20
384.487298552104
 30
0.0
 11
20.3589818656
 21
384.487298552104
 31
0.0
  0
LINE
  5
139
330
137
100
AcDbEntity
  8
1
  6
Continuous
 62
     2
100
AcDbLine
 10
230.3589818656
 20
324.1983594414
 30
0.0
 11
230.3589818656
 21
386.487298552104
 31
0.0
  0
LINE
  5
13A
330
137
100
AcDbEntity
  8
1
  6
Continuous
 62
     2
100
AcDbLine
 10
20.3589818656
 20
346.7229414957
 30
0.0
 11
20.3589818656
 21
386.487298552104
 31
0.0
  0
SOLID
  5
13B
330
137
100
AcDbEntity
  8
1
 62
     2
100
AcDbTrace
 10
226.8589818656
 20
384.0265148105481
 30
0.0
 11
226.8589818656
 21
384.9480822936599
 31
0.0
 12
230.3589818656
 22
384.487298552104
 32
0.0
 13
230.3589818656
 23
384.487298552104
 33
0.0
  0
SOLID
  5
13C
330
137
100
AcDbEntity
  8
1
 62
     2
100
AcDbTrace
 10
23.8589818656
 20
384.9480822936599
 30
0.0
 11
23.8589818656
 21
384.0265148105481
 31
0.0
 12
20.3589818656
 22
384.487298552104
 32
0.0
 13
20.3589818656
 23
384.487298552104
 33
0.0
  0
MTEXT
  5
13D
330
137
100
AcDbEntity
  8
1
 62
     3
100
AcDbMText
 10
123.966762159005
 20
386.487298552104
 30
0.0
 40
3.5
 41
0.0
 71
     7
 72
     1
  1
\C3;\C3;\C3;210\C2;\H2.45;\S^ ;\C3;
  7
CONVERTER_11
 11
0.9999999999970619
 21
2.424068405545306E-6
 31
0.0
 73
     1
 44
0.60024009603842
  0
ENDBLK
  5
13F
330
137
100
AcDbEntity
  8
0
100
AcDbBlockEnd
  0
BLOCK
  5
146
330
142
100
AcDbEntity
  8
0
100
AcDbBlockBegin
  2
*D8
 70
     1
 10
0.0
 20
0.0
 30
0.0
  3
*D8
  1

  0
LINE
  5
143
330
142
100
AcDbEntity
  8
1
  6
Continuous
 62
     2
100
AcDbLine
 10
115.6795920653496
 20
346.7206806784428
 30
0.0
 11
108.7791738970228
 21
335.6507505447099
 31
0.0
  0
SOLID
  5
144
330
142
100
AcDbEntity
  8
1
 62
     2
100
AcDbTrace
 10
110.239606394462
 20
338.8646980515783
 30
0.0
 11
111.0216741885885
 21
338.3771977015076
 31
0.0
 12
108.7791738970228
 22
335.6507505447099
 32
0.0
 13
108.7791738970228
 23
335.6507505447099
 33
0.0
  0
MTEXT
  5
145
330
142
100
AcDbEntity
  8
1
 62
     3
100
AcDbMText
 10
108.7241718867723
 20
339.3433010528955
 30
0.0
 40
3.5
 41
0.0
 71
     7
 72
     1
  1
\C3; R\C3;\C3;20\C2;\H2.45;\S^ ;\C3;
  7
CONVERTER_11
 11
0.5289903984292706
 21
0.8486278090951542
 31
0.0
 73
     1
 44
0.60024009603842
  0
ENDBLK
  5
147
330
142
100
AcDbEntity
  8
0
100
AcDbBlockEnd
  0
BLOCK
  5
150
330
149
100
AcDbEntity
  8
0
100
AcDbBlockBegin
  2
*D9
 70
     1
 10
0.0
 20
0.0
 30
0.0
  3
*D9
  1

  0
LINE
  5
14A
330
149
100
AcDbEntity
  8
1
  6
Continuous
 62
     2
100
AcDbLine
 10
209.0781943559306
 20
327.1227499331
 30
0.0
 11
211.0781943559306
 21
327.1227499331
 31
0.0
  0
LINE
  5
14B
330
149
100
AcDbEntity
  8
1
  6
Continuous
 62
     2
100
AcDbLine
 10
181.5341629209
 20
327.1227499331
 30
0.0
 11
209.0781943559306
 21
327.1227499331
 31
0.0
  0
ARC
  5
14C
330
149
100
AcDbEntity
  8
1
  6
Continuous
 62
     2
100
AcDbCircle
 10
179.5341629209
 20
327.1227499331
 30
0.0
 40
29.54403143503062
100
AcDbArc
 50
345.3184903064388
 51
19.48435851740348
  0
SOLID
  5
14D
330
149
100
AcDbEntity
  8
1
 62
     2
100
AcDbTrace
 10
208.9628544547928
 20
321.2746339783366
 30
0.0
 11
208.0500195214632
 21
321.401200207727
 31
0.0
 12
208.9871199668399
 22
324.8047519425706
 32
0.0
 13
208.9871199668399
 23
324.8047519425706
 33
0.0
  0
SOLID
  5
14E
330
149
100
AcDbEntity
  8
1
 62
     2
100
AcDbTrace
 10
208.4110222698622
 20
330.5893337073731
 30
0.0
 11
209.3309735096432
 21
330.6438895719003
 31
0.0
 12
209.0781943559306
 22
327.1227499331
 32
0.0
 13
209.0781943559306
 23
327.1227499331
 33
0.0
  0
MTEXT
  5
14F
330
149
100
AcDbEntity
  8
1
 62
     3
100
AcDbMText
 10
209.4578991566448
 20
337.7101081431434
 30
0.0
 40
3.5
 41
0.0
 71
     7
 72
     1
  1
\C3;\C3;\C3;4.5%%d\C2;\H2.45;\S^ ;\C3;
  7
CONVERTER_11
 11
0.2264839079891488
 21
-0.9740149071867239
 31
0.0
 73
     1
 44
0.60024009603842
  0
ENDBLK
  5
151
330
149
100
AcDbEntity
  8
0
100
AcDbBlockEnd
  0
ENDSEC
  0
SECTION
  2
ENTITIES
  0
INSERT
  5
6C
330
1F
100
AcDbEntity
  8
0
100
AcDbBlockReference
  2
Urheberrecht_DE-EN
 10
9.77642326778508
 20
323.629542402218
 30
0.0
  0
LINE
  5
70
330
1F
100
AcDbEntity
  8
BEZUGSACHSEN
  6
Continuous
 62
     7
100
AcDbLine
 10
20.3589818656
 20
277.5225583701
 30
0.0
 11
20.3589818656
 21
299.1127499331
 31
0.0
  0
LINE
  5
71
330
1F
100
AcDbEntity
  8
BEZUGSACHSEN
  6
Continuous
 62
     7
100
AcDbLine
 10
20.3589818656
 20
323.1327499331
 30
0.0
 11
20.3589818656
 21
344.7229414957
 31
0.0
  0
LINE
  5
72
330
1F
100
AcDbEntity
  8
BEZUGSACHSEN
  6
Continuous
 62
     9
100
AcDbLine
 10
22.2589073809
 20
346.7204362014
 30
0.0
 11
22.2589073809
 21
326.7992823193
 31
0.0
  0
LINE
  5
73
330
1F
100
AcDbEntity
  8
BEZUGSACHSEN
  6
Continuous
 62
     9
100
AcDbLine
 10
22.2589073809
 20
295.4462175468
 30
0.0
 11
22.2589073809
 21
275.5250636648
 31
0.0
  0
LINE
  5
74
330
1F
100
AcDbEntity
  8
BEZUGSACHSEN
  6
Continuous
 62
     7
100
AcDbLine
 10
22.3589818656
 20
298.7191099847
 30
0.0
 11
22.3589818656
 21
301.1127499331
 31
0.0
  0
LINE
  5
75
330
1F
100
AcDbEntity
  8
BEZUGSACHSEN
  6
Continuous
 62
     7
100
AcDbLine
 10
22.3589818656
 20
321.1327499331
 30
0.0
 11
22.3589818656
 21
323.5263898815
 31
0.0
  0
LINE
  5
76
330
1F
100
AcDbEntity
  8
BEZUGSACHSEN
  6
Continuous
 62
     9
100
AcDbLine
 10
28.3589818656
 20
294.7641023456
 30
0.0
 11
28.3589818656
 21
301.1127499331
 31
0.0
  0
LINE
  5
77
330
1F
100
AcDbEntity
  8
BEZUGSACHSEN
  6
Continuous
 62
     9
100
AcDbLine
 10
28.3589818656
 20
321.1327499331
 30
0.0
 11
28.3589818656
 21
327.4813975205
 31
0.0
  0
LINE
  5
78
330
1F
100
AcDbEntity
  8
BEZUGSACHSEN
  6
Continuous
 62
     7
100
AcDbLine
 10
30.3589818656
 20
323.9924054589
 30
0.0
 11
30.3589818656
 21
298.2530944073
 31
0.0
  0
LINE
  5
79
330
1F
100
AcDbEntity
  8
BEZUGSACHSEN
  6
Continuous
 62
     7
100
AcDbLine
 10
21.6259347926
 20
296.1127499331
 30
0.0
 11
21.5048245412
 21
295.8804139376
 31
0.0
  0
LINE
  5
7A
330
1F
100
AcDbEntity
  8
BEZUGSACHSEN
  6
Continuous
 62
     7
100
AcDbLine
 10
21.5048245412
 20
326.3650859285
 30
0.0
 11
21.6259347926
 21
326.1327499331
 31
0.0
  0
LWPOLYLINE
  5
7B
330
1F
100
AcDbEntity
  8
BEZUGSACHSEN
  6
DOT_CENTER
 62
     7
100
AcDbPolyline
 90
        2
 70
     0
 43
0.25
 10
55.3589818656
 20
311.1227499331
 10
55.3589818656
 20
302.1227499331
  0
LWPOLYLINE
  5
7C
330
1F
100
AcDbEntity
  8
BEZUGSACHSEN
  6
DOT_CENTER
 62
     7
100
AcDbPolyline
 90
        2
 70
     0
 43
0.25
 10
55.3589818656
 20
311.1227499331
 10
55.3589818656
 20
320.1227499331
  0
LINE
  5
7D
330
1F
100
AcDbEntity
  8
BEZUGSACHSEN
  6
Continuous
 62
     7
100
AcDbLine
 10
20.3589818656
 20
299.1127499331
 30
0.0
 11
22.3589818656
 21
301.1127499331
 31
0.0
  0
LINE
  5
7E
330
1F
100
AcDbEntity
  8
BEZUGSACHSEN
  6
Continuous
 62
     7
100
AcDbLine
 10
22.3589818656
 20
321.1327499331
 30
0.0
 11
20.3589818656
 21
323.1327499331
 31
0.0
  0
LINE
  5
7F
330
1F
100
AcDbEntity
  8
BEZUGSACHSEN
  6
Continuous
 62
     7
100
AcDbLine
 10
67.8589818656
 20
349.0049999331
 30
0.0
 11
67.8589818656
 21
273.2404999331
 31
0.0
  0
LINE
  5
80
330
1F
100
AcDbEntity
  8
BEZUGSACHSEN
  6
Continuous
 62
     9
100
AcDbLine
 10
68.4782254796
 20
273.4064257594
 30
0.0
 11
68.4782254796
 21
348.8390741068
 31
0.0
  0
LINE
  5
81
330
1F
100
AcDbEntity
  8
BEZUGSACHSEN
  6
Continuous
 62
     9
100
AcDbLine
 10
68.7370445247
 20
273.4404999331
 30
0.0
 11
68.7370445247
 21
348.8049999331
 31
0.0
  0
LINE
  5
82
330
1F
100
AcDbEntity
  8
BEZUGSACHSEN
  6
Continuous
 62
     9
100
AcDbLine
 10
69.658410577
 20
273.4404999331
 30
0.0
 11
69.658410577
 21
348.8049999331
 31
0.0
  0
LINE
  5
83
330
1F
100
AcDbEntity
  8
BEZUGSACHSEN
  6
Continuous
 62
     7
100
AcDbLine
 10
70.3589818656
 20
361.1227499331
 30
0.0
 11
70.3589818656
 21
261.1227499331
 31
0.0
  0
LWPOLYLINE
  5
84
330
1F
100
AcDbEntity
  8
BEZUGSACHSEN
  6
DOT_CENTER
 62
     7
100
AcDbPolyline
 90
        2
 70
     0
 43
0.25
 10
77.3589818656
 20
353.2721217884
 10
77.3589818656
 20
364.1227499331
  0
LINE
  5
85
330
1F
100
AcDbEntity
  8
BEZUGSACHSEN
  6
Continuous
 62
     7
100
AcDbLine
 10
92.2339818656
 20
358.7453451973
 30
0.0
 11
93.6065771298
 21
361.1227499331
 31
0.0
  0
LINE
  5
86
330
1F
100
AcDbEntity
  8
BEZUGSACHSEN
  6
Continuous
 62
     7
100
AcDbLine
 10
87.1113866014
 20
261.1227499331
 30
0.0
 11
70.3589818656
 21
261.1227499331
 31
0.0
  0
LINE
  5
87
330
1F
100
AcDbEntity
  8
BEZUGSACHSEN
  6
Continuous
 62
     7
100
AcDbLine
 10
93.6065771298
 20
261.1227499331
 30
0.0
 11
99.3589818656
 21
261.1227499331
 31
0.0
  0
LINE
  5
88
330
1F
100
AcDbEntity
  8
BEZUGSACHSEN
  6
Continuous
 62
     7
100
AcDbLine
 10
89.4839818656
 20
265.1227499331
 30
0.0
 11
91.2339818656
 21
265.1227499331
 31
0.0
  0
LINE
  5
89
330
1F
100
AcDbEntity
  8
BEZUGSACHSEN
  6
Continuous
 62
     7
100
AcDbLine
 10
92.2339818656
 20
263.5001546689
 30
0.0
 11
93.6065771298
 21
261.1227499331
 31
0.0
  0
LINE
  5
8A
330
1F
100
AcDbEntity
  8
FASEN
  6
Continuous
 62
     9
100
AcDbLine
 10
83.3308557875
 20
279.2227499331
 30
0.0
 11
83.3308557875
 21
279.6227499331
 31
0.0
  0
LINE
  5
8B
330
1F
100
AcDbEntity
  8
FASEN
  6
Continuous
 62
     9
100
AcDbLine
 10
85.3589818656
 20
301.5227499331
 30
0.0
 11
85.3589818656
 21
301.1227499331
 31
0.0
  0
LINE
  5
8C
330
1F
100
AcDbEntity
  8
FASEN
  6
Continuous
 62
     9
100
AcDbLine
 10
85.3589818656
 20
320.7227499331
 30
0.0
 11
85.3589818656
 21
321.1227499331
 31
0.0
  0
LINE
  5
8D
330
1F
100
AcDbEntity
  8
0
  6
Continuous
 62
     7
100
AcDbLine
 10
87.1113866014
 20
361.1227499331
 30
0.0
 11
87.1113866014
 21
321.1227499331
 31
0.0
  0
LINE
  5
8E
330
1F
100
AcDbEntity
  8
0
  6
Continuous
 62
     7
100
AcDbLine
 10
87.1113866014
 20
301.1227499331
 30
0.0
 11
87.1113866014
 21
279.6227499331
 31
0.0
  0
LINE
  5
8F
330
1F
100
AcDbEntity
  8
0
  6
Continuous
 62
     7
100
AcDbLine
 10
87.1113866014
 20
272.2929933024
 30
0.0
 11
87.1113866014
 21
261.1227499331
 31
0.0
  0
LINE
  5
90
330
1F
100
AcDbEntity
  8
FASEN
  6
Continuous
 62
     7
100
AcDbLine
 10
75.7604678301
 20
272.2929933024
 30
0.0
 11
87.1113866014
 21
272.2929933024
 31
0.0
  0
LINE
  5
91
330
1F
100
AcDbEntity
  8
0
  6
Continuous
 62
     7
100
AcDbLine
 10
93.6065771298
 20
272.2929933024
 30
0.0
 11
99.3589818656
 21
272.2929933024
 31
0.0
  0
LINE
  5
92
330
1F
100
AcDbEntity
  8
BEZUGSACHSEN
  6
Continuous
 62
     7
100
AcDbLine
 10
67.8589818656
 20
273.2404999331
 30
0.0
 11
22.2589073809
 21
275.5250636648
 31
0.0
  0
LINE
  5
93
330
1F
100
AcDbEntity
  8
0
  6
Continuous
 62
     7
100
AcDbLine
 10
88.4839818656
 20
358.7453117708
 30
0.0
 11
88.4839818656
 21
321.1227499331
 31
0.0
  0
LINE
  5
94
330
1F
100
AcDbEntity
  8
0
  6
Continuous
 62
     7
100
AcDbLine
 10
88.4839818656
 20
301.1227499331
 30
0.0
 11
88.4839818656
 21
279.6227499331
 31
0.0
  0
LINE
  5
95
330
1F
100
AcDbEntity
  8
0
  6
Continuous
 62
     7
100
AcDbLine
 10
88.4839818656
 20
263.5001922028
 30
0.0
 11
88.4839818656
 21
276.2408061799
 31
0.0
  0
LINE
  5
96
330
1F
100
AcDbEntity
  8
0
  6
Continuous
 62
     9
100
AcDbLine
 10
89.4839818656
 20
265.1227499331
 30
0.0
 11
89.4839818656
 21
277.6003693494
 31
0.0
  0
LINE
  5
97
330
1F
100
AcDbEntity
  8
0
  6
Continuous
 62
     9
100
AcDbLine
 10
89.4839818656
 20
279.6227499331
 30
0.0
 11
89.4839818656
 21
301.1227499331
 31
0.0
  0
LINE
  5
98
330
1F
100
AcDbEntity
  8
0
  6
Continuous
 62
     9
100
AcDbLine
 10
89.4839818656
 20
321.1227499331
 30
0.0
 11
89.4839818656
 21
357.1227499331
 31
0.0
  0
LINE
  5
99
330
1F
100
AcDbEntity
  8
0
  6
Continuous
 62
     9
100
AcDbLine
 10
91.2339818656
 20
265.1227499331
 30
0.0
 11
91.2339818656
 21
277.6003693494
 31
0.0
  0
LINE
  5
9A
330
1F
100
AcDbEntity
  8
0
  6
Continuous
 62
     9
100
AcDbLine
 10
91.2339818656
 20
279.6227499331
 30
0.0
 11
91.2339818656
 21
301.1227499331
 31
0.0
  0
LINE
  5
9B
330
1F
100
AcDbEntity
  8
0
  6
Continuous
 62
     9
100
AcDbLine
 10
91.2339818656
 20
321.1227499331
 30
0.0
 11
91.2339818656
 21
357.1227499331
 31
0.0
  0
LINE
  5
9C
330
1F
100
AcDbEntity
  8
0
  6
Continuous
 62
     7
100
AcDbLine
 10
92.2339818656
 20
263.5001922028
 30
0.0
 11
92.2339818656
 21
276.2408061799
 31
0.0
  0
LINE
  5
9D
330
1F
100
AcDbEntity
  8
0
  6
Continuous
 62
     7
100
AcDbLine
 10
92.2339818656
 20
279.6227499331
 30
0.0
 11
92.2339818656
 21
301.1227499331
 31
0.0
  0
LINE
  5
9E
330
1F
100
AcDbEntity
  8
0
  6
Continuous
 62
     7
100
AcDbLine
 10
92.2339818656
 20
321.1227499331
 30
0.0
 11
92.2339818656
 21
358.7453117708
 31
0.0
  0
LINE
  5
9F
330
1F
100
AcDbEntity
  8
0
  6
Continuous
 62
     7
100
AcDbLine
 10
93.6065771298
 20
361.1227499331
 30
0.0
 11
93.6065771298
 21
321.1227499331
 31
0.0
  0
LINE
  5
A0
330
1F
100
AcDbEntity
  8
0
  6
Continuous
 62
     7
100
AcDbLine
 10
93.6065771298
 20
301.1227499331
 30
0.0
 11
93.6065771298
 21
279.6227499331
 31
0.0
  0
LINE
  5
A1
330
1F
100
AcDbEntity
  8
0
  6
Continuous
 62
     7
100
AcDbLine
 10
93.6065771298
 20
272.2929933024
 30
0.0
 11
93.6065771298
 21
261.1227499331
 31
0.0
  0
LINE
  5
A2
330
1F
100
AcDbEntity
  8
BEZUGSACHSEN
  6
Continuous
 62
     9
100
AcDbLine
 10
20.3589818656
 20
297.6765659641
 30
0.0
 11
22.3589818656
 21
298.7191099847
 31
0.0
  0
LINE
  5
A3
330
1F
100
AcDbEntity
  8
BEZUGSACHSEN
  6
Continuous
 62
     7
100
AcDbLine
 10
69.658410577
 20
273.4404999331
 30
0.0
 11
68.7370445247
 21
273.4404999331
 31
0.0
  0
LINE
  5
A4
330
1F
100
AcDbEntity
  8
0
  6
Continuous
 62
     7
100
AcDbLine
 10
89.4839818656
 20
277.6003693494
 30
0.0
 11
91.2339818656
 21
277.6003693494
 31
0.0
  0
LINE
  5
A5
330
1F
100
AcDbEntity
  8
FASEN
  6
Continuous
 62
     7
100
AcDbLine
 10
83.3308557875
 20
279.2227499331
 30
0.0
 11
99.3589818656
 21
279.2227499331
 31
0.0
  0
LINE
  5
A6
330
1F
100
AcDbEntity
  8
0
  6
Continuous
 62
     7
100
AcDbLine
 10
83.3308557875
 20
279.6227499331
 30
0.0
 11
99.3589818656
 21
279.6227499331
 31
0.0
  0
LINE
  5
A7
330
1F
100
AcDbEntity
  8
BEZUGSACHSEN
  6
Continuous
 62
     9
100
AcDbLine
 10
22.3589818656
 20
323.5263898815
 30
0.0
 11
20.3589818656
 21
324.5689339021
 31
0.0
  0
LINE
  5
A8
330
1F
100
AcDbEntity
  8
0
  6
Continuous
 62
     7
100
AcDbLine
 10
99.3589818656
 20
361.122713012
 30
0.0
 11
99.3589818656
 21
321.1227499331
 31
0.0
  0
LINE
  5
A9
330
1F
100
AcDbEntity
  8
0
  6
Continuous
 62
     7
100
AcDbLine
 10
99.3589818656
 20
301.1227499331
 30
0.0
 11
99.3589818656
 21
279.6227499331
 31
0.0
  0
LINE
  5
AA
330
1F
100
AcDbEntity
  8
0
  6
Continuous
 62
     7
100
AcDbLine
 10
99.3589818656
 20
272.2929933024
 30
0.0
 11
99.3589818656
 21
261.1227518009
 31
0.0
  0
LINE
  5
AB
330
1F
100
AcDbEntity
  8
FASEN
  6
Continuous
 62
     7
100
AcDbLine
 10
99.3589818656
 20
272.2929933024
 30
0.0
 11
99.3589818656
 21
279.6227499331
 31
0.0
  0
LINE
  5
AC
330
1F
100
AcDbEntity
  8
FASEN
  6
Continuous
 62
     7
100
AcDbLine
 10
99.3589818656
 20
301.1227499331
 30
0.0
 11
99.3589818656
 21
321.1227499331
 31
0.0
  0
LINE
  5
AD
330
1F
100
AcDbEntity
  8
BEZUGSACHSEN
  6
Continuous
 62
     7
100
AcDbLine
 10
68.4782254796
 20
273.4064257594
 30
0.0
 11
67.8589818656
 21
273.2404999331
 31
0.0
  0
LINE
  5
AE
330
1F
100
AcDbEntity
  8
RUNDUNGEN
  6
Continuous
 62
     7
100
AcDbLine
 10
229.4374409614
 20
299.050223091
 30
0.0
 11
179.5341629209
 21
295.1227499331
 31
0.0
  0
LINE
  5
AF
330
1F
100
AcDbEntity
  8
0
  6
Continuous
 62
     7
100
AcDbLine
 10
179.5341629209
 20
295.1227499331
 30
0.0
 11
229.4374409614
 21
299.050223091
 31
0.0
  0
LINE
  5
B0
330
1F
100
AcDbEntity
  8
0
  6
Continuous
 62
     7
100
AcDbLine
 10
179.5341629209
 20
295.1227499331
 30
0.0
 11
169.3589818656
 21
295.1227499331
 31
0.0
  0
LINE
  5
B1
330
1F
100
AcDbEntity
  8
BEZUGSACHSEN
  6
Continuous
 62
     9
100
AcDbLine
 10
29.9128278125
 20
296.1127499331
 30
0.0
 11
21.6259347926
 21
296.1127499331
 31
0.0
  0
LINE
  5
B2
330
1F
100
AcDbEntity
  8
RUNDUNGEN
  6
Continuous
 62
     9
100
AcDbLine
 10
115.0111557787
 20
333.101616013
 30
0.0
 11
115.0111557787
 21
289.1438838531
 31
0.0
  0
LINE
  5
B3
330
1F
100
AcDbEntity
  8
BEZUGSACHSEN
  6
Continuous
 62
     7
100
AcDbLine
 10
87.1113866014
 20
261.1227499331
 30
0.0
 11
88.4839818656
 21
263.5001546689
 31
0.0
  0
LINE
  5
B4
330
1F
100
AcDbEntity
  8
BEZUGSACHSEN
  6
Continuous
 62
     7
100
AcDbLine
 10
28.3589818656
 20
301.1127499331
 30
0.0
 11
22.3589818656
 21
301.1127499331
 31
0.0
  0
LINE
  5
B5
330
1F
100
AcDbEntity
  8
0
  6
Continuous
 62
     7
100
AcDbLine
 10
85.3589818656
 20
301.1227499331
 30
0.0
 11
99.3589818656
 21
301.1227499331
 31
0.0
  0
LINE
  5
B6
330
1F
100
AcDbEntity
  8
FASEN
  6
Continuous
 62
     7
100
AcDbLine
 10
99.3589818656
 20
301.5227499331
 30
0.0
 11
85.3589818656
 21
301.5227499331
 31
0.0
  0
LINE
  5
B7
330
1F
100
AcDbEntity
  8
BEZUGSACHSEN
  6
Continuous
 62
     7
100
AcDbLine
 10
87.1113866014
 20
361.1227499331
 30
0.0
 11
88.4839818656
 21
358.7453451973
 31
0.0
  0
LWPOLYLINE
  5
B8
330
1F
100
AcDbEntity
  8
DEFAULT_2
  6
DASHED
 62
     8
100
AcDbPolyline
 90
        2
 70
     0
 43
0.35
 10
230.3589818656
 20
306.1227499331
 10
188.3589818656
 20
306.1227499331
  0
LWPOLYLINE
  5
B9
330
1F
100
AcDbEntity
  8
BEZUGSACHSEN
  6
DOT_CENTER
 62
     7
100
AcDbPolyline
 90
        2
 70
     0
 43
0.25
 10
233.3589818656
 20
311.1227499331
 10
17.3589818656
 20
311.1227499331
  0
LWPOLYLINE
  5
BA
330
1F
100
AcDbEntity
  8
DEFAULT_2
  6
DASHED
 62
     8
100
AcDbPolyline
 90
        2
 70
     0
 43
0.35
 10
230.3589818656
 20
316.1227499331
 10
188.3589818656
 20
316.1227499331
  0
LINE
  5
BB
330
1F
100
AcDbEntity
  8
FASEN
  6
Continuous
 62
     7
100
AcDbLine
 10
85.3589818656
 20
320.7227499331
 30
0.0
 11
99.3589818656
 21
320.7227499331
 31
0.0
  0
LINE
  5
BC
330
1F
100
AcDbEntity
  8
0
  6
Continuous
 62
     7
100
AcDbLine
 10
85.3589818656
 20
321.1227499331
 30
0.0
 11
99.3589818656
 21
321.1227499331
 31
0.0
  0
LINE
  5
BD
330
1F
100
AcDbEntity
  8
BEZUGSACHSEN
  6
Continuous
 62
     7
100
AcDbLine
 10
28.3589818656
 20
321.1327499331
 30
0.0
 11
22.3589818656
 21
321.1327499331
 31
0.0
  0
LINE
  5
BE
330
1F
100
AcDbEntity
  8
BEZUGSACHSEN
  6
Continuous
 62
     9
100
AcDbLine
 10
21.6259347926
 20
326.1327499331
 30
0.0
 11
29.9128278125
 21
326.1327499331
 31
0.0
  0
LINE
  5
BF
330
1F
100
AcDbEntity
  8
0
  6
Continuous
 62
     7
100
AcDbLine
 10
179.5341629209
 20
327.1227499331
 30
0.0
 11
169.3589818656
 21
327.1227499331
 31
0.0
  0
LINE
  5
C0
330
1F
100
AcDbEntity
  8
RUNDUNGEN
  6
Continuous
 62
     7
100
AcDbLine
 10
229.4374409614
 20
323.1952767752
 30
0.0
 11
179.5341629209
 21
327.1227499331
 31
0.0
  0
LINE
  5
C1
330
1F
100
AcDbEntity
  8
0
  6
Continuous
 62
     7
100
AcDbLine
 10
179.5341629209
 20
327.1227499331
 30
0.0
 11
229.4374409614
 21
323.1952767752
 31
0.0
  0
LINE
  5
C2
330
1F
100
AcDbEntity
  8
BEZUGSACHSEN
  6
Continuous
 62
     7
100
AcDbLine
 10
68.4782254796
 20
348.8390741068
 30
0.0
 11
67.8589818656
 21
349.0049999331
 31
0.0
  0
LINE
  5
C3
330
1F
100
AcDbEntity
  8
BEZUGSACHSEN
  6
Continuous
 62
     7
100
AcDbLine
 10
69.658410577
 20
348.8049999331
 30
0.0
 11
68.7370445247
 21
348.8049999331
 31
0.0
  0
LINE
  5
C4
330
1F
100
AcDbEntity
  8
0
  6
Continuous
 62
     9
100
AcDbLine
 10
169.3589818656
 20
327.1227499331
 30
0.0
 11
169.3589818656
 21
295.1227499331
 31
0.0
  0
LINE
  5
C5
330
1F
100
AcDbEntity
  8
BEZUGSACHSEN
  6
Continuous
 62
     7
100
AcDbLine
 10
67.8589818656
 20
349.0049999331
 30
0.0
 11
22.2589073809
 21
346.7204362014
 31
0.0
  0
LINE
  5
C6
330
1F
100
AcDbEntity
  8
BEZUGSACHSEN
  6
Continuous
 62
     7
100
AcDbLine
 10
89.4839818656
 20
357.1227499331
 30
0.0
 11
91.2339818656
 21
357.1227499331
 31
0.0
  0
LINE
  5
C7
330
1F
100
AcDbEntity
  8
0
  6
Continuous
 62
     7
100
AcDbLine
 10
179.5341629209
 20
327.1227499331
 30
0.0
 11
179.5341629209
 21
295.1227499331
 31
0.0
  0
LINE
  5
C8
330
1F
100
AcDbEntity
  8
BEZUGSACHSEN
  6
Continuous
 62
     7
100
AcDbLine
 10
87.1113866014
 20
361.1227499331
 30
0.0
 11
82.3589818656
 21
361.1227499331
 31
0.0
  0
LINE
  5
C9
330
1F
100
AcDbEntity
  8
BEZUGSACHSEN
  6
Continuous
 62
     7
100
AcDbLine
 10
72.3589818656
 20
361.1227499331
 30
0.0
 11
70.3589818656
 21
361.1227499331
 31
0.0
  0
LINE
  5
CA
330
1F
100
AcDbEntity
  8
BEZUGSACHSEN
  6
Continuous
 62
     7
100
AcDbLine
 10
93.6065771298
 20
361.1227499331
 30
0.0
 11
99.3589818656
 21
361.1227499331
 31
0.0
  0
LWPOLYLINE
  5
CB
330
1F
100
AcDbEntity
  8
DEFAULT_2
  6
DASHED
 62
     8
100
AcDbPolyline
 90
        2
 70
     0
 43
0.35
 10
188.3589818656
 20
316.1227499331
 10
188.3589818656
 20
306.1227499331
  0
LINE
  5
CC
330
1F
100
AcDbEntity
  8
RUNDUNGEN
  6
Continuous
 62
     9
100
AcDbLine
 10
229.4374409614
 20
299.050223091
 30
0.0
 11
229.4374409614
 21
323.1952767752
 31
0.0
  0
LINE
  5
CD
330
1F
100
AcDbEntity
  8
RUNDUNGEN
  6
Continuous
 62
     7
100
AcDbLine
 10
230.3589818656
 20
322.1983594414
 30
0.0
 11
230.3589818656
 21
300.0471404247
 31
0.0
  0
LWPOLYLINE
  5
CE
330
1F
100
AcDbEntity
  8
1
  6
Continuous
 62
     7
100
AcDbPolyline
 90
        2
 70
     0
 43
0.25
 10
230.3589818656
 20
322.1983594414
 10
230.3589818656
 20
323.1227499330681
  0
LWPOLYLINE
  5
CF
330
1F
100
AcDbEntity
  8
1
  6
Continuous
 62
     7
100
AcDbPolyline
 90
        2
 70
     0
 43
0.25
 10
229.4374409614
 20
323.1952767752
 10
230.3589818656105
 20
323.1227499330681
  0
LWPOLYLINE
  5
D0
330
1F
100
AcDbEntity
  8
1
  6
Continuous
 62
     7
100
AcDbPolyline
 90
        2
 70
     0
 43
0.25
 10
229.4374409614
 20
299.050223091
 10
230.3589818656
 20
299.1227499331344
  0
LWPOLYLINE
  5
D1
330
1F
100
AcDbEntity
  8
1
  6
Continuous
 62
     7
100
AcDbPolyline
 90
        2
 70
     0
 43
0.25
 10
230.3589818656
 20
300.0471404247
 10
230.3589818656
 20
299.1227499331344
  0
ARC
  5
D2
330
1F
100
AcDbEntity
  8
FASEN
  6
Continuous
 62
     7
100
AcDbCircle
 10
88.2596358885
 20
286.6540132031
 30
0.0
 40
19.03859487309966
100
AcDbArc
 50
227.4837701982989
 51
228.9651953375289
  0
ARC
  5
D3
330
1F
100
AcDbEntity
  8
FASEN
  6
Continuous
 62
     7
100
AcDbCircle
 10
83.3308557875
 20
271.6227499331
 30
0.0
 40
8.0
100
AcDbArc
 50
90.0
 51
172.8323734889971
  0
ARC
  5
D4
330
1F
100
AcDbEntity
  8
FASEN
  6
Continuous
 62
     7
100
AcDbCircle
 10
83.3308557875
 20
271.6227499331
 30
0.0
 40
7.599982194900008
100
AcDbArc
 50
90.0
 51
174.9405171273017
  0
ARC
  5
D5
330
1F
100
AcDbEntity
  8
BEZUGSACHSEN
  6
Continuous
 62
     7
100
AcDbCircle
 10
28.3589818656
 20
303.1127499331
 30
0.0
 40
2.0
100
AcDbArc
 50
270.0
 51
355.2355361864933
  0
ARC
  5
D6
330
1F
100
AcDbEntity
  8
BEZUGSACHSEN
  6
Continuous
 62
     7
100
AcDbCircle
 10
22.3589818656
 20
277.52255837
 30
0.0
 40
2.0
100
AcDbArc
 50
179.9999999971356
 51
267.1318795135584
  0
ARC
  5
D7
330
1F
100
AcDbEntity
  8
BEZUGSACHSEN
  6
Continuous
 62
     7
100
AcDbCircle
 10
89.4839818656
 20
264.1227499331
 30
0.0
 40
1.0
100
AcDbArc
 50
90.0
 51
180.0
  0
ARC
  5
D8
330
1F
100
AcDbEntity
  8
BEZUGSACHSEN
  6
Continuous
 62
     7
100
AcDbCircle
 10
68.7370445247
 20
272.4404999331
 30
0.0
 40
1.0
100
AcDbArc
 50
90.0
 51
104.9999999996981
  0
ARC
  5
D9
330
1F
100
AcDbEntity
  8
BEZUGSACHSEN
  6
Continuous
 62
     7
100
AcDbCircle
 10
69.658410577
 20
272.4404999331
 30
0.0
 40
0.9999999999998127
100
AcDbArc
 50
45.49026120128689
 51
90.0
  0
ARC
  5
DA
330
1F
100
AcDbEntity
  8
0
  6
Continuous
 62
     7
100
AcDbCircle
 10
-154.2387980176
 20
380.5572175238
 30
0.0
 40
264.5204223909507
100
AcDbArc
 50
335.8400764706018
 51
336.5770705490999
  0
ARC
  5
DB
330
1F
100
AcDbEntity
  8
BEZUGSACHSEN
  6
Continuous
 62
     7
100
AcDbCircle
 10
77.3741898768
 20
411.1755197
 30
0.0
 40
50.3034002103998
100
AcDbArc
 50
264.2781515102
 51
269.9826780125999
  0
ARC
  5
DC
330
1F
100
AcDbEntity
  8
BEZUGSACHSEN
  6
Continuous
 62
     7
100
AcDbCircle
 10
77.3437738646
 20
411.1755194992
 30
0.0
 40
50.30340000959737
100
AcDbArc
 50
270.017321976058
 51
275.7218485011545
  0
ARC
  5
DD
330
1F
100
AcDbEntity
  8
0
  6
Continuous
 62
     7
100
AcDbCircle
 10
85.3589818656
 20
311.1227499331
 30
0.0
 40
10.0
100
AcDbArc
 50
90.0
 51
270.0
  0
ARC
  5
DE
330
1F
100
AcDbEntity
  8
FASEN
  6
Continuous
 62
     7
100
AcDbCircle
 10
85.3589818656
 20
311.1227499331
 30
0.0
 40
9.599999195900011
100
AcDbArc
 50
90.0
 51
270.0
  0
ARC
  5
DF
330
1F
100
AcDbEntity
  8
BEZUGSACHSEN
  6
Continuous
 62
     7
100
AcDbCircle
 10
28.3589818656
 20
319.1327499331
 30
0.0
 40
1.999999999999988
100
AcDbArc
 50
4.76446378498878
 51
90.0
  0
ARC
  5
E0
330
1F
100
AcDbEntity
  8
BEZUGSACHSEN
  6
Continuous
 62
     7
100
AcDbCircle
 10
22.3589818656
 20
344.7229414961
 30
0.0
 40
2.000000000047347
100
AcDbArc
 50
92.86812048629827
 51
180.0000000114593
  0
ARC
  5
E1
330
1F
100
AcDbEntity
  8
BEZUGSACHSEN
  6
Continuous
 62
     7
100
AcDbCircle
 10
89.4839818656
 20
358.1227499331
 30
0.0
 40
1.0
100
AcDbArc
 50
180.0
 51
270.0
  0
ARC
  5
E2
330
1F
100
AcDbEntity
  8
BEZUGSACHSEN
  6
Continuous
 62
     7
100
AcDbCircle
 10
68.7370445247
 20
349.8049999331
 30
0.0
 40
1.000000000009914
100
AcDbArc
 50
255.0000000003019
 51
270.0
  0
ARC
  5
E3
330
1F
100
AcDbEntity
  8
BEZUGSACHSEN
  6
Continuous
 62
     7
100
AcDbCircle
 10
69.658410577
 20
349.8049999331
 30
0.0
 40
1.0
100
AcDbArc
 50
270.0
 51
314.5097387987131
  0
ARC
  5
E4
330
1F
100
AcDbEntity
  8
BEZUGSACHSEN
  6
Continuous
 62
     7
100
AcDbCircle
 10
206.6890284638
 20
-1294.9200093569
 30
0.0
 40
1632.172763698
100
AcDbArc
 50
96.2726189838
 51
96.48809068979999
  0
ARC
  5
E5
330
1F
100
AcDbEntity
  8
0
  6
Continuous
 62
     7
100
AcDbCircle
 10
169.3589818656
 20
45.1227499331
 30
0.0
 40
250.0
100
AcDbArc
 50
90.0
 51
102.5558577985753
  0
ARC
  5
E6
330
1F
100
AcDbEntity
  8
RUNDUNGEN
  6
Continuous
 62
     7
100
AcDbCircle
 10
169.3589818656
 20
45.1227499331
 30
0.0
 40
250.0
100
AcDbArc
 50
90.0
 51
102.5558577985753
  0
ARC
  5
E7
330
1F
100
AcDbEntity
  8
RUNDUNGEN
  6
Continuous
 62
     7
100
AcDbCircle
 10
119.3589818656
 20
269.6221931395
 30
0.0
 40
19.99999999998465
100
AcDbArc
 50
102.5558577984299
 51
180.0
  0
ARC
  5
E8
330
1F
100
AcDbEntity
  8
RUNDUNGEN
  6
Continuous
 62
     7
100
AcDbCircle
 10
229.3589818656
 20
300.0471404247
 30
0.0
 40
0.9999999999726054
100
AcDbArc
 50
274.5000000042713
 51
0.0
  0
ARC
  5
E9
330
1F
100
AcDbEntity
  8
BEZUGSACHSEN
  6
Continuous
 62
     7
100
AcDbCircle
 10
91.2339818656
 20
264.1227499331
 30
0.0
 40
1.0
100
AcDbArc
 50
0.0
 51
90.0
  0
ARC
  5
EA
330
1F
100
AcDbEntity
  8
BEZUGSACHSEN
  6
Continuous
 62
     7
100
AcDbCircle
 10
206.6890284638
 20
1917.1655092231
 30
0.0
 40
1632.172763698
100
AcDbArc
 50
263.5119093102
 51
263.7273810162
  0
ARC
  5
EB
330
1F
100
AcDbEntity
  8
0
  6
Continuous
 62
     7
100
AcDbCircle
 10
334.9567617485
 20
380.5572175236
 30
0.0
 40
264.5204223905998
100
AcDbArc
 50
203.4229294508999
 51
204.1599235293853
  0
ARC
  5
EC
330
1F
100
AcDbEntity
  8
0
  6
Continuous
 62
     7
100
AcDbCircle
 10
169.3589818656
 20
577.1227499331
 30
0.0
 40
250.0000000000466
100
AcDbArc
 50
257.4441422014297
 51
270.0
  0
ARC
  5
ED
330
1F
100
AcDbEntity
  8
RUNDUNGEN
  6
Continuous
 62
     7
100
AcDbCircle
 10
169.3589818656
 20
577.1227499331
 30
0.0
 40
250.0000000000466
100
AcDbArc
 50
257.4441422014297
 51
270.0
  0
ARC
  5
EE
330
1F
100
AcDbEntity
  8
RUNDUNGEN
  6
Continuous
 62
     7
100
AcDbCircle
 10
119.3589818656
 20
352.6233067266
 30
0.0
 40
20.0
100
AcDbArc
 50
180.0
 51
257.4441422015701
  0
ARC
  5
EF
330
1F
100
AcDbEntity
  8
BEZUGSACHSEN
  6
Continuous
 62
     7
100
AcDbCircle
 10
91.2339818656
 20
358.1227499331
 30
0.0
 40
1.0
100
AcDbArc
 50
270.0
 51
0.0
  0
ARC
  5
F0
330
1F
100
AcDbEntity
  8
RUNDUNGEN
  6
Continuous
 62
     7
100
AcDbCircle
 10
229.3589818656
 20
322.1983594414
 30
0.0
 40
1.0
100
AcDbArc
 50
0.0
 51
85.49999999617846
  0
CIRCLE
  5
F1
330
1F
100
AcDbEntity
  8
BEZUGSACHSEN
  6
Continuous
 62
     7
100
AcDbCircle
 10
55.3589818656
 20
311.1227499331
 30
0.0
 40
6.0
  0
SPLINE
  5
F2
330
1F
100
AcDbEntity
  8
BEZUGSACHSEN
  6
Continuous
 62
     7
100
AcDbSpline
210
0.0
220
0.0
230
1.0
 70
     8
 71
     3
 72
    19
 73
    15
 74
    13
 42
0.0000000001
 43
0.0000000001
 44
0.00000001
 40
0.0
 40
0.0
 40
0.0
 40
0.0
 40
0.2679411643010107
 40
0.5361267936528944
 40
0.8065304773348803
 40
1.07646599320807
 40
1.213913376124708
 40
1.351353104848829
 40
1.491586367023501
 40
1.631807897514153
 40
1.775491562731302
 40
1.919219204712084
 40
2.065713007354791
 40
2.211936409363566
 40
2.211936409363566
 40
2.211936409363566
 40
2.211936409363566
 10
29.9128278125
 20
296.1127499331
 30
0.0
 10
29.87893356873535
 20
296.030078353394
 30
0.0
 10
29.81111415666316
 20
295.864659765811
 30
0.0
 10
29.68647565037107
 20
295.6259937921558
 30
0.0
 10
29.54156485103299
 20
295.3983057961469
 30
0.0
 10
29.39852121951064
 20
295.2225013048214
 30
0.0
 10
29.26941483261627
 20
295.0945515856793
 30
0.0
 10
29.16329973355698
 20
295.0054645648622
 30
0.0
 10
29.04849030590862
 20
294.9261629245436
 30
0.0
 10
28.92403069367258
 20
294.8584924571146
 30
0.0
 10
28.79117713853747
 20
294.8056897704339
 30
0.0
 10
28.65052633965631
 20
294.7705235064416
 30
0.0
 10
28.50520095653405
 20
294.7541713045678
 30
0.0
 10
28.40769153745671
 20
294.7607940378628
 30
0.0
 10
28.3589818656
 20
294.7641023456
 30
0.0
 11
29.9128278125
 21
296.1127499331
 31
0.0
 11
29.80739055286856
 21
295.8664260572609
 31
0.0
 11
29.68352103730444
 21
295.6285608119964
 31
0.0
 11
29.53717555099116
 21
295.4011819414201
 31
0.0
 11
29.36592335986266
 21
295.1925246392153
 31
0.0
 11
29.26813092118335
 21
295.0959408827767
 31
0.0
 11
29.16271393192865
 21
295.007753936984
 31
0.0
 11
29.04717528821523
 21
294.9282794780113
 31
0.0
 11
28.92385327832186
 21
294.8615429850782
 31
0.0
 11
28.79022259012201
 21
294.8087430341174
 31
0.0
 11
28.65079488891423
 21
294.7738496077269
 31
0.0
 11
28.50510045038355
 21
294.7585667809611
 31
0.0
 11
28.3589818656
 21
294.7641023456
 31
0.0
  0
SPLINE
  5
F3
330
1F
100
AcDbEntity
  8
BEZUGSACHSEN
  6
Continuous
 62
     7
100
AcDbSpline
210
0.0
220
0.0
230
1.0
 70
     8
 71
     3
 72
    47
 73
    43
 74
    41
 42
0.0000000001
 43
0.0000000001
 44
0.00000001
 40
0.0
 40
0.0
 40
0.0
 40
0.0
 40
0.6302393214488238
 40
1.260854867304457
 40
1.577476088397275
 40
1.893930800238208
 40
2.210999113888281
 40
2.528183472224685
 40
3.164887038250826
 40
3.801951183390166
 40
4.442851001621228
 40
5.083381259781491
 40
5.404527292285395
 40
5.725573838718502
 40
6.046670709998207
 40
6.367871027135878
 40
7.009090242532793
 40
7.650619763934341
 40
8.290330346466053
 40
8.929958764456758
 40
9.568647011343298
 40
10.20735923014628
 40
10.84445705816394
 40
11.48152626494972
 40
12.1164346222085
 40
12.7514196557757
 40
13.38691908736289
 40
14.02211738531038
 40
14.34050449143684
 40
14.65879153793301
 40
14.97761586869813
 40
15.29653774946335
 40
15.93537694103642
 40
16.57458694070947
 40
17.21386274995044
 40
17.85277859078212
 40
18.17219860087706
 40
18.49150024082365
 40
18.81067156641334
 40
19.13001452426609
 40
19.76719627028043
 40
20.40398968278004
 40
20.40398968278004
 40
20.40398968278004
 40
20.40398968278004
 10
61.8583955035
 20
311.1227499518
 30
0.0
 10
61.85252630172985
 20
310.9125939299151
 30
0.0
 10
61.8407843945412
 20
310.4921564324932
 30
0.0
 10
61.76133765202518
 20
309.9709929902352
 30
0.0
 10
61.67060614693261
 20
309.5596015228078
 30
0.0
 10
61.58700076461384
 20
309.253963682507
 30
0.0
 10
61.48864882323818
 20
308.9525798363115
 30
0.0
 10
61.33763001238331
 20
308.5566066567211
 30
0.0
 10
61.1123474247763
 20
308.07549984805
 30
0.0
 10
60.78596939002355
 20
307.5258656230583
 30
0.0
 10
60.40610232800598
 20
307.0101377603837
 30
0.0
 10
60.04784788873396
 20
306.6126123581721
 30
0.0
 10
59.73866715105569
 20
306.3170590032597
 30
0.0
 10
59.49574219502058
 20
306.1068740948406
 30
0.0
 10
59.24269329169897
 20
305.9089646305113
 30
0.0
 10
58.89291078324407
 20
305.6623412790164
 30
0.0
 10
58.4334255454911
 20
305.3871346697209
 30
0.0
 10
57.85302983852993
 20
305.1130945630061
 30
0.0
 10
57.24887553069959
 20
304.8979060856491
 30
0.0
 10
56.6274603832939
 20
304.7432442466089
 30
0.0
 10
55.99419117185128
 20
304.6504338735774
 30
0.0
 10
55.35573170741019
 20
304.6199231237693
 30
0.0
 10
54.7178986938553
 20
304.6520248661511
 30
0.0
 10
54.08746870686216
 20
304.7458379285275
 30
0.0
 10
53.46989503736497
 20
304.9005517448168
 30
0.0
 10
52.87075162593207
 20
305.1143483168903
 30
0.0
 10
52.29529440446593
 20
305.3856696853468
 30
0.0
 10
51.8396090115108
 20
305.6575145689955
 30
0.0
 10
51.49235311376016
 20
305.900975121587
 30
0.0
 10
51.24073353245535
 20
306.0964576479068
 30
0.0
 10
50.99885848217995
 20
306.3041507065965
 30
0.0
 10
50.68992219849397
 20
306.5969882547295
 30
0.0
 10
50.33107944160617
 20
306.9914459036819
 30
0.0
 10
49.94885253636905
 20
307.5049305696483
 30
0.0
 10
49.61922809110355
 20
308.0536983483672
 30
0.0
 10
49.39074064518063
 20
308.5357617648625
 30
0.0
 10
49.23723914522034
 20
308.9331713240397
 30
0.0
 10
49.13698234229708
 20
309.2364536873318
 30
0.0
 10
49.05166584937204
 20
309.544277559035
 30
0.0
 10
48.95890339401338
 20
309.9593184261378
 30
0.0
 10
48.87761102712633
 20
310.4855912251993
 30
0.0
 10
48.8655712275836
 20
310.9104068748804
 30
0.0
 10
48.8595531628
 20
311.1227499535
 30
0.0
 11
61.8583955035
 21
311.1227499518
 31
0.0
 11
61.82785592472317
 21
310.4932509951461
 31
0.0
 11
61.73652464920759
 21
309.8692841973215
 31
0.0
 11
61.66802991050217
 21
309.5601604867848
 31
0.0
 11
61.58461108564124
 21
309.2548984938915
 31
0.0
 11
61.48622434179119
 21
308.9534812346719
 31
0.0
 11
61.37319371068708
 21
308.6571199794352
 31
0.0
 11
61.10321357417473
 21
308.0804899794532
 31
0.0
 11
60.77787695232139
 21
307.5327612076115
 31
0.0
 11
60.39784045752943
 21
307.0166945068501
 31
0.0
 11
59.96898995986872
 21
306.540914870595
 31
0.0
 11
59.7368528254987
 21
306.3189979378488
 31
0.0
 11
59.49407033216236
 21
306.1089323625966
 31
0.0
 11
59.24114072386402
 21
305.9111197897109
 31
0.0
 11
58.97862632802969
 21
305.7260364687199
 31
0.0
 11
58.42856814643087
 21
305.396494242214
 31
0.0
 11
57.84842731477988
 21
305.12263891128
 31
0.0
 11
57.24582200448832
 21
304.9079380276966
 31
0.0
 11
56.62512273416704
 21
304.7534811439915
 31
0.0
 11
55.99319392024465
 21
304.660806169777
 31
0.0
 11
55.35520779306347
 21
304.6303594955319
 31
0.0
 11
54.7189128049386
 21
304.6623333997664
 31
0.0
 11
54.08878953083094
 21
304.7561514879078
 31
0.0
 11
53.47290562258949
 21
304.91040982216
 31
0.0
 11
52.87487315277051
 21
305.1238651052911
 31
0.0
 11
52.3000374042238
 21
305.3948326120892
 31
0.0
 11
51.75457071668242
 21
305.7203214298664
 31
0.0
 11
51.4938684239055
 21
305.9030908580771
 31
0.0
 11
51.24251917209718
 21
306.0983604091664
 31
0.0
 11
51.00063587374761
 21
306.3060655460008
 31
0.0
 11
50.76918004244742
 21
306.5254723922658
 31
0.0
 11
50.3392570115672
 21
306.9979993229359
 31
0.0
 11
49.9576358721094
 21
307.5107904398645
 31
0.0
 11
49.62840439793035
 21
308.0587687210862
 31
0.0
 11
49.35479009078632
 21
308.6361322656504
 31
0.0
 11
49.23969783832636
 21
308.9340968881691
 31
0.0
 11
49.13945814989948
 21
309.2372561567668
 31
0.0
 11
49.05429106968224
 21
309.5448547645756
 31
0.0
 11
48.98432804220856
 21
309.856439583713
 31
0.0
 11
48.89083914526832
 21
310.4867255534147
 31
0.0
 11
48.8595531628
 21
311.1227499535
 31
0.0
  0
SPLINE
  5
F4
330
1F
100
AcDbEntity
  8
BEZUGSACHSEN
  6
Continuous
 62
     7
100
AcDbSpline
210
0.0
220
0.0
230
1.0
 70
     8
 71
     3
 72
    27
 73
    23
 74
    21
 42
0.0000000001
 43
0.0000000001
 44
0.00000001
 40
0.0
 40
0.0
 40
0.0
 40
0.0
 40
0.1219765139516464
 40
0.2439857714748873
 40
0.356683139830746
 40
0.4694418149413864
 40
0.5721317672392531
 40
0.6745445880580915
 40
0.7225206520855127
 40
0.7704888797429423
 40
0.8171412935565678
 40
0.8637898733630096
 40
0.9102318000352775
 40
0.956675132391927
 40
1.004175175738617
 40
1.051683100130115
 40
1.153672388731246
 40
1.256049376668919
 40
1.370745138093976
 40
1.485385401881114
 40
1.611534903918659
 40
1.737631875963607
 40
1.737631875963607
 40
1.737631875963607
 40
1.737631875963607
 10
21.5048245412
 20
295.8804139376
 30
0.0
 10
21.46956952359661
 20
295.8601344123351
 30
0.0
 10
21.39905002447622
 20
295.819569917937
 30
0.0
 10
21.29139762129111
 20
295.7687740570457
 30
0.0
 10
21.18323960542669
 20
295.7270224211791
 30
0.0
 10
21.07766038447803
 20
295.6976078360369
 30
0.0
 10
20.97282883935126
 20
295.6806932486442
 30
0.0
 10
20.8881011695068
 20
295.67882802542
 30
0.0
 10
20.82227723309374
 20
295.6857833334377
 30
0.0
 10
20.77557002987557
 20
295.6949804605875
 30
0.0
 10
20.7303894125818
 20
295.708513905579
 30
0.0
 10
20.68724980194067
 20
295.7263071643928
 30
0.0
 10
20.64629532535061
 20
295.7485355220915
 30
0.0
 10
20.60764789885264
 20
295.7750705537854
 30
0.0
 10
20.5717418202043
 20
295.8057658313173
 30
0.0
 10
20.5263024986707
 20
295.8533033044383
 30
0.0
 10
20.47775935860986
 20
295.9224726715485
 30
0.0
 10
20.43153364967689
 20
296.0186307262773
 30
0.0
 10
20.39756777587862
 20
296.124206159267
 30
0.0
 10
20.37461235166169
 20
296.2406238501725
 30
0.0
 10
20.36116779329755
 20
296.3623711588301
 30
0.0
 10
20.3597104069996
 20
296.4464745223478
 30
0.0
 10
20.3589818656
 20
296.4885174469
 30
0.0
 11
21.5048245412
 21
295.8804139376
 31
0.0
 11
21.39827991713945
 21
295.8210294864398
 31
0.0
 11
21.28798702797079
 21
295.7688592121431
 31
0.0
 11
21.18266902012116
 21
295.7287491877486
 31
0.0
 11
21.07394529159775
 21
295.6988548794496
 31
0.0
 11
20.97248113951105
 21
295.6830355196565
 31
0.0
 11
20.87008159892855
 21
295.6813862905744
 31
0.0
 11
20.82237774269506
 21
295.68648970316
 31
0.0
 11
20.77532697242468
 21
295.695826505694
 31
0.0
 11
20.73064740501224
 21
295.7092497679828
 31
0.0
 11
20.68754126843336
 21
295.7270809481793
 31
0.0
 11
20.64671867561779
 21
295.7492252130993
 31
0.0
 11
20.60843141904049
 21
295.775513406346
 31
0.0
 11
20.5722943220157
 21
295.8063413861137
 31
0.0
 11
20.53944182164668
 21
295.8406592546298
 31
0.0
 11
20.4802694274237
 21
295.9237281582658
 31
0.0
 11
20.4353697038491
 21
296.0157339324439
 31
0.0
 11
20.39973154426903
 21
296.1247524596337
 31
0.0
 11
20.37687998087164
 21
296.2370921059367
 31
0.0
 11
20.36311322453221
 21
296.3624881716015
 31
0.0
 11
20.3589818656
 21
296.4885174469
 31
0.0
  0
SPLINE
  5
F5
330
1F
100
AcDbEntity
  8
BEZUGSACHSEN
  6
Continuous
 62
     7
100
AcDbSpline
210
0.0
220
0.0
230
1.0
 70
     8
 71
     3
 72
    15
 73
    11
 74
     9
 42
0.0000000001
 43
0.0000000001
 44
0.00000001
 40
0.0
 40
0.0
 40
0.0
 40
0.0
 40
0.1110371613111043
 40
0.2222522337138371
 40
0.3333980191873949
 40
0.4445069474938932
 40
0.5556201065416626
 40
0.6667525642487077
 40
0.7778876033851381
 40
0.8889820915694264
 40
0.8889820915694264
 40
0.8889820915694264
 40
0.8889820915694264
 10
22.2589073809
 20
295.4462175468
 30
0.0
 10
22.22226565403884
 20
295.451749699622
 30
0.0
 10
22.1489234905157
 20
295.4628228692477
 30
0.0
 10
22.04240694051418
 20
295.4958414328162
 30
0.0
 10
21.93999403274753
 20
295.5394317202789
 30
0.0
 10
21.84254406711067
 20
295.5932112280972
 30
0.0
 10
21.75023927137756
 20
295.6553063634622
 30
0.0
 10
21.6632426432511
 20
295.7245930371143
 30
0.0
 10
21.58098988780672
 20
295.7994749887268
 30
0.0
 10
21.53020990140524
 20
295.8534375702188
 30
0.0
 10
21.5048245412
 20
295.8804139376
 30
0.0
 11
22.2589073809
 21
295.4462175468
 31
0.0
 11
22.14956509584916
 21
295.4655441060357
 31
0.0
 11
22.04307314224649
 21
295.4976105393801
 31
0.0
 11
21.94080496161745
 21
295.5411375983131
 31
0.0
 11
21.84340209515977
 21
295.5945967000195
 31
0.0
 11
21.75113032837315
 21
295.6565002957765
 31
0.0
 11
21.66403322496437
 21
295.7255257818944
 31
0.0
 11
21.58199332047783
 21
295.8004954490651
 31
0.0
 11
21.5048245412
 21
295.8804139376
 31
0.0
  0
SPLINE
  5
F6
330
1F
100
AcDbEntity
  8
BEZUGSACHSEN
  6
Continuous
 62
     7
100
AcDbSpline
210
0.0
220
0.0
230
1.0
 70
     8
 71
     3
 72
    27
 73
    23
 74
    21
 42
0.0000000001
 43
0.0000000001
 44
0.00000001
 40
0.0
 40
0.0
 40
0.0
 40
0.0
 40
0.1260969825534383
 40
0.2522464959256716
 40
0.3668867952577732
 40
0.4815825893844973
 40
0.5839596006457682
 40
0.6859489160928206
 40
0.7334568410149821
 40
0.7809568848595577
 40
0.8274002264082708
 40
0.8738421606841824
 40
0.9204907318643181
 40
0.9671431398888222
 40
1.015111401762147
 40
1.06308749705994
 40
1.165500418662788
 40
1.26819047889709
 40
1.380949153840897
 40
1.493646517722044
 40
1.615655563694875
 40
1.73763186755778
 40
1.73763186755778
 40
1.73763186755778
 40
1.73763186755778
 10
20.3589818656
 20
325.7569824193
 30
0.0
 10
20.35971040708388
 20
325.7990253473614
 30
0.0
 10
20.3611677935552
 20
325.8831287181732
 30
0.0
 10
20.374612355564
 20
326.0048760457314
 30
0.0
 10
20.39756778886392
 20
326.1212937621016
 30
0.0
 10
20.43153368919787
 20
326.2268692198788
 30
0.0
 10
20.47775944805637
 20
326.3230272821185
 30
0.0
 10
20.5263026166111
 20
326.392196647777
 30
0.0
 10
20.57174194216845
 20
326.4397341293943
 30
0.0
 10
20.60764802025956
 20
326.4704294128763
 30
0.0
 10
20.64629545135226
 20
326.4969644485886
 30
0.0
 10
20.68724993855745
 20
326.5191927944835
 30
0.0
 10
20.73038956472945
 20
326.5369860113597
 30
0.0
 10
20.7755701993307
 20
326.5505194184205
 30
0.0
 10
20.82227742230079
 20
326.5597165437564
 30
0.0
 10
20.88810141348934
 20
326.5666718641383
 30
0.0
 10
20.97282916549055
 20
326.5648066075004
 30
0.0
 10
21.07766076899868
 20
326.5478919465639
 30
0.0
 10
21.18324001136467
 20
326.5184773137056
 30
0.0
 10
21.29139794946511
 20
326.4767256762362
 30
0.0
 10
21.39905021071964
 20
326.4259298490618
 30
0.0
 10
21.46956958553682
 20
326.3853654208119
 30
0.0
 10
21.5048245412
 20
326.3650859285
 30
0.0
 11
20.3589818656
 21
325.7569824193
 31
0.0
 11
20.36311322519397
 21
325.883011705091
 31
0.0
 11
20.376879984363
 21
326.0084077818479
 31
0.0
 11
20.39973156046496
 21
326.1207474618395
 31
0.0
 11
20.43536974983866
 21
326.2297660136944
 31
0.0
 11
20.4802695146388
 21
326.3217717937067
 31
0.0
 11
20.53944194359294
 21
326.4048407055632
 31
0.0
 11
20.57229444375447
 21
326.4391585750126
 31
0.0
 11
20.60843153868128
 21
326.4699865580068
 31
0.0
 11
20.64671880354272
 21
326.4962747554277
 31
0.0
 11
20.68754141147998
 21
326.5184190084178
 31
0.0
 11
20.73064755509658
 21
326.5362501490334
 31
0.0
 11
20.7753271271307
 21
326.5496733758188
 31
0.0
 11
20.82237793286182
 21
326.5590101754418
 31
0.0
 11
20.8700818201128
 21
326.564113592059
 31
0.0
 11
20.97248146097244
 21
326.562464330695
 31
0.0
 11
21.07394571130758
 21
326.5466449004002
 31
0.0
 11
21.18266942776441
 21
326.5167505488451
 31
0.0
 11
21.28798742006172
 21
326.4766404961871
 31
0.0
 11
21.39828010596712
 21
326.42447028692
 31
0.0
 11
21.5048245412
 21
326.3650859285
 31
0.0
  0
SPLINE
  5
F7
330
1F
100
AcDbEntity
  8
BEZUGSACHSEN
  6
Continuous
 62
     7
100
AcDbSpline
210
0.0
220
0.0
230
1.0
 70
     8
 71
     3
 72
    15
 73
    11
 74
     9
 42
0.0000000001
 43
0.0000000001
 44
0.00000001
 40
0.0
 40
0.0
 40
0.0
 40
0.0
 40
0.1110944831967324
 40
0.2222295182206137
 40
0.333362040264405
 40
0.4444752610827304
 40
0.5555842178662876
 40
0.6667300354300429
 40
0.7779450181763391
 40
0.8889820871814798
 40
0.8889820871814798
 40
0.8889820871814798
 40
0.8889820871814798
 10
21.5048245412
 20
326.3650859285
 30
0.0
 10
21.53020990077352
 20
326.392062294207
 30
0.0
 10
21.58098988611169
 20
326.4460248725629
 30
0.0
 10
21.66324265539579
 20
326.5209068359677
 30
0.0
 10
21.75023930735276
 20
326.5901935448688
 30
0.0
 10
21.84254414777604
 20
326.6522887079415
 30
0.0
 10
21.93999416974131
 20
326.7060682000675
 30
0.0
 10
22.042407083588
 20
326.7496584456624
 30
0.0
 10
22.14892358216726
 20
326.7826770014645
 30
0.0
 10
22.2222656848806
 20
326.793750168061
 30
0.0
 10
22.2589073809
 20
326.7992823193
 30
0.0
 11
21.5048245412
 21
326.3650859285
 31
0.0
 11
21.5819933183144
 21
326.4450044121907
 31
0.0
 11
21.66403321857828
 21
326.5199740778859
 31
0.0
 11
21.75113036718934
 21
326.5889996105505
 31
0.0
 11
21.84340218876192
 21
326.6509032355195
 31
0.0
 11
21.94080509682405
 21
326.7043623206087
 31
0.0
 11
22.04307332019099
 21
326.7478893610696
 31
0.0
 11
22.14956518828108
 21
326.7799557674467
 31
0.0
 11
22.2589073809
 21
326.7992823193
 31
0.0
  0
SPLINE
  5
F8
330
1F
100
AcDbEntity
  8
0
  6
Continuous
 62
     7
100
AcDbSpline
210
0.0
220
0.0
230
1.0
 70
     8
 71
     3
 72
    19
 73
    15
 74
    13
 42
0.0000000001
 43
0.0000000001
 44
0.00000001
 40
0.0
 40
0.0
 40
0.0
 40
0.0
 40
0.1162460235718655
 40
0.2327881717960441
 40
0.3491890045888442
 40
0.4655468550526551
 40
0.5819071369670753
 40
0.6982738488833221
 40
0.8146206072295268
 40
0.930999827770801
 40
1.163276323414182
 40
1.396138921764827
 40
1.629013178065904
 40
1.861351539725962
 40
1.861351539725962
 40
1.861351539725962
 40
1.861351539725962
 10
89.4839818656
 20
277.6003693494
 30
0.0
 10
89.44519779475905
 20
277.5985284025047
 30
0.0
 10
89.36753085469127
 20
277.5948418190935
 30
0.0
 10
89.25392076963453
 20
277.5664363340893
 30
0.0
 10
89.14573308168858
 20
277.5225824198731
 30
0.0
 10
89.04475721572503
 20
277.4639857316489
 30
0.0
 10
88.95198875900161
 20
277.3933008703218
 30
0.0
 10
88.86790138001828
 20
277.3125432652357
 30
0.0
 10
88.79259773664353
 20
277.2235756264939
 30
0.0
 10
88.70394649247534
 20
277.0962161787424
 30
0.0
 10
88.61394974674005
 20
276.9234308006512
 30
0.0
 10
88.53905622757605
 20
276.7025058104634
 30
0.0
 10
88.49251930223357
 20
276.4734858908744
 30
0.0
 10
88.48682549151147
 20
276.3183064980397
 30
0.0
 10
88.4839818656
 20
276.2408061799
 30
0.0
 11
89.4839818656
 21
277.6003693494
 31
0.0
 11
89.36811051404958
 21
277.5910436919889
 31
0.0
 11
89.25478598936152
 21
277.5638476552017
 31
0.0
 11
89.14691285675238
 21
277.5201150456758
 31
0.0
 11
89.0461241172422
 21
277.4619705760118
 31
0.0
 11
88.95343681219467
 21
277.3916230196205
 31
0.0
 11
88.86936144656917
 21
277.3111708938739
 31
0.0
 11
88.79406268863751
 21
277.2224766706594
 31
0.0
 11
88.72743595932221
 21
277.1270565369636
 31
0.0
 11
88.61954617321366
 21
276.92135732821
 31
0.0
 11
88.54378803636192
 21
276.7011626543159
 31
0.0
 11
88.49882802254528
 21
276.4726697301248
 31
0.0
 11
88.4839818656
 21
276.2408061799
 31
0.0
  0
SPLINE
  5
F9
330
1F
100
AcDbEntity
  8
0
  6
Continuous
 62
     7
100
AcDbSpline
210
0.0
220
0.0
230
1.0
 70
     8
 71
     3
 72
    19
 73
    15
 74
    13
 42
0.0000000001
 43
0.0000000001
 44
0.00000001
 40
0.0
 40
0.0
 40
0.0
 40
0.0
 40
0.2323383481142785
 40
0.4652125956936584
 40
0.6980761132641914
 40
0.9303535187232599
 40
1.046733461793709
 40
1.163080940875294
 40
1.279447997464888
 40
1.395808629584575
 40
1.512165904560312
 40
1.628566140402177
 40
1.745106920602407
 40
1.861351602867503
 40
1.861351602867503
 40
1.861351602867503
 40
1.861351602867503
 10
92.2339818656
 20
276.2408061799
 30
0.0
 10
92.23113824000187
 20
276.3183064935583
 30
0.0
 10
92.22544442984777
 20
276.4734858790395
 30
0.0
 10
92.1789074540515
 20
276.7025060930629
 30
0.0
 10
92.10401370826474
 20
276.9234316549504
 30
0.0
 10
92.01401640400928
 20
277.0962177191624
 30
0.0
 10
91.92536446623195
 20
277.2235776449095
 30
0.0
 10
91.85006020188628
 20
277.3125455438459
 30
0.0
 10
91.76597222804668
 20
277.3933032138082
 30
0.0
 10
91.67320349418878
 20
277.463987780173
 30
0.0
 10
91.5722276819209
 20
277.5225840043161
 30
0.0
 10
91.46404063240227
 20
277.5664372554541
 30
0.0
 10
91.35043152305771
 20
277.59484201495
 30
0.0
 10
91.27276548826246
 20
277.598528467612
 30
0.0
 10
91.2339818656
 20
277.6003693494
 30
0.0
 11
92.2339818656
 21
276.2408061799
 31
0.0
 11
92.21913571150787
 21
276.4726697167339
 31
0.0
 11
92.17417570994861
 21
276.7011626344479
 31
0.0
 11
92.09841723125311
 21
276.9213581628337
 31
0.0
 11
91.99052682007357
 21
277.1270580711037
 31
0.0
 11
91.9238994962501
 21
277.2224786709195
 31
0.0
 11
91.8486000396934
 21
277.3111732464633
 31
0.0
 11
91.76452417334056
 21
277.3916253474698
 31
0.0
 11
91.67183634733942
 21
277.4619727967375
 31
0.0
 11
91.57104791242025
 21
277.5201166427259
 31
0.0
 11
91.4631751836266
 21
277.5638486594488
 31
0.0
 11
91.34985189507272
 21
277.591043984801
 31
0.0
 11
91.2339818656
 21
277.6003693494
 31
0.0
  0
SPLINE
  5
FA
330
1F
100
AcDbEntity
  8
BEZUGSACHSEN
  6
Continuous
 62
     7
100
AcDbSpline
210
0.0
220
0.0
230
1.0
 70
     8
 71
     3
 72
    47
 73
    43
 74
    41
 42
0.0000000001
 43
0.0000000001
 44
0.00000001
 40
0.0
 40
0.0
 40
0.0
 40
0.0
 40
0.6366022431821744
 40
1.273595002171231
 40
1.592921746400437
 40
1.91207634489642
 40
2.231392290449246
 40
2.550826842772781
 40
3.189774321198456
 40
3.829081697018571
 40
4.468337152530154
 40
5.10722174480814
 40
5.426176341299165
 40
5.74503335684601
 40
6.063356731624793
 40
6.381780214937827
 40
7.017059195730903
 40
7.652639341047047
 40
8.28753221428667
 40
8.922347946548602
 40
9.559226748632959
 40
10.1961343594317
 40
10.83451785509417
 40
11.47287689980467
 40
12.11234487372373
 40
12.75189588955568
 40
13.39354300525389
 40
14.03487957361665
 40
14.35615205779187
 40
14.6773210772098
 40
14.99840882481936
 40
15.31959604131104
 40
15.96011121036585
 40
16.60099592098974
 40
17.23809108088683
 40
17.87482555211287
 40
18.19205670344099
 40
18.50917199110946
 40
18.82571084637243
 40
19.14241581834003
 40
19.77338975001877
 40
20.40398930748693
 40
20.40398930748693
 40
20.40398930748693
 40
20.40398930748693
 10
48.8595662713
 20
311.1227499136
 30
0.0
 10
48.86557191518671
 20
311.3350297232952
 30
0.0
 10
48.87758688704843
 20
311.7597195631209
 30
0.0
 10
48.95885223225653
 20
312.285862324237
 30
0.0
 10
49.05157182885854
 20
312.7008367003652
 30
0.0
 10
49.13686479300381
 20
313.0086606760671
 30
0.0
 10
49.23710340644138
 20
313.3119533528623
 30
0.0
 10
49.39058895558911
 20
313.7093907154169
 30
0.0
 10
49.6190609023633
 20
314.1914902923012
 30
0.0
 10
49.94867586292438
 20
314.7403061651322
 30
0.0
 10
50.33090308001625
 20
315.2538417044753
 30
0.0
 10
50.68975777714156
 20
315.64834446656
 30
0.0
 10
50.99871113070844
 20
315.9412177646064
 30
0.0
 10
51.24060623968348
 20
316.1489395857216
 30
0.0
 10
51.49224949316919
 20
316.3444489828541
 30
0.0
 10
51.83954360032606
 20
316.5879441855288
 30
0.0
 10
52.29528393508646
 20
316.8598262555735
 30
0.0
 10
52.87076335977622
 20
317.1311553680893
 30
0.0
 10
53.46987412493887
 20
317.3449389989031
 30
0.0
 10
54.08732452740175
 20
317.499628730275
 30
0.0
 10
54.71759508910117
 20
317.5934357139265
 30
0.0
 10
55.35518902383159
 20
317.6255624387325
 30
0.0
 10
55.99336766806424
 20
317.5951328657828
 30
0.0
 10
56.62638008925742
 20
317.5024616106188
 30
0.0
 10
57.24761377369055
 20
317.3479696493923
 30
0.0
 10
57.85174952565454
 20
317.1329325168536
 30
0.0
 10
58.4322285992108
 20
316.8590091511135
 30
0.0
 10
58.89185762342623
 20
316.5838422730501
 30
0.0
 10
59.24175661210985
 20
316.3372325742021
 30
0.0
 10
59.4948882412823
 20
316.1393283818356
 30
0.0
 10
59.73788688064803
 20
315.9291498524323
 30
0.0
 10
60.04713122415514
 20
315.633630512275
 30
0.0
 10
60.40545141495004
 20
315.2361595295113
 30
0.0
 10
60.78540183327815
 20
314.7204927679576
 30
0.0
 10
61.11187486284933
 20
314.1708966114801
 30
0.0
 10
61.33724600281106
 20
313.6897910697683
 30
0.0
 10
61.48833698596199
 20
313.2938008821513
 30
0.0
 10
61.58674990351099
 20
312.9923745313688
 30
0.0
 10
61.67041668168312
 20
312.686679163452
 30
0.0
 10
61.76123603912635
 20
312.2751271457362
 30
0.0
 10
61.84075101479976
 20
311.7537019292143
 30
0.0
 10
61.85252329941549
 20
311.3330256400554
 30
0.0
 10
61.858407695
 20
311.1227499137
 30
0.0
 11
48.8595662713
 21
311.1227499136
 31
0.0
 11
48.89081494233981
 21
311.7585847479578
 31
0.0
 11
48.98425614471341
 21
312.3886867370861
 31
0.0
 11
49.05419665174785
 21
312.700259995014
 31
0.0
 11
49.13933799072399
 21
313.0078483727829
 31
0.0
 11
49.23956252886194
 21
313.3110277174608
 31
0.0
 11
49.35464241861398
 21
313.6090127039832
 31
0.0
 11
49.62823831285831
 21
314.1864199838466
 31
0.0
 11
49.95745782653645
 21
314.7344422759037
 31
0.0
 11
50.33908208188382
 21
315.2472877352108
 31
0.0
 11
50.76901671801263
 21
315.7198654863872
 31
0.0
 11
51.00048897907376
 21
315.9393025547736
 31
0.0
 11
51.24239138010103
 21
316.1470356160341
 31
0.0
 11
51.49376518725552
 21
316.3423327742501
 31
0.0
 11
51.75449446554744
 21
316.5251270798686
 31
0.0
 11
52.30002810975727
 21
316.8506611433284
 31
0.0
 11
52.87493792987598
 21
317.1216608109503
 31
0.0
 11
53.47288411762285
 21
317.3350836706665
 31
0.0
 11
54.08867664984632
 21
317.4893255948799
 31
0.0
 11
54.71860893182398
 21
317.5831335298685
 31
0.0
 11
55.35471205356164
 21
317.6151354549507
 31
0.0
 11
55.99237301258037
 21
317.5847711851991
 31
0.0
 11
56.62399054549093
 21
317.4922424756886
 31
0.0
 11
57.24456341761333
 21
317.3379421190659
 31
0.0
 11
57.84706422474971
 21
317.1234234036779
 31
0.0
 11
58.42737142109584
 21
316.8496450645919
 31
0.0
 11
58.97759640913878
 21
316.5201529456384
 31
0.0
 11
59.24020371330904
 21
316.3350761699896
 31
0.0
 11
59.4932241707256
 21
316.1372626538624
 31
0.0
 11
59.73607247210087
 21
315.9272101742671
 31
0.0
 11
59.96827490750946
 21
315.7053019566906
 31
0.0
 11
60.39719096524119
 21
315.2296017388967
 31
0.0
 11
60.77730162389664
 21
314.7136084254827
 31
0.0
 11
61.10274076958268
 21
314.1659044860962
 31
0.0
 11
61.37282162767826
 21
313.5892875275025
 31
0.0
 11
61.48591207285666
 21
313.2928990078491
 31
0.0
 11
61.58435617619501
 21
312.9914510617772
 31
0.0
 11
61.66783898157063
 21
312.686119327269
 31
0.0
 11
61.73638840501467
 21
312.3769219537121
 31
0.0
 11
61.8278154829392
 21
311.7526069756119
 31
0.0
 11
61.858407695
 21
311.1227499137
 31
0.0
  0
SPLINE
  5
FB
330
1F
100
AcDbEntity
  8
BEZUGSACHSEN
  6
Continuous
 62
     7
100
AcDbSpline
210
0.0
220
0.0
230
1.0
 70
     8
 71
     3
 72
    11
 73
     7
 74
     5
 42
0.0000000001
 43
0.0000000001
 44
0.00000001
 40
0.0
 40
0.0
 40
0.0
 40
0.0
 40
0.5462907431866928
 40
1.093000863684058
 40
1.646070107201717
 40
2.198197048711594
 40
2.198197048711594
 40
2.198197048711594
 40
2.198197048711594
 10
29.9128278125
 20
326.1327499331
 30
0.0
 10
29.97589861436401
 20
325.961818303845
 30
0.0
 10
30.10208863638136
 20
325.6198238242811
 30
0.0
 10
30.24172594941846
 20
325.0885496950514
 30
0.0
 10
30.33921431342777
 20
324.5451252901196
 30
0.0
 10
30.35239642794621
 20
324.1765406495798
 30
0.0
 10
30.3589818656
 20
323.9924054589
 30
0.0
 11
29.9128278125
 21
326.1327499331
 31
0.0
 11
30.09367914512919
 21
325.6172633944031
 31
0.0
 11
30.23417062982751
 21
325.0889130385013
 31
0.0
 11
30.32623728305793
 21
324.5435605657939
 31
0.0
 11
30.3589818656
 21
323.9924054589
 31
0.0
  0
SPLINE
  5
FC
330
1F
100
AcDbEntity
  8
BEZUGSACHSEN
  6
Continuous
 62
     7
100
AcDbSpline
210
0.0
220
0.0
230
1.0
 70
     8
 71
     3
 72
    19
 73
    15
 74
    13
 42
0.0000000001
 43
0.0000000001
 44
0.00000001
 40
0.0
 40
0.0
 40
0.0
 40
0.0
 40
0.1462385988632251
 40
0.2927479275651106
 40
0.4364790706808333
 40
0.5801659236906375
 40
0.7203799973289774
 40
0.8606059383138189
 40
0.998041188428495
 40
1.135484020456396
 40
1.405415631100348
 40
1.675815514097986
 40
1.943997429533883
 40
2.211934834760682
 40
2.211934834760682
 40
2.211934834760682
 40
2.211934834760682
 10
28.3589818656
 20
327.4813975205
 30
0.0
 10
28.40769667096677
 20
327.4847055978473
 30
0.0
 10
28.50521646686004
 20
327.4913278767475
 30
0.0
 10
28.65055272719458
 20
327.4749685639767
 30
0.0
 10
28.79120966429938
 20
327.4397967978683
 30
0.0
 10
28.92406179772916
 20
327.3869911112171
 30
0.0
 10
29.04851626079546
 20
327.3193193234963
 30
0.0
 10
29.16331881796914
 20
327.2400191221237
 30
0.0
 10
29.26942875573513
 20
327.1509344825433
 30
0.0
 10
29.39853122088306
 20
327.0229869469645
 30
0.0
 10
29.54157107076113
 20
326.8471846580556
 30
0.0
 10
29.68647867245638
 20
326.6194991921769
 30
0.0
 10
29.81111542089886
 20
326.3808365727068
 30
0.0
 10
29.87893399206728
 20
326.2154203322738
 30
0.0
 10
29.9128278125
 20
326.1327499331
 30
0.0
 11
28.3589818656
 21
327.4813975205
 31
0.0
 11
28.5051157275044
 21
327.4869312536327
 31
0.0
 11
28.65082508834854
 21
327.4716418599538
 31
0.0
 11
28.7902551698743
 21
327.436743523789
 31
0.0
 11
28.92388750678507
 21
327.3839390707606
 31
0.0
 11
29.04720129760244
 21
327.3172030576904
 31
0.0
 11
29.16273240893014
 21
327.2377305665977
 31
0.0
 11
29.26814495869299
 21
327.1495452938671
 31
0.0
 11
29.3659334623605
 21
327.0529640295022
 31
0.0
 11
29.53718185822176
 21
326.8443086645106
 31
0.0
 11
29.68352427875233
 21
326.6169323405928
 31
0.0
 11
29.8073919045591
 21
326.3790702985519
 31
0.0
 11
29.9128278125
 21
326.1327499331
 31
0.0
  0
SPLINE
  5
FD
330
1F
100
AcDbEntity
  8
BEZUGSACHSEN
  6
Continuous
 62
     7
100
AcDbSpline
210
0.0
220
0.0
230
1.0
 70
     8
 71
     3
 72
    11
 73
     7
 74
     5
 42
0.0000000001
 43
0.0000000001
 44
0.00000001
 40
0.0
 40
0.0
 40
0.0
 40
0.0
 40
0.5521269407036405
 40
1.105196183339711
 40
1.651906304698668
 40
2.198197048720037
 40
2.198197048720037
 40
2.198197048720037
 40
2.198197048720037
 10
30.3589818656
 20
298.2530944073
 30
0.0
 10
30.35239642797225
 20
298.0689592168891
 30
0.0
 10
30.3392143135068
 20
297.7003745769125
 30
0.0
 10
30.24172594970954
 20
297.1569501722269
 30
0.0
 10
30.10208863667706
 20
296.6256760427099
 30
0.0
 10
29.97589861446154
 20
296.2836815626159
 30
0.0
 10
29.9128278125
 20
296.1127499331
 30
0.0
 11
30.3589818656
 21
298.2530944073
 31
0.0
 11
30.32623728317319
 21
297.7019393012069
 31
0.0
 11
30.23417063022982
 21
297.1565868293451
 31
0.0
 11
30.0936791453964
 21
296.6282364725877
 31
0.0
 11
29.9128278125
 21
296.1127499331
 31
0.0
  0
SPLINE
  5
FE
330
1F
100
AcDbEntity
  8
BEZUGSACHSEN
  6
Continuous
 62
     7
100
AcDbSpline
210
0.0
220
0.0
230
1.0
 70
     8
 71
     3
 72
    11
 73
     7
 74
     5
 42
0.0000000001
 43
0.0000000001
 44
0.00000001
 40
0.0
 40
0.0
 40
0.0
 40
0.0
 40
0.9140556660003346
 40
1.828030949185878
 40
2.279806974871119
 40
2.730944124762561
 40
2.730944124762561
 40
2.730944124762561
 40
2.730944124762561
 10
21.6259347924854
 20
296.112749933285
 30
0.0
 10
21.75858949944877
 20
296.3874665309516
 30
0.0
 10
22.02388724761036
 20
296.9368755674788
 30
0.0
 10
22.23924246092299
 20
297.6695864885835
 30
0.0
 10
22.34293667458537
 20
298.2675316946898
 30
0.0
 10
22.35363599210649
 20
298.5686549101165
 30
0.0
 10
22.3589818656
 20
298.7191099847
 30
0.0
 11
21.6259347924854
 21
296.112749933285
 31
0.0
 11
22.00074232226086
 21
296.9464267748555
 31
0.0
 11
22.26003368265873
 21
297.8228506498709
 31
0.0
 11
22.33275065615736
 21
298.2687360826327
 31
0.0
 11
22.3589818656
 21
298.7191099847
 31
0.0
  0
SPLINE
  5
FF
330
1F
100
AcDbEntity
  8
BEZUGSACHSEN
  6
Continuous
 62
     7
100
AcDbSpline
210
0.0
220
0.0
230
1.0
 70
     8
 71
     3
 72
    11
 73
     7
 74
     5
 42
0.0000000001
 43
0.0000000001
 44
0.00000001
 40
0.0
 40
0.0
 40
0.0
 40
0.0
 40
0.8249192366724722
 40
1.650116891930984
 40
2.19049215229343
 40
2.730585915378207
 40
2.730585915378207
 40
2.730585915378207
 40
2.730585915378207
 10
22.3589818656
 20
323.5263898815
 30
0.0
 10
22.34124856126183
 20
323.8015801734769
 30
0.0
 10
22.3057759674159
 20
324.3520536369376
 30
0.0
 10
22.09734115078048
 20
325.0567872220905
 30
0.0
 10
21.8671147198008
 20
325.6490009471707
 30
0.0
 10
21.70631413699883
 20
325.971528280616
 30
0.0
 10
21.6259347924854
 20
326.132749932915
 30
0.0
 11
22.3589818656
 21
323.5263898815
 31
0.0
 11
22.27540641148429
 21
324.3470645371959
 31
0.0
 11
22.05744496937253
 21
325.1429564770953
 31
0.0
 11
21.85950989081333
 21
325.645775656013
 31
0.0
 11
21.6259347924854
 21
326.132749932915
 31
0.0
  0
DIMENSION
  5
10A
330
1F
100
AcDbEntity
  8
1
100
AcDbDimension
  2
*D2
 10
241.85008793341
 20
316.1227499331
 30
0.0
 11
238.10008793341
 21
311.024270800145
 31
0.0
 70
    32
  1
<>
 71
     5
 42
-1.0
 53
90.0
  3
ME10_DIM_10
100
AcDbAlignedDimension
 13
230.3589818656
 23
306.1227499331
 33
0.0
 14
230.3589818656
 24
316.1227499331
 34
0.0
 50
90.0
100
AcDbRotatedDimension
  0
DIMENSION
  5
115
330
1F
100
AcDbEntity
  8
1
100
AcDbDimension
  2
*D3
 10
251.453306157421
 20
323.1227499330681
 30
0.0
 11
247.703306157421
 21
311.310934030712
 31
0.0
 70
    32
  1
<>
 71
     5
 42
-1.0
 53
90.0
  3
ME10_DIM_11
100
AcDbAlignedDimension
 13
230.3589818656
 23
299.1227499331344
 33
0.0
 14
230.3589818656105
 24
323.1227499330681
 34
0.0
 50
90.0
100
AcDbRotatedDimension
  0
DIMENSION
  5
120
330
1F
100
AcDbEntity
  8
1
100
AcDbDimension
  2
*D4
 10
260.053203074445
 20
327.1227499331
 30
0.0
 11
256.303203074445
 21
311.454265645996
 31
0.0
 70
    32
  1
<>
 71
     5
 42
-1.0
 53
90.0
  3
ME10_DIM_12
100
AcDbAlignedDimension
 13
179.5341629209
 23
295.1227499331
 33
0.0
 14
179.5341629209
 24
327.1227499331
 34
0.0
 50
90.0
100
AcDbRotatedDimension
  0
DIMENSION
  5
12B
330
1F
100
AcDbEntity
  8
1
100
AcDbDimension
  2
*D5
 10
230.3589818656
 20
369.481276487749
 30
0.0
 11
164.838651266126
 21
373.231276487749
 31
0.0
 70
    32
  1
<>
 71
     5
 42
-1.0
 53
0.00013888888889
  3
ME10_DIM_13
100
AcDbAlignedDimension
 13
99.3589818656
 23
361.122713012
 33
0.0
 14
230.3589818656
 24
322.1983594414
 34
0.0
100
AcDbRotatedDimension
  0
DIMENSION
  5
136
330
1F
100
AcDbEntity
  8
1
100
AcDbDimension
  2
*D6
 10
230.3589818656
 20
377.609538439275
 30
0.0
 11
147.74845947061
 21
381.359538439275
 31
0.0
 70
    32
  1
<>
 71
     5
 42
-1.0
 53
0.00013888888889
  3
ME10_DIM_14
100
AcDbAlignedDimension
 13
70.3589818656
 23
361.1227499331
 33
0.0
 14
230.3589818656
 24
322.1983594414
 34
0.0
100
AcDbRotatedDimension
  0
DIMENSION
  5
141
330
1F
100
AcDbEntity
  8
1
100
AcDbDimension
  2
*D7
 10
230.3589818656
 20
384.487298552104
 30
0.0
 11
126.906762159005
 21
388.237298552104
 31
0.0
 70
    32
  1
<>
 71
     5
 42
-1.0
 53
0.00013888888889
  3
ME10_DIM_15
100
AcDbAlignedDimension
 13
20.3589818656
 23
344.7229414957
 33
0.0
 14
230.3589818656
 24
322.1983594414
 34
0.0
100
AcDbRotatedDimension
  0
INSERT
  5
148
330
1F
100
AcDbEntity
  8
1
100
AcDbBlockReference
  2
*D8
 10
0.0
 20
0.0
 30
0.0
  0
DIMENSION
  5
153
330
1F
100
AcDbEntity
  8
1
100
AcDbDimension
  2
*D9
 10
209.0554169783916
 20
325.9628567021896
 30
0.0
 11
211.9630458589632
 21
334.6633122852193
 31
0.0
 70
    37
  1
<>
 71
     5
 42
-1.0
  3
ME10_DIM_16
100
AcDb3PointAngularDimension
 13
208.9871199668398
 23
324.8047519425706
 33
0.0
 14
182.488566064403
 24
327.1227499331
 34
0.0
 15
179.5341629209
 25
327.1227499331
 35
0.0
  0
ENDSEC
  0
SECTION
  2
OBJECTS
  0
DICTIONARY
  5
C
330
0
100
AcDbDictionary
281
     1
  3
ACAD_GROUP
350
D
  3
ACAD_LAYOUT
350
1A
  3
ACAD_MLEADERSTYLE
350
156
  3
ACAD_MLINESTYLE
350
17
  3
ACAD_PLOTSETTINGS
350
19
  3
ACAD_PLOTSTYLENAME
350
E
  3
ACAD_SCALELIST
350
4A
  3
ACAD_VISUALSTYLE
350
2A
  3
AcDbVariableDictionary
350
154
  0
DICTIONARY
  5
D
102
{ACAD_REACTORS
330
C
102
}
330
C
100
AcDbDictionary
281
     1
  0
DICTIONARY
  5
1A
102
{ACAD_REACTORS
330
C
102
}
330
C
100
AcDbDictionary
281
     1
  3
Layout1
350
1E
  3
Layout2
350
26
  3
Model
350
22
  0
DICTIONARY
  5
156
102
{ACAD_REACTORS
330
C
102
}
330
C
100
AcDbDictionary
281
     1
  0
DICTIONARY
  5
17
102
{ACAD_REACTORS
330
C
102
}
330
C
100
AcDbDictionary
281
     1
  3
Standard
350
18
  0
DICTIONARY
  5
19
102
{ACAD_REACTORS
330
C
102
}
330
C
100
AcDbDictionary
281
     1
  0
ACDBDICTIONARYWDFLT
  5
E
102
{ACAD_REACTORS
330
C
102
}
330
C
100
AcDbDictionary
281
     1
  3
Normal
350
F
100
AcDbDictionaryWithDefault
340
F
  0
DICTIONARY
  5
4A
102
{ACAD_REACTORS
330
C
102
}
330
C
100
AcDbDictionary
281
     1
  3
A0
350
4B
  3
A1
350
4C
  3
A2
350
4D
  3
A3
350
4E
  3
A4
350
4F
  3
A5
350
50
  3
A6
350
51
  3
A7
350
52
  3
A8
350
53
  3
A9
350
54
  3
B0
350
55
  3
B1
350
56
  3
B2
350
57
  3
B3
350
58
  3
B4
350
59
  3
B5
350
5A
  3
B6
350
5B
  3
B7
350
5C
  3
B8
350
5D
  3
B9
350
5E
  3
C0
350
5F
  3
C1
350
60
  3
C2
350
61
  3
C3
350
62
  3
C4
350
63
  3
C5
350
64
  3
C6
350
65
  3
C7
350
66
  3
C8
350
67
  3
C9
350
68
  3
D0
350
69
  3
D1
350
6A
  3
D2
350
6B
  0
DICTIONARY
  5
2A
102
{ACAD_REACTORS
330
C
102
}
330
C
100
AcDbDictionary
281
     1
  3
2dWireframe
350
2F
  3
3D Hidden
350
31
  3
3dWireframe
350
30
  3
Basic
350
32
  3
Brighten
350
36
  3
ColorChange
350
3A
  3
Conceptual
350
34
  3
Dim
350
35
  3
Facepattern
350
39
  3
Flat
350
2B
  3
FlatWithEdges
350
2C
  3
Gouraud
350
2D
  3
GouraudWithEdges
350
2E
  3
Linepattern
350
38
  3
Realistic
350
33
  3
Thicken
350
37
  0
DICTIONARY
  5
154
102
{ACAD_REACTORS
330
C
102
}
330
C
100
AcDbDictionary
281
     1
  3
CANNOSCALE
350
157
  0
LAYOUT
  5
1E
102
{ACAD_REACTORS
330
1A
102
}
330
1A
100
AcDbPlotSettings
  1

  2
none_device
  4

  6

 40
0.0
 41
0.0
 42
0.0
 43
0.0
 44
0.0
 45
0.0
 46
0.0
 47
0.0
 48
0.0
 49
0.0
140
0.0
141
0.0
142
1.0
143
1.0
 70
   688
 72
     0
 73
     0
 74
     5
  7

 75
    16
147
1.0
148
0.0
149
0.0
100
AcDbLayout
  1
Layout1
 70
     1
 71
     1
 10
0.0
 20
0.0
 11
12.0
 21
9.0
 12
0.0
 22
0.0
 32
0.0
 14
1.00000000000000E+20
 24
1.00000000000000E+20
 34
1.00000000000000E+20
 15
-1.00000000000000E+20
 25
-1.00000000000000E+20
 35
-1.00000000000000E+20
146
0.0
 13
0.0
 23
0.0
 33
0.0
 16
1.0
 26
0.0
 36
0.0
 17
0.0
 27
1.0
 37
0.0
 76
     0
330
1B
  0
LAYOUT
  5
26
102
{ACAD_REACTORS
330
1A
102
}
330
1A
100
AcDbPlotSettings
  1

  2
none_device
  4

  6

 40
0.0
 41
0.0
 42
0.0
 43
0.0
 44
0.0
 45
0.0
 46
0.0
 47
0.0
 48
0.0
 49
0.0
140
0.0
141
0.0
142
1.0
143
1.0
 70
   688
 72
     0
 73
     0
 74
     5
  7

 75
    16
147
1.0
148
0.0
149
0.0
100
AcDbLayout
  1
Layout2
 70
     1
 71
     2
 10
0.0
 20
0.0
 11
0.0
 21
0.0
 12
0.0
 22
0.0
 32
0.0
 14
0.0
 24
0.0
 34
0.0
 15
0.0
 25
0.0
 35
0.0
146
0.0
 13
0.0
 23
0.0
 33
0.0
 16
1.0
 26
0.0
 36
0.0
 17
0.0
 27
1.0
 37
0.0
 76
     0
330
23
  0
LAYOUT
  5
22
102
{ACAD_REACTORS
330
1A
102
}
330
1A
100
AcDbPlotSettings
  1

  2
none_device
  4

  6

 40
0.0
 41
0.0
 42
0.0
 43
0.0
 44
0.0
 45
0.0
 46
0.0
 47
0.0
 48
0.0
 49
0.0
140
0.0
141
0.0
142
1.0
143
1.0
 70
  1712
 72
     0
 73
     0
 74
     0
  7

 75
     0
147
1.0
148
0.0
149
0.0
100
AcDbLayout
  1
Model
 70
     1
 71
     0
 10
0.0
 20
0.0
 11
12.0
 21
9.0
 12
0.0
 22
0.0
 32
0.0
 14
-4.22357673221492
 24
261.1227499331
 34
0.0
 15
262.053203074445
 25
389.987298552104
 35
0.0
146
0.0
 13
0.0
 23
0.0
 33
0.0
 16
1.0
 26
0.0
 36
0.0
 17
0.0
 27
1.0
 37
0.0
 76
     0
330
1F
331
29
  0
MLINESTYLE
  5
18
102
{ACAD_REACTORS
330
17
102
}
330
17
100
AcDbMlineStyle
  2
Standard
 70
     0
  3

 62
   256
 51
90.0
 52
90.0
 71
     2
 49
0.5
 62
   256
  6
BYLAYER
 49
-0.5
 62
   256
  6
BYLAYER
  0
ACDBPLACEHOLDER
  5
F
102
{ACAD_REACTORS
330
E
102
}
330
E
  0
SCALE
  5
4B
102
{ACAD_REACTORS
330
4A
102
}
330
4A
100
AcDbScale
 70
     0
300
1:1
140
1.0
141
1.0
290
     1
  0
SCALE
  5
4C
102
{ACAD_REACTORS
330
4A
102
}
330
4A
100
AcDbScale
 70
     0
300
1:2
140
1.0
141
2.0
290
     0
  0
SCALE
  5
4D
102
{ACAD_REACTORS
330
4A
102
}
330
4A
100
AcDbScale
 70
     0
300
1:4
140
1.0
141
4.0
290
     0
  0
SCALE
  5
4E
102
{ACAD_REACTORS
330
4A
102
}
330
4A
100
AcDbScale
 70
     0
300
1:5
140
1.0
141
5.0
290
     0
  0
SCALE
  5
4F
102
{ACAD_REACTORS
330
4A
102
}
330
4A
100
AcDbScale
 70
     0
300
1:8
140
1.0
141
8.0
290
     0
  0
SCALE
  5
50
102
{ACAD_REACTORS
330
4A
102
}
330
4A
100
AcDbScale
 70
     0
300
1:10
140
1.0
141
10.0
290
     0
  0
SCALE
  5
51
102
{ACAD_REACTORS
330
4A
102
}
330
4A
100
AcDbScale
 70
     0
300
1:16
140
1.0
141
16.0
290
     0
  0
SCALE
  5
52
102
{ACAD_REACTORS
330
4A
102
}
330
4A
100
AcDbScale
 70
     0
300
1:20
140
1.0
141
20.0
290
     0
  0
SCALE
  5
53
102
{ACAD_REACTORS
330
4A
102
}
330
4A
100
AcDbScale
 70
     0
300
1:30
140
1.0
141
30.0
290
     0
  0
SCALE
  5
54
102
{ACAD_REACTORS
330
4A
102
}
330
4A
100
AcDbScale
 70
     0
300
1:40
140
1.0
141
40.0
290
     0
  0
SCALE
  5
55
102
{ACAD_REACTORS
330
4A
102
}
330
4A
100
AcDbScale
 70
     0
300
1:50
140
1.0
141
50.0
290
     0
  0
SCALE
  5
56
102
{ACAD_REACTORS
330
4A
102
}
330
4A
100
AcDbScale
 70
     0
300
1:100
140
1.0
141
100.0
290
     0
  0
SCALE
  5
57
102
{ACAD_REACTORS
330
4A
102
}
330
4A
100
AcDbScale
 70
     0
300
2:1
140
2.0
141
1.0
290
     0
  0
SCALE
  5
58
102
{ACAD_REACTORS
330
4A
102
}
330
4A
100
AcDbScale
 70
     0
300
4:1
140
4.0
141
1.0
290
     0
  0
SCALE
  5
59
102
{ACAD_REACTORS
330
4A
102
}
330
4A
100
AcDbScale
 70
     0
300
8:1
140
8.0
141
1.0
290
     0
  0
SCALE
  5
5A
102
{ACAD_REACTORS
330
4A
102
}
330
4A
100
AcDbScale
 70
     0
300
10:1
140
10.0
141
1.0
290
     0
  0
SCALE
  5
5B
102
{ACAD_REACTORS
330
4A
102
}
330
4A
100
AcDbScale
 70
     0
300
100:1
140
100.0
141
1.0
290
     0
  0
SCALE
  5
5C
102
{ACAD_REACTORS
330
4A
102
}
330
4A
100
AcDbScale
 70
     0
300
1/128" = 1'-0"
140
0.0078125
141
12.0
290
     0
  0
SCALE
  5
5D
102
{ACAD_REACTORS
330
4A
102
}
330
4A
100
AcDbScale
 70
     0
300
1/64" = 1'-0"
140
0.015625
141
12.0
290
     0
  0
SCALE
  5
5E
102
{ACAD_REACTORS
330
4A
102
}
330
4A
100
AcDbScale
 70
     0
300
1/32" = 1'-0"
140
0.03125
141
12.0
290
     0
  0
SCALE
  5
5F
102
{ACAD_REACTORS
330
4A
102
}
330
4A
100
AcDbScale
 70
     0
300
1/16" = 1'-0"
140
0.0625
141
12.0
290
     0
  0
SCALE
  5
60
102
{ACAD_REACTORS
330
4A
102
}
330
4A
100
AcDbScale
 70
     0
300
3/32" = 1'-0"
140
0.09375
141
12.0
290
     0
  0
SCALE
  5
61
102
{ACAD_REACTORS
330
4A
102
}
330
4A
100
AcDbScale
 70
     0
300
1/8" = 1'-0"
140
0.125
141
12.0
290
     0
  0
SCALE
  5
62
102
{ACAD_REACTORS
330
4A
102
}
330
4A
100
AcDbScale
 70
     0
300
3/16" = 1'-0"
140
0.1875
141
12.0
290
     0
  0
SCALE
  5
63
102
{ACAD_REACTORS
330
4A
102
}
330
4A
100
AcDbScale
 70
     0
300
1/4" = 1'-0"
140
0.25
141
12.0
290
     0
  0
SCALE
  5
64
102
{ACAD_REACTORS
330
4A
102
}
330
4A
100
AcDbScale
 70
     0
300
3/8" = 1'-0"
140
0.375
141
12.0
290
     0
  0
SCALE
  5
65
102
{ACAD_REACTORS
330
4A
102
}
330
4A
100
AcDbScale
 70
     0
300
1/2" = 1'-0"
140
0.5
141
12.0
290
     0
  0
SCALE
  5
66
102
{ACAD_REACTORS
330
4A
102
}
330
4A
100
AcDbScale
 70
     0
300
3/4" = 1'-0"
140
0.75
141
12.0
290
     0
  0
SCALE
  5
67
102
{ACAD_REACTORS
330
4A
102
}
330
4A
100
AcDbScale
 70
     0
300
1" = 1'-0"
140
1.0
141
12.0
290
     0
  0
SCALE
  5
68
102
{ACAD_REACTORS
330
4A
102
}
330
4A
100
AcDbScale
 70
     0
300
1-1/2" = 1'-0"
140
1.5
141
12.0
290
     0
  0
SCALE
  5
69
102
{ACAD_REACTORS
330
4A
102
}
330
4A
100
AcDbScale
 70
     0
300
3" = 1'-0"
140
3.0
141
12.0
290
     0
  0
SCALE
  5
6A
102
{ACAD_REACTORS
330
4A
102
}
330
4A
100
AcDbScale
 70
     0
300
6" = 1'-0"
140
6.0
141
12.0
290
     0
  0
SCALE
  5
6B
102
{ACAD_REACTORS
330
4A
102
}
330
4A
100
AcDbScale
 70
     0
300
1'-0" = 1'-0"
140
12.0
141
12.0
290
     0
  0
VISUALSTYLE
  5
2F
102
{ACAD_REACTORS
330
2A
102
}
330
2A
100
AcDbVisualStyle
  2
2dWireframe
 70
     4
 71
     0
 72
     2
 73
     0
 90
        0
 40
-0.6
 41
-30.0
 62
     5
 63
     7
 74
     1
 91
        4
 64
     7
 65
   257
 75
     1
175
     1
 42
1.0
 92
        0
 66
   257
 43
1.0
 76
     1
 77
     6
 78
     2
 67
     7
 79
     5
170
     0
171
     0
290
     0
174
     0
 93
        1
 44
0.0
173
     0
291
     0
 45
0.0
1001
ACAD
1000
AcDbSavedByObjectVersion
1070
     0
  0
VISUALSTYLE
  5
31
102
{ACAD_REACTORS
330
2A
102
}
330
2A
100
AcDbVisualStyle
  2
3D Hidden
 70
     6
 71
     1
 72
     2
 73
     2
 90
        0
 40
-0.6
 41
-30.0
 62
     5
 63
     7
 74
     2
 91
        2
 64
     7
 65
   257
 75
     2
175
     1
 42
40.0
 92
        0
 66
   257
 43
1.0
 76
     1
 77
     6
 78
     2
 67
     7
 79
     3
170
     0
171
     0
290
     0
174
     0
 93
        1
 44
0.0
173
     0
291
     0
 45
0.0
1001
ACAD
1000
AcDbSavedByObjectVersion
1070
     0
  0
VISUALSTYLE
  5
30
102
{ACAD_REACTORS
330
2A
102
}
330
2A
100
AcDbVisualStyle
  2
3dWireframe
 70
     5
 71
     0
 72
     2
 73
     0
 90
        0
 40
-0.6
 41
-30.0
 62
     5
 63
     7
 74
     1
 91
        4
 64
     7
 65
   257
 75
     1
175
     1
 42
1.0
 92
        0
 66
   257
 43
1.0
 76
     1
 77
     6
 78
     2
 67
     7
 79
     5
170
     0
171
     0
290
     0
174
     0
 93
        1
 44
0.0
173
     0
291
     0
 45
0.0
1001
ACAD
1000
AcDbSavedByObjectVersion
1070
     0
  0
VISUALSTYLE
  5
32
102
{ACAD_REACTORS
330
2A
102
}
330
2A
100
AcDbVisualStyle
  2
Basic
 70
     7
 71
     1
 72
     0
 73
     1
 90
        0
 40
-0.6
 41
-30.0
 62
     5
 63
     7
 74
     0
 91
        4
 64
     7
 65
   257
 75
     1
175
     1
 42
1.0
 92
        8
 66
     7
 43
1.0
 76
     1
 77
     6
 78
     2
 67
     7
 79
     5
170
     0
171
     0
290
     0
174
     0
 93
        1
 44
0.0
173
     0
291
     1
 45
0.0
1001
ACAD
1000
AcDbSavedByObjectVersion
1070
     0
  0
VISUALSTYLE
  5
36
102
{ACAD_REACTORS
330
2A
102
}
330
2A
100
AcDbVisualStyle
  2
Brighten
 70
    12
 71
     2
 72
     2
 73
     0
 90
        0
 40
-0.6
 41
-30.0
 62
     5
 63
     7
 74
     1
 91
        4
 64
     7
 65
   257
 75
     1
175
     1
 42
1.0
 92
        8
 66
     7
 43
1.0
 76
     1
 77
     6
 78
     2
 67
     7
 79
     5
170
     0
171
     0
290
     0
174
     0
 93
        1
 44
50.0
173
     0
291
     1
 45
0.0
1001
ACAD
1000
AcDbSavedByObjectVersion
1070
     0
  0
VISUALSTYLE
  5
3A
102
{ACAD_REACTORS
330
2A
102
}
330
2A
100
AcDbVisualStyle
  2
ColorChange
 70
    16
 71
     2
 72
     2
 73
     3
 90
        0
 40
-0.6
 41
-30.0
 62
     5
 63
     8
 74
     1
 91
        4
 64
     7
 65
   257
 75
     1
175
     1
 42
1.0
 92
        8
 66
     8
 43
1.0
 76
     1
 77
     6
 78
     2
 67
     7
 79
     5
170
     0
171
     0
290
     0
174
     0
 93
        1
 44
0.0
173
     0
291
     1
 45
0.0
1001
ACAD
1000
AcDbSavedByObjectVersion
1070
     0
  0
VISUALSTYLE
  5
34
102
{ACAD_REACTORS
330
2A
102
}
330
2A
100
AcDbVisualStyle
  2
Conceptual
 70
     9
 71
     3
 72
     2
 73
     0
 90
        0
 40
-0.6
 41
-30.0
 62
     5
 63
     7
 74
     2
 91
        2
 64
     7
 65
   257
 75
     1
175
     1
 42
40.0
 92
        8
 66
     7
 43
1.0
 76
     1
 77
     6
 78
     2
 67
     7
 79
     3
170
     0
171
     0
290
     0
174
     0
 93
        1
 44
0.0
173
     0
291
     0
 45
0.0
1001
ACAD
1000
AcDbSavedByObjectVersion
1070
     0
  0
VISUALSTYLE
  5
35
102
{ACAD_REACTORS
330
2A
102
}
330
2A
100
AcDbVisualStyle
  2
Dim
 70
    11
 71
     2
 72
     2
 73
     0
 90
        0
 40
-0.6
 41
-30.0
 62
     5
 63
     7
 74
     1
 91
        4
 64
     7
 65
   257
 75
     1
175
     1
 42
1.0
 92
        8
 66
     7
 43
1.0
 76
     1
 77
     6
 78
     2
 67
     7
 79
     5
170
     0
171
     0
290
     0
174
     0
 93
        1
 44
-50.0
173
     0
291
     1
 45
0.0
1001
ACAD
1000
AcDbSavedByObjectVersion
1070
     0
  0
VISUALSTYLE
  5
39
102
{ACAD_REACTORS
330
2A
102
}
330
2A
100
AcDbVisualStyle
  2
Facepattern
 70
    15
 71
     2
 72
     2
 73
     0
 90
        0
 40
-0.6
 41
-30.0
 62
     5
 63
     7
 74
     1
 91
        4
 64
     7
 65
   257
 75
     1
175
     1
 42
1.0
 92
        8
 66
     7
 43
1.0
 76
     1
 77
     6
 78
     2
 67
     7
 79
     5
170
     0
171
     0
290
     0
174
     0
 93
        1
 44
0.0
173
     0
291
     1
 45
0.0
1001
ACAD
1000
AcDbSavedByObjectVersion
1070
     0
  0
VISUALSTYLE
  5
2B
102
{ACAD_REACTORS
330
2A
102
}
330
2A
100
AcDbVisualStyle
  2
Flat
 70
     0
 71
     2
 72
     1
 73
     1
 90
        2
 40
-0.6
 41
30.0
 62
     5
 63
     7
 74
     0
 91
        4
 64
     7
 65
   257
 75
     1
175
     1
 42
1.0
 92
        8
 66
     7
 43
1.0
 76
     1
 77
     6
 78
     2
 67
     7
 79
     5
170
     0
171
     0
290
     0
174
     0
 93
       13
 44
0.0
173
     0
291
     1
 45
0.0
1001
ACAD
1000
AcDbSavedByObjectVersion
1070
     0
  0
VISUALSTYLE
  5
2C
102
{ACAD_REACTORS
330
2A
102
}
330
2A
100
AcDbVisualStyle
  2
FlatWithEdges
 70
     1
 71
     2
 72
     1
 73
     1
 90
        2
 40
-0.6
 41
30.0
 62
     5
 63
     7
 74
     1
 91
        4
 64
     7
 65
   257
 75
     1
175
     1
 42
1.0
 92
        0
 66
   257
 43
1.0
 76
     1
 77
     6
 78
     2
 67
     7
 79
     5
170
     0
171
     0
290
     0
174
     0
 93
       13
 44
0.0
173
     0
291
     1
 45
0.0
1001
ACAD
1000
AcDbSavedByObjectVersion
1070
     0
  0
VISUALSTYLE
  5
2D
102
{ACAD_REACTORS
330
2A
102
}
330
2A
100
AcDbVisualStyle
  2
Gouraud
 70
     2
 71
     2
 72
     2
 73
     1
 90
        2
 40
-0.6
 41
30.0
 62
     5
 63
     7
 74
     0
 91
        4
 64
     7
 65
   257
 75
     1
175
     1
 42
1.0
 92
        0
 66
     7
 43
1.0
 76
     1
 77
     6
 78
     2
 67
     7
 79
     5
170
     0
171
     0
290
     0
174
     0
 93
       13
 44
0.0
173
     0
291
     1
 45
0.0
1001
ACAD
1000
AcDbSavedByObjectVersion
1070
     0
  0
VISUALSTYLE
  5
2E
102
{ACAD_REACTORS
330
2A
102
}
330
2A
100
AcDbVisualStyle
  2
GouraudWithEdges
 70
     3
 71
     2
 72
     2
 73
     1
 90
        2
 40
-0.6
 41
30.0
 62
     5
 63
     7
 74
     1
 91
        4
 64
     7
 65
   257
 75
     1
175
     1
 42
1.0
 92
        0
 66
   257
 43
1.0
 76
     1
 77
     6
 78
     2
 67
     7
 79
     5
170
     0
171
     0
290
     0
174
     0
 93
       13
 44
0.0
173
     0
291
     1
 45
0.0
1001
ACAD
1000
AcDbSavedByObjectVersion
1070
     0
  0
VISUALSTYLE
  5
38
102
{ACAD_REACTORS
330
2A
102
}
330
2A
100
AcDbVisualStyle
  2
Linepattern
 70
    14
 71
     2
 72
     2
 73
     0
 90
        0
 40
-0.6
 41
-30.0
 62
     5
 63
     7
 74
     1
 91
        4
 64
     7
 65
   257
 75
     7
175
     7
 42
1.0
 92
        8
 66
     7
 43
1.0
 76
     1
 77
     6
 78
     2
 67
     7
 79
     5
170
     0
171
     0
290
     0
174
     0
 93
        1
 44
0.0
173
     0
291
     1
 45
0.0
1001
ACAD
1000
AcDbSavedByObjectVersion
1070
     0
  0
VISUALSTYLE
  5
33
102
{ACAD_REACTORS
330
2A
102
}
330
2A
100
AcDbVisualStyle
  2
Realistic
 70
     8
 71
     2
 72
     2
 73
     0
 90
        0
 40
-0.6
 41
-30.0
 62
     5
 63
     7
 74
     1
 91
        0
 64
     7
 65
   257
 75
     1
175
     1
 42
1.0
 92
        8
 66
     8
 43
1.0
 76
     1
 77
     6
 78
     2
 67
     7
 79
     5
170
     0
171
     0
290
     0
174
     0
 93
       13
 44
0.0
173
     0
291
     0
 45
0.0
1001
ACAD
1000
AcDbSavedByObjectVersion
1070
     0
  0
VISUALSTYLE
  5
37
102
{ACAD_REACTORS
330
2A
102
}
330
2A
100
AcDbVisualStyle
  2
Thicken
 70
    13
 71
     2
 72
     2
 73
     0
 90
        0
 40
-0.6
 41
-30.0
 62
     5
 63
     7
 74
     1
 91
        4
 64
     7
 65
   257
 75
     1
175
     1
 42
1.0
 92
       12
 66
     7
 43
1.0
 76
     1
 77
     6
 78
     2
 67
     7
 79
     5
170
     0
171
     0
290
     0
174
     0
 93
        1
 44
0.0
173
     0
291
     1
 45
0.0
1001
ACAD
1000
AcDbSavedByObjectVersion
1070
     0
  0
DICTIONARYVAR
  5
157
102
{ACAD_REACTORS
330
154
102
}
330
154
100
DictionaryVariables
280
     0
  1
1:1
  0
ENDSEC
  0
EOF
