  0
SECTION
  2
HEADER
  9
$ACADVER
  1
AC1015
  9
$ACADMAINTVER
 70
     6
  9
$DWGCODEPAGE
  3
ANSI_1252
  9
$INSBASE
 10
0.0
 20
0.0
 30
0.0
  9
$EXTMIN
 10
11.6084289701042
 20
249.8037736717
 30
0.0
  9
$EXTMAX
 10
274.773375108019
 20
378.706729276959
 30
0.0
  9
$LIMMIN
 10
0.0
 20
0.0
  9
$LIMMAX
 10
12.0
 20
9.0
  9
$ORTHOMODE
 70
     0
  9
$REGENMODE
 70
     1
  9
$FILLMODE
 70
     1
  9
$QTEXTMODE
 70
     0
  9
$MIRRTEXT
 70
     1
  9
$LTSCALE
 40
1.0
  9
$ATTMODE
 70
     1
  9
$TEXTSIZE
 40
0.2
  9
$TRACEWID
 40
0.05
  9
$TEXTSTYLE
  7
Standard
  9
$CLAYER
  8
0
  9
$CELTYPE
  6
ByLayer
  9
$CECOLOR
 62
   256
  9
$CELTSCALE
 40
1.0
  9
$DISPSILH
 70
     0
  9
$DIMSCALE
 40
1.0
  9
$DIMASZ
 40
0.18
  9
$DIMEXO
 40
0.0625
  9
$DIMDLI
 40
0.38
  9
$DIMRND
 40
0.0
  9
$DIMDLE
 40
0.0
  9
$DIMEXE
 40
0.18
  9
$DIMTP
 40
0.0
  9
$DIMTM
 40
0.0
  9
$DIMTXT
 40
0.18
  9
$DIMCEN
 40
0.09
  9
$DIMTSZ
 40
0.0
  9
$DIMTOL
 70
     0
  9
$DIMLIM
 70
     0
  9
$DIMTIH
 70
     1
  9
$DIMTOH
 70
     1
  9
$DIMSE1
 70
     0
  9
$DIMSE2
 70
     0
  9
$DIMTAD
 70
     0
  9
$DIMZIN
 70
     0
  9
$DIMBLK
  1

  9
$DIMASO
 70
     1
  9
$DIMSHO
 70
     1
  9
$DIMPOST
  1

  9
$DIMAPOST
  1

  9
$DIMALT
 70
     0
  9
$DIMALTD
 70
     2
  9
$DIMALTF
 40
25.4
  9
$DIMLFAC
 40
1.0
  9
$DIMTOFL
 70
     0
  9
$DIMTVP
 40
0.0
  9
$DIMTIX
 70
     0
  9
$DIMSOXD
 70
     0
  9
$DIMSAH
 70
     0
  9
$DIMBLK1
  1

  9
$DIMBLK2
  1

  9
$DIMSTYLE
  2
Standard
  9
$DIMCLRD
 70
     0
  9
$DIMCLRE
 70
     0
  9
$DIMCLRT
 70
     0
  9
$DIMTFAC
 40
1.0
  9
$DIMGAP
 40
0.09
  9
$DIMJUST
 70
     0
  9
$DIMSD1
 70
     0
  9
$DIMSD2
 70
     0
  9
$DIMTOLJ
 70
     1
  9
$DIMTZIN
 70
     0
  9
$DIMALTZ
 70
     0
  9
$DIMALTTZ
 70
     0
  9
$DIMUPT
 70
     0
  9
$DIMDEC
 70
     4
  9
$DIMTDEC
 70
     4
  9
$DIMALTU
 70
     2
  9
$DIMALTTD
 70
     2
  9
$DIMTXSTY
  7
Standard
  9
$DIMAUNIT
 70
     0
  9
$DIMADEC
 70
     0
  9
$DIMALTRND
 40
0.0
  9
$DIMAZIN
 70
     0
  9
$DIMDSEP
 70
    46
  9
$DIMATFIT
 70
     3
  9
$DIMFRAC
 70
     0
  9
$DIMLDRBLK
  1

  9
$DIMLUNIT
 70
     2
  9
$DIMLWD
 70
    -2
  9
$DIMLWE
 70
    -2
  9
$DIMTMOVE
 70
     0
  9
$LUNITS
 70
     2
  9
$LUPREC
 70
     4
  9
$SKETCHINC
 40
0.1
  9
$FILLETRAD
 40
0.5
  9
$AUNITS
 70
     0
  9
$AUPREC
 70
     0
  9
$MENU
  1
.
  9
$ELEVATION
 40
0.0
  9
$PELEVATION
 40
0.0
  9
$THICKNESS
 40
0.0
  9
$LIMCHECK
 70
     0
  9
$CHAMFERA
 40
0.5
  9
$CHAMFERB
 40
0.5
  9
$CHAMFERC
 40
1.0
  9
$CHAMFERD
 40
0.0
  9
$SKPOLY
 70
     0
  9
$TDCREATE
 40
2456748.731149595
  9
$TDUCREATE
 40
2456748.647816262
  9
$TDUPDATE
 40
2456748.731149606
  9
$TDUUPDATE
 40
2456748.647816273
  9
$TDINDWG
 40
0.0000000116
  9
$TDUSRTIMER
 40
0.0000000116
  9
$USRTIMER
 70
     1
  9
$ANGBASE
 50
0.0
  9
$ANGDIR
 70
     0
  9
$PDMODE
 70
     0
  9
$PDSIZE
 40
0.0
  9
$PLINEWID
 40
0.0
  9
$SPLFRAME
 70
     0
  9
$SPLINETYPE
 70
     6
  9
$SPLINESEGS
 70
     8
  9
$HANDSEED
  5
15A
  9
$SURFTAB1
 70
     6
  9
$SURFTAB2
 70
     6
  9
$SURFTYPE
 70
     6
  9
$SURFU
 70
     6
  9
$SURFV
 70
     6
  9
$UCSBASE
  2

  9
$UCSNAME
  2

  9
$UCSORG
 10
0.0
 20
0.0
 30
0.0
  9
$UCSXDIR
 10
1.0
 20
0.0
 30
0.0
  9
$UCSYDIR
 10
0.0
 20
1.0
 30
0.0
  9
$UCSORTHOREF
  2

  9
$UCSORTHOVIEW
 70
     0
  9
$UCSORGTOP
 10
0.0
 20
0.0
 30
0.0
  9
$UCSORGBOTTOM
 10
0.0
 20
0.0
 30
0.0
  9
$UCSORGLEFT
 10
0.0
 20
0.0
 30
0.0
  9
$UCSORGRIGHT
 10
0.0
 20
0.0
 30
0.0
  9
$UCSORGFRONT
 10
0.0
 20
0.0
 30
0.0
  9
$UCSORGBACK
 10
0.0
 20
0.0
 30
0.0
  9
$PUCSBASE
  2

  9
$PUCSNAME
  2

  9
$PUCSORG
 10
0.0
 20
0.0
 30
0.0
  9
$PUCSXDIR
 10
1.0
 20
0.0
 30
0.0
  9
$PUCSYDIR
 10
0.0
 20
1.0
 30
0.0
  9
$PUCSORTHOREF
  2

  9
$PUCSORTHOVIEW
 70
     0
  9
$PUCSORGTOP
 10
0.0
 20
0.0
 30
0.0
  9
$PUCSORGBOTTOM
 10
0.0
 20
0.0
 30
0.0
  9
$PUCSORGLEFT
 10
0.0
 20
0.0
 30
0.0
  9
$PUCSORGRIGHT
 10
0.0
 20
0.0
 30
0.0
  9
$PUCSORGFRONT
 10
0.0
 20
0.0
 30
0.0
  9
$PUCSORGBACK
 10
0.0
 20
0.0
 30
0.0
  9
$USERI1
 70
     0
  9
$USERI2
 70
     0
  9
$USERI3
 70
     0
  9
$USERI4
 70
     0
  9
$USERI5
 70
     0
  9
$USERR1
 40
16.5
  9
$USERR2
 40
0.0
  9
$USERR3
 40
0.0
  9
$USERR4
 40
0.0
  9
$USERR5
 40
0.0
  9
$WORLDVIEW
 70
     1
  9
$SHADEDGE
 70
     3
  9
$SHADEDIF
 70
    70
  9
$TILEMODE
 70
     1
  9
$MAXACTVP
 70
    64
  9
$PINSBASE
 10
0.0
 20
0.0
 30
0.0
  9
$PLIMCHECK
 70
     0
  9
$PEXTMIN
 10
1.00000000000000E+20
 20
1.00000000000000E+20
 30
1.00000000000000E+20
  9
$PEXTMAX
 10
-1.00000000000000E+20
 20
-1.00000000000000E+20
 30
-1.00000000000000E+20
  9
$PLIMMIN
 10
0.0
 20
0.0
  9
$PLIMMAX
 10
12.0
 20
9.0
  9
$UNITMODE
 70
     0
  9
$VISRETAIN
 70
     1
  9
$PLINEGEN
 70
     0
  9
$PSLTSCALE
 70
     1
  9
$TREEDEPTH
 70
  3020
  9
$CMLSTYLE
  2
Standard
  9
$CMLJUST
 70
     0
  9
$CMLSCALE
 40
1.0
  9
$PROXYGRAPHICS
 70
     1
  9
$MEASUREMENT
 70
     1
  9
$CELWEIGHT
370
    -1
  9
$ENDCAPS
280
     0
  9
$JOINSTYLE
280
     0
  9
$LWDISPLAY
290
     0
  9
$INSUNITS
 70
     1
  9
$HYPERLINKBASE
  1

  9
$STYLESHEET
  1

  9
$XEDIT
290
     1
  9
$CEPSNTYPE
380
     0
  9
$PSTYLEMODE
290
     1
  9
$FINGERPRINTGUID
  2
{A5DDCB7F-1B45-46A2-9A81-04E72FA36EAF}
  9
$VERSIONGUID
  2
{FAEB1C32-E019-11D5-929B-00C0DF256EC4}
  9
$EXTNAMES
290
     1
  9
$PSVPSCALE
 40
0.0
  9
$OLESTARTUP
290
     0
  0
ENDSEC
  0
SECTION
  2
CLASSES
  0
CLASS
  1
ACDBDICTIONARYWDFLT
  2
AcDbDictionaryWithDefault
  3
ObjectDBX Classes
 90
        0
280
     0
281
     0
  0
CLASS
  1
VISUALSTYLE
  2
AcDbVisualStyle
  3
ObjectDBX Classes
 90
     4095
280
     0
281
     0
  0
CLASS
  1
SCALE
  2
AcDbScale
  3
ObjectDBX Classes
 90
     1153
280
     0
281
     0
  0
CLASS
  1

  2
exOdDbPolyline
  3

 90
        0
280
     0
281
     1
  0
CLASS
  1

  2
exOdDbCircle
  3

 90
        0
280
     0
281
     1
  0
CLASS
  1

  2
exOdDbSpline
  3

 90
        0
280
     0
281
     1
  0
CLASS
  1
DICTIONARYVAR
  2
AcDbDictionaryVar
  3
ObjectDBX Classes
 90
        0
280
     0
281
     0
  0
CLASS
  1
ACDBPLACEHOLDER
  2
AcDbPlaceHolder
  3
ObjectDBX Classes
 90
        0
280
     0
281
     0
  0
CLASS
  1
LAYOUT
  2
AcDbLayout
  3
ObjectDBX Classes
 90
        0
280
     0
281
     0
  0
ENDSEC
  0
SECTION
  2
TABLES
  0
TABLE
  2
VPORT
  5
8
330
0
100
AcDbSymbolTable
 70
     1
  0
VPORT
  5
29
330
8
100
AcDbSymbolTableRecord
100
AcDbViewportTableRecord
  2
*Active
 70
     0
 10
0.0
 20
0.0
 11
1.0
 21
1.0
 12
143.1909020390616
 22
314.2552514743295
 13
0.0
 23
0.0
 14
0.5
 24
0.5
 15
0.5
 25
0.5
 16
0.0
 26
0.0
 36
1.0
 17
0.0
 27
0.0
 37
0.0
 40
180.6235173492542
 41
1.60267857142857
 42
50.0
 43
0.0
 44
0.0
 50
0.0
 51
0.0
 71
     0
 72
   100
 73
     1
 74
     3
 75
     0
 76
     0
 77
     0
 78
     0
281
     0
 65
     1
110
0.0
120
0.0
130
0.0
111
1.0
121
0.0
131
0.0
112
0.0
122
1.0
132
0.0
 79
     0
146
0.0
  0
ENDTAB
  0
TABLE
  2
LTYPE
  5
5
330
0
100
AcDbSymbolTable
 70
     8
  0
LTYPE
  5
14
330
5
100
AcDbSymbolTableRecord
100
AcDbLinetypeTableRecord
  2
ByBlock
 70
     0
  3

 72
    65
 73
     0
 40
0.0
  0
LTYPE
  5
15
330
5
100
AcDbSymbolTableRecord
100
AcDbLinetypeTableRecord
  2
ByLayer
 70
     0
  3

 72
    65
 73
     0
 40
0.0
  0
LTYPE
  5
16
330
5
100
AcDbSymbolTableRecord
100
AcDbLinetypeTableRecord
  2
Continuous
 70
     0
  3
Solid line
 72
    65
 73
     0
 40
0.0
  0
LTYPE
  5
3B
330
5
100
AcDbSymbolTableRecord
100
AcDbLinetypeTableRecord
  2
DASHED
 70
     0
  3
Dashed
 72
    65
 73
     2
 40
15.0
 49
7.0
 74
     0
 49
-8.0
 74
     0
  0
LTYPE
  5
3C
330
5
100
AcDbSymbolTableRecord
100
AcDbLinetypeTableRecord
  2
DOTTED
 70
     0
  3
Dotted
 72
    65
 73
     2
 40
1.0
 49
0.0
 74
     0
 49
-1.0
 74
     0
  0
LTYPE
  5
3D
330
5
100
AcDbSymbolTableRecord
100
AcDbLinetypeTableRecord
  2
DOT_CENTER
 70
     0
  3
Dot_Center
 72
    65
 73
     4
 40
14.0
 49
12.0
 74
     0
 49
-1.0
 74
     0
 49
0.0
 74
     0
 49
-1.0
 74
     0
  0
LTYPE
  5
3E
330
5
100
AcDbSymbolTableRecord
100
AcDbLinetypeTableRecord
  2
LONG_DASHED
 70
     0
  3
Long_Dashed
 72
    65
 73
     2
 40
15.0
 49
10.0
 74
     0
 49
-5.0
 74
     0
  0
LTYPE
  5
3F
330
5
100
AcDbSymbolTableRecord
100
AcDbLinetypeTableRecord
  2
DASH_CENTER
 70
     0
  3
Dash_Center
 72
    65
 73
     4
 40
14.0
 49
11.0
 74
     0
 49
-1.0
 74
     0
 49
1.0
 74
     0
 49
-1.0
 74
     0
  0
LTYPE
  5
40
330
5
100
AcDbSymbolTableRecord
100
AcDbLinetypeTableRecord
  2
PHANTOM
 70
     0
  3
Phantom
 72
    65
 73
     6
 40
13.0
 49
10.0
 74
     0
 49
-1.0
 74
     0
 49
0.0
 74
     0
 49
-1.0
 74
     0
 49
0.0
 74
     0
 49
-1.0
 74
     0
  0
LTYPE
  5
41
330
5
100
AcDbSymbolTableRecord
100
AcDbLinetypeTableRecord
  2
CENTER_DASH_DASH
 70
     0
  3
Center_Dash_Dash
 72
    65
 73
     6
 40
14.0
 49
9.0
 74
     0
 49
-1.0
 74
     0
 49
1.0
 74
     0
 49
-1.0
 74
     0
 49
1.0
 74
     0
 49
-1.0
 74
     0
  0
ENDTAB
  0
TABLE
  2
LAYER
  5
2
330
0
100
AcDbSymbolTable
 70
     6
  0
LAYER
  5
10
330
2
100
AcDbSymbolTableRecord
100
AcDbLayerTableRecord
  2
0
 70
     0
 62
     7
  6
Continuous
370
    -3
390
F
  0
LAYER
  5
42
330
2
100
AcDbSymbolTableRecord
100
AcDbLayerTableRecord
  2
1
 70
     0
 62
     7
  6
Continuous
370
    -3
390
F
  0
LAYER
  5
43
330
2
100
AcDbSymbolTableRecord
100
AcDbLayerTableRecord
  2
BEZUGSACHSEN
 70
     0
 62
     7
  6
Continuous
370
    -3
390
F
  0
LAYER
  5
44
330
2
100
AcDbSymbolTableRecord
100
AcDbLayerTableRecord
  2
DEFAULT_2
 70
     0
 62
     7
  6
Continuous
370
    -3
390
F
  0
LAYER
  5
45
330
2
100
AcDbSymbolTableRecord
100
AcDbLayerTableRecord
  2
FASEN
 70
     0
 62
     7
  6
Continuous
370
    -3
390
F
  0
LAYER
  5
46
330
2
100
AcDbSymbolTableRecord
100
AcDbLayerTableRecord
  2
RUNDUNGEN
 70
     0
 62
     7
  6
Continuous
370
    -3
390
F
  0
ENDTAB
  0
TABLE
  2
STYLE
  5
3
330
0
100
AcDbSymbolTable
 70
     2
  0
STYLE
  5
11
330
3
100
AcDbSymbolTableRecord
100
AcDbTextStyleTableRecord
  2
Standard
 70
     0
 40
0.0
 41
1.0
 50
0.0
 71
     0
 42
0.2
  3
txt
  4

  0
STYLE
  5
6D
330
3
100
AcDbSymbolTableRecord
100
AcDbTextStyleTableRecord
  2
CONVERTER_11
 70
     0
 40
0.0
 41
0.72
 50
0.0
 71
     0
 42
0.2
  3
txt.shx
  4

  0
ENDTAB
  0
TABLE
  2
VIEW
  5
6
330
0
100
AcDbSymbolTable
 70
     0
  0
ENDTAB
  0
TABLE
  2
UCS
  5
7
330
0
100
AcDbSymbolTable
 70
     0
  0
ENDTAB
  0
TABLE
  2
APPID
  5
9
330
0
100
AcDbSymbolTable
 70
     1
  0
APPID
  5
12
330
9
100
AcDbSymbolTableRecord
100
AcDbRegAppTableRecord
  2
ACAD
 70
     0
  0
ENDTAB
  0
TABLE
  2
DIMSTYLE
  5
A
330
0
100
AcDbSymbolTable
 70
     8
100
AcDbDimStyleTable
  0
DIMSTYLE
105
27
330
A
100
AcDbSymbolTableRecord
100
AcDbDimStyleTableRecord
  2
Standard
 70
     0
340
11
  0
DIMSTYLE
105
10B
102
{ACAD_REACTORS
330
10C
102
}
330
A
100
AcDbSymbolTableRecord
100
AcDbDimStyleTableRecord
  2
ME10_DIM_10
 70
     0
  3
\U+2300<>
 41
3.5
 42
2.0
 44
2.0
 71
     1
 73
     0
 74
     0
 77
     1
 78
     8
140
3.5
146
0.7
147
2.0
172
     1
173
     1
176
     2
177
     2
178
     3
271
     2
272
     0
340
6D
  0
DIMSTYLE
105
116
102
{ACAD_REACTORS
330
117
102
}
330
A
100
AcDbSymbolTableRecord
100
AcDbDimStyleTableRecord
  2
ME10_DIM_11
 70
     0
  3
\U+2300<>
 41
3.5
 42
2.0
 44
2.0
 71
     1
 73
     0
 74
     0
 77
     1
 78
     8
140
3.5
146
0.7
147
2.0
172
     1
173
     1
176
     2
177
     2
178
     3
271
     2
272
     0
340
6D
  0
DIMSTYLE
105
121
102
{ACAD_REACTORS
330
122
102
}
330
A
100
AcDbSymbolTableRecord
100
AcDbDimStyleTableRecord
  2
ME10_DIM_12
 70
     0
  3
\U+2300<>
 41
3.5
 42
2.0
 44
2.0
 71
     1
 73
     0
 74
     0
 77
     1
 78
     8
140
3.5
146
0.7
147
2.0
172
     1
173
     1
176
     2
177
     2
178
     3
271
     2
272
     0
340
6D
  0
DIMSTYLE
105
12C
102
{ACAD_REACTORS
330
12D
102
}
330
A
100
AcDbSymbolTableRecord
100
AcDbDimStyleTableRecord
  2
ME10_DIM_13
 70
     0
  3
<>
 41
3.5
 42
2.0
 44
2.0
 71
     1
 73
     0
 74
     0
 77
     1
 78
     8
140
3.5
146
0.7
147
2.0
172
     1
173
     1
176
     2
177
     2
178
     3
271
     2
272
     0
340
6D
  0
DIMSTYLE
105
137
102
{ACAD_REACTORS
330
138
102
}
330
A
100
AcDbSymbolTableRecord
100
AcDbDimStyleTableRecord
  2
ME10_DIM_14
 70
     0
  3
<>
 41
3.5
 42
2.0
 44
2.0
 71
     1
 73
     0
 74
     0
 77
     1
 78
     8
140
3.5
146
0.7
147
2.0
172
     1
173
     1
176
     2
177
     2
178
     3
271
     2
272
     0
340
6D
  0
DIMSTYLE
105
142
102
{ACAD_REACTORS
330
143
102
}
330
A
100
AcDbSymbolTableRecord
100
AcDbDimStyleTableRecord
  2
ME10_DIM_15
 70
     0
  3
<>
 41
3.5
 42
2.0
 44
2.0
 71
     1
 73
     0
 74
     0
 77
     1
 78
     8
140
3.5
146
0.7
147
2.0
172
     1
173
     1
176
     2
177
     2
178
     3
271
     2
272
     0
340
6D
  0
DIMSTYLE
105
154
102
{ACAD_REACTORS
330
155
102
}
330
A
100
AcDbSymbolTableRecord
100
AcDbDimStyleTableRecord
  2
ME10_DIM_16
 70
     0
  3
<>
 41
3.5
 42
2.0
 44
2.0
 71
     1
 73
     0
 74
     0
 77
     1
 78
     8
140
3.5
146
0.7
147
2.0
172
     1
173
     1
176
     2
177
     2
178
     3
271
     2
272
     0
340
6D
  0
ENDTAB
  0
TABLE
  2
BLOCK_RECORD
  5
1
330
0
100
AcDbSymbolTable
 70
    10
  0
BLOCK_RECORD
  5
1F
330
1
100
AcDbSymbolTableRecord
100
AcDbBlockTableRecord
  2
*Model_Space
340
22
  0
BLOCK_RECORD
  5
1B
330
1
100
AcDbSymbolTableRecord
100
AcDbBlockTableRecord
  2
*Paper_Space
340
1E
  0
BLOCK_RECORD
  5
23
330
1
100
AcDbSymbolTableRecord
100
AcDbBlockTableRecord
  2
*Paper_Space0
340
26
  0
BLOCK_RECORD
  5
47
330
1
100
AcDbSymbolTableRecord
100
AcDbBlockTableRecord
  2
Urheberrecht_DE-EN
340
0
102
{BLKREFS
331
6C
102
}
  0
BLOCK_RECORD
  5
100
330
1
100
AcDbSymbolTableRecord
100
AcDbBlockTableRecord
  2
*D2
340
0
  0
BLOCK_RECORD
  5
10D
330
1
100
AcDbSymbolTableRecord
100
AcDbBlockTableRecord
  2
*D3
340
0
  0
BLOCK_RECORD
  5
118
330
1
100
AcDbSymbolTableRecord
100
AcDbBlockTableRecord
  2
*D4
340
0
  0
BLOCK_RECORD
  5
123
330
1
100
AcDbSymbolTableRecord
100
AcDbBlockTableRecord
  2
*D5
340
0
  0
BLOCK_RECORD
  5
12E
330
1
100
AcDbSymbolTableRecord
100
AcDbBlockTableRecord
  2
*D6
340
0
  0
BLOCK_RECORD
  5
139
330
1
100
AcDbSymbolTableRecord
100
AcDbBlockTableRecord
  2
*D7
340
0
  0
BLOCK_RECORD
  5
144
330
1
100
AcDbSymbolTableRecord
100
AcDbBlockTableRecord
  2
*D8
340
0
102
{BLKREFS
331
14A
102
}
  0
BLOCK_RECORD
  5
14B
330
1
100
AcDbSymbolTableRecord
100
AcDbBlockTableRecord
  2
*D9
340
0
  0
ENDTAB
  0
ENDSEC
  0
SECTION
  2
BLOCKS
  0
BLOCK
  5
20
330
1F
100
AcDbEntity
  8
0
100
AcDbBlockBegin
  2
*Model_Space
 70
     0
 10
0.0
 20
0.0
 30
0.0
  3
*Model_Space
  1

  0
ENDBLK
  5
21
330
1F
100
AcDbEntity
  8
0
100
AcDbBlockEnd
  0
BLOCK
  5
1C
330
1B
100
AcDbEntity
 67
     1
  8
0
100
AcDbBlockBegin
  2
*Paper_Space
 70
     0
 10
0.0
 20
0.0
 30
0.0
  3
*Paper_Space
  1

  0
ENDBLK
  5
1D
330
1B
100
AcDbEntity
 67
     1
  8
0
100
AcDbBlockEnd
  0
BLOCK
  5
24
330
23
100
AcDbEntity
  8
0
100
AcDbBlockBegin
  2
*Paper_Space0
 70
     0
 10
0.0
 20
0.0
 30
0.0
  3
*Paper_Space0
  1

  0
ENDBLK
  5
25
330
23
100
AcDbEntity
  8
0
100
AcDbBlockEnd
  0
BLOCK
  5
48
330
47
100
AcDbEntity
  8
0
100
AcDbBlockBegin
  2
Urheberrecht_DE-EN
 70
     0
 10
25.6084289701042
 20
308.989712578743
 30
0.0
  3
Urheberrecht_DE-EN
  1

  0
MTEXT
  5
6E
330
47
100
AcDbEntity
  8
1
 62
     1
100
AcDbMText
 10
25.6084289701042
 20
308.989712578743
 30
0.0
 40
2.0
 41
0.0
 71
     7
 72
     1
  1
We own the copyright of this document. It \Pdetermined and may neither be copied or \Pmade accessible to outsiders without our\Ppermission.
  7
CONVERTER_11
 11
0.0
 21
1.0
 31
0.0
 73
     1
 44
0.90036014405762
  0
MTEXT
  5
6F
330
47
100
AcDbEntity
  8
1
 62
     1
100
AcDbMText
 10
25.6084289701042
 20
252.7003256614368
 30
0.0
 40
2.0
 41
0.0
 71
     7
 72
     1
  1
F\U+00fcr diese Unterlage behalten wir das Ur-\Pheberrecht. Sie darf nur f\U+00fcr den von uns \Pbestimmten Zweck benutzt und ohne unsere \PZustimmung weder vervielf\U+00e4ltigt noch\PDritten zug\U+00e4nglich gemacht werden.
  7
CONVERTER_11
 11
0.0
 21
1.0
 31
0.0
 73
     1
 44
0.90036014405762
  0
ENDBLK
  5
49
330
47
100
AcDbEntity
  8
0
100
AcDbBlockEnd
  0
BLOCK
  5
109
330
100
100
AcDbEntity
  8
0
100
AcDbBlockBegin
  2
*D2
 70
     1
 10
0.0
 20
0.0
 30
0.0
  3
*D2
  1

  0
LINE
  5
101
330
100
100
AcDbEntity
  8
1
  6
Continuous
 62
     2
100
AcDbLine
 10
254.778496802475
 20
310.8037736717
 30
0.0
 11
254.778496802475
 21
303.8037736717
 31
0.0
  0
LINE
  5
102
330
100
100
AcDbEntity
  8
1
  6
Continuous
 62
     2
100
AcDbLine
 10
254.778496802475
 20
303.8037736717
 30
0.0
 11
254.778496802475
 21
295.8037736717
 31
0.0
  0
LINE
  5
103
330
100
100
AcDbEntity
  8
1
  6
Continuous
 62
     2
100
AcDbLine
 10
254.778496802475
 20
295.8037736717
 30
0.0
 11
254.778496802475
 21
288.8037736717
 31
0.0
  0
LINE
  5
104
330
100
100
AcDbEntity
  8
1
  6
Continuous
 62
     2
100
AcDbLine
 10
245.9417533793
 20
303.8037736717
 30
0.0
 11
256.778496802475
 21
303.8037736717
 31
0.0
  0
LINE
  5
105
330
100
100
AcDbEntity
  8
1
  6
Continuous
 62
     2
100
AcDbLine
 10
245.9417533793
 20
295.8037736717
 30
0.0
 11
256.778496802475
 21
295.8037736717
 31
0.0
  0
SOLID
  5
106
330
100
100
AcDbEntity
  8
1
 62
     2
100
AcDbTrace
 10
254.3177130609191
 20
307.3037736717
 30
0.0
 11
255.2392805440309
 21
307.3037736717
 31
0.0
 12
254.778496802475
 22
303.8037736717
 32
0.0
 13
254.778496802475
 23
303.8037736717
 33
0.0
  0
SOLID
  5
107
330
100
100
AcDbEntity
  8
1
 62
     2
100
AcDbTrace
 10
255.2392805440309
 20
292.3037736717
 30
0.0
 11
254.3177130609191
 21
292.3037736717
 31
0.0
 12
254.778496802475
 22
295.8037736717
 32
0.0
 13
254.778496802475
 23
295.8037736717
 33
0.0
  0
MTEXT
  5
108
330
100
100
AcDbEntity
  8
1
 62
     3
100
AcDbMText
 10
252.778496802475
 20
292.220853050426
 30
0.0
 40
3.5
 41
0.0
 71
     7
 72
     1
  1
\C3;%%c\C3;\C3;8\C2;\H2.45;\S^ ;\C3;
  7
CONVERTER_11
 11
0.0
 21
1.0
 31
0.0
 73
     1
 44
0.60024009603842
  0
ENDBLK
  5
10A
330
100
100
AcDbEntity
  8
0
100
AcDbBlockEnd
  0
BLOCK
  5
114
330
10D
100
AcDbEntity
  8
0
100
AcDbBlockBegin
  2
*D3
 70
     1
 10
0.0
 20
0.0
 30
0.0
  3
*D3
  1

  0
LINE
  5
10E
330
10D
100
AcDbEntity
  8
1
  6
Continuous
 62
     2
100
AcDbLine
 10
265.010878584059
 20
310.3037736717528
 30
0.0
 11
265.010878584059
 21
289.3037736716559
 31
0.0
  0
LINE
  5
10F
330
10D
100
AcDbEntity
  8
1
  6
Continuous
 62
     2
100
AcDbLine
 10
245.9417533793094
 20
310.3037736717528
 30
0.0
 11
267.010878584059
 21
310.3037736717528
 31
0.0
  0
LINE
  5
110
330
10D
100
AcDbEntity
  8
1
  6
Continuous
 62
     2
100
AcDbLine
 10
245.9417533793
 20
289.3037736716559
 30
0.0
 11
267.010878584059
 21
289.3037736716559
 31
0.0
  0
SOLID
  5
111
330
10D
100
AcDbEntity
  8
1
 62
     2
100
AcDbTrace
 10
265.4716623256149
 20
306.8037736717528
 30
0.0
 11
264.5500948425031
 21
306.8037736717528
 31
0.0
 12
265.010878584059
 22
310.3037736717528
 32
0.0
 13
265.010878584059
 23
310.3037736717528
 33
0.0
  0
SOLID
  5
112
330
10D
100
AcDbEntity
  8
1
 62
     2
100
AcDbTrace
 10
264.5500948425031
 20
292.8037736716559
 30
0.0
 11
265.4716623256149
 21
292.8037736716559
 31
0.0
 12
265.010878584059
 22
289.3037736716559
 32
0.0
 13
265.010878584059
 23
289.3037736716559
 33
0.0
  0
MTEXT
  5
113
330
10D
100
AcDbEntity
  8
1
 62
     3
100
AcDbMText
 10
263.010878584059
 20
291.91011417706
 30
0.0
 40
3.5
 41
0.0
 71
     7
 72
     1
  1
\C3;%%c\C3;\C3;21\C2;\H2.45;\S^ ;\C3;
  7
CONVERTER_11
 11
0.0
 21
1.0
 31
0.0
 73
     1
 44
0.60024009603842
  0
ENDBLK
  5
115
330
10D
100
AcDbEntity
  8
0
100
AcDbBlockEnd
  0
BLOCK
  5
11F
330
118
100
AcDbEntity
  8
0
100
AcDbBlockBegin
  2
*D4
 70
     1
 10
0.0
 20
0.0
 30
0.0
  3
*D4
  1

  0
LINE
  5
119
330
118
100
AcDbEntity
  8
1
  6
Continuous
 62
     2
100
AcDbLine
 10
272.773375108019
 20
313.3037736717
 30
0.0
 11
272.773375108019
 21
286.3037736717
 31
0.0
  0
LINE
  5
11A
330
118
100
AcDbEntity
  8
1
  6
Continuous
 62
     2
100
AcDbLine
 10
207.8231391708
 20
313.3037736717
 30
0.0
 11
274.773375108019
 21
313.3037736717
 31
0.0
  0
LINE
  5
11B
330
118
100
AcDbEntity
  8
1
  6
Continuous
 62
     2
100
AcDbLine
 10
207.8231391708
 20
286.3037736717
 30
0.0
 11
274.773375108019
 21
286.3037736717
 31
0.0
  0
SOLID
  5
11C
330
118
100
AcDbEntity
  8
1
 62
     2
100
AcDbTrace
 10
273.2341588495749
 20
309.8037736717
 30
0.0
 11
272.3125913664632
 21
309.8037736717
 31
0.0
 12
272.773375108019
 22
313.3037736717
 32
0.0
 13
272.773375108019
 23
313.3037736717
 33
0.0
  0
SOLID
  5
11D
330
118
100
AcDbEntity
  8
1
 62
     2
100
AcDbTrace
 10
272.3125913664632
 20
289.8037736717
 30
0.0
 11
273.2341588495749
 21
289.8037736717
 31
0.0
 12
272.773375108019
 22
286.3037736717
 32
0.0
 13
272.773375108019
 23
286.3037736717
 33
0.0
  0
MTEXT
  5
11E
330
118
100
AcDbEntity
  8
1
 62
     3
100
AcDbMText
 10
270.773375108019
 20
291.49011417706
 30
0.0
 40
3.5
 41
0.0
 71
     7
 72
     1
  1
\C3;%%c\C3;\C3;27\C2;\H2.45;\S^ ;\C3;
  7
CONVERTER_11
 11
0.0
 21
1.0
 31
0.0
 73
     1
 44
0.60024009603842
  0
ENDBLK
  5
120
330
118
100
AcDbEntity
  8
0
100
AcDbBlockEnd
  0
BLOCK
  5
12A
330
123
100
AcDbEntity
  8
0
100
AcDbBlockBegin
  2
*D5
 70
     1
 10
0.0
 20
0.0
 30
0.0
  3
*D5
  1

  0
LINE
  5
124
330
123
100
AcDbEntity
  8
1
  6
Continuous
 62
     2
100
AcDbLine
 10
243.9417533793
 20
357.505315853494
 30
0.0
 11
112.9417533793
 21
357.505315853494
 31
0.0
  0
LINE
  5
125
330
123
100
AcDbEntity
  8
1
  6
Continuous
 62
     2
100
AcDbLine
 10
243.9417533793
 20
311.37938318
 30
0.0
 11
243.9417533793
 21
359.505315853494
 31
0.0
  0
LINE
  5
126
330
123
100
AcDbEntity
  8
1
  6
Continuous
 62
     2
100
AcDbLine
 10
112.9417533793
 20
351.8037367506
 30
0.0
 11
112.9417533793
 21
359.505315853494
 31
0.0
  0
SOLID
  5
127
330
123
100
AcDbEntity
  8
1
 62
     2
100
AcDbTrace
 10
240.4417533793
 20
357.0445321119381
 30
0.0
 11
240.4417533793
 21
357.9660995950499
 31
0.0
 12
243.9417533793
 22
357.505315853494
 32
0.0
 13
243.9417533793
 23
357.505315853494
 33
0.0
  0
SOLID
  5
128
330
123
100
AcDbEntity
  8
1
 62
     2
100
AcDbTrace
 10
116.4417533793
 20
357.9660995950499
 30
0.0
 11
116.4417533793
 21
357.0445321119381
 31
0.0
 12
112.9417533793
 22
357.505315853494
 32
0.0
 13
112.9417533793
 23
357.505315853494
 33
0.0
  0
MTEXT
  5
129
330
123
100
AcDbEntity
  8
1
 62
     3
100
AcDbMText
 10
175.868474191685
 20
359.505315853494
 30
0.0
 40
3.5
 41
0.0
 71
     7
 72
     1
  1
\C3;\C3;\C3;131\C2;\H2.45;\S^ ;\C3;
  7
CONVERTER_11
 11
0.9999999999970619
 21
2.424068405545306E-6
 31
0.0
 73
     1
 44
0.60024009603842
  0
ENDBLK
  5
12B
330
123
100
AcDbEntity
  8
0
100
AcDbBlockEnd
  0
BLOCK
  5
135
330
12E
100
AcDbEntity
  8
0
100
AcDbBlockBegin
  2
*D6
 70
     1
 10
0.0
 20
0.0
 30
0.0
  3
*D6
  1

  0
LINE
  5
12F
330
12E
100
AcDbEntity
  8
1
  6
Continuous
 62
     2
100
AcDbLine
 10
243.9417533793
 20
365.620653128543
 30
0.0
 11
83.9417533793
 21
365.620653128543
 31
0.0
  0
LINE
  5
130
330
12E
100
AcDbEntity
  8
1
  6
Continuous
 62
     2
100
AcDbLine
 10
243.9417533793
 20
311.37938318
 30
0.0
 11
243.9417533793
 21
367.620653128543
 31
0.0
  0
LINE
  5
131
330
12E
100
AcDbEntity
  8
1
  6
Continuous
 62
     2
100
AcDbLine
 10
83.9417533793
 20
351.8037736717
 30
0.0
 11
83.9417533793
 21
367.620653128543
 31
0.0
  0
SOLID
  5
132
330
12E
100
AcDbEntity
  8
1
 62
     2
100
AcDbTrace
 10
240.4417533793
 20
365.1598693869871
 30
0.0
 11
240.4417533793
 21
366.0814368700989
 31
0.0
 12
243.9417533793
 22
365.620653128543
 32
0.0
 13
243.9417533793
 23
365.620653128543
 33
0.0
  0
SOLID
  5
133
330
12E
100
AcDbEntity
  8
1
 62
     2
100
AcDbTrace
 10
87.4417533793
 20
366.0814368700989
 30
0.0
 11
87.4417533793
 21
365.1598693869871
 31
0.0
 12
83.9417533793
 22
365.620653128543
 32
0.0
 13
83.9417533793
 23
365.620653128543
 33
0.0
  0
MTEXT
  5
134
330
12E
100
AcDbEntity
  8
1
 62
     3
100
AcDbMText
 10
161.334844148121
 20
367.620653128543
 30
0.0
 40
3.5
 41
0.0
 71
     7
 72
     1
  1
\C3;\C3;\C3;160\C2;\H2.45;\S^ ;\C3;
  7
CONVERTER_11
 11
0.9999999999970619
 21
2.424068405545306E-6
 31
0.0
 73
     1
 44
0.60024009603842
  0
ENDBLK
  5
136
330
12E
100
AcDbEntity
  8
0
100
AcDbBlockEnd
  0
BLOCK
  5
140
330
139
100
AcDbEntity
  8
0
100
AcDbBlockBegin
  2
*D7
 70
     1
 10
0.0
 20
0.0
 30
0.0
  3
*D7
  1

  0
LINE
  5
13A
330
139
100
AcDbEntity
  8
1
  6
Continuous
 62
     2
100
AcDbLine
 10
243.9417533793
 20
373.206729276959
 30
0.0
 11
33.9417533793
 21
373.206729276959
 31
0.0
  0
LINE
  5
13B
330
139
100
AcDbEntity
  8
1
  6
Continuous
 62
     2
100
AcDbLine
 10
243.9417533793
 20
311.37938318
 30
0.0
 11
243.9417533793
 21
375.206729276959
 31
0.0
  0
LINE
  5
13C
330
139
100
AcDbEntity
  8
1
  6
Continuous
 62
     2
100
AcDbLine
 10
33.9417533793
 20
335.4039652343
 30
0.0
 11
33.9417533793
 21
375.206729276959
 31
0.0
  0
SOLID
  5
13D
330
139
100
AcDbEntity
  8
1
 62
     2
100
AcDbTrace
 10
240.4417533793
 20
372.7459455354031
 30
0.0
 11
240.4417533793
 21
373.6675130185149
 31
0.0
 12
243.9417533793
 22
373.206729276959
 32
0.0
 13
243.9417533793
 23
373.206729276959
 33
0.0
  0
SOLID
  5
13E
330
139
100
AcDbEntity
  8
1
 62
     2
100
AcDbTrace
 10
37.4417533793
 20
373.6675130185149
 30
0.0
 11
37.4417533793
 21
372.7459455354031
 31
0.0
 12
33.9417533793
 22
373.206729276959
 32
0.0
 13
33.9417533793
 23
373.206729276959
 33
0.0
  0
MTEXT
  5
13F
330
139
100
AcDbEntity
  8
1
 62
     3
100
AcDbMText
 10
138.223774951785
 20
375.206729276959
 30
0.0
 40
3.5
 41
0.0
 71
     7
 72
     1
  1
\C3;\C3;\C3;210\C2;\H2.45;\S^ ;\C3;
  7
CONVERTER_11
 11
0.9999999999970619
 21
2.424068405545306E-6
 31
0.0
 73
     1
 44
0.60024009603842
  0
ENDBLK
  5
141
330
139
100
AcDbEntity
  8
0
100
AcDbBlockEnd
  0
BLOCK
  5
148
330
144
100
AcDbEntity
  8
0
100
AcDbBlockBegin
  2
*D8
 70
     1
 10
0.0
 20
0.0
 30
0.0
  3
*D8
  1

  0
LINE
  5
145
330
144
100
AcDbEntity
  8
1
  6
Continuous
 62
     2
100
AcDbLine
 10
128.1086876648881
 20
333.8078720994661
 30
0.0
 11
119.0366183476069
 21
324.4291010844995
 31
0.0
  0
SOLID
  5
146
330
144
100
AcDbEntity
  8
1
 62
     2
100
AcDbTrace
 10
121.138823379162
 20
327.2651292334758
 30
0.0
 11
121.8012105771428
 21
326.6244032188017
 31
0.0
 12
119.0366183476069
 22
324.4291010844995
 32
0.0
 13
119.0366183476069
 23
324.4291010844995
 33
0.0
  0
MTEXT
  5
147
330
144
100
AcDbEntity
  8
1
 62
     3
100
AcDbMText
 10
119.7603126160592
 20
328.0538966003793
 30
0.0
 40
3.5
 41
0.0
 71
     7
 72
     1
  1
\C3; R\C3;\C3;20\C2;\H2.45;\S^ ;\C3;
  7
CONVERTER_11
 11
0.6952567515844382
 21
0.7187614690398023
 31
0.0
 73
     1
 44
0.60024009603842
  0
ENDBLK
  5
149
330
144
100
AcDbEntity
  8
0
100
AcDbBlockEnd
  0
BLOCK
  5
152
330
14B
100
AcDbEntity
  8
0
100
AcDbBlockBegin
  2
*D9
 70
     1
 10
0.0
 20
0.0
 30
0.0
  3
*D9
  1

  0
LINE
  5
14C
330
14B
100
AcDbEntity
  8
1
  6
Continuous
 62
     2
100
AcDbLine
 10
227.6427564336692
 20
313.3037736717
 30
0.0
 11
229.6427564336692
 21
313.3037736717
 31
0.0
  0
LINE
  5
14D
330
14B
100
AcDbEntity
  8
1
  6
Continuous
 62
     2
100
AcDbLine
 10
207.8231391708
 20
313.3037736717
 30
0.0
 11
227.6427564336692
 21
313.3037736717
 31
0.0
  0
ARC
  5
14E
330
14B
100
AcDbEntity
  8
1
  6
Continuous
 62
     2
100
AcDbCircle
 10
205.8231391708
 20
313.3037736717
 30
0.0
 40
21.8196172628692
100
AcDbArc
 50
341.7141100451445
 51
28.07008385472361
  0
SOLID
  5
14F
330
14B
100
AcDbEntity
  8
1
 62
     2
100
AcDbTrace
 10
227.477214506274
 20
308.0629931629916
 30
0.0
 11
226.5672340879298
 21
308.2086717961503
 31
0.0
 12
227.5754938355779
 22
311.5918262321397
 32
0.0
 13
227.5754938355779
 23
311.5918262321397
 33
0.0
  0
SOLID
  5
150
330
14B
100
AcDbEntity
  8
1
 62
     2
100
AcDbTrace
 10
226.9030440520869
 20
316.7556061196927
 30
0.0
 11
227.8216491183165
 21
316.8294394334905
 31
0.0
 12
227.6427564336692
 22
313.3037736717
 32
0.0
 13
227.6427564336692
 23
313.3037736717
 33
0.0
  0
MTEXT
  5
151
330
14B
100
AcDbEntity
  8
1
 62
     3
100
AcDbMText
 10
227.0711128100974
 20
324.6348816392951
 30
0.0
 40
3.5
 41
0.0
 71
     7
 72
     1
  1
\C3;\C3;\C3;4.5%%d\C2;\H2.45;\S^ ;\C3;
  7
CONVERTER_11
 11
0.3359217352293364
 21
-0.9418899021650629
 31
0.0
 73
     1
 44
0.60024009603842
  0
ENDBLK
  5
153
330
14B
100
AcDbEntity
  8
0
100
AcDbBlockEnd
  0
ENDSEC
  0
SECTION
  2
ENTITIES
  0
INSERT
  5
6C
330
1F
100
AcDbEntity
  8
0
100
AcDbBlockReference
  2
Urheberrecht_DE-EN
 10
25.6084289701042
 20
308.989712578743
 30
0.0
  0
LINE
  5
70
330
1F
100
AcDbEntity
  8
BEZUGSACHSEN
  6
Continuous
 62
     7
100
AcDbLine
 10
33.9417533793
 20
266.2035821088
 30
0.0
 11
33.9417533793
 21
287.7937736717
 31
0.0
  0
LINE
  5
71
330
1F
100
AcDbEntity
  8
BEZUGSACHSEN
  6
Continuous
 62
     7
100
AcDbLine
 10
33.9417533793
 20
311.8137736717
 30
0.0
 11
33.9417533793
 21
333.4039652343
 31
0.0
  0
LINE
  5
72
330
1F
100
AcDbEntity
  8
BEZUGSACHSEN
  6
Continuous
 62
     9
100
AcDbLine
 10
35.8416788945
 20
335.40145994
 30
0.0
 11
35.8416788945
 21
315.480306058
 31
0.0
  0
LINE
  5
73
330
1F
100
AcDbEntity
  8
BEZUGSACHSEN
  6
Continuous
 62
     9
100
AcDbLine
 10
35.8416788945
 20
284.1272412855
 30
0.0
 11
35.8416788945
 21
264.2060874034
 31
0.0
  0
LINE
  5
74
330
1F
100
AcDbEntity
  8
BEZUGSACHSEN
  6
Continuous
 62
     7
100
AcDbLine
 10
35.9417533793
 20
287.4001337233
 30
0.0
 11
35.9417533793
 21
289.7937736717
 31
0.0
  0
LINE
  5
75
330
1F
100
AcDbEntity
  8
BEZUGSACHSEN
  6
Continuous
 62
     7
100
AcDbLine
 10
35.9417533793
 20
309.8137736717
 30
0.0
 11
35.9417533793
 21
312.2074136201
 31
0.0
  0
LINE
  5
76
330
1F
100
AcDbEntity
  8
BEZUGSACHSEN
  6
Continuous
 62
     9
100
AcDbLine
 10
41.9417533793
 20
283.4451260843
 30
0.0
 11
41.9417533793
 21
289.7937736717
 31
0.0
  0
LINE
  5
77
330
1F
100
AcDbEntity
  8
BEZUGSACHSEN
  6
Continuous
 62
     9
100
AcDbLine
 10
41.9417533793
 20
309.8137736717
 30
0.0
 11
41.9417533793
 21
316.1624212591
 31
0.0
  0
LINE
  5
78
330
1F
100
AcDbEntity
  8
BEZUGSACHSEN
  6
Continuous
 62
     7
100
AcDbLine
 10
43.9417533793
 20
312.6734291975
 30
0.0
 11
43.9417533793
 21
286.9341181459
 31
0.0
  0
LINE
  5
79
330
1F
100
AcDbEntity
  8
BEZUGSACHSEN
  6
Continuous
 62
     7
100
AcDbLine
 10
35.2087063063
 20
284.7937736717
 30
0.0
 11
35.0875960549
 21
284.5614376763
 31
0.0
  0
LINE
  5
7A
330
1F
100
AcDbEntity
  8
BEZUGSACHSEN
  6
Continuous
 62
     7
100
AcDbLine
 10
35.0875960549
 20
315.0461096672
 30
0.0
 11
35.2087063063
 21
314.8137736717
 31
0.0
  0
LWPOLYLINE
  5
7B
330
1F
100
AcDbEntity
  8
BEZUGSACHSEN
  6
DOT_CENTER
 62
     7
100
AcDbPolyline
 90
        2
 70
     0
 43
0.25
 10
68.9417533793
 20
299.8037736717
 10
68.9417533793
 20
290.8037736717
  0
LWPOLYLINE
  5
7C
330
1F
100
AcDbEntity
  8
BEZUGSACHSEN
  6
DOT_CENTER
 62
     7
100
AcDbPolyline
 90
        2
 70
     0
 43
0.25
 10
68.9417533793
 20
299.8037736717
 10
68.9417533793
 20
308.8037736717
  0
LINE
  5
7D
330
1F
100
AcDbEntity
  8
BEZUGSACHSEN
  6
Continuous
 62
     7
100
AcDbLine
 10
33.9417533793
 20
287.7937736717
 30
0.0
 11
35.9417533793
 21
289.7937736717
 31
0.0
  0
LINE
  5
7E
330
1F
100
AcDbEntity
  8
BEZUGSACHSEN
  6
Continuous
 62
     7
100
AcDbLine
 10
35.9417533793
 20
309.8137736717
 30
0.0
 11
33.9417533793
 21
311.8137736717
 31
0.0
  0
LINE
  5
7F
330
1F
100
AcDbEntity
  8
BEZUGSACHSEN
  6
Continuous
 62
     7
100
AcDbLine
 10
81.4417533793
 20
337.6860236717
 30
0.0
 11
81.4417533793
 21
261.9215236717
 31
0.0
  0
LINE
  5
80
330
1F
100
AcDbEntity
  8
BEZUGSACHSEN
  6
Continuous
 62
     9
100
AcDbLine
 10
82.0609969933
 20
262.087449498
 30
0.0
 11
82.0609969933
 21
337.5200978454
 31
0.0
  0
LINE
  5
81
330
1F
100
AcDbEntity
  8
BEZUGSACHSEN
  6
Continuous
 62
     9
100
AcDbLine
 10
82.3198160384
 20
262.1215236717
 30
0.0
 11
82.3198160384
 21
337.4860236717
 31
0.0
  0
LINE
  5
82
330
1F
100
AcDbEntity
  8
BEZUGSACHSEN
  6
Continuous
 62
     9
100
AcDbLine
 10
83.2411820906
 20
262.1215236717
 30
0.0
 11
83.2411820906
 21
337.4860236717
 31
0.0
  0
LINE
  5
83
330
1F
100
AcDbEntity
  8
BEZUGSACHSEN
  6
Continuous
 62
     7
100
AcDbLine
 10
83.9417533793
 20
349.8037736717
 30
0.0
 11
83.9417533793
 21
249.8037736717
 31
0.0
  0
LWPOLYLINE
  5
84
330
1F
100
AcDbEntity
  8
BEZUGSACHSEN
  6
DOT_CENTER
 62
     7
100
AcDbPolyline
 90
        2
 70
     0
 43
0.25
 10
90.9417533793
 20
341.953145527
 10
90.9417533793
 20
352.8037736717
  0
LINE
  5
85
330
1F
100
AcDbEntity
  8
BEZUGSACHSEN
  6
Continuous
 62
     7
100
AcDbLine
 10
105.8167533793
 20
347.4263689359
 30
0.0
 11
107.1893486435
 21
349.8037736717
 31
0.0
  0
LINE
  5
86
330
1F
100
AcDbEntity
  8
BEZUGSACHSEN
  6
Continuous
 62
     7
100
AcDbLine
 10
100.6941581151
 20
249.8037736717
 30
0.0
 11
83.9417533793
 21
249.8037736717
 31
0.0
  0
LINE
  5
87
330
1F
100
AcDbEntity
  8
BEZUGSACHSEN
  6
Continuous
 62
     7
100
AcDbLine
 10
107.1893486435
 20
249.8037736717
 30
0.0
 11
112.9417533793
 21
249.8037736717
 31
0.0
  0
LINE
  5
88
330
1F
100
AcDbEntity
  8
BEZUGSACHSEN
  6
Continuous
 62
     7
100
AcDbLine
 10
103.0667533793
 20
253.8037736717
 30
0.0
 11
104.8167533793
 21
253.8037736717
 31
0.0
  0
LINE
  5
89
330
1F
100
AcDbEntity
  8
BEZUGSACHSEN
  6
Continuous
 62
     7
100
AcDbLine
 10
105.8167533793
 20
252.1811784075
 30
0.0
 11
107.1893486435
 21
249.8037736717
 31
0.0
  0
LINE
  5
8A
330
1F
100
AcDbEntity
  8
FASEN
  6
Continuous
 62
     9
100
AcDbLine
 10
96.9136273011
 20
267.9037736717
 30
0.0
 11
96.9136273011
 21
268.3037736717
 31
0.0
  0
LINE
  5
8B
330
1F
100
AcDbEntity
  8
FASEN
  6
Continuous
 62
     9
100
AcDbLine
 10
98.9417533793
 20
290.2037736717
 30
0.0
 11
98.9417533793
 21
289.8037736717
 31
0.0
  0
LINE
  5
8C
330
1F
100
AcDbEntity
  8
FASEN
  6
Continuous
 62
     9
100
AcDbLine
 10
98.9417533793
 20
309.4037736717
 30
0.0
 11
98.9417533793
 21
309.8037736717
 31
0.0
  0
LINE
  5
8D
330
1F
100
AcDbEntity
  8
0
  6
Continuous
 62
     7
100
AcDbLine
 10
100.6941581151
 20
349.8037736717
 30
0.0
 11
100.6941581151
 21
309.8037736717
 31
0.0
  0
LINE
  5
8E
330
1F
100
AcDbEntity
  8
0
  6
Continuous
 62
     7
100
AcDbLine
 10
100.6941581151
 20
289.8037736717
 30
0.0
 11
100.6941581151
 21
268.3037736717
 31
0.0
  0
LINE
  5
8F
330
1F
100
AcDbEntity
  8
0
  6
Continuous
 62
     7
100
AcDbLine
 10
100.6941581151
 20
260.974017041
 30
0.0
 11
100.6941581151
 21
249.8037736717
 31
0.0
  0
LINE
  5
90
330
1F
100
AcDbEntity
  8
FASEN
  6
Continuous
 62
     7
100
AcDbLine
 10
89.3432393437
 20
260.974017041
 30
0.0
 11
100.6941581151
 21
260.974017041
 31
0.0
  0
LINE
  5
91
330
1F
100
AcDbEntity
  8
0
  6
Continuous
 62
     7
100
AcDbLine
 10
107.1893486435
 20
260.974017041
 30
0.0
 11
112.9417533793
 21
260.974017041
 31
0.0
  0
LINE
  5
92
330
1F
100
AcDbEntity
  8
BEZUGSACHSEN
  6
Continuous
 62
     7
100
AcDbLine
 10
81.4417533793
 20
261.9215236717
 30
0.0
 11
35.8416788945
 21
264.2060874034
 31
0.0
  0
LINE
  5
93
330
1F
100
AcDbEntity
  8
0
  6
Continuous
 62
     7
100
AcDbLine
 10
102.0667533793
 20
347.4263355094
 30
0.0
 11
102.0667533793
 21
309.8037736717
 31
0.0
  0
LINE
  5
94
330
1F
100
AcDbEntity
  8
0
  6
Continuous
 62
     7
100
AcDbLine
 10
102.0667533793
 20
289.8037736717
 30
0.0
 11
102.0667533793
 21
268.3037736717
 31
0.0
  0
LINE
  5
95
330
1F
100
AcDbEntity
  8
0
  6
Continuous
 62
     7
100
AcDbLine
 10
102.0667533793
 20
252.1812159415
 30
0.0
 11
102.0667533793
 21
264.9218299185
 31
0.0
  0
LINE
  5
96
330
1F
100
AcDbEntity
  8
0
  6
Continuous
 62
     9
100
AcDbLine
 10
103.0667533793
 20
253.8037736717
 30
0.0
 11
103.0667533793
 21
266.281393088
 31
0.0
  0
LINE
  5
97
330
1F
100
AcDbEntity
  8
0
  6
Continuous
 62
     9
100
AcDbLine
 10
103.0667533793
 20
268.3037736717
 30
0.0
 11
103.0667533793
 21
289.8037736717
 31
0.0
  0
LINE
  5
98
330
1F
100
AcDbEntity
  8
0
  6
Continuous
 62
     9
100
AcDbLine
 10
103.0667533793
 20
309.8037736717
 30
0.0
 11
103.0667533793
 21
345.8037736717
 31
0.0
  0
LINE
  5
99
330
1F
100
AcDbEntity
  8
0
  6
Continuous
 62
     9
100
AcDbLine
 10
104.8167533793
 20
253.8037736717
 30
0.0
 11
104.8167533793
 21
266.281393088
 31
0.0
  0
LINE
  5
9A
330
1F
100
AcDbEntity
  8
0
  6
Continuous
 62
     9
100
AcDbLine
 10
104.8167533793
 20
268.3037736717
 30
0.0
 11
104.8167533793
 21
289.8037736717
 31
0.0
  0
LINE
  5
9B
330
1F
100
AcDbEntity
  8
0
  6
Continuous
 62
     9
100
AcDbLine
 10
104.8167533793
 20
309.8037736717
 30
0.0
 11
104.8167533793
 21
345.8037736717
 31
0.0
  0
LINE
  5
9C
330
1F
100
AcDbEntity
  8
0
  6
Continuous
 62
     7
100
AcDbLine
 10
105.8167533793
 20
252.1812159415
 30
0.0
 11
105.8167533793
 21
264.9218299185
 31
0.0
  0
LINE
  5
9D
330
1F
100
AcDbEntity
  8
0
  6
Continuous
 62
     7
100
AcDbLine
 10
105.8167533793
 20
268.3037736717
 30
0.0
 11
105.8167533793
 21
289.8037736717
 31
0.0
  0
LINE
  5
9E
330
1F
100
AcDbEntity
  8
0
  6
Continuous
 62
     7
100
AcDbLine
 10
105.8167533793
 20
309.8037736717
 30
0.0
 11
105.8167533793
 21
347.4263355094
 31
0.0
  0
LINE
  5
9F
330
1F
100
AcDbEntity
  8
0
  6
Continuous
 62
     7
100
AcDbLine
 10
107.1893486435
 20
349.8037736717
 30
0.0
 11
107.1893486435
 21
309.8037736717
 31
0.0
  0
LINE
  5
A0
330
1F
100
AcDbEntity
  8
0
  6
Continuous
 62
     7
100
AcDbLine
 10
107.1893486435
 20
289.8037736717
 30
0.0
 11
107.1893486435
 21
268.3037736717
 31
0.0
  0
LINE
  5
A1
330
1F
100
AcDbEntity
  8
0
  6
Continuous
 62
     7
100
AcDbLine
 10
107.1893486435
 20
260.974017041
 30
0.0
 11
107.1893486435
 21
249.8037736717
 31
0.0
  0
LINE
  5
A2
330
1F
100
AcDbEntity
  8
BEZUGSACHSEN
  6
Continuous
 62
     9
100
AcDbLine
 10
33.9417533793
 20
286.3575897027
 30
0.0
 11
35.9417533793
 21
287.4001337233
 31
0.0
  0
LINE
  5
A3
330
1F
100
AcDbEntity
  8
BEZUGSACHSEN
  6
Continuous
 62
     7
100
AcDbLine
 10
83.2411820906
 20
262.1215236717
 30
0.0
 11
82.3198160384
 21
262.1215236717
 31
0.0
  0
LINE
  5
A4
330
1F
100
AcDbEntity
  8
0
  6
Continuous
 62
     7
100
AcDbLine
 10
103.0667533793
 20
266.281393088
 30
0.0
 11
104.8167533793
 21
266.281393088
 31
0.0
  0
LINE
  5
A5
330
1F
100
AcDbEntity
  8
FASEN
  6
Continuous
 62
     7
100
AcDbLine
 10
96.9136273011
 20
267.9037736717
 30
0.0
 11
112.9417533793
 21
267.9037736717
 31
0.0
  0
LINE
  5
A6
330
1F
100
AcDbEntity
  8
0
  6
Continuous
 62
     7
100
AcDbLine
 10
96.9136273011
 20
268.3037736717
 30
0.0
 11
112.9417533793
 21
268.3037736717
 31
0.0
  0
LINE
  5
A7
330
1F
100
AcDbEntity
  8
BEZUGSACHSEN
  6
Continuous
 62
     9
100
AcDbLine
 10
35.9417533793
 20
312.2074136201
 30
0.0
 11
33.9417533793
 21
313.2499576407
 31
0.0
  0
LINE
  5
A8
330
1F
100
AcDbEntity
  8
0
  6
Continuous
 62
     7
100
AcDbLine
 10
112.9417533793
 20
349.8037367506
 30
0.0
 11
112.9417533793
 21
309.8037736717
 31
0.0
  0
LINE
  5
A9
330
1F
100
AcDbEntity
  8
0
  6
Continuous
 62
     7
100
AcDbLine
 10
112.9417533793
 20
289.8037736717
 30
0.0
 11
112.9417533793
 21
268.3037736717
 31
0.0
  0
LINE
  5
AA
330
1F
100
AcDbEntity
  8
0
  6
Continuous
 62
     7
100
AcDbLine
 10
112.9417533793
 20
260.974017041
 30
0.0
 11
112.9417533793
 21
249.8037755395
 31
0.0
  0
LINE
  5
AB
330
1F
100
AcDbEntity
  8
FASEN
  6
Continuous
 62
     7
100
AcDbLine
 10
112.9417533793
 20
260.974017041
 30
0.0
 11
112.9417533793
 21
268.3037736717
 31
0.0
  0
LINE
  5
AC
330
1F
100
AcDbEntity
  8
FASEN
  6
Continuous
 62
     7
100
AcDbLine
 10
112.9417533793
 20
289.8037736717
 30
0.0
 11
112.9417533793
 21
309.8037736717
 31
0.0
  0
LINE
  5
AD
330
1F
100
AcDbEntity
  8
BEZUGSACHSEN
  6
Continuous
 62
     7
100
AcDbLine
 10
82.0609969933
 20
262.087449498
 30
0.0
 11
81.4417533793
 21
261.9215236717
 31
0.0
  0
LINE
  5
AE
330
1F
100
AcDbEntity
  8
RUNDUNGEN
  6
Continuous
 62
     7
100
AcDbLine
 10
243.020212475
 20
289.2312468296
 30
0.0
 11
205.8231391708
 21
286.3037736717
 31
0.0
  0
LINE
  5
AF
330
1F
100
AcDbEntity
  8
0
  6
Continuous
 62
     7
100
AcDbLine
 10
205.8231391708
 20
286.3037736717
 30
0.0
 11
243.020212475
 21
289.2312468296
 31
0.0
  0
LINE
  5
B0
330
1F
100
AcDbEntity
  8
BEZUGSACHSEN
  6
Continuous
 62
     9
100
AcDbLine
 10
43.4955993262
 20
284.7937736717
 30
0.0
 11
35.2087063063
 21
284.7937736717
 31
0.0
  0
LINE
  5
B1
330
1F
100
AcDbEntity
  8
RUNDUNGEN
  6
Continuous
 62
     9
100
AcDbLine
 10
128.5939272923
 20
319.2826397517
 30
0.0
 11
128.5939272923
 21
280.3249075917
 31
0.0
  0
LINE
  5
B2
330
1F
100
AcDbEntity
  8
BEZUGSACHSEN
  6
Continuous
 62
     7
100
AcDbLine
 10
100.6941581151
 20
249.8037736717
 30
0.0
 11
102.0667533793
 21
252.1811784075
 31
0.0
  0
LINE
  5
B3
330
1F
100
AcDbEntity
  8
0
  6
Continuous
 62
     7
100
AcDbLine
 10
205.8231391708
 20
286.3037736717
 30
0.0
 11
182.9417533793
 21
286.3037736717
 31
0.0
  0
LINE
  5
B4
330
1F
100
AcDbEntity
  8
BEZUGSACHSEN
  6
Continuous
 62
     7
100
AcDbLine
 10
41.9417533793
 20
289.7937736717
 30
0.0
 11
35.9417533793
 21
289.7937736717
 31
0.0
  0
LINE
  5
B5
330
1F
100
AcDbEntity
  8
0
  6
Continuous
 62
     7
100
AcDbLine
 10
98.9417533793
 20
289.8037736717
 30
0.0
 11
112.9417533793
 21
289.8037736717
 31
0.0
  0
LINE
  5
B6
330
1F
100
AcDbEntity
  8
FASEN
  6
Continuous
 62
     7
100
AcDbLine
 10
112.9417533793
 20
290.2037736717
 30
0.0
 11
98.9417533793
 21
290.2037736717
 31
0.0
  0
LINE
  5
B7
330
1F
100
AcDbEntity
  8
BEZUGSACHSEN
  6
Continuous
 62
     7
100
AcDbLine
 10
100.6941581151
 20
349.8037736717
 30
0.0
 11
102.0667533793
 21
347.4263689359
 31
0.0
  0
LWPOLYLINE
  5
B8
330
1F
100
AcDbEntity
  8
DEFAULT_2
  6
DASHED
 62
     8
100
AcDbPolyline
 90
        2
 70
     0
 43
0.35
 10
243.9417533793
 20
295.8037736717
 10
207.9417533793
 20
295.8037736717
  0
LWPOLYLINE
  5
B9
330
1F
100
AcDbEntity
  8
BEZUGSACHSEN
  6
DOT_CENTER
 62
     7
100
AcDbPolyline
 90
        2
 70
     0
 43
0.25
 10
246.9417533793
 20
299.8037736717
 10
30.9417533793
 20
299.8037736717
  0
LWPOLYLINE
  5
BA
330
1F
100
AcDbEntity
  8
DEFAULT_2
  6
DASHED
 62
     8
100
AcDbPolyline
 90
        2
 70
     0
 43
0.35
 10
243.9417533793
 20
303.8037736717
 10
207.9417533793
 20
303.8037736717
  0
LINE
  5
BB
330
1F
100
AcDbEntity
  8
FASEN
  6
Continuous
 62
     7
100
AcDbLine
 10
98.9417533793
 20
309.4037736717
 30
0.0
 11
112.9417533793
 21
309.4037736717
 31
0.0
  0
LINE
  5
BC
330
1F
100
AcDbEntity
  8
0
  6
Continuous
 62
     7
100
AcDbLine
 10
98.9417533793
 20
309.8037736717
 30
0.0
 11
112.9417533793
 21
309.8037736717
 31
0.0
  0
LINE
  5
BD
330
1F
100
AcDbEntity
  8
BEZUGSACHSEN
  6
Continuous
 62
     7
100
AcDbLine
 10
41.9417533793
 20
309.8137736717
 30
0.0
 11
35.9417533793
 21
309.8137736717
 31
0.0
  0
LINE
  5
BE
330
1F
100
AcDbEntity
  8
0
  6
Continuous
 62
     7
100
AcDbLine
 10
205.8231391708
 20
313.3037736717
 30
0.0
 11
182.9417533793
 21
313.3037736717
 31
0.0
  0
LINE
  5
BF
330
1F
100
AcDbEntity
  8
BEZUGSACHSEN
  6
Continuous
 62
     9
100
AcDbLine
 10
35.2087063063
 20
314.8137736717
 30
0.0
 11
43.4955993262
 21
314.8137736717
 31
0.0
  0
LINE
  5
C0
330
1F
100
AcDbEntity
  8
RUNDUNGEN
  6
Continuous
 62
     7
100
AcDbLine
 10
243.020212475
 20
310.3763005138
 30
0.0
 11
205.8231391708
 21
313.3037736717
 31
0.0
  0
LINE
  5
C1
330
1F
100
AcDbEntity
  8
0
  6
Continuous
 62
     7
100
AcDbLine
 10
205.8231391708
 20
313.3037736717
 30
0.0
 11
243.020212475
 21
310.3763005138
 31
0.0
  0
LINE
  5
C2
330
1F
100
AcDbEntity
  8
BEZUGSACHSEN
  6
Continuous
 62
     7
100
AcDbLine
 10
82.0609969933
 20
337.5200978454
 30
0.0
 11
81.4417533793
 21
337.6860236717
 31
0.0
  0
LINE
  5
C3
330
1F
100
AcDbEntity
  8
BEZUGSACHSEN
  6
Continuous
 62
     7
100
AcDbLine
 10
83.2411820906
 20
337.4860236717
 30
0.0
 11
82.3198160384
 21
337.4860236717
 31
0.0
  0
LINE
  5
C4
330
1F
100
AcDbEntity
  8
0
  6
Continuous
 62
     9
100
AcDbLine
 10
182.9417533793
 20
313.3037736717
 30
0.0
 11
182.9417533793
 21
286.3037736717
 31
0.0
  0
LINE
  5
C5
330
1F
100
AcDbEntity
  8
BEZUGSACHSEN
  6
Continuous
 62
     7
100
AcDbLine
 10
81.4417533793
 20
337.6860236717
 30
0.0
 11
35.8416788945
 21
335.40145994
 31
0.0
  0
LINE
  5
C6
330
1F
100
AcDbEntity
  8
BEZUGSACHSEN
  6
Continuous
 62
     7
100
AcDbLine
 10
103.0667533793
 20
345.8037736717
 30
0.0
 11
104.8167533793
 21
345.8037736717
 31
0.0
  0
LINE
  5
C7
330
1F
100
AcDbEntity
  8
BEZUGSACHSEN
  6
Continuous
 62
     7
100
AcDbLine
 10
100.6941581151
 20
349.8037736717
 30
0.0
 11
95.9417533793
 21
349.8037736717
 31
0.0
  0
LINE
  5
C8
330
1F
100
AcDbEntity
  8
BEZUGSACHSEN
  6
Continuous
 62
     7
100
AcDbLine
 10
85.9417533793
 20
349.8037736717
 30
0.0
 11
83.9417533793
 21
349.8037736717
 31
0.0
  0
LINE
  5
C9
330
1F
100
AcDbEntity
  8
BEZUGSACHSEN
  6
Continuous
 62
     7
100
AcDbLine
 10
107.1893486435
 20
349.8037736717
 30
0.0
 11
112.9417533793
 21
349.8037736717
 31
0.0
  0
LINE
  5
CA
330
1F
100
AcDbEntity
  8
0
  6
Continuous
 62
     7
100
AcDbLine
 10
205.8231391708
 20
313.3037736717
 30
0.0
 11
205.8231391708
 21
286.3037736717
 31
0.0
  0
LWPOLYLINE
  5
CB
330
1F
100
AcDbEntity
  8
DEFAULT_2
  6
DASHED
 62
     8
100
AcDbPolyline
 90
        2
 70
     0
 43
0.35
 10
207.9417533793
 20
303.8037736717
 10
207.9417533793
 20
295.8037736717
  0
LINE
  5
CC
330
1F
100
AcDbEntity
  8
RUNDUNGEN
  6
Continuous
 62
     9
100
AcDbLine
 10
243.020212475
 20
289.2312468296
 30
0.0
 11
243.020212475
 21
310.3763005138
 31
0.0
  0
LINE
  5
CD
330
1F
100
AcDbEntity
  8
RUNDUNGEN
  6
Continuous
 62
     7
100
AcDbLine
 10
243.9417533793
 20
309.37938318
 30
0.0
 11
243.9417533793
 21
290.2281641634
 31
0.0
  0
LWPOLYLINE
  5
CE
330
1F
100
AcDbEntity
  8
1
  6
Continuous
 62
     7
100
AcDbPolyline
 90
        2
 70
     0
 43
0.25
 10
243.9417533793
 20
309.37938318
 10
243.9417533793
 20
310.3037736717528
  0
LWPOLYLINE
  5
CF
330
1F
100
AcDbEntity
  8
1
  6
Continuous
 62
     7
100
AcDbPolyline
 90
        2
 70
     0
 43
0.25
 10
243.020212475
 20
310.3763005138
 10
243.9417533793094
 20
310.3037736717528
  0
LWPOLYLINE
  5
D0
330
1F
100
AcDbEntity
  8
1
  6
Continuous
 62
     7
100
AcDbPolyline
 90
        2
 70
     0
 43
0.25
 10
243.020212475
 20
289.2312468296
 10
243.9417533793
 20
289.3037736716559
  0
LWPOLYLINE
  5
D1
330
1F
100
AcDbEntity
  8
1
  6
Continuous
 62
     7
100
AcDbPolyline
 90
        2
 70
     0
 43
0.25
 10
243.9417533793
 20
290.2281641634
 10
243.9417533793
 20
289.3037736716559
  0
ARC
  5
D2
330
1F
100
AcDbEntity
  8
FASEN
  6
Continuous
 62
     7
100
AcDbCircle
 10
101.8424074022
 20
275.3350369418
 30
0.0
 40
19.0385948731999
100
AcDbArc
 50
227.4837701982995
 51
228.9651953374995
  0
ARC
  5
D3
330
1F
100
AcDbEntity
  8
FASEN
  6
Continuous
 62
     7
100
AcDbCircle
 10
96.9136273011
 20
260.3037736717
 30
0.0
 40
8.0
100
AcDbArc
 50
90.0
 51
172.8323734889971
  0
ARC
  5
D4
330
1F
100
AcDbEntity
  8
FASEN
  6
Continuous
 62
     7
100
AcDbCircle
 10
96.9136273011
 20
260.3037736717
 30
0.0
 40
7.599982194900008
100
AcDbArc
 50
90.0
 51
174.9405171273017
  0
ARC
  5
D5
330
1F
100
AcDbEntity
  8
BEZUGSACHSEN
  6
Continuous
 62
     7
100
AcDbCircle
 10
41.9417533793
 20
291.7937736717
 30
0.0
 40
2.0
100
AcDbArc
 50
270.0
 51
355.2355361864933
  0
ARC
  5
D6
330
1F
100
AcDbEntity
  8
BEZUGSACHSEN
  6
Continuous
 62
     7
100
AcDbCircle
 10
35.9417533793
 20
266.2035821086
 30
0.0
 40
2.0
100
AcDbArc
 50
179.9999999942711
 51
267.1318795106972
  0
ARC
  5
D7
330
1F
100
AcDbEntity
  8
BEZUGSACHSEN
  6
Continuous
 62
     7
100
AcDbCircle
 10
103.0667533793
 20
252.8037736717
 30
0.0
 40
1.0
100
AcDbArc
 50
90.0
 51
180.0
  0
ARC
  5
D8
330
1F
100
AcDbEntity
  8
BEZUGSACHSEN
  6
Continuous
 62
     7
100
AcDbCircle
 10
82.3198160384
 20
261.1215236717
 30
0.0
 40
1.0
100
AcDbArc
 50
90.0
 51
104.9999999996989
  0
ARC
  5
D9
330
1F
100
AcDbEntity
  8
BEZUGSACHSEN
  6
Continuous
 62
     7
100
AcDbCircle
 10
83.2411820906
 20
261.1215236717
 30
0.0
 40
0.9999999999998028
100
AcDbArc
 50
45.49026120128747
 51
90.0
  0
ARC
  5
DA
330
1F
100
AcDbEntity
  8
0
  6
Continuous
 62
     7
100
AcDbCircle
 10
-140.6560265039
 20
369.2382412624
 30
0.0
 40
264.5204223909507
100
AcDbArc
 50
335.8400764706018
 51
336.5770705490999
  0
ARC
  5
DB
330
1F
100
AcDbEntity
  8
BEZUGSACHSEN
  6
Continuous
 62
     7
100
AcDbCircle
 10
90.9569613904
 20
399.8565434385
 30
0.0
 40
50.30340021035248
100
AcDbArc
 50
264.2781515101899
 51
269.9826780125999
  0
ARC
  5
DC
330
1F
100
AcDbEntity
  8
BEZUGSACHSEN
  6
Continuous
 62
     7
100
AcDbCircle
 10
90.9265453782
 20
399.8565432378
 30
0.0
 40
50.30340000969741
100
AcDbArc
 50
270.017321976058
 51
275.7218485012678
  0
ARC
  5
DD
330
1F
100
AcDbEntity
  8
0
  6
Continuous
 62
     7
100
AcDbCircle
 10
98.9417533793
 20
299.8037736717
 30
0.0
 40
10.0
100
AcDbArc
 50
90.0
 51
270.0
  0
ARC
  5
DE
330
1F
100
AcDbEntity
  8
FASEN
  6
Continuous
 62
     7
100
AcDbCircle
 10
98.9417533793
 20
299.8037736717
 30
0.0
 40
9.599999195900011
100
AcDbArc
 50
90.0
 51
270.0
  0
ARC
  5
DF
330
1F
100
AcDbEntity
  8
BEZUGSACHSEN
  6
Continuous
 62
     7
100
AcDbCircle
 10
41.9417533793
 20
307.8137736717
 30
0.0
 40
1.999999999999984
100
AcDbArc
 50
4.76446378498879
 51
90.0
  0
ARC
  5
E0
330
1F
100
AcDbEntity
  8
BEZUGSACHSEN
  6
Continuous
 62
     7
100
AcDbCircle
 10
35.9417533793
 20
333.4039652348
 30
0.0
 40
1.999999999952489
100
AcDbArc
 50
92.86812048930284
 51
180.0000000143238
  0
ARC
  5
E1
330
1F
100
AcDbEntity
  8
BEZUGSACHSEN
  6
Continuous
 62
     7
100
AcDbCircle
 10
103.0667533793
 20
346.8037736717
 30
0.0
 40
1.0
100
AcDbArc
 50
180.0
 51
270.0
  0
ARC
  5
E2
330
1F
100
AcDbEntity
  8
BEZUGSACHSEN
  6
Continuous
 62
     7
100
AcDbCircle
 10
82.3198160384
 20
338.4860236717
 30
0.0
 40
1.000000000009918
100
AcDbArc
 50
255.0000000003011
 51
270.0
  0
ARC
  5
E3
330
1F
100
AcDbEntity
  8
BEZUGSACHSEN
  6
Continuous
 62
     7
100
AcDbCircle
 10
83.2411820906
 20
338.4860236717
 30
0.0
 40
1.0
100
AcDbArc
 50
270.0
 51
314.5097387987103
  0
ARC
  5
E4
330
1F
100
AcDbEntity
  8
BEZUGSACHSEN
  6
Continuous
 62
     7
100
AcDbCircle
 10
220.2717999775
 20
-1306.2389856183
 30
0.0
 40
1632.172763698
100
AcDbArc
 50
96.2726189838
 51
96.48809068979999
  0
ARC
  5
E5
330
1F
100
AcDbEntity
  8
0
  6
Continuous
 62
     7
100
AcDbCircle
 10
182.9417533793
 20
36.3037736717
 30
0.0
 40
250.0
100
AcDbArc
 50
90.0
 51
102.5558577985977
  0
ARC
  5
E6
330
1F
100
AcDbEntity
  8
RUNDUNGEN
  6
Continuous
 62
     7
100
AcDbCircle
 10
182.9417533793
 20
36.3037736717
 30
0.0
 40
250.0
100
AcDbArc
 50
90.0
 51
102.5558577985977
  0
ARC
  5
E7
330
1F
100
AcDbEntity
  8
RUNDUNGEN
  6
Continuous
 62
     7
100
AcDbCircle
 10
132.9417533793
 20
260.8032168781
 30
0.0
 40
20.00000000000639
100
AcDbArc
 50
102.5558577987095
 51
179.5107663282991
  0
ARC
  5
E8
330
1F
100
AcDbEntity
  8
RUNDUNGEN
  6
Continuous
 62
     7
100
AcDbCircle
 10
242.9417533793
 20
290.2281641634
 30
0.0
 40
1.000000000064438
100
AcDbArc
 50
274.499999998109
 51
0.0
  0
ARC
  5
E9
330
1F
100
AcDbEntity
  8
BEZUGSACHSEN
  6
Continuous
 62
     7
100
AcDbCircle
 10
104.8167533793
 20
252.8037736717
 30
0.0
 40
1.0
100
AcDbArc
 50
0.0
 51
90.0
  0
ARC
  5
EA
330
1F
100
AcDbEntity
  8
BEZUGSACHSEN
  6
Continuous
 62
     7
100
AcDbCircle
 10
220.2717999817
 20
1905.8465329992
 30
0.0
 40
1632.1727637357
100
AcDbArc
 50
263.5119093102
 51
263.7273810162
  0
ARC
  5
EB
330
1F
100
AcDbEntity
  8
0
  6
Continuous
 62
     7
100
AcDbCircle
 10
348.5395332621
 20
369.2382412622
 30
0.0
 40
264.5204223905999
100
AcDbArc
 50
203.4229294508999
 51
204.1599235293941
  0
ARC
  5
EC
330
1F
100
AcDbEntity
  8
0
  6
Continuous
 62
     7
100
AcDbCircle
 10
182.9417533793
 20
563.3037736717
 30
0.0
 40
249.9999999999708
100
AcDbArc
 50
257.4441422014023
 51
270.0
  0
ARC
  5
ED
330
1F
100
AcDbEntity
  8
RUNDUNGEN
  6
Continuous
 62
     7
100
AcDbCircle
 10
182.9417533793
 20
563.3037736717
 30
0.0
 40
249.9999999999708
100
AcDbArc
 50
257.4441422014023
 51
270.0
  0
ARC
  5
EE
330
1F
100
AcDbEntity
  8
RUNDUNGEN
  6
Continuous
 62
     7
100
AcDbCircle
 10
132.9417533793
 20
338.8043304653
 30
0.0
 40
20.0
100
AcDbArc
 50
180.0
 51
257.4441422012905
  0
ARC
  5
EF
330
1F
100
AcDbEntity
  8
RUNDUNGEN
  6
Continuous
 62
     7
100
AcDbCircle
 10
242.9417533793
 20
309.37938318
 30
0.0
 40
1.0
100
AcDbArc
 50
0.0
 51
85.50000000189128
  0
ARC
  5
F0
330
1F
100
AcDbEntity
  8
BEZUGSACHSEN
  6
Continuous
 62
     7
100
AcDbCircle
 10
104.8167533793
 20
346.8037736717
 30
0.0
 40
1.0
100
AcDbArc
 50
270.0
 51
0.0
  0
CIRCLE
  5
F1
330
1F
100
AcDbEntity
  8
BEZUGSACHSEN
  6
Continuous
 62
     7
100
AcDbCircle
 10
68.9417533793
 20
299.8037736717
 30
0.0
 40
6.0
  0
SPLINE
  5
F2
330
1F
100
AcDbEntity
  8
BEZUGSACHSEN
  6
Continuous
 62
     7
100
AcDbSpline
210
0.0
220
0.0
230
1.0
 70
     8
 71
     3
 72
    19
 73
    15
 74
    13
 42
0.0000000001
 43
0.0000000001
 44
0.00000001
 40
0.0
 40
0.0
 40
0.0
 40
0.0
 40
0.2679411643345233
 40
0.5361267936841347
 40
0.8065304773437818
 40
1.076465993191224
 40
1.213913376105263
 40
1.351353104841043
 40
1.491586367035744
 40
1.631807897530581
 40
1.775491562725229
 40
1.919219204694858
 40
2.065713007355747
 40
2.211936409306576
 40
2.211936409306576
 40
2.211936409306576
 40
2.211936409306576
 10
43.4955993262
 20
284.7937736717
 30
0.0
 10
43.46170508240105
 20
284.7111020919964
 30
0.0
 10
43.39388567026479
 20
284.5456835044292
 30
0.0
 10
43.2692471639926
 20
284.3070175307638
 30
0.0
 10
43.12433636469397
 20
284.0793295347489
 30
0.0
 10
42.98129273317808
 20
283.9035250434359
 30
0.0
 10
42.85218634624893
 20
283.7755753243362
 30
0.0
 10
42.74607124716273
 20
283.6864883035376
 30
0.0
 10
42.63126181951543
 20
283.6071866631989
 30
0.0
 10
42.50680220729862
 20
283.5395161957339
 30
0.0
 10
42.37394865218145
 20
283.4867135090304
 30
0.0
 10
42.23329785330562
 20
283.4515472450412
 30
0.0
 10
42.08797247019669
 20
283.4351950431623
 30
0.0
 10
41.99046305113581
 20
283.4418177765281
 30
0.0
 10
41.9417533793
 20
283.4451260843
 30
0.0
 11
43.4955993262
 21
284.7937736717
 31
0.0
 11
43.39016206648353
 21
284.5474497958609
 31
0.0
 11
43.26629255092422
 21
284.3095845505964
 31
0.0
 11
43.11994706464594
 21
284.0822056800242
 31
0.0
 11
42.94869487352312
 21
283.873548377848
 31
0.0
 11
42.85090243482114
 21
283.776964621436
 31
0.0
 11
42.74548544554158
 21
283.6887776756549
 31
0.0
 11
42.62994680181886
 21
283.6093032166604
 31
0.0
 11
42.50662479193797
 21
283.5425667236955
 31
0.0
 11
42.37299410376828
 21
283.4897667727195
 31
0.0
 11
42.23356640257252
 21
283.4548733463269
 31
0.0
 11
42.08787196402226
 21
283.4395905195736
 31
0.0
 11
41.9417533793
 21
283.4451260843
 31
0.0
  0
SPLINE
  5
F3
330
1F
100
AcDbEntity
  8
BEZUGSACHSEN
  6
Continuous
 62
     7
100
AcDbSpline
210
0.0
220
0.0
230
1.0
 70
     8
 71
     3
 72
    27
 73
    23
 74
    21
 42
0.0000000001
 43
0.0000000001
 44
0.00000001
 40
0.0
 40
0.0
 40
0.0
 40
0.0
 40
0.121976513994231
 40
0.2439857715228499
 40
0.3566831398803066
 40
0.4694418150046912
 40
0.5721317673312873
 40
0.6745445881519978
 40
0.7225206521561337
 40
0.7704888798001155
 40
0.8171412936315136
 40
0.8637898734586924
 40
0.9102318001295486
 40
0.9566751324735493
 40
1.00417517580314
 40
1.051683100177818
 40
1.153672388771561
 40
1.256049376716804
 40
1.370745138137952
 40
1.485385401918935
 40
1.611534903954639
 40
1.737631875999508
 40
1.737631875999508
 40
1.737631875999508
 40
1.737631875999508
 10
35.0875960549
 20
284.5614376763
 30
0.0
 10
35.05234103729951
 20
284.541158151001
 30
0.0
 10
34.98182153819567
 20
284.5005936565405
 30
0.0
 10
34.87416913499149
 20
284.449797795647
 30
0.0
 10
34.7660111191215
 20
284.4080461597767
 30
0.0
 10
34.66043189815129
 20
284.3786315746513
 30
0.0
 10
34.55560035300127
 20
284.3617169873087
 30
0.0
 10
34.47087268315769
 20
284.3598517640906
 30
0.0
 10
34.40504874675306
 20
284.3668070720738
 30
0.0
 10
34.35834154353662
 20
284.3760041992007
 30
0.0
 10
34.31316092623024
 20
284.38953764418
 30
0.0
 10
34.27002131557688
 20
284.4073309029998
 30
0.0
 10
34.22906683900455
 20
284.4295592607381
 30
0.0
 10
34.19041941254151
 20
284.4560942924626
 30
0.0
 10
34.15451333390434
 20
284.4867895699813
 30
0.0
 10
34.10907401235645
 20
284.5343270430694
 30
0.0
 10
34.0605308722696
 20
284.6034964101553
 30
0.0
 10
34.0143051633073
 20
284.6996544648702
 30
0.0
 10
33.98033928952496
 20
284.8052298978663
 30
0.0
 10
33.9573838653473
 20
284.9216475887752
 30
0.0
 10
33.94393930699753
 20
285.0433948974307
 30
0.0
 10
33.9424819206996
 20
285.127498260948
 30
0.0
 10
33.9417533793
 20
285.1695411855
 30
0.0
 11
35.0875960549
 21
284.5614376763
 31
0.0
 11
34.98105143083946
 21
284.5020532250524
 31
0.0
 11
34.87075854167078
 21
284.449882950743
 31
0.0
 11
34.76544053381836
 21
284.4097729263514
 31
0.0
 11
34.65671680527531
 21
284.379878618072
 31
0.0
 11
34.55525265315416
 21
284.3640592583134
 31
0.0
 11
34.45285311256976
 21
284.3624100292333
 31
0.0
 11
34.40514925635721
 21
284.3675134417957
 31
0.0
 11
34.35809848609577
 21
284.3768502443056
 31
0.0
 11
34.31341891866234
 21
284.3902735065864
 31
0.0
 11
34.27031278206641
 21
284.4081046867959
 31
0.0
 11
34.22949018926955
 21
284.4302489517474
 31
0.0
 11
34.19120293272341
 21
284.4565371450171
 31
0.0
 11
34.15506583571285
 21
284.4873651247752
 31
0.0
 11
34.12221333534096
 21
284.5216829932653
 31
0.0
 11
34.06304094108715
 21
284.6047518968703
 31
0.0
 11
34.01814121748608
 21
284.6967576710439
 31
0.0
 11
33.98250305791858
 21
284.8057761982336
 31
0.0
 11
33.95965149455235
 21
284.9181158445367
 31
0.0
 11
33.94588473822979
 21
285.0435119102015
 31
0.0
 11
33.9417533793
 21
285.1695411855
 31
0.0
  0
SPLINE
  5
F4
330
1F
100
AcDbEntity
  8
BEZUGSACHSEN
  6
Continuous
 62
     7
100
AcDbSpline
210
0.0
220
0.0
230
1.0
 70
     8
 71
     3
 72
    15
 73
    11
 74
     9
 42
0.0000000001
 43
0.0000000001
 44
0.00000001
 40
0.0
 40
0.0
 40
0.0
 40
0.0
 40
0.1110371613041631
 40
0.2222522336794236
 40
0.3333980191137639
 40
0.4445069473895076
 40
0.5556201064251631
 40
0.666752564130571
 40
0.7778876032754323
 40
0.8889820915226603
 40
0.8889820915226603
 40
0.8889820915226603
 40
0.8889820915226603
 10
35.8416788945
 20
284.1272412855
 30
0.0
 10
35.80503716764031
 20
284.1327734383145
 30
0.0
 10
35.7316950041269
 20
284.1438466079238
 30
0.0
 10
35.62517845413234
 20
284.1768651714315
 30
0.0
 10
35.52276554639334
 20
284.2204554588811
 30
0.0
 10
35.42531558078966
 20
284.2742349667024
 30
0.0
 10
35.33301078507323
 20
284.3363301020652
 30
0.0
 10
35.24601415694938
 20
284.405616775717
 30
0.0
 10
35.16376140148387
 20
284.4804987273427
 30
0.0
 10
35.11298141510176
 20
284.5344613088863
 30
0.0
 10
35.0875960549
 20
284.5614376763
 30
0.0
 11
35.8416788945
 21
284.1272412855
 31
0.0
 11
35.73233660945125
 21
284.1465678447076
 31
0.0
 11
35.62584465586315
 21
284.1786342780051
 31
0.0
 11
35.52357647526743
 21
284.2221613369163
 31
0.0
 11
35.42617360884309
 21
284.2756204386195
 31
0.0
 11
35.33390184207106
 21
284.3375240343765
 31
0.0
 11
35.24680473866437
 21
284.4065495204944
 31
0.0
 11
35.16476483417784
 21
284.4815191876776
 31
0.0
 11
35.0875960549
 21
284.5614376763
 31
0.0
  0
SPLINE
  5
F5
330
1F
100
AcDbEntity
  8
BEZUGSACHSEN
  6
Continuous
 62
     7
100
AcDbSpline
210
0.0
220
0.0
230
1.0
 70
     8
 71
     3
 72
    27
 73
    23
 74
    21
 42
0.0000000001
 43
0.0000000001
 44
0.00000001
 40
0.0
 40
0.0
 40
0.0
 40
0.0
 40
0.1260969825524776
 40
0.2522464959194699
 40
0.3668867952504057
 40
0.4815825893953226
 40
0.5839596006873976
 40
0.6859489161357422
 40
0.7334568410412327
 40
0.7809568848702398
 40
0.827400226413138
 40
0.8738421606883386
 40
0.9204907318698322
 40
0.9671431399041218
 40
1.015111401801736
 40
1.063087497127552
 40
1.165500418761377
 40
1.268190479000046
 40
1.380949153941063
 40
1.493646517803379
 40
1.615655563738903
 40
1.737631867610207
 40
1.737631867610207
 40
1.737631867610207
 40
1.737631867610207
 10
33.9417533793
 20
314.4380061579
 30
0.0
 10
33.94248192077629
 20
314.480049085961
 30
0.0
 10
33.94393930723236
 20
314.5641524567704
 30
0.0
 10
33.95738386918078
 20
314.6858997843331
 30
0.0
 10
33.98033930246633
 20
314.8023175007113
 30
0.0
 10
34.01430520280193
 20
314.9078929585045
 30
0.0
 10
34.06053096164946
 20
315.0040510207671
 30
0.0
 10
34.1090741302005
 20
315.0732203864375
 30
0.0
 10
34.15451345576884
 20
315.1207578680308
 30
0.0
 10
34.19041953386374
 20
315.1514531514884
 30
0.0
 10
34.22906696495443
 20
315.1779881871899
 30
0.0
 10
34.27002145215803
 20
315.2002165330836
 30
0.0
 10
34.31316107833335
 20
315.2180097499613
 30
0.0
 10
34.35834171294701
 20
315.2315431570224
 30
0.0
 10
34.40504893593853
 20
315.2407402823566
 30
0.0
 10
34.47087292715499
 20
315.2476956027373
 30
0.0
 10
34.55560067917723
 20
315.2458303461021
 30
0.0
 10
34.66043228269648
 20
315.2289156851646
 30
0.0
 10
34.76601152505648
 20
315.1995010523075
 30
0.0
 10
34.8741694631392
 20
315.157749414843
 30
0.0
 10
34.98182172436064
 20
315.1069535876419
 30
0.0
 10
35.05234109921275
 20
315.0663891594745
 30
0.0
 10
35.0875960549
 20
315.0461096672
 30
0.0
 11
33.9417533793
 21
314.4380061579
 31
0.0
 11
33.94588473886465
 21
314.564035443691
 31
0.0
 11
33.95965149798566
 21
314.689431520448
 31
0.0
 11
33.9825030740678
 21
314.8017712004424
 31
0.0
 11
34.01814126343866
 21
314.9107897523173
 31
0.0
 11
34.06304102823881
 21
315.0027955323639
 31
0.0
 11
34.12221345719294
 21
315.085864444222
 31
0.0
 11
34.15506595735447
 21
315.1201823136483
 31
0.0
 11
34.19120305228128
 21
315.1510102966185
 31
0.0
 11
34.22949031714273
 21
315.1772984940291
 31
0.0
 11
34.27031292507998
 21
315.1994427470177
 31
0.0
 11
34.31341906869802
 21
315.2172738876334
 31
0.0
 11
34.35809864074237
 21
315.2306971144188
 31
0.0
 11
34.40514944649824
 21
315.2400339140419
 31
0.0
 11
34.4528533337774
 21
315.2451373306591
 31
0.0
 11
34.55525297466802
 21
315.243488069295
 31
0.0
 11
34.65671722500758
 21
315.2276686390002
 31
0.0
 11
34.76544094146153
 21
315.1977742874452
 31
0.0
 11
34.87075893373867
 21
315.1576642347871
 31
0.0
 11
34.98105161960874
 21
315.1054940255326
 31
0.0
 11
35.0875960549
 21
315.0461096672
 31
0.0
  0
SPLINE
  5
F6
330
1F
100
AcDbEntity
  8
BEZUGSACHSEN
  6
Continuous
 62
     7
100
AcDbSpline
210
0.0
220
0.0
230
1.0
 70
     8
 71
     3
 72
    15
 73
    11
 74
     9
 42
0.0000000001
 43
0.0000000001
 44
0.00000001
 40
0.0
 40
0.0
 40
0.0
 40
0.0
 40
0.1110944830730183
 40
0.2222295180791605
 40
0.3333620401246624
 40
0.44447526095507
 40
0.5555842177693606
 40
0.6667300353723556
 40
0.7779450181341367
 40
0.8889820870600643
 40
0.8889820870600643
 40
0.8889820870600643
 40
0.8889820870600643
 10
35.0875960549
 20
315.0461096672
 30
0.0
 10
35.11298141444466
 20
315.0730860328776
 30
0.0
 10
35.16376139974934
 20
315.1270486112004
 30
0.0
 10
35.24601416900124
 20
315.2019305745713
 30
0.0
 10
35.33301082095669
 20
315.2712172834722
 30
0.0
 10
35.42531566139716
 20
315.3333124465465
 30
0.0
 10
35.52276568339548
 20
315.3870919386698
 30
0.0
 10
35.62517859726633
 20
315.430682184276
 30
0.0
 10
35.73169509582009
 20
315.463700740131
 30
0.0
 10
35.80503719850864
 20
315.4747739067514
 30
0.0
 10
35.8416788945
 20
315.480306058
 30
0.0
 11
35.0875960549
 21
315.0461096672
 31
0.0
 11
35.1647648319269
 21
315.1260281508032
 31
0.0
 11
35.24680473217827
 21
315.2009978164858
 31
0.0
 11
35.33390188079143
 21
315.2700233491506
 31
0.0
 11
35.4261737023786
 21
315.3319269741195
 31
0.0
 11
35.52357661047407
 21
315.3853860592118
 31
0.0
 11
35.62584483387434
 21
315.4289130996946
 31
0.0
 11
35.7323367019665
 21
315.4609795061185
 31
0.0
 11
35.8416788945
 21
315.480306058
 31
0.0
  0
SPLINE
  5
F7
330
1F
100
AcDbEntity
  8
0
  6
Continuous
 62
     7
100
AcDbSpline
210
0.0
220
0.0
230
1.0
 70
     8
 71
     3
 72
    19
 73
    15
 74
    13
 42
0.0000000001
 43
0.0000000001
 44
0.00000001
 40
0.0
 40
0.0
 40
0.0
 40
0.0
 40
0.1162460235697769
 40
0.2327881717864078
 40
0.3491890045854447
 40
0.4655468550769557
 40
0.5819071370267982
 40
0.6982738489685368
 40
0.8146206073230036
 40
0.9309998278573599
 40
1.163276323454618
 40
1.396138921755497
 40
1.629013178048282
 40
1.861351539792989
 40
1.861351539792989
 40
1.861351539792989
 40
1.861351539792989
 10
103.0667533793
 20
266.281393088
 30
0.0
 10
103.0279693084597
 20
266.2795521411122
 30
0.0
 10
102.9503023683951
 20
266.2758655577158
 30
0.0
 10
102.8366922833273
 20
266.2474600727571
 30
0.0
 10
102.7285045953783
 20
266.2036061585177
 30
0.0
 10
102.6275287294094
 20
266.1450094702591
 30
0.0
 10
102.5347602726558
 20
266.0743246089251
 30
0.0
 10
102.4506728936369
 20
265.9935670038422
 30
0.0
 10
102.3753692502481
 20
265.9045993650998
 30
0.0
 10
102.2867180060889
 20
265.77723991736
 30
0.0
 10
102.1967212603801
 20
265.604454539293
 30
0.0
 10
102.1218277412547
 20
265.3835295491288
 30
0.0
 10
102.0752908159281
 20
265.1545096295282
 30
0.0
 10
102.06959700521
 20
264.999330236668
 30
0.0
 10
102.0667533793
 20
264.9218299185
 30
0.0
 11
103.0667533793
 21
266.281393088
 31
0.0
 11
102.9508820277496
 21
266.272067430615
 31
0.0
 11
102.8375575030615
 21
266.2448713938601
 31
0.0
 11
102.7296843704503
 21
266.2011387843227
 31
0.0
 11
102.6288956309256
 21
266.1429943146285
 31
0.0
 11
102.5362083258447
 21
266.0726467582225
 31
0.0
 11
102.4521329601859
 21
265.9921946324739
 31
0.0
 11
102.3768342022404
 21
265.9035004092603
 31
0.0
 11
102.3102074729289
 21
265.8080802755702
 31
0.0
 11
102.2023176868545
 21
265.6023810668509
 31
0.0
 11
102.1265595500419
 21
265.3821863929958
 31
0.0
 11
102.0815995362428
 21
265.1536934688098
 31
0.0
 11
102.0667533793
 21
264.9218299185
 31
0.0
  0
SPLINE
  5
F8
330
1F
100
AcDbEntity
  8
BEZUGSACHSEN
  6
Continuous
 62
     7
100
AcDbSpline
210
0.0
220
0.0
230
1.0
 70
     8
 71
     3
 72
    47
 73
    43
 74
    41
 42
0.0000000001
 43
0.0000000001
 44
0.00000001
 40
0.0
 40
0.0
 40
0.0
 40
0.0
 40
0.636602243146122
 40
1.273595002083056
 40
1.592921746302323
 40
1.912076344794076
 40
2.231392290339206
 40
2.550826842654415
 40
3.189774321081212
 40
3.829081696910336
 40
4.468337152411467
 40
5.107221744687751
 40
5.426176341194278
 40
5.74503335675149
 40
6.063356731518749
 40
6.381780214809537
 40
7.017059195579463
 40
7.652639340905006
 40
8.287532214174053
 40
8.922347946454202
 40
9.559226748520077
 40
10.19613435928759
 40
10.83451785493545
 40
11.47287689964387
 40
12.11234487356535
 40
12.75189588941373
 40
13.39354300514361
 40
14.03487957351073
 40
14.35615205766729
 40
14.67732107706582
 40
14.99840882466705
 40
15.31959604115761
 40
15.9601112102122
 40
16.60099592083235
 40
17.23809108071577
 40
17.87482555192544
 40
18.19205670325175
 40
18.50917199093004
 40
18.82571084621736
 40
19.14241581821083
 40
19.77338974991247
 40
20.40398930738727
 40
20.40398930738727
 40
20.40398930738727
 40
20.40398930738727
 10
62.442337785
 20
299.8037736523
 30
0.0
 10
62.44834342888629
 20
300.0160534619832
 30
0.0
 10
62.46035840074698
 20
300.4407433017797
 30
0.0
 10
62.54162374595926
 20
300.9668860628622
 30
0.0
 10
62.63434334255933
 20
301.3818604389679
 30
0.0
 10
62.71963630669381
 20
301.689684414665
 30
0.0
 10
62.8198749201037
 20
301.992977091462
 30
0.0
 10
62.97336046921952
 20
302.390414454024
 30
0.0
 10
63.20183241600586
 20
302.8725140309051
 30
0.0
 10
63.53144737658772
 20
303.4213299037222
 30
0.0
 10
63.91367459365809
 20
303.9348654430787
 30
0.0
 10
64.27252929077967
 20
304.3293682051702
 30
0.0
 10
64.58148264436923
 20
304.6222415032048
 30
0.0
 10
64.82337775335536
 20
304.8299633243138
 30
0.0
 10
65.07502100682716
 20
305.0254727214513
 30
0.0
 10
65.4223151139549
 20
305.2689679241342
 30
0.0
 10
65.87805544870098
 20
305.5408499941814
 30
0.0
 10
66.45353487339875
 20
305.812179106693
 30
0.0
 10
67.0526456385837
 20
306.0259627375011
 30
0.0
 10
67.67009604105671
 20
306.180652468871
 30
0.0
 10
68.30036660274479
 20
306.2744594525262
 30
0.0
 10
68.93796053745386
 20
306.3065861773325
 30
0.0
 10
69.57613918167047
 20
306.2761566043822
 30
0.0
 10
70.20915160285887
 20
306.1834853492185
 30
0.0
 10
70.8303852872974
 20
306.0289933879905
 30
0.0
 10
71.43452103927817
 20
305.8139562554498
 30
0.0
 10
72.01500011285806
 20
305.5400328897196
 30
0.0
 10
72.47462913708387
 20
305.2648660116601
 30
0.0
 10
72.82452812574725
 20
305.0182563128025
 30
0.0
 10
73.07765975489647
 20
304.8203521204316
 30
0.0
 10
73.32065839425061
 20
304.6101735910298
 30
0.0
 10
73.62990273775536
 20
304.314654250875
 30
0.0
 10
73.98822292854899
 20
303.9171832681124
 30
0.0
 10
74.36817334689016
 20
303.4015165065773
 30
0.0
 10
74.69464637650874
 20
302.851920350142
 30
0.0
 10
74.92001751650625
 20
302.3708148084575
 30
0.0
 10
75.07110849966398
 20
301.9748246208458
 30
0.0
 10
75.16952141721333
 20
301.6733982700519
 30
0.0
 10
75.25318819538288
 20
301.3677029021136
 30
0.0
 10
75.34400755281412
 20
300.9561508843694
 30
0.0
 10
75.42352252842133
 20
300.4347256678216
 30
0.0
 10
75.43529481308943
 20
300.014049378656
 30
0.0
 10
75.4411792087
 20
299.8037736523
 30
0.0
 11
62.442337785
 21
299.8037736523
 31
0.0
 11
62.4735864560398
 21
300.4396084866217
 31
0.0
 11
62.56702765841342
 21
301.0697104756973
 31
0.0
 11
62.63696816544628
 21
301.3812837336154
 31
0.0
 11
62.72210950441149
 21
301.6888721113829
 31
0.0
 11
62.82233404252475
 21
301.9920514560608
 31
0.0
 11
62.93741393225398
 21
302.2900364425832
 31
0.0
 11
63.21100982650081
 21
302.8674437224466
 31
0.0
 11
63.54022934019644
 21
303.4154660145037
 31
0.0
 11
63.92185359552631
 21
303.9283114738108
 31
0.0
 11
64.35178823165265
 21
304.4008892249872
 31
0.0
 11
64.58326049273504
 21
304.6203262933736
 31
0.0
 11
64.82516289377601
 21
304.8280593546341
 31
0.0
 11
65.07653670091587
 21
305.0233565128501
 31
0.0
 11
65.33726597918066
 21
305.2061508184686
 31
0.0
 11
65.8827996233635
 21
305.5316848819285
 31
0.0
 11
66.45770944349265
 21
305.8026845495502
 31
0.0
 11
67.05565563127074
 21
306.0161074092665
 31
0.0
 11
67.671448163513
 21
306.1703493334799
 31
0.0
 11
68.30138044547198
 21
306.2641572684685
 31
0.0
 11
68.93748356717836
 21
306.2961591935507
 31
0.0
 11
69.57514452618247
 21
306.2657949237991
 31
0.0
 11
70.20676205909093
 21
306.1732662142887
 31
0.0
 11
70.82733493121582
 21
306.0189658576659
 31
0.0
 11
71.42983573836963
 21
305.8044471422779
 31
0.0
 11
72.01014293475079
 21
305.5306688031919
 31
0.0
 11
72.5603679227988
 21
305.2011766842384
 31
0.0
 11
72.82297522694627
 21
305.0160999085896
 31
0.0
 11
73.07599568433811
 21
304.8182863924624
 31
0.0
 11
73.31884398570242
 21
304.6082339128671
 31
0.0
 11
73.55104642110946
 21
304.3863256952906
 31
0.0
 11
73.9799624788437
 21
303.9106254774993
 31
0.0
 11
74.36007313751678
 21
303.3946321641029
 31
0.0
 11
74.68551228324196
 21
302.8469282247556
 31
0.0
 11
74.95559314137164
 21
302.2703112661959
 31
0.0
 11
75.06868358655585
 21
301.9739227465467
 31
0.0
 11
75.167127689895
 21
301.6724748004647
 31
0.0
 11
75.25061049526923
 21
301.3671430659309
 31
0.0
 11
75.31915991870349
 21
301.0579456923453
 31
0.0
 11
75.41058699658775
 21
300.433630714216
 31
0.0
 11
75.4411792087
 21
299.8037736523
 31
0.0
  0
SPLINE
  5
F9
330
1F
100
AcDbEntity
  8
0
  6
Continuous
 62
     7
100
AcDbSpline
210
0.0
220
0.0
230
1.0
 70
     8
 71
     3
 72
    19
 73
    15
 74
    13
 42
0.0000000001
 43
0.0000000001
 44
0.00000001
 40
0.0
 40
0.0
 40
0.0
 40
0.0
 40
0.2323383481439967
 40
0.4652125957750638
 40
0.6980761133579831
 40
0.9303535187932124
 40
1.046733461851987
 40
1.163080940920663
 40
1.279447997487985
 40
1.395808629590242
 40
1.51216590456842
 40
1.628566140412647
 40
1.745106920605356
 40
1.861351602868363
 40
1.861351602868363
 40
1.861351602868363
 40
1.861351602868363
 10
105.8167533793
 20
264.9218299185
 30
0.0
 10
105.813909753694
 20
264.9993302321682
 30
0.0
 10
105.8082159435239
 20
265.1545096176762
 30
0.0
 10
105.7616789676894
 20
265.3835298317225
 30
0.0
 10
105.6867852219332
 20
265.6044553936326
 30
0.0
 10
105.5967879176814
 20
265.7772414578426
 30
0.0
 10
105.5081359798695
 20
265.9046013835468
 30
0.0
 10
105.432831715512
 20
265.993569282451
 30
0.0
 10
105.3487437416953
 20
266.0743269524101
 30
0.0
 10
105.2559750078666
 20
266.145011518792
 30
0.0
 10
105.1549991956212
 20
266.2036077429651
 30
0.0
 10
105.0468121461082
 20
266.2474609941219
 30
0.0
 10
104.9332030367539
 20
266.2758657535724
 30
0.0
 10
104.8555370019618
 20
266.2795522062194
 30
0.0
 10
104.8167533793
 20
266.281393088
 30
0.0
 11
105.8167533793
 21
264.9218299185
 31
0.0
 11
105.8019072251822
 21
265.1536934553621
 31
0.0
 11
105.7569472235936
 21
265.382186373123
 31
0.0
 11
105.6811887449112
 21
265.6023819015263
 31
0.0
 11
105.5732983337336
 21
265.8080818097704
 31
0.0
 11
105.5066710098894
 21
265.9035024095575
 31
0.0
 11
105.4313715533226
 21
265.9921969850759
 31
0.0
 11
105.3472956869921
 21
266.0726490860735
 31
0.0
 11
105.2546078610228
 21
266.1429965353542
 31
0.0
 11
105.1538194261182
 21
266.2011403813728
 31
0.0
 11
105.0459466973266
 21
266.2448723981071
 31
0.0
 11
104.9326234087727
 21
266.272067723427
 31
0.0
 11
104.8167533793
 21
266.281393088
 31
0.0
  0
SPLINE
  5
FA
330
1F
100
AcDbEntity
  8
BEZUGSACHSEN
  6
Continuous
 62
     7
100
AcDbSpline
210
0.0
220
0.0
230
1.0
 70
     8
 71
     3
 72
    11
 73
     7
 74
     5
 42
0.0000000001
 43
0.0000000001
 44
0.00000001
 40
0.0
 40
0.0
 40
0.0
 40
0.0
 40
0.5462907431194461
 40
1.093000863622505
 40
1.646070107132089
 40
2.198197048705702
 40
2.198197048705702
 40
2.198197048705702
 40
2.198197048705702
 10
43.4955993262
 20
314.8137736717
 30
0.0
 10
43.55867012805857
 20
314.6428420424665
 30
0.0
 10
43.68486015007345
 20
314.3008475629229
 30
0.0
 10
43.82449746305036
 20
313.7695734337018
 30
0.0
 10
43.9219858271114
 20
313.22614902876
 30
0.0
 10
43.93516794164048
 20
312.8575643882014
 30
0.0
 10
43.9417533793
 20
312.6734291975
 30
0.0
 11
43.4955993262
 21
314.8137736717
 31
0.0
 11
43.67645065880428
 21
314.2982871330656
 31
0.0
 11
43.81694214347751
 21
313.7699367771513
 31
0.0
 11
43.90900879673283
 21
313.2245843044562
 31
0.0
 11
43.9417533793
 21
312.6734291975
 31
0.0
  0
SPLINE
  5
FB
330
1F
100
AcDbEntity
  8
BEZUGSACHSEN
  6
Continuous
 62
     7
100
AcDbSpline
210
0.0
220
0.0
230
1.0
 70
     8
 71
     3
 72
    19
 73
    15
 74
    13
 42
0.0000000001
 43
0.0000000001
 44
0.00000001
 40
0.0
 40
0.0
 40
0.0
 40
0.0
 40
0.1462385987780055
 40
0.292747927480836
 40
0.4364790706193167
 40
0.5801659236393761
 40
0.7203799972705722
 40
0.8606059382502714
 40
0.9980411883669736
 40
1.13548402039931
 40
1.405415631065793
 40
1.675815514095083
 40
1.94399742954636
 40
2.211934834775406
 40
2.211934834775406
 40
2.211934834775406
 40
2.211934834775406
 10
41.9417533793
 20
316.1624212591
 30
0.0
 10
41.99046818463832
 20
316.1657293364464
 30
0.0
 10
42.08798798050339
 20
316.1723516153471
 30
0.0
 10
42.23332424081714
 20
316.1559923025861
 30
0.0
 10
42.37398117794335
 20
316.1208205365211
 30
0.0
 10
42.5068333113954
 20
316.0680148498963
 30
0.0
 10
42.63128777444634
 20
316.0003430621449
 30
0.0
 10
42.74609033159402
 20
315.921042860743
 30
0.0
 10
42.85220026937384
 20
315.8319582211807
 30
0.0
 10
42.9813027345667
 20
315.704010685633
 30
0.0
 10
43.124342584464
 20
315.5282083967108
 30
0.0
 10
43.26925018615154
 20
315.3005229308
 30
0.0
 10
43.39388693459621
 20
315.0618603113128
 30
0.0
 10
43.46170550576696
 20
314.8964440708745
 30
0.0
 10
43.4955993262
 20
314.8137736717
 30
0.0
 11
41.9417533793
 21
316.1624212591
 31
0.0
 11
42.08788724111904
 21
316.1679549922349
 31
0.0
 11
42.2335966019657
 21
316.1526655985709
 31
0.0
 11
42.3730266835228
 21
316.1177672624376
 31
0.0
 11
42.50665902045172
 21
316.0649628094272
 31
0.0
 11
42.62997281125136
 21
315.9982267963393
 31
0.0
 11
42.74550392255922
 21
315.9187543052269
 31
0.0
 11
42.85091647233365
 21
315.8305690325069
 31
0.0
 11
42.94870497602783
 21
315.7339877681627
 31
0.0
 11
43.11995337191767
 21
315.5253324031654
 31
0.0
 11
43.26629579245233
 21
315.2979560792126
 31
0.0
 11
43.3901634182591
 21
315.0600940371543
 31
0.0
 11
43.4955993262
 21
314.8137736717
 31
0.0
  0
SPLINE
  5
FC
330
1F
100
AcDbEntity
  8
BEZUGSACHSEN
  6
Continuous
 62
     7
100
AcDbSpline
210
0.0
220
0.0
230
1.0
 70
     8
 71
     3
 72
    47
 73
    43
 74
    41
 42
0.0000000001
 43
0.0000000001
 44
0.00000001
 40
0.0
 40
0.0
 40
0.0
 40
0.0
 40
0.630239321390603
 40
1.260854867258997
 40
1.577476088330745
 40
1.893930800152534
 40
2.210999113812973
 40
2.528183472174101
 40
3.164887038225532
 40
3.801951183362409
 40
4.442851001588462
 40
5.083381259767813
 40
5.404527292290631
 40
5.725573838732298
 40
6.046670709999241
 40
6.367871027119189
 40
7.00909024251941
 40
7.650619763946332
 40
8.290330346481309
 40
8.929958764452227
 40
9.568647011306012
 40
10.20735923009094
 40
10.84445705812574
 40
11.48152626493752
 40
12.11643462220683
 40
12.75141965577526
 40
13.38691908735868
 40
14.02211738528126
 40
14.34050449138513
 40
14.65879153786781
 40
14.97761586864071
 40
15.29653774942044
 40
15.9353769409898
 40
16.57458694063486
 40
17.21386274986087
 40
17.85277859069024
 40
18.17219860078518
 40
18.49150024073171
 40
18.81067156632184
 40
19.13001452417672
 40
19.76719627020934
 40
20.40398968279386
 40
20.40398968279386
 40
20.40398968279386
 40
20.40398968279386
 10
75.4411670171
 20
299.8037736904
 30
0.0
 10
75.43529781535452
 20
299.5936176685332
 30
0.0
 10
75.42355590821454
 20
299.1731801711237
 30
0.0
 10
75.34410916566044
 20
298.6520167288925
 30
0.0
 10
75.25337766059538
 20
298.2406252614695
 30
0.0
 10
75.16977227829956
 20
297.9349874211723
 30
0.0
 10
75.07142033693563
 20
297.6336035749674
 30
0.0
 10
74.92040152608752
 20
297.2376303953528
 30
0.0
 10
74.69511893848313
 20
296.7565235866624
 30
0.0
 10
74.36874090370969
 20
296.2068893616742
 30
0.0
 10
73.98887384163822
 20
295.6911614990335
 30
0.0
 10
73.6306194023344
 20
295.2936360968386
 30
0.0
 10
73.32143866465947
 20
294.9980827419009
 30
0.0
 10
73.0785137086391
 20
294.7878978334575
 30
0.0
 10
72.82546480533863
 20
294.5899883691128
 30
0.0
 10
72.47568229690225
 20
294.3433650176065
 30
0.0
 10
72.01619705914081
 20
294.0681584083163
 30
0.0
 10
71.43580135215677
 20
293.7941183016238
 30
0.0
 10
70.83164704431047
 20
293.5789298243024
 30
0.0
 10
70.21023189691365
 20
293.4242679852977
 30
0.0
 10
69.57696268549407
 20
293.3314576122761
 30
0.0
 10
68.93850322106553
 20
293.3009468624568
 30
0.0
 10
68.3006702075011
 20
293.3330486048019
 30
0.0
 10
67.67024022048338
 20
293.4268616671383
 30
0.0
 10
67.05266655096925
 20
293.5815754834155
 30
0.0
 10
66.45352313953366
 20
293.7953720554897
 30
0.0
 10
65.87806591807554
 20
294.0666934239418
 30
0.0
 10
65.42238052513933
 20
294.3385383075902
 30
0.0
 10
65.07512462741883
 20
294.5819988601896
 30
0.0
 10
64.82350504613684
 20
294.7774813865235
 30
0.0
 10
64.58162999587755
 20
294.9851744452365
 30
0.0
 10
64.27269371220449
 20
295.2780119933915
 30
0.0
 10
63.91385095531379
 20
295.6724696423318
 30
0.0
 10
63.53162405006429
 20
296.18595430827
 30
0.0
 10
63.20199960480069
 20
296.7347220869731
 30
0.0
 10
62.97351215888033
 20
297.2167855034631
 30
0.0
 10
62.82001065892036
 20
297.6141950626398
 30
0.0
 10
62.71975385599708
 20
297.917477425932
 30
0.0
 10
62.63443736307157
 20
298.2253012976359
 30
0.0
 10
62.54167490770244
 20
298.6403421647426
 30
0.0
 10
62.46038254074497
 20
299.1666149638315
 30
0.0
 10
62.4483427412567
 20
299.5914306135505
 30
0.0
 10
62.4423246765
 20
299.8037736922
 30
0.0
 11
75.4411670171
 21
299.8037736904
 31
0.0
 11
75.41062743837875
 21
299.1742747338017
 31
0.0
 11
75.31929616285196
 21
298.5503079359658
 31
0.0
 11
75.25080142416543
 21
298.2411842254465
 31
0.0
 11
75.16738259932866
 21
297.9359222325665
 31
0.0
 11
75.0689958554896
 21
297.6345049733324
 31
0.0
 11
74.95596522438706
 21
297.3381437180686
 31
0.0
 11
74.68598508787225
 21
296.7615137180599
 31
0.0
 11
74.36064846600154
 21
296.2137849462314
 31
0.0
 11
73.98061197117039
 21
295.697718245505
 31
0.0
 11
73.55176147347544
 21
295.2219386092551
 31
0.0
 11
73.3196243391011
 21
295.000021676486
 31
0.0
 11
73.07684184577488
 21
294.7899561012091
 31
0.0
 11
72.82391223750123
 21
294.5921435283125
 31
0.0
 11
72.56139784168971
 21
294.4070602073199
 31
0.0
 11
72.01133966008581
 21
294.0775179808161
 31
0.0
 11
71.43119882839981
 21
293.8036626498968
 31
0.0
 11
70.8285935180929
 21
293.5889617663468
 31
0.0
 11
70.20789424778374
 21
293.4345048826748
 31
0.0
 11
69.57596543389263
 21
293.3418299084728
 31
0.0
 11
68.93797930673013
 21
293.3113832342152
 31
0.0
 11
68.30168431858642
 21
293.3433571384163
 31
0.0
 11
67.67156104444751
 21
293.4371752265244
 31
0.0
 11
67.05567713619158
 21
293.5914335607621
 31
0.0
 11
66.45764466637053
 21
293.804888843891
 31
0.0
 11
65.88280891782796
 21
294.0758563506891
 31
0.0
 11
65.33734223031566
 21
294.4013451684664
 31
0.0
 11
65.0766399375674
 21
294.5841145966786
 31
0.0
 11
64.82529068578464
 21
294.7793841477789
 31
0.0
 11
64.58340738744604
 21
294.9870892846379
 31
0.0
 11
64.35195155614741
 21
295.2064961309257
 31
0.0
 11
63.9220285252672
 21
295.6790230615908
 31
0.0
 11
63.5404073858094
 21
296.1918141784845
 31
0.0
 11
63.21117591163036
 21
296.7397924596887
 31
0.0
 11
62.93756160448632
 21
297.3171560042504
 31
0.0
 11
62.82246935202636
 21
297.6151206267691
 31
0.0
 11
62.72222966359948
 21
297.9182798953667
 31
0.0
 11
62.63706258338084
 21
298.2258785031756
 31
0.0
 11
62.5670995558974
 21
298.537463322313
 31
0.0
 11
62.4736106589169
 21
299.1677492920272
 31
0.0
 11
62.4423246765
 21
299.8037736922
 31
0.0
  0
SPLINE
  5
FD
330
1F
100
AcDbEntity
  8
BEZUGSACHSEN
  6
Continuous
 62
     7
100
AcDbSpline
210
0.0
220
0.0
230
1.0
 70
     8
 71
     3
 72
    11
 73
     7
 74
     5
 42
0.0000000001
 43
0.0000000001
 44
0.00000001
 40
0.0
 40
0.0
 40
0.0
 40
0.0
 40
0.5521269407036973
 40
1.105196183339767
 40
1.651906304698671
 40
2.19819704872004
 40
2.19819704872004
 40
2.19819704872004
 40
2.19819704872004
 10
43.9417533793
 20
286.9341181459
 30
0.0
 10
43.93516794167225
 20
286.749982955489
 30
0.0
 10
43.9219858272068
 20
286.3813983155125
 30
0.0
 10
43.82449746340958
 20
285.8379739108269
 30
0.0
 10
43.68486015037703
 20
285.3066997813099
 30
0.0
 10
43.55867012816154
 20
284.964705301216
 30
0.0
 10
43.4955993262
 20
284.7937736717
 30
0.0
 11
43.9417533793
 21
286.9341181459
 31
0.0
 11
43.9090087968732
 21
286.3829630398069
 31
0.0
 11
43.81694214392983
 21
285.837610567945
 31
0.0
 11
43.6764506590964
 21
285.3092602111877
 31
0.0
 11
43.4955993262
 21
284.7937736717
 31
0.0
  0
SPLINE
  5
FE
330
1F
100
AcDbEntity
  8
BEZUGSACHSEN
  6
Continuous
 62
     7
100
AcDbSpline
210
0.0
220
0.0
230
1.0
 70
     8
 71
     3
 72
    11
 73
     7
 74
     5
 42
0.0000000001
 43
0.0000000001
 44
0.00000001
 40
0.0
 40
0.0
 40
0.0
 40
0.0
 40
0.9140556660003507
 40
1.828030949185894
 40
2.279806974871076
 40
2.730944124762517
 40
2.730944124762517
 40
2.730944124762517
 40
2.730944124762517
 10
35.2087063061854
 20
284.793773671885
 30
0.0
 10
35.34136101314878
 20
285.0684902695515
 30
0.0
 10
35.60665876131041
 20
285.6178993060789
 30
0.0
 10
35.82201397462304
 20
286.3506102271836
 30
0.0
 10
35.9257081882854
 20
286.9485554332897
 30
0.0
 10
35.9364075058065
 20
287.2496786487164
 30
0.0
 10
35.9417533793
 20
287.4001337233
 30
0.0
 11
35.2087063061854
 21
284.793773671885
 31
0.0
 11
35.5835138359609
 21
285.6274505134555
 31
0.0
 11
35.84280519635877
 21
286.5038743884709
 31
0.0
 11
35.91552216985738
 21
286.9497598212326
 31
0.0
 11
35.9417533793
 21
287.4001337233
 31
0.0
  0
SPLINE
  5
FF
330
1F
100
AcDbEntity
  8
BEZUGSACHSEN
  6
Continuous
 62
     7
100
AcDbSpline
210
0.0
220
0.0
230
1.0
 70
     8
 71
     3
 72
    11
 73
     7
 74
     5
 42
0.0000000001
 43
0.0000000001
 44
0.00000001
 40
0.0
 40
0.0
 40
0.0
 40
0.0
 40
0.8249192366724719
 40
1.650116891930986
 40
2.190492152293432
 40
2.730585915378208
 40
2.730585915378208
 40
2.730585915378208
 40
2.730585915378208
 10
35.9417533793
 20
312.2074136201
 30
0.0
 10
35.92402007496183
 20
312.4826039120769
 30
0.0
 10
35.88854748111591
 20
313.0330773755377
 30
0.0
 10
35.68011266448048
 20
313.7378109606906
 30
0.0
 10
35.44988623350081
 20
314.3300246857708
 30
0.0
 10
35.28908565069882
 20
314.6525520192159
 30
0.0
 10
35.2087063061854
 20
314.813773671515
 30
0.0
 11
35.9417533793
 21
312.2074136201
 31
0.0
 11
35.8581779251843
 21
313.0280882757959
 31
0.0
 11
35.64021648307252
 21
313.8239802156953
 31
0.0
 11
35.44228140451332
 21
314.326799394613
 31
0.0
 11
35.2087063061854
 21
314.813773671515
 31
0.0
  0
DIMENSION
  5
10C
330
1F
100
AcDbEntity
  8
1
100
AcDbDimension
  2
*D2
 10
254.778496802475
 20
303.8037736717
 30
0.0
 11
251.028496802475
 21
299.815853050426
 31
0.0
 70
    32
  1
<>
 71
     5
 42
-1.0
 53
90.0
  3
ME10_DIM_10
100
AcDbAlignedDimension
 13
243.9417533793
 23
295.8037736717
 33
0.0
 14
243.9417533793
 24
303.8037736717
 34
0.0
 50
90.0
100
AcDbRotatedDimension
  0
DIMENSION
  5
117
330
1F
100
AcDbEntity
  8
1
100
AcDbDimension
  2
*D3
 10
265.010878584059
 20
310.3037736717528
 30
0.0
 11
261.260878584059
 21
300.34511417706
 31
0.0
 70
    32
  1
<>
 71
     5
 42
-1.0
 53
90.0
  3
ME10_DIM_11
100
AcDbAlignedDimension
 13
243.9417533793
 23
289.3037736716559
 33
0.0
 14
243.9417533793094
 24
310.3037736717528
 34
0.0
 50
90.0
100
AcDbRotatedDimension
  0
DIMENSION
  5
122
330
1F
100
AcDbEntity
  8
1
100
AcDbDimension
  2
*D4
 10
272.773375108019
 20
313.3037736717
 30
0.0
 11
269.023375108019
 21
300.34511417706
 31
0.0
 70
    32
  1
<>
 71
     5
 42
-1.0
 53
90.0
  3
ME10_DIM_12
100
AcDbAlignedDimension
 13
205.8231391708
 23
286.3037736717
 33
0.0
 14
205.8231391708
 24
313.3037736717
 34
0.0
 50
90.0
100
AcDbRotatedDimension
  0
DIMENSION
  5
12D
330
1F
100
AcDbEntity
  8
1
100
AcDbDimension
  2
*D5
 10
243.9417533793
 20
357.505315853494
 30
0.0
 11
178.388474191685
 21
361.255315853494
 31
0.0
 70
    32
  1
<>
 71
     5
 42
-1.0
 53
0.00013888888889
  3
ME10_DIM_13
100
AcDbAlignedDimension
 13
112.9417533793
 23
349.8037367506
 33
0.0
 14
243.9417533793
 24
309.37938318
 34
0.0
100
AcDbRotatedDimension
  0
DIMENSION
  5
138
330
1F
100
AcDbEntity
  8
1
100
AcDbDimension
  2
*D6
 10
243.9417533793
 20
365.620653128543
 30
0.0
 11
164.274844148121
 21
369.370653128543
 31
0.0
 70
    32
  1
<>
 71
     5
 42
-1.0
 53
0.00013888888889
  3
ME10_DIM_14
100
AcDbAlignedDimension
 13
83.9417533793
 23
349.8037736717
 33
0.0
 14
243.9417533793
 24
309.37938318
 34
0.0
100
AcDbRotatedDimension
  0
DIMENSION
  5
143
330
1F
100
AcDbEntity
  8
1
100
AcDbDimension
  2
*D7
 10
243.9417533793
 20
373.206729276959
 30
0.0
 11
141.163774951785
 21
376.956729276959
 31
0.0
 70
    32
  1
<>
 71
     5
 42
-1.0
 53
0.00013888888889
  3
ME10_DIM_15
100
AcDbAlignedDimension
 13
33.9417533793
 23
333.4039652343
 33
0.0
 14
243.9417533793
 24
309.37938318
 34
0.0
100
AcDbRotatedDimension
  0
INSERT
  5
14A
330
1F
100
AcDbEntity
  8
1
100
AcDbBlockReference
  2
*D8
 10
0.0
 20
0.0
 30
0.0
  0
DIMENSION
  5
155
330
1F
100
AcDbEntity
  8
1
100
AcDbDimension
  2
*D9
 10
227.6259342995185
 20
312.4471395180324
 30
0.0
 11
229.906903472922
 21
321.893163871793
 31
0.0
 70
    37
  1
<>
 71
     5
 42
-1.0
  3
ME10_DIM_16
100
AcDb3PointAngularDimension
 13
227.5754938355779
 23
311.5918262321398
 33
0.0
 14
208.0051008970869
 24
313.3037736717
 34
0.0
 15
205.8231391708
 25
313.3037736717
 35
0.0
  0
ENDSEC
  0
SECTION
  2
OBJECTS
  0
DICTIONARY
  5
C
330
0
100
AcDbDictionary
281
     1
  3
ACAD_GROUP
350
D
  3
ACAD_LAYOUT
350
1A
  3
ACAD_MLEADERSTYLE
350
158
  3
ACAD_MLINESTYLE
350
17
  3
ACAD_PLOTSETTINGS
350
19
  3
ACAD_PLOTSTYLENAME
350
E
  3
ACAD_SCALELIST
350
4A
  3
ACAD_VISUALSTYLE
350
2A
  3
AcDbVariableDictionary
350
156
  0
DICTIONARY
  5
D
102
{ACAD_REACTORS
330
C
102
}
330
C
100
AcDbDictionary
281
     1
  0
DICTIONARY
  5
1A
102
{ACAD_REACTORS
330
C
102
}
330
C
100
AcDbDictionary
281
     1
  3
Layout1
350
1E
  3
Layout2
350
26
  3
Model
350
22
  0
DICTIONARY
  5
158
102
{ACAD_REACTORS
330
C
102
}
330
C
100
AcDbDictionary
281
     1
  0
DICTIONARY
  5
17
102
{ACAD_REACTORS
330
C
102
}
330
C
100
AcDbDictionary
281
     1
  3
Standard
350
18
  0
DICTIONARY
  5
19
102
{ACAD_REACTORS
330
C
102
}
330
C
100
AcDbDictionary
281
     1
  0
ACDBDICTIONARYWDFLT
  5
E
102
{ACAD_REACTORS
330
C
102
}
330
C
100
AcDbDictionary
281
     1
  3
Normal
350
F
100
AcDbDictionaryWithDefault
340
F
  0
DICTIONARY
  5
4A
102
{ACAD_REACTORS
330
C
102
}
330
C
100
AcDbDictionary
281
     1
  3
A0
350
4B
  3
A1
350
4C
  3
A2
350
4D
  3
A3
350
4E
  3
A4
350
4F
  3
A5
350
50
  3
A6
350
51
  3
A7
350
52
  3
A8
350
53
  3
A9
350
54
  3
B0
350
55
  3
B1
350
56
  3
B2
350
57
  3
B3
350
58
  3
B4
350
59
  3
B5
350
5A
  3
B6
350
5B
  3
B7
350
5C
  3
B8
350
5D
  3
B9
350
5E
  3
C0
350
5F
  3
C1
350
60
  3
C2
350
61
  3
C3
350
62
  3
C4
350
63
  3
C5
350
64
  3
C6
350
65
  3
C7
350
66
  3
C8
350
67
  3
C9
350
68
  3
D0
350
69
  3
D1
350
6A
  3
D2
350
6B
  0
DICTIONARY
  5
2A
102
{ACAD_REACTORS
330
C
102
}
330
C
100
AcDbDictionary
281
     1
  3
2dWireframe
350
2F
  3
3D Hidden
350
31
  3
3dWireframe
350
30
  3
Basic
350
32
  3
Brighten
350
36
  3
ColorChange
350
3A
  3
Conceptual
350
34
  3
Dim
350
35
  3
Facepattern
350
39
  3
Flat
350
2B
  3
FlatWithEdges
350
2C
  3
Gouraud
350
2D
  3
GouraudWithEdges
350
2E
  3
Linepattern
350
38
  3
Realistic
350
33
  3
Thicken
350
37
  0
DICTIONARY
  5
156
102
{ACAD_REACTORS
330
C
102
}
330
C
100
AcDbDictionary
281
     1
  3
CANNOSCALE
350
159
  0
LAYOUT
  5
1E
102
{ACAD_REACTORS
330
1A
102
}
330
1A
100
AcDbPlotSettings
  1

  2
none_device
  4

  6

 40
0.0
 41
0.0
 42
0.0
 43
0.0
 44
0.0
 45
0.0
 46
0.0
 47
0.0
 48
0.0
 49
0.0
140
0.0
141
0.0
142
1.0
143
1.0
 70
   688
 72
     0
 73
     0
 74
     5
  7

 75
    16
147
1.0
148
0.0
149
0.0
100
AcDbLayout
  1
Layout1
 70
     1
 71
     1
 10
0.0
 20
0.0
 11
12.0
 21
9.0
 12
0.0
 22
0.0
 32
0.0
 14
1.00000000000000E+20
 24
1.00000000000000E+20
 34
1.00000000000000E+20
 15
-1.00000000000000E+20
 25
-1.00000000000000E+20
 35
-1.00000000000000E+20
146
0.0
 13
0.0
 23
0.0
 33
0.0
 16
1.0
 26
0.0
 36
0.0
 17
0.0
 27
1.0
 37
0.0
 76
     0
330
1B
  0
LAYOUT
  5
26
102
{ACAD_REACTORS
330
1A
102
}
330
1A
100
AcDbPlotSettings
  1

  2
none_device
  4

  6

 40
0.0
 41
0.0
 42
0.0
 43
0.0
 44
0.0
 45
0.0
 46
0.0
 47
0.0
 48
0.0
 49
0.0
140
0.0
141
0.0
142
1.0
143
1.0
 70
   688
 72
     0
 73
     0
 74
     5
  7

 75
    16
147
1.0
148
0.0
149
0.0
100
AcDbLayout
  1
Layout2
 70
     1
 71
     2
 10
0.0
 20
0.0
 11
0.0
 21
0.0
 12
0.0
 22
0.0
 32
0.0
 14
0.0
 24
0.0
 34
0.0
 15
0.0
 25
0.0
 35
0.0
146
0.0
 13
0.0
 23
0.0
 33
0.0
 16
1.0
 26
0.0
 36
0.0
 17
0.0
 27
1.0
 37
0.0
 76
     0
330
23
  0
LAYOUT
  5
22
102
{ACAD_REACTORS
330
1A
102
}
330
1A
100
AcDbPlotSettings
  1

  2
none_device
  4

  6

 40
0.0
 41
0.0
 42
0.0
 43
0.0
 44
0.0
 45
0.0
 46
0.0
 47
0.0
 48
0.0
 49
0.0
140
0.0
141
0.0
142
1.0
143
1.0
 70
  1712
 72
     0
 73
     0
 74
     0
  7

 75
     0
147
1.0
148
0.0
149
0.0
100
AcDbLayout
  1
Model
 70
     1
 71
     0
 10
0.0
 20
0.0
 11
12.0
 21
9.0
 12
0.0
 22
0.0
 32
0.0
 14
11.6084289701042
 24
249.8037736717
 34
0.0
 15
274.773375108019
 25
378.706729276959
 35
0.0
146
0.0
 13
0.0
 23
0.0
 33
0.0
 16
1.0
 26
0.0
 36
0.0
 17
0.0
 27
1.0
 37
0.0
 76
     0
330
1F
331
29
  0
MLINESTYLE
  5
18
102
{ACAD_REACTORS
330
17
102
}
330
17
100
AcDbMlineStyle
  2
Standard
 70
     0
  3

 62
   256
 51
90.0
 52
90.0
 71
     2
 49
0.5
 62
   256
  6
BYLAYER
 49
-0.5
 62
   256
  6
BYLAYER
  0
ACDBPLACEHOLDER
  5
F
102
{ACAD_REACTORS
330
E
102
}
330
E
  0
SCALE
  5
4B
102
{ACAD_REACTORS
330
4A
102
}
330
4A
100
AcDbScale
 70
     0
300
1:1
140
1.0
141
1.0
290
     1
  0
SCALE
  5
4C
102
{ACAD_REACTORS
330
4A
102
}
330
4A
100
AcDbScale
 70
     0
300
1:2
140
1.0
141
2.0
290
     0
  0
SCALE
  5
4D
102
{ACAD_REACTORS
330
4A
102
}
330
4A
100
AcDbScale
 70
     0
300
1:4
140
1.0
141
4.0
290
     0
  0
SCALE
  5
4E
102
{ACAD_REACTORS
330
4A
102
}
330
4A
100
AcDbScale
 70
     0
300
1:5
140
1.0
141
5.0
290
     0
  0
SCALE
  5
4F
102
{ACAD_REACTORS
330
4A
102
}
330
4A
100
AcDbScale
 70
     0
300
1:8
140
1.0
141
8.0
290
     0
  0
SCALE
  5
50
102
{ACAD_REACTORS
330
4A
102
}
330
4A
100
AcDbScale
 70
     0
300
1:10
140
1.0
141
10.0
290
     0
  0
SCALE
  5
51
102
{ACAD_REACTORS
330
4A
102
}
330
4A
100
AcDbScale
 70
     0
300
1:16
140
1.0
141
16.0
290
     0
  0
SCALE
  5
52
102
{ACAD_REACTORS
330
4A
102
}
330
4A
100
AcDbScale
 70
     0
300
1:20
140
1.0
141
20.0
290
     0
  0
SCALE
  5
53
102
{ACAD_REACTORS
330
4A
102
}
330
4A
100
AcDbScale
 70
     0
300
1:30
140
1.0
141
30.0
290
     0
  0
SCALE
  5
54
102
{ACAD_REACTORS
330
4A
102
}
330
4A
100
AcDbScale
 70
     0
300
1:40
140
1.0
141
40.0
290
     0
  0
SCALE
  5
55
102
{ACAD_REACTORS
330
4A
102
}
330
4A
100
AcDbScale
 70
     0
300
1:50
140
1.0
141
50.0
290
     0
  0
SCALE
  5
56
102
{ACAD_REACTORS
330
4A
102
}
330
4A
100
AcDbScale
 70
     0
300
1:100
140
1.0
141
100.0
290
     0
  0
SCALE
  5
57
102
{ACAD_REACTORS
330
4A
102
}
330
4A
100
AcDbScale
 70
     0
300
2:1
140
2.0
141
1.0
290
     0
  0
SCALE
  5
58
102
{ACAD_REACTORS
330
4A
102
}
330
4A
100
AcDbScale
 70
     0
300
4:1
140
4.0
141
1.0
290
     0
  0
SCALE
  5
59
102
{ACAD_REACTORS
330
4A
102
}
330
4A
100
AcDbScale
 70
     0
300
8:1
140
8.0
141
1.0
290
     0
  0
SCALE
  5
5A
102
{ACAD_REACTORS
330
4A
102
}
330
4A
100
AcDbScale
 70
     0
300
10:1
140
10.0
141
1.0
290
     0
  0
SCALE
  5
5B
102
{ACAD_REACTORS
330
4A
102
}
330
4A
100
AcDbScale
 70
     0
300
100:1
140
100.0
141
1.0
290
     0
  0
SCALE
  5
5C
102
{ACAD_REACTORS
330
4A
102
}
330
4A
100
AcDbScale
 70
     0
300
1/128" = 1'-0"
140
0.0078125
141
12.0
290
     0
  0
SCALE
  5
5D
102
{ACAD_REACTORS
330
4A
102
}
330
4A
100
AcDbScale
 70
     0
300
1/64" = 1'-0"
140
0.015625
141
12.0
290
     0
  0
SCALE
  5
5E
102
{ACAD_REACTORS
330
4A
102
}
330
4A
100
AcDbScale
 70
     0
300
1/32" = 1'-0"
140
0.03125
141
12.0
290
     0
  0
SCALE
  5
5F
102
{ACAD_REACTORS
330
4A
102
}
330
4A
100
AcDbScale
 70
     0
300
1/16" = 1'-0"
140
0.0625
141
12.0
290
     0
  0
SCALE
  5
60
102
{ACAD_REACTORS
330
4A
102
}
330
4A
100
AcDbScale
 70
     0
300
3/32" = 1'-0"
140
0.09375
141
12.0
290
     0
  0
SCALE
  5
61
102
{ACAD_REACTORS
330
4A
102
}
330
4A
100
AcDbScale
 70
     0
300
1/8" = 1'-0"
140
0.125
141
12.0
290
     0
  0
SCALE
  5
62
102
{ACAD_REACTORS
330
4A
102
}
330
4A
100
AcDbScale
 70
     0
300
3/16" = 1'-0"
140
0.1875
141
12.0
290
     0
  0
SCALE
  5
63
102
{ACAD_REACTORS
330
4A
102
}
330
4A
100
AcDbScale
 70
     0
300
1/4" = 1'-0"
140
0.25
141
12.0
290
     0
  0
SCALE
  5
64
102
{ACAD_REACTORS
330
4A
102
}
330
4A
100
AcDbScale
 70
     0
300
3/8" = 1'-0"
140
0.375
141
12.0
290
     0
  0
SCALE
  5
65
102
{ACAD_REACTORS
330
4A
102
}
330
4A
100
AcDbScale
 70
     0
300
1/2" = 1'-0"
140
0.5
141
12.0
290
     0
  0
SCALE
  5
66
102
{ACAD_REACTORS
330
4A
102
}
330
4A
100
AcDbScale
 70
     0
300
3/4" = 1'-0"
140
0.75
141
12.0
290
     0
  0
SCALE
  5
67
102
{ACAD_REACTORS
330
4A
102
}
330
4A
100
AcDbScale
 70
     0
300
1" = 1'-0"
140
1.0
141
12.0
290
     0
  0
SCALE
  5
68
102
{ACAD_REACTORS
330
4A
102
}
330
4A
100
AcDbScale
 70
     0
300
1-1/2" = 1'-0"
140
1.5
141
12.0
290
     0
  0
SCALE
  5
69
102
{ACAD_REACTORS
330
4A
102
}
330
4A
100
AcDbScale
 70
     0
300
3" = 1'-0"
140
3.0
141
12.0
290
     0
  0
SCALE
  5
6A
102
{ACAD_REACTORS
330
4A
102
}
330
4A
100
AcDbScale
 70
     0
300
6" = 1'-0"
140
6.0
141
12.0
290
     0
  0
SCALE
  5
6B
102
{ACAD_REACTORS
330
4A
102
}
330
4A
100
AcDbScale
 70
     0
300
1'-0" = 1'-0"
140
12.0
141
12.0
290
     0
  0
VISUALSTYLE
  5
2F
102
{ACAD_REACTORS
330
2A
102
}
330
2A
100
AcDbVisualStyle
  2
2dWireframe
 70
     4
 71
     0
 72
     2
 73
     0
 90
        0
 40
-0.6
 41
-30.0
 62
     5
 63
     7
 74
     1
 91
        4
 64
     7
 65
   257
 75
     1
175
     1
 42
1.0
 92
        0
 66
   257
 43
1.0
 76
     1
 77
     6
 78
     2
 67
     7
 79
     5
170
     0
171
     0
290
     0
174
     0
 93
        1
 44
0.0
173
     0
291
     0
 45
0.0
1001
ACAD
1000
AcDbSavedByObjectVersion
1070
     0
  0
VISUALSTYLE
  5
31
102
{ACAD_REACTORS
330
2A
102
}
330
2A
100
AcDbVisualStyle
  2
3D Hidden
 70
     6
 71
     1
 72
     2
 73
     2
 90
        0
 40
-0.6
 41
-30.0
 62
     5
 63
     7
 74
     2
 91
        2
 64
     7
 65
   257
 75
     2
175
     1
 42
40.0
 92
        0
 66
   257
 43
1.0
 76
     1
 77
     6
 78
     2
 67
     7
 79
     3
170
     0
171
     0
290
     0
174
     0
 93
        1
 44
0.0
173
     0
291
     0
 45
0.0
1001
ACAD
1000
AcDbSavedByObjectVersion
1070
     0
  0
VISUALSTYLE
  5
30
102
{ACAD_REACTORS
330
2A
102
}
330
2A
100
AcDbVisualStyle
  2
3dWireframe
 70
     5
 71
     0
 72
     2
 73
     0
 90
        0
 40
-0.6
 41
-30.0
 62
     5
 63
     7
 74
     1
 91
        4
 64
     7
 65
   257
 75
     1
175
     1
 42
1.0
 92
        0
 66
   257
 43
1.0
 76
     1
 77
     6
 78
     2
 67
     7
 79
     5
170
     0
171
     0
290
     0
174
     0
 93
        1
 44
0.0
173
     0
291
     0
 45
0.0
1001
ACAD
1000
AcDbSavedByObjectVersion
1070
     0
  0
VISUALSTYLE
  5
32
102
{ACAD_REACTORS
330
2A
102
}
330
2A
100
AcDbVisualStyle
  2
Basic
 70
     7
 71
     1
 72
     0
 73
     1
 90
        0
 40
-0.6
 41
-30.0
 62
     5
 63
     7
 74
     0
 91
        4
 64
     7
 65
   257
 75
     1
175
     1
 42
1.0
 92
        8
 66
     7
 43
1.0
 76
     1
 77
     6
 78
     2
 67
     7
 79
     5
170
     0
171
     0
290
     0
174
     0
 93
        1
 44
0.0
173
     0
291
     1
 45
0.0
1001
ACAD
1000
AcDbSavedByObjectVersion
1070
     0
  0
VISUALSTYLE
  5
36
102
{ACAD_REACTORS
330
2A
102
}
330
2A
100
AcDbVisualStyle
  2
Brighten
 70
    12
 71
     2
 72
     2
 73
     0
 90
        0
 40
-0.6
 41
-30.0
 62
     5
 63
     7
 74
     1
 91
        4
 64
     7
 65
   257
 75
     1
175
     1
 42
1.0
 92
        8
 66
     7
 43
1.0
 76
     1
 77
     6
 78
     2
 67
     7
 79
     5
170
     0
171
     0
290
     0
174
     0
 93
        1
 44
50.0
173
     0
291
     1
 45
0.0
1001
ACAD
1000
AcDbSavedByObjectVersion
1070
     0
  0
VISUALSTYLE
  5
3A
102
{ACAD_REACTORS
330
2A
102
}
330
2A
100
AcDbVisualStyle
  2
ColorChange
 70
    16
 71
     2
 72
     2
 73
     3
 90
        0
 40
-0.6
 41
-30.0
 62
     5
 63
     8
 74
     1
 91
        4
 64
     7
 65
   257
 75
     1
175
     1
 42
1.0
 92
        8
 66
     8
 43
1.0
 76
     1
 77
     6
 78
     2
 67
     7
 79
     5
170
     0
171
     0
290
     0
174
     0
 93
        1
 44
0.0
173
     0
291
     1
 45
0.0
1001
ACAD
1000
AcDbSavedByObjectVersion
1070
     0
  0
VISUALSTYLE
  5
34
102
{ACAD_REACTORS
330
2A
102
}
330
2A
100
AcDbVisualStyle
  2
Conceptual
 70
     9
 71
     3
 72
     2
 73
     0
 90
        0
 40
-0.6
 41
-30.0
 62
     5
 63
     7
 74
     2
 91
        2
 64
     7
 65
   257
 75
     1
175
     1
 42
40.0
 92
        8
 66
     7
 43
1.0
 76
     1
 77
     6
 78
     2
 67
     7
 79
     3
170
     0
171
     0
290
     0
174
     0
 93
        1
 44
0.0
173
     0
291
     0
 45
0.0
1001
ACAD
1000
AcDbSavedByObjectVersion
1070
     0
  0
VISUALSTYLE
  5
35
102
{ACAD_REACTORS
330
2A
102
}
330
2A
100
AcDbVisualStyle
  2
Dim
 70
    11
 71
     2
 72
     2
 73
     0
 90
        0
 40
-0.6
 41
-30.0
 62
     5
 63
     7
 74
     1
 91
        4
 64
     7
 65
   257
 75
     1
175
     1
 42
1.0
 92
        8
 66
     7
 43
1.0
 76
     1
 77
     6
 78
     2
 67
     7
 79
     5
170
     0
171
     0
290
     0
174
     0
 93
        1
 44
-50.0
173
     0
291
     1
 45
0.0
1001
ACAD
1000
AcDbSavedByObjectVersion
1070
     0
  0
VISUALSTYLE
  5
39
102
{ACAD_REACTORS
330
2A
102
}
330
2A
100
AcDbVisualStyle
  2
Facepattern
 70
    15
 71
     2
 72
     2
 73
     0
 90
        0
 40
-0.6
 41
-30.0
 62
     5
 63
     7
 74
     1
 91
        4
 64
     7
 65
   257
 75
     1
175
     1
 42
1.0
 92
        8
 66
     7
 43
1.0
 76
     1
 77
     6
 78
     2
 67
     7
 79
     5
170
     0
171
     0
290
     0
174
     0
 93
        1
 44
0.0
173
     0
291
     1
 45
0.0
1001
ACAD
1000
AcDbSavedByObjectVersion
1070
     0
  0
VISUALSTYLE
  5
2B
102
{ACAD_REACTORS
330
2A
102
}
330
2A
100
AcDbVisualStyle
  2
Flat
 70
     0
 71
     2
 72
     1
 73
     1
 90
        2
 40
-0.6
 41
30.0
 62
     5
 63
     7
 74
     0
 91
        4
 64
     7
 65
   257
 75
     1
175
     1
 42
1.0
 92
        8
 66
     7
 43
1.0
 76
     1
 77
     6
 78
     2
 67
     7
 79
     5
170
     0
171
     0
290
     0
174
     0
 93
       13
 44
0.0
173
     0
291
     1
 45
0.0
1001
ACAD
1000
AcDbSavedByObjectVersion
1070
     0
  0
VISUALSTYLE
  5
2C
102
{ACAD_REACTORS
330
2A
102
}
330
2A
100
AcDbVisualStyle
  2
FlatWithEdges
 70
     1
 71
     2
 72
     1
 73
     1
 90
        2
 40
-0.6
 41
30.0
 62
     5
 63
     7
 74
     1
 91
        4
 64
     7
 65
   257
 75
     1
175
     1
 42
1.0
 92
        0
 66
   257
 43
1.0
 76
     1
 77
     6
 78
     2
 67
     7
 79
     5
170
     0
171
     0
290
     0
174
     0
 93
       13
 44
0.0
173
     0
291
     1
 45
0.0
1001
ACAD
1000
AcDbSavedByObjectVersion
1070
     0
  0
VISUALSTYLE
  5
2D
102
{ACAD_REACTORS
330
2A
102
}
330
2A
100
AcDbVisualStyle
  2
Gouraud
 70
     2
 71
     2
 72
     2
 73
     1
 90
        2
 40
-0.6
 41
30.0
 62
     5
 63
     7
 74
     0
 91
        4
 64
     7
 65
   257
 75
     1
175
     1
 42
1.0
 92
        0
 66
     7
 43
1.0
 76
     1
 77
     6
 78
     2
 67
     7
 79
     5
170
     0
171
     0
290
     0
174
     0
 93
       13
 44
0.0
173
     0
291
     1
 45
0.0
1001
ACAD
1000
AcDbSavedByObjectVersion
1070
     0
  0
VISUALSTYLE
  5
2E
102
{ACAD_REACTORS
330
2A
102
}
330
2A
100
AcDbVisualStyle
  2
GouraudWithEdges
 70
     3
 71
     2
 72
     2
 73
     1
 90
        2
 40
-0.6
 41
30.0
 62
     5
 63
     7
 74
     1
 91
        4
 64
     7
 65
   257
 75
     1
175
     1
 42
1.0
 92
        0
 66
   257
 43
1.0
 76
     1
 77
     6
 78
     2
 67
     7
 79
     5
170
     0
171
     0
290
     0
174
     0
 93
       13
 44
0.0
173
     0
291
     1
 45
0.0
1001
ACAD
1000
AcDbSavedByObjectVersion
1070
     0
  0
VISUALSTYLE
  5
38
102
{ACAD_REACTORS
330
2A
102
}
330
2A
100
AcDbVisualStyle
  2
Linepattern
 70
    14
 71
     2
 72
     2
 73
     0
 90
        0
 40
-0.6
 41
-30.0
 62
     5
 63
     7
 74
     1
 91
        4
 64
     7
 65
   257
 75
     7
175
     7
 42
1.0
 92
        8
 66
     7
 43
1.0
 76
     1
 77
     6
 78
     2
 67
     7
 79
     5
170
     0
171
     0
290
     0
174
     0
 93
        1
 44
0.0
173
     0
291
     1
 45
0.0
1001
ACAD
1000
AcDbSavedByObjectVersion
1070
     0
  0
VISUALSTYLE
  5
33
102
{ACAD_REACTORS
330
2A
102
}
330
2A
100
AcDbVisualStyle
  2
Realistic
 70
     8
 71
     2
 72
     2
 73
     0
 90
        0
 40
-0.6
 41
-30.0
 62
     5
 63
     7
 74
     1
 91
        0
 64
     7
 65
   257
 75
     1
175
     1
 42
1.0
 92
        8
 66
     8
 43
1.0
 76
     1
 77
     6
 78
     2
 67
     7
 79
     5
170
     0
171
     0
290
     0
174
     0
 93
       13
 44
0.0
173
     0
291
     0
 45
0.0
1001
ACAD
1000
AcDbSavedByObjectVersion
1070
     0
  0
VISUALSTYLE
  5
37
102
{ACAD_REACTORS
330
2A
102
}
330
2A
100
AcDbVisualStyle
  2
Thicken
 70
    13
 71
     2
 72
     2
 73
     0
 90
        0
 40
-0.6
 41
-30.0
 62
     5
 63
     7
 74
     1
 91
        4
 64
     7
 65
   257
 75
     1
175
     1
 42
1.0
 92
       12
 66
     7
 43
1.0
 76
     1
 77
     6
 78
     2
 67
     7
 79
     5
170
     0
171
     0
290
     0
174
     0
 93
        1
 44
0.0
173
     0
291
     1
 45
0.0
1001
ACAD
1000
AcDbSavedByObjectVersion
1070
     0
  0
DICTIONARYVAR
  5
159
102
{ACAD_REACTORS
330
156
102
}
330
156
100
DictionaryVariables
280
     0
  1
1:1
  0
ENDSEC
  0
EOF
