  0
SECTION
  2
HEADER
  9
$ACADVER
  1
AC1015
  9
$ACADMAINTVER
 70
     6
  9
$DWGCODEPAGE
  3
ANSI_1252
  9
$INSBASE
 10
0.0
 20
0.0
 30
0.0
  9
$EXTMIN
 10
60.78870481930002
 20
241.6467898344777
 30
0.0
  9
$EXTMAX
 10
246.7660087142931
 20
337.09457744354
 30
0.0
  9
$LIMMIN
 10
0.0
 20
0.0
  9
$LIMMAX
 10
12.0
 20
9.0
  9
$ORTHOMODE
 70
     0
  9
$REGENMODE
 70
     1
  9
$FILLMODE
 70
     1
  9
$QTEXTMODE
 70
     0
  9
$MIRRTEXT
 70
     1
  9
$LTSCALE
 40
1.0
  9
$ATTMODE
 70
     1
  9
$TEXTSIZE
 40
0.2
  9
$TRACEWID
 40
0.05
  9
$TEXTSTYLE
  7
Standard
  9
$CLAYER
  8
0
  9
$CELTYPE
  6
ByLayer
  9
$CECOLOR
 62
   256
  9
$CELTSCALE
 40
1.0
  9
$DISPSILH
 70
     0
  9
$DIMSCALE
 40
1.0
  9
$DIMASZ
 40
0.18
  9
$DIMEXO
 40
0.0625
  9
$DIMDLI
 40
0.38
  9
$DIMRND
 40
0.0
  9
$DIMDLE
 40
0.0
  9
$DIMEXE
 40
0.18
  9
$DIMTP
 40
0.0
  9
$DIMTM
 40
0.0
  9
$DIMTXT
 40
0.18
  9
$DIMCEN
 40
0.09
  9
$DIMTSZ
 40
0.0
  9
$DIMTOL
 70
     0
  9
$DIMLIM
 70
     0
  9
$DIMTIH
 70
     1
  9
$DIMTOH
 70
     1
  9
$DIMSE1
 70
     0
  9
$DIMSE2
 70
     0
  9
$DIMTAD
 70
     0
  9
$DIMZIN
 70
     0
  9
$DIMBLK
  1

  9
$DIMASO
 70
     1
  9
$DIMSHO
 70
     1
  9
$DIMPOST
  1

  9
$DIMAPOST
  1

  9
$DIMALT
 70
     0
  9
$DIMALTD
 70
     2
  9
$DIMALTF
 40
25.4
  9
$DIMLFAC
 40
1.0
  9
$DIMTOFL
 70
     0
  9
$DIMTVP
 40
0.0
  9
$DIMTIX
 70
     0
  9
$DIMSOXD
 70
     0
  9
$DIMSAH
 70
     0
  9
$DIMBLK1
  1

  9
$DIMBLK2
  1

  9
$DIMSTYLE
  2
Standard
  9
$DIMCLRD
 70
     0
  9
$DIMCLRE
 70
     0
  9
$DIMCLRT
 70
     0
  9
$DIMTFAC
 40
1.0
  9
$DIMGAP
 40
0.09
  9
$DIMJUST
 70
     0
  9
$DIMSD1
 70
     0
  9
$DIMSD2
 70
     0
  9
$DIMTOLJ
 70
     1
  9
$DIMTZIN
 70
     0
  9
$DIMALTZ
 70
     0
  9
$DIMALTTZ
 70
     0
  9
$DIMUPT
 70
     0
  9
$DIMDEC
 70
     4
  9
$DIMTDEC
 70
     4
  9
$DIMALTU
 70
     2
  9
$DIMALTTD
 70
     2
  9
$DIMTXSTY
  7
Standard
  9
$DIMAUNIT
 70
     0
  9
$DIMADEC
 70
     0
  9
$DIMALTRND
 40
0.0
  9
$DIMAZIN
 70
     0
  9
$DIMDSEP
 70
    46
  9
$DIMATFIT
 70
     3
  9
$DIMFRAC
 70
     0
  9
$DIMLDRBLK
  1

  9
$DIMLUNIT
 70
     2
  9
$DIMLWD
 70
    -2
  9
$DIMLWE
 70
    -2
  9
$DIMTMOVE
 70
     0
  9
$LUNITS
 70
     2
  9
$LUPREC
 70
     4
  9
$SKETCHINC
 40
0.1
  9
$FILLETRAD
 40
0.5
  9
$AUNITS
 70
     0
  9
$AUPREC
 70
     0
  9
$MENU
  1
.
  9
$ELEVATION
 40
0.0
  9
$PELEVATION
 40
0.0
  9
$THICKNESS
 40
0.0
  9
$LIMCHECK
 70
     0
  9
$CHAMFERA
 40
0.5
  9
$CHAMFERB
 40
0.5
  9
$CHAMFERC
 40
1.0
  9
$CHAMFERD
 40
0.0
  9
$SKPOLY
 70
     0
  9
$TDCREATE
 40
2456749.743853889
  9
$TDUCREATE
 40
2456749.660520555
  9
$TDUPDATE
 40
2456749.743853901
  9
$TDUUPDATE
 40
2456749.660520567
  9
$TDINDWG
 40
0.0000000116
  9
$TDUSRTIMER
 40
0.0000000116
  9
$USRTIMER
 70
     1
  9
$ANGBASE
 50
0.0
  9
$ANGDIR
 70
     0
  9
$PDMODE
 70
     0
  9
$PDSIZE
 40
0.0
  9
$PLINEWID
 40
0.0
  9
$SPLFRAME
 70
     0
  9
$SPLINETYPE
 70
     6
  9
$SPLINESEGS
 70
     8
  9
$HANDSEED
  5
165
  9
$SURFTAB1
 70
     6
  9
$SURFTAB2
 70
     6
  9
$SURFTYPE
 70
     6
  9
$SURFU
 70
     6
  9
$SURFV
 70
     6
  9
$UCSBASE
  2

  9
$UCSNAME
  2

  9
$UCSORG
 10
0.0
 20
0.0
 30
0.0
  9
$UCSXDIR
 10
1.0
 20
0.0
 30
0.0
  9
$UCSYDIR
 10
0.0
 20
1.0
 30
0.0
  9
$UCSORTHOREF
  2

  9
$UCSORTHOVIEW
 70
     0
  9
$UCSORGTOP
 10
0.0
 20
0.0
 30
0.0
  9
$UCSORGBOTTOM
 10
0.0
 20
0.0
 30
0.0
  9
$UCSORGLEFT
 10
0.0
 20
0.0
 30
0.0
  9
$UCSORGRIGHT
 10
0.0
 20
0.0
 30
0.0
  9
$UCSORGFRONT
 10
0.0
 20
0.0
 30
0.0
  9
$UCSORGBACK
 10
0.0
 20
0.0
 30
0.0
  9
$PUCSBASE
  2

  9
$PUCSNAME
  2

  9
$PUCSORG
 10
0.0
 20
0.0
 30
0.0
  9
$PUCSXDIR
 10
1.0
 20
0.0
 30
0.0
  9
$PUCSYDIR
 10
0.0
 20
1.0
 30
0.0
  9
$PUCSORTHOREF
  2

  9
$PUCSORTHOVIEW
 70
     0
  9
$PUCSORGTOP
 10
0.0
 20
0.0
 30
0.0
  9
$PUCSORGBOTTOM
 10
0.0
 20
0.0
 30
0.0
  9
$PUCSORGLEFT
 10
0.0
 20
0.0
 30
0.0
  9
$PUCSORGRIGHT
 10
0.0
 20
0.0
 30
0.0
  9
$PUCSORGFRONT
 10
0.0
 20
0.0
 30
0.0
  9
$PUCSORGBACK
 10
0.0
 20
0.0
 30
0.0
  9
$USERI1
 70
     0
  9
$USERI2
 70
     0
  9
$USERI3
 70
     0
  9
$USERI4
 70
     0
  9
$USERI5
 70
     0
  9
$USERR1
 40
16.5
  9
$USERR2
 40
0.0
  9
$USERR3
 40
0.0
  9
$USERR4
 40
0.0
  9
$USERR5
 40
0.0
  9
$WORLDVIEW
 70
     1
  9
$SHADEDGE
 70
     3
  9
$SHADEDIF
 70
    70
  9
$TILEMODE
 70
     1
  9
$MAXACTVP
 70
    64
  9
$PINSBASE
 10
0.0
 20
0.0
 30
0.0
  9
$PLIMCHECK
 70
     0
  9
$PEXTMIN
 10
1.00000000000000E+20
 20
1.00000000000000E+20
 30
1.00000000000000E+20
  9
$PEXTMAX
 10
-1.00000000000000E+20
 20
-1.00000000000000E+20
 30
-1.00000000000000E+20
  9
$PLIMMIN
 10
0.0
 20
0.0
  9
$PLIMMAX
 10
12.0
 20
9.0
  9
$UNITMODE
 70
     0
  9
$VISRETAIN
 70
     1
  9
$PLINEGEN
 70
     0
  9
$PSLTSCALE
 70
     1
  9
$TREEDEPTH
 70
  3020
  9
$CMLSTYLE
  2
Standard
  9
$CMLJUST
 70
     0
  9
$CMLSCALE
 40
1.0
  9
$PROXYGRAPHICS
 70
     1
  9
$MEASUREMENT
 70
     1
  9
$CELWEIGHT
370
    -1
  9
$ENDCAPS
280
     0
  9
$JOINSTYLE
280
     0
  9
$LWDISPLAY
290
     0
  9
$INSUNITS
 70
     1
  9
$HYPERLINKBASE
  1

  9
$STYLESHEET
  1

  9
$XEDIT
290
     1
  9
$CEPSNTYPE
380
     0
  9
$PSTYLEMODE
290
     1
  9
$FINGERPRINTGUID
  2
{ED440EF6-5ED5-4A57-BC8C-8CE359E3C06E}
  9
$VERSIONGUID
  2
{FAEB1C32-E019-11D5-929B-00C0DF256EC4}
  9
$EXTNAMES
290
     1
  9
$PSVPSCALE
 40
0.0
  9
$OLESTARTUP
290
     0
  0
ENDSEC
  0
SECTION
  2
CLASSES
  0
CLASS
  1
ACDBDICTIONARYWDFLT
  2
AcDbDictionaryWithDefault
  3
ObjectDBX Classes
 90
        0
280
     0
281
     0
  0
CLASS
  1
VISUALSTYLE
  2
AcDbVisualStyle
  3
ObjectDBX Classes
 90
     4095
280
     0
281
     0
  0
CLASS
  1
SCALE
  2
AcDbScale
  3
ObjectDBX Classes
 90
     1153
280
     0
281
     0
  0
CLASS
  1

  2
exOdDbPolyline
  3

 90
        0
280
     0
281
     1
  0
CLASS
  1

  2
exOdDbCircle
  3

 90
        0
280
     0
281
     1
  0
CLASS
  1

  2
exOdDbSpline
  3

 90
        0
280
     0
281
     1
  0
CLASS
  1
DICTIONARYVAR
  2
AcDbDictionaryVar
  3
ObjectDBX Classes
 90
        0
280
     0
281
     0
  0
CLASS
  1
ACDBPLACEHOLDER
  2
AcDbPlaceHolder
  3
ObjectDBX Classes
 90
        0
280
     0
281
     0
  0
CLASS
  1
LAYOUT
  2
AcDbLayout
  3
ObjectDBX Classes
 90
        0
280
     0
281
     0
  0
ENDSEC
  0
SECTION
  2
TABLES
  0
TABLE
  2
VPORT
  5
8
330
0
100
AcDbSymbolTable
 70
     1
  0
VPORT
  5
29
330
8
100
AcDbSymbolTableRecord
100
AcDbViewportTableRecord
  2
*Active
 70
     0
 10
0.0
 20
0.0
 11
1.0
 21
1.0
 12
153.7773567667966
 22
289.3706836390089
 13
0.0
 23
0.0
 14
0.5
 24
0.5
 15
0.5
 25
0.5
 16
0.0
 26
0.0
 36
1.0
 17
0.0
 27
0.0
 37
0.0
 40
127.6457038432488
 41
1.60267857142857
 42
50.0
 43
0.0
 44
0.0
 50
0.0
 51
0.0
 71
     0
 72
   100
 73
     1
 74
     3
 75
     0
 76
     0
 77
     0
 78
     0
281
     0
 65
     1
110
0.0
120
0.0
130
0.0
111
1.0
121
0.0
131
0.0
112
0.0
122
1.0
132
0.0
 79
     0
146
0.0
  0
ENDTAB
  0
TABLE
  2
LTYPE
  5
5
330
0
100
AcDbSymbolTable
 70
     8
  0
LTYPE
  5
14
330
5
100
AcDbSymbolTableRecord
100
AcDbLinetypeTableRecord
  2
ByBlock
 70
     0
  3

 72
    65
 73
     0
 40
0.0
  0
LTYPE
  5
15
330
5
100
AcDbSymbolTableRecord
100
AcDbLinetypeTableRecord
  2
ByLayer
 70
     0
  3

 72
    65
 73
     0
 40
0.0
  0
LTYPE
  5
16
330
5
100
AcDbSymbolTableRecord
100
AcDbLinetypeTableRecord
  2
Continuous
 70
     0
  3
Solid line
 72
    65
 73
     0
 40
0.0
  0
LTYPE
  5
3B
330
5
100
AcDbSymbolTableRecord
100
AcDbLinetypeTableRecord
  2
DASHED
 70
     0
  3
Dashed
 72
    65
 73
     2
 40
15.0
 49
7.0
 74
     0
 49
-8.0
 74
     0
  0
LTYPE
  5
3C
330
5
100
AcDbSymbolTableRecord
100
AcDbLinetypeTableRecord
  2
DOTTED
 70
     0
  3
Dotted
 72
    65
 73
     2
 40
1.0
 49
0.0
 74
     0
 49
-1.0
 74
     0
  0
LTYPE
  5
3D
330
5
100
AcDbSymbolTableRecord
100
AcDbLinetypeTableRecord
  2
DOT_CENTER
 70
     0
  3
Dot_Center
 72
    65
 73
     4
 40
14.0
 49
12.0
 74
     0
 49
-1.0
 74
     0
 49
0.0
 74
     0
 49
-1.0
 74
     0
  0
LTYPE
  5
3E
330
5
100
AcDbSymbolTableRecord
100
AcDbLinetypeTableRecord
  2
LONG_DASHED
 70
     0
  3
Long_Dashed
 72
    65
 73
     2
 40
15.0
 49
10.0
 74
     0
 49
-5.0
 74
     0
  0
LTYPE
  5
3F
330
5
100
AcDbSymbolTableRecord
100
AcDbLinetypeTableRecord
  2
DASH_CENTER
 70
     0
  3
Dash_Center
 72
    65
 73
     4
 40
14.0
 49
11.0
 74
     0
 49
-1.0
 74
     0
 49
1.0
 74
     0
 49
-1.0
 74
     0
  0
LTYPE
  5
40
330
5
100
AcDbSymbolTableRecord
100
AcDbLinetypeTableRecord
  2
PHANTOM
 70
     0
  3
Phantom
 72
    65
 73
     6
 40
13.0
 49
10.0
 74
     0
 49
-1.0
 74
     0
 49
0.0
 74
     0
 49
-1.0
 74
     0
 49
0.0
 74
     0
 49
-1.0
 74
     0
  0
LTYPE
  5
41
330
5
100
AcDbSymbolTableRecord
100
AcDbLinetypeTableRecord
  2
CENTER_DASH_DASH
 70
     0
  3
Center_Dash_Dash
 72
    65
 73
     6
 40
14.0
 49
9.0
 74
     0
 49
-1.0
 74
     0
 49
1.0
 74
     0
 49
-1.0
 74
     0
 49
1.0
 74
     0
 49
-1.0
 74
     0
  0
ENDTAB
  0
TABLE
  2
LAYER
  5
2
330
0
100
AcDbSymbolTable
 70
     7
  0
LAYER
  5
10
330
2
100
AcDbSymbolTableRecord
100
AcDbLayerTableRecord
  2
0
 70
     0
 62
     7
  6
Continuous
370
    -3
390
F
  0
LAYER
  5
42
330
2
100
AcDbSymbolTableRecord
100
AcDbLayerTableRecord
  2
1
 70
     0
 62
     7
  6
Continuous
370
    -3
390
F
  0
LAYER
  5
43
330
2
100
AcDbSymbolTableRecord
100
AcDbLayerTableRecord
  2
BEZUGSACHSEN
 70
     0
 62
     7
  6
Continuous
370
    -3
390
F
  0
LAYER
  5
44
330
2
100
AcDbSymbolTableRecord
100
AcDbLayerTableRecord
  2
BOHRUNGEN
 70
     0
 62
     7
  6
Continuous
370
    -3
390
F
  0
LAYER
  5
45
330
2
100
AcDbSymbolTableRecord
100
AcDbLayerTableRecord
  2
FASEN
 70
     0
 62
     7
  6
Continuous
370
    -3
390
F
  0
LAYER
  5
46
330
2
100
AcDbSymbolTableRecord
100
AcDbLayerTableRecord
  2
RUNDUNGEN
 70
     0
 62
     7
  6
Continuous
370
    -3
390
F
  0
LAYER
  5
47
330
2
100
AcDbSymbolTableRecord
100
AcDbLayerTableRecord
  2
TEIL_STARTBEZUEGE
 70
     0
 62
     7
  6
Continuous
370
    -3
390
F
  0
ENDTAB
  0
TABLE
  2
STYLE
  5
3
330
0
100
AcDbSymbolTable
 70
     2
  0
STYLE
  5
11
330
3
100
AcDbSymbolTableRecord
100
AcDbTextStyleTableRecord
  2
Standard
 70
     0
 40
0.0
 41
1.0
 50
0.0
 71
     0
 42
0.2
  3
txt
  4

  0
STYLE
  5
6E
330
3
100
AcDbSymbolTableRecord
100
AcDbTextStyleTableRecord
  2
CONVERTER_11
 70
     0
 40
0.0
 41
0.72
 50
0.0
 71
     0
 42
0.2
  3
txt.shx
  4

  0
ENDTAB
  0
TABLE
  2
VIEW
  5
6
330
0
100
AcDbSymbolTable
 70
     0
  0
ENDTAB
  0
TABLE
  2
UCS
  5
7
330
0
100
AcDbSymbolTable
 70
     0
  0
ENDTAB
  0
TABLE
  2
APPID
  5
9
330
0
100
AcDbSymbolTable
 70
     1
  0
APPID
  5
12
330
9
100
AcDbSymbolTableRecord
100
AcDbRegAppTableRecord
  2
ACAD
 70
     0
  0
ENDTAB
  0
TABLE
  2
DIMSTYLE
  5
A
330
0
100
AcDbSymbolTable
 70
     8
100
AcDbDimStyleTable
  0
DIMSTYLE
105
27
330
A
100
AcDbSymbolTableRecord
100
AcDbDimStyleTableRecord
  2
Standard
 70
     0
340
11
  0
DIMSTYLE
105
116
102
{ACAD_REACTORS
330
117
102
}
330
A
100
AcDbSymbolTableRecord
100
AcDbDimStyleTableRecord
  2
ME10_DIM_10
 70
     0
  3
\U+2300<>
 41
3.5
 42
2.0
 44
2.0
 71
     1
 73
     0
 74
     0
 77
     1
 78
     8
140
3.5
146
0.7
147
2.0
172
     1
173
     1
176
     2
177
     2
178
     3
271
     2
272
     0
340
6E
  0
DIMSTYLE
105
121
102
{ACAD_REACTORS
330
122
102
}
330
A
100
AcDbSymbolTableRecord
100
AcDbDimStyleTableRecord
  2
ME10_DIM_11
 70
     0
  3
\U+2300<>
 41
3.5
 42
2.0
 44
2.0
 71
     1
 73
     0
 74
     0
 77
     1
 78
     8
140
3.5
146
0.7
147
2.0
172
     1
173
     1
176
     2
177
     2
178
     3
271
     2
272
     0
340
6E
  0
DIMSTYLE
105
12C
102
{ACAD_REACTORS
330
12D
102
}
330
A
100
AcDbSymbolTableRecord
100
AcDbDimStyleTableRecord
  2
ME10_DIM_12
 70
     0
  3
\U+2300<>
 41
3.5
 42
2.0
 44
2.0
 71
     1
 73
     0
 74
     0
 77
     1
 78
     8
140
3.5
146
0.7
147
2.0
172
     1
173
     1
176
     2
177
     2
178
     3
271
     2
272
     0
340
6E
  0
DIMSTYLE
105
137
102
{ACAD_REACTORS
330
138
102
}
330
A
100
AcDbSymbolTableRecord
100
AcDbDimStyleTableRecord
  2
ME10_DIM_13
 70
     0
  3
<>
 41
3.5
 42
2.0
 44
2.0
 71
     1
 73
     0
 74
     0
 77
     1
 78
     8
140
3.5
146
0.7
147
2.0
172
     1
173
     1
176
     2
177
     2
178
     3
271
     0
272
     0
340
6E
  0
DIMSTYLE
105
142
102
{ACAD_REACTORS
330
143
102
}
330
A
100
AcDbSymbolTableRecord
100
AcDbDimStyleTableRecord
  2
ME10_DIM_14
 70
     0
  3
<>
 41
3.5
 42
2.0
 44
2.0
 71
     1
 73
     0
 74
     0
 77
     1
 78
     8
140
3.5
146
0.7
147
2.0
172
     1
173
     1
176
     2
177
     2
178
     3
271
     2
272
     0
340
6E
  0
DIMSTYLE
105
14D
102
{ACAD_REACTORS
330
14E
102
}
330
A
100
AcDbSymbolTableRecord
100
AcDbDimStyleTableRecord
  2
ME10_DIM_15
 70
     0
  3
<>
 41
3.5
 42
2.0
 44
2.0
 71
     1
 73
     0
 74
     0
 77
     1
 78
     8
140
3.5
146
0.7
147
2.0
172
     1
173
     1
176
     2
177
     2
178
     3
271
     0
272
     0
340
6E
  0
DIMSTYLE
105
15F
102
{ACAD_REACTORS
330
160
102
}
330
A
100
AcDbSymbolTableRecord
100
AcDbDimStyleTableRecord
  2
ME10_DIM_16
 70
     0
  3
<>
 41
3.5
 42
2.0
 44
2.0
 71
     1
 73
     0
 74
     0
 77
     1
 78
     8
140
3.5
146
0.7
147
2.0
172
     1
173
     1
176
     2
177
     2
178
     3
271
     2
272
     0
340
6E
  0
ENDTAB
  0
TABLE
  2
BLOCK_RECORD
  5
1
330
0
100
AcDbSymbolTable
 70
    10
  0
BLOCK_RECORD
  5
1F
330
1
100
AcDbSymbolTableRecord
100
AcDbBlockTableRecord
  2
*Model_Space
340
22
  0
BLOCK_RECORD
  5
1B
330
1
100
AcDbSymbolTableRecord
100
AcDbBlockTableRecord
  2
*Paper_Space
340
1E
  0
BLOCK_RECORD
  5
23
330
1
100
AcDbSymbolTableRecord
100
AcDbBlockTableRecord
  2
*Paper_Space0
340
26
  0
BLOCK_RECORD
  5
48
330
1
100
AcDbSymbolTableRecord
100
AcDbBlockTableRecord
  2
Urheberrecht_DE-EN_horizontal
340
0
102
{BLKREFS
331
6D
102
}
  0
BLOCK_RECORD
  5
10D
330
1
100
AcDbSymbolTableRecord
100
AcDbBlockTableRecord
  2
*D2
340
0
  0
BLOCK_RECORD
  5
118
330
1
100
AcDbSymbolTableRecord
100
AcDbBlockTableRecord
  2
*D3
340
0
  0
BLOCK_RECORD
  5
123
330
1
100
AcDbSymbolTableRecord
100
AcDbBlockTableRecord
  2
*D4
340
0
  0
BLOCK_RECORD
  5
12E
330
1
100
AcDbSymbolTableRecord
100
AcDbBlockTableRecord
  2
*D5
340
0
  0
BLOCK_RECORD
  5
139
330
1
100
AcDbSymbolTableRecord
100
AcDbBlockTableRecord
  2
*D6
340
0
  0
BLOCK_RECORD
  5
144
330
1
100
AcDbSymbolTableRecord
100
AcDbBlockTableRecord
  2
*D7
340
0
  0
BLOCK_RECORD
  5
14F
330
1
100
AcDbSymbolTableRecord
100
AcDbBlockTableRecord
  2
*D8
340
0
102
{BLKREFS
331
155
102
}
  0
BLOCK_RECORD
  5
156
330
1
100
AcDbSymbolTableRecord
100
AcDbBlockTableRecord
  2
*D9
340
0
  0
ENDTAB
  0
ENDSEC
  0
SECTION
  2
BLOCKS
  0
BLOCK
  5
20
330
1F
100
AcDbEntity
  8
0
100
AcDbBlockBegin
  2
*Model_Space
 70
     0
 10
0.0
 20
0.0
 30
0.0
  3
*Model_Space
  1

  0
ENDBLK
  5
21
330
1F
100
AcDbEntity
  8
0
100
AcDbBlockEnd
  0
BLOCK
  5
1C
330
1B
100
AcDbEntity
 67
     1
  8
0
100
AcDbBlockBegin
  2
*Paper_Space
 70
     0
 10
0.0
 20
0.0
 30
0.0
  3
*Paper_Space
  1

  0
ENDBLK
  5
1D
330
1B
100
AcDbEntity
 67
     1
  8
0
100
AcDbBlockEnd
  0
BLOCK
  5
24
330
23
100
AcDbEntity
  8
0
100
AcDbBlockBegin
  2
*Paper_Space0
 70
     0
 10
0.0
 20
0.0
 30
0.0
  3
*Paper_Space0
  1

  0
ENDBLK
  5
25
330
23
100
AcDbEntity
  8
0
100
AcDbBlockEnd
  0
BLOCK
  5
49
330
48
100
AcDbEntity
  8
0
100
AcDbBlockBegin
  2
Urheberrecht_DE-EN_horizontal
 70
     0
 10
151.219518810137
 20
249.044797844382
 30
0.0
  3
Urheberrecht_DE-EN_horizontal
  1

  0
MTEXT
  5
6F
330
48
100
AcDbEntity
  8
1
 62
     1
100
AcDbMText
 10
97.76573642077777
 20
242.2467898344777
 30
0.0
 40
2.0
 41
0.0
 71
     7
 72
     1
  1
F\U+00fcr diese Unterlage behalten wir das Ur-\Pheberrecht. Sie darf nur f\U+00fcr den von uns \Pbestimmten Zweck benutzt und ohne unsere \PZustimmung weder vervielf\U+00e4ltigt noch\PDritten zug\U+00e4nglich gemacht werden.
  7
CONVERTER_11
 73
     1
 44
0.90036014405762
  0
MTEXT
  5
70
330
48
100
AcDbEntity
  8
1
 62
     1
100
AcDbMText
 10
154.0551233380839
 20
242.2467898344777
 30
0.0
 40
2.0
 41
0.0
 71
     7
 72
     1
  1
We own the copyright of this document. It \Pdetermined and may neither be copied or \Pmade accessible to outsiders without our\Ppermission.
  7
CONVERTER_11
 73
     1
 44
0.90036014405762
  0
ENDBLK
  5
4A
330
48
100
AcDbEntity
  8
0
100
AcDbBlockEnd
  0
BLOCK
  5
114
330
10D
100
AcDbEntity
  8
0
100
AcDbBlockBegin
  2
*D2
 70
     1
 10
0.0
 20
0.0
 30
0.0
  3
*D2
  1

  0
LINE
  5
10E
330
10D
100
AcDbEntity
  8
1
  6
Continuous
 62
     2
100
AcDbLine
 10
229.118881407583
 20
292.7196159639
 30
0.0
 11
229.118881407583
 21
276.7196159639
 31
0.0
  0
LINE
  5
10F
330
10D
100
AcDbEntity
  8
1
  6
Continuous
 62
     2
100
AcDbLine
 10
220.8137048193
 20
292.7196159639
 30
0.0
 11
231.118881407583
 21
292.7196159639
 31
0.0
  0
LINE
  5
110
330
10D
100
AcDbEntity
  8
1
  6
Continuous
 62
     2
100
AcDbLine
 10
220.8137048193
 20
276.7196159639
 30
0.0
 11
231.118881407583
 21
276.7196159639
 31
0.0
  0
SOLID
  5
111
330
10D
100
AcDbEntity
  8
1
 62
     2
100
AcDbTrace
 10
229.5796651491389
 20
289.2196159639
 30
0.0
 11
228.6580976660271
 21
289.2196159639
 31
0.0
 12
229.118881407583
 22
292.7196159639
 32
0.0
 13
229.118881407583
 23
292.7196159639
 33
0.0
  0
SOLID
  5
112
330
10D
100
AcDbEntity
  8
1
 62
     2
100
AcDbTrace
 10
228.6580976660271
 20
280.2196159639
 30
0.0
 11
229.5796651491389
 21
280.2196159639
 31
0.0
 12
229.118881407583
 22
276.7196159639
 32
0.0
 13
229.118881407583
 23
276.7196159639
 33
0.0
  0
MTEXT
  5
113
330
10D
100
AcDbEntity
  8
1
 62
     3
100
AcDbMText
 10
227.118881407583
 20
276.261673073539
 30
0.0
 40
3.5
 41
0.0
 71
     7
 72
     1
  1
\C3;%%c\C3;\C3;16\C2;\H2.45;\S^ ;\C3;
  7
CONVERTER_11
 11
0.0
 21
1.0
 31
0.0
 73
     1
 44
0.60024009603842
  0
ENDBLK
  5
115
330
10D
100
AcDbEntity
  8
0
100
AcDbBlockEnd
  0
BLOCK
  5
11F
330
118
100
AcDbEntity
  8
0
100
AcDbBlockBegin
  2
*D3
 70
     1
 10
0.0
 20
0.0
 30
0.0
  3
*D3
  1

  0
LINE
  5
119
330
118
100
AcDbEntity
  8
1
  6
Continuous
 62
     2
100
AcDbLine
 10
237.585941638487
 20
298.2196159638466
 30
0.0
 11
237.585941638487
 21
271.2196159638486
 31
0.0
  0
LINE
  5
11A
330
118
100
AcDbEntity
  8
1
  6
Continuous
 62
     2
100
AcDbLine
 10
220.8137048193
 20
298.2196159638466
 30
0.0
 11
239.585941638487
 21
298.2196159638466
 31
0.0
  0
LINE
  5
11B
330
118
100
AcDbEntity
  8
1
  6
Continuous
 62
     2
100
AcDbLine
 10
220.8137048193
 20
271.2196159638486
 30
0.0
 11
239.585941638487
 21
271.2196159638486
 31
0.0
  0
SOLID
  5
11C
330
118
100
AcDbEntity
  8
1
 62
     2
100
AcDbTrace
 10
238.0467253800429
 20
294.7196159638466
 30
0.0
 11
237.1251578969311
 21
294.7196159638466
 31
0.0
 12
237.585941638487
 22
298.2196159638466
 32
0.0
 13
237.585941638487
 23
298.2196159638466
 33
0.0
  0
SOLID
  5
11D
330
118
100
AcDbEntity
  8
1
 62
     2
100
AcDbTrace
 10
237.1251578969311
 20
274.7196159638486
 30
0.0
 11
238.0467253800429
 21
274.7196159638486
 31
0.0
 12
237.585941638487
 22
271.2196159638486
 32
0.0
 13
237.585941638487
 23
271.2196159638486
 33
0.0
  0
MTEXT
  5
11E
330
118
100
AcDbEntity
  8
1
 62
     3
100
AcDbMText
 10
235.585941638487
 20
276.180355482776
 30
0.0
 40
3.5
 41
0.0
 71
     7
 72
     1
  1
\C3;%%c\C3;\C3;27\C2;\H2.45;\S^ ;\C3;
  7
CONVERTER_11
 11
0.0
 21
1.0
 31
0.0
 73
     1
 44
0.60024009603842
  0
ENDBLK
  5
120
330
118
100
AcDbEntity
  8
0
100
AcDbBlockEnd
  0
BLOCK
  5
12A
330
123
100
AcDbEntity
  8
0
100
AcDbBlockBegin
  2
*D4
 70
     1
 10
0.0
 20
0.0
 30
0.0
  3
*D4
  1

  0
LINE
  5
124
330
123
100
AcDbEntity
  8
1
  6
Continuous
 62
     2
100
AcDbLine
 10
244.7660087142931
 20
301.7196159639
 30
0.0
 11
244.7660087142931
 21
267.7196159639
 31
0.0
  0
LINE
  5
125
330
123
100
AcDbEntity
  8
1
  6
Continuous
 62
     2
100
AcDbLine
 10
176.3419882427001
 20
301.7196159639
 30
0.0
 11
246.7660087142931
 21
301.7196159639
 31
0.0
  0
LINE
  5
126
330
123
100
AcDbEntity
  8
1
  6
Continuous
 62
     2
100
AcDbLine
 10
176.3419882427001
 20
267.7196159639
 30
0.0
 11
246.7660087142931
 21
267.7196159639
 31
0.0
  0
SOLID
  5
127
330
123
100
AcDbEntity
  8
1
 62
     2
100
AcDbTrace
 10
245.226792455849
 20
298.2196159639
 30
0.0
 11
244.3052249727372
 21
298.2196159639
 31
0.0
 12
244.7660087142931
 22
301.7196159639
 32
0.0
 13
244.7660087142931
 23
301.7196159639
 33
0.0
  0
SOLID
  5
128
330
123
100
AcDbEntity
  8
1
 62
     2
100
AcDbTrace
 10
244.3052249727372
 20
271.2196159639
 30
0.0
 11
245.226792455849
 21
271.2196159639
 31
0.0
 12
244.7660087142931
 22
267.7196159639
 32
0.0
 13
244.7660087142931
 23
267.7196159639
 33
0.0
  0
MTEXT
  5
129
330
123
100
AcDbEntity
  8
1
 62
     3
100
AcDbMText
 10
242.7660087142931
 20
276.586774373859
 30
0.0
 40
3.5
 41
0.0
 71
     7
 72
     1
  1
\C3;%%c\C3;\C3;34\C2;\H2.45;\S^ ;\C3;
  7
CONVERTER_11
 11
0.0
 21
1.0
 31
0.0
 73
     1
 44
0.60024009603842
  0
ENDBLK
  5
12B
330
123
100
AcDbEntity
  8
0
100
AcDbBlockEnd
  0
BLOCK
  5
135
330
12E
100
AcDbEntity
  8
0
100
AcDbBlockBegin
  2
*D5
 70
     1
 10
0.0
 20
0.0
 30
0.0
  3
*D5
  1

  0
LINE
  5
12F
330
12E
100
AcDbEntity
  8
1
  6
Continuous
 62
     2
100
AcDbLine
 10
218.8137048193
 20
317.581749921852
 30
0.0
 11
114.7637048193
 21
317.581749921852
 31
0.0
  0
LINE
  5
130
330
12E
100
AcDbEntity
  8
1
  6
Continuous
 62
     2
100
AcDbLine
 10
218.8137048193
 20
299.2952254722
 30
0.0
 11
218.8137048193
 21
319.581749921852
 31
0.0
  0
LINE
  5
131
330
12E
100
AcDbEntity
  8
1
  6
Continuous
 62
     2
100
AcDbLine
 10
114.7637048193
 20
311.7195659454
 30
0.0
 11
114.7637048193
 21
319.581749921852
 31
0.0
  0
SOLID
  5
132
330
12E
100
AcDbEntity
  8
1
 62
     2
100
AcDbTrace
 10
215.3137048193
 20
317.1209661802961
 30
0.0
 11
215.3137048193
 21
318.0425336634079
 31
0.0
 12
218.8137048193
 22
317.581749921852
 32
0.0
 13
218.8137048193
 23
317.581749921852
 33
0.0
  0
SOLID
  5
133
330
12E
100
AcDbEntity
  8
1
 62
     2
100
AcDbTrace
 10
118.2637048193
 20
318.0425336634079
 30
0.0
 11
118.2637048193
 21
317.1209661802961
 31
0.0
 12
114.7637048193
 22
317.581749921852
 32
0.0
 13
114.7637048193
 23
317.581749921852
 33
0.0
  0
MTEXT
  5
134
330
12E
100
AcDbEntity
  8
1
 62
     3
100
AcDbMText
 10
164.0819600865492
 20
319.581749921852
 30
0.0
 40
3.5
 41
0.0
 71
     7
 72
     1
  1
\C3;\C3;\C3;104\C2;\H2.45;\S^ ;\C3;
  7
CONVERTER_11
 11
0.9999999999970619
 21
2.424068405545306E-6
 31
0.0
 73
     1
 44
0.60024009603842
  0
ENDBLK
  5
136
330
12E
100
AcDbEntity
  8
0
100
AcDbBlockEnd
  0
BLOCK
  5
140
330
139
100
AcDbEntity
  8
0
100
AcDbBlockBegin
  2
*D6
 70
     1
 10
0.0
 20
0.0
 30
0.0
  3
*D6
  1

  0
LINE
  5
13A
330
139
100
AcDbEntity
  8
1
  6
Continuous
 62
     2
100
AcDbLine
 10
218.8137048193001
 20
324.633366352121
 30
0.0
 11
88.81370481930009
 21
324.633366352121
 31
0.0
  0
LINE
  5
13B
330
139
100
AcDbEntity
  8
1
  6
Continuous
 62
     2
100
AcDbLine
 10
218.8137048193001
 20
299.2952254722
 30
0.0
 11
218.8137048193001
 21
326.633366352121
 31
0.0
  0
LINE
  5
13C
330
139
100
AcDbEntity
  8
1
  6
Continuous
 62
     2
100
AcDbLine
 10
88.81370481930009
 20
311.7196159639
 30
0.0
 11
88.81370481930009
 21
326.633366352121
 31
0.0
  0
SOLID
  5
13D
330
139
100
AcDbEntity
  8
1
 62
     2
100
AcDbTrace
 10
215.3137048193001
 20
324.1725826105651
 30
0.0
 11
215.3137048193001
 21
325.0941500936769
 31
0.0
 12
218.8137048193001
 22
324.633366352121
 32
0.0
 13
218.8137048193001
 23
324.633366352121
 33
0.0
  0
SOLID
  5
13E
330
139
100
AcDbEntity
  8
1
 62
     2
100
AcDbTrace
 10
92.31370481930009
 20
325.0941500936769
 30
0.0
 11
92.31370481930009
 21
324.1725826105651
 31
0.0
 12
88.81370481930009
 22
324.633366352121
 32
0.0
 13
88.81370481930009
 23
324.633366352121
 33
0.0
  0
MTEXT
  5
13F
330
139
100
AcDbEntity
  8
1
 62
     3
100
AcDbMText
 10
150.5313306212682
 20
326.633366352121
 30
0.0
 40
3.5
 41
0.0
 71
     7
 72
     1
  1
\C3;\C3;\C3;130\C2;\H2.45;\S^ ;\C3;
  7
CONVERTER_11
 11
0.9999999999970619
 21
2.424068405545306E-6
 31
0.0
 73
     1
 44
0.60024009603842
  0
ENDBLK
  5
141
330
139
100
AcDbEntity
  8
0
100
AcDbBlockEnd
  0
BLOCK
  5
14B
330
144
100
AcDbEntity
  8
0
100
AcDbBlockBegin
  2
*D7
 70
     1
 10
0.0
 20
0.0
 30
0.0
  3
*D7
  1

  0
LINE
  5
145
330
144
100
AcDbEntity
  8
1
  6
Continuous
 62
     2
100
AcDbLine
 10
63.91370481930002
 20
331.59457744354
 30
0.0
 11
218.8137048193
 21
331.59457744354
 31
0.0
  0
LINE
  5
146
330
144
100
AcDbEntity
  8
1
  6
Continuous
 62
     2
100
AcDbLine
 10
63.91370481930002
 20
303.775971745
 30
0.0
 11
63.91370481930002
 21
333.59457744354
 31
0.0
  0
LINE
  5
147
330
144
100
AcDbEntity
  8
1
  6
Continuous
 62
     2
100
AcDbLine
 10
218.8137048193
 20
299.2952254722
 30
0.0
 11
218.8137048193
 21
333.59457744354
 31
0.0
  0
SOLID
  5
148
330
144
100
AcDbEntity
  8
1
 62
     2
100
AcDbTrace
 10
67.41370481930002
 20
332.0553611850959
 30
0.0
 11
67.41370481930002
 21
331.1337937019841
 31
0.0
 12
63.91370481930002
 22
331.59457744354
 32
0.0
 13
63.91370481930002
 23
331.59457744354
 33
0.0
  0
SOLID
  5
149
330
144
100
AcDbEntity
  8
1
 62
     2
100
AcDbTrace
 10
215.3137048193
 20
331.1337937019841
 30
0.0
 11
215.3137048193
 21
332.0553611850959
 31
0.0
 12
218.8137048193
 22
331.59457744354
 32
0.0
 13
218.8137048193
 23
331.59457744354
 33
0.0
  0
MTEXT
  5
14A
330
144
100
AcDbEntity
  8
1
 62
     3
100
AcDbMText
 10
141.4540365618855
 20
333.59457744354
 30
0.0
 40
3.5
 41
0.0
 71
     7
 72
     1
  1
\C3;\C3;\C3;155\C2;\H2.45;\S^ ;\C3;
  7
CONVERTER_11
 11
0.9999999999970619
 21
2.424068405545306E-6
 31
0.0
 73
     1
 44
0.60024009603842
  0
ENDBLK
  5
14C
330
144
100
AcDbEntity
  8
0
100
AcDbBlockEnd
  0
BLOCK
  5
153
330
14F
100
AcDbEntity
  8
0
100
AcDbBlockBegin
  2
*D8
 70
     1
 10
0.0
 20
0.0
 30
0.0
  3
*D8
  1

  0
LINE
  5
150
330
14F
100
AcDbEntity
  8
1
  6
Continuous
 62
     2
100
AcDbLine
 10
125.1421098504096
 20
309.8503033160445
 30
0.0
 11
115.4062608984323
 21
303.5453183029924
 31
0.0
  0
SOLID
  5
151
330
14F
100
AcDbEntity
  8
1
 62
     2
100
AcDbTrace
 10
118.0935540763293
 20
305.8345926492669
 30
0.0
 11
118.5944945820538
 21
305.0610648633062
 31
0.0
 12
115.4062608984323
 22
303.5453183029924
 32
0.0
 13
115.4062608984323
 23
303.5453183029924
 33
0.0
  0
MTEXT
  5
152
330
14F
100
AcDbEntity
  8
1
 62
     3
100
AcDbMText
 10
117.8269025467461
 20
307.4957031154948
 30
0.0
 40
3.5
 41
0.0
 71
     7
 72
     1
  1
\C3; R\C3;\C3;4\C2;\H2.45;\S^ ;\C3;
  7
CONVERTER_11
 11
0.8393609802169379
 21
0.5435744152268951
 31
0.0
 73
     1
 44
0.60024009603842
  0
ENDBLK
  5
154
330
14F
100
AcDbEntity
  8
0
100
AcDbBlockEnd
  0
BLOCK
  5
15D
330
156
100
AcDbEntity
  8
0
100
AcDbBlockBegin
  2
*D9
 70
     1
 10
0.0
 20
0.0
 30
0.0
  3
*D9
  1

  0
LINE
  5
157
330
156
100
AcDbEntity
  8
1
  6
Continuous
 62
     2
100
AcDbLine
 10
200.5956941993996
 20
301.7196159639
 30
0.0
 11
202.5956941993996
 21
301.7196159639
 31
0.0
  0
LINE
  5
158
330
156
100
AcDbEntity
  8
1
  6
Continuous
 62
     2
100
AcDbLine
 10
176.3419882427001
 20
301.7196159639
 30
0.0
 11
200.5956941993996
 21
301.7196159639
 31
0.0
  0
ARC
  5
159
330
156
100
AcDbEntity
  8
1
  6
Continuous
 62
     2
100
AcDbCircle
 10
174.3419882427001
 20
301.7196159639
 30
0.0
 40
26.25370595669949
100
AcDbArc
 50
344.0424616645559
 51
19.49465922051727
  0
SOLID
  5
15A
330
156
100
AcDbEntity
  8
1
 62
     2
100
AcDbTrace
 10
200.4642918802093
 20
296.1299333799206
 30
0.0
 11
199.5524216727829
 21
296.2632726117207
 31
0.0
 12
200.5147627856628
 22
299.659773934986
 32
0.0
 13
200.5147627856628
 23
299.659773934986
 33
0.0
  0
SOLID
  5
15B
330
156
100
AcDbEntity
  8
1
 62
     2
100
AcDbTrace
 10
199.9028060854734
 20
305.1811514206103
 30
0.0
 11
200.8223269769238
 21
305.242535100161
 31
0.0
 12
200.5956941993996
 22
301.7196159639
 32
0.0
 13
200.5956941993996
 23
301.7196159639
 33
0.0
  0
MTEXT
  5
15C
330
156
100
AcDbEntity
  8
1
 62
     3
100
AcDbMText
 10
201.1836388111262
 20
311.221927264323
 30
0.0
 40
3.5
 41
0.0
 71
     7
 72
     1
  1
\C3;\C3;\C3;4.5%%d\C2;\H2.45;\S^ ;\C3;
  7
CONVERTER_11
 11
0.2141059437557476
 21
-0.9768104446864093
 31
0.0
 73
     1
 44
0.60024009603842
  0
ENDBLK
  5
15E
330
156
100
AcDbEntity
  8
0
100
AcDbBlockEnd
  0
ENDSEC
  0
SECTION
  2
ENTITIES
  0
INSERT
  5
6D
330
1F
100
AcDbEntity
  8
0
100
AcDbBlockReference
  2
Urheberrecht_DE-EN_horizontal
 10
151.219518810137
 20
249.044797844382
 30
0.0
  0
LWPOLYLINE
  5
71
330
1F
100
AcDbEntity
  8
1
  6
Continuous
 62
     7
100
AcDbPolyline
 90
        2
 70
     0
 43
0.5
 10
114.7637048193
 20
263.7196159639
 10
114.7637048193
 20
305.7196159639
  0
LINE
  5
72
330
1F
100
AcDbEntity
  8
0
  6
Continuous
 62
     7
100
AcDbLine
 10
63.91370481929999
 20
267.6632601824
 30
0.0
 11
63.91370481929999
 21
278.2996159639
 31
0.0
  0
LINE
  5
73
330
1F
100
AcDbEntity
  8
0
  6
Continuous
 62
     7
100
AcDbLine
 10
63.91370481929999
 20
291.1396159639
 30
0.0
 11
63.91370481929999
 21
301.775971745
 31
0.0
  0
LINE
  5
74
330
1F
100
AcDbEntity
  8
0
  6
Continuous
 62
     9
100
AcDbLine
 10
64.8636675769
 20
302.774719098
 30
0.0
 11
64.8636675769
 21
292.5681285099
 31
0.0
  0
LINE
  5
75
330
1F
100
AcDbEntity
  8
0
  6
Continuous
 62
     9
100
AcDbLine
 10
64.8636675769
 20
276.8711034178
 30
0.0
 11
64.8636675769
 21
266.6645128297
 31
0.0
  0
LINE
  5
76
330
1F
100
AcDbEntity
  8
0
  6
Continuous
 62
     7
100
AcDbLine
 10
65.0637048193
 20
278.4102562044
 30
0.0
 11
65.0637048193
 21
279.4496159639
 31
0.0
  0
LINE
  5
77
330
1F
100
AcDbEntity
  8
0
  6
Continuous
 62
     7
100
AcDbLine
 10
65.0637048193
 20
289.9896159639
 30
0.0
 11
65.0637048193
 21
291.0289757233
 31
0.0
  0
LINE
  5
78
330
1F
100
AcDbEntity
  8
RUNDUNGEN
  6
Continuous
 62
     9
100
AcDbLine
 10
67.1137048193
 20
276.6151451663
 30
0.0
 11
67.1137048193
 21
279.4496159639
 31
0.0
  0
LINE
  5
79
330
1F
100
AcDbEntity
  8
RUNDUNGEN
  6
Continuous
 62
     9
100
AcDbLine
 10
67.1137048193
 20
289.9896159639
 30
0.0
 11
67.1137048193
 21
292.8240867614
 31
0.0
  0
LINE
  5
7A
330
1F
100
AcDbEntity
  8
RUNDUNGEN
  6
Continuous
 62
     7
100
AcDbLine
 10
68.5137048193
 20
290.6507662106
 30
0.0
 11
68.5137048193
 21
278.7884657171
 31
0.0
  0
LINE
  5
7B
330
1F
100
AcDbEntity
  8
0
  6
Continuous
 62
     7
100
AcDbLine
 10
64.65019502909999
 20
277.0696159639
 30
0.0
 11
64.6017755503
 21
276.9836582578
 31
0.0
  0
LINE
  5
7C
330
1F
100
AcDbEntity
  8
0
  6
Continuous
 62
     7
100
AcDbLine
 10
64.6017755503
 20
292.4555736699
 30
0.0
 11
64.65019502909999
 21
292.3696159639
 31
0.0
  0
LWPOLYLINE
  5
7D
330
1F
100
AcDbEntity
  8
BEZUGSACHSEN
  6
DOT_CENTER
 62
     7
100
AcDbPolyline
 90
        2
 70
     0
 43
0.25
 10
81.3137048193
 20
278.7196159639
 10
81.3137048193
 20
290.7196159639
  0
LINE
  5
7E
330
1F
100
AcDbEntity
  8
0
  6
Continuous
 62
     7
100
AcDbLine
 10
63.91370481929999
 20
278.2996159639
 30
0.0
 11
65.0637048193
 21
279.4496159639
 31
0.0
  0
LINE
  5
7F
330
1F
100
AcDbEntity
  8
0
  6
Continuous
 62
     7
100
AcDbLine
 10
86.8137048193
 20
303.8744159639
 30
0.0
 11
86.8137048193
 21
265.5648159639
 31
0.0
  0
LINE
  5
80
330
1F
100
AcDbEntity
  8
0
  6
Continuous
 62
     9
100
AcDbLine
 10
87.4838150523
 20
265.7443714596
 30
0.0
 11
87.4838150523
 21
303.6948604681
 31
0.0
  0
LINE
  5
81
330
1F
100
AcDbEntity
  8
0
  6
Continuous
 62
     9
100
AcDbLine
 10
87.6391064793
 20
265.7648159639
 30
0.0
 11
87.6391064793
 21
303.6744159639
 31
0.0
  0
LINE
  5
82
330
1F
100
AcDbEntity
  8
0
  6
Continuous
 62
     9
100
AcDbLine
 10
88.5115351888
 20
265.7648159639
 30
0.0
 11
88.5115351888
 21
303.6744159639
 31
0.0
  0
LINE
  5
83
330
1F
100
AcDbEntity
  8
0
  6
Continuous
 62
     7
100
AcDbLine
 10
88.8137048193
 20
309.7196159639
 30
0.0
 11
88.8137048193
 21
259.7196159639
 31
0.0
  0
LINE
  5
84
330
1F
100
AcDbEntity
  8
0
  6
Continuous
 62
     7
100
AcDbLine
 10
65.0637048193
 20
289.9896159639
 30
0.0
 11
63.91370481929999
 21
291.1396159639
 31
0.0
  0
LWPOLYLINE
  5
85
330
1F
100
AcDbEntity
  8
BEZUGSACHSEN
  6
DOT_CENTER
 62
     7
100
AcDbPolyline
 90
        2
 70
     0
 43
0.25
 10
95.8137048193
 20
315.6145133917
 10
95.81370481930003
 20
301.6145133916999
  0
LINE
  5
86
330
1F
100
AcDbEntity
  8
FASEN
  6
Continuous
 62
     9
100
AcDbLine
 10
101.5073910922
 20
268.9696159639
 30
0.0
 11
101.5073910922
 21
269.3696159639
 31
0.0
  0
LINE
  5
87
330
1F
100
AcDbEntity
  8
FASEN
  6
Continuous
 62
     9
100
AcDbLine
 10
101.7812048193
 20
279.1021159639
 30
0.0
 11
101.7812048193
 21
278.7021159639
 31
0.0
  0
LINE
  5
88
330
1F
100
AcDbEntity
  8
FASEN
  6
Continuous
 62
     9
100
AcDbLine
 10
101.7812048193
 20
290.3371159639
 30
0.0
 11
101.7812048193
 21
290.7371159639
 31
0.0
  0
LINE
  5
89
330
1F
100
AcDbEntity
  8
0
  6
Continuous
 62
     7
100
AcDbLine
 10
108.7262048193
 20
307.1571631333
 30
0.0
 11
110.2056376508
 21
309.7196159639
 31
0.0
  0
LINE
  5
8A
330
1F
100
AcDbEntity
  8
0
  6
Continuous
 62
     9
100
AcDbLine
 10
63.91370481929999
 20
277.7624678529
 30
0.0
 11
65.0637048193
 21
278.4102562044
 31
0.0
  0
LINE
  5
8B
330
1F
100
AcDbEntity
  8
0
  6
Continuous
 62
     7
100
AcDbLine
 10
103.4217719878
 20
259.7196159639
 30
0.0
 11
88.8137048193
 21
259.7196159639
 31
0.0
  0
LINE
  5
8C
330
1F
100
AcDbEntity
  8
0
  6
Continuous
 62
     7
100
AcDbLine
 10
110.2056376508
 20
259.7196159639
 30
0.0
 11
114.7637048193
 21
259.7196159639
 31
0.0
  0
LINE
  5
8D
330
1F
100
AcDbEntity
  8
0
  6
Continuous
 62
     9
100
AcDbLine
 10
65.0637048193
 20
291.0289757233
 30
0.0
 11
63.91370481929999
 21
291.6767640749
 31
0.0
  0
LINE
  5
8E
330
1F
100
AcDbEntity
  8
0
  6
Continuous
 62
     7
100
AcDbLine
 10
108.7262048193
 20
262.2820687944
 30
0.0
 11
110.2056376508
 21
259.7196159639
 31
0.0
  0
LINE
  5
8F
330
1F
100
AcDbEntity
  8
0
  6
Continuous
 62
     7
100
AcDbLine
 10
103.4217719878
 20
309.7196159639
 30
0.0
 11
103.4217719878
 21
290.7371159639
 31
0.0
  0
LINE
  5
90
330
1F
100
AcDbEntity
  8
0
  6
Continuous
 62
     7
100
AcDbLine
 10
103.4217719878
 20
278.7021159639
 30
0.0
 11
103.4217719878
 21
269.3696159639
 31
0.0
  0
LINE
  5
91
330
1F
100
AcDbEntity
  8
0
  6
Continuous
 62
     7
100
AcDbLine
 10
103.4217719878
 20
264.9869653563
 30
0.0
 11
103.4217719878
 21
259.7196159639
 31
0.0
  0
LINE
  5
92
330
1F
100
AcDbEntity
  8
0
  6
Continuous
 62
     7
100
AcDbLine
 10
104.9012048193
 20
307.1571085211
 30
0.0
 11
104.9012048193
 21
290.7371159639
 31
0.0
  0
LINE
  5
93
330
1F
100
AcDbEntity
  8
0
  6
Continuous
 62
     7
100
AcDbLine
 10
104.9012048193
 20
278.7021159639
 30
0.0
 11
104.9012048193
 21
269.3696159639
 31
0.0
  0
LINE
  5
94
330
1F
100
AcDbEntity
  8
0
  6
Continuous
 62
     7
100
AcDbLine
 10
104.9012048193
 20
262.2820826356
 30
0.0
 11
104.9012048193
 21
268.6470267201
 31
0.0
  0
LINE
  5
95
330
1F
100
AcDbEntity
  8
0
  6
Continuous
 62
     9
100
AcDbLine
 10
105.6512048193
 20
263.2446159639
 30
0.0
 11
105.6512048193
 21
279.7834610838
 31
0.0
  0
LINE
  5
96
330
1F
100
AcDbEntity
  8
0
  6
Continuous
 62
     9
100
AcDbLine
 10
105.6512048193
 20
289.6557708439
 30
0.0
 11
105.6512048193
 21
306.1946159639
 31
0.0
  0
LINE
  5
97
330
1F
100
AcDbEntity
  8
RUNDUNGEN
  6
Continuous
 62
     7
100
AcDbLine
 10
217.892163915
 20
271.1470891218
 30
0.0
 11
174.3419882427001
 21
267.7196159639
 31
0.0
  0
LINE
  5
98
330
1F
100
AcDbEntity
  8
0
  6
Continuous
 62
     7
100
AcDbLine
 10
174.3419882427001
 20
267.7196159639
 30
0.0
 11
217.892163915
 21
271.1470891218
 31
0.0
  0
LINE
  5
99
330
1F
100
AcDbEntity
  8
0
  6
Continuous
 62
     7
100
AcDbLine
 10
105.6512048193
 20
263.2446159639
 30
0.0
 11
107.9762048193
 21
263.2446159639
 31
0.0
  0
LINE
  5
9A
330
1F
100
AcDbEntity
  8
0
  6
Continuous
 62
     7
100
AcDbLine
 10
96.1460311021
 20
264.9869653563
 30
0.0
 11
103.4217719878
 21
264.9869653563
 31
0.0
  0
LINE
  5
9B
330
1F
100
AcDbEntity
  8
0
  6
Continuous
 62
     7
100
AcDbLine
 10
110.2056376508
 20
264.9869653563
 30
0.0
 11
114.7637048193
 21
264.9869653563
 31
0.0
  0
LINE
  5
9C
330
1F
100
AcDbEntity
  8
0
  6
Continuous
 62
     7
100
AcDbLine
 10
88.5115351888
 20
265.7648159639
 30
0.0
 11
87.6391064793
 21
265.7648159639
 31
0.0
  0
LINE
  5
9D
330
1F
100
AcDbEntity
  8
0
  6
Continuous
 62
     7
100
AcDbLine
 10
86.8137048193
 20
265.5648159639
 30
0.0
 11
64.8636675769
 21
266.6645128297
 31
0.0
  0
LINE
  5
9E
330
1F
100
AcDbEntity
  8
0
  6
Continuous
 62
     9
100
AcDbLine
 10
107.9762048193
 20
263.2446159639
 30
0.0
 11
107.9762048193
 21
279.7834610838
 31
0.0
  0
LINE
  5
9F
330
1F
100
AcDbEntity
  8
0
  6
Continuous
 62
     9
100
AcDbLine
 10
107.9762048193
 20
289.6557708439
 30
0.0
 11
107.9762048193
 21
306.1946159639
 31
0.0
  0
LINE
  5
A0
330
1F
100
AcDbEntity
  8
0
  6
Continuous
 62
     7
100
AcDbLine
 10
108.7262048193
 20
278.7021159639
 30
0.0
 11
108.7262048193
 21
269.3696159639
 31
0.0
  0
LINE
  5
A1
330
1F
100
AcDbEntity
  8
0
  6
Continuous
 62
     7
100
AcDbLine
 10
108.7262048193
 20
262.2820826356
 30
0.0
 11
108.7262048193
 21
268.6470267201
 31
0.0
  0
LINE
  5
A2
330
1F
100
AcDbEntity
  8
0
  6
Continuous
 62
     7
100
AcDbLine
 10
108.7262048193
 20
290.7371159639
 30
0.0
 11
108.7262048193
 21
307.1571085211
 31
0.0
  0
LINE
  5
A3
330
1F
100
AcDbEntity
  8
0
  6
Continuous
 62
     7
100
AcDbLine
 10
110.2056376508
 20
278.7021159639
 30
0.0
 11
110.2056376508
 21
269.3696159639
 31
0.0
  0
LINE
  5
A4
330
1F
100
AcDbEntity
  8
0
  6
Continuous
 62
     7
100
AcDbLine
 10
110.2056376508
 20
259.7196159639
 30
0.0
 11
110.2056376508
 21
264.9869653563
 31
0.0
  0
LINE
  5
A5
330
1F
100
AcDbEntity
  8
0
  6
Continuous
 62
     7
100
AcDbLine
 10
110.2056376508
 20
290.7371159639
 30
0.0
 11
110.2056376508
 21
309.7196159639
 31
0.0
  0
LINE
  5
A6
330
1F
100
AcDbEntity
  8
0
  6
Continuous
 62
     7
100
AcDbLine
 10
118.7637048193
 20
267.7196159639
 30
0.0
 11
174.3419882427001
 21
267.7196159639
 31
0.0
  0
LINE
  5
A7
330
1F
100
AcDbEntity
  8
0
  6
Continuous
 62
     7
100
AcDbLine
 10
101.5073910922
 20
268.9696159639
 30
0.0
 11
104.9380417135
 21
268.9696159639
 31
0.0
  0
LINE
  5
A8
330
1F
100
AcDbEntity
  8
0
  6
Continuous
 62
     7
100
AcDbLine
 10
108.6893679251
 20
268.9696159639
 30
0.0
 11
114.7637048193
 21
268.9696159639
 31
0.0
  0
LINE
  5
A9
330
1F
100
AcDbEntity
  8
0
  6
Continuous
 62
     7
100
AcDbLine
 10
101.5073910922
 20
269.3696159639
 30
0.0
 11
104.9380417135
 21
269.3696159639
 31
0.0
  0
LINE
  5
AA
330
1F
100
AcDbEntity
  8
0
  6
Continuous
 62
     7
100
AcDbLine
 10
108.6893679251
 20
269.3696159639
 30
0.0
 11
114.7637048193
 21
269.3696159639
 31
0.0
  0
LINE
  5
AB
330
1F
100
AcDbEntity
  8
0
  6
Continuous
 62
     7
100
AcDbLine
 10
114.7637048193
 20
309.7195659454
 30
0.0
 11
114.7637048193
 21
305.7196159639
 31
0.0
  0
LINE
  5
AC
330
1F
100
AcDbEntity
  8
0
  6
Continuous
 62
     7
100
AcDbLine
 10
114.7637048193
 20
263.7196159639
 30
0.0
 11
114.7637048193
 21
259.719629508
 31
0.0
  0
LINE
  5
AD
330
1F
100
AcDbEntity
  8
RUNDUNGEN
  6
Continuous
 62
     9
100
AcDbLine
 10
118.7637048193
 20
301.7196159639
 30
0.0
 11
118.7637048193
 21
267.7196159639
 31
0.0
  0
LINE
  5
AE
330
1F
100
AcDbEntity
  8
0
  6
Continuous
 62
     7
100
AcDbLine
 10
103.4217719878
 20
259.7196159639
 30
0.0
 11
104.9012048193
 21
262.2820687944
 31
0.0
  0
LINE
  5
AF
330
1F
100
AcDbEntity
  8
0
  6
Continuous
 62
     7
100
AcDbLine
 10
87.4838150523
 20
265.7443714596
 30
0.0
 11
86.8137048193
 21
265.5648159639
 31
0.0
  0
LWPOLYLINE
  5
B0
330
1F
100
AcDbEntity
  8
BOHRUNGEN
  6
DASHED
 62
     8
100
AcDbPolyline
 90
        2
 70
     0
 43
0.35
 10
218.8137048193
 20
276.7196159639
 10
168.8137048193
 20
276.7196159639
  0
LINE
  5
B1
330
1F
100
AcDbEntity
  8
RUNDUNGEN
  6
Continuous
 62
     9
100
AcDbLine
 10
67.93176299549998
 20
277.0696159639
 30
0.0
 11
67.1137048193
 21
277.0696159639
 31
0.0
  0
LINE
  5
B2
330
1F
100
AcDbEntity
  8
0
  6
Continuous
 62
     9
100
AcDbLine
 10
67.1137048193
 20
277.0696159639
 30
0.0
 11
64.65019502909999
 21
277.0696159639
 31
0.0
  0
LINE
  5
B3
330
1F
100
AcDbEntity
  8
0
  6
Continuous
 62
     7
100
AcDbLine
 10
101.7812048193
 20
278.7021159639
 30
0.0
 11
104.9012048193
 21
278.7021159639
 31
0.0
  0
LINE
  5
B4
330
1F
100
AcDbEntity
  8
0
  6
Continuous
 62
     7
100
AcDbLine
 10
108.7262048193
 20
278.7021159639
 30
0.0
 11
114.7637048193
 21
278.7021159639
 31
0.0
  0
LINE
  5
B5
330
1F
100
AcDbEntity
  8
0
  6
Continuous
 62
     7
100
AcDbLine
 10
114.7637048193
 20
279.1021159639
 30
0.0
 11
108.4477399665
 21
279.1021159639
 31
0.0
  0
LINE
  5
B6
330
1F
100
AcDbEntity
  8
0
  6
Continuous
 62
     7
100
AcDbLine
 10
105.179669672
 20
279.1021159639
 30
0.0
 11
101.7812048193
 21
279.1021159639
 31
0.0
  0
LINE
  5
B7
330
1F
100
AcDbEntity
  8
0
  6
Continuous
 62
     7
100
AcDbLine
 10
67.1137048193
 20
279.4496159639
 30
0.0
 11
65.0637048193
 21
279.4496159639
 31
0.0
  0
LINE
  5
B8
330
1F
100
AcDbEntity
  8
0
  6
Continuous
 62
     7
100
AcDbLine
 10
103.4217719878
 20
309.7196159639
 30
0.0
 11
104.9012048193
 21
307.1571631333
 31
0.0
  0
LINE
  5
B9
330
1F
100
AcDbEntity
  8
0
  6
Continuous
 62
     7
100
AcDbLine
 10
105.6512048193
 20
279.7834610838
 30
0.0
 11
107.9762048193
 21
279.7834610838
 31
0.0
  0
LWPOLYLINE
  5
BA
330
1F
100
AcDbEntity
  8
TEIL_STARTBEZUEGE
  6
DOT_CENTER
 62
     7
100
AcDbPolyline
 90
        2
 70
     0
 43
0.25
 10
221.8137048193
 20
284.7196159639
 10
60.91370481930002
 20
284.7196159639
  0
LINE
  5
BB
330
1F
100
AcDbEntity
  8
0
  6
Continuous
 62
     7
100
AcDbLine
 10
107.9762048193
 20
289.6557708439
 30
0.0
 11
105.6512048193
 21
289.6557708439
 31
0.0
  0
LINE
  5
BC
330
1F
100
AcDbEntity
  8
0
  6
Continuous
 62
     7
100
AcDbLine
 10
67.1137048193
 20
289.9896159639
 30
0.0
 11
65.0637048193
 21
289.9896159639
 31
0.0
  0
LINE
  5
BD
330
1F
100
AcDbEntity
  8
0
  6
Continuous
 62
     7
100
AcDbLine
 10
101.7812048193
 20
290.3371159639
 30
0.0
 11
105.179669672
 21
290.3371159639
 31
0.0
  0
LINE
  5
BE
330
1F
100
AcDbEntity
  8
0
  6
Continuous
 62
     7
100
AcDbLine
 10
108.4477399665
 20
290.3371159639
 30
0.0
 11
114.7637048193
 21
290.3371159639
 31
0.0
  0
LINE
  5
BF
330
1F
100
AcDbEntity
  8
0
  6
Continuous
 62
     7
100
AcDbLine
 10
101.7812048193
 20
290.7371159639
 30
0.0
 11
104.9012048193
 21
290.7371159639
 31
0.0
  0
LINE
  5
C0
330
1F
100
AcDbEntity
  8
0
  6
Continuous
 62
     7
100
AcDbLine
 10
108.7262048193
 20
290.7371159639
 30
0.0
 11
114.7637048193
 21
290.7371159639
 31
0.0
  0
LINE
  5
C1
330
1F
100
AcDbEntity
  8
0
  6
Continuous
 62
     9
100
AcDbLine
 10
67.1137048193
 20
292.3696159639
 30
0.0
 11
64.65019502909999
 21
292.3696159639
 31
0.0
  0
LINE
  5
C2
330
1F
100
AcDbEntity
  8
RUNDUNGEN
  6
Continuous
 62
     9
100
AcDbLine
 10
67.1137048193
 20
292.3696159639
 30
0.0
 11
67.93176299549998
 21
292.3696159639
 31
0.0
  0
LWPOLYLINE
  5
C3
330
1F
100
AcDbEntity
  8
BOHRUNGEN
  6
DASHED
 62
     8
100
AcDbPolyline
 90
        2
 70
     0
 43
0.35
 10
218.8137048193
 20
292.7196159639
 10
168.8137048193
 20
292.7196159639
  0
LWPOLYLINE
  5
C4
330
1F
100
AcDbEntity
  8
BOHRUNGEN
  6
DASHED
 62
     8
100
AcDbPolyline
 90
        2
 70
     0
 43
0.35
 10
168.8137048193
 20
276.7196159639
 10
168.8137048193
 20
292.7196159639
  0
LINE
  5
C5
330
1F
100
AcDbEntity
  8
0
  6
Continuous
 62
     7
100
AcDbLine
 10
87.4838150523
 20
303.6948604681
 30
0.0
 11
86.8137048193
 21
303.8744159639
 31
0.0
  0
LINE
  5
C6
330
1F
100
AcDbEntity
  8
0
  6
Continuous
 62
     7
100
AcDbLine
 10
174.3419882427001
 20
301.7196159639
 30
0.0
 11
174.3419882427001
 21
267.7196159639
 31
0.0
  0
LINE
  5
C7
330
1F
100
AcDbEntity
  8
0
  6
Continuous
 62
     7
100
AcDbLine
 10
86.8137048193
 20
303.8744159639
 30
0.0
 11
64.8636675769
 21
302.774719098
 31
0.0
  0
LINE
  5
C8
330
1F
100
AcDbEntity
  8
RUNDUNGEN
  6
Continuous
 62
     7
100
AcDbLine
 10
174.3419882427001
 20
301.7196159639
 30
0.0
 11
118.7637048193
 21
301.7196159639
 31
0.0
  0
LINE
  5
C9
330
1F
100
AcDbEntity
  8
0
  6
Continuous
 62
     7
100
AcDbLine
 10
88.5115351888
 20
303.6744159639
 30
0.0
 11
87.6391064793
 21
303.6744159639
 31
0.0
  0
LINE
  5
CA
330
1F
100
AcDbEntity
  8
RUNDUNGEN
  6
Continuous
 62
     7
100
AcDbLine
 10
217.892163915
 20
298.2921428059
 30
0.0
 11
174.3419882427001
 21
301.7196159639
 31
0.0
  0
LINE
  5
CB
330
1F
100
AcDbEntity
  8
0
  6
Continuous
 62
     7
100
AcDbLine
 10
174.3419882427001
 20
301.7196159639
 30
0.0
 11
217.892163915
 21
298.2921428059
 31
0.0
  0
LINE
  5
CC
330
1F
100
AcDbEntity
  8
0
  6
Continuous
 62
     7
100
AcDbLine
 10
105.6512048193
 20
306.1946159639
 30
0.0
 11
107.9762048193
 21
306.1946159639
 31
0.0
  0
LINE
  5
CD
330
1F
100
AcDbEntity
  8
BEZUGSACHSEN
  6
Continuous
 62
     7
100
AcDbLine
 10
103.4217719878
 20
309.7196159639
 30
0.0
 11
100.8137048193
 21
309.7196159639
 31
0.0
  0
LINE
  5
CE
330
1F
100
AcDbEntity
  8
BEZUGSACHSEN
  6
Continuous
 62
     7
100
AcDbLine
 10
90.8137048193
 20
309.7196159639
 30
0.0
 11
88.8137048193
 21
309.7196159639
 31
0.0
  0
LINE
  5
CF
330
1F
100
AcDbEntity
  8
0
  6
Continuous
 62
     7
100
AcDbLine
 10
88.8137048193
 20
309.7196159639
 30
0.0
 11
90.8137048193
 21
309.7196159639
 31
0.0
  0
LINE
  5
D0
330
1F
100
AcDbEntity
  8
0
  6
Continuous
 62
     7
100
AcDbLine
 10
100.8137048193
 20
309.7196159639
 30
0.0
 11
103.4217719878
 21
309.7196159639
 31
0.0
  0
LINE
  5
D1
330
1F
100
AcDbEntity
  8
0
  6
Continuous
 62
     7
100
AcDbLine
 10
110.2056376508
 20
309.7196159639
 30
0.0
 11
114.7637048193
 21
309.7196159639
 31
0.0
  0
LINE
  5
D2
330
1F
100
AcDbEntity
  8
RUNDUNGEN
  6
Continuous
 62
     9
100
AcDbLine
 10
217.892163915
 20
271.1470891218
 30
0.0
 11
217.892163915
 21
298.2921428059
 31
0.0
  0
LINE
  5
D3
330
1F
100
AcDbEntity
  8
RUNDUNGEN
  6
Continuous
 62
     7
100
AcDbLine
 10
218.8137048193
 20
297.2952254722
 30
0.0
 11
218.8137048193
 21
272.1440064555
 31
0.0
  0
LWPOLYLINE
  5
D4
330
1F
100
AcDbEntity
  8
1
  6
Continuous
 62
     7
100
AcDbPolyline
 90
        2
 70
     0
 43
0.25
 10
218.8137048193
 20
297.2952254722
 10
218.8137048193
 20
298.2196159638467
  0
LWPOLYLINE
  5
D5
330
1F
100
AcDbEntity
  8
1
  6
Continuous
 62
     7
100
AcDbPolyline
 90
        2
 70
     0
 43
0.25
 10
217.892163915
 20
298.2921428059
 10
218.8137048192949
 20
298.2196159638467
  0
LWPOLYLINE
  5
D6
330
1F
100
AcDbEntity
  8
1
  6
Continuous
 62
     7
100
AcDbPolyline
 90
        2
 70
     0
 43
0.25
 10
217.892163915
 20
271.1470891218
 10
218.8137048193
 20
271.2196159638486
  0
LWPOLYLINE
  5
D7
330
1F
100
AcDbEntity
  8
1
  6
Continuous
 62
     7
100
AcDbPolyline
 90
        2
 70
     0
 43
0.25
 10
218.8137048193
 20
272.1440064555
 10
218.8137048193
 20
271.2196159638486
  0
ARC
  5
D8
330
1F
100
AcDbEntity
  8
0
  6
Continuous
 62
     7
100
AcDbCircle
 10
71.15831641600002
 20
269.1696159639
 30
0.0
 40
33.78031736343754
100
AcDbArc
 50
359.660772196785
 51
0.33922780321496
  0
ARC
  5
D9
330
1F
100
AcDbEntity
  8
FASEN
  6
Continuous
 62
     7
100
AcDbCircle
 10
103.988060167
 20
273.1530077724
 30
0.0
 40
11.32173434580035
100
AcDbArc
 50
223.8842578162989
 51
226.1595439822723
  0
ARC
  5
DA
330
1F
100
AcDbEntity
  8
FASEN
  6
Continuous
 62
     7
100
AcDbCircle
 10
101.5073910922
 20
263.3696159639
 30
0.0
 40
6.0
100
AcDbArc
 50
90.0
 51
161.1845969504034
  0
ARC
  5
DB
330
1F
100
AcDbEntity
  8
FASEN
  6
Continuous
 62
     7
100
AcDbCircle
 10
101.5073910922
 20
263.3696159639
 30
0.0
 40
5.599990644599984
100
AcDbArc
 50
90.0
 51
163.2131310087987
  0
ARC
  5
DC
330
1F
100
AcDbEntity
  8
0
  6
Continuous
 62
     7
100
AcDbCircle
 10
106.3265452096
 20
268.6476630567
 30
0.0
 40
1.425340532341817
100
AcDbArc
 50
166.945493584537
 51
180.0255794330663
  0
ARC
  5
DD
330
1F
100
AcDbEntity
  8
RUNDUNGEN
  6
Continuous
 62
     7
100
AcDbCircle
 10
67.1137048193
 20
280.8496159639
 30
0.0
 40
1.400000000000034
100
AcDbArc
 50
270.0
 51
353.9429041005092
  0
ARC
  5
DE
330
1F
100
AcDbEntity
  8
0
  6
Continuous
 62
     7
100
AcDbCircle
 10
64.9137048193
 20
267.6632601823
 30
0.0
 40
1.000000000000007
100
AcDbArc
 50
179.9999999942711
 51
267.1318795106976
  0
ARC
  5
DF
330
1F
100
AcDbEntity
  8
0
  6
Continuous
 62
     7
100
AcDbCircle
 10
105.6512048193
 20
262.4946159639
 30
0.0
 40
0.75
100
AcDbArc
 50
90.0
 51
180.0
  0
ARC
  5
E0
330
1F
100
AcDbEntity
  8
0
  6
Continuous
 62
     7
100
AcDbCircle
 10
87.6391064793
 20
265.1648159639
 30
0.0
 40
0.5999999999999659
100
AcDbArc
 50
90.0
 51
104.999999996141
  0
ARC
  5
E1
330
1F
100
AcDbEntity
  8
0
  6
Continuous
 62
     7
100
AcDbCircle
 10
88.5115351888
 20
265.1648159639
 30
0.0
 40
0.5999999999998945
100
AcDbArc
 50
59.70317838175824
 51
90.0
  0
ARC
  5
E2
330
1F
100
AcDbEntity
  8
0
  6
Continuous
 62
     7
100
AcDbCircle
 10
105.4048247733
 20
278.6266208309
 30
0.0
 40
0.5037304978999786
100
AcDbArc
 50
166.1596109369583
 51
171.3804870338136
  0
ARC
  5
E3
330
1F
100
AcDbEntity
  8
0
  6
Continuous
 62
     7
100
AcDbCircle
 10
-11.8527387687
 20
317.6401514735
 30
0.0
 40
126.7303074976264
100
AcDbArc
 50
335.4508108779187
 51
337.1137532296999
  0
ARC
  5
E4
330
1F
100
AcDbEntity
  8
0
  6
Continuous
 62
     7
100
AcDbCircle
 10
101.7812048193
 20
284.7196159639
 30
0.0
 40
6.017499999999984
100
AcDbArc
 50
90.0
 51
270.0
  0
ARC
  5
E5
330
1F
100
AcDbEntity
  8
FASEN
  6
Continuous
 62
     7
100
AcDbCircle
 10
101.7812048193
 20
284.7196159639
 30
0.0
 40
5.617499842999962
100
AcDbArc
 50
90.0
 51
270.0
  0
ARC
  5
E6
330
1F
100
AcDbEntity
  8
RUNDUNGEN
  6
Continuous
 62
     7
100
AcDbCircle
 10
67.1137048193
 20
288.5896159639
 30
0.0
 40
1.400000000000061
100
AcDbArc
 50
6.05709561601257
 51
90.0
  0
ARC
  5
E7
330
1F
100
AcDbEntity
  8
0
  6
Continuous
 62
     7
100
AcDbCircle
 10
64.9137048193
 20
301.7759717454
 30
0.0
 40
0.999999999976244
100
AcDbArc
 50
92.86812048930244
 51
180.0000000229187
  0
ARC
  5
E8
330
1F
100
AcDbEntity
  8
0
  6
Continuous
 62
     7
100
AcDbCircle
 10
105.6512048193
 20
306.9446159639
 30
0.0
 40
0.75
100
AcDbArc
 50
180.0
 51
270.0
  0
ARC
  5
E9
330
1F
100
AcDbEntity
  8
0
  6
Continuous
 62
     7
100
AcDbCircle
 10
87.6391064793
 20
304.2744159639
 30
0.0
 40
0.6000000000097674
100
AcDbArc
 50
255.0000000063317
 51
270.0
  0
ARC
  5
EA
330
1F
100
AcDbEntity
  8
0
  6
Continuous
 62
     7
100
AcDbCircle
 10
88.5115351888
 20
304.2744159639
 30
0.0
 40
0.6000000000000227
100
AcDbArc
 50
270.0
 51
300.2968216182418
  0
ARC
  5
EB
330
1F
100
AcDbEntity
  8
RUNDUNGEN
  6
Continuous
 62
     7
100
AcDbCircle
 10
154.0837753618
 20
-481.7162439012
 30
0.0
 40
779.4077989045003
100
AcDbArc
 50
96.40668094319999
 51
96.57315239320002
  0
ARC
  5
EC
330
1F
100
AcDbEntity
  8
0
  6
Continuous
 62
     7
100
AcDbCircle
 10
142.4690932226
 20
269.1696159639
 30
0.0
 40
33.78031736343758
100
AcDbArc
 50
179.660772196785
 51
180.339227803215
  0
ARC
  5
ED
330
1F
100
AcDbEntity
  8
0
  6
Continuous
 62
     7
100
AcDbCircle
 10
107.300864429
 20
268.6476630567
 30
0.0
 40
1.425340532344747
100
AcDbArc
 50
359.9744205669336
 51
13.05450641546304
  0
ARC
  5
EE
330
1F
100
AcDbEntity
  8
RUNDUNGEN
  6
Continuous
 62
     7
100
AcDbCircle
 10
217.8137048193
 20
272.1440064555
 30
0.0
 40
0.9999999999648148
100
AcDbArc
 50
274.4999999985582
 51
0.0
  0
ARC
  5
EF
330
1F
100
AcDbEntity
  8
0
  6
Continuous
 62
     7
100
AcDbCircle
 10
107.9762048193
 20
262.4946159639
 30
0.0
 40
0.75
100
AcDbArc
 50
0.0
 51
90.0
  0
ARC
  5
F0
330
1F
100
AcDbEntity
  8
RUNDUNGEN
  6
Continuous
 62
     7
100
AcDbCircle
 10
154.083775351
 20
1051.1554757341
 30
0.0
 40
779.4077988091002
100
AcDbArc
 50
263.4268476068
 51
263.5933190568001
  0
ARC
  5
F1
330
1F
100
AcDbEntity
  8
0
  6
Continuous
 62
     7
100
AcDbCircle
 10
225.4801484072
 20
317.6401514735
 30
0.0
 40
126.7303074975999
100
AcDbArc
 50
202.8862467703001
 51
204.5491891221
  0
ARC
  5
F2
330
1F
100
AcDbEntity
  8
RUNDUNGEN
  6
Continuous
 62
     7
100
AcDbCircle
 10
217.8137048193
 20
297.2952254722
 30
0.0
 40
1.0
100
AcDbArc
 50
0.0
 51
85.50000000144182
  0
ARC
  5
F3
330
1F
100
AcDbEntity
  8
0
  6
Continuous
 62
     7
100
AcDbCircle
 10
107.9762048193
 20
306.9446159639
 30
0.0
 40
0.75
100
AcDbArc
 50
270.0
 51
0.0
  0
CIRCLE
  5
F4
330
1F
100
AcDbEntity
  8
FASEN
  6
Continuous
 62
     7
100
AcDbCircle
 10
81.3137048193
 20
284.7196159639
 30
0.0
 40
3.0
  0
SPLINE
  5
F5
330
1F
100
AcDbEntity
  8
BEZUGSACHSEN
  6
Continuous
 62
     7
100
AcDbSpline
210
0.0
220
0.0
230
1.0
 70
     8
 71
     3
 72
    15
 73
    11
 74
     9
 42
0.0000000001
 43
0.0000000001
 44
0.00000001
 40
0.0
 40
0.0
 40
0.0
 40
0.0
 40
0.9592794728028994
 40
1.918698757760568
 40
2.733413612643369
 40
3.548061682638978
 40
4.096465872428848
 40
4.644852383039791
 40
4.839161107616419
 40
5.03346490927446
 40
5.03346490927446
 40
5.03346490927446
 40
5.03346490927446
 10
95.8137048193
 20
309.2145133917
 30
0.0
 10
95.49392545350038
 20
309.2181415546586
 30
0.0
 10
94.85432011500143
 20
309.2253984093697
 30
0.0
 10
93.94450999325811
 20
309.2808126457298
 30
0.0
 10
93.08526612322264
 20
309.3615351018791
 30
0.0
 10
92.36499467530551
 20
309.4530797499326
 30
0.0
 10
91.73519414351281
 20
309.5498043269897
 30
0.0
 10
91.31123886724053
 20
309.6240057662227
 30
0.0
 10
91.00431506557189
 20
309.6818971659487
 30
0.0
 10
90.87724103146871
 20
309.707043137432
 30
0.0
 10
90.8137048193
 20
309.7196159639
 30
0.0
 11
95.8137048193
 21
309.2145133917
 31
0.0
 11
94.85460945883511
 21
309.2333069138749
 31
0.0
 11
93.89683169282088
 21
309.2894060696393
 31
0.0
 11
93.08572137544573
 21
309.3659589782338
 31
0.0
 11
92.27754530768311
 21
309.4684427400857
 31
0.0
 11
91.73549615769953
 21
309.5516886071372
 31
0.0
 11
91.19529803365143
 21
309.6461012746928
 31
0.0
 11
91.00436846683958
 21
309.6821814765165
 31
0.0
 11
90.8137048193
 21
309.7196159639
 31
0.0
  0
SPLINE
  5
F6
330
1F
100
AcDbEntity
  8
BEZUGSACHSEN
  6
Continuous
 62
     7
100
AcDbSpline
210
0.0
220
0.0
230
1.0
 70
     8
 71
     3
 72
    15
 73
    11
 74
     9
 42
0.0000000001
 43
0.0000000001
 44
0.00000001
 40
0.0
 40
0.0
 40
0.0
 40
0.0
 40
0.1942981503602076
 40
0.3886012246070234
 40
0.9369792400626076
 40
1.485374928924164
 40
2.300027372215248
 40
3.114746618678637
 40
4.074175664741115
 40
5.03346487872827
 40
5.03346487872827
 40
5.03346487872827
 40
5.03346487872827
 10
100.8137048193
 20
309.7196159639
 30
0.0
 10
100.7501704533687
 20
309.7070435118752
 30
0.0
 10
100.6231001114237
 20
309.6818982892154
 30
0.0
 10
100.3161828131193
 20
309.6240080152124
 30
0.0
 10
99.89223503014122
 20
309.5498075601871
 30
0.0
 10
99.26243875743893
 20
309.4530829729786
 30
0.0
 10
98.54216727401868
 20
309.3615378629692
 30
0.0
 10
97.68291729752384
 20
309.2808144264662
 30
0.0
 10
96.77309927303307
 20
309.2253988223175
 30
0.0
 10
96.13348743269756
 20
309.2181416922779
 30
0.0
 10
95.8137048193
 20
309.2145133917
 30
0.0
 11
100.8137048193
 21
309.7196159639
 31
0.0
 11
100.6230467148659
 21
309.6821825771045
 31
0.0
 11
100.4321227106129
 21
309.6461033689403
 31
0.0
 11
99.89193302107685
 21
309.5516917851489
 31
0.0
 11
99.34989235447108
 21
309.4684466813438
 31
0.0
 11
98.54171202228505
 21
309.3659617847599
 31
0.0
 11
97.73059737754063
 21
309.2894079890408
 31
0.0
 11
96.77280991110685
 21
309.2333075115856
 31
0.0
 11
95.8137048193
 21
309.2145133917
 31
0.0
  0
SPLINE
  5
F7
330
1F
100
AcDbEntity
  8
0
  6
Continuous
 62
     7
100
AcDbSpline
210
0.0
220
0.0
230
1.0
 70
     8
 71
     3
 72
    11
 73
     7
 74
     5
 42
0.0000000001
 43
0.0000000001
 44
0.00000001
 40
0.0
 40
0.0
 40
0.0
 40
0.0
 40
0.0720335617161012
 40
0.1441734620423418
 40
0.2163593593606941
 40
0.2883296529021608
 40
0.2883296529021608
 40
0.2883296529021608
 40
0.2883296529021608
 10
64.6017755503
 20
292.4555736699
 30
0.0
 10
64.62128160378057
 20
292.4696261399453
 30
0.0
 10
64.66032250629985
 20
292.497751824812
 30
0.0
 10
64.72456443099034
 20
292.5309778177241
 30
0.0
 10
64.79242762770505
 20
292.5564090113329
 30
0.0
 10
64.83994461638619
 20
292.5642259074291
 30
0.0
 10
64.8636675769
 20
292.5681285099
 30
0.0
 11
64.6017755503
 21
292.4555736699
 31
0.0
 11
64.66123417624993
 21
292.496236992608
 31
0.0
 11
64.7251576029955
 21
292.5296729123977
 31
0.0
 11
64.79306893208201
 21
292.5541444295832
 31
0.0
 11
64.8636675769
 21
292.5681285099
 31
0.0
  0
SPLINE
  5
F8
330
1F
100
AcDbEntity
  8
RUNDUNGEN
  6
Continuous
 62
     7
100
AcDbSpline
210
0.0
220
0.0
230
1.0
 70
     8
 71
     3
 72
    15
 73
    11
 74
     9
 42
0.0000000001
 43
0.0000000001
 44
0.00000001
 40
0.0
 40
0.0
 40
0.0
 40
0.0
 40
0.2286533797624683
 40
0.4574173648876857
 40
0.6866651597805311
 40
0.9158640491602779
 40
1.146314057934748
 40
1.376831724061338
 40
1.609554238674135
 40
1.842048835129338
 40
1.842048835129338
 40
1.842048835129338
 40
1.842048835129338
 10
67.93176299549998
 20
292.3696159639
 30
0.0
 10
67.97416776395865
 20
292.3062518231247
 30
0.0
 10
68.05899781312384
 20
292.1794928907533
 30
0.0
 10
68.170474588241
 20
291.9793114374215
 30
0.0
 10
68.26962284080798
 20
291.7726558452438
 30
0.0
 10
68.35412294969004
 20
291.5589197165946
 30
0.0
 10
68.42289856314581
 20
291.3391261601403
 30
0.0
 10
68.47387561758212
 20
291.1133941133874
 30
0.0
 10
68.50721489992381
 20
290.8834125790709
 30
0.0
 10
68.51154221951828
 20
290.7282896675969
 30
0.0
 10
68.5137048193
 20
290.6507662106
 30
0.0
 11
67.93176299549998
 21
292.3696159639
 31
0.0
 11
68.05633594189942
 21
292.1778766901396
 31
0.0
 11
68.16833147999726
 21
291.9784024804368
 31
0.0
 11
68.26715188793709
 21
291.7715472691468
 31
0.0
 11
68.35133981017755
 21
291.5583700549757
 31
0.0
 11
68.41987751969812
 21
291.33834780856
 31
0.0
 11
68.4707807653309
 21
291.1135206438746
 31
0.0
 11
68.50273000349591
 21
290.8830016316687
 31
0.0
 11
68.5137048193
 21
290.6507662106
 31
0.0
  0
SPLINE
  5
F9
330
1F
100
AcDbEntity
  8
RUNDUNGEN
  6
Continuous
 62
     7
100
AcDbSpline
210
0.0
220
0.0
230
1.0
 70
     8
 71
     3
 72
    15
 73
    11
 74
     9
 42
0.0000000001
 43
0.0000000001
 44
0.00000001
 40
0.0
 40
0.0
 40
0.0
 40
0.0
 40
0.1273079847570862
 40
0.2549893803970691
 40
0.3793073350932065
 40
0.5035989687233675
 40
0.6245667031641002
 40
0.7455591721792737
 40
0.8645937372610476
 40
0.9835510381103013
 40
0.9835510381103013
 40
0.9835510381103013
 40
0.9835510381103013
 10
67.1137048193
 20
292.8240867614
 30
0.0
 10
67.15618398893
 20
292.8265334055442
 30
0.0
 10
67.24126692512135
 20
292.8314338701583
 30
0.0
 10
67.36691327679509
 20
292.8097696826893
 30
0.0
 10
67.48569929403246
 20
292.7681302102415
 30
0.0
 10
67.59446594270372
 20
292.7092587214023
 30
0.0
 10
67.69331614791469
 20
292.6370846848156
 30
0.0
 10
67.78170179208067
 20
292.5551312728413
 30
0.0
 10
67.86174667216827
 20
292.4658925769687
 30
0.0
 10
67.90842927290285
 20
292.4017012216662
 30
0.0
 10
67.93176299549998
 20
292.3696159639
 30
0.0
 11
67.1137048193
 21
292.8240867614
 31
0.0
 11
67.24098848770441
 21
292.8265748812574
 31
0.0
 11
67.36701975973247
 21
292.806113765365
 31
0.0
 11
67.48437876169517
 21
292.7651037846512
 31
0.0
 11
67.59390705039296
 21
292.7063503663218
 31
0.0
 11
67.69179404107345
 21
292.63527765826
 31
0.0
 11
67.78084773604868
 21
292.5533715109348
 31
0.0
 11
67.86016689723301
 21
292.4646151119924
 31
0.0
 11
67.93176299549998
 21
292.3696159639
 31
0.0
  0
SPLINE
  5
FA
330
1F
100
AcDbEntity
  8
RUNDUNGEN
  6
Continuous
 62
     7
100
AcDbSpline
210
0.0
220
0.0
230
1.0
 70
     8
 71
     3
 72
    15
 73
    11
 74
     9
 42
0.0000000001
 43
0.0000000001
 44
0.00000001
 40
0.0
 40
0.0
 40
0.0
 40
0.0
 40
0.2324947531022461
 40
0.4652174309838215
 40
0.6957353317384816
 40
0.9261855606494633
 40
1.155384407784656
 40
1.38463217880856
 40
1.613395801729687
 40
1.842048806074968
 40
1.842048806074968
 40
1.842048806074968
 40
1.842048806074968
 10
68.5137048193
 20
278.7884657171
 30
0.0
 10
68.51154221233153
 20
278.7109422078719
 30
0.0
 10
68.50721487829637
 20
278.5558191897275
 30
0.0
 10
68.47387553991486
 20
278.3258374775354
 30
0.0
 10
68.42289848112637
 20
278.1001052211334
 30
0.0
 10
68.35412278475425
 20
277.8803115408697
 30
0.0
 10
68.26962241013604
 20
277.6665754584577
 30
0.0
 10
68.17047403493123
 20
277.4599200909927
 30
0.0
 10
68.05899752962432
 20
277.2597387821756
 30
0.0
 10
67.97416766864613
 20
277.1329800184948
 30
0.0
 10
67.93176299549998
 20
277.0696159639
 30
0.0
 11
68.5137048193
 21
278.7884657171
 31
0.0
 11
68.50272997691731
 21
278.5562301404655
 31
0.0
 11
68.47078070123595
 21
278.3257109686298
 31
0.0
 11
68.41987741964635
 21
278.1008835715188
 31
0.0
 11
68.35133958056885
 21
277.8808611348908
 31
0.0
 11
68.26715147039809
 21
277.6676840403567
 31
0.0
 11
68.16833093165164
 21
277.4608289180095
 31
0.0
 11
68.05633564888434
 21
277.2613549803388
 31
0.0
 11
67.93176299549998
 21
277.0696159639
 31
0.0
  0
SPLINE
  5
FB
330
1F
100
AcDbEntity
  8
RUNDUNGEN
  6
Continuous
 62
     7
100
AcDbSpline
210
0.0
220
0.0
230
1.0
 70
     8
 71
     3
 72
    17
 73
    13
 74
    11
 42
0.0000000001
 43
0.0000000001
 44
0.00000001
 40
0.0
 40
0.0
 40
0.0
 40
0.0
 40
0.1190059193812139
 40
0.2380814744605194
 40
0.3590691915630873
 40
0.4800850748110626
 40
0.604490646111114
 40
0.728652194478669
 40
0.7922003882095539
 40
0.8557409872320826
 40
0.919815832206762
 40
0.9838416202323063
 40
0.9838416202323063
 40
0.9838416202323063
 40
0.9838416202323063
 10
67.93176299549998
 20
277.0696159639
 30
0.0
 10
67.90841729476517
 20
277.0375194328412
 30
0.0
 10
67.86171223267955
 20
276.9733075896048
 30
0.0
 10
67.78164577017243
 20
276.884049795474
 30
0.0
 10
67.6932748411971
 20
276.8020481025654
 30
0.0
 10
67.59435008313966
 20
276.7298414302409
 30
0.0
 10
67.4855160102719
 20
276.6712274872491
 30
0.0
 10
67.38695395829775
 20
276.6363475304103
 30
0.0
 10
67.30490742913118
 20
276.6190005804802
 30
0.0
 10
67.2415445099264
 20
276.6116075179585
 30
0.0
 10
67.17755720766363
 20
276.6096741864723
 30
0.0
 10
67.13498351413264
 20
276.613321972005
 30
0.0
 10
67.1137048193
 20
276.6151451663
 30
0.0
 11
67.93176299549998
 21
277.0696159639
 31
0.0
 11
67.86013103911556
 21
276.974582960831
 31
0.0
 11
67.78078705938775
 21
276.8857937683671
 31
0.0
 11
67.69175485133503
 21
276.8038712829376
 31
0.0
 11
67.59380365654603
 21
276.732805064256
 31
0.0
 11
67.48411735339383
 21
276.674105310668
 31
0.0
 11
67.36692888072595
 21
276.6330815131012
 31
0.0
 11
67.30474905122354
 21
276.6199650452265
 31
0.0
 11
67.24164464725533
 21
276.612532554126
 31
0.0
 11
67.17759035791475
 21
276.6109096630012
 31
0.0
 11
67.1137048193
 21
276.6151451663
 31
0.0
  0
SPLINE
  5
FC
330
1F
100
AcDbEntity
  8
0
  6
Continuous
 62
     7
100
AcDbSpline
210
0.0
220
0.0
230
1.0
 70
     8
 71
     3
 72
    27
 73
    23
 74
    21
 42
0.0000000001
 43
0.0000000001
 44
0.00000001
 40
0.0
 40
0.0
 40
0.0
 40
0.0
 40
0.0679422773192242
 40
0.1359904672160533
 40
0.1960311417935306
 40
0.2558288644253562
 40
0.2829045759128118
 40
0.3099751665532693
 40
0.3357621418671145
 40
0.3615450077141498
 40
0.386887481285128
 40
0.4122310012300305
 40
0.4380221513058915
 40
0.4638182097712962
 40
0.5190828347072479
 40
0.5745822154431135
 40
0.6366003188090829
 40
0.698558037540572
 40
0.766667300906978
 40
0.8347923375965925
 40
0.9078434200502428
 40
0.9808740974226431
 40
0.9808740974226431
 40
0.9808740974226431
 40
0.9808740974226431
 10
63.91370481929999
 20
292.2643998557
 30
0.0
 10
63.91417257935748
 20
292.2870565967947
 30
0.0
 10
63.91510882864546
 20
292.3324053976979
 30
0.0
 10
63.92422575008899
 20
292.3972934722576
 30
0.0
 10
63.93996830803636
 20
292.4580579635792
 30
0.0
 10
63.95953555185451
 20
292.5032787372032
 30
0.0
 10
63.97955607627467
 20
292.5356164478726
 30
0.0
 10
63.99585766065838
 20
292.5567615531791
 30
0.0
 10
64.01412722297933
 20
292.5756356395942
 30
0.0
 10
64.03400057241807
 20
292.5919291258011
 30
0.0
 10
64.05557162174877
 20
292.6056217044161
 30
0.0
 10
64.0785900010419
 20
292.6167095668004
 30
0.0
 10
64.10288241589457
 20
292.6250971226405
 30
0.0
 10
64.13765755646452
 20
292.6330579773476
 30
0.0
 10
64.18337653610071
 20
292.6362258642452
 30
0.0
 10
64.2408830984514
 20
292.6307144390883
 30
0.0
 10
64.29932646071089
 20
292.6171982271197
 30
0.0
 10
64.35981629982842
 20
292.5959330317433
 30
0.0
 10
64.4201376274084
 20
292.5688133881122
 30
0.0
 10
64.48150488626217
 20
292.5355454906534
 30
0.0
 10
64.54227289005176
 20
292.4979536162816
 30
0.0
 10
64.58194317730033
 20
292.4696990031345
 30
0.0
 10
64.6017755503
 20
292.4555736699
 30
0.0
 11
63.91370481929999
 21
292.2643998557
 31
0.0
 11
63.91645308439264
 21
292.3322865266031
 31
0.0
 11
63.92594587500923
 21
292.3996693365366
 31
0.0
 11
63.94147469866996
 21
292.4576670799361
 31
0.0
 11
63.96564375222839
 21
292.512362824579
 31
0.0
 11
63.97993925338953
 21
292.5353570151302
 31
0.0
 11
63.99651287033164
 21
292.5567610357591
 31
0.0
 11
64.01446436371177
 21
292.5752735175284
 31
0.0
 11
64.03442251928124
 21
292.5915961459182
 31
0.0
 11
64.05581073760301
 21
292.6051897136513
 31
0.0
 11
64.07864099872995
 21
292.6161930395155
 31
0.0
 11
64.1030057089829
 21
292.6246514268633
 31
0.0
 11
64.12814361227849
 21
292.6304412843963
 31
0.0
 11
64.18324380946723
 21
292.6347012185594
 31
0.0
 11
64.2385249775152
 21
292.6297845406854
 31
0.0
 11
64.2990134503001
 21
292.616095501082
 31
0.0
 11
64.35756762811283
 21
292.5958429167757
 31
0.0
 11
64.41975366736206
 21
292.5680621990238
 31
0.0
 11
64.47974702446143
 21
292.5357849976596
 31
0.0
 11
64.54183569816378
 21
292.4972952945491
 31
0.0
 11
64.6017755503
 21
292.4555736699
 31
0.0
  0
SPLINE
  5
FD
330
1F
100
AcDbEntity
  8
FASEN
  6
Continuous
 62
     7
100
AcDbSpline
210
0.0
220
0.0
230
1.0
 70
     8
 71
     3
 72
    43
 73
    39
 74
    37
 42
0.0000000001
 43
0.0000000001
 44
0.00000001
 40
0.0
 40
0.0
 40
0.0
 40
0.0
 40
0.3536627137675736
 40
0.7077087110085045
 40
1.061386016557082
 40
1.414940912920373
 40
1.768273600872727
 40
2.121679340751284
 40
2.474990473712278
 40
2.828124790671069
 40
3.004861640049379
 40
3.181542282367155
 40
3.358289604683149
 40
3.535092627963884
 40
3.888693190951548
 40
4.24246702354371
 40
4.596379402905762
 40
4.950247373430509
 40
5.303947628022793
 40
5.65766139908897
 40
6.010712555468396
 40
6.363747200665508
 40
6.715806091029901
 40
7.067909115882911
 40
7.419215040226724
 40
7.770346273740451
 40
7.945854779213995
 40
8.121308710056539
 40
8.296759233390198
 40
8.472264989799317
 40
8.823345921676857
 40
9.174601594834332
 40
9.52672124197047
 40
9.878775142244503
 40
10.23179857975548
 40
10.58493613215407
 40
10.93889559957596
 40
11.29248564899105
 40
11.29248564899105
 40
11.29248564899105
 40
11.29248564899105
 10
77.7144564077
 20
284.7196159639
 30
0.0
 10
77.71778623452303
 20
284.8375532736127
 30
0.0
 10
77.72444949688312
 20
285.0735557081003
 30
0.0
 10
77.77878545214647
 20
285.4240400153113
 30
0.0
 10
77.86472867767446
 20
285.7676524815155
 30
0.0
 10
77.98461582247283
 20
286.1008899845281
 30
0.0
 10
78.13666468388683
 20
286.420561474737
 30
0.0
 10
78.3194786003227
 20
286.7236292801941
 30
0.0
 10
78.53134179601642
 20
287.0070360291544
 30
0.0
 10
78.73027623519991
 20
287.2247506282524
 30
0.0
 10
78.90165671034262
 20
287.3864121973058
 30
0.0
 10
79.03608323411268
 20
287.5012428469678
 30
0.0
 10
79.17600150107953
 20
287.6093501690085
 30
0.0
 10
79.36945585310251
 20
287.7441657766961
 30
0.0
 10
79.62350065171756
 20
287.8945952829878
 30
0.0
 10
79.94452906628467
 20
288.0445238015107
 30
0.0
 10
80.278787929477
 20
288.1623534812376
 30
0.0
 10
80.62288873831167
 20
288.2471137161381
 30
0.0
 10
80.97354054246011
 20
288.2979577318056
 30
0.0
 10
81.32719707154388
 20
288.3145718411657
 30
0.0
 10
81.68056905664933
 20
288.2967105785611
 30
0.0
 10
82.03000112460296
 20
288.2447502570986
 30
0.0
 10
82.37239186261468
 20
288.1590367204645
 30
0.0
 10
82.70427827435314
 20
288.0405905104324
 30
0.0
 10
83.0226657890494
 20
287.8903353804061
 30
0.0
 10
83.27430216521239
 20
287.7399237322745
 30
0.0
 10
83.46579805861812
 20
287.6052506643403
 30
0.0
 10
83.6042489911862
 20
287.4973296286244
 30
0.0
 10
83.73724710501642
 20
287.3827573436376
 30
0.0
 10
83.90687781767956
 20
287.2214379017429
 30
0.0
 10
84.10374862271964
 20
287.0042582305761
 30
0.0
 10
84.31347536324631
 20
286.7215104889312
 30
0.0
 10
84.494435706593
 20
286.4191320812793
 30
0.0
 10
84.64506752483909
 20
286.0999414120816
 30
0.0
 10
84.76389932380198
 20
285.7671677461531
 30
0.0
 10
84.84914446296267
 20
285.4237831197
 30
0.0
 10
84.90297962293604
 20
285.0734723541951
 30
0.0
 10
84.90962985229368
 20
284.8375270309355
 30
0.0
 10
84.9129532309
 20
284.7196159639
 30
0.0
 11
77.7144564077
 21
284.7196159639
 31
0.0
 11
77.73182957148808
 21
285.0728517042908
 31
0.0
 11
77.78408014056261
 21
285.4230208722564
 31
0.0
 11
77.87040901451134
 21
285.7660004080641
 31
0.0
 11
77.9900099099457
 21
286.0987115298406
 31
0.0
 11
78.14178676331379
 21
286.4177848367111
 31
0.0
 11
78.3243444875101
 21
286.7203873719209
 31
0.0
 11
78.53585618215311
 21
287.003391894329
 31
0.0
 11
78.77408354448073
 21
287.2640671130445
 31
0.0
 11
78.90264229814963
 21
287.385345968511
 31
0.0
 11
79.03697832360129
 21
287.5001060732324
 31
0.0
 11
79.17684274097311
 21
287.60816883601
 31
0.0
 11
79.32190020924028
 21
287.7092511783904
 31
0.0
 11
79.62613164538853
 21
287.8894638067059
 31
0.0
 11
79.94667784138602
 21
288.0391503487145
 31
0.0
 11
80.28044659894813
 21
288.156846520025
 31
0.0
 11
80.62404626579278
 21
288.2414739949226
 31
0.0
 11
80.97408216049497
 21
288.2922553154912
 31
0.0
 11
81.32740759706314
 21
288.3088254004568
 31
0.0
 11
81.68000932286466
 21
288.2910169198186
 31
0.0
 11
82.02919839993885
 21
288.2390510737125
 31
0.0
 11
82.37071915125966
 21
288.1535581576207
 31
0.0
 11
82.70232152758754
 21
288.0351672621754
 31
0.0
 11
83.02003016737922
 21
287.8852437060517
 31
0.0
 11
83.32139198156064
 21
287.7050377125271
 31
0.0
 11
83.46495794717043
 21
287.6040820340733
 31
0.0
 11
83.60334127952602
 21
287.496220385772
 31
0.0
 11
83.73626615722597
 21
287.3817046094505
 31
0.0
 11
83.8634387817415
 21
287.2607525771957
 31
0.0
 11
84.0992568935752
 21
287.0006609801396
 31
0.0
 11
84.30849039075936
 21
286.7185229083
 31
0.0
 11
84.48934528000015
 21
286.4163975122523
 31
0.0
 11
84.6396228446546
 21
286.0980288544675
 31
0.0
 11
84.75825955842713
 21
285.7655369333967
 31
0.0
 11
84.84384816747509
 21
285.4229282339811
 31
0.0
 11
84.89567537236418
 21
285.0727836275526
 31
0.0
 11
84.9129532309
 21
284.7196159639
 31
0.0
  0
SPLINE
  5
FE
330
1F
100
AcDbEntity
  8
0
  6
Continuous
 62
     7
100
AcDbSpline
210
0.0
220
0.0
230
1.0
 70
     8
 71
     3
 72
    27
 73
    23
 74
    21
 42
0.0000000001
 43
0.0000000001
 44
0.00000001
 40
0.0
 40
0.0
 40
0.0
 40
0.0
 40
0.0730306819695865
 40
0.146081768849263
 40
0.2142068182869601
 40
0.2823160954003757
 40
0.3442738269293777
 40
0.4062919406310375
 40
0.4617913416866212
 40
0.5170559905157396
 40
0.5428520622957549
 40
0.5686432246297364
 40
0.5939867602332792
 40
0.6193292497785156
 40
0.6451121206364535
 40
0.6708991014907523
 40
0.6979696845250666
 40
0.7250453874195327
 40
0.7848430773394116
 40
0.844883720600742
 40
0.9129318640996593
 40
0.9808740945203922
 40
0.9808740945203922
 40
0.9808740945203922
 40
0.9808740945203922
 10
64.6017755503
 20
276.9836582578
 30
0.0
 10
64.58194317603726
 20
276.9695329236964
 30
0.0
 10
64.54227288630906
 20
276.9412783088443
 30
0.0
 10
64.48150487619715
 20
276.9036864308749
 30
0.0
 10
64.42013760775386
 20
276.8704185294157
 30
0.0
 10
64.35981626785616
 20
276.8432988813227
 30
0.0
 10
64.2993264173427
 20
276.8220336811875
 30
0.0
 10
64.24088303853335
 20
276.8085174731447
 30
0.0
 10
64.18337645487517
 20
276.8030060724163
 30
0.0
 10
64.13765745837699
 20
276.8061739771709
 30
0.0
 10
64.10288230161905
 20
276.8141348343787
 30
0.0
 10
64.07858987440682
 20
276.8225223979347
 30
0.0
 10
64.05557148903588
 20
276.8336102826514
 30
0.0
 10
64.03400044344352
 20
276.8473028905458
 30
0.0
 10
64.01412710732134
 20
276.863596407046
 30
0.0
 10
63.99585756496687
 20
276.8824705135916
 30
0.0
 10
63.97955599387988
 20
276.9036156239998
 30
0.0
 10
63.95953548587891
 20
276.9359533256047
 30
0.0
 10
63.93996826568078
 20
276.9811740830656
 30
0.0
 10
63.92422573364551
 20
277.041938542709
 30
0.0
 10
63.91510882662144
 20
277.1068265767996
 30
0.0
 10
63.91417257868184
 20
277.1521753465601
 30
0.0
 10
63.91370481929999
 20
277.174832072
 30
0.0
 11
64.6017755503
 21
276.9836582578
 31
0.0
 11
64.54183569432865
 21
276.9419366306137
 31
0.0
 11
64.47974701668545
 21
276.9034469254599
 31
0.0
 11
64.41975364795563
 21
276.8711697188067
 31
0.0
 11
64.35756759587036
 21
276.8433889960846
 31
0.0
 11
64.29901340563215
 21
276.823136408552
 31
0.0
 11
64.23852492058465
 21
276.8094473763082
 31
0.0
 11
64.18324373040416
 21
276.8045307179149
 31
0.0
 11
64.12814351061651
 21
276.8087906697408
 31
0.0
 11
64.103005594552
 21
276.8145805311565
 31
0.0
 11
64.07864087435195
 21
276.8230389272285
 31
0.0
 11
64.05581060628226
 21
276.8340422747535
 31
0.0
 11
64.03442238836834
 21
276.8476358729091
 31
0.0
 11
64.01446424825582
 21
276.8639585281136
 31
0.0
 11
63.99651276986326
 21
276.8824710321339
 31
0.0
 11
63.97993916973853
 21
276.903875056165
 31
0.0
 11
63.9656436799322
 21
276.9268692436572
 31
0.0
 11
63.94147465546501
 21
276.9815649653917
 31
0.0
 11
63.92594585487682
 21
277.0395626825496
 31
0.0
 11
63.91645308011456
 21
277.1069454478607
 31
0.0
 11
63.91370481929999
 21
277.174832072
 31
0.0
  0
SPLINE
  5
FF
330
1F
100
AcDbEntity
  8
0
  6
Continuous
 62
     7
100
AcDbSpline
210
0.0
220
0.0
230
1.0
 70
     8
 71
     3
 72
    11
 73
     7
 74
     5
 42
0.0000000001
 43
0.0000000001
 44
0.00000001
 40
0.0
 40
0.0
 40
0.0
 40
0.0
 40
0.0719820116952624
 40
0.1441794862810861
 40
0.2163078795456472
 40
0.2883301028005282
 40
0.2883301028005282
 40
0.2883301028005282
 40
0.2883301028005282
 10
64.8636675769
 20
276.8711034178
 30
0.0
 10
64.83994074370045
 20
276.875006605006
 30
0.0
 10
64.79241605605665
 20
276.8828246627813
 30
0.0
 10
64.72454938783557
 20
276.9082583865421
 30
0.0
 10
64.66031257053365
 20
276.9414859166853
 30
0.0
 10
64.62127830718818
 20
276.9696077148636
 30
0.0
 10
64.6017755503
 20
276.9836582578
 30
0.0
 11
64.8636675769
 21
276.8711034178
 31
0.0
 11
64.79305745035519
 21
276.8850898411106
 31
0.0
 11
64.72513576794134
 21
276.9095667770839
 31
0.0
 11
64.66122395946358
 21
276.9430000816174
 31
0.0
 11
64.6017755503
 21
276.9836582578
 31
0.0
  0
SPLINE
  5
100
330
1F
100
AcDbEntity
  8
0
  6
Continuous
 62
     7
100
AcDbSpline
210
0.0
220
0.0
230
1.0
 70
     8
 71
     3
 72
    25
 73
    21
 74
    19
 42
0.0000000001
 43
0.0000000001
 44
0.00000001
 40
0.0
 40
0.0
 40
0.0
 40
0.0
 40
0.0272067661451663
 40
0.0544881809714387
 40
0.0817226175712976
 40
0.1089430470114972
 40
0.1361366761208563
 40
0.163335163242769
 40
0.1904968256734141
 40
0.2176561384467884
 40
0.2719142874126704
 40
0.3262206322661462
 40
0.3804997303695891
 40
0.4347596646266758
 40
0.4890233385845487
 40
0.543290387323186
 40
0.597553005873557
 40
0.6518162746558803
 40
0.7603346281903818
 40
0.8688546603806188
 40
0.8688546603806188
 40
0.8688546603806188
 40
0.8688546603806188
 10
105.6512048193
 20
289.6557708439
 30
0.0
 10
105.6421283629691
 20
289.6562078341876
 30
0.0
 10
105.6239505467415
 20
289.6570830137568
 30
0.0
 10
105.597349144785
 20
289.6636219362972
 30
0.0
 10
105.5718749053189
 20
289.6734304578255
 30
0.0
 10
105.547805404263
 20
289.6862689587205
 30
0.0
 10
105.5251825517531
 20
289.7014435794442
 30
0.0
 10
105.50395785449
 20
289.7184726185362
 30
0.0
 10
105.4839726562946
 20
289.7369106652025
 30
0.0
 10
105.4588567066411
 20
289.7629930339599
 30
0.0
 10
105.4299239095103
 20
289.7978584157642
 30
0.0
 10
105.3985545175474
 20
289.8422012501903
 30
0.0
 10
105.3697310965264
 20
289.8882258821749
 30
0.0
 10
105.3431141045311
 20
289.9355359270577
 30
0.0
 10
105.3183031112678
 20
289.9838072654846
 30
0.0
 10
105.2950756501814
 20
290.032857941282
 30
0.0
 10
105.2731928119408
 20
290.0825213372894
 30
0.0
 10
105.2456480388284
 20
290.1494247966883
 30
0.0
 10
105.2136759182756
 20
290.2340534049799
 30
0.0
 10
105.1910051458733
 20
290.302761600455
 30
0.0
 10
105.179669672
 20
290.3371159639
 30
0.0
 11
105.6512048193
 21
289.6557708439
 31
0.0
 11
105.6240855114468
 21
289.6579505837108
 31
0.0
 11
105.5975228665028
 21
289.664171635752
 31
0.0
 11
105.5721003161306
 21
289.6739393616635
 31
0.0
 11
105.5480371063877
 21
289.6866638937092
 31
0.0
 11
105.5254142652204
 21
289.7017536426023
 31
0.0
 11
105.5041536956715
 21
289.7187167167393
 31
0.0
 11
105.4841600999489
 21
289.7371018203854
 31
0.0
 11
105.4652894174557
 21
289.7566345010146
 31
0.0
 11
105.4304911396259
 21
289.7982641369641
 31
0.0
 11
105.3989739531684
 21
289.8424890852302
 31
0.0
 11
105.3700943265189
 21
289.8884476280217
 31
0.0
 11
105.3434153569945
 21
289.9356956232246
 31
0.0
 11
105.3185676038649
 21
289.9839360157999
 31
0.0
 11
105.2952991327015
 21
290.0329614258289
 31
0.0
 11
105.2733967284899
 21
290.0826073366545
 31
0.0
 11
105.2526973830867
 21
290.1327674746011
 31
0.0
 11
105.2144027493149
 21
290.2343044337742
 31
0.0
 11
105.179669672
 21
290.3371159639
 31
0.0
  0
SPLINE
  5
101
330
1F
100
AcDbEntity
  8
0
  6
Continuous
 62
     7
100
AcDbSpline
210
0.0
220
0.0
230
1.0
 70
     8
 71
     3
 72
    25
 73
    21
 74
    19
 42
0.0000000001
 43
0.0000000001
 44
0.00000001
 40
0.0
 40
0.0
 40
0.0
 40
0.0
 40
0.1085285491016557
 40
0.2170554557470717
 40
0.2713241333535264
 40
0.3255921109977291
 40
0.3798650579907388
 40
0.4341347749274007
 40
0.4884007825130305
 40
0.5426855352000953
 40
0.5969918906890668
 40
0.6512511253317184
 40
0.6784124281539806
 40
0.7055751105133856
 40
0.7327602081082848
 40
0.7599421722492602
 40
0.7871532997662636
 40
0.814376019203034
 40
0.8416525758394638
 40
0.8688563236675795
 40
0.8688563236675795
 40
0.8688563236675795
 40
0.8688563236675795
 10
108.4477399665
 20
290.3371159639
 30
0.0
 10
108.4364035430961
 20
290.3027589233206
 30
0.0
 10
108.4137308678523
 20
290.2340453621167
 30
0.0
 10
108.3817558479881
 20
290.1494098408791
 30
0.0
 10
108.354208789564
 20
290.0825003584335
 30
0.0
 10
108.3323236781956
 20
290.0328318886501
 30
0.0
 10
108.3090932540514
 20
289.9837762294547
 30
0.0
 10
108.2842790219558
 20
289.9354998101444
 30
0.0
 10
108.2576591061164
 20
289.8881846087726
 30
0.0
 10
108.2288317503827
 20
289.842157736058
 30
0.0
 10
108.1974553359039
 20
289.7978170195154
 30
0.0
 10
108.1685184007576
 20
289.76295394461
 30
0.0
 10
108.1434016807544
 20
289.7368704398489
 30
0.0
 10
108.1234160042771
 20
289.7184377025567
 30
0.0
 10
108.1021881371939
 20
289.701425190353
 30
0.0
 10
108.0795697937594
 20
289.6862653530036
 30
0.0
 10
108.0555157478959
 20
289.6734223889852
 30
0.0
 10
108.0300532791134
 20
289.6636054107952
 30
0.0
 10
108.003455489061
 20
289.6570774603467
 30
0.0
 10
107.985280279289
 20
289.6562059944995
 30
0.0
 10
107.9762048193
 20
289.6557708439
 30
0.0
 11
108.4477399665
 21
290.3371159639
 31
0.0
 11
108.4130039635846
 21
290.2342964323334
 31
0.0
 11
108.3747061583204
 21
290.1327515280892
 31
0.0
 11
108.3540048199824
 21
290.0825863612882
 31
0.0
 11
108.3321001701737
 21
290.0329355837077
 31
0.0
 11
108.3088287539857
 21
289.9839050425735
 31
0.0
 11
108.2839778198411
 21
289.9356594909804
 31
0.0
 11
108.2572954589739
 21
289.8884064360756
 31
0.0
 11
108.2284106056996
 21
289.8424444993712
 31
0.0
 11
108.1968885746127
 21
289.7982229909996
 31
0.0
 11
108.1620861725371
 21
289.7565953877324
 31
0.0
 11
108.1432134697697
 21
289.7370618918534
 31
0.0
 11
108.1232155034209
 21
289.7186800351771
 31
0.0
 11
108.1019577287757
 21
289.7017349312123
 31
0.0
 11
108.0793406651066
 21
289.6866575439867
 31
0.0
 11
108.0552893394136
 21
289.6739304393216
 31
0.0
 11
108.0298807204224
 21
289.6641591275115
 31
0.0
 11
108.0033216012123
 21
289.6579443283413
 31
0.0
 11
107.9762048193
 21
289.6557708439
 31
0.0
  0
SPLINE
  5
102
330
1F
100
AcDbEntity
  8
0
  6
Continuous
 62
     7
100
AcDbSpline
210
0.0
220
0.0
230
1.0
 70
     8
 71
     3
 72
    25
 73
    21
 74
    19
 42
0.0000000001
 43
0.0000000001
 44
0.00000001
 40
0.0
 40
0.0
 40
0.0
 40
0.0
 40
0.0272074181306897
 40
0.0544897103862181
 40
0.0817252615900452
 40
0.1089465264600089
 40
0.1361394923491012
 40
0.1633375027754661
 40
0.1904999127968505
 40
0.2176598700925779
 40
0.2719180516676813
 40
0.3262245621063389
 40
0.380503212014073
 40
0.4347626393474202
 40
0.489025844700738
 40
0.5432924465099523
 40
0.5975546789233063
 40
0.6518175541949661
 40
0.7603351297086111
 40
0.8688543878040332
 40
0.8688543878040332
 40
0.8688543878040332
 40
0.8688543878040332
 10
107.9762048193
 20
279.7834610838
 30
0.0
 10
107.9852814921623
 20
279.7830238433161
 30
0.0
 10
108.0034598166606
 20
279.7821481590738
 30
0.0
 10
108.0300616898905
 20
279.7756076172187
 30
0.0
 10
108.0555371466093
 20
279.7657998786657
 30
0.0
 10
108.0796076701933
 20
279.7529622494287
 30
0.0
 10
108.1022300419236
 20
279.7377870108602
 30
0.0
 10
108.1234538974921
 20
279.7207571619517
 30
0.0
 10
108.1434392528388
 20
279.7023188630914
 30
0.0
 10
108.1685557566728
 20
279.6762363609104
 30
0.0
 10
108.1974883538798
 20
279.6413704113651
 30
0.0
 10
108.2288569470389
 20
279.5970271279111
 30
0.0
 10
108.2576800980898
 20
279.5510026509457
 30
0.0
 10
108.2842969776151
 20
279.5036930863851
 30
0.0
 10
108.3091077076587
 20
279.455422143526
 30
0.0
 10
108.3323348832548
 20
279.4063718131638
 30
0.0
 10
108.3542175197684
 20
279.3567087757223
 30
0.0
 10
108.3817620874904
 20
279.2898057933655
 30
0.0
 10
108.4137339671229
 20
279.2051777876281
 30
0.0
 10
108.4364045747895
 20
279.1364700826953
 30
0.0
 10
108.4477399665
 20
279.1021159639
 30
0.0
 11
107.9762048193
 21
279.7834610838
 31
0.0
 11
108.0033247103246
 21
279.7812804618362
 31
0.0
 11
108.0298880066723
 21
279.7750583433977
 31
0.0
 11
108.0553118635872
 21
279.7652909103189
 31
0.0
 11
108.0793762227253
 21
279.7525667647527
 31
0.0
 11
108.1019982259228
 21
279.7374769547744
 31
0.0
 11
108.1232578577647
 21
279.7205134697227
 31
0.0
 11
108.1432518682237
 21
279.7021277126283
 31
0.0
 11
108.1621230808301
 21
279.6825946479669
 31
0.0
 11
108.1969210467364
 21
279.640964708781
 31
0.0
 11
108.2284377293087
 21
279.5967391980925
 31
0.0
 11
108.2573169230692
 21
279.5507809126202
 31
0.0
 11
108.2839956940166
 21
279.503533387444
 31
0.0
 11
108.3088432052012
 21
279.4552933973616
 31
0.0
 11
108.3321114045166
 21
279.4062683530216
 31
0.0
 11
108.3540136108249
 21
279.3566227769315
 31
0.0
 11
108.3747127950212
 21
279.3064629981606
 31
0.0
 11
108.4130071425182
 21
279.2049267625343
 31
0.0
 11
108.4477399665
 21
279.1021159639
 31
0.0
  0
SPLINE
  5
103
330
1F
100
AcDbEntity
  8
0
  6
Continuous
 62
     7
100
AcDbSpline
210
0.0
220
0.0
230
1.0
 70
     8
 71
     3
 72
    25
 73
    21
 74
    19
 42
0.0000000001
 43
0.0000000001
 44
0.00000001
 40
0.0
 40
0.0
 40
0.0
 40
0.0
 40
0.1085025556015527
 40
0.2170033619559361
 40
0.2712583157029577
 40
0.3255127642077738
 40
0.3797719178289022
 40
0.434027228575673
 40
0.4882788892271555
 40
0.5425511685921006
 40
0.5968541104861346
 40
0.6511051289762624
 40
0.6782579264166303
 40
0.7054161157731647
 40
0.732622869279109
 40
0.7598194768130664
 40
0.7870692643001219
 40
0.8143404776028906
 40
0.8416356458476438
 40
0.8688504929666515
 40
0.8688504929666515
 40
0.8688504929666515
 40
0.8688504929666515
 10
105.179669672
 20
279.1021159639
 30
0.0
 10
105.1910033225273
 20
279.1364647937207
 30
0.0
 10
105.2136704408639
 20
279.2051618995999
 30
0.0
 10
105.2456371652306
 20
279.2897770902925
 30
0.0
 10
105.2731770494696
 20
279.356670291145
 30
0.0
 10
105.2950556696523
 20
279.4063266557285
 30
0.0
 10
105.3182778332365
 20
279.4553708203512
 30
0.0
 10
105.3430834669986
 20
279.5036357370159
 30
0.0
 10
105.3696962998811
 20
279.550939145308
 30
0.0
 10
105.3985113711646
 20
279.5969614923407
 30
0.0
 10
105.4298618883244
 20
279.641310371311
 30
0.0
 10
105.4587867238864
 20
279.6761760125074
 30
0.0
 10
105.4839087043985
 20
279.7022447760094
 30
0.0
 10
105.5038911451426
 20
279.7206839749616
 30
0.0
 10
105.5250929982442
 20
279.7377446259885
 30
0.0
 10
105.5477125444313
 20
279.7529510171395
 30
0.0
 10
105.571819380587
 20
279.7657724961851
 30
0.0
 10
105.5973290329182
 20
279.7755572852939
 30
0.0
 10
105.6239406671484
 20
279.7821314929953
 30
0.0
 10
105.6421257005337
 20
279.7830183224495
 30
0.0
 10
105.6512048193
 20
279.7834610838
 30
0.0
 11
105.179669672
 21
279.1021159639
 31
0.0
 11
105.2143971036367
 21
279.2049109543615
 31
0.0
 11
105.2526851429666
 21
279.3064316469509
 31
0.0
 11
105.2733808305459
 21
279.3565842991411
 31
0.0
 11
105.2952789357468
 21
279.4062231767591
 31
0.0
 11
105.3185423872179
 21
279.4552422299663
 31
0.0
 11
105.3433848752367
 21
279.5034759270387
 31
0.0
 11
105.3700584398233
 21
279.5507174726917
 31
0.0
 11
105.398928394408
 21
279.5966740394667
 31
0.0
 11
105.430431540815
 21
279.6409048122929
 31
0.0
 11
105.4652228571793
 21
279.6825309736923
 31
0.0
 11
105.4840937500388
 21
279.7020543906967
 31
0.0
 11
105.504080291553
 21
279.7204420334882
 31
0.0
 11
105.5253278991234
 21
279.7374345791734
 31
0.0
 11
105.547942096275
 21
279.7525426415424
 31
0.0
 11
105.572041739844
 21
279.7652610572432
 31
0.0
 11
105.5975070353408
 21
279.7750200428598
 31
0.0
 11
105.6240789984361
 21
279.7812615960936
 31
0.0
 11
105.6512048193
 21
279.7834610838
 31
0.0
  0
SPLINE
  5
104
330
1F
100
AcDbEntity
  8
0
  6
Continuous
 62
     7
100
AcDbSpline
210
0.0
220
0.0
230
1.0
 70
     8
 71
     3
 72
    13
 73
     9
 74
     7
 42
0.0000000001
 43
0.0000000001
 44
0.00000001
 40
0.0
 40
0.0
 40
0.0
 40
0.0
 40
0.1312848067672566
 40
0.2626131914525247
 40
0.3227000710683177
 40
0.3827285902806488
 40
0.4404671081819042
 40
0.4981359434476196
 40
0.4981359434476196
 40
0.4981359434476196
 40
0.4981359434476196
 10
105.179669672
 20
290.3371159639
 30
0.0
 10
105.1443448596935
 20
290.3631454110998
 30
0.0
 10
105.0736835095671
 20
290.4152129455633
 30
0.0
 10
105.0041767492125
 20
290.498888447246
 30
0.0
 10
104.9609196199631
 20
290.5707811556523
 30
0.0
 10
104.9361988562101
 20
290.6247884128661
 30
0.0
 10
104.917357985093
 20
290.6803370611113
 30
0.0
 10
104.9103070501194
 20
290.7181972829356
 30
0.0
 10
104.9067837113
 20
290.7371159639
 30
0.0
 11
105.179669672
 21
290.3371159639
 31
0.0
 11
105.0772182595141
 21
290.4192098648157
 31
0.0
 11
104.9927384931213
 21
290.5197599204809
 31
0.0
 11
104.9619027042264
 21
290.5713311064784
 31
0.0
 11
104.9368474555165
 21
290.6258806952111
 31
0.0
 11
104.9186879139815
 21
290.6806891571551
 31
0.0
 11
104.9067837113
 21
290.7371159639
 31
0.0
  0
SPLINE
  5
105
330
1F
100
AcDbEntity
  8
0
  6
Continuous
 62
     7
100
AcDbSpline
210
0.0
220
0.0
230
1.0
 70
     8
 71
     3
 72
    13
 73
     9
 74
     7
 42
0.0000000001
 43
0.0000000001
 44
0.00000001
 40
0.0
 40
0.0
 40
0.0
 40
0.0
 40
0.0576631897544577
 40
0.1153961316232982
 40
0.1754242232566733
 40
0.235510540127428
 40
0.3668449112508958
 40
0.4981360904945206
 40
0.4981360904945206
 40
0.4981360904945206
 40
0.4981360904945206
 10
108.7206259273
 20
290.7371159639
 30
0.0
 10
108.7171028895316
 20
290.7181991436632
 30
0.0
 10
108.710052552362
 20
290.6803426205115
 30
0.0
 10
108.6912133377396
 20
290.6247975842105
 30
0.0
 10
108.6664954299248
 20
290.5707914752257
 30
0.0
 10
108.6232402805975
 20
290.4988955922341
 30
0.0
 10
108.5537314304291
 20
290.4152162901432
 30
0.0
 10
108.4830665805861
 20
290.3631465514862
 30
0.0
 10
108.4477399665
 20
290.3371159639
 30
0.0
 11
108.7206259273
 21
290.7371159639
 31
0.0
 11
108.7087228477802
 21
290.6806946899814
 31
0.0
 11
108.6905656570641
 21
290.625891323277
 31
0.0
 11
108.6655123431592
 21
290.5713413164253
 31
0.0
 11
108.6346787106878
 21
290.5197694967588
 31
0.0
 11
108.5501964728288
 21
290.4192136986925
 31
0.0
 11
108.4477399665
 21
290.3371159639
 31
0.0
  0
SPLINE
  5
106
330
1F
100
AcDbEntity
  8
0
  6
Continuous
 62
     7
100
AcDbSpline
210
0.0
220
0.0
230
1.0
 70
     8
 71
     3
 72
    11
 73
     7
 74
     5
 42
0.0000000001
 43
0.0000000001
 44
0.00000001
 40
0.0
 40
0.0
 40
0.0
 40
0.0
 40
0.1068456600813842
 40
0.2142571944368088
 40
0.3333679115760843
 40
0.4521343114490067
 40
0.4521343114490067
 40
0.4521343114490067
 40
0.4521343114490067
 10
104.91571964152
 20
278.747122219195
 30
0.0
 10
104.9264058901113
 20
278.7812309104319
 30
0.0
 10
104.9478349836324
 20
278.8496289388098
 30
0.0
 10
105.0068338191966
 20
278.9448823244427
 30
0.0
 10
105.0832497598294
 20
279.0320208158524
 30
0.0
 10
105.1475607304312
 20
279.0787734720614
 30
0.0
 10
105.179669672
 20
279.1021159639
 30
0.0
 11
104.91571964152
 21
278.747122219195
 31
0.0
 11
104.95187907751
 21
278.8476632071905
 31
0.0
 11
105.0070212467458
 21
278.9398400962927
 31
0.0
 11
105.0862509878052
 21
279.0287783392992
 31
0.0
 11
105.179669672
 21
279.1021159639
 31
0.0
  0
SPLINE
  5
107
330
1F
100
AcDbEntity
  8
0
  6
Continuous
 62
     7
100
AcDbSpline
210
0.0
220
0.0
230
1.0
 70
     8
 71
     3
 72
    13
 73
     9
 74
     7
 42
0.0000000001
 43
0.0000000001
 44
0.00000001
 40
0.0
 40
0.0
 40
0.0
 40
0.0
 40
0.1312911944544428
 40
0.2626255806797642
 40
0.3227118843922253
 40
0.3827399628678088
 40
0.4404729026890484
 40
0.4981360903605579
 40
0.4981360903605579
 40
0.4981360903605579
 40
0.4981360903605579
 10
108.4477399665
 20
279.1021159639
 30
0.0
 10
108.4830665845265
 20
279.0760853730495
 30
0.0
 10
108.5537314422211
 20
279.0240156278851
 30
0.0
 10
108.6232402932692
 20
278.9403363185509
 30
0.0
 10
108.6664954376399
 20
278.8684404370193
 30
0.0
 10
108.6912133404245
 20
278.8144343362033
 30
0.0
 10
108.7100525528146
 20
278.7588893052576
 30
0.0
 10
108.7171028896832
 20
278.7210327834559
 30
0.0
 10
108.7206259273
 20
278.7021159639
 30
0.0
 11
108.4477399665
 21
279.1021159639
 31
0.0
 11
108.5501964837441
 21
279.0200182184042
 31
0.0
 11
108.6346787276671
 21
278.9194624057084
 31
0.0
 11
108.6655123512689
 21
278.8678905960697
 31
0.0
 11
108.6905656586115
 21
278.8133406006833
 31
0.0
 11
108.7087228483332
 21
278.7585372358065
 31
0.0
 11
108.7206259273
 21
278.7021159639
 31
0.0
  0
SPLINE
  5
108
330
1F
100
AcDbEntity
  8
FASEN
  6
Continuous
 62
     7
100
AcDbSpline
210
0.0
220
0.0
230
1.0
 70
     8
 71
     3
 72
    41
 73
    37
 74
    35
 42
0.0000000001
 43
0.0000000001
 44
0.00000001
 40
0.0
 40
0.0
 40
0.0
 40
0.0
 40
0.3535888544411109
 40
0.7075507290320848
 40
1.060684841002926
 40
1.413709983456051
 40
1.765779918108093
 40
2.117876005244949
 40
2.469055569706422
 40
2.820227711317445
 40
3.171084425301391
 40
3.521941346675387
 40
3.873160085285858
 40
4.224381765488093
 40
4.576461723144395
 40
4.928542604244867
 40
5.281581803892446
 40
5.634626310535398
 40
5.988339657508794
 40
6.342041478580476
 40
6.695908397088717
 40
7.049820838131855
 40
7.403595216349409
 40
7.757194007978785
 40
7.933994428179346
 40
8.110739696235663
 40
8.287420502985553
 40
8.464157456737048
 40
8.817287503391821
 40
9.170592253489128
 40
9.523997521748452
 40
9.877334047614976
 40
10.23089310709663
 40
10.5845679153591
 40
10.93860935651463
 40
11.29227461529485
 40
11.29227461529485
 40
11.29227461529485
 40
11.29227461529485
 10
84.9129532309
 20
284.7196159639
 30
0.0
 10
84.90964462069005
 20
284.601704371706
 30
0.0
 10
84.90302390983689
 20
284.3657567959543
 30
0.0
 10
84.8491470769377
 20
284.0154518516331
 30
0.0
 10
84.7639137887911
 20
283.6720658279084
 30
0.0
 10
84.64508532309148
 20
283.3392846210045
 30
0.0
 10
84.49442263801208
 20
283.0201091021514
 30
0.0
 10
84.3134726911187
 20
282.7177633570087
 30
0.0
 10
84.10377153047268
 20
282.4349837985512
 30
0.0
 10
83.86761035560164
 20
282.1744500818999
 30
0.0
 10
83.60699092142909
 20
281.9385469063306
 30
0.0
 10
83.32448916787015
 20
281.7293189530056
 30
0.0
 10
83.02264715019547
 20
281.5488747344856
 30
0.0
 10
82.70424892233088
 20
281.3986243759686
 30
0.0
 10
82.37238925386525
 20
281.2802002051885
 30
0.0
 10
82.02999829814868
 20
281.1944797248116
 30
0.0
 10
81.68055970359546
 20
281.1425176274937
 30
0.0
 10
81.32718830665118
 20
281.1246607896351
 30
0.0
 10
80.97353377313001
 20
281.1412748473596
 30
0.0
 10
80.62288175942317
 20
281.1921188971812
 30
0.0
 10
80.2787823614373
 20
281.276886251945
 30
0.0
 10
79.94452489945877
 20
281.3947178555997
 30
0.0
 10
79.62349015545188
 20
281.5446311334968
 30
0.0
 10
79.36944386613578
 20
281.6950576151163
 30
0.0
 10
79.17600225472367
 20
281.8298880337665
 30
0.0
 10
79.03609379735778
 20
281.9380053710327
 30
0.0
 10
78.90166905012163
 20
282.0528368980854
 30
0.0
 10
78.73028429478535
 20
282.2144918159724
 30
0.0
 10
78.5313383565004
 20
282.4321908343891
 30
0.0
 10
78.3194646529889
 20
282.7155861592789
 30
0.0
 10
78.13666562894784
 20
283.0186626869714
 30
0.0
 10
77.98463244885556
 20
283.3383436745826
 30
0.0
 10
77.86473296506742
 20
283.6715775767419
 30
0.0
 10
77.77878253322673
 20
284.0151897254031
 30
0.0
 10
77.72450509424309
 20
284.3656796161379
 30
0.0
 10
77.71780478269471
 20
284.6016789965673
 30
0.0
 10
77.7144564077
 20
284.7196159639
 30
0.0
 11
84.9129532309
 21
284.7196159639
 31
0.0
 11
84.89570540357272
 21
284.3664480287226
 31
0.0
 11
84.84385934307998
 21
284.0163037803401
 31
0.0
 11
84.75827337532348
 21
283.6736979672537
 31
0.0
 11
84.6396362149737
 21
283.3412043953035
 31
0.0
 11
84.48933067152743
 21
283.0228312141227
 31
0.0
 11
84.30848332093309
 21
282.7207287640166
 31
0.0
 11
84.09931752940025
 21
282.4386352367109
 31
0.0
 11
83.86344690599473
 21
282.1784681326067
 31
0.0
 11
83.6033470969646
 21
281.9429930318208
 31
0.0
 11
83.32138305004565
 21
281.7341944314397
 31
0.0
 11
83.01994926346401
 21
281.553938295183
 31
0.0
 11
82.702314140723
 21
281.404056350155
 31
0.0
 11
82.37073109109984
 21
281.2856799260416
 31
0.0
 11
82.02918968410474
 21
281.2001789661389
 31
0.0
 11
81.67999620437337
 21
281.1482117630113
 31
0.0
 11
81.32740097679212
 21
281.1304064503857
 31
0.0
 11
80.97407599636652
 21
281.1469772087985
 31
0.0
 11
80.62403872678284
 21
281.1977599630742
 31
0.0
 11
80.28044132830286
 21
281.2823922487121
 31
0.0
 11
79.94667250143134
 21
281.4000884089465
 31
0.0
 11
79.62612105554453
 21
281.5497649977074
 31
0.0
 11
79.32189181115189
 21
281.7299778504623
 31
0.0
 11
79.1768436966433
 21
281.8310690620516
 31
0.0
 11
79.0369882401177
 21
281.939140062141
 31
0.0
 11
78.90265374666996
 21
282.053902213323
 31
0.0
 11
78.77409137501125
 21
282.1751773856166
 31
0.0
 11
78.53585288153778
 21
282.4358366461041
 31
0.0
 11
78.32433611142734
 21
282.7188294064415
 31
0.0
 11
78.14178881193983
 21
283.0214376797641
 31
0.0
 11
77.99002189221865
 21
283.3405199616128
 31
0.0
 11
77.87041338390955
 21
283.6732327706262
 31
0.0
 11
77.78408798068551
 21
284.0162106048338
 31
0.0
 11
77.73186638051777
 21
284.3663794877052
 31
0.0
 11
77.7144564077
 21
284.7196159639
 31
0.0
  0
SPLINE
  5
109
330
1F
100
AcDbEntity
  8
0
  6
Continuous
 62
     7
100
AcDbSpline
210
0.0
220
0.0
230
1.0
 70
     8
 71
     3
 72
    11
 73
     7
 74
     5
 42
0.0000000001
 43
0.0000000001
 44
0.00000001
 40
0.0
 40
0.0
 40
0.0
 40
0.0
 40
0.4419689634229278
 40
0.8839020538983778
 40
1.150518561921212
 40
1.416734593101684
 40
1.416734593101684
 40
1.416734593101684
 40
1.416734593101684
 10
64.65019502909999
 20
277.0696159639
 30
0.0
 10
64.71889512926293
 20
277.2001402080896
 30
0.0
 10
64.8562897534618
 20
277.4611781023103
 30
0.0
 10
64.98121592503865
 20
277.8253471338896
 30
0.0
 10
65.05125229042588
 20
278.1437328647559
 30
0.0
 10
65.0595560567117
 20
278.3214596176506
 30
0.0
 10
65.0637048193
 20
278.4102562044
 30
0.0
 11
64.65019502909999
 21
277.0696159639
 31
0.0
 11
64.84593990478352
 21
277.4658740972837
 31
0.0
 11
64.99012712558937
 21
277.8836239049599
 31
0.0
 11
65.0437748053434
 21
278.1447872423702
 31
0.0
 11
65.0637048193
 21
278.4102562044
 31
0.0
  0
SPLINE
  5
10A
330
1F
100
AcDbEntity
  8
0
  6
Continuous
 62
     7
100
AcDbSpline
210
0.0
220
0.0
230
1.0
 70
     8
 71
     3
 72
    11
 73
     7
 74
     5
 42
0.0000000001
 43
0.0000000001
 44
0.00000001
 40
0.0
 40
0.0
 40
0.0
 40
0.0
 40
0.3847579054172384
 40
0.7696659747328183
 40
1.09318324415777
 40
1.41657080945217
 40
1.41657080945217
 40
1.41657080945217
 40
1.41657080945217
 10
65.0637048193
 20
291.0289757233
 30
0.0
 10
65.05507678151585
 20
291.1573222956466
 30
0.0
 10
65.03781733858389
 20
291.4140655316347
 30
0.0
 10
64.9319694205896
 20
291.7651598101813
 30
0.0
 10
64.80319127570918
 20
292.0843524766252
 30
0.0
 10
64.70118696069653
 20
292.2745408457029
 30
0.0
 10
64.65019502909999
 20
292.3696159639
 30
0.0
 11
65.0637048193
 21
291.0289757233
 31
0.0
 11
65.02351034602022
 21
291.4116283727078
 31
0.0
 11
64.92017325682897
 21
291.7824054861085
 31
0.0
 11
64.79785654501785
 21
292.0819084838028
 31
0.0
 11
64.65019502909999
 21
292.3696159639
 31
0.0
  0
ARC
  5
10B
330
1F
100
AcDbEntity
  8
1
  6
Continuous
 62
     7
100
AcDbCircle
 10
118.7637048193
 20
263.7196159639
 30
0.0
 40
4.0
100
AcDbArc
 50
90.0
 51
180.0
  0
ARC
  5
10C
330
1F
100
AcDbEntity
  8
1
  6
Continuous
 62
     7
100
AcDbCircle
 10
118.7637048193
 20
305.7196159639
 30
0.0
 40
4.0
100
AcDbArc
 50
180.0
 51
270.0
  0
DIMENSION
  5
117
330
1F
100
AcDbEntity
  8
1
100
AcDbDimension
  2
*D2
 10
229.118881407583
 20
292.7196159639
 30
0.0
 11
225.368881407583
 21
284.696673073539
 31
0.0
 70
    32
  1
<>
 71
     5
 42
-1.0
 53
90.0
  3
ME10_DIM_10
100
AcDbAlignedDimension
 13
218.8137048193
 23
276.7196159639
 33
0.0
 14
218.8137048193
 24
292.7196159639
 34
0.0
 50
90.0
100
AcDbRotatedDimension
  0
DIMENSION
  5
122
330
1F
100
AcDbEntity
  8
1
100
AcDbDimension
  2
*D3
 10
237.585941638487
 20
298.2196159638466
 30
0.0
 11
233.835941638487
 21
285.035355482776
 31
0.0
 70
    32
  1
<>
 71
     5
 42
-1.0
 53
90.0
  3
ME10_DIM_11
100
AcDbAlignedDimension
 13
218.8137048193
 23
271.2196159638486
 33
0.0
 14
218.8137048193
 24
298.2196159638467
 34
0.0
 50
90.0
100
AcDbRotatedDimension
  0
DIMENSION
  5
12D
330
1F
100
AcDbEntity
  8
1
100
AcDbDimension
  2
*D4
 10
244.7660087142931
 20
301.7196159639
 30
0.0
 11
241.0160087142931
 21
285.441774373859
 31
0.0
 70
    32
  1
<>
 71
     5
 42
-1.0
 53
90.0
  3
ME10_DIM_12
100
AcDbAlignedDimension
 13
174.3419882427001
 23
267.7196159639
 33
0.0
 14
174.3419882427001
 24
301.7196159639
 34
0.0
 50
90.0
100
AcDbRotatedDimension
  0
DIMENSION
  5
138
330
1F
100
AcDbEntity
  8
1
100
AcDbDimension
  2
*D5
 10
218.8137048193
 20
317.581749921852
 30
0.0
 11
167.0219600865492
 21
321.331749921852
 31
0.0
 70
    32
  1
<>
 71
     5
 42
-1.0
 53
0.00013888888889
  3
ME10_DIM_13
100
AcDbAlignedDimension
 13
114.7637048193
 23
309.7195659454
 33
0.0
 14
218.8137048193
 24
297.2952254722
 34
0.0
100
AcDbRotatedDimension
  0
DIMENSION
  5
143
330
1F
100
AcDbEntity
  8
1
100
AcDbDimension
  2
*D6
 10
218.8137048193001
 20
324.633366352121
 30
0.0
 11
153.4713306212682
 21
328.383366352121
 31
0.0
 70
    32
  1
<>
 71
     5
 42
-1.0
 53
0.00013888888889
  3
ME10_DIM_14
100
AcDbAlignedDimension
 13
88.8137048193
 23
309.7196159639
 33
0.0
 14
218.8137048193
 24
297.2952254722
 34
0.0
100
AcDbRotatedDimension
  0
DIMENSION
  5
14E
330
1F
100
AcDbEntity
  8
1
100
AcDbDimension
  2
*D7
 10
63.91370481930002
 20
331.59457744354
 30
0.0
 11
144.3940365618855
 21
335.34457744354
 31
0.0
 70
    32
  1
<>
 71
     5
 42
-1.0
 53
0.00013888888889
  3
ME10_DIM_15
100
AcDbAlignedDimension
 13
218.8137048193
 23
297.2952254722
 33
0.0
 14
63.91370481929999
 24
301.775971745
 34
0.0
100
AcDbRotatedDimension
  0
INSERT
  5
155
330
1F
100
AcDbEntity
  8
1
100
AcDbBlockReference
  2
*D8
 10
0.0
 20
0.0
 30
0.0
  0
DIMENSION
  5
160
330
1F
100
AcDbEntity
  8
1
100
AcDbDimension
  2
*D9
 10
200.5754535435593
 20
300.6889003050239
 30
0.0
 11
203.649921600504
 21
308.1435877439291
 31
0.0
 70
    37
  1
<>
 71
     5
 42
-1.0
  3
ME10_DIM_16
100
AcDb3PointAngularDimension
 13
200.5147627856628
 23
299.659773934986
 33
0.0
 14
176.96735883837
 24
301.7196159639
 34
0.0
 15
174.3419882427001
 25
301.7196159639
 35
0.0
  0
ENDSEC
  0
SECTION
  2
OBJECTS
  0
DICTIONARY
  5
C
330
0
100
AcDbDictionary
281
     1
  3
ACAD_GROUP
350
D
  3
ACAD_LAYOUT
350
1A
  3
ACAD_MLEADERSTYLE
350
163
  3
ACAD_MLINESTYLE
350
17
  3
ACAD_PLOTSETTINGS
350
19
  3
ACAD_PLOTSTYLENAME
350
E
  3
ACAD_SCALELIST
350
4B
  3
ACAD_VISUALSTYLE
350
2A
  3
AcDbVariableDictionary
350
161
  0
DICTIONARY
  5
D
102
{ACAD_REACTORS
330
C
102
}
330
C
100
AcDbDictionary
281
     1
  0
DICTIONARY
  5
1A
102
{ACAD_REACTORS
330
C
102
}
330
C
100
AcDbDictionary
281
     1
  3
Layout1
350
1E
  3
Layout2
350
26
  3
Model
350
22
  0
DICTIONARY
  5
163
102
{ACAD_REACTORS
330
C
102
}
330
C
100
AcDbDictionary
281
     1
  0
DICTIONARY
  5
17
102
{ACAD_REACTORS
330
C
102
}
330
C
100
AcDbDictionary
281
     1
  3
Standard
350
18
  0
DICTIONARY
  5
19
102
{ACAD_REACTORS
330
C
102
}
330
C
100
AcDbDictionary
281
     1
  0
ACDBDICTIONARYWDFLT
  5
E
102
{ACAD_REACTORS
330
C
102
}
330
C
100
AcDbDictionary
281
     1
  3
Normal
350
F
100
AcDbDictionaryWithDefault
340
F
  0
DICTIONARY
  5
4B
102
{ACAD_REACTORS
330
C
102
}
330
C
100
AcDbDictionary
281
     1
  3
A0
350
4C
  3
A1
350
4D
  3
A2
350
4E
  3
A3
350
4F
  3
A4
350
50
  3
A5
350
51
  3
A6
350
52
  3
A7
350
53
  3
A8
350
54
  3
A9
350
55
  3
B0
350
56
  3
B1
350
57
  3
B2
350
58
  3
B3
350
59
  3
B4
350
5A
  3
B5
350
5B
  3
B6
350
5C
  3
B7
350
5D
  3
B8
350
5E
  3
B9
350
5F
  3
C0
350
60
  3
C1
350
61
  3
C2
350
62
  3
C3
350
63
  3
C4
350
64
  3
C5
350
65
  3
C6
350
66
  3
C7
350
67
  3
C8
350
68
  3
C9
350
69
  3
D0
350
6A
  3
D1
350
6B
  3
D2
350
6C
  0
DICTIONARY
  5
2A
102
{ACAD_REACTORS
330
C
102
}
330
C
100
AcDbDictionary
281
     1
  3
2dWireframe
350
2F
  3
3D Hidden
350
31
  3
3dWireframe
350
30
  3
Basic
350
32
  3
Brighten
350
36
  3
ColorChange
350
3A
  3
Conceptual
350
34
  3
Dim
350
35
  3
Facepattern
350
39
  3
Flat
350
2B
  3
FlatWithEdges
350
2C
  3
Gouraud
350
2D
  3
GouraudWithEdges
350
2E
  3
Linepattern
350
38
  3
Realistic
350
33
  3
Thicken
350
37
  0
DICTIONARY
  5
161
102
{ACAD_REACTORS
330
C
102
}
330
C
100
AcDbDictionary
281
     1
  3
CANNOSCALE
350
164
  0
LAYOUT
  5
1E
102
{ACAD_REACTORS
330
1A
102
}
330
1A
100
AcDbPlotSettings
  1

  2
none_device
  4

  6

 40
0.0
 41
0.0
 42
0.0
 43
0.0
 44
0.0
 45
0.0
 46
0.0
 47
0.0
 48
0.0
 49
0.0
140
0.0
141
0.0
142
1.0
143
1.0
 70
   688
 72
     0
 73
     0
 74
     5
  7

 75
    16
147
1.0
148
0.0
149
0.0
100
AcDbLayout
  1
Layout1
 70
     1
 71
     1
 10
0.0
 20
0.0
 11
12.0
 21
9.0
 12
0.0
 22
0.0
 32
0.0
 14
1.00000000000000E+20
 24
1.00000000000000E+20
 34
1.00000000000000E+20
 15
-1.00000000000000E+20
 25
-1.00000000000000E+20
 35
-1.00000000000000E+20
146
0.0
 13
0.0
 23
0.0
 33
0.0
 16
1.0
 26
0.0
 36
0.0
 17
0.0
 27
1.0
 37
0.0
 76
     0
330
1B
  0
LAYOUT
  5
26
102
{ACAD_REACTORS
330
1A
102
}
330
1A
100
AcDbPlotSettings
  1

  2
none_device
  4

  6

 40
0.0
 41
0.0
 42
0.0
 43
0.0
 44
0.0
 45
0.0
 46
0.0
 47
0.0
 48
0.0
 49
0.0
140
0.0
141
0.0
142
1.0
143
1.0
 70
   688
 72
     0
 73
     0
 74
     5
  7

 75
    16
147
1.0
148
0.0
149
0.0
100
AcDbLayout
  1
Layout2
 70
     1
 71
     2
 10
0.0
 20
0.0
 11
0.0
 21
0.0
 12
0.0
 22
0.0
 32
0.0
 14
0.0
 24
0.0
 34
0.0
 15
0.0
 25
0.0
 35
0.0
146
0.0
 13
0.0
 23
0.0
 33
0.0
 16
1.0
 26
0.0
 36
0.0
 17
0.0
 27
1.0
 37
0.0
 76
     0
330
23
  0
LAYOUT
  5
22
102
{ACAD_REACTORS
330
1A
102
}
330
1A
100
AcDbPlotSettings
  1

  2
none_device
  4

  6

 40
0.0
 41
0.0
 42
0.0
 43
0.0
 44
0.0
 45
0.0
 46
0.0
 47
0.0
 48
0.0
 49
0.0
140
0.0
141
0.0
142
1.0
143
1.0
 70
  1712
 72
     0
 73
     0
 74
     0
  7

 75
     0
147
1.0
148
0.0
149
0.0
100
AcDbLayout
  1
Model
 70
     1
 71
     0
 10
0.0
 20
0.0
 11
12.0
 21
9.0
 12
0.0
 22
0.0
 32
0.0
 14
60.78870481930002
 24
241.6467898344777
 34
0.0
 15
246.7660087142931
 25
337.09457744354
 35
0.0
146
0.0
 13
0.0
 23
0.0
 33
0.0
 16
1.0
 26
0.0
 36
0.0
 17
0.0
 27
1.0
 37
0.0
 76
     0
330
1F
331
29
  0
MLINESTYLE
  5
18
102
{ACAD_REACTORS
330
17
102
}
330
17
100
AcDbMlineStyle
  2
Standard
 70
     0
  3

 62
   256
 51
90.0
 52
90.0
 71
     2
 49
0.5
 62
   256
  6
BYLAYER
 49
-0.5
 62
   256
  6
BYLAYER
  0
ACDBPLACEHOLDER
  5
F
102
{ACAD_REACTORS
330
E
102
}
330
E
  0
SCALE
  5
4C
102
{ACAD_REACTORS
330
4B
102
}
330
4B
100
AcDbScale
 70
     0
300
1:1
140
1.0
141
1.0
290
     1
  0
SCALE
  5
4D
102
{ACAD_REACTORS
330
4B
102
}
330
4B
100
AcDbScale
 70
     0
300
1:2
140
1.0
141
2.0
290
     0
  0
SCALE
  5
4E
102
{ACAD_REACTORS
330
4B
102
}
330
4B
100
AcDbScale
 70
     0
300
1:4
140
1.0
141
4.0
290
     0
  0
SCALE
  5
4F
102
{ACAD_REACTORS
330
4B
102
}
330
4B
100
AcDbScale
 70
     0
300
1:5
140
1.0
141
5.0
290
     0
  0
SCALE
  5
50
102
{ACAD_REACTORS
330
4B
102
}
330
4B
100
AcDbScale
 70
     0
300
1:8
140
1.0
141
8.0
290
     0
  0
SCALE
  5
51
102
{ACAD_REACTORS
330
4B
102
}
330
4B
100
AcDbScale
 70
     0
300
1:10
140
1.0
141
10.0
290
     0
  0
SCALE
  5
52
102
{ACAD_REACTORS
330
4B
102
}
330
4B
100
AcDbScale
 70
     0
300
1:16
140
1.0
141
16.0
290
     0
  0
SCALE
  5
53
102
{ACAD_REACTORS
330
4B
102
}
330
4B
100
AcDbScale
 70
     0
300
1:20
140
1.0
141
20.0
290
     0
  0
SCALE
  5
54
102
{ACAD_REACTORS
330
4B
102
}
330
4B
100
AcDbScale
 70
     0
300
1:30
140
1.0
141
30.0
290
     0
  0
SCALE
  5
55
102
{ACAD_REACTORS
330
4B
102
}
330
4B
100
AcDbScale
 70
     0
300
1:40
140
1.0
141
40.0
290
     0
  0
SCALE
  5
56
102
{ACAD_REACTORS
330
4B
102
}
330
4B
100
AcDbScale
 70
     0
300
1:50
140
1.0
141
50.0
290
     0
  0
SCALE
  5
57
102
{ACAD_REACTORS
330
4B
102
}
330
4B
100
AcDbScale
 70
     0
300
1:100
140
1.0
141
100.0
290
     0
  0
SCALE
  5
58
102
{ACAD_REACTORS
330
4B
102
}
330
4B
100
AcDbScale
 70
     0
300
2:1
140
2.0
141
1.0
290
     0
  0
SCALE
  5
59
102
{ACAD_REACTORS
330
4B
102
}
330
4B
100
AcDbScale
 70
     0
300
4:1
140
4.0
141
1.0
290
     0
  0
SCALE
  5
5A
102
{ACAD_REACTORS
330
4B
102
}
330
4B
100
AcDbScale
 70
     0
300
8:1
140
8.0
141
1.0
290
     0
  0
SCALE
  5
5B
102
{ACAD_REACTORS
330
4B
102
}
330
4B
100
AcDbScale
 70
     0
300
10:1
140
10.0
141
1.0
290
     0
  0
SCALE
  5
5C
102
{ACAD_REACTORS
330
4B
102
}
330
4B
100
AcDbScale
 70
     0
300
100:1
140
100.0
141
1.0
290
     0
  0
SCALE
  5
5D
102
{ACAD_REACTORS
330
4B
102
}
330
4B
100
AcDbScale
 70
     0
300
1/128" = 1'-0"
140
0.0078125
141
12.0
290
     0
  0
SCALE
  5
5E
102
{ACAD_REACTORS
330
4B
102
}
330
4B
100
AcDbScale
 70
     0
300
1/64" = 1'-0"
140
0.015625
141
12.0
290
     0
  0
SCALE
  5
5F
102
{ACAD_REACTORS
330
4B
102
}
330
4B
100
AcDbScale
 70
     0
300
1/32" = 1'-0"
140
0.03125
141
12.0
290
     0
  0
SCALE
  5
60
102
{ACAD_REACTORS
330
4B
102
}
330
4B
100
AcDbScale
 70
     0
300
1/16" = 1'-0"
140
0.0625
141
12.0
290
     0
  0
SCALE
  5
61
102
{ACAD_REACTORS
330
4B
102
}
330
4B
100
AcDbScale
 70
     0
300
3/32" = 1'-0"
140
0.09375
141
12.0
290
     0
  0
SCALE
  5
62
102
{ACAD_REACTORS
330
4B
102
}
330
4B
100
AcDbScale
 70
     0
300
1/8" = 1'-0"
140
0.125
141
12.0
290
     0
  0
SCALE
  5
63
102
{ACAD_REACTORS
330
4B
102
}
330
4B
100
AcDbScale
 70
     0
300
3/16" = 1'-0"
140
0.1875
141
12.0
290
     0
  0
SCALE
  5
64
102
{ACAD_REACTORS
330
4B
102
}
330
4B
100
AcDbScale
 70
     0
300
1/4" = 1'-0"
140
0.25
141
12.0
290
     0
  0
SCALE
  5
65
102
{ACAD_REACTORS
330
4B
102
}
330
4B
100
AcDbScale
 70
     0
300
3/8" = 1'-0"
140
0.375
141
12.0
290
     0
  0
SCALE
  5
66
102
{ACAD_REACTORS
330
4B
102
}
330
4B
100
AcDbScale
 70
     0
300
1/2" = 1'-0"
140
0.5
141
12.0
290
     0
  0
SCALE
  5
67
102
{ACAD_REACTORS
330
4B
102
}
330
4B
100
AcDbScale
 70
     0
300
3/4" = 1'-0"
140
0.75
141
12.0
290
     0
  0
SCALE
  5
68
102
{ACAD_REACTORS
330
4B
102
}
330
4B
100
AcDbScale
 70
     0
300
1" = 1'-0"
140
1.0
141
12.0
290
     0
  0
SCALE
  5
69
102
{ACAD_REACTORS
330
4B
102
}
330
4B
100
AcDbScale
 70
     0
300
1-1/2" = 1'-0"
140
1.5
141
12.0
290
     0
  0
SCALE
  5
6A
102
{ACAD_REACTORS
330
4B
102
}
330
4B
100
AcDbScale
 70
     0
300
3" = 1'-0"
140
3.0
141
12.0
290
     0
  0
SCALE
  5
6B
102
{ACAD_REACTORS
330
4B
102
}
330
4B
100
AcDbScale
 70
     0
300
6" = 1'-0"
140
6.0
141
12.0
290
     0
  0
SCALE
  5
6C
102
{ACAD_REACTORS
330
4B
102
}
330
4B
100
AcDbScale
 70
     0
300
1'-0" = 1'-0"
140
12.0
141
12.0
290
     0
  0
VISUALSTYLE
  5
2F
102
{ACAD_REACTORS
330
2A
102
}
330
2A
100
AcDbVisualStyle
  2
2dWireframe
 70
     4
 71
     0
 72
     2
 73
     0
 90
        0
 40
-0.6
 41
-30.0
 62
     5
 63
     7
 74
     1
 91
        4
 64
     7
 65
   257
 75
     1
175
     1
 42
1.0
 92
        0
 66
   257
 43
1.0
 76
     1
 77
     6
 78
     2
 67
     7
 79
     5
170
     0
171
     0
290
     0
174
     0
 93
        1
 44
0.0
173
     0
291
     0
 45
0.0
1001
ACAD
1000
AcDbSavedByObjectVersion
1070
     0
  0
VISUALSTYLE
  5
31
102
{ACAD_REACTORS
330
2A
102
}
330
2A
100
AcDbVisualStyle
  2
3D Hidden
 70
     6
 71
     1
 72
     2
 73
     2
 90
        0
 40
-0.6
 41
-30.0
 62
     5
 63
     7
 74
     2
 91
        2
 64
     7
 65
   257
 75
     2
175
     1
 42
40.0
 92
        0
 66
   257
 43
1.0
 76
     1
 77
     6
 78
     2
 67
     7
 79
     3
170
     0
171
     0
290
     0
174
     0
 93
        1
 44
0.0
173
     0
291
     0
 45
0.0
1001
ACAD
1000
AcDbSavedByObjectVersion
1070
     0
  0
VISUALSTYLE
  5
30
102
{ACAD_REACTORS
330
2A
102
}
330
2A
100
AcDbVisualStyle
  2
3dWireframe
 70
     5
 71
     0
 72
     2
 73
     0
 90
        0
 40
-0.6
 41
-30.0
 62
     5
 63
     7
 74
     1
 91
        4
 64
     7
 65
   257
 75
     1
175
     1
 42
1.0
 92
        0
 66
   257
 43
1.0
 76
     1
 77
     6
 78
     2
 67
     7
 79
     5
170
     0
171
     0
290
     0
174
     0
 93
        1
 44
0.0
173
     0
291
     0
 45
0.0
1001
ACAD
1000
AcDbSavedByObjectVersion
1070
     0
  0
VISUALSTYLE
  5
32
102
{ACAD_REACTORS
330
2A
102
}
330
2A
100
AcDbVisualStyle
  2
Basic
 70
     7
 71
     1
 72
     0
 73
     1
 90
        0
 40
-0.6
 41
-30.0
 62
     5
 63
     7
 74
     0
 91
        4
 64
     7
 65
   257
 75
     1
175
     1
 42
1.0
 92
        8
 66
     7
 43
1.0
 76
     1
 77
     6
 78
     2
 67
     7
 79
     5
170
     0
171
     0
290
     0
174
     0
 93
        1
 44
0.0
173
     0
291
     1
 45
0.0
1001
ACAD
1000
AcDbSavedByObjectVersion
1070
     0
  0
VISUALSTYLE
  5
36
102
{ACAD_REACTORS
330
2A
102
}
330
2A
100
AcDbVisualStyle
  2
Brighten
 70
    12
 71
     2
 72
     2
 73
     0
 90
        0
 40
-0.6
 41
-30.0
 62
     5
 63
     7
 74
     1
 91
        4
 64
     7
 65
   257
 75
     1
175
     1
 42
1.0
 92
        8
 66
     7
 43
1.0
 76
     1
 77
     6
 78
     2
 67
     7
 79
     5
170
     0
171
     0
290
     0
174
     0
 93
        1
 44
50.0
173
     0
291
     1
 45
0.0
1001
ACAD
1000
AcDbSavedByObjectVersion
1070
     0
  0
VISUALSTYLE
  5
3A
102
{ACAD_REACTORS
330
2A
102
}
330
2A
100
AcDbVisualStyle
  2
ColorChange
 70
    16
 71
     2
 72
     2
 73
     3
 90
        0
 40
-0.6
 41
-30.0
 62
     5
 63
     8
 74
     1
 91
        4
 64
     7
 65
   257
 75
     1
175
     1
 42
1.0
 92
        8
 66
     8
 43
1.0
 76
     1
 77
     6
 78
     2
 67
     7
 79
     5
170
     0
171
     0
290
     0
174
     0
 93
        1
 44
0.0
173
     0
291
     1
 45
0.0
1001
ACAD
1000
AcDbSavedByObjectVersion
1070
     0
  0
VISUALSTYLE
  5
34
102
{ACAD_REACTORS
330
2A
102
}
330
2A
100
AcDbVisualStyle
  2
Conceptual
 70
     9
 71
     3
 72
     2
 73
     0
 90
        0
 40
-0.6
 41
-30.0
 62
     5
 63
     7
 74
     2
 91
        2
 64
     7
 65
   257
 75
     1
175
     1
 42
40.0
 92
        8
 66
     7
 43
1.0
 76
     1
 77
     6
 78
     2
 67
     7
 79
     3
170
     0
171
     0
290
     0
174
     0
 93
        1
 44
0.0
173
     0
291
     0
 45
0.0
1001
ACAD
1000
AcDbSavedByObjectVersion
1070
     0
  0
VISUALSTYLE
  5
35
102
{ACAD_REACTORS
330
2A
102
}
330
2A
100
AcDbVisualStyle
  2
Dim
 70
    11
 71
     2
 72
     2
 73
     0
 90
        0
 40
-0.6
 41
-30.0
 62
     5
 63
     7
 74
     1
 91
        4
 64
     7
 65
   257
 75
     1
175
     1
 42
1.0
 92
        8
 66
     7
 43
1.0
 76
     1
 77
     6
 78
     2
 67
     7
 79
     5
170
     0
171
     0
290
     0
174
     0
 93
        1
 44
-50.0
173
     0
291
     1
 45
0.0
1001
ACAD
1000
AcDbSavedByObjectVersion
1070
     0
  0
VISUALSTYLE
  5
39
102
{ACAD_REACTORS
330
2A
102
}
330
2A
100
AcDbVisualStyle
  2
Facepattern
 70
    15
 71
     2
 72
     2
 73
     0
 90
        0
 40
-0.6
 41
-30.0
 62
     5
 63
     7
 74
     1
 91
        4
 64
     7
 65
   257
 75
     1
175
     1
 42
1.0
 92
        8
 66
     7
 43
1.0
 76
     1
 77
     6
 78
     2
 67
     7
 79
     5
170
     0
171
     0
290
     0
174
     0
 93
        1
 44
0.0
173
     0
291
     1
 45
0.0
1001
ACAD
1000
AcDbSavedByObjectVersion
1070
     0
  0
VISUALSTYLE
  5
2B
102
{ACAD_REACTORS
330
2A
102
}
330
2A
100
AcDbVisualStyle
  2
Flat
 70
     0
 71
     2
 72
     1
 73
     1
 90
        2
 40
-0.6
 41
30.0
 62
     5
 63
     7
 74
     0
 91
        4
 64
     7
 65
   257
 75
     1
175
     1
 42
1.0
 92
        8
 66
     7
 43
1.0
 76
     1
 77
     6
 78
     2
 67
     7
 79
     5
170
     0
171
     0
290
     0
174
     0
 93
       13
 44
0.0
173
     0
291
     1
 45
0.0
1001
ACAD
1000
AcDbSavedByObjectVersion
1070
     0
  0
VISUALSTYLE
  5
2C
102
{ACAD_REACTORS
330
2A
102
}
330
2A
100
AcDbVisualStyle
  2
FlatWithEdges
 70
     1
 71
     2
 72
     1
 73
     1
 90
        2
 40
-0.6
 41
30.0
 62
     5
 63
     7
 74
     1
 91
        4
 64
     7
 65
   257
 75
     1
175
     1
 42
1.0
 92
        0
 66
   257
 43
1.0
 76
     1
 77
     6
 78
     2
 67
     7
 79
     5
170
     0
171
     0
290
     0
174
     0
 93
       13
 44
0.0
173
     0
291
     1
 45
0.0
1001
ACAD
1000
AcDbSavedByObjectVersion
1070
     0
  0
VISUALSTYLE
  5
2D
102
{ACAD_REACTORS
330
2A
102
}
330
2A
100
AcDbVisualStyle
  2
Gouraud
 70
     2
 71
     2
 72
     2
 73
     1
 90
        2
 40
-0.6
 41
30.0
 62
     5
 63
     7
 74
     0
 91
        4
 64
     7
 65
   257
 75
     1
175
     1
 42
1.0
 92
        0
 66
     7
 43
1.0
 76
     1
 77
     6
 78
     2
 67
     7
 79
     5
170
     0
171
     0
290
     0
174
     0
 93
       13
 44
0.0
173
     0
291
     1
 45
0.0
1001
ACAD
1000
AcDbSavedByObjectVersion
1070
     0
  0
VISUALSTYLE
  5
2E
102
{ACAD_REACTORS
330
2A
102
}
330
2A
100
AcDbVisualStyle
  2
GouraudWithEdges
 70
     3
 71
     2
 72
     2
 73
     1
 90
        2
 40
-0.6
 41
30.0
 62
     5
 63
     7
 74
     1
 91
        4
 64
     7
 65
   257
 75
     1
175
     1
 42
1.0
 92
        0
 66
   257
 43
1.0
 76
     1
 77
     6
 78
     2
 67
     7
 79
     5
170
     0
171
     0
290
     0
174
     0
 93
       13
 44
0.0
173
     0
291
     1
 45
0.0
1001
ACAD
1000
AcDbSavedByObjectVersion
1070
     0
  0
VISUALSTYLE
  5
38
102
{ACAD_REACTORS
330
2A
102
}
330
2A
100
AcDbVisualStyle
  2
Linepattern
 70
    14
 71
     2
 72
     2
 73
     0
 90
        0
 40
-0.6
 41
-30.0
 62
     5
 63
     7
 74
     1
 91
        4
 64
     7
 65
   257
 75
     7
175
     7
 42
1.0
 92
        8
 66
     7
 43
1.0
 76
     1
 77
     6
 78
     2
 67
     7
 79
     5
170
     0
171
     0
290
     0
174
     0
 93
        1
 44
0.0
173
     0
291
     1
 45
0.0
1001
ACAD
1000
AcDbSavedByObjectVersion
1070
     0
  0
VISUALSTYLE
  5
33
102
{ACAD_REACTORS
330
2A
102
}
330
2A
100
AcDbVisualStyle
  2
Realistic
 70
     8
 71
     2
 72
     2
 73
     0
 90
        0
 40
-0.6
 41
-30.0
 62
     5
 63
     7
 74
     1
 91
        0
 64
     7
 65
   257
 75
     1
175
     1
 42
1.0
 92
        8
 66
     8
 43
1.0
 76
     1
 77
     6
 78
     2
 67
     7
 79
     5
170
     0
171
     0
290
     0
174
     0
 93
       13
 44
0.0
173
     0
291
     0
 45
0.0
1001
ACAD
1000
AcDbSavedByObjectVersion
1070
     0
  0
VISUALSTYLE
  5
37
102
{ACAD_REACTORS
330
2A
102
}
330
2A
100
AcDbVisualStyle
  2
Thicken
 70
    13
 71
     2
 72
     2
 73
     0
 90
        0
 40
-0.6
 41
-30.0
 62
     5
 63
     7
 74
     1
 91
        4
 64
     7
 65
   257
 75
     1
175
     1
 42
1.0
 92
       12
 66
     7
 43
1.0
 76
     1
 77
     6
 78
     2
 67
     7
 79
     5
170
     0
171
     0
290
     0
174
     0
 93
        1
 44
0.0
173
     0
291
     1
 45
0.0
1001
ACAD
1000
AcDbSavedByObjectVersion
1070
     0
  0
DICTIONARYVAR
  5
164
102
{ACAD_REACTORS
330
161
102
}
330
161
100
DictionaryVariables
280
     0
  1
1:1
  0
ENDSEC
  0
EOF
