  0
SECTION
  2
HEADER
  9
$ACADVER
  1
AC1015
  9
$ACADMAINTVER
 70
     6
  9
$DWGCODEPAGE
  3
ANSI_1252
  9
$INSBASE
 10
0.0
 20
0.0
 30
0.0
  9
$EXTMIN
 10
41.30112951810001
 20
262.5325670920406
 30
0.0
  9
$EXTMAX
 10
228.13986076786
 20
358.86459268173
 30
0.0
  9
$LIMMIN
 10
0.0
 20
0.0
  9
$LIMMAX
 10
12.0
 20
9.0
  9
$ORTHOMODE
 70
     0
  9
$REGENMODE
 70
     1
  9
$FILLMODE
 70
     1
  9
$QTEXTMODE
 70
     0
  9
$MIRRTEXT
 70
     1
  9
$LTSCALE
 40
1.0
  9
$ATTMODE
 70
     1
  9
$TEXTSIZE
 40
0.2
  9
$TRACEWID
 40
0.05
  9
$TEXTSTYLE
  7
Standard
  9
$CLAYER
  8
0
  9
$CELTYPE
  6
ByLayer
  9
$CECOLOR
 62
   256
  9
$CELTSCALE
 40
1.0
  9
$DISPSILH
 70
     0
  9
$DIMSCALE
 40
1.0
  9
$DIMASZ
 40
0.18
  9
$DIMEXO
 40
0.0625
  9
$DIMDLI
 40
0.38
  9
$DIMRND
 40
0.0
  9
$DIMDLE
 40
0.0
  9
$DIMEXE
 40
0.18
  9
$DIMTP
 40
0.0
  9
$DIMTM
 40
0.0
  9
$DIMTXT
 40
0.18
  9
$DIMCEN
 40
0.09
  9
$DIMTSZ
 40
0.0
  9
$DIMTOL
 70
     0
  9
$DIMLIM
 70
     0
  9
$DIMTIH
 70
     1
  9
$DIMTOH
 70
     1
  9
$DIMSE1
 70
     0
  9
$DIMSE2
 70
     0
  9
$DIMTAD
 70
     0
  9
$DIMZIN
 70
     0
  9
$DIMBLK
  1

  9
$DIMASO
 70
     1
  9
$DIMSHO
 70
     1
  9
$DIMPOST
  1

  9
$DIMAPOST
  1

  9
$DIMALT
 70
     0
  9
$DIMALTD
 70
     2
  9
$DIMALTF
 40
25.4
  9
$DIMLFAC
 40
1.0
  9
$DIMTOFL
 70
     0
  9
$DIMTVP
 40
0.0
  9
$DIMTIX
 70
     0
  9
$DIMSOXD
 70
     0
  9
$DIMSAH
 70
     0
  9
$DIMBLK1
  1

  9
$DIMBLK2
  1

  9
$DIMSTYLE
  2
Standard
  9
$DIMCLRD
 70
     0
  9
$DIMCLRE
 70
     0
  9
$DIMCLRT
 70
     0
  9
$DIMTFAC
 40
1.0
  9
$DIMGAP
 40
0.09
  9
$DIMJUST
 70
     0
  9
$DIMSD1
 70
     0
  9
$DIMSD2
 70
     0
  9
$DIMTOLJ
 70
     1
  9
$DIMTZIN
 70
     0
  9
$DIMALTZ
 70
     0
  9
$DIMALTTZ
 70
     0
  9
$DIMUPT
 70
     0
  9
$DIMDEC
 70
     4
  9
$DIMTDEC
 70
     4
  9
$DIMALTU
 70
     2
  9
$DIMALTTD
 70
     2
  9
$DIMTXSTY
  7
Standard
  9
$DIMAUNIT
 70
     0
  9
$DIMADEC
 70
     0
  9
$DIMALTRND
 40
0.0
  9
$DIMAZIN
 70
     0
  9
$DIMDSEP
 70
    46
  9
$DIMATFIT
 70
     3
  9
$DIMFRAC
 70
     0
  9
$DIMLDRBLK
  1

  9
$DIMLUNIT
 70
     2
  9
$DIMLWD
 70
    -2
  9
$DIMLWE
 70
    -2
  9
$DIMTMOVE
 70
     0
  9
$LUNITS
 70
     2
  9
$LUPREC
 70
     4
  9
$SKETCHINC
 40
0.1
  9
$FILLETRAD
 40
0.5
  9
$AUNITS
 70
     0
  9
$AUPREC
 70
     0
  9
$MENU
  1
.
  9
$ELEVATION
 40
0.0
  9
$PELEVATION
 40
0.0
  9
$THICKNESS
 40
0.0
  9
$LIMCHECK
 70
     0
  9
$CHAMFERA
 40
0.5
  9
$CHAMFERB
 40
0.5
  9
$CHAMFERC
 40
1.0
  9
$CHAMFERD
 40
0.0
  9
$SKPOLY
 70
     0
  9
$TDCREATE
 40
2456749.744043241
  9
$TDUCREATE
 40
2456749.660709907
  9
$TDUPDATE
 40
2456749.744043252
  9
$TDUUPDATE
 40
2456749.660709919
  9
$TDINDWG
 40
0.0000000116
  9
$TDUSRTIMER
 40
0.0000000116
  9
$USRTIMER
 70
     1
  9
$ANGBASE
 50
0.0
  9
$ANGDIR
 70
     0
  9
$PDMODE
 70
     0
  9
$PDSIZE
 40
0.0
  9
$PLINEWID
 40
0.0
  9
$SPLFRAME
 70
     0
  9
$SPLINETYPE
 70
     6
  9
$SPLINESEGS
 70
     8
  9
$HANDSEED
  5
165
  9
$SURFTAB1
 70
     6
  9
$SURFTAB2
 70
     6
  9
$SURFTYPE
 70
     6
  9
$SURFU
 70
     6
  9
$SURFV
 70
     6
  9
$UCSBASE
  2

  9
$UCSNAME
  2

  9
$UCSORG
 10
0.0
 20
0.0
 30
0.0
  9
$UCSXDIR
 10
1.0
 20
0.0
 30
0.0
  9
$UCSYDIR
 10
0.0
 20
1.0
 30
0.0
  9
$UCSORTHOREF
  2

  9
$UCSORTHOVIEW
 70
     0
  9
$UCSORGTOP
 10
0.0
 20
0.0
 30
0.0
  9
$UCSORGBOTTOM
 10
0.0
 20
0.0
 30
0.0
  9
$UCSORGLEFT
 10
0.0
 20
0.0
 30
0.0
  9
$UCSORGRIGHT
 10
0.0
 20
0.0
 30
0.0
  9
$UCSORGFRONT
 10
0.0
 20
0.0
 30
0.0
  9
$UCSORGBACK
 10
0.0
 20
0.0
 30
0.0
  9
$PUCSBASE
  2

  9
$PUCSNAME
  2

  9
$PUCSORG
 10
0.0
 20
0.0
 30
0.0
  9
$PUCSXDIR
 10
1.0
 20
0.0
 30
0.0
  9
$PUCSYDIR
 10
0.0
 20
1.0
 30
0.0
  9
$PUCSORTHOREF
  2

  9
$PUCSORTHOVIEW
 70
     0
  9
$PUCSORGTOP
 10
0.0
 20
0.0
 30
0.0
  9
$PUCSORGBOTTOM
 10
0.0
 20
0.0
 30
0.0
  9
$PUCSORGLEFT
 10
0.0
 20
0.0
 30
0.0
  9
$PUCSORGRIGHT
 10
0.0
 20
0.0
 30
0.0
  9
$PUCSORGFRONT
 10
0.0
 20
0.0
 30
0.0
  9
$PUCSORGBACK
 10
0.0
 20
0.0
 30
0.0
  9
$USERI1
 70
     0
  9
$USERI2
 70
     0
  9
$USERI3
 70
     0
  9
$USERI4
 70
     0
  9
$USERI5
 70
     0
  9
$USERR1
 40
16.5
  9
$USERR2
 40
0.0
  9
$USERR3
 40
0.0
  9
$USERR4
 40
0.0
  9
$USERR5
 40
0.0
  9
$WORLDVIEW
 70
     1
  9
$SHADEDGE
 70
     3
  9
$SHADEDIF
 70
    70
  9
$TILEMODE
 70
     1
  9
$MAXACTVP
 70
    64
  9
$PINSBASE
 10
0.0
 20
0.0
 30
0.0
  9
$PLIMCHECK
 70
     0
  9
$PEXTMIN
 10
1.00000000000000E+20
 20
1.00000000000000E+20
 30
1.00000000000000E+20
  9
$PEXTMAX
 10
-1.00000000000000E+20
 20
-1.00000000000000E+20
 30
-1.00000000000000E+20
  9
$PLIMMIN
 10
0.0
 20
0.0
  9
$PLIMMAX
 10
12.0
 20
9.0
  9
$UNITMODE
 70
     0
  9
$VISRETAIN
 70
     1
  9
$PLINEGEN
 70
     0
  9
$PSLTSCALE
 70
     1
  9
$TREEDEPTH
 70
  3020
  9
$CMLSTYLE
  2
Standard
  9
$CMLJUST
 70
     0
  9
$CMLSCALE
 40
1.0
  9
$PROXYGRAPHICS
 70
     1
  9
$MEASUREMENT
 70
     1
  9
$CELWEIGHT
370
    -1
  9
$ENDCAPS
280
     0
  9
$JOINSTYLE
280
     0
  9
$LWDISPLAY
290
     0
  9
$INSUNITS
 70
     1
  9
$HYPERLINKBASE
  1

  9
$STYLESHEET
  1

  9
$XEDIT
290
     1
  9
$CEPSNTYPE
380
     0
  9
$PSTYLEMODE
290
     1
  9
$FINGERPRINTGUID
  2
{5786AF10-2B3D-4EA8-9DDB-859A25080D2E}
  9
$VERSIONGUID
  2
{FAEB1C32-E019-11D5-929B-00C0DF256EC4}
  9
$EXTNAMES
290
     1
  9
$PSVPSCALE
 40
0.0
  9
$OLESTARTUP
290
     0
  0
ENDSEC
  0
SECTION
  2
CLASSES
  0
CLASS
  1
ACDBDICTIONARYWDFLT
  2
AcDbDictionaryWithDefault
  3
ObjectDBX Classes
 90
        0
280
     0
281
     0
  0
CLASS
  1
VISUALSTYLE
  2
AcDbVisualStyle
  3
ObjectDBX Classes
 90
     4095
280
     0
281
     0
  0
CLASS
  1
SCALE
  2
AcDbScale
  3
ObjectDBX Classes
 90
     1153
280
     0
281
     0
  0
CLASS
  1

  2
exOdDbPolyline
  3

 90
        0
280
     0
281
     1
  0
CLASS
  1

  2
exOdDbCircle
  3

 90
        0
280
     0
281
     1
  0
CLASS
  1

  2
exOdDbSpline
  3

 90
        0
280
     0
281
     1
  0
CLASS
  1
DICTIONARYVAR
  2
AcDbDictionaryVar
  3
ObjectDBX Classes
 90
        0
280
     0
281
     0
  0
CLASS
  1
ACDBPLACEHOLDER
  2
AcDbPlaceHolder
  3
ObjectDBX Classes
 90
        0
280
     0
281
     0
  0
CLASS
  1
LAYOUT
  2
AcDbLayout
  3
ObjectDBX Classes
 90
        0
280
     0
281
     0
  0
ENDSEC
  0
SECTION
  2
TABLES
  0
TABLE
  2
VPORT
  5
8
330
0
100
AcDbSymbolTable
 70
     1
  0
VPORT
  5
29
330
8
100
AcDbSymbolTableRecord
100
AcDbViewportTableRecord
  2
*Active
 70
     0
 10
0.0
 20
0.0
 11
1.0
 21
1.0
 12
134.72049514298
 22
310.6985798868853
 13
0.0
 23
0.0
 14
0.5
 24
0.5
 15
0.5
 25
0.5
 16
0.0
 26
0.0
 36
1.0
 17
0.0
 27
0.0
 37
0.0
 40
128.2369453480247
 41
1.60267857142857
 42
50.0
 43
0.0
 44
0.0
 50
0.0
 51
0.0
 71
     0
 72
   100
 73
     1
 74
     3
 75
     0
 76
     0
 77
     0
 78
     0
281
     0
 65
     1
110
0.0
120
0.0
130
0.0
111
1.0
121
0.0
131
0.0
112
0.0
122
1.0
132
0.0
 79
     0
146
0.0
  0
ENDTAB
  0
TABLE
  2
LTYPE
  5
5
330
0
100
AcDbSymbolTable
 70
     8
  0
LTYPE
  5
14
330
5
100
AcDbSymbolTableRecord
100
AcDbLinetypeTableRecord
  2
ByBlock
 70
     0
  3

 72
    65
 73
     0
 40
0.0
  0
LTYPE
  5
15
330
5
100
AcDbSymbolTableRecord
100
AcDbLinetypeTableRecord
  2
ByLayer
 70
     0
  3

 72
    65
 73
     0
 40
0.0
  0
LTYPE
  5
16
330
5
100
AcDbSymbolTableRecord
100
AcDbLinetypeTableRecord
  2
Continuous
 70
     0
  3
Solid line
 72
    65
 73
     0
 40
0.0
  0
LTYPE
  5
3B
330
5
100
AcDbSymbolTableRecord
100
AcDbLinetypeTableRecord
  2
DASHED
 70
     0
  3
Dashed
 72
    65
 73
     2
 40
15.0
 49
7.0
 74
     0
 49
-8.0
 74
     0
  0
LTYPE
  5
3C
330
5
100
AcDbSymbolTableRecord
100
AcDbLinetypeTableRecord
  2
DOTTED
 70
     0
  3
Dotted
 72
    65
 73
     2
 40
1.0
 49
0.0
 74
     0
 49
-1.0
 74
     0
  0
LTYPE
  5
3D
330
5
100
AcDbSymbolTableRecord
100
AcDbLinetypeTableRecord
  2
DOT_CENTER
 70
     0
  3
Dot_Center
 72
    65
 73
     4
 40
14.0
 49
12.0
 74
     0
 49
-1.0
 74
     0
 49
0.0
 74
     0
 49
-1.0
 74
     0
  0
LTYPE
  5
3E
330
5
100
AcDbSymbolTableRecord
100
AcDbLinetypeTableRecord
  2
LONG_DASHED
 70
     0
  3
Long_Dashed
 72
    65
 73
     2
 40
15.0
 49
10.0
 74
     0
 49
-5.0
 74
     0
  0
LTYPE
  5
3F
330
5
100
AcDbSymbolTableRecord
100
AcDbLinetypeTableRecord
  2
DASH_CENTER
 70
     0
  3
Dash_Center
 72
    65
 73
     4
 40
14.0
 49
11.0
 74
     0
 49
-1.0
 74
     0
 49
1.0
 74
     0
 49
-1.0
 74
     0
  0
LTYPE
  5
40
330
5
100
AcDbSymbolTableRecord
100
AcDbLinetypeTableRecord
  2
PHANTOM
 70
     0
  3
Phantom
 72
    65
 73
     6
 40
13.0
 49
10.0
 74
     0
 49
-1.0
 74
     0
 49
0.0
 74
     0
 49
-1.0
 74
     0
 49
0.0
 74
     0
 49
-1.0
 74
     0
  0
LTYPE
  5
41
330
5
100
AcDbSymbolTableRecord
100
AcDbLinetypeTableRecord
  2
CENTER_DASH_DASH
 70
     0
  3
Center_Dash_Dash
 72
    65
 73
     6
 40
14.0
 49
9.0
 74
     0
 49
-1.0
 74
     0
 49
1.0
 74
     0
 49
-1.0
 74
     0
 49
1.0
 74
     0
 49
-1.0
 74
     0
  0
ENDTAB
  0
TABLE
  2
LAYER
  5
2
330
0
100
AcDbSymbolTable
 70
     7
  0
LAYER
  5
10
330
2
100
AcDbSymbolTableRecord
100
AcDbLayerTableRecord
  2
0
 70
     0
 62
     7
  6
Continuous
370
    -3
390
F
  0
LAYER
  5
42
330
2
100
AcDbSymbolTableRecord
100
AcDbLayerTableRecord
  2
1
 70
     0
 62
     7
  6
Continuous
370
    -3
390
F
  0
LAYER
  5
43
330
2
100
AcDbSymbolTableRecord
100
AcDbLayerTableRecord
  2
BEZUGSACHSEN
 70
     0
 62
     7
  6
Continuous
370
    -3
390
F
  0
LAYER
  5
44
330
2
100
AcDbSymbolTableRecord
100
AcDbLayerTableRecord
  2
BOHRUNGEN
 70
     0
 62
     7
  6
Continuous
370
    -3
390
F
  0
LAYER
  5
45
330
2
100
AcDbSymbolTableRecord
100
AcDbLayerTableRecord
  2
FASEN
 70
     0
 62
     7
  6
Continuous
370
    -3
390
F
  0
LAYER
  5
46
330
2
100
AcDbSymbolTableRecord
100
AcDbLayerTableRecord
  2
RUNDUNGEN
 70
     0
 62
     7
  6
Continuous
370
    -3
390
F
  0
LAYER
  5
47
330
2
100
AcDbSymbolTableRecord
100
AcDbLayerTableRecord
  2
TEIL_STARTBEZUEGE
 70
     0
 62
     7
  6
Continuous
370
    -3
390
F
  0
ENDTAB
  0
TABLE
  2
STYLE
  5
3
330
0
100
AcDbSymbolTable
 70
     2
  0
STYLE
  5
11
330
3
100
AcDbSymbolTableRecord
100
AcDbTextStyleTableRecord
  2
Standard
 70
     0
 40
0.0
 41
1.0
 50
0.0
 71
     0
 42
0.2
  3
txt
  4

  0
STYLE
  5
6E
330
3
100
AcDbSymbolTableRecord
100
AcDbTextStyleTableRecord
  2
CONVERTER_11
 70
     0
 40
0.0
 41
0.72
 50
0.0
 71
     0
 42
0.2
  3
txt.shx
  4

  0
ENDTAB
  0
TABLE
  2
VIEW
  5
6
330
0
100
AcDbSymbolTable
 70
     0
  0
ENDTAB
  0
TABLE
  2
UCS
  5
7
330
0
100
AcDbSymbolTable
 70
     0
  0
ENDTAB
  0
TABLE
  2
APPID
  5
9
330
0
100
AcDbSymbolTable
 70
     1
  0
APPID
  5
12
330
9
100
AcDbSymbolTableRecord
100
AcDbRegAppTableRecord
  2
ACAD
 70
     0
  0
ENDTAB
  0
TABLE
  2
DIMSTYLE
  5
A
330
0
100
AcDbSymbolTable
 70
     8
100
AcDbDimStyleTable
  0
DIMSTYLE
105
27
330
A
100
AcDbSymbolTableRecord
100
AcDbDimStyleTableRecord
  2
Standard
 70
     0
340
11
  0
DIMSTYLE
105
116
102
{ACAD_REACTORS
330
117
102
}
330
A
100
AcDbSymbolTableRecord
100
AcDbDimStyleTableRecord
  2
ME10_DIM_10
 70
     0
  3
<>
 41
3.5
 42
2.0
 44
2.0
 71
     1
 73
     0
 74
     0
 77
     1
 78
     8
140
3.5
146
0.7
147
2.0
172
     1
173
     1
176
     2
177
     2
178
     3
271
     0
272
     0
340
6E
  0
DIMSTYLE
105
121
102
{ACAD_REACTORS
330
122
102
}
330
A
100
AcDbSymbolTableRecord
100
AcDbDimStyleTableRecord
  2
ME10_DIM_11
 70
     0
  3
\U+2300<>
 41
3.5
 42
2.0
 44
2.0
 71
     1
 73
     0
 74
     0
 77
     1
 78
     8
140
3.5
146
0.7
147
2.0
172
     1
173
     1
176
     2
177
     2
178
     3
271
     2
272
     0
340
6E
  0
DIMSTYLE
105
12C
102
{ACAD_REACTORS
330
12D
102
}
330
A
100
AcDbSymbolTableRecord
100
AcDbDimStyleTableRecord
  2
ME10_DIM_12
 70
     0
  3
\U+2300<>
 41
3.5
 42
2.0
 44
2.0
 71
     1
 73
     0
 74
     0
 77
     1
 78
     8
140
3.5
146
0.7
147
2.0
172
     1
173
     1
176
     2
177
     2
178
     3
271
     2
272
     0
340
6E
  0
DIMSTYLE
105
137
102
{ACAD_REACTORS
330
138
102
}
330
A
100
AcDbSymbolTableRecord
100
AcDbDimStyleTableRecord
  2
ME10_DIM_13
 70
     0
  3
\U+2300<>
 41
3.5
 42
2.0
 44
2.0
 71
     1
 73
     0
 74
     0
 77
     1
 78
     8
140
3.5
146
0.7
147
2.0
172
     1
173
     1
176
     2
177
     2
178
     3
271
     2
272
     0
340
6E
  0
DIMSTYLE
105
142
102
{ACAD_REACTORS
330
143
102
}
330
A
100
AcDbSymbolTableRecord
100
AcDbDimStyleTableRecord
  2
ME10_DIM_14
 70
     0
  3
<>
 41
3.5
 42
2.0
 44
2.0
 71
     1
 73
     0
 74
     0
 77
     1
 78
     8
140
3.5
146
0.7
147
2.0
172
     1
173
     1
176
     2
177
     2
178
     3
271
     2
272
     0
340
6E
  0
DIMSTYLE
105
14D
102
{ACAD_REACTORS
330
14E
102
}
330
A
100
AcDbSymbolTableRecord
100
AcDbDimStyleTableRecord
  2
ME10_DIM_15
 70
     0
  3
<>
 41
3.5
 42
2.0
 44
2.0
 71
     1
 73
     0
 74
     0
 77
     1
 78
     8
140
3.5
146
0.7
147
2.0
172
     1
173
     1
176
     2
177
     2
178
     3
271
     0
272
     0
340
6E
  0
DIMSTYLE
105
15F
102
{ACAD_REACTORS
330
160
102
}
330
A
100
AcDbSymbolTableRecord
100
AcDbDimStyleTableRecord
  2
ME10_DIM_16
 70
     0
  3
<>
 41
3.5
 42
2.0
 44
2.0
 71
     1
 73
     0
 74
     0
 77
     1
 78
     8
140
3.5
146
0.7
147
2.0
172
     1
173
     1
176
     2
177
     2
178
     3
271
     2
272
     0
340
6E
  0
ENDTAB
  0
TABLE
  2
BLOCK_RECORD
  5
1
330
0
100
AcDbSymbolTable
 70
    10
  0
BLOCK_RECORD
  5
1F
330
1
100
AcDbSymbolTableRecord
100
AcDbBlockTableRecord
  2
*Model_Space
340
22
  0
BLOCK_RECORD
  5
1B
330
1
100
AcDbSymbolTableRecord
100
AcDbBlockTableRecord
  2
*Paper_Space
340
1E
  0
BLOCK_RECORD
  5
23
330
1
100
AcDbSymbolTableRecord
100
AcDbBlockTableRecord
  2
*Paper_Space0
340
26
  0
BLOCK_RECORD
  5
48
330
1
100
AcDbSymbolTableRecord
100
AcDbBlockTableRecord
  2
Urheberrecht_DE-EN_horizontal
340
0
102
{BLKREFS
331
6D
102
}
  0
BLOCK_RECORD
  5
10D
330
1
100
AcDbSymbolTableRecord
100
AcDbBlockTableRecord
  2
*D2
340
0
  0
BLOCK_RECORD
  5
118
330
1
100
AcDbSymbolTableRecord
100
AcDbBlockTableRecord
  2
*D3
340
0
  0
BLOCK_RECORD
  5
123
330
1
100
AcDbSymbolTableRecord
100
AcDbBlockTableRecord
  2
*D4
340
0
  0
BLOCK_RECORD
  5
12E
330
1
100
AcDbSymbolTableRecord
100
AcDbBlockTableRecord
  2
*D5
340
0
  0
BLOCK_RECORD
  5
139
330
1
100
AcDbSymbolTableRecord
100
AcDbBlockTableRecord
  2
*D6
340
0
  0
BLOCK_RECORD
  5
144
330
1
100
AcDbSymbolTableRecord
100
AcDbBlockTableRecord
  2
*D7
340
0
  0
BLOCK_RECORD
  5
14F
330
1
100
AcDbSymbolTableRecord
100
AcDbBlockTableRecord
  2
*D8
340
0
102
{BLKREFS
331
155
102
}
  0
BLOCK_RECORD
  5
156
330
1
100
AcDbSymbolTableRecord
100
AcDbBlockTableRecord
  2
*D9
340
0
  0
ENDTAB
  0
ENDSEC
  0
SECTION
  2
BLOCKS
  0
BLOCK
  5
20
330
1F
100
AcDbEntity
  8
0
100
AcDbBlockBegin
  2
*Model_Space
 70
     0
 10
0.0
 20
0.0
 30
0.0
  3
*Model_Space
  1

  0
ENDBLK
  5
21
330
1F
100
AcDbEntity
  8
0
100
AcDbBlockEnd
  0
BLOCK
  5
1C
330
1B
100
AcDbEntity
 67
     1
  8
0
100
AcDbBlockBegin
  2
*Paper_Space
 70
     0
 10
0.0
 20
0.0
 30
0.0
  3
*Paper_Space
  1

  0
ENDBLK
  5
1D
330
1B
100
AcDbEntity
 67
     1
  8
0
100
AcDbBlockEnd
  0
BLOCK
  5
24
330
23
100
AcDbEntity
  8
0
100
AcDbBlockBegin
  2
*Paper_Space0
 70
     0
 10
0.0
 20
0.0
 30
0.0
  3
*Paper_Space0
  1

  0
ENDBLK
  5
25
330
23
100
AcDbEntity
  8
0
100
AcDbBlockEnd
  0
BLOCK
  5
49
330
48
100
AcDbEntity
  8
0
100
AcDbBlockBegin
  2
Urheberrecht_DE-EN_horizontal
 70
     0
 10
135.506464711107
 20
269.930575101945
 30
0.0
  3
Urheberrecht_DE-EN_horizontal
  1

  0
MTEXT
  5
6F
330
48
100
AcDbEntity
  8
1
 62
     1
100
AcDbMText
 10
82.05268232174775
 20
263.1325670920406
 30
0.0
 40
2.0
 41
0.0
 71
     7
 72
     1
  1
F\U+00fcr diese Unterlage behalten wir das Ur-\Pheberrecht. Sie darf nur f\U+00fcr den von uns \Pbestimmten Zweck benutzt und ohne unsere \PZustimmung weder vervielf\U+00e4ltigt noch\PDritten zug\U+00e4nglich gemacht werden.
  7
CONVERTER_11
 73
     1
 44
0.90036014405762
  0
MTEXT
  5
70
330
48
100
AcDbEntity
  8
1
 62
     1
100
AcDbMText
 10
138.3420692390539
 20
263.1325670920406
 30
0.0
 40
2.0
 41
0.0
 71
     7
 72
     1
  1
We own the copyright of this document. It \Pdetermined and may neither be copied or \Pmade accessible to outsiders without our\Ppermission.
  7
CONVERTER_11
 73
     1
 44
0.90036014405762
  0
ENDBLK
  5
4A
330
48
100
AcDbEntity
  8
0
100
AcDbBlockEnd
  0
BLOCK
  5
114
330
10D
100
AcDbEntity
  8
0
100
AcDbBlockBegin
  2
*D2
 70
     1
 10
0.0
 20
0.0
 30
0.0
  3
*D2
  1

  0
LINE
  5
10E
330
10D
100
AcDbEntity
  8
1
  6
Continuous
 62
     2
100
AcDbLine
 10
199.3261295181
 20
338.390057540483
 30
0.0
 11
95.27612951810005
 21
338.390057540483
 31
0.0
  0
LINE
  5
10F
330
10D
100
AcDbEntity
  8
1
  6
Continuous
 62
     2
100
AcDbLine
 10
199.3261295181
 20
317.8317465565
 30
0.0
 11
199.3261295181
 21
340.390057540483
 31
0.0
  0
LINE
  5
110
330
10D
100
AcDbEntity
  8
1
  6
Continuous
 62
     2
100
AcDbLine
 10
95.27612951810005
 20
331.7560870297
 30
0.0
 11
95.27612951810005
 21
340.390057540483
 31
0.0
  0
SOLID
  5
111
330
10D
100
AcDbEntity
  8
1
 62
     2
100
AcDbTrace
 10
195.8261295181
 20
337.9292737989271
 30
0.0
 11
195.8261295181
 21
338.8508412820389
 31
0.0
 12
199.3261295181
 22
338.390057540483
 32
0.0
 13
199.3261295181
 23
338.390057540483
 33
0.0
  0
SOLID
  5
112
330
10D
100
AcDbEntity
  8
1
 62
     2
100
AcDbTrace
 10
98.77612951810005
 20
338.8508412820389
 30
0.0
 11
98.77612951810005
 21
337.9292737989271
 31
0.0
 12
95.27612951810005
 22
338.390057540483
 32
0.0
 13
95.27612951810005
 23
338.390057540483
 33
0.0
  0
MTEXT
  5
113
330
10D
100
AcDbEntity
  8
1
 62
     3
100
AcDbMText
 10
145.7336259060985
 20
340.390057540483
 30
0.0
 40
3.5
 41
0.0
 71
     7
 72
     1
  1
\C3;\C3;\C3;104\C2;\H2.45;\S^ ;\C3;
  7
CONVERTER_11
 11
0.9999999999970619
 21
2.424068405545306E-6
 31
0.0
 73
     1
 44
0.60024009603842
  0
ENDBLK
  5
115
330
10D
100
AcDbEntity
  8
0
100
AcDbBlockEnd
  0
BLOCK
  5
11F
330
118
100
AcDbEntity
  8
0
100
AcDbBlockBegin
  2
*D3
 70
     1
 10
0.0
 20
0.0
 30
0.0
  3
*D3
  1

  0
LINE
  5
119
330
118
100
AcDbEntity
  8
1
  6
Continuous
 62
     2
100
AcDbLine
 10
209.953513534258
 20
310.7561370482
 30
0.0
 11
209.953513534258
 21
298.7561370482
 31
0.0
  0
LINE
  5
11A
330
118
100
AcDbEntity
  8
1
  6
Continuous
 62
     2
100
AcDbLine
 10
201.3261295181
 20
310.7561370482
 30
0.0
 11
211.953513534258
 21
310.7561370482
 31
0.0
  0
LINE
  5
11B
330
118
100
AcDbEntity
  8
1
  6
Continuous
 62
     2
100
AcDbLine
 10
201.3261295181
 20
298.7561370482
 30
0.0
 11
211.953513534258
 21
298.7561370482
 31
0.0
  0
SOLID
  5
11C
330
118
100
AcDbEntity
  8
1
 62
     2
100
AcDbTrace
 10
210.4142972758139
 20
307.2561370482
 30
0.0
 11
209.4927297927021
 21
307.2561370482
 31
0.0
 12
209.953513534258
 22
310.7561370482
 32
0.0
 13
209.953513534258
 23
310.7561370482
 33
0.0
  0
SOLID
  5
11D
330
118
100
AcDbEntity
  8
1
 62
     2
100
AcDbTrace
 10
209.4927297927021
 20
302.2561370482
 30
0.0
 11
210.4142972758139
 21
302.2561370482
 31
0.0
 12
209.953513534258
 22
298.7561370482
 32
0.0
 13
209.953513534258
 23
298.7561370482
 33
0.0
  0
MTEXT
  5
11E
330
118
100
AcDbEntity
  8
1
 62
     3
100
AcDbMText
 10
207.953513534258
 20
296.716783007309
 30
0.0
 40
3.5
 41
0.0
 71
     7
 72
     1
  1
\C3;%%c\C3;\C3;12\C2;\H2.45;\S^ ;\C3;
  7
CONVERTER_11
 11
0.0
 21
1.0
 31
0.0
 73
     1
 44
0.60024009603842
  0
ENDBLK
  5
120
330
118
100
AcDbEntity
  8
0
100
AcDbBlockEnd
  0
BLOCK
  5
12A
330
123
100
AcDbEntity
  8
0
100
AcDbBlockBegin
  2
*D4
 70
     1
 10
0.0
 20
0.0
 30
0.0
  3
*D4
  1

  0
LINE
  5
124
330
123
100
AcDbEntity
  8
1
  6
Continuous
 62
     2
100
AcDbLine
 10
218.349640174148
 20
316.7561370482528
 30
0.0
 11
218.349640174148
 21
292.7561370481559
 31
0.0
  0
LINE
  5
125
330
123
100
AcDbEntity
  8
1
  6
Continuous
 62
     2
100
AcDbLine
 10
201.3261295181
 20
316.7561370482528
 30
0.0
 11
220.349640174148
 21
316.7561370482528
 31
0.0
  0
LINE
  5
126
330
123
100
AcDbEntity
  8
1
  6
Continuous
 62
     2
100
AcDbLine
 10
201.3261295181
 20
292.7561370481559
 30
0.0
 11
220.349640174148
 21
292.7561370481559
 31
0.0
  0
SOLID
  5
127
330
123
100
AcDbEntity
  8
1
 62
     2
100
AcDbTrace
 10
218.8104239157039
 20
313.2561370482528
 30
0.0
 11
217.8888564325921
 21
313.2561370482528
 31
0.0
 12
218.349640174148
 22
316.7561370482528
 32
0.0
 13
218.349640174148
 23
316.7561370482528
 33
0.0
  0
SOLID
  5
128
330
123
100
AcDbEntity
  8
1
 62
     2
100
AcDbTrace
 10
217.8888564325921
 20
296.2561370481559
 30
0.0
 11
218.8104239157039
 21
296.2561370481559
 31
0.0
 12
218.349640174148
 22
292.7561370481559
 32
0.0
 13
218.349640174148
 23
292.7561370481559
 33
0.0
  0
MTEXT
  5
129
330
123
100
AcDbEntity
  8
1
 62
     3
100
AcDbMText
 10
216.349640174148
 20
296.469899020503
 30
0.0
 40
3.5
 41
0.0
 71
     7
 72
     1
  1
\C3;%%c\C3;\C3;24\C2;\H2.45;\S^ ;\C3;
  7
CONVERTER_11
 11
0.0
 21
1.0
 31
0.0
 73
     1
 44
0.60024009603842
  0
ENDBLK
  5
12B
330
123
100
AcDbEntity
  8
0
100
AcDbBlockEnd
  0
BLOCK
  5
135
330
12E
100
AcDbEntity
  8
0
100
AcDbBlockBegin
  2
*D5
 70
     1
 10
0.0
 20
0.0
 30
0.0
  3
*D5
  1

  0
LINE
  5
12F
330
12E
100
AcDbEntity
  8
1
  6
Continuous
 62
     2
100
AcDbLine
 10
226.13986076786
 20
320.7561370482001
 30
0.0
 11
226.13986076786
 21
288.7561370481999
 31
0.0
  0
LINE
  5
130
330
12E
100
AcDbEntity
  8
1
  6
Continuous
 62
     2
100
AcDbLine
 10
150.5013105734
 20
320.7561370482001
 30
0.0
 11
228.13986076786
 21
320.7561370482001
 31
0.0
  0
LINE
  5
131
330
12E
100
AcDbEntity
  8
1
  6
Continuous
 62
     2
100
AcDbLine
 10
150.5013105734
 20
288.7561370481999
 30
0.0
 11
228.13986076786
 21
288.7561370481999
 31
0.0
  0
SOLID
  5
132
330
12E
100
AcDbEntity
  8
1
 62
     2
100
AcDbTrace
 10
226.6006445094159
 20
317.2561370482001
 30
0.0
 11
225.6790770263041
 21
317.2561370482001
 31
0.0
 12
226.13986076786
 22
320.7561370482001
 32
0.0
 13
226.13986076786
 23
320.7561370482001
 33
0.0
  0
SOLID
  5
133
330
12E
100
AcDbEntity
  8
1
 62
     2
100
AcDbTrace
 10
225.6790770263041
 20
292.2561370481999
 30
0.0
 11
226.6006445094159
 21
292.2561370481999
 31
0.0
 12
226.13986076786
 22
288.7561370481999
 32
0.0
 13
226.13986076786
 23
288.7561370481999
 33
0.0
  0
MTEXT
  5
134
330
12E
100
AcDbEntity
  8
1
 62
     3
100
AcDbMText
 10
224.13986076786
 20
296.383341013906
 30
0.0
 40
3.5
 41
0.0
 71
     7
 72
     1
  1
\C3;%%c\C3;\C3;32\C2;\H2.45;\S^ ;\C3;
  7
CONVERTER_11
 11
0.0
 21
1.0
 31
0.0
 73
     1
 44
0.60024009603842
  0
ENDBLK
  5
136
330
12E
100
AcDbEntity
  8
0
100
AcDbBlockEnd
  0
BLOCK
  5
140
330
139
100
AcDbEntity
  8
0
100
AcDbBlockBegin
  2
*D6
 70
     1
 10
0.0
 20
0.0
 30
0.0
  3
*D6
  1

  0
LINE
  5
13A
330
139
100
AcDbEntity
  8
1
  6
Continuous
 62
     2
100
AcDbLine
 10
199.3261295181
 20
345.920604114405
 30
0.0
 11
69.3261295181
 21
345.920604114405
 31
0.0
  0
LINE
  5
13B
330
139
100
AcDbEntity
  8
1
  6
Continuous
 62
     2
100
AcDbLine
 10
199.3261295181
 20
317.8317465565
 30
0.0
 11
199.3261295181
 21
347.920604114405
 31
0.0
  0
LINE
  5
13C
330
139
100
AcDbEntity
  8
1
  6
Continuous
 62
     2
100
AcDbLine
 10
69.3261295181
 20
331.7561370482
 30
0.0
 11
69.3261295181
 21
347.920604114405
 31
0.0
  0
SOLID
  5
13D
330
139
100
AcDbEntity
  8
1
 62
     2
100
AcDbTrace
 10
195.8261295181
 20
345.4598203728492
 30
0.0
 11
195.8261295181
 21
346.3813878559609
 31
0.0
 12
199.3261295181
 22
345.920604114405
 32
0.0
 13
199.3261295181
 23
345.920604114405
 33
0.0
  0
SOLID
  5
13E
330
139
100
AcDbEntity
  8
1
 62
     2
100
AcDbTrace
 10
72.8261295181
 20
346.3813878559609
 30
0.0
 11
72.8261295181
 21
345.4598203728492
 31
0.0
 12
69.3261295181
 22
345.920604114405
 32
0.0
 13
69.3261295181
 23
345.920604114405
 33
0.0
  0
MTEXT
  5
13F
330
139
100
AcDbEntity
  8
1
 62
     3
100
AcDbMText
 10
129.5932470588504
 20
347.920604114405
 30
0.0
 40
3.5
 41
0.0
 71
     7
 72
     1
  1
\C3;\C3;\C3;130\C2;\H2.45;\S^ ;\C3;
  7
CONVERTER_11
 11
0.9999999999970619
 21
2.424068405545306E-6
 31
0.0
 73
     1
 44
0.60024009603842
  0
ENDBLK
  5
141
330
139
100
AcDbEntity
  8
0
100
AcDbBlockEnd
  0
BLOCK
  5
14B
330
144
100
AcDbEntity
  8
0
100
AcDbBlockBegin
  2
*D7
 70
     1
 10
0.0
 20
0.0
 30
0.0
  3
*D7
  1

  0
LINE
  5
145
330
144
100
AcDbEntity
  8
1
  6
Continuous
 62
     2
100
AcDbLine
 10
199.3261295181
 20
353.36459268173
 30
0.0
 11
44.42612951809997
 21
353.36459268173
 31
0.0
  0
LINE
  5
146
330
144
100
AcDbEntity
  8
1
  6
Continuous
 62
     2
100
AcDbLine
 10
199.3261295181
 20
317.8317465565
 30
0.0
 11
199.3261295181
 21
355.36459268173
 31
0.0
  0
LINE
  5
147
330
144
100
AcDbEntity
  8
1
  6
Continuous
 62
     2
100
AcDbLine
 10
44.42612951809997
 20
323.8124928294
 30
0.0
 11
44.42612951809997
 21
355.36459268173
 31
0.0
  0
SOLID
  5
148
330
144
100
AcDbEntity
  8
1
 62
     2
100
AcDbTrace
 10
195.8261295181
 20
352.9038089401741
 30
0.0
 11
195.8261295181
 21
353.8253764232859
 31
0.0
 12
199.3261295181
 22
353.36459268173
 32
0.0
 13
199.3261295181
 23
353.36459268173
 33
0.0
  0
SOLID
  5
149
330
144
100
AcDbEntity
  8
1
 62
     2
100
AcDbTrace
 10
47.92612951809997
 20
353.8253764232859
 30
0.0
 11
47.92612951809997
 21
352.9038089401741
 31
0.0
 12
44.42612951809997
 22
353.36459268173
 32
0.0
 13
44.42612951809997
 23
353.36459268173
 33
0.0
  0
MTEXT
  5
14A
330
144
100
AcDbEntity
  8
1
 62
     3
100
AcDbMText
 10
122.1444833102897
 20
355.36459268173
 30
0.0
 40
3.5
 41
0.0
 71
     7
 72
     1
  1
\C3;\C3;\C3;155\C2;\H2.45;\S^ ;\C3;
  7
CONVERTER_11
 11
0.9999999999970619
 21
2.424068405545306E-6
 31
0.0
 73
     1
 44
0.60024009603842
  0
ENDBLK
  5
14C
330
144
100
AcDbEntity
  8
0
100
AcDbBlockEnd
  0
BLOCK
  5
153
330
14F
100
AcDbEntity
  8
0
100
AcDbBlockBegin
  2
*D8
 70
     1
 10
0.0
 20
0.0
 30
0.0
  3
*D8
  1

  0
LINE
  5
150
330
14F
100
AcDbEntity
  8
1
  6
Continuous
 62
     2
100
AcDbLine
 10
106.5860865273157
 20
329.1444914049115
 30
0.0
 11
95.87106243724583
 21
323.3906806412516
 31
0.0
  0
SOLID
  5
151
330
14F
100
AcDbEntity
  8
1
 62
     2
100
AcDbTrace
 10
98.7366166231076
 20
325.4524567843798
 30
0.0
 11
99.17260216458004
 21
324.6405434678514
 31
0.0
 12
95.87106243724583
 22
323.3906806412516
 32
0.0
 13
95.87106243724583
 23
323.3906806412516
 33
0.0
  0
MTEXT
  5
152
330
14F
100
AcDbEntity
  8
1
 62
     3
100
AcDbMText
 10
99.10278441654852
 20
327.3961809293417
 30
0.0
 40
3.5
 41
0.0
 71
     7
 72
     1
  1
\C3; R\C3;\C3;5\C2;\H2.45;\S^ ;\C3;
  7
CONVERTER_11
 11
0.8810134161708615
 21
0.4730912813897001
 31
0.0
 73
     1
 44
0.60024009603842
  0
ENDBLK
  5
154
330
14F
100
AcDbEntity
  8
0
100
AcDbBlockEnd
  0
BLOCK
  5
15D
330
156
100
AcDbEntity
  8
0
100
AcDbBlockBegin
  2
*D9
 70
     1
 10
0.0
 20
0.0
 30
0.0
  3
*D9
  1

  0
LINE
  5
157
330
156
100
AcDbEntity
  8
1
  6
Continuous
 62
     2
100
AcDbLine
 10
181.3914655417288
 20
320.7561370482001
 30
0.0
 11
183.3914655417288
 21
320.7561370482001
 31
0.0
  0
LINE
  5
158
330
156
100
AcDbEntity
  8
1
  6
Continuous
 62
     2
100
AcDbLine
 10
150.5013105734
 20
320.7561370482001
 30
0.0
 11
181.3914655417288
 21
320.7561370482001
 31
0.0
  0
ARC
  5
159
330
156
100
AcDbEntity
  8
1
  6
Continuous
 62
     2
100
AcDbCircle
 10
148.5013105734
 20
320.7561370482001
 30
0.0
 40
32.89015496832885
100
AcDbArc
 50
346.3543196974147
 51
16.81921984706288
  0
SOLID
  5
15A
330
156
100
AcDbEntity
  8
1
 62
     2
100
AcDbTrace
 10
181.2870842064277
 20
314.6454051369159
 30
0.0
 11
180.3735031377462
 21
314.7664681654412
 31
0.0
 12
181.2900761704969
 22
318.1756052310512
 32
0.0
 13
181.2900761704969
 23
318.1756052310512
 33
0.0
  0
SOLID
  5
15B
330
156
100
AcDbEntity
  8
1
 62
     2
100
AcDbTrace
 10
180.7451958091258
 20
324.2266783732967
 30
0.0
 11
181.665459108009
 21
324.2756894603854
 31
0.0
 12
181.3914655417288
 22
320.7561370482001
 32
0.0
 13
181.3914655417288
 23
320.7561370482001
 33
0.0
  0
MTEXT
  5
15C
330
156
100
AcDbEntity
  8
1
 62
     3
100
AcDbMText
 10
182.0699327984689
 20
330.9033899091773
 30
0.0
 40
3.5
 41
0.0
 71
     7
 72
     1
  1
\C3;\C3;\C3;4.5%%d\C2;\H2.45;\S^ ;\C3;
  7
CONVERTER_11
 11
0.1913892359024609
 21
-0.981514218124563
 31
0.0
 73
     1
 44
0.60024009603842
  0
ENDBLK
  5
15E
330
156
100
AcDbEntity
  8
0
100
AcDbBlockEnd
  0
ENDSEC
  0
SECTION
  2
ENTITIES
  0
INSERT
  5
6D
330
1F
100
AcDbEntity
  8
0
100
AcDbBlockReference
  2
Urheberrecht_DE-EN_horizontal
 10
135.506464711107
 20
269.930575101945
 30
0.0
  0
LWPOLYLINE
  5
71
330
1F
100
AcDbEntity
  8
1
  6
Continuous
 62
     7
100
AcDbPolyline
 90
        2
 70
     0
 43
0.5
 10
95.2761295181
 20
325.7561370482
 10
95.2761295181
 20
283.7561370482
  0
LINE
  5
72
330
1F
100
AcDbEntity
  8
0
  6
Continuous
 62
     7
100
AcDbLine
 10
95.2761295181
 20
329.7560870297
 30
0.0
 11
95.2761295181
 21
325.7561370482
 31
0.0
  0
LINE
  5
73
330
1F
100
AcDbEntity
  8
0
  6
Continuous
 62
     7
100
AcDbLine
 10
44.4261295181
 20
287.6997812668
 30
0.0
 11
44.4261295181
 21
298.3361370482
 31
0.0
  0
LINE
  5
74
330
1F
100
AcDbEntity
  8
0
  6
Continuous
 62
     7
100
AcDbLine
 10
44.4261295181
 20
311.1761370482
 30
0.0
 11
44.4261295181
 21
321.8124928294
 31
0.0
  0
LINE
  5
75
330
1F
100
AcDbEntity
  8
0
  6
Continuous
 62
     9
100
AcDbLine
 10
45.3760922757
 20
322.8112401824
 30
0.0
 11
45.3760922757
 21
312.6046495942
 31
0.0
  0
LINE
  5
76
330
1F
100
AcDbEntity
  8
0
  6
Continuous
 62
     9
100
AcDbLine
 10
45.3760922757
 20
296.9076245022
 30
0.0
 11
45.3760922757
 21
286.701033914
 31
0.0
  0
LINE
  5
77
330
1F
100
AcDbEntity
  8
0
  6
Continuous
 62
     7
100
AcDbLine
 10
45.5761295181
 20
298.4467772887
 30
0.0
 11
45.5761295181
 21
299.4861370482
 31
0.0
  0
LINE
  5
78
330
1F
100
AcDbEntity
  8
0
  6
Continuous
 62
     7
100
AcDbLine
 10
45.5761295181
 20
310.0261370482
 30
0.0
 11
45.5761295181
 21
311.0654968077
 31
0.0
  0
LINE
  5
79
330
1F
100
AcDbEntity
  8
RUNDUNGEN
  6
Continuous
 62
     9
100
AcDbLine
 10
47.6261295181
 20
296.6516662506
 30
0.0
 11
47.6261295181
 21
299.4861370482
 31
0.0
  0
LINE
  5
7A
330
1F
100
AcDbEntity
  8
RUNDUNGEN
  6
Continuous
 62
     9
100
AcDbLine
 10
47.6261295181
 20
310.0261370482
 30
0.0
 11
47.6261295181
 21
312.8606078458
 31
0.0
  0
LINE
  5
7B
330
1F
100
AcDbEntity
  8
RUNDUNGEN
  6
Continuous
 62
     7
100
AcDbLine
 10
49.02612951810001
 20
310.687287295
 30
0.0
 11
49.02612951810001
 21
298.8249868014
 31
0.0
  0
LINE
  5
7C
330
1F
100
AcDbEntity
  8
0
  6
Continuous
 62
     7
100
AcDbLine
 10
45.16261972789999
 20
297.1061370482
 30
0.0
 11
45.11420024909999
 21
297.0201793422
 31
0.0
  0
LINE
  5
7D
330
1F
100
AcDbEntity
  8
0
  6
Continuous
 62
     7
100
AcDbLine
 10
45.11420024909999
 20
312.4920947542
 30
0.0
 11
45.16261972789999
 21
312.4061370482
 31
0.0
  0
LWPOLYLINE
  5
7E
330
1F
100
AcDbEntity
  8
BEZUGSACHSEN
  6
DOT_CENTER
 62
     7
100
AcDbPolyline
 90
        2
 70
     0
 43
0.25
 10
61.8261295181
 20
298.7561370482
 10
61.8261295181
 20
310.7561370482
  0
LINE
  5
7F
330
1F
100
AcDbEntity
  8
0
  6
Continuous
 62
     7
100
AcDbLine
 10
67.3261295181
 20
323.9109370482
 30
0.0
 11
67.3261295181
 21
285.6013370482
 31
0.0
  0
LINE
  5
80
330
1F
100
AcDbEntity
  8
0
  6
Continuous
 62
     9
100
AcDbLine
 10
67.9962397511
 20
285.780892544
 30
0.0
 11
67.9962397511
 21
323.7313815524
 31
0.0
  0
LINE
  5
81
330
1F
100
AcDbEntity
  8
0
  6
Continuous
 62
     9
100
AcDbLine
 10
68.1515311781
 20
285.8013370482
 30
0.0
 11
68.1515311781
 21
323.7109370482
 31
0.0
  0
LINE
  5
82
330
1F
100
AcDbEntity
  8
0
  6
Continuous
 62
     7
100
AcDbLine
 10
44.4261295181
 20
298.3361370482
 30
0.0
 11
45.5761295181
 21
299.4861370482
 31
0.0
  0
LINE
  5
83
330
1F
100
AcDbEntity
  8
0
  6
Continuous
 62
     7
100
AcDbLine
 10
45.5761295181
 20
310.0261370482
 30
0.0
 11
44.4261295181
 21
311.1761370482
 31
0.0
  0
LINE
  5
84
330
1F
100
AcDbEntity
  8
0
  6
Continuous
 62
     9
100
AcDbLine
 10
69.0239598875
 20
285.8013370482
 30
0.0
 11
69.0239598875
 21
323.7109370482
 31
0.0
  0
LINE
  5
85
330
1F
100
AcDbEntity
  8
0
  6
Continuous
 62
     7
100
AcDbLine
 10
69.3261295181
 20
329.7561370482
 30
0.0
 11
69.3261295181
 21
279.7561370482
 31
0.0
  0
LWPOLYLINE
  5
86
330
1F
100
AcDbEntity
  8
BEZUGSACHSEN
  6
DOT_CENTER
 62
     7
100
AcDbPolyline
 90
        2
 70
     0
 43
0.25
 10
76.3261295181
 20
333.251034476
 10
76.3261295181
 20
321.651034476
  0
LINE
  5
87
330
1F
100
AcDbEntity
  8
0
  6
Continuous
 62
     7
100
AcDbLine
 10
89.2386295181
 20
327.1936842177
 30
0.0
 11
90.7180623496
 21
329.7561370482
 31
0.0
  0
LINE
  5
88
330
1F
100
AcDbEntity
  8
0
  6
Continuous
 62
     9
100
AcDbLine
 10
44.4261295181
 20
297.7989889372
 30
0.0
 11
45.5761295181
 21
298.4467772887
 31
0.0
  0
LINE
  5
89
330
1F
100
AcDbEntity
  8
0
  6
Continuous
 62
     7
100
AcDbLine
 10
83.9341966866
 20
279.7561370482
 30
0.0
 11
69.3261295181
 21
279.7561370482
 31
0.0
  0
LINE
  5
8A
330
1F
100
AcDbEntity
  8
0
  6
Continuous
 62
     7
100
AcDbLine
 10
90.7180623496
 20
279.7561370482
 30
0.0
 11
95.2761295181
 21
279.7561370482
 31
0.0
  0
LINE
  5
8B
330
1F
100
AcDbEntity
  8
0
  6
Continuous
 62
     9
100
AcDbLine
 10
45.5761295181
 20
311.0654968077
 30
0.0
 11
44.4261295181
 21
311.7132851592
 31
0.0
  0
LINE
  5
8C
330
1F
100
AcDbEntity
  8
0
  6
Continuous
 62
     7
100
AcDbLine
 10
89.2386295181
 20
282.3185898787
 30
0.0
 11
90.7180623496
 21
279.7561370482
 31
0.0
  0
LINE
  5
8D
330
1F
100
AcDbEntity
  8
FASEN
  6
Continuous
 62
     9
100
AcDbLine
 10
82.019815791
 20
289.0061370482
 30
0.0
 11
82.019815791
 21
289.4061370482
 31
0.0
  0
LINE
  5
8E
330
1F
100
AcDbEntity
  8
FASEN
  6
Continuous
 62
     9
100
AcDbLine
 10
82.2936295181
 20
299.1386370482
 30
0.0
 11
82.2936295181
 21
298.7386370482
 31
0.0
  0
LINE
  5
8F
330
1F
100
AcDbEntity
  8
FASEN
  6
Continuous
 62
     9
100
AcDbLine
 10
82.2936295181
 20
310.3736370482
 30
0.0
 11
82.2936295181
 21
310.7736370482
 31
0.0
  0
LINE
  5
90
330
1F
100
AcDbEntity
  8
0
  6
Continuous
 62
     7
100
AcDbLine
 10
83.9341966866
 20
329.7561370482
 30
0.0
 11
83.9341966866
 21
310.7736370482
 31
0.0
  0
LINE
  5
91
330
1F
100
AcDbEntity
  8
0
  6
Continuous
 62
     7
100
AcDbLine
 10
83.9341966866
 20
298.7386370482
 30
0.0
 11
83.9341966866
 21
289.4061370482
 31
0.0
  0
LINE
  5
92
330
1F
100
AcDbEntity
  8
0
  6
Continuous
 62
     7
100
AcDbLine
 10
83.9341966866
 20
285.0234864406
 30
0.0
 11
83.9341966866
 21
279.7561370482
 31
0.0
  0
LINE
  5
93
330
1F
100
AcDbEntity
  8
0
  6
Continuous
 62
     7
100
AcDbLine
 10
85.4136295181
 20
327.1936296055
 30
0.0
 11
85.4136295181
 21
310.7736370482
 31
0.0
  0
LINE
  5
94
330
1F
100
AcDbEntity
  8
0
  6
Continuous
 62
     7
100
AcDbLine
 10
85.4136295181
 20
298.7386370482
 30
0.0
 11
85.4136295181
 21
289.4061370482
 31
0.0
  0
LINE
  5
95
330
1F
100
AcDbEntity
  8
0
  6
Continuous
 62
     7
100
AcDbLine
 10
85.4136295181
 20
282.3186037199
 30
0.0
 11
85.4136295181
 21
288.6835478044
 31
0.0
  0
LINE
  5
96
330
1F
100
AcDbEntity
  8
0
  6
Continuous
 62
     7
100
AcDbLine
 10
86.1636295181
 20
283.2811370482
 30
0.0
 11
88.4886295181
 21
283.2811370482
 31
0.0
  0
LINE
  5
97
330
1F
100
AcDbEntity
  8
0
  6
Continuous
 62
     7
100
AcDbLine
 10
76.6584558009
 20
285.0234864406
 30
0.0
 11
83.9341966866
 21
285.0234864406
 31
0.0
  0
LINE
  5
98
330
1F
100
AcDbEntity
  8
0
  6
Continuous
 62
     7
100
AcDbLine
 10
90.7180623496
 20
285.0234864406
 30
0.0
 11
95.2761295181
 21
285.0234864406
 31
0.0
  0
LINE
  5
99
330
1F
100
AcDbEntity
  8
0
  6
Continuous
 62
     7
100
AcDbLine
 10
69.0239598875
 20
285.8013370482
 30
0.0
 11
68.1515311781
 21
285.8013370482
 31
0.0
  0
LINE
  5
9A
330
1F
100
AcDbEntity
  8
0
  6
Continuous
 62
     7
100
AcDbLine
 10
67.3261295181
 20
285.6013370482
 30
0.0
 11
45.3760922757
 21
286.701033914
 31
0.0
  0
LINE
  5
9B
330
1F
100
AcDbEntity
  8
0
  6
Continuous
 62
     9
100
AcDbLine
 10
86.1636295181
 20
283.2811370482
 30
0.0
 11
86.1636295181
 21
299.8199821681
 31
0.0
  0
LINE
  5
9C
330
1F
100
AcDbEntity
  8
0
  6
Continuous
 62
     9
100
AcDbLine
 10
86.1636295181
 20
309.6922919283
 30
0.0
 11
86.1636295181
 21
326.2311370482
 31
0.0
  0
LINE
  5
9D
330
1F
100
AcDbEntity
  8
0
  6
Continuous
 62
     9
100
AcDbLine
 10
88.4886295181
 20
283.2811370482
 30
0.0
 11
88.4886295181
 21
299.8199821681
 31
0.0
  0
LINE
  5
9E
330
1F
100
AcDbEntity
  8
0
  6
Continuous
 62
     9
100
AcDbLine
 10
88.4886295181
 20
309.6922919283
 30
0.0
 11
88.4886295181
 21
326.2311370482
 31
0.0
  0
LINE
  5
9F
330
1F
100
AcDbEntity
  8
0
  6
Continuous
 62
     7
100
AcDbLine
 10
89.2386295181
 20
298.7386370482
 30
0.0
 11
89.2386295181
 21
289.4061370482
 31
0.0
  0
LINE
  5
A0
330
1F
100
AcDbEntity
  8
0
  6
Continuous
 62
     7
100
AcDbLine
 10
89.2386295181
 20
282.3186037199
 30
0.0
 11
89.2386295181
 21
288.6835478044
 31
0.0
  0
LINE
  5
A1
330
1F
100
AcDbEntity
  8
0
  6
Continuous
 62
     7
100
AcDbLine
 10
89.2386295181
 20
310.7736370482
 30
0.0
 11
89.2386295181
 21
327.1936296055
 31
0.0
  0
LINE
  5
A2
330
1F
100
AcDbEntity
  8
RUNDUNGEN
  6
Continuous
 62
     7
100
AcDbLine
 10
198.4045886138
 20
292.6836102061
 30
0.0
 11
148.5013105734
 21
288.7561370481999
 31
0.0
  0
LINE
  5
A3
330
1F
100
AcDbEntity
  8
0
  6
Continuous
 62
     7
100
AcDbLine
 10
148.5013105734
 20
288.7561370481999
 30
0.0
 11
198.4045886138
 21
292.6836102061
 31
0.0
  0
LINE
  5
A4
330
1F
100
AcDbEntity
  8
0
  6
Continuous
 62
     7
100
AcDbLine
 10
100.2761295181
 20
288.7561370482
 30
0.0
 11
148.5013105734
 21
288.7561370481999
 31
0.0
  0
LINE
  5
A5
330
1F
100
AcDbEntity
  8
0
  6
Continuous
 62
     7
100
AcDbLine
 10
82.019815791
 20
289.0061370482
 30
0.0
 11
85.4504664123
 21
289.0061370482
 31
0.0
  0
LINE
  5
A6
330
1F
100
AcDbEntity
  8
0
  6
Continuous
 62
     7
100
AcDbLine
 10
89.2017926239
 20
289.0061370482
 30
0.0
 11
95.2761295181
 21
289.0061370482
 31
0.0
  0
LINE
  5
A7
330
1F
100
AcDbEntity
  8
0
  6
Continuous
 62
     7
100
AcDbLine
 10
82.019815791
 20
289.4061370482
 30
0.0
 11
85.4504664123
 21
289.4061370482
 31
0.0
  0
LINE
  5
A8
330
1F
100
AcDbEntity
  8
0
  6
Continuous
 62
     7
100
AcDbLine
 10
89.2017926239
 20
289.4061370482
 30
0.0
 11
95.2761295181
 21
289.4061370482
 31
0.0
  0
LINE
  5
A9
330
1F
100
AcDbEntity
  8
0
  6
Continuous
 62
     7
100
AcDbLine
 10
90.7180623496
 20
298.7386370482
 30
0.0
 11
90.7180623496
 21
289.4061370482
 31
0.0
  0
LINE
  5
AA
330
1F
100
AcDbEntity
  8
0
  6
Continuous
 62
     7
100
AcDbLine
 10
90.7180623496
 20
279.7561370482
 30
0.0
 11
90.7180623496
 21
285.0234864406
 31
0.0
  0
LINE
  5
AB
330
1F
100
AcDbEntity
  8
0
  6
Continuous
 62
     7
100
AcDbLine
 10
90.7180623496
 20
310.7736370482
 30
0.0
 11
90.7180623496
 21
329.7561370482
 31
0.0
  0
LINE
  5
AC
330
1F
100
AcDbEntity
  8
0
  6
Continuous
 62
     7
100
AcDbLine
 10
67.9962397511
 20
285.780892544
 30
0.0
 11
67.3261295181
 21
285.6013370482
 31
0.0
  0
LINE
  5
AD
330
1F
100
AcDbEntity
  8
0
  6
Continuous
 62
     7
100
AcDbLine
 10
95.2761295181
 20
283.7561370482
 30
0.0
 11
95.2761295181
 21
279.7561505923
 31
0.0
  0
LINE
  5
AE
330
1F
100
AcDbEntity
  8
RUNDUNGEN
  6
Continuous
 62
     9
100
AcDbLine
 10
100.2761295181
 20
320.7561370482001
 30
0.0
 11
100.2761295181
 21
288.7561370482
 31
0.0
  0
LINE
  5
AF
330
1F
100
AcDbEntity
  8
RUNDUNGEN
  6
Continuous
 62
     9
100
AcDbLine
 10
48.4441876943
 20
297.1061370482
 30
0.0
 11
47.6261295181
 21
297.1061370482
 31
0.0
  0
LINE
  5
B0
330
1F
100
AcDbEntity
  8
0
  6
Continuous
 62
     9
100
AcDbLine
 10
47.6261295181
 20
297.1061370482
 30
0.0
 11
45.16261972789999
 21
297.1061370482
 31
0.0
  0
LINE
  5
B1
330
1F
100
AcDbEntity
  8
0
  6
Continuous
 62
     7
100
AcDbLine
 10
82.2936295181
 20
298.7386370482
 30
0.0
 11
85.4136295181
 21
298.7386370482
 31
0.0
  0
LINE
  5
B2
330
1F
100
AcDbEntity
  8
0
  6
Continuous
 62
     7
100
AcDbLine
 10
89.2386295181
 20
298.7386370482
 30
0.0
 11
95.2761295181
 21
298.7386370482
 31
0.0
  0
LWPOLYLINE
  5
B3
330
1F
100
AcDbEntity
  8
BOHRUNGEN
  6
DASHED
 62
     8
100
AcDbPolyline
 90
        2
 70
     0
 43
0.35
 10
199.3261295181
 20
298.7561370482
 10
152.3261295181
 20
298.7561370482
  0
LINE
  5
B4
330
1F
100
AcDbEntity
  8
0
  6
Continuous
 62
     7
100
AcDbLine
 10
95.2761295181
 20
299.1386370482
 30
0.0
 11
88.9601646653
 21
299.1386370482
 31
0.0
  0
LINE
  5
B5
330
1F
100
AcDbEntity
  8
0
  6
Continuous
 62
     7
100
AcDbLine
 10
85.6920943708
 20
299.1386370482
 30
0.0
 11
82.2936295181
 21
299.1386370482
 31
0.0
  0
LINE
  5
B6
330
1F
100
AcDbEntity
  8
0
  6
Continuous
 62
     7
100
AcDbLine
 10
47.6261295181
 20
299.4861370482
 30
0.0
 11
45.5761295181
 21
299.4861370482
 31
0.0
  0
LINE
  5
B7
330
1F
100
AcDbEntity
  8
0
  6
Continuous
 62
     7
100
AcDbLine
 10
86.1636295181
 20
299.8199821681
 30
0.0
 11
88.4886295181
 21
299.8199821681
 31
0.0
  0
LINE
  5
B8
330
1F
100
AcDbEntity
  8
0
  6
Continuous
 62
     7
100
AcDbLine
 10
83.9341966866
 20
279.7561370482
 30
0.0
 11
85.4136295181
 21
282.3185898787
 31
0.0
  0
LINE
  5
B9
330
1F
100
AcDbEntity
  8
0
  6
Continuous
 62
     7
100
AcDbLine
 10
83.9341966866
 20
329.7561370482
 30
0.0
 11
85.4136295181
 21
327.1936842177
 31
0.0
  0
LWPOLYLINE
  5
BA
330
1F
100
AcDbEntity
  8
TEIL_STARTBEZUEGE
  6
DOT_CENTER
 62
     7
100
AcDbPolyline
 90
        2
 70
     0
 43
0.25
 10
202.3261295181
 20
304.7561370482
 10
41.42612951810001
 20
304.7561370482
  0
LINE
  5
BB
330
1F
100
AcDbEntity
  8
0
  6
Continuous
 62
     7
100
AcDbLine
 10
148.5013105734
 20
320.7561370482001
 30
0.0
 11
148.5013105734
 21
288.7561370481999
 31
0.0
  0
LINE
  5
BC
330
1F
100
AcDbEntity
  8
0
  6
Continuous
 62
     7
100
AcDbLine
 10
88.4886295181
 20
309.6922919283
 30
0.0
 11
86.1636295181
 21
309.6922919283
 31
0.0
  0
LINE
  5
BD
330
1F
100
AcDbEntity
  8
0
  6
Continuous
 62
     7
100
AcDbLine
 10
47.6261295181
 20
310.0261370482
 30
0.0
 11
45.5761295181
 21
310.0261370482
 31
0.0
  0
LINE
  5
BE
330
1F
100
AcDbEntity
  8
0
  6
Continuous
 62
     7
100
AcDbLine
 10
82.2936295181
 20
310.3736370482
 30
0.0
 11
85.6920943708
 21
310.3736370482
 31
0.0
  0
LINE
  5
BF
330
1F
100
AcDbEntity
  8
0
  6
Continuous
 62
     7
100
AcDbLine
 10
88.9601646653
 20
310.3736370482
 30
0.0
 11
95.2761295181
 21
310.3736370482
 31
0.0
  0
LWPOLYLINE
  5
C0
330
1F
100
AcDbEntity
  8
BOHRUNGEN
  6
DASHED
 62
     8
100
AcDbPolyline
 90
        2
 70
     0
 43
0.35
 10
199.3261295181
 20
310.7561370482
 10
152.3261295181
 20
310.7561370482
  0
LINE
  5
C1
330
1F
100
AcDbEntity
  8
0
  6
Continuous
 62
     7
100
AcDbLine
 10
82.2936295181
 20
310.7736370482
 30
0.0
 11
85.4136295181
 21
310.7736370482
 31
0.0
  0
LINE
  5
C2
330
1F
100
AcDbEntity
  8
0
  6
Continuous
 62
     7
100
AcDbLine
 10
89.2386295181
 20
310.7736370482
 30
0.0
 11
95.2761295181
 21
310.7736370482
 31
0.0
  0
LINE
  5
C3
330
1F
100
AcDbEntity
  8
0
  6
Continuous
 62
     9
100
AcDbLine
 10
47.6261295181
 20
312.4061370482
 30
0.0
 11
45.16261972789999
 21
312.4061370482
 31
0.0
  0
LINE
  5
C4
330
1F
100
AcDbEntity
  8
RUNDUNGEN
  6
Continuous
 62
     9
100
AcDbLine
 10
47.6261295181
 20
312.4061370482
 30
0.0
 11
48.4441876943
 21
312.4061370482
 31
0.0
  0
LWPOLYLINE
  5
C5
330
1F
100
AcDbEntity
  8
BOHRUNGEN
  6
DASHED
 62
     8
100
AcDbPolyline
 90
        2
 70
     0
 43
0.35
 10
152.3261295181
 20
298.7561370482
 10
152.3261295181
 20
310.7561370482
  0
LINE
  5
C6
330
1F
100
AcDbEntity
  8
0
  6
Continuous
 62
     7
100
AcDbLine
 10
67.9962397511
 20
323.7313815524
 30
0.0
 11
67.3261295181
 21
323.9109370482
 31
0.0
  0
LINE
  5
C7
330
1F
100
AcDbEntity
  8
RUNDUNGEN
  6
Continuous
 62
     7
100
AcDbLine
 10
148.5013105734
 20
320.7561370482001
 30
0.0
 11
100.2761295181
 21
320.7561370482001
 31
0.0
  0
LINE
  5
C8
330
1F
100
AcDbEntity
  8
0
  6
Continuous
 62
     7
100
AcDbLine
 10
69.0239598875
 20
323.7109370482
 30
0.0
 11
68.1515311781
 21
323.7109370482
 31
0.0
  0
LINE
  5
C9
330
1F
100
AcDbEntity
  8
RUNDUNGEN
  6
Continuous
 62
     7
100
AcDbLine
 10
198.4045886138
 20
316.8286638903
 30
0.0
 11
148.5013105734
 21
320.7561370482001
 31
0.0
  0
LINE
  5
CA
330
1F
100
AcDbEntity
  8
0
  6
Continuous
 62
     7
100
AcDbLine
 10
148.5013105734
 20
320.7561370482001
 30
0.0
 11
198.4045886138
 21
316.8286638903
 31
0.0
  0
LINE
  5
CB
330
1F
100
AcDbEntity
  8
0
  6
Continuous
 62
     7
100
AcDbLine
 10
67.3261295181
 20
323.9109370482
 30
0.0
 11
45.3760922757
 21
322.8112401824
 31
0.0
  0
LINE
  5
CC
330
1F
100
AcDbEntity
  8
0
  6
Continuous
 62
     7
100
AcDbLine
 10
86.1636295181
 20
326.2311370482
 30
0.0
 11
88.4886295181
 21
326.2311370482
 31
0.0
  0
LINE
  5
CD
330
1F
100
AcDbEntity
  8
BEZUGSACHSEN
  6
Continuous
 62
     7
100
AcDbLine
 10
83.9341966866
 20
329.7561370482
 30
0.0
 11
81.3261295181
 21
329.7561370482
 31
0.0
  0
LINE
  5
CE
330
1F
100
AcDbEntity
  8
BEZUGSACHSEN
  6
Continuous
 62
     7
100
AcDbLine
 10
71.3261295181
 20
329.7561370482
 30
0.0
 11
69.3261295181
 21
329.7561370482
 31
0.0
  0
LINE
  5
CF
330
1F
100
AcDbEntity
  8
0
  6
Continuous
 62
     7
100
AcDbLine
 10
69.3261295181
 20
329.7561370482
 30
0.0
 11
71.3261295181
 21
329.7561370482
 31
0.0
  0
LINE
  5
D0
330
1F
100
AcDbEntity
  8
0
  6
Continuous
 62
     7
100
AcDbLine
 10
81.3261295181
 20
329.7561370482
 30
0.0
 11
83.9341966866
 21
329.7561370482
 31
0.0
  0
LINE
  5
D1
330
1F
100
AcDbEntity
  8
0
  6
Continuous
 62
     7
100
AcDbLine
 10
90.7180623496
 20
329.7561370482
 30
0.0
 11
95.2761295181
 21
329.7561370482
 31
0.0
  0
LINE
  5
D2
330
1F
100
AcDbEntity
  8
RUNDUNGEN
  6
Continuous
 62
     9
100
AcDbLine
 10
198.4045886138
 20
292.6836102061
 30
0.0
 11
198.4045886138
 21
316.8286638903
 31
0.0
  0
LINE
  5
D3
330
1F
100
AcDbEntity
  8
RUNDUNGEN
  6
Continuous
 62
     7
100
AcDbLine
 10
199.3261295181
 20
293.6805275399
 30
0.0
 11
199.3261295181
 21
315.8317465565
 31
0.0
  0
LWPOLYLINE
  5
D4
330
1F
100
AcDbEntity
  8
1
  6
Continuous
 62
     7
100
AcDbPolyline
 90
        2
 70
     0
 43
0.25
 10
199.3261295181
 20
315.8317465565
 10
199.3261295181
 20
316.7561370482528
  0
LWPOLYLINE
  5
D5
330
1F
100
AcDbEntity
  8
1
  6
Continuous
 62
     7
100
AcDbPolyline
 90
        2
 70
     0
 43
0.25
 10
198.4045886138
 20
316.8286638903
 10
199.3261295181094
 20
316.7561370482528
  0
LWPOLYLINE
  5
D6
330
1F
100
AcDbEntity
  8
1
  6
Continuous
 62
     7
100
AcDbPolyline
 90
        2
 70
     0
 43
0.25
 10
198.4045886138
 20
292.6836102061
 10
199.3261295181
 20
292.7561370481559
  0
LWPOLYLINE
  5
D7
330
1F
100
AcDbEntity
  8
1
  6
Continuous
 62
     7
100
AcDbPolyline
 90
        2
 70
     0
 43
0.25
 10
199.3261295181
 20
293.6805275399
 10
199.3261295181
 20
292.7561370481559
  0
ARC
  5
D8
330
1F
100
AcDbEntity
  8
0
  6
Continuous
 62
     7
100
AcDbCircle
 10
51.67074111469999
 20
289.2061370482
 30
0.0
 40
33.78031736353757
100
AcDbArc
 50
359.6607721967861
 51
0.33922780321396
  0
ARC
  5
D9
330
1F
100
AcDbEntity
  8
FASEN
  6
Continuous
 62
     7
100
AcDbCircle
 10
84.5004848658
 20
293.1895288568
 30
0.0
 40
11.32173434580007
100
AcDbArc
 50
223.8842578163003
 51
226.159543982623
  0
ARC
  5
DA
330
1F
100
AcDbEntity
  8
FASEN
  6
Continuous
 62
     7
100
AcDbCircle
 10
82.019815791
 20
283.4061370482
 30
0.0
 40
6.0
100
AcDbArc
 50
90.0
 51
161.1845969504023
  0
ARC
  5
DB
330
1F
100
AcDbEntity
  8
FASEN
  6
Continuous
 62
     7
100
AcDbCircle
 10
82.019815791
 20
283.4061370482
 30
0.0
 40
5.599990644600041
100
AcDbArc
 50
90.0
 51
163.2131310087998
  0
ARC
  5
DC
330
1F
100
AcDbEntity
  8
0
  6
Continuous
 62
     7
100
AcDbCircle
 10
86.8389699083
 20
288.684184141
 30
0.0
 40
1.4253405322444
100
AcDbArc
 50
166.945493583629
 51
180.0255794330658
  0
ARC
  5
DD
330
1F
100
AcDbEntity
  8
RUNDUNGEN
  6
Continuous
 62
     7
100
AcDbCircle
 10
47.6261295181
 20
300.8861370482
 30
0.0
 40
1.399999999999977
100
AcDbArc
 50
270.0
 51
353.9429041005092
  0
ARC
  5
DE
330
1F
100
AcDbEntity
  8
0
  6
Continuous
 62
     7
100
AcDbCircle
 10
45.4261295181
 20
287.6997812667
 30
0.0
 40
1.0
100
AcDbArc
 50
179.9999999942679
 51
267.1318795109842
  0
ARC
  5
DF
330
1F
100
AcDbEntity
  8
0
  6
Continuous
 62
     7
100
AcDbCircle
 10
86.1636295181
 20
282.5311370482
 30
0.0
 40
0.75
100
AcDbArc
 50
90.0
 51
180.0
  0
ARC
  5
E0
330
1F
100
AcDbEntity
  8
0
  6
Continuous
 62
     7
100
AcDbCircle
 10
68.1515311781
 20
285.2013370482
 30
0.0
 40
0.6000000000000227
100
AcDbArc
 50
90.0
 51
104.9999999936697
  0
ARC
  5
E1
330
1F
100
AcDbEntity
  8
0
  6
Continuous
 62
     7
100
AcDbCircle
 10
69.0239598875
 20
285.2013370482
 30
0.0
 40
0.599999999999744
100
AcDbArc
 50
59.70317838178284
 51
90.0
  0
ARC
  5
E2
330
1F
100
AcDbEntity
  8
0
  6
Continuous
 62
     7
100
AcDbCircle
 10
85.9172494721
 20
298.6631419152
 30
0.0
 40
0.50373049789972
100
AcDbArc
 50
166.1596109370709
 51
171.3804870337047
  0
ARC
  5
E3
330
1F
100
AcDbEntity
  8
0
  6
Continuous
 62
     7
100
AcDbCircle
 10
-31.3403140697
 20
337.6766725578
 30
0.0
 40
126.7303074974445
100
AcDbArc
 50
335.4508108778812
 51
337.1137532296999
  0
ARC
  5
E4
330
1F
100
AcDbEntity
  8
0
  6
Continuous
 62
     7
100
AcDbCircle
 10
82.2936295181
 20
304.7561370482
 30
0.0
 40
6.017499999999984
100
AcDbArc
 50
90.0
 51
270.0
  0
ARC
  5
E5
330
1F
100
AcDbEntity
  8
FASEN
  6
Continuous
 62
     7
100
AcDbCircle
 10
82.2936295181
 20
304.7561370482
 30
0.0
 40
5.617499843000019
100
AcDbArc
 50
90.0
 51
270.0
  0
ARC
  5
E6
330
1F
100
AcDbEntity
  8
RUNDUNGEN
  6
Continuous
 62
     7
100
AcDbCircle
 10
47.6261295181
 20
308.6261370482
 30
0.0
 40
1.400000000000061
100
AcDbArc
 50
6.05709561601257
 51
90.0
  0
ARC
  5
E7
330
1F
100
AcDbEntity
  8
0
  6
Continuous
 62
     7
100
AcDbCircle
 10
45.4261295181
 20
321.8124928297
 30
0.0
 40
1.000000000076163
100
AcDbArc
 50
92.86812048901561
 51
180.0000000171866
  0
ARC
  5
E8
330
1F
100
AcDbEntity
  8
0
  6
Continuous
 62
     7
100
AcDbCircle
 10
86.1636295181
 20
326.9811370482
 30
0.0
 40
0.75
100
AcDbArc
 50
180.0
 51
270.0
  0
ARC
  5
E9
330
1F
100
AcDbEntity
  8
0
  6
Continuous
 62
     7
100
AcDbCircle
 10
68.1515311781
 20
324.3109370482
 30
0.0
 40
0.6000000000097125
100
AcDbArc
 50
255.0000000063303
 51
270.0
  0
ARC
  5
EA
330
1F
100
AcDbEntity
  8
0
  6
Continuous
 62
     7
100
AcDbCircle
 10
69.0239598875
 20
324.3109370482
 30
0.0
 40
0.6000000000000227
100
AcDbArc
 50
270.0
 51
300.2968216182172
  0
ARC
  5
EB
330
1F
100
AcDbEntity
  8
RUNDUNGEN
  6
Continuous
 62
     7
100
AcDbCircle
 10
134.5962000607
 20
-461.6797228177
 30
0.0
 40
779.4077989054
100
AcDbArc
 50
96.40668094319999
 51
96.57315239320002
  0
ARC
  5
EC
330
1F
100
AcDbEntity
  8
0
  6
Continuous
 62
     7
100
AcDbCircle
 10
122.9815179214
 20
289.2061370482
 30
0.0
 40
33.78031736343756
100
AcDbArc
 50
179.660772196785
 51
180.339227803215
  0
ARC
  5
ED
330
1F
100
AcDbEntity
  8
0
  6
Continuous
 62
     7
100
AcDbCircle
 10
87.8132891278
 20
288.684184141
 30
0.0
 40
1.425340532344747
100
AcDbArc
 50
359.9744205669359
 51
13.05450641546304
  0
ARC
  5
EE
330
1F
100
AcDbEntity
  8
RUNDUNGEN
  6
Continuous
 62
     7
100
AcDbCircle
 10
198.3261295181
 20
293.6805275399
 30
0.0
 40
1.000000000064494
100
AcDbArc
 50
274.4999999981087
 51
0.0
  0
ARC
  5
EF
330
1F
100
AcDbEntity
  8
0
  6
Continuous
 62
     7
100
AcDbCircle
 10
88.4886295181
 20
282.5311370482
 30
0.0
 40
0.75
100
AcDbArc
 50
0.0
 51
90.0
  0
ARC
  5
F0
330
1F
100
AcDbEntity
  8
RUNDUNGEN
  6
Continuous
 62
     7
100
AcDbCircle
 10
134.5962000606
 20
1071.1919969136
 30
0.0
 40
779.4077989048998
100
AcDbArc
 50
263.4268476068
 51
263.5933190568001
  0
ARC
  5
F1
330
1F
100
AcDbEntity
  8
0
  6
Continuous
 62
     7
100
AcDbCircle
 10
205.9925731059
 20
337.6766725578
 30
0.0
 40
126.7303074975
100
AcDbArc
 50
202.8862467703001
 51
204.5491891221188
  0
ARC
  5
F2
330
1F
100
AcDbEntity
  8
RUNDUNGEN
  6
Continuous
 62
     7
100
AcDbCircle
 10
198.3261295181
 20
315.8317465565
 30
0.0
 40
1.0
100
AcDbArc
 50
0.0
 51
85.50000000189128
  0
ARC
  5
F3
330
1F
100
AcDbEntity
  8
0
  6
Continuous
 62
     7
100
AcDbCircle
 10
88.4886295181
 20
326.9811370482
 30
0.0
 40
0.75
100
AcDbArc
 50
270.0
 51
0.0
  0
CIRCLE
  5
F4
330
1F
100
AcDbEntity
  8
FASEN
  6
Continuous
 62
     7
100
AcDbCircle
 10
61.8261295181
 20
304.7561370482
 30
0.0
 40
3.000000000000007
  0
SPLINE
  5
F5
330
1F
100
AcDbEntity
  8
BEZUGSACHSEN
  6
Continuous
 62
     7
100
AcDbSpline
210
0.0
220
0.0
230
1.0
 70
     8
 71
     3
 72
    15
 73
    11
 74
     9
 42
0.0000000001
 43
0.0000000001
 44
0.00000001
 40
0.0
 40
0.0
 40
0.0
 40
0.0
 40
0.9592794728029136
 40
1.918698757760568
 40
2.733413612643737
 40
3.548061682642786
 40
4.096465872437286
 40
4.644852383044869
 40
4.839161107616465
 40
5.03346490927159
 40
5.03346490927159
 40
5.03346490927159
 40
5.03346490927159
 10
76.3261295181
 20
329.251034476
 30
0.0
 10
76.00635015230039
 20
329.2546626389586
 30
0.0
 10
75.36674481380143
 20
329.2619194936699
 30
0.0
 10
74.45693469205801
 20
329.3173337300297
 30
0.0
 10
73.59769082202119
 20
329.3980561861792
 30
0.0
 10
72.87741937410347
 20
329.4896008342538
 30
0.0
 10
72.24761884231653
 20
329.5863254113586
 30
0.0
 10
71.82366356604535
 20
329.6605268505872
 30
0.0
 10
71.5167397643705
 20
329.7184182502603
 30
0.0
 10
71.3896657302685
 20
329.7435642217359
 30
0.0
 10
71.3261295181
 20
329.7561370482
 30
0.0
 11
76.3261295181
 21
329.251034476
 31
0.0
 11
75.3670341576351
 21
329.2698279981749
 31
0.0
 11
74.40925639162089
 21
329.3259271539392
 31
0.0
 11
73.59814607424573
 21
329.4024800625377
 31
0.0
 11
72.78997000648312
 21
329.504963824417
 31
0.0
 11
72.24792085649952
 21
329.5882096914989
 31
0.0
 11
71.70772273245143
 21
329.682622359035
 31
0.0
 11
71.51679316563957
 21
329.7187025608315
 31
0.0
 11
71.3261295181
 21
329.7561370482
 31
0.0
  0
SPLINE
  5
F6
330
1F
100
AcDbEntity
  8
BEZUGSACHSEN
  6
Continuous
 62
     7
100
AcDbSpline
210
0.0
220
0.0
230
1.0
 70
     8
 71
     3
 72
    15
 73
    11
 74
     9
 42
0.0000000001
 43
0.0000000001
 44
0.00000001
 40
0.0
 40
0.0
 40
0.0
 40
0.0
 40
0.1942981503573333
 40
0.3886012245991005
 40
0.9369792400513279
 40
1.485374928917478
 40
2.300027372212015
 40
3.114746618675774
 40
4.074175664738251
 40
5.033464878725394
 40
5.033464878725394
 40
5.033464878725394
 40
5.033464878725394
 10
81.3261295181
 20
329.7561370482
 30
0.0
 10
81.2625951521689
 20
329.7435645961789
 30
0.0
 10
81.13552481022508
 20
329.7184193735271
 30
0.0
 10
80.82860751191447
 20
329.6605290995768
 30
0.0
 10
80.40465972893756
 20
329.586328644556
 30
0.0
 10
79.77486345624087
 20
329.4896040572999
 30
0.0
 10
79.05459197282016
 20
329.3980589472694
 30
0.0
 10
78.19534199632389
 20
329.3173355107662
 30
0.0
 10
77.28552397183307
 20
329.2619199066177
 30
0.0
 10
76.64591213149757
 20
329.2546627765778
 30
0.0
 10
76.3261295181
 20
329.251034476
 30
0.0
 11
81.3261295181
 21
329.7561370482
 31
0.0
 11
81.13547141366585
 21
329.7187036614195
 31
0.0
 11
80.94454740941285
 21
329.6826244532824
 31
0.0
 11
80.40435771987684
 21
329.5882128695105
 31
0.0
 11
79.86231705327108
 21
329.5049677656751
 31
0.0
 11
79.05413672108504
 21
329.4024828690639
 31
0.0
 11
78.24302207634062
 21
329.3259290733408
 31
0.0
 11
77.28523460990684
 21
329.2698285958856
 31
0.0
 11
76.3261295181
 21
329.251034476
 31
0.0
  0
SPLINE
  5
F7
330
1F
100
AcDbEntity
  8
0
  6
Continuous
 62
     7
100
AcDbSpline
210
0.0
220
0.0
230
1.0
 70
     8
 71
     3
 72
    11
 73
     7
 74
     5
 42
0.0000000001
 43
0.0000000001
 44
0.00000001
 40
0.0
 40
0.0
 40
0.0
 40
0.0
 40
0.0719820116788357
 40
0.1441794862678852
 40
0.2163078795541573
 40
0.2883301028249285
 40
0.2883301028249285
 40
0.2883301028249285
 40
0.2883301028249285
 10
45.3760922757
 20
296.9076245022
 30
0.0
 10
45.35236544249923
 20
296.9115276893709
 30
0.0
 10
45.30484075484651
 20
296.9193457470769
 30
0.0
 10
45.23697408662611
 20
296.9447794708666
 30
0.0
 10
45.17273726933751
 20
296.9780070010609
 30
0.0
 10
45.13370300598892
 20
297.0061287992557
 30
0.0
 10
45.11420024909999
 20
297.0201793422
 30
0.0
 11
45.3760922757
 21
296.9076245022
 31
0.0
 11
45.30548214915521
 21
296.9216109254261
 31
0.0
 11
45.23756046674133
 21
296.9460878614089
 31
0.0
 11
45.17364865826357
 21
296.9795211659892
 31
0.0
 11
45.11420024909999
 21
297.0201793422
 31
0.0
  0
SPLINE
  5
F8
330
1F
100
AcDbEntity
  8
RUNDUNGEN
  6
Continuous
 62
     7
100
AcDbSpline
210
0.0
220
0.0
230
1.0
 70
     8
 71
     3
 72
    15
 73
    11
 74
     9
 42
0.0000000001
 43
0.0000000001
 44
0.00000001
 40
0.0
 40
0.0
 40
0.0
 40
0.0
 40
0.2286533797624644
 40
0.4574173648876289
 40
0.6866651597804712
 40
0.9158640491602708
 40
1.146314057934746
 40
1.376831724061334
 40
1.609554238661801
 40
1.842048835029562
 40
1.842048835029562
 40
1.842048835029562
 40
1.842048835029562
 10
48.4441876943
 20
312.4061370482
 30
0.0
 10
48.48659246275867
 20
312.3427729074246
 30
0.0
 10
48.57142251192384
 20
312.2160139750532
 30
0.0
 10
48.68289928704099
 20
312.0158325217214
 30
0.0
 10
48.78204753960802
 20
311.8091769295438
 30
0.0
 10
48.86654764848998
 20
311.5954408008946
 30
0.0
 10
48.93532326194591
 20
311.3756472444403
 30
0.0
 10
48.98630031638078
 20
311.1499151976913
 30
0.0
 10
49.01963959872025
 20
310.9199336634082
 30
0.0
 10
49.02396691831733
 20
310.7648107519677
 30
0.0
 10
49.02612951810001
 20
310.687287295
 30
0.0
 11
48.4441876943
 21
312.4061370482
 31
0.0
 11
48.56876064069943
 21
312.2143977744396
 31
0.0
 11
48.68075617879727
 21
312.0149235647369
 31
0.0
 11
48.77957658673709
 21
311.8080683534469
 31
0.0
 11
48.86376450897755
 21
311.5948911392757
 31
0.0
 11
48.93230221849813
 21
311.37486889286
 31
0.0
 11
48.9832054641309
 21
311.1500417281745
 31
0.0
 11
49.01515470229592
 21
310.9195227159811
 31
0.0
 11
49.02612951810001
 21
310.687287295
 31
0.0
  0
SPLINE
  5
F9
330
1F
100
AcDbEntity
  8
RUNDUNGEN
  6
Continuous
 62
     7
100
AcDbSpline
210
0.0
220
0.0
230
1.0
 70
     8
 71
     3
 72
    15
 73
    11
 74
     9
 42
0.0000000001
 43
0.0000000001
 44
0.00000001
 40
0.0
 40
0.0
 40
0.0
 40
0.0
 40
0.1273079847291115
 40
0.254989380339442
 40
0.3793073350463678
 40
0.5035989686959755
 40
0.6245667031302906
 40
0.745559172139507
 40
0.8645937372455342
 40
0.9835510381154924
 40
0.9835510381154924
 40
0.9835510381154924
 40
0.9835510381154924
 10
47.6261295181
 20
312.8606078458
 30
0.0
 10
47.66860868772171
 20
312.863054489909
 30
0.0
 10
47.7536916238959
 20
312.8679549544523
 30
0.0
 10
47.87933797554881
 20
312.8462907669855
 30
0.0
 10
47.99812399278693
 20
312.8046512945382
 30
0.0
 10
48.10689064147858
 20
312.7457798057233
 30
0.0
 10
48.20574084671501
 20
312.6736057691668
 30
0.0
 10
48.29412649089353
 20
312.5916523571976
 30
0.0
 10
48.37417137096548
 20
312.5024136612933
 30
0.0
 10
48.42085397170217
 20
312.438222305974
 30
0.0
 10
48.4441876943
 20
312.4061370482
 30
0.0
 11
47.6261295181
 21
312.8606078458
 31
0.0
 11
47.75341318647815
 21
312.8630959655699
 31
0.0
 11
47.87944445847415
 21
312.8426348496651
 31
0.0
 11
47.99680346044899
 21
312.8016248689533
 31
0.0
 11
48.10633174917693
 21
312.742871450639
 31
0.0
 11
48.20421873987145
 21
312.6717987426074
 31
0.0
 11
48.29327243484868
 21
312.5898925952932
 31
0.0
 11
48.37259159603303
 21
312.5011361963183
 31
0.0
 11
48.4441876943
 21
312.4061370482
 31
0.0
  0
SPLINE
  5
FA
330
1F
100
AcDbEntity
  8
RUNDUNGEN
  6
Continuous
 62
     7
100
AcDbSpline
210
0.0
220
0.0
230
1.0
 70
     8
 71
     3
 72
    15
 73
    11
 74
     9
 42
0.0000000001
 43
0.0000000001
 44
0.00000001
 40
0.0
 40
0.0
 40
0.0
 40
0.0
 40
0.2324947530444142
 40
0.4652174309666156
 40
0.6957353317467257
 40
0.9261855606571372
 40
1.155384407780189
 40
1.384632178789639
 40
1.613395801703662
 40
1.842048806047806
 40
1.842048806047806
 40
1.842048806047806
 40
1.842048806047806
 10
49.02612951810001
 20
298.8249868014
 30
0.0
 10
49.02396691112292
 20
298.7474632921914
 30
0.0
 10
49.01963957706955
 20
298.5923402740528
 30
0.0
 10
48.98630023863386
 20
298.3623585618657
 30
0.0
 10
48.93532317983033
 20
298.1366263054459
 30
0.0
 10
48.86654748346864
 20
297.9168326251751
 30
0.0
 10
48.78204710888681
 20
297.7030965427588
 30
0.0
 10
48.68289873371692
 20
297.4964411752891
 30
0.0
 10
48.57142222842266
 20
297.2962598664731
 30
0.0
 10
48.48659236744598
 20
297.1695011027946
 30
0.0
 10
48.4441876943
 20
297.1061370482
 30
0.0
 11
49.02612951810001
 21
298.8249868014
 31
0.0
 11
49.01515467568908
 21
298.5927512248247
 31
0.0
 11
48.98320539996075
 21
298.3622320529545
 31
0.0
 11
48.93230211835155
 21
298.1374046558218
 31
0.0
 11
48.86376427928563
 21
297.9173822191908
 31
0.0
 11
48.77957616914821
 21
297.7042051246567
 31
0.0
 11
48.68075563043506
 21
297.4973500023095
 31
0.0
 11
48.56876034768227
 21
297.2978760646388
 31
0.0
 11
48.4441876943
 21
297.1061370482
 31
0.0
  0
SPLINE
  5
FB
330
1F
100
AcDbEntity
  8
RUNDUNGEN
  6
Continuous
 62
     7
100
AcDbSpline
210
0.0
220
0.0
230
1.0
 70
     8
 71
     3
 72
    17
 73
    13
 74
    11
 42
0.0000000001
 43
0.0000000001
 44
0.00000001
 40
0.0
 40
0.0
 40
0.0
 40
0.0
 40
0.1190059193336551
 40
0.2380814744384863
 40
0.3590691915544433
 40
0.4800850747943288
 40
0.6044906460778379
 40
0.7286521944434274
 40
0.7922003881789749
 40
0.8557409872044363
 40
0.9198158321793979
 40
0.9838416202048189
 40
0.9838416202048189
 40
0.9838416202048189
 40
0.9838416202048189
 10
48.4441876943
 20
297.1061370482
 30
0.0
 10
48.42084199356066
 20
297.0740405171648
 30
0.0
 10
48.3741369314516
 20
297.0098286739554
 30
0.0
 10
48.29407046897978
 20
296.9205708797992
 30
0.0
 10
48.20569954000518
 20
296.8385691868724
 30
0.0
 10
48.10677478194385
 20
296.7663625145576
 30
0.0
 10
47.99794070906438
 20
296.7077485716047
 30
0.0
 10
47.899378657093
 20
296.6728686147817
 30
0.0
 10
47.81733212793224
 20
296.6555216648188
 30
0.0
 10
47.75396920872782
 20
296.648128602268
 30
0.0
 10
47.6899819064637
 20
296.6461952707722
 30
0.0
 10
47.64740821293262
 20
296.6498430563049
 30
0.0
 10
47.6261295181
 20
296.6516662506
 30
0.0
 11
48.4441876943
 21
297.1061370482
 31
0.0
 11
48.37255573791555
 21
297.0111040451906
 31
0.0
 11
48.29321175818773
 21
296.9223148526925
 31
0.0
 11
48.20417955013502
 21
296.8403923672432
 31
0.0
 11
48.10622835534603
 21
296.7693261485754
 31
0.0
 11
47.99654205219382
 21
296.7106263950224
 31
0.0
 11
47.87935357952594
 21
296.6696025974616
 31
0.0
 11
47.81717375002354
 21
296.6564861295643
 31
0.0
 11
47.75406934605532
 21
296.6490536384388
 31
0.0
 11
47.69001505671474
 21
296.6474307473028
 31
0.0
 11
47.6261295181
 21
296.6516662506
 31
0.0
  0
SPLINE
  5
FC
330
1F
100
AcDbEntity
  8
FASEN
  6
Continuous
 62
     7
100
AcDbSpline
210
0.0
220
0.0
230
1.0
 70
     8
 71
     3
 72
    41
 73
    37
 74
    35
 42
0.0000000001
 43
0.0000000001
 44
0.00000001
 40
0.0
 40
0.0
 40
0.0
 40
0.0
 40
0.3535888544108389
 40
0.7075507289680423
 40
1.060684840950024
 40
1.413709983431635
 40
1.765779918096785
 40
2.117876005235445
 40
2.469055569696835
 40
2.820227711307941
 40
3.171084425292004
 40
3.521941346669046
 40
3.873160085289235
 40
4.224381765494233
 40
4.576461723128752
 40
4.928542604201919
 40
5.281581803839607
 40
5.634626310481408
 40
5.988339657455683
 40
6.34204147853186
 40
6.695908397043581
 40
7.049820838087426
 40
7.40359521630501
 40
7.757194007934328
 40
7.933994428134005
 40
8.110739696183614
 40
8.287420502917444
 40
8.464157456653336
 40
8.817287503310244
 40
9.170592253423946
 40
9.523997521671488
 40
9.877334047523286
 40
10.23089310701976
 40
10.58456791529126
 40
10.9386093564148
 40
11.29227461516902
 40
11.29227461516902
 40
11.29227461516902
 40
11.29227461516902
 10
65.4253779296
 20
304.7561370482
 30
0.0
 10
65.42206931942587
 20
304.6382254560144
 30
0.0
 10
65.4154486086445
 20
304.4022778802808
 30
0.0
 10
65.36157177573101
 20
304.0519729359767
 30
0.0
 10
65.27633848758862
 20
303.7085869122503
 30
0.0
 10
65.15751002189472
 20
303.3758057053255
 30
0.0
 10
65.00684733681493
 20
303.0566301864563
 30
0.0
 10
64.8258973899191
 20
302.7542844413091
 30
0.0
 10
64.61619622927259
 20
302.4715048828513
 30
0.0
 10
64.38003505440166
 20
302.2109711661999
 30
0.0
 10
64.11941562022818
 20
301.9750679906297
 30
0.0
 10
63.83691386665431
 20
301.7658400373159
 30
0.0
 10
63.53507184894815
 20
301.5853958188374
 30
0.0
 10
63.21667362106867
 20
301.4351454603614
 30
0.0
 10
62.88481395261803
 20
301.3167212895888
 30
0.0
 10
62.54242299692618
 20
301.2310008091971
 30
0.0
 10
62.19298440239143
 20
301.1790387118436
 30
0.0
 10
61.83961300545049
 20
301.16118187396
 30
0.0
 10
61.48595847192782
 20
301.1777959317096
 30
0.0
 10
61.13530645822388
 20
301.2286399815689
 30
0.0
 10
60.79120706023875
 20
301.3134073363445
 30
0.0
 10
60.45694959825894
 20
301.4312389399995
 30
0.0
 10
60.13591485425196
 20
301.5811522178971
 30
0.0
 10
59.88186856493594
 20
301.731578699516
 30
0.0
 10
59.68842695352602
 20
301.8664091181649
 30
0.0
 10
59.54851849616182
 20
301.9745264554201
 30
0.0
 10
59.41409374892142
 20
302.0893579824477
 30
0.0
 10
59.24270899357497
 20
302.2510129003101
 30
0.0
 10
59.04376305529604
 20
302.4687119187353
 30
0.0
 10
58.83188935179854
 20
302.7521072436374
 30
0.0
 10
58.64909032774806
 20
303.0551837713195
 30
0.0
 10
58.49705714764875
 20
303.3748647589237
 30
0.0
 10
58.37715766386893
 20
303.7080986610897
 30
0.0
 10
58.29120723203135
 20
304.0517108097482
 30
0.0
 10
58.2369297930421
 20
304.4022007004659
 30
0.0
 10
58.23022948149442
 20
304.6382000808759
 30
0.0
 10
58.2268811065
 20
304.7561370482
 30
0.0
 11
65.4253779296
 21
304.7561370482
 31
0.0
 11
65.40813010236023
 21
304.4029691130486
 31
0.0
 11
65.35628404188
 21
304.0528248646984
 31
0.0
 11
65.2706980741235
 21
303.7102190516005
 31
0.0
 11
65.15206091377371
 21
303.3777254796201
 31
0.0
 11
65.00175537032743
 21
303.0593522984248
 31
0.0
 11
64.8209080197331
 21
302.7572498483166
 31
0.0
 11
64.61174222820024
 21
302.475156321011
 31
0.0
 11
64.37587160479472
 21
302.2149892169066
 31
0.0
 11
64.11577179576253
 21
301.9795141161229
 31
0.0
 11
63.83380774882902
 21
301.7707155157563
 31
0.0
 11
63.53237396221613
 21
301.5904593795329
 31
0.0
 11
63.21473883945632
 21
301.4405774345383
 31
0.0
 11
62.88315578985185
 21
301.3222010104374
 31
0.0
 11
62.54161438288799
 21
301.2367000505222
 31
0.0
 11
62.19242090317127
 21
301.1847328473635
 31
0.0
 11
61.83982567559212
 21
301.1669275347191
 31
0.0
 11
61.48650069516653
 21
301.1834982931506
 31
0.0
 11
61.13646342558284
 21
301.2342810474576
 31
0.0
 11
60.79286602710285
 21
301.3189133331101
 31
0.0
 11
60.45909720023133
 21
301.4366094933466
 31
0.0
 11
60.13854575434451
 21
301.5862860821075
 31
0.0
 11
59.83431650995187
 21
301.7664989348622
 31
0.0
 11
59.68926839544329
 21
301.86759014645
 31
0.0
 11
59.54941293891768
 21
301.9756611465284
 31
0.0
 11
59.41507844546994
 21
302.0904232976857
 31
0.0
 11
59.28651607381124
 21
302.2116984699566
 31
0.0
 11
59.04827758033777
 21
302.472357730447
 31
0.0
 11
58.83676081022733
 21
302.7553504908049
 31
0.0
 11
58.65421351073983
 21
303.0579587641137
 31
0.0
 11
58.50244659101863
 21
303.377041045946
 31
0.0
 11
58.38283808270954
 21
303.7097538549752
 31
0.0
 11
58.2965126794855
 21
304.0527316891921
 31
0.0
 11
58.24429107931775
 21
304.4029005720312
 31
0.0
 11
58.2268811065
 21
304.7561370482
 31
0.0
  0
SPLINE
  5
FD
330
1F
100
AcDbEntity
  8
0
  6
Continuous
 62
     7
100
AcDbSpline
210
0.0
220
0.0
230
1.0
 70
     8
 71
     3
 72
    11
 73
     7
 74
     5
 42
0.0000000001
 43
0.0000000001
 44
0.00000001
 40
0.0
 40
0.0
 40
0.0
 40
0.0
 40
0.072033561717834
 40
0.1441734620542568
 40
0.2163593593842416
 40
0.2883296529141803
 40
0.2883296529141803
 40
0.2883296529141803
 40
0.2883296529141803
 10
45.11420024909999
 20
312.4920947542
 30
0.0
 10
45.13370630258105
 20
312.5061472242456
 30
0.0
 10
45.17274720510366
 20
312.5342729091152
 30
0.0
 10
45.23698912979232
 20
312.5674989020404
 30
0.0
 10
45.30485232649161
 20
312.5929300957143
 30
0.0
 10
45.35236931518426
 20
312.6007469917566
 30
0.0
 10
45.3760922757
 20
312.6046495942
 30
0.0
 11
45.11420024909999
 21
312.4920947542
 31
0.0
 11
45.17365887504992
 21
312.5327580769111
 31
0.0
 11
45.23758230179549
 21
312.5661939967227
 31
0.0
 11
45.305493630882
 21
312.5906655139426
 31
0.0
 11
45.3760922757
 21
312.6046495942
 31
0.0
  0
SPLINE
  5
FE
330
1F
100
AcDbEntity
  8
0
  6
Continuous
 62
     7
100
AcDbSpline
210
0.0
220
0.0
230
1.0
 70
     8
 71
     3
 72
    27
 73
    23
 74
    21
 42
0.0000000001
 43
0.0000000001
 44
0.00000001
 40
0.0
 40
0.0
 40
0.0
 40
0.0
 40
0.0679422773459752
 40
0.1359904672704989
 40
0.1960311418290251
 40
0.255828864433661
 40
0.2829045759170653
 40
0.3099751665569921
 40
0.3357621418708275
 40
0.3615450077178932
 40
0.3868874812896456
 40
0.4122310012390398
 40
0.4380221513227797
 40
0.4638182097933643
 40
0.5190828347291988
 40
0.5745822154680938
 40
0.6366003188380908
 40
0.6985580375663788
 40
0.7666673009205595
 40
0.8347923376037516
 40
0.9078434200739222
 40
0.9808740974615204
 40
0.9808740974615204
 40
0.9808740974615204
 40
0.9808740974615204
 10
44.4261295181
 20
312.30092094
 30
0.0
 10
44.42659727815776
 20
312.3235776811035
 30
0.0
 10
44.4275335274463
 20
312.3689264820248
 30
0.0
 10
44.43665044888387
 20
312.4338145565973
 30
0.0
 10
44.45239300683414
 20
312.4945790479127
 30
0.0
 10
44.47196025065824
 20
312.5397998215157
 30
0.0
 10
44.49198077507569
 20
312.5721375321739
 30
0.0
 10
44.50828235945852
 20
312.5932826374792
 30
0.0
 10
44.52655192177934
 20
312.6121567238943
 30
0.0
 10
44.54642527121823
 20
312.6284502101014
 30
0.0
 10
44.56799632055048
 20
312.642142788717
 30
0.0
 10
44.59101469984369
 20
312.6532306511101
 30
0.0
 10
44.61530711469307
 20
312.661618206976
 30
0.0
 10
44.65008225525988
 20
312.6695790617192
 30
0.0
 10
44.69580123490353
 20
312.6727469486079
 30
0.0
 10
44.75330779725154
 20
312.6672355234047
 30
0.0
 10
44.81175115950722
 20
312.6537193114207
 30
0.0
 10
44.87224099862419
 20
312.6324541160564
 30
0.0
 10
44.93256232621073
 20
312.6053344724583
 30
0.0
 10
44.99392958507381
 20
312.5720665750159
 30
0.0
 10
45.0546975888497
 20
312.5344747006052
 30
0.0
 10
45.09436787609975
 20
312.5062200874423
 30
0.0
 10
45.11420024909999
 20
312.4920947542
 30
0.0
 11
44.4261295181
 21
312.30092094
 31
0.0
 11
44.42887778319264
 21
312.3688076109299
 31
0.0
 11
44.43837057380924
 21
312.4361904208914
 31
0.0
 11
44.45389939746995
 21
312.4941881642713
 31
0.0
 11
44.47806845102838
 21
312.5488839088845
 31
0.0
 11
44.49236395218953
 21
312.5718780994309
 31
0.0
 11
44.50893756913165
 21
312.593282120059
 31
0.0
 11
44.52688906251176
 21
312.6117946018284
 31
0.0
 11
44.54684721808123
 21
312.6281172302182
 31
0.0
 11
44.56823543640301
 21
312.6417107979528
 31
0.0
 11
44.59106569752996
 21
312.6527141238273
 31
0.0
 11
44.6154304077829
 21
312.6611725111991
 31
0.0
 11
44.64056831107849
 21
312.6669623687552
 31
0.0
 11
44.69566850826724
 21
312.6712223029166
 31
0.0
 11
44.7509496763152
 21
312.6663056250083
 31
0.0
 11
44.8114381491001
 21
312.6526165853867
 31
0.0
 11
44.86999232691285
 21
312.6323640010902
 31
0.0
 11
44.93217836616207
 21
312.6045832833683
 31
0.0
 11
44.99217172326143
 21
312.5723060820176
 31
0.0
 11
45.05426039696376
 21
312.5338163788757
 31
0.0
 11
45.11420024909999
 21
312.4920947542
 31
0.0
  0
SPLINE
  5
FF
330
1F
100
AcDbEntity
  8
0
  6
Continuous
 62
     7
100
AcDbSpline
210
0.0
220
0.0
230
1.0
 70
     8
 71
     3
 72
    25
 73
    21
 74
    19
 42
0.0000000001
 43
0.0000000001
 44
0.00000001
 40
0.0
 40
0.0
 40
0.0
 40
0.0
 40
0.0272067661449932
 40
0.0544881809679603
 40
0.0817226175558183
 40
0.1089430469804732
 40
0.1361366760817062
 40
0.1633351632023315
 40
0.1904968256336323
 40
0.2176561384110337
 40
0.2719142873990998
 40
0.3262206322786942
 40
0.3804997304002337
 40
0.4347596646584852
 40
0.4890233385929484
 40
0.543290387302452
 40
0.5975530058400655
 40
0.651816274624158
 40
0.7603346281728764
 40
0.8688546603467159
 40
0.8688546603467159
 40
0.8688546603467159
 40
0.8688546603467159
 10
86.1636295181
 20
309.6922919283
 30
0.0
 10
86.15455306176925
 20
309.6927289185876
 30
0.0
 10
86.13637524554287
 20
309.6936040981566
 30
0.0
 10
86.10977384358952
 20
309.7001430206834
 30
0.0
 10
86.08429960412074
 20
309.7099515421743
 30
0.0
 10
86.06023010305938
 20
309.7227900430352
 30
0.0
 10
86.03760725055022
 20
309.7379646637462
 30
0.0
 10
86.01638255328949
 20
309.7549937028366
 30
0.0
 10
85.99639735509345
 20
309.7734317495037
 30
0.0
 10
85.97128140543036
 20
309.7995141182644
 30
0.0
 10
85.94234860826947
 20
309.8343795000656
 30
0.0
 10
85.91097921627716
 20
309.8787223344995
 30
0.0
 10
85.88215579528061
 20
309.9247469665179
 30
0.0
 10
85.85553880332498
 20
309.9720570114209
 30
0.0
 10
85.83072781006905
 20
310.020328349832
 30
0.0
 10
85.80750034897757
 20
310.0693790256028
 30
0.0
 10
85.78561751073772
 20
310.1190424215961
 30
0.0
 10
85.75807273761711
 20
310.1859458809924
 30
0.0
 10
85.72610061700391
 20
310.2705744892619
 30
0.0
 10
85.7034298446483
 20
310.3392826847522
 30
0.0
 10
85.6920943708
 20
310.3736370482
 30
0.0
 11
86.1636295181
 21
309.6922919283
 31
0.0
 11
86.13651021024683
 21
309.6944716681086
 31
0.0
 11
86.10994756530278
 21
309.7006927201354
 31
0.0
 11
86.08452501493056
 21
309.7104604460135
 31
0.0
 11
86.06046180518774
 21
309.7231849780259
 31
0.0
 11
86.03783896402044
 21
309.7382747269044
 31
0.0
 11
86.0165783944715
 21
309.7552378010392
 31
0.0
 11
85.99658479874806
 21
309.7736229046854
 31
0.0
 11
85.97771411624899
 21
309.7931555853145
 31
0.0
 11
85.94291583838718
 21
309.8347852212661
 31
0.0
 11
85.91139865190505
 21
309.8790101695469
 31
0.0
 11
85.88251902527142
 21
309.9249687123696
 31
0.0
 11
85.85584005577785
 21
309.9722167075913
 31
0.0
 11
85.83099230266285
 21
310.0204571001478
 31
0.0
 11
85.80772383150148
 21
310.0694825101456
 31
0.0
 11
85.78582142728851
 21
310.1191284209565
 31
0.0
 11
85.76512208187556
 21
310.169288558901
 31
0.0
 11
85.72682744806352
 21
310.2708255180742
 31
0.0
 11
85.6920943708
 21
310.3736370482
 31
0.0
  0
SPLINE
  5
100
330
1F
100
AcDbEntity
  8
0
  6
Continuous
 62
     7
100
AcDbSpline
210
0.0
220
0.0
230
1.0
 70
     8
 71
     3
 72
    25
 73
    21
 74
    19
 42
0.0000000001
 43
0.0000000001
 44
0.00000001
 40
0.0
 40
0.0
 40
0.0
 40
0.0
 40
0.1085285490977289
 40
0.2170554557158071
 40
0.2713241332977703
 40
0.3255921109319413
 40
0.3798650579452416
 40
0.4341347749101452
 40
0.488400782506311
 40
0.5426855351802443
 40
0.5969918906406945
 40
0.651251125279552
 40
0.678412428118248
 40
0.7055751104942991
 40
0.7327602080947723
 40
0.7599421722285076
 40
0.7871532997298921
 40
0.8143760191547399
 40
0.8416525757878144
 40
0.8688563236157665
 40
0.8688563236157665
 40
0.8688563236157665
 40
0.8688563236157665
 10
88.9601646653
 20
310.3736370482
 30
0.0
 10
88.94882824189656
 20
310.3392800076219
 30
0.0
 10
88.926155566656
 20
310.2705664464278
 30
0.0
 10
88.89418054679209
 20
310.1859309252098
 30
0.0
 10
88.86663348836127
 20
310.1190214427893
 30
0.0
 10
88.84474837698869
 20
310.0693529730131
 30
0.0
 10
88.82151795284952
 20
310.0202973138012
 30
0.0
 10
88.79670372076033
 20
309.9720208944655
 30
0.0
 10
88.77008380492244
 20
309.9247056930827
 30
0.0
 10
88.74125644918786
 20
309.8786788203806
 30
0.0
 10
88.70988003469647
 20
309.834338103865
 30
0.0
 10
88.68094309954688
 20
309.7994750289709
 30
0.0
 10
88.65582637955427
 20
309.7733915241864
 30
0.0
 10
88.63584070308156
 20
309.75495878687
 30
0.0
 10
88.61461283599914
 20
309.7379462746568
 30
0.0
 10
88.59199449256334
 20
309.7227864373185
 30
0.0
 10
88.56794044669412
 20
309.7099434733343
 30
0.0
 10
88.54247797790886
 20
309.7001264951812
 30
0.0
 10
88.51588018785966
 20
309.6935985447469
 30
0.0
 10
88.49770497808896
 20
309.6927270788996
 30
0.0
 10
88.4886295181
 20
309.6922919283
 30
0.0
 11
88.9601646653
 21
310.3736370482
 31
0.0
 11
88.92542866238458
 21
310.2708175166376
 31
0.0
 11
88.88713085712041
 21
310.1692726124226
 31
0.0
 11
88.86642951878245
 21
310.1191074456481
 31
0.0
 11
88.84452486897369
 21
310.0694566680785
 31
0.0
 11
88.82125345278568
 21
310.0204261269219
 31
0.0
 11
88.7964025186411
 21
309.972180575297
 31
0.0
 11
88.76972015777389
 21
309.9249275203801
 31
0.0
 11
88.74083530449956
 21
309.8789655836912
 31
0.0
 11
88.70931327341273
 21
309.8347440753547
 31
0.0
 11
88.6745108713371
 21
309.7931164720924
 31
0.0
 11
88.65563816856972
 21
309.7735829761905
 31
0.0
 11
88.63564020222087
 21
309.7552011194896
 31
0.0
 11
88.61438242757566
 21
309.7382560155159
 31
0.0
 11
88.5917653639066
 21
309.7231786283033
 31
0.0
 11
88.56771403821362
 21
309.7104515236716
 31
0.0
 11
88.54230541922234
 21
309.7006802118948
 31
0.0
 11
88.5157463000123
 21
309.6944654127392
 31
0.0
 11
88.4886295181
 21
309.6922919283
 31
0.0
  0
SPLINE
  5
101
330
1F
100
AcDbEntity
  8
0
  6
Continuous
 62
     7
100
AcDbSpline
210
0.0
220
0.0
230
1.0
 70
     8
 71
     3
 72
    25
 73
    21
 74
    19
 42
0.0000000001
 43
0.0000000001
 44
0.00000001
 40
0.0
 40
0.0
 40
0.0
 40
0.0
 40
0.0272074181286171
 40
0.0544897103699744
 40
0.081725261543863
 40
0.1089465263904403
 40
0.1361394922774538
 40
0.163337502714301
 40
0.1904999127532458
 40
0.2176598700653561
 40
0.2719180516381825
 40
0.326224562060276
 40
0.3805032119813902
 40
0.4347626393416146
 40
0.4890258447079196
 40
0.5432924465189827
 40
0.5975546789310364
 40
0.651817554193711
 40
0.7603351296696949
 40
0.868854387813805
 40
0.868854387813805
 40
0.868854387813805
 40
0.868854387813805
 10
88.4886295181
 20
299.8199821681
 30
0.0
 10
88.49770619096164
 20
299.8195449276163
 30
0.0
 10
88.51588451545445
 20
299.8186692433745
 30
0.0
 10
88.54248638866947
 20
299.8121287015216
 30
0.0
 10
88.56796184536279
 20
299.8023209629645
 30
0.0
 10
88.59203236892833
 20
299.7894833337352
 30
0.0
 10
88.61465474067836
 20
299.7743080952068
 30
0.0
 10
88.63587859628244
 20
299.7572782463276
 30
0.0
 10
88.65586395163847
 20
299.738839947454
 30
0.0
 10
88.68098045546242
 20
299.7127574452491
 30
0.0
 10
88.70991305267565
 20
299.6778914957115
 30
0.0
 10
88.74128164584876
 20
299.633548212269
 30
0.0
 10
88.7701047968931
 20
299.5875237352896
 30
0.0
 10
88.79672167641118
 20
299.5402141707048
 30
0.0
 10
88.82153240645623
 20
299.4919432278308
 30
0.0
 10
88.8447595820544
 20
299.4428928974648
 30
0.0
 10
88.86664221856695
 20
299.3932298600258
 30
0.0
 10
88.89418678628653
 20
299.3263268776855
 30
0.0
 10
88.92615866594085
 20
299.2416988719553
 30
0.0
 10
88.94882927359251
 20
299.1729911670134
 30
0.0
 10
88.9601646653
 20
299.1386370482
 30
0.0
 11
88.4886295181
 21
299.8199821681
 31
0.0
 11
88.51574940912258
 21
299.8178015461363
 31
0.0
 11
88.54231270545566
 21
299.8115794276977
 31
0.0
 11
88.56773656233925
 21
299.8018119946209
 31
0.0
 11
88.59180092145868
 21
299.7890878490693
 31
0.0
 11
88.61442292467488
 21
299.7739980391229
 31
0.0
 11
88.63568255654803
 21
299.7570345540936
 31
0.0
 11
88.65567656702162
 21
299.7386487969891
 31
0.0
 11
88.67454777963015
 21
299.7191157323069
 31
0.0
 11
88.70934574553642
 21
299.6774857931239
 31
0.0
 11
88.74086242810873
 21
299.6332602824558
 31
0.0
 11
88.76974162186917
 21
299.5873019969677
 31
0.0
 11
88.79642039281663
 21
299.5400544717606
 31
0.0
 11
88.82126790400122
 21
299.4918144816636
 31
0.0
 11
88.84453610331661
 21
299.4427894373216
 31
0.0
 11
88.86643830962488
 21
299.3931438612329
 31
0.0
 11
88.8871374938212
 21
299.3429840824717
 31
0.0
 11
88.92543184131814
 21
299.2414478468857
 31
0.0
 11
88.9601646653
 21
299.1386370482
 31
0.0
  0
SPLINE
  5
102
330
1F
100
AcDbEntity
  8
0
  6
Continuous
 62
     7
100
AcDbSpline
210
0.0
220
0.0
230
1.0
 70
     8
 71
     3
 72
    25
 73
    21
 74
    19
 42
0.0000000001
 43
0.0000000001
 44
0.00000001
 40
0.0
 40
0.0
 40
0.0
 40
0.0
 40
0.1085025556844868
 40
0.2170033620505711
 40
0.2712583157975927
 40
0.3255127643024031
 40
0.3797719179216829
 40
0.4340272286554728
 40
0.4882788892800847
 40
0.5425511686316411
 40
0.5968541105456766
 40
0.651105129060447
 40
0.6782579265050248
 40
0.705416115862098
 40
0.7326228693680068
 40
0.7598194769019957
 40
0.7870692643876311
 40
0.8143404776825145
 40
0.8416356459165572
 40
0.8688504930332812
 40
0.8688504930332812
 40
0.8688504930332812
 40
0.8688504930332812
 10
85.6920943708
 20
299.1386370482
 30
0.0
 10
85.70342802132507
 20
299.1729858780504
 30
0.0
 10
85.72609513964994
 20
299.241682983967
 30
0.0
 10
85.75806186402932
 20
299.3262981746892
 30
0.0
 10
85.78560174826953
 20
299.3931913755448
 30
0.0
 10
85.80748036845209
 20
299.442847740128
 30
0.0
 10
85.83070253203404
 20
299.4918919047462
 30
0.0
 10
85.85550816579466
 20
299.5401568213962
 30
0.0
 10
85.88212099868446
 20
299.587460229664
 30
0.0
 10
85.91093606997507
 20
299.6334825766839
 30
0.0
 10
85.94228658712603
 20
299.6778314556724
 30
0.0
 10
85.97121142268169
 20
299.7126970968957
 30
0.0
 10
85.99633340319717
 20
299.7387658604082
 30
0.0
 10
86.0163158439425
 20
299.7572050593615
 30
0.0
 10
86.03751769704425
 20
299.7742657103885
 30
0.0
 10
86.06013724323091
 20
299.7894721015392
 30
0.0
 10
86.08424407938385
 20
299.8022935805836
 30
0.0
 10
86.10975373171632
 20
299.8120783696755
 30
0.0
 10
86.13636536595344
 20
299.8186525773177
 30
0.0
 10
86.15455039933451
 20
299.819539406757
 30
0.0
 10
86.1636295181
 20
299.8199821681
 30
0.0
 11
85.6920943708
 21
299.1386370482
 31
0.0
 11
85.72682180243675
 21
299.2414320387491
 31
0.0
 11
85.76510984176664
 21
299.3429527313509
 31
0.0
 11
85.78580552934594
 21
299.3931053835411
 31
0.0
 11
85.80770363454674
 21
299.4427442611591
 31
0.0
 11
85.83096708601792
 21
299.4917633143643
 31
0.0
 11
85.85580957403666
 21
299.539997011422
 31
0.0
 11
85.88248313862327
 21
299.5872385570442
 31
0.0
 11
85.91135309320798
 21
299.6331951238034
 31
0.0
 11
85.94285623961501
 21
299.6774258966541
 31
0.0
 11
85.97764755597935
 21
299.7190520580857
 31
0.0
 11
85.99651844883878
 21
299.7385754750959
 31
0.0
 11
86.01650499035297
 21
299.7569631178882
 31
0.0
 11
86.03775259792343
 21
299.7739556635734
 31
0.0
 11
86.06036679507501
 21
299.7890637259424
 31
0.0
 11
86.08446643864399
 21
299.8017821416402
 31
0.0
 11
86.10993173414079
 21
299.8115411272348
 31
0.0
 11
86.13650369723611
 21
299.8177826804217
 31
0.0
 11
86.1636295181
 21
299.8199821681
 31
0.0
  0
SPLINE
  5
103
330
1F
100
AcDbEntity
  8
FASEN
  6
Continuous
 62
     7
100
AcDbSpline
210
0.0
220
0.0
230
1.0
 70
     8
 71
     3
 72
    43
 73
    39
 74
    37
 42
0.0000000001
 43
0.0000000001
 44
0.00000001
 40
0.0
 40
0.0
 40
0.0
 40
0.0
 40
0.3536627138529054
 40
0.7077087110917561
 40
1.061386016608036
 40
1.41494091293992
 40
1.768273600879085
 40
2.12167934075589
 40
2.474990473720212
 40
2.828124790700571
 40
3.004861640097437
 40
3.181542282424681
 40
3.358289604732254
 40
3.535092628000879
 40
3.888693190990026
 40
4.242467023590803
 40
4.596379402947594
 40
4.950247373464987
 40
5.303947628055448
 40
5.657661399122222
 40
6.010712555500089
 40
6.363747200694449
 40
6.71580609106341
 40
7.067909115926978
 40
7.419215040275175
 40
7.770346273774999
 40
7.945854779232936
 40
8.121308710066499
 40
8.296759233409164
 40
8.472264989832935
 40
8.823345921708304
 40
9.174601594849324
 40
9.52672124199898
 40
9.878775142300976
 40
10.23179857982566
 40
10.5849361322264
 40
10.9388955996464
 40
11.29248564905727
 40
11.29248564905727
 40
11.29248564905727
 40
11.29248564905727
 10
58.2268811065
 20
304.7561370482
 30
0.0
 10
58.23021093332193
 20
304.8740743579413
 30
0.0
 10
58.23687419567898
 20
305.1100767924567
 30
0.0
 10
58.29121015094292
 20
305.4605610996853
 30
0.0
 10
58.37715337647447
 20
305.8041735658661
 30
0.0
 10
58.49704052127663
 20
306.13741106885
 30
0.0
 10
58.64908938268968
 20
306.4570825590417
 30
0.0
 10
58.83190329912358
 20
306.7601503644956
 30
0.0
 10
59.04376649482224
 20
307.0435571134618
 30
0.0
 10
59.24270093400531
 20
307.2612717125783
 30
0.0
 10
59.41408140913921
 20
307.4229332816652
 30
0.0
 10
59.54850793290498
 20
307.5377639313427
 30
0.0
 10
59.68842619987807
 20
307.64587125337
 30
0.0
 10
59.8818805519122
 20
307.7806868610301
 30
0.0
 10
60.13592535052037
 20
307.9311163673288
 30
0.0
 10
60.45695376507702
 20
308.0810448858801
 30
0.0
 10
60.79121262827636
 20
308.1988745655875
 30
0.0
 10
61.13531343711475
 20
308.2836348004514
 30
0.0
 10
61.48596524126134
 20
308.3344788161057
 30
0.0
 10
61.83962177034263
 20
308.3510929254784
 30
0.0
 10
62.19299375544837
 20
308.3332316629114
 30
0.0
 10
62.54242582340699
 20
308.2812713414729
 30
0.0
 10
62.88481656141789
 20
308.1955578048135
 30
0.0
 10
63.21670297315015
 20
308.0771115947458
 30
0.0
 10
63.53509048784134
 20
307.9268564647102
 30
0.0
 10
63.78672686400585
 20
307.7764448165997
 30
0.0
 10
63.97822275742077
 20
307.641771748701
 30
0.0
 10
64.11667368999395
 20
307.5338507129994
 30
0.0
 10
64.24967180381849
 20
307.4192784279979
 30
0.0
 10
64.41930251646936
 20
307.2579589860804
 30
0.0
 10
64.61617332151532
 20
307.0407793149224
 30
0.0
 10
64.82590006205623
 20
306.7580315732894
 30
0.0
 10
65.00686040539613
 20
306.4556531656227
 30
0.0
 10
65.15749222363557
 20
306.136462496402
 30
0.0
 10
65.27632402260097
 20
305.8036888304587
 30
0.0
 10
65.36156916176051
 20
305.4603042040015
 30
0.0
 10
65.41540432174273
 20
305.1099934384964
 30
0.0
 10
65.4220545510292
 20
304.8740481152356
 30
0.0
 10
65.4253779296
 20
304.7561370482
 30
0.0
 11
58.2268811065
 21
304.7561370482
 31
0.0
 11
58.24425427028807
 21
305.1093727886762
 31
0.0
 11
58.2965048393626
 21
305.4595419566397
 31
0.0
 11
58.38283371331135
 21
305.8025214924141
 31
0.0
 11
58.50243460874569
 21
306.1352326141572
 31
0.0
 11
58.65421146211379
 21
306.4543059210131
 31
0.0
 11
58.8367691863101
 21
306.7569084562209
 31
0.0
 11
59.04828088095312
 21
307.0399129786331
 31
0.0
 11
59.28650824328074
 21
307.3005881973778
 31
0.0
 11
59.41506699694962
 21
307.4218670528714
 31
0.0
 11
59.5494030224013
 21
307.5366271576074
 31
0.0
 11
59.68926743977311
 21
307.6446899203711
 31
0.0
 11
59.83432490804029
 21
307.7457722627304
 31
0.0
 11
60.13855634418854
 21
307.9259848910488
 31
0.0
 11
60.45910254018602
 21
308.0756714330778
 31
0.0
 11
60.79287129774814
 21
308.1933676043724
 31
0.0
 11
61.1364709645928
 21
308.2779950792393
 31
0.0
 11
61.48650685929496
 21
308.3287763997953
 31
0.0
 11
61.83983229586313
 21
308.3453464847736
 31
0.0
 11
62.19243402166467
 21
308.3275380041666
 31
0.0
 11
62.54162309873885
 21
308.2755721580792
 31
0.0
 11
62.88314385005967
 21
308.1900792419686
 31
0.0
 11
63.21474622638755
 21
308.0716883464919
 31
0.0
 11
63.53245486617922
 21
307.9217647903579
 31
0.0
 11
63.83381668036066
 21
307.7415587968605
 31
0.0
 11
63.97738264597044
 21
307.6406031184337
 31
0.0
 11
64.11576597832602
 21
307.5327414701471
 31
0.0
 11
64.24869085602596
 21
307.4182256938118
 31
0.0
 11
64.37586348054148
 21
307.2972736615357
 31
0.0
 11
64.61168159237522
 21
307.0371820644826
 31
0.0
 11
64.82091508955935
 21
306.7550439926634
 31
0.0
 11
65.00176997880016
 21
306.4529185965999
 31
0.0
 11
65.1520475434546
 21
306.1345499387842
 31
0.0
 11
65.27068425722713
 21
305.8020580176989
 31
0.0
 11
65.35627286627509
 21
305.459449318281
 31
0.0
 11
65.4081000711517
 21
305.1093047118526
 31
0.0
 11
65.4253779296
 21
304.7561370482
 31
0.0
  0
SPLINE
  5
104
330
1F
100
AcDbEntity
  8
0
  6
Continuous
 62
     7
100
AcDbSpline
210
0.0
220
0.0
230
1.0
 70
     8
 71
     3
 72
    13
 73
     9
 74
     7
 42
0.0000000001
 43
0.0000000001
 44
0.00000001
 40
0.0
 40
0.0
 40
0.0
 40
0.0
 40
0.131284806767221
 40
0.2626131914524891
 40
0.3227000710711191
 40
0.3827285903040546
 40
0.4404671082375234
 40
0.4981359434446163
 40
0.4981359434446163
 40
0.4981359434446163
 40
0.4981359434446163
 10
85.6920943708
 20
310.3736370482
 30
0.0
 10
85.65676955849355
 20
310.3996664953999
 30
0.0
 10
85.5861082083671
 20
310.4517340298634
 30
0.0
 10
85.5166014480118
 20
310.5354095315465
 30
0.0
 10
85.47334431875865
 20
310.60730223996
 30
0.0
 10
85.44862355500679
 20
310.6613094971954
 30
0.0
 10
85.42978268390692
 20
310.7168581454435
 30
0.0
 10
85.42273174892223
 20
310.7547183672564
 30
0.0
 10
85.4192084101
 20
310.7736370482
 30
0.0
 11
85.6920943708
 21
310.3736370482
 31
0.0
 11
85.58964295831414
 21
310.4557309491157
 31
0.0
 11
85.50516319192133
 21
310.5562810047808
 31
0.0
 11
85.47432740302644
 21
310.6078521907817
 31
0.0
 11
85.44927215431647
 21
310.662401779537
 31
0.0
 11
85.43111261278148
 21
310.717210241515
 31
0.0
 11
85.4192084101
 21
310.7736370482
 31
0.0
  0
SPLINE
  5
105
330
1F
100
AcDbEntity
  8
0
  6
Continuous
 62
     7
100
AcDbSpline
210
0.0
220
0.0
230
1.0
 70
     8
 71
     3
 72
    13
 73
     9
 74
     7
 42
0.0000000001
 43
0.0000000001
 44
0.00000001
 40
0.0
 40
0.0
 40
0.0
 40
0.0
 40
0.0576631896701859
 40
0.1153961315365576
 40
0.1754242231922481
 40
0.235510540087097
 40
0.366844911234676
 40
0.4981360904811444
 40
0.4981360904811444
 40
0.4981360904811444
 40
0.4981360904811444
 10
89.2330506261
 20
310.7736370482
 30
0.0
 10
89.22952758832938
 20
310.7547202279924
 30
0.0
 10
89.22247725115047
 20
310.7168637048721
 30
0.0
 10
89.20363803653505
 20
310.6613186685922
 30
0.0
 10
89.17892012872434
 20
310.6073125595897
 30
0.0
 10
89.13566497940407
 20
310.5354166765665
 30
0.0
 10
89.06615612923711
 20
310.4517373744499
 30
0.0
 10
88.99549127938684
 20
310.399667635787
 30
0.0
 10
88.9601646653
 20
310.3736370482
 30
0.0
 11
89.2330506261
 21
310.7736370482
 31
0.0
 11
89.22114754658026
 21
310.7172157743674
 31
0.0
 11
89.2029903558641
 21
310.6624124076657
 31
0.0
 11
89.17793704195915
 21
310.6078624007894
 31
0.0
 11
89.1471034094878
 21
310.5562905810949
 31
0.0
 11
89.06262117162883
 21
310.4557347829971
 31
0.0
 11
88.9601646653
 21
310.3736370482
 31
0.0
  0
SPLINE
  5
106
330
1F
100
AcDbEntity
  8
0
  6
Continuous
 62
     7
100
AcDbSpline
210
0.0
220
0.0
230
1.0
 70
     8
 71
     3
 72
    27
 73
    23
 74
    21
 42
0.0000000001
 43
0.0000000001
 44
0.00000001
 40
0.0
 40
0.0
 40
0.0
 40
0.0
 40
0.0730306820195523
 40
0.1460817689058119
 40
0.2142068183435089
 40
0.282316095456931
 40
0.3442738269859212
 40
0.406291940687574
 40
0.4617913417431698
 40
0.5170559905722784
 40
0.5428520623522878
 40
0.5686432246862947
 40
0.593986760289769
 40
0.6193292498350784
 40
0.6451121206938801
 40
0.6708991015551928
 40
0.6979696846081636
 40
0.7250453875224185
 40
0.7848430774418266
 40
0.8448837206701016
 40
0.9129318641487564
 40
0.9808740945665924
 40
0.9808740945665924
 40
0.9808740945665924
 40
0.9808740945665924
 10
45.11420024909999
 20
297.0201793422
 30
0.0
 10
45.09436787484043
 20
297.0060540080628
 30
0.0
 10
45.05469758513038
 20
296.9777993931518
 30
0.0
 10
44.99392957499823
 20
296.9402075151768
 30
0.0
 10
44.93256230655407
 20
296.9069396137154
 30
0.0
 10
44.87224096665611
 20
296.8798199656226
 30
0.0
 10
44.81175111614269
 20
296.8585547654876
 30
0.0
 10
44.75330773733337
 20
296.8450385574448
 30
0.0
 10
44.69580115367517
 20
296.8395271567163
 30
0.0
 10
44.65008215717702
 20
296.842695061471
 30
0.0
 10
44.615307000419
 20
296.8506559186786
 30
0.0
 10
44.59101457320688
 20
296.8590434822348
 30
0.0
 10
44.56799618783582
 20
296.8701313669512
 30
0.0
 10
44.54642514224334
 20
296.8838239748461
 30
0.0
 10
44.52655180611903
 20
296.9001174913479
 30
0.0
 10
44.50828226376288
 20
296.9189915979048
 30
0.0
 10
44.49198069267965
 20
296.9401367083352
 30
0.0
 10
44.47196018468833
 20
296.9724744099605
 30
0.0
 10
44.45239296448511
 20
297.0176951674125
 30
0.0
 10
44.43665043244307
 20
297.0784596270361
 30
0.0
 10
44.4275335254211
 20
297.1433476611084
 30
0.0
 10
44.42659727748178
 20
297.1886964308611
 30
0.0
 10
44.4261295181
 20
297.2113531563
 30
0.0
 11
45.11420024909999
 21
297.0201793422
 31
0.0
 11
45.05426039312865
 21
296.9784577149262
 31
0.0
 11
44.99217171548545
 21
296.9399680097599
 31
0.0
 11
44.93217834675563
 21
296.9076908031067
 31
0.0
 11
44.86999229467036
 21
296.8799100803846
 31
0.0
 11
44.81143810443214
 21
296.859657492852
 31
0.0
 11
44.75094961938465
 21
296.8459684606083
 31
0.0
 11
44.69566842920415
 21
296.8410518022149
 31
0.0
 11
44.64056820941651
 21
296.8453117540408
 31
0.0
 11
44.615430293352
 21
296.8511016154565
 31
0.0
 11
44.59106557315194
 21
296.8595600115286
 31
0.0
 11
44.56823530508228
 21
296.8705633590534
 31
0.0
 11
44.54684708716834
 21
296.8841569572091
 31
0.0
 11
44.52688894705582
 21
296.900479612415
 31
0.0
 11
44.50893746866326
 21
296.9189921164451
 31
0.0
 11
44.49236386853853
 21
296.9403961404998
 31
0.0
 11
44.4780683787322
 21
296.9633903280153
 31
0.0
 11
44.45389935426502
 21
297.0180860497493
 31
0.0
 11
44.43837055367683
 21
297.076083766873
 31
0.0
 11
44.42887777891457
 21
297.1434665321635
 31
0.0
 11
44.4261295181
 21
297.2113531563
 31
0.0
  0
SPLINE
  5
107
330
1F
100
AcDbEntity
  8
0
  6
Continuous
 62
     7
100
AcDbSpline
210
0.0
220
0.0
230
1.0
 70
     8
 71
     3
 72
    11
 73
     7
 74
     5
 42
0.0000000001
 43
0.0000000001
 44
0.00000001
 40
0.0
 40
0.0
 40
0.0
 40
0.0
 40
0.106845660161939
 40
0.2142571945113221
 40
0.3333679116146049
 40
0.4521343114693691
 40
0.4521343114693691
 40
0.4521343114693691
 40
0.4521343114693691
 10
85.42814434032
 20
298.783643303494
 30
0.0
 10
85.4388305889075
 20
298.8177519947606
 30
0.0
 10
85.46025968241246
 20
298.8861500231706
 30
0.0
 10
85.51925851798725
 20
298.9814034088164
 30
0.0
 10
85.59567445863797
 20
299.068541900183
 30
0.0
 10
85.65998542923242
 20
299.1152945563704
 30
0.0
 10
85.6920943708
 20
299.1386370482
 30
0.0
 11
85.42814434032
 21
298.783643303494
 31
0.0
 11
85.46430377631005
 21
298.8841842915751
 31
0.0
 11
85.51944594554578
 21
298.9763611806703
 31
0.0
 11
85.59867568660523
 21
299.0652994236286
 31
0.0
 11
85.6920943708
 21
299.1386370482
 31
0.0
  0
SPLINE
  5
108
330
1F
100
AcDbEntity
  8
0
  6
Continuous
 62
     7
100
AcDbSpline
210
0.0
220
0.0
230
1.0
 70
     8
 71
     3
 72
    13
 73
     9
 74
     7
 42
0.0000000001
 43
0.0000000001
 44
0.00000001
 40
0.0
 40
0.0
 40
0.0
 40
0.0
 40
0.1312911944312921
 40
0.2626255806159295
 40
0.3227118843237973
 40
0.3827399628189067
 40
0.4404729026841812
 40
0.4981360903826632
 40
0.4981360903826632
 40
0.4981360903826632
 40
0.4981360903826632
 10
88.9601646653
 20
299.1386370482
 30
0.0
 10
88.99549128332512
 20
299.1126064573611
 30
0.0
 10
89.06615614101217
 20
299.0605367122237
 30
0.0
 10
89.13566499207612
 20
298.9768574029319
 30
0.0
 10
89.17892013644563
 20
298.9049615214086
 30
0.0
 10
89.20363803922982
 20
298.8509554205702
 30
0.0
 10
89.22247725161154
 20
298.7954103895901
 30
0.0
 10
89.22952758848245
 20
298.757553867765
 30
0.0
 10
89.2330506261
 20
298.7386370482
 30
0.0
 11
88.9601646653
 21
299.1386370482
 31
0.0
 11
89.06262118254405
 21
299.0565393027412
 31
0.0
 11
89.14710342646708
 21
298.9559834900986
 31
0.0
 11
89.17793705006886
 21
298.9044116804652
 31
0.0
 11
89.20299035741152
 21
298.8498616850572
 31
0.0
 11
89.22114754713317
 21
298.7950583201341
 31
0.0
 11
89.2330506261
 21
298.7386370482
 31
0.0
  0
SPLINE
  5
109
330
1F
100
AcDbEntity
  8
0
  6
Continuous
 62
     7
100
AcDbSpline
210
0.0
220
0.0
230
1.0
 70
     8
 71
     3
 72
    11
 73
     7
 74
     5
 42
0.0000000001
 43
0.0000000001
 44
0.00000001
 40
0.0
 40
0.0
 40
0.0
 40
0.0
 40
0.4419689634229819
 40
0.8839020538987146
 40
1.15051856192177
 40
1.416734593101615
 40
1.416734593101615
 40
1.416734593101615
 40
1.416734593101615
 10
45.16261972789999
 20
297.1061370482
 30
0.0
 10
45.23131982806294
 20
297.2366612923897
 30
0.0
 10
45.36871445226186
 20
297.4976991866105
 30
0.0
 10
45.4936406238387
 20
297.8618682181899
 30
0.0
 10
45.56367698922588
 20
298.1802539490562
 30
0.0
 10
45.57198075551172
 20
298.3579807019509
 30
0.0
 10
45.5761295181
 20
298.4467772887
 30
0.0
 11
45.16261972789999
 21
297.1061370482
 31
0.0
 11
45.35836460358352
 21
297.5023951815838
 31
0.0
 11
45.50255182438941
 21
297.9201449892603
 31
0.0
 11
45.55619950414344
 21
298.1813083266708
 31
0.0
 11
45.5761295181
 21
298.4467772887
 31
0.0
  0
SPLINE
  5
10A
330
1F
100
AcDbEntity
  8
0
  6
Continuous
 62
     7
100
AcDbSpline
210
0.0
220
0.0
230
1.0
 70
     8
 71
     3
 72
    11
 73
     7
 74
     5
 42
0.0000000001
 43
0.0000000001
 44
0.00000001
 40
0.0
 40
0.0
 40
0.0
 40
0.0
 40
0.3847579053310823
 40
0.7696659746344572
 40
1.09318324405896
 40
1.416570809353121
 40
1.416570809353121
 40
1.416570809353121
 40
1.416570809353121
 10
45.5761295181
 20
311.0654968077
 30
0.0
 10
45.56750148031393
 20
311.1938433800176
 30
0.0
 10
45.5502420373765
 20
311.4505866159723
 30
0.0
 10
45.44439411938751
 20
311.8016808944853
 30
0.0
 10
45.31561597450916
 20
312.1208735609256
 30
0.0
 10
45.21361165949652
 20
312.3110619300029
 30
0.0
 10
45.16261972789999
 20
312.4061370482
 30
0.0
 11
45.5761295181
 21
311.0654968077
 31
0.0
 11
45.53593504482022
 21
311.4481494570212
 31
0.0
 11
45.43259795562896
 21
311.8189265704092
 31
0.0
 11
45.31028124381777
 21
312.118429568103
 31
0.0
 11
45.16261972789999
 21
312.4061370482
 31
0.0
  0
ARC
  5
10B
330
1F
100
AcDbEntity
  8
1
  6
Continuous
 62
     7
100
AcDbCircle
 10
100.2761295181
 20
283.7561370482
 30
0.0
 40
5.0
100
AcDbArc
 50
90.0
 51
180.0
  0
ARC
  5
10C
330
1F
100
AcDbEntity
  8
1
  6
Continuous
 62
     7
100
AcDbCircle
 10
100.2761295181
 20
325.7561370482
 30
0.0
 40
5.0
100
AcDbArc
 50
180.0
 51
270.0
  0
DIMENSION
  5
117
330
1F
100
AcDbEntity
  8
1
100
AcDbDimension
  2
*D2
 10
199.3261295181
 20
338.390057540483
 30
0.0
 11
148.6736259060985
 21
342.140057540483
 31
0.0
 70
    32
  1
<>
 71
     5
 42
-1.0
 53
0.00013888888889
  3
ME10_DIM_10
100
AcDbAlignedDimension
 13
95.2761295181
 23
329.7560870297
 33
0.0
 14
199.3261295181
 24
315.8317465565
 34
0.0
100
AcDbRotatedDimension
  0
DIMENSION
  5
122
330
1F
100
AcDbEntity
  8
1
100
AcDbDimension
  2
*D3
 10
209.953513534258
 20
310.7561370482
 30
0.0
 11
206.203513534258
 21
305.151783007309
 31
0.0
 70
    32
  1
<>
 71
     5
 42
-1.0
 53
90.0
  3
ME10_DIM_11
100
AcDbAlignedDimension
 13
199.3261295181
 23
298.7561370482
 33
0.0
 14
199.3261295181
 24
310.7561370482
 34
0.0
 50
90.0
100
AcDbRotatedDimension
  0
DIMENSION
  5
12D
330
1F
100
AcDbEntity
  8
1
100
AcDbDimension
  2
*D4
 10
218.349640174148
 20
316.7561370482528
 30
0.0
 11
214.599640174148
 21
305.324899020503
 31
0.0
 70
    32
  1
<>
 71
     5
 42
-1.0
 53
90.0
  3
ME10_DIM_12
100
AcDbAlignedDimension
 13
199.3261295181
 23
292.7561370481559
 33
0.0
 14
199.3261295181
 24
316.7561370482528
 34
0.0
 50
90.0
100
AcDbRotatedDimension
  0
DIMENSION
  5
138
330
1F
100
AcDbEntity
  8
1
100
AcDbDimension
  2
*D5
 10
226.13986076786
 20
320.7561370482001
 30
0.0
 11
222.38986076786
 21
305.238341013906
 31
0.0
 70
    32
  1
<>
 71
     5
 42
-1.0
 53
90.0
  3
ME10_DIM_13
100
AcDbAlignedDimension
 13
148.5013105734
 23
288.7561370481999
 33
0.0
 14
148.5013105734
 24
320.7561370482001
 34
0.0
 50
90.0
100
AcDbRotatedDimension
  0
DIMENSION
  5
143
330
1F
100
AcDbEntity
  8
1
100
AcDbDimension
  2
*D6
 10
199.3261295181
 20
345.920604114405
 30
0.0
 11
132.5332470588504
 21
349.670604114405
 31
0.0
 70
    32
  1
<>
 71
     5
 42
-1.0
 53
0.00013888888889
  3
ME10_DIM_14
100
AcDbAlignedDimension
 13
69.3261295181
 23
329.7561370482
 33
0.0
 14
199.3261295181
 24
315.8317465565
 34
0.0
100
AcDbRotatedDimension
  0
DIMENSION
  5
14E
330
1F
100
AcDbEntity
  8
1
100
AcDbDimension
  2
*D7
 10
199.3261295181
 20
353.36459268173
 30
0.0
 11
125.0844833102897
 21
357.11459268173
 31
0.0
 70
    32
  1
<>
 71
     5
 42
-1.0
 53
0.00013888888889
  3
ME10_DIM_15
100
AcDbAlignedDimension
 13
44.4261295181
 23
321.8124928294
 33
0.0
 14
199.3261295181
 24
315.8317465565
 34
0.0
100
AcDbRotatedDimension
  0
INSERT
  5
155
330
1F
100
AcDbEntity
  8
1
100
AcDbBlockReference
  2
*D8
 10
0.0
 20
0.0
 30
0.0
  0
DIMENSION
  5
160
330
1F
100
AcDbEntity
  8
1
100
AcDbDimension
  2
*D9
 10
181.3661084242115
 20
319.4648756238637
 30
0.0
 11
184.4641436291021
 21
327.7686683109363
 31
0.0
 70
    37
  1
<>
 71
     5
 42
-1.0
  3
ME10_DIM_16
100
AcDb3PointAngularDimension
 13
181.2900761704969
 23
318.1756052310512
 33
0.0
 14
151.7903260702329
 24
320.7561370482001
 34
0.0
 15
148.5013105734
 25
320.7561370482001
 35
0.0
  0
ENDSEC
  0
SECTION
  2
OBJECTS
  0
DICTIONARY
  5
C
330
0
100
AcDbDictionary
281
     1
  3
ACAD_GROUP
350
D
  3
ACAD_LAYOUT
350
1A
  3
ACAD_MLEADERSTYLE
350
163
  3
ACAD_MLINESTYLE
350
17
  3
ACAD_PLOTSETTINGS
350
19
  3
ACAD_PLOTSTYLENAME
350
E
  3
ACAD_SCALELIST
350
4B
  3
ACAD_VISUALSTYLE
350
2A
  3
AcDbVariableDictionary
350
161
  0
DICTIONARY
  5
D
102
{ACAD_REACTORS
330
C
102
}
330
C
100
AcDbDictionary
281
     1
  0
DICTIONARY
  5
1A
102
{ACAD_REACTORS
330
C
102
}
330
C
100
AcDbDictionary
281
     1
  3
Layout1
350
1E
  3
Layout2
350
26
  3
Model
350
22
  0
DICTIONARY
  5
163
102
{ACAD_REACTORS
330
C
102
}
330
C
100
AcDbDictionary
281
     1
  0
DICTIONARY
  5
17
102
{ACAD_REACTORS
330
C
102
}
330
C
100
AcDbDictionary
281
     1
  3
Standard
350
18
  0
DICTIONARY
  5
19
102
{ACAD_REACTORS
330
C
102
}
330
C
100
AcDbDictionary
281
     1
  0
ACDBDICTIONARYWDFLT
  5
E
102
{ACAD_REACTORS
330
C
102
}
330
C
100
AcDbDictionary
281
     1
  3
Normal
350
F
100
AcDbDictionaryWithDefault
340
F
  0
DICTIONARY
  5
4B
102
{ACAD_REACTORS
330
C
102
}
330
C
100
AcDbDictionary
281
     1
  3
A0
350
4C
  3
A1
350
4D
  3
A2
350
4E
  3
A3
350
4F
  3
A4
350
50
  3
A5
350
51
  3
A6
350
52
  3
A7
350
53
  3
A8
350
54
  3
A9
350
55
  3
B0
350
56
  3
B1
350
57
  3
B2
350
58
  3
B3
350
59
  3
B4
350
5A
  3
B5
350
5B
  3
B6
350
5C
  3
B7
350
5D
  3
B8
350
5E
  3
B9
350
5F
  3
C0
350
60
  3
C1
350
61
  3
C2
350
62
  3
C3
350
63
  3
C4
350
64
  3
C5
350
65
  3
C6
350
66
  3
C7
350
67
  3
C8
350
68
  3
C9
350
69
  3
D0
350
6A
  3
D1
350
6B
  3
D2
350
6C
  0
DICTIONARY
  5
2A
102
{ACAD_REACTORS
330
C
102
}
330
C
100
AcDbDictionary
281
     1
  3
2dWireframe
350
2F
  3
3D Hidden
350
31
  3
3dWireframe
350
30
  3
Basic
350
32
  3
Brighten
350
36
  3
ColorChange
350
3A
  3
Conceptual
350
34
  3
Dim
350
35
  3
Facepattern
350
39
  3
Flat
350
2B
  3
FlatWithEdges
350
2C
  3
Gouraud
350
2D
  3
GouraudWithEdges
350
2E
  3
Linepattern
350
38
  3
Realistic
350
33
  3
Thicken
350
37
  0
DICTIONARY
  5
161
102
{ACAD_REACTORS
330
C
102
}
330
C
100
AcDbDictionary
281
     1
  3
CANNOSCALE
350
164
  0
LAYOUT
  5
1E
102
{ACAD_REACTORS
330
1A
102
}
330
1A
100
AcDbPlotSettings
  1

  2
none_device
  4

  6

 40
0.0
 41
0.0
 42
0.0
 43
0.0
 44
0.0
 45
0.0
 46
0.0
 47
0.0
 48
0.0
 49
0.0
140
0.0
141
0.0
142
1.0
143
1.0
 70
   688
 72
     0
 73
     0
 74
     5
  7

 75
    16
147
1.0
148
0.0
149
0.0
100
AcDbLayout
  1
Layout1
 70
     1
 71
     1
 10
0.0
 20
0.0
 11
12.0
 21
9.0
 12
0.0
 22
0.0
 32
0.0
 14
1.00000000000000E+20
 24
1.00000000000000E+20
 34
1.00000000000000E+20
 15
-1.00000000000000E+20
 25
-1.00000000000000E+20
 35
-1.00000000000000E+20
146
0.0
 13
0.0
 23
0.0
 33
0.0
 16
1.0
 26
0.0
 36
0.0
 17
0.0
 27
1.0
 37
0.0
 76
     0
330
1B
  0
LAYOUT
  5
26
102
{ACAD_REACTORS
330
1A
102
}
330
1A
100
AcDbPlotSettings
  1

  2
none_device
  4

  6

 40
0.0
 41
0.0
 42
0.0
 43
0.0
 44
0.0
 45
0.0
 46
0.0
 47
0.0
 48
0.0
 49
0.0
140
0.0
141
0.0
142
1.0
143
1.0
 70
   688
 72
     0
 73
     0
 74
     5
  7

 75
    16
147
1.0
148
0.0
149
0.0
100
AcDbLayout
  1
Layout2
 70
     1
 71
     2
 10
0.0
 20
0.0
 11
0.0
 21
0.0
 12
0.0
 22
0.0
 32
0.0
 14
0.0
 24
0.0
 34
0.0
 15
0.0
 25
0.0
 35
0.0
146
0.0
 13
0.0
 23
0.0
 33
0.0
 16
1.0
 26
0.0
 36
0.0
 17
0.0
 27
1.0
 37
0.0
 76
     0
330
23
  0
LAYOUT
  5
22
102
{ACAD_REACTORS
330
1A
102
}
330
1A
100
AcDbPlotSettings
  1

  2
none_device
  4

  6

 40
0.0
 41
0.0
 42
0.0
 43
0.0
 44
0.0
 45
0.0
 46
0.0
 47
0.0
 48
0.0
 49
0.0
140
0.0
141
0.0
142
1.0
143
1.0
 70
  1712
 72
     0
 73
     0
 74
     0
  7

 75
     0
147
1.0
148
0.0
149
0.0
100
AcDbLayout
  1
Model
 70
     1
 71
     0
 10
0.0
 20
0.0
 11
12.0
 21
9.0
 12
0.0
 22
0.0
 32
0.0
 14
41.30112951810001
 24
262.5325670920406
 34
0.0
 15
228.13986076786
 25
358.86459268173
 35
0.0
146
0.0
 13
0.0
 23
0.0
 33
0.0
 16
1.0
 26
0.0
 36
0.0
 17
0.0
 27
1.0
 37
0.0
 76
     0
330
1F
331
29
  0
MLINESTYLE
  5
18
102
{ACAD_REACTORS
330
17
102
}
330
17
100
AcDbMlineStyle
  2
Standard
 70
     0
  3

 62
   256
 51
90.0
 52
90.0
 71
     2
 49
0.5
 62
   256
  6
BYLAYER
 49
-0.5
 62
   256
  6
BYLAYER
  0
ACDBPLACEHOLDER
  5
F
102
{ACAD_REACTORS
330
E
102
}
330
E
  0
SCALE
  5
4C
102
{ACAD_REACTORS
330
4B
102
}
330
4B
100
AcDbScale
 70
     0
300
1:1
140
1.0
141
1.0
290
     1
  0
SCALE
  5
4D
102
{ACAD_REACTORS
330
4B
102
}
330
4B
100
AcDbScale
 70
     0
300
1:2
140
1.0
141
2.0
290
     0
  0
SCALE
  5
4E
102
{ACAD_REACTORS
330
4B
102
}
330
4B
100
AcDbScale
 70
     0
300
1:4
140
1.0
141
4.0
290
     0
  0
SCALE
  5
4F
102
{ACAD_REACTORS
330
4B
102
}
330
4B
100
AcDbScale
 70
     0
300
1:5
140
1.0
141
5.0
290
     0
  0
SCALE
  5
50
102
{ACAD_REACTORS
330
4B
102
}
330
4B
100
AcDbScale
 70
     0
300
1:8
140
1.0
141
8.0
290
     0
  0
SCALE
  5
51
102
{ACAD_REACTORS
330
4B
102
}
330
4B
100
AcDbScale
 70
     0
300
1:10
140
1.0
141
10.0
290
     0
  0
SCALE
  5
52
102
{ACAD_REACTORS
330
4B
102
}
330
4B
100
AcDbScale
 70
     0
300
1:16
140
1.0
141
16.0
290
     0
  0
SCALE
  5
53
102
{ACAD_REACTORS
330
4B
102
}
330
4B
100
AcDbScale
 70
     0
300
1:20
140
1.0
141
20.0
290
     0
  0
SCALE
  5
54
102
{ACAD_REACTORS
330
4B
102
}
330
4B
100
AcDbScale
 70
     0
300
1:30
140
1.0
141
30.0
290
     0
  0
SCALE
  5
55
102
{ACAD_REACTORS
330
4B
102
}
330
4B
100
AcDbScale
 70
     0
300
1:40
140
1.0
141
40.0
290
     0
  0
SCALE
  5
56
102
{ACAD_REACTORS
330
4B
102
}
330
4B
100
AcDbScale
 70
     0
300
1:50
140
1.0
141
50.0
290
     0
  0
SCALE
  5
57
102
{ACAD_REACTORS
330
4B
102
}
330
4B
100
AcDbScale
 70
     0
300
1:100
140
1.0
141
100.0
290
     0
  0
SCALE
  5
58
102
{ACAD_REACTORS
330
4B
102
}
330
4B
100
AcDbScale
 70
     0
300
2:1
140
2.0
141
1.0
290
     0
  0
SCALE
  5
59
102
{ACAD_REACTORS
330
4B
102
}
330
4B
100
AcDbScale
 70
     0
300
4:1
140
4.0
141
1.0
290
     0
  0
SCALE
  5
5A
102
{ACAD_REACTORS
330
4B
102
}
330
4B
100
AcDbScale
 70
     0
300
8:1
140
8.0
141
1.0
290
     0
  0
SCALE
  5
5B
102
{ACAD_REACTORS
330
4B
102
}
330
4B
100
AcDbScale
 70
     0
300
10:1
140
10.0
141
1.0
290
     0
  0
SCALE
  5
5C
102
{ACAD_REACTORS
330
4B
102
}
330
4B
100
AcDbScale
 70
     0
300
100:1
140
100.0
141
1.0
290
     0
  0
SCALE
  5
5D
102
{ACAD_REACTORS
330
4B
102
}
330
4B
100
AcDbScale
 70
     0
300
1/128" = 1'-0"
140
0.0078125
141
12.0
290
     0
  0
SCALE
  5
5E
102
{ACAD_REACTORS
330
4B
102
}
330
4B
100
AcDbScale
 70
     0
300
1/64" = 1'-0"
140
0.015625
141
12.0
290
     0
  0
SCALE
  5
5F
102
{ACAD_REACTORS
330
4B
102
}
330
4B
100
AcDbScale
 70
     0
300
1/32" = 1'-0"
140
0.03125
141
12.0
290
     0
  0
SCALE
  5
60
102
{ACAD_REACTORS
330
4B
102
}
330
4B
100
AcDbScale
 70
     0
300
1/16" = 1'-0"
140
0.0625
141
12.0
290
     0
  0
SCALE
  5
61
102
{ACAD_REACTORS
330
4B
102
}
330
4B
100
AcDbScale
 70
     0
300
3/32" = 1'-0"
140
0.09375
141
12.0
290
     0
  0
SCALE
  5
62
102
{ACAD_REACTORS
330
4B
102
}
330
4B
100
AcDbScale
 70
     0
300
1/8" = 1'-0"
140
0.125
141
12.0
290
     0
  0
SCALE
  5
63
102
{ACAD_REACTORS
330
4B
102
}
330
4B
100
AcDbScale
 70
     0
300
3/16" = 1'-0"
140
0.1875
141
12.0
290
     0
  0
SCALE
  5
64
102
{ACAD_REACTORS
330
4B
102
}
330
4B
100
AcDbScale
 70
     0
300
1/4" = 1'-0"
140
0.25
141
12.0
290
     0
  0
SCALE
  5
65
102
{ACAD_REACTORS
330
4B
102
}
330
4B
100
AcDbScale
 70
     0
300
3/8" = 1'-0"
140
0.375
141
12.0
290
     0
  0
SCALE
  5
66
102
{ACAD_REACTORS
330
4B
102
}
330
4B
100
AcDbScale
 70
     0
300
1/2" = 1'-0"
140
0.5
141
12.0
290
     0
  0
SCALE
  5
67
102
{ACAD_REACTORS
330
4B
102
}
330
4B
100
AcDbScale
 70
     0
300
3/4" = 1'-0"
140
0.75
141
12.0
290
     0
  0
SCALE
  5
68
102
{ACAD_REACTORS
330
4B
102
}
330
4B
100
AcDbScale
 70
     0
300
1" = 1'-0"
140
1.0
141
12.0
290
     0
  0
SCALE
  5
69
102
{ACAD_REACTORS
330
4B
102
}
330
4B
100
AcDbScale
 70
     0
300
1-1/2" = 1'-0"
140
1.5
141
12.0
290
     0
  0
SCALE
  5
6A
102
{ACAD_REACTORS
330
4B
102
}
330
4B
100
AcDbScale
 70
     0
300
3" = 1'-0"
140
3.0
141
12.0
290
     0
  0
SCALE
  5
6B
102
{ACAD_REACTORS
330
4B
102
}
330
4B
100
AcDbScale
 70
     0
300
6" = 1'-0"
140
6.0
141
12.0
290
     0
  0
SCALE
  5
6C
102
{ACAD_REACTORS
330
4B
102
}
330
4B
100
AcDbScale
 70
     0
300
1'-0" = 1'-0"
140
12.0
141
12.0
290
     0
  0
VISUALSTYLE
  5
2F
102
{ACAD_REACTORS
330
2A
102
}
330
2A
100
AcDbVisualStyle
  2
2dWireframe
 70
     4
 71
     0
 72
     2
 73
     0
 90
        0
 40
-0.6
 41
-30.0
 62
     5
 63
     7
 74
     1
 91
        4
 64
     7
 65
   257
 75
     1
175
     1
 42
1.0
 92
        0
 66
   257
 43
1.0
 76
     1
 77
     6
 78
     2
 67
     7
 79
     5
170
     0
171
     0
290
     0
174
     0
 93
        1
 44
0.0
173
     0
291
     0
 45
0.0
1001
ACAD
1000
AcDbSavedByObjectVersion
1070
     0
  0
VISUALSTYLE
  5
31
102
{ACAD_REACTORS
330
2A
102
}
330
2A
100
AcDbVisualStyle
  2
3D Hidden
 70
     6
 71
     1
 72
     2
 73
     2
 90
        0
 40
-0.6
 41
-30.0
 62
     5
 63
     7
 74
     2
 91
        2
 64
     7
 65
   257
 75
     2
175
     1
 42
40.0
 92
        0
 66
   257
 43
1.0
 76
     1
 77
     6
 78
     2
 67
     7
 79
     3
170
     0
171
     0
290
     0
174
     0
 93
        1
 44
0.0
173
     0
291
     0
 45
0.0
1001
ACAD
1000
AcDbSavedByObjectVersion
1070
     0
  0
VISUALSTYLE
  5
30
102
{ACAD_REACTORS
330
2A
102
}
330
2A
100
AcDbVisualStyle
  2
3dWireframe
 70
     5
 71
     0
 72
     2
 73
     0
 90
        0
 40
-0.6
 41
-30.0
 62
     5
 63
     7
 74
     1
 91
        4
 64
     7
 65
   257
 75
     1
175
     1
 42
1.0
 92
        0
 66
   257
 43
1.0
 76
     1
 77
     6
 78
     2
 67
     7
 79
     5
170
     0
171
     0
290
     0
174
     0
 93
        1
 44
0.0
173
     0
291
     0
 45
0.0
1001
ACAD
1000
AcDbSavedByObjectVersion
1070
     0
  0
VISUALSTYLE
  5
32
102
{ACAD_REACTORS
330
2A
102
}
330
2A
100
AcDbVisualStyle
  2
Basic
 70
     7
 71
     1
 72
     0
 73
     1
 90
        0
 40
-0.6
 41
-30.0
 62
     5
 63
     7
 74
     0
 91
        4
 64
     7
 65
   257
 75
     1
175
     1
 42
1.0
 92
        8
 66
     7
 43
1.0
 76
     1
 77
     6
 78
     2
 67
     7
 79
     5
170
     0
171
     0
290
     0
174
     0
 93
        1
 44
0.0
173
     0
291
     1
 45
0.0
1001
ACAD
1000
AcDbSavedByObjectVersion
1070
     0
  0
VISUALSTYLE
  5
36
102
{ACAD_REACTORS
330
2A
102
}
330
2A
100
AcDbVisualStyle
  2
Brighten
 70
    12
 71
     2
 72
     2
 73
     0
 90
        0
 40
-0.6
 41
-30.0
 62
     5
 63
     7
 74
     1
 91
        4
 64
     7
 65
   257
 75
     1
175
     1
 42
1.0
 92
        8
 66
     7
 43
1.0
 76
     1
 77
     6
 78
     2
 67
     7
 79
     5
170
     0
171
     0
290
     0
174
     0
 93
        1
 44
50.0
173
     0
291
     1
 45
0.0
1001
ACAD
1000
AcDbSavedByObjectVersion
1070
     0
  0
VISUALSTYLE
  5
3A
102
{ACAD_REACTORS
330
2A
102
}
330
2A
100
AcDbVisualStyle
  2
ColorChange
 70
    16
 71
     2
 72
     2
 73
     3
 90
        0
 40
-0.6
 41
-30.0
 62
     5
 63
     8
 74
     1
 91
        4
 64
     7
 65
   257
 75
     1
175
     1
 42
1.0
 92
        8
 66
     8
 43
1.0
 76
     1
 77
     6
 78
     2
 67
     7
 79
     5
170
     0
171
     0
290
     0
174
     0
 93
        1
 44
0.0
173
     0
291
     1
 45
0.0
1001
ACAD
1000
AcDbSavedByObjectVersion
1070
     0
  0
VISUALSTYLE
  5
34
102
{ACAD_REACTORS
330
2A
102
}
330
2A
100
AcDbVisualStyle
  2
Conceptual
 70
     9
 71
     3
 72
     2
 73
     0
 90
        0
 40
-0.6
 41
-30.0
 62
     5
 63
     7
 74
     2
 91
        2
 64
     7
 65
   257
 75
     1
175
     1
 42
40.0
 92
        8
 66
     7
 43
1.0
 76
     1
 77
     6
 78
     2
 67
     7
 79
     3
170
     0
171
     0
290
     0
174
     0
 93
        1
 44
0.0
173
     0
291
     0
 45
0.0
1001
ACAD
1000
AcDbSavedByObjectVersion
1070
     0
  0
VISUALSTYLE
  5
35
102
{ACAD_REACTORS
330
2A
102
}
330
2A
100
AcDbVisualStyle
  2
Dim
 70
    11
 71
     2
 72
     2
 73
     0
 90
        0
 40
-0.6
 41
-30.0
 62
     5
 63
     7
 74
     1
 91
        4
 64
     7
 65
   257
 75
     1
175
     1
 42
1.0
 92
        8
 66
     7
 43
1.0
 76
     1
 77
     6
 78
     2
 67
     7
 79
     5
170
     0
171
     0
290
     0
174
     0
 93
        1
 44
-50.0
173
     0
291
     1
 45
0.0
1001
ACAD
1000
AcDbSavedByObjectVersion
1070
     0
  0
VISUALSTYLE
  5
39
102
{ACAD_REACTORS
330
2A
102
}
330
2A
100
AcDbVisualStyle
  2
Facepattern
 70
    15
 71
     2
 72
     2
 73
     0
 90
        0
 40
-0.6
 41
-30.0
 62
     5
 63
     7
 74
     1
 91
        4
 64
     7
 65
   257
 75
     1
175
     1
 42
1.0
 92
        8
 66
     7
 43
1.0
 76
     1
 77
     6
 78
     2
 67
     7
 79
     5
170
     0
171
     0
290
     0
174
     0
 93
        1
 44
0.0
173
     0
291
     1
 45
0.0
1001
ACAD
1000
AcDbSavedByObjectVersion
1070
     0
  0
VISUALSTYLE
  5
2B
102
{ACAD_REACTORS
330
2A
102
}
330
2A
100
AcDbVisualStyle
  2
Flat
 70
     0
 71
     2
 72
     1
 73
     1
 90
        2
 40
-0.6
 41
30.0
 62
     5
 63
     7
 74
     0
 91
        4
 64
     7
 65
   257
 75
     1
175
     1
 42
1.0
 92
        8
 66
     7
 43
1.0
 76
     1
 77
     6
 78
     2
 67
     7
 79
     5
170
     0
171
     0
290
     0
174
     0
 93
       13
 44
0.0
173
     0
291
     1
 45
0.0
1001
ACAD
1000
AcDbSavedByObjectVersion
1070
     0
  0
VISUALSTYLE
  5
2C
102
{ACAD_REACTORS
330
2A
102
}
330
2A
100
AcDbVisualStyle
  2
FlatWithEdges
 70
     1
 71
     2
 72
     1
 73
     1
 90
        2
 40
-0.6
 41
30.0
 62
     5
 63
     7
 74
     1
 91
        4
 64
     7
 65
   257
 75
     1
175
     1
 42
1.0
 92
        0
 66
   257
 43
1.0
 76
     1
 77
     6
 78
     2
 67
     7
 79
     5
170
     0
171
     0
290
     0
174
     0
 93
       13
 44
0.0
173
     0
291
     1
 45
0.0
1001
ACAD
1000
AcDbSavedByObjectVersion
1070
     0
  0
VISUALSTYLE
  5
2D
102
{ACAD_REACTORS
330
2A
102
}
330
2A
100
AcDbVisualStyle
  2
Gouraud
 70
     2
 71
     2
 72
     2
 73
     1
 90
        2
 40
-0.6
 41
30.0
 62
     5
 63
     7
 74
     0
 91
        4
 64
     7
 65
   257
 75
     1
175
     1
 42
1.0
 92
        0
 66
     7
 43
1.0
 76
     1
 77
     6
 78
     2
 67
     7
 79
     5
170
     0
171
     0
290
     0
174
     0
 93
       13
 44
0.0
173
     0
291
     1
 45
0.0
1001
ACAD
1000
AcDbSavedByObjectVersion
1070
     0
  0
VISUALSTYLE
  5
2E
102
{ACAD_REACTORS
330
2A
102
}
330
2A
100
AcDbVisualStyle
  2
GouraudWithEdges
 70
     3
 71
     2
 72
     2
 73
     1
 90
        2
 40
-0.6
 41
30.0
 62
     5
 63
     7
 74
     1
 91
        4
 64
     7
 65
   257
 75
     1
175
     1
 42
1.0
 92
        0
 66
   257
 43
1.0
 76
     1
 77
     6
 78
     2
 67
     7
 79
     5
170
     0
171
     0
290
     0
174
     0
 93
       13
 44
0.0
173
     0
291
     1
 45
0.0
1001
ACAD
1000
AcDbSavedByObjectVersion
1070
     0
  0
VISUALSTYLE
  5
38
102
{ACAD_REACTORS
330
2A
102
}
330
2A
100
AcDbVisualStyle
  2
Linepattern
 70
    14
 71
     2
 72
     2
 73
     0
 90
        0
 40
-0.6
 41
-30.0
 62
     5
 63
     7
 74
     1
 91
        4
 64
     7
 65
   257
 75
     7
175
     7
 42
1.0
 92
        8
 66
     7
 43
1.0
 76
     1
 77
     6
 78
     2
 67
     7
 79
     5
170
     0
171
     0
290
     0
174
     0
 93
        1
 44
0.0
173
     0
291
     1
 45
0.0
1001
ACAD
1000
AcDbSavedByObjectVersion
1070
     0
  0
VISUALSTYLE
  5
33
102
{ACAD_REACTORS
330
2A
102
}
330
2A
100
AcDbVisualStyle
  2
Realistic
 70
     8
 71
     2
 72
     2
 73
     0
 90
        0
 40
-0.6
 41
-30.0
 62
     5
 63
     7
 74
     1
 91
        0
 64
     7
 65
   257
 75
     1
175
     1
 42
1.0
 92
        8
 66
     8
 43
1.0
 76
     1
 77
     6
 78
     2
 67
     7
 79
     5
170
     0
171
     0
290
     0
174
     0
 93
       13
 44
0.0
173
     0
291
     0
 45
0.0
1001
ACAD
1000
AcDbSavedByObjectVersion
1070
     0
  0
VISUALSTYLE
  5
37
102
{ACAD_REACTORS
330
2A
102
}
330
2A
100
AcDbVisualStyle
  2
Thicken
 70
    13
 71
     2
 72
     2
 73
     0
 90
        0
 40
-0.6
 41
-30.0
 62
     5
 63
     7
 74
     1
 91
        4
 64
     7
 65
   257
 75
     1
175
     1
 42
1.0
 92
       12
 66
     7
 43
1.0
 76
     1
 77
     6
 78
     2
 67
     7
 79
     5
170
     0
171
     0
290
     0
174
     0
 93
        1
 44
0.0
173
     0
291
     1
 45
0.0
1001
ACAD
1000
AcDbSavedByObjectVersion
1070
     0
  0
DICTIONARYVAR
  5
164
102
{ACAD_REACTORS
330
161
102
}
330
161
100
DictionaryVariables
280
     0
  1
1:1
  0
ENDSEC
  0
EOF
