  0
SECTION
  2
HEADER
  9
$ACADVER
  1
AC1015
  9
$ACADMAINTVER
 70
     6
  9
$DWGCODEPAGE
  3
ANSI_1252
  9
$INSBASE
 10
0.0
 20
0.0
 30
0.0
  9
$EXTMIN
 10
51.45662650599999
 20
268.6384276302727
 30
0.0
  9
$EXTMAX
 10
238.6980065874731
 20
362.125239330422
 30
0.0
  9
$LIMMIN
 10
0.0
 20
0.0
  9
$LIMMAX
 10
12.0
 20
9.0
  9
$ORTHOMODE
 70
     0
  9
$REGENMODE
 70
     1
  9
$FILLMODE
 70
     1
  9
$QTEXTMODE
 70
     0
  9
$MIRRTEXT
 70
     1
  9
$LTSCALE
 40
1.0
  9
$ATTMODE
 70
     1
  9
$TEXTSIZE
 40
0.2
  9
$TRACEWID
 40
0.05
  9
$TEXTSTYLE
  7
Standard
  9
$CLAYER
  8
0
  9
$CELTYPE
  6
ByLayer
  9
$CECOLOR
 62
   256
  9
$CELTSCALE
 40
1.0
  9
$DISPSILH
 70
     0
  9
$DIMSCALE
 40
1.0
  9
$DIMASZ
 40
0.18
  9
$DIMEXO
 40
0.0625
  9
$DIMDLI
 40
0.38
  9
$DIMRND
 40
0.0
  9
$DIMDLE
 40
0.0
  9
$DIMEXE
 40
0.18
  9
$DIMTP
 40
0.0
  9
$DIMTM
 40
0.0
  9
$DIMTXT
 40
0.18
  9
$DIMCEN
 40
0.09
  9
$DIMTSZ
 40
0.0
  9
$DIMTOL
 70
     0
  9
$DIMLIM
 70
     0
  9
$DIMTIH
 70
     1
  9
$DIMTOH
 70
     1
  9
$DIMSE1
 70
     0
  9
$DIMSE2
 70
     0
  9
$DIMTAD
 70
     0
  9
$DIMZIN
 70
     0
  9
$DIMBLK
  1

  9
$DIMASO
 70
     1
  9
$DIMSHO
 70
     1
  9
$DIMPOST
  1

  9
$DIMAPOST
  1

  9
$DIMALT
 70
     0
  9
$DIMALTD
 70
     2
  9
$DIMALTF
 40
25.4
  9
$DIMLFAC
 40
1.0
  9
$DIMTOFL
 70
     0
  9
$DIMTVP
 40
0.0
  9
$DIMTIX
 70
     0
  9
$DIMSOXD
 70
     0
  9
$DIMSAH
 70
     0
  9
$DIMBLK1
  1

  9
$DIMBLK2
  1

  9
$DIMSTYLE
  2
Standard
  9
$DIMCLRD
 70
     0
  9
$DIMCLRE
 70
     0
  9
$DIMCLRT
 70
     0
  9
$DIMTFAC
 40
1.0
  9
$DIMGAP
 40
0.09
  9
$DIMJUST
 70
     0
  9
$DIMSD1
 70
     0
  9
$DIMSD2
 70
     0
  9
$DIMTOLJ
 70
     1
  9
$DIMTZIN
 70
     0
  9
$DIMALTZ
 70
     0
  9
$DIMALTTZ
 70
     0
  9
$DIMUPT
 70
     0
  9
$DIMDEC
 70
     4
  9
$DIMTDEC
 70
     4
  9
$DIMALTU
 70
     2
  9
$DIMALTTD
 70
     2
  9
$DIMTXSTY
  7
Standard
  9
$DIMAUNIT
 70
     0
  9
$DIMADEC
 70
     0
  9
$DIMALTRND
 40
0.0
  9
$DIMAZIN
 70
     0
  9
$DIMDSEP
 70
    46
  9
$DIMATFIT
 70
     3
  9
$DIMFRAC
 70
     0
  9
$DIMLDRBLK
  1

  9
$DIMLUNIT
 70
     2
  9
$DIMLWD
 70
    -2
  9
$DIMLWE
 70
    -2
  9
$DIMTMOVE
 70
     0
  9
$LUNITS
 70
     2
  9
$LUPREC
 70
     4
  9
$SKETCHINC
 40
0.1
  9
$FILLETRAD
 40
0.5
  9
$AUNITS
 70
     0
  9
$AUPREC
 70
     0
  9
$MENU
  1
.
  9
$ELEVATION
 40
0.0
  9
$PELEVATION
 40
0.0
  9
$THICKNESS
 40
0.0
  9
$LIMCHECK
 70
     0
  9
$CHAMFERA
 40
0.5
  9
$CHAMFERB
 40
0.5
  9
$CHAMFERC
 40
1.0
  9
$CHAMFERD
 40
0.0
  9
$SKPOLY
 70
     0
  9
$TDCREATE
 40
2456749.744115405
  9
$TDUCREATE
 40
2456749.660782072
  9
$TDUPDATE
 40
2456749.744115417
  9
$TDUUPDATE
 40
2456749.660782083
  9
$TDINDWG
 40
0.0000000116
  9
$TDUSRTIMER
 40
0.0000000116
  9
$USRTIMER
 70
     1
  9
$ANGBASE
 50
0.0
  9
$ANGDIR
 70
     0
  9
$PDMODE
 70
     0
  9
$PDSIZE
 40
0.0
  9
$PLINEWID
 40
0.0
  9
$SPLFRAME
 70
     0
  9
$SPLINETYPE
 70
     6
  9
$SPLINESEGS
 70
     8
  9
$HANDSEED
  5
167
  9
$SURFTAB1
 70
     6
  9
$SURFTAB2
 70
     6
  9
$SURFTYPE
 70
     6
  9
$SURFU
 70
     6
  9
$SURFV
 70
     6
  9
$UCSBASE
  2

  9
$UCSNAME
  2

  9
$UCSORG
 10
0.0
 20
0.0
 30
0.0
  9
$UCSXDIR
 10
1.0
 20
0.0
 30
0.0
  9
$UCSYDIR
 10
0.0
 20
1.0
 30
0.0
  9
$UCSORTHOREF
  2

  9
$UCSORTHOVIEW
 70
     0
  9
$UCSORGTOP
 10
0.0
 20
0.0
 30
0.0
  9
$UCSORGBOTTOM
 10
0.0
 20
0.0
 30
0.0
  9
$UCSORGLEFT
 10
0.0
 20
0.0
 30
0.0
  9
$UCSORGRIGHT
 10
0.0
 20
0.0
 30
0.0
  9
$UCSORGFRONT
 10
0.0
 20
0.0
 30
0.0
  9
$UCSORGBACK
 10
0.0
 20
0.0
 30
0.0
  9
$PUCSBASE
  2

  9
$PUCSNAME
  2

  9
$PUCSORG
 10
0.0
 20
0.0
 30
0.0
  9
$PUCSXDIR
 10
1.0
 20
0.0
 30
0.0
  9
$PUCSYDIR
 10
0.0
 20
1.0
 30
0.0
  9
$PUCSORTHOREF
  2

  9
$PUCSORTHOVIEW
 70
     0
  9
$PUCSORGTOP
 10
0.0
 20
0.0
 30
0.0
  9
$PUCSORGBOTTOM
 10
0.0
 20
0.0
 30
0.0
  9
$PUCSORGLEFT
 10
0.0
 20
0.0
 30
0.0
  9
$PUCSORGRIGHT
 10
0.0
 20
0.0
 30
0.0
  9
$PUCSORGFRONT
 10
0.0
 20
0.0
 30
0.0
  9
$PUCSORGBACK
 10
0.0
 20
0.0
 30
0.0
  9
$USERI1
 70
     0
  9
$USERI2
 70
     0
  9
$USERI3
 70
     0
  9
$USERI4
 70
     0
  9
$USERI5
 70
     0
  9
$USERR1
 40
16.5
  9
$USERR2
 40
0.0
  9
$USERR3
 40
0.0
  9
$USERR4
 40
0.0
  9
$USERR5
 40
0.0
  9
$WORLDVIEW
 70
     1
  9
$SHADEDGE
 70
     3
  9
$SHADEDIF
 70
    70
  9
$TILEMODE
 70
     1
  9
$MAXACTVP
 70
    64
  9
$PINSBASE
 10
0.0
 20
0.0
 30
0.0
  9
$PLIMCHECK
 70
     0
  9
$PEXTMIN
 10
1.00000000000000E+20
 20
1.00000000000000E+20
 30
1.00000000000000E+20
  9
$PEXTMAX
 10
-1.00000000000000E+20
 20
-1.00000000000000E+20
 30
-1.00000000000000E+20
  9
$PLIMMIN
 10
0.0
 20
0.0
  9
$PLIMMAX
 10
12.0
 20
9.0
  9
$UNITMODE
 70
     0
  9
$VISRETAIN
 70
     1
  9
$PLINEGEN
 70
     0
  9
$PSLTSCALE
 70
     1
  9
$TREEDEPTH
 70
  3020
  9
$CMLSTYLE
  2
Standard
  9
$CMLJUST
 70
     0
  9
$CMLSCALE
 40
1.0
  9
$PROXYGRAPHICS
 70
     1
  9
$MEASUREMENT
 70
     1
  9
$CELWEIGHT
370
    -1
  9
$ENDCAPS
280
     0
  9
$JOINSTYLE
280
     0
  9
$LWDISPLAY
290
     0
  9
$INSUNITS
 70
     1
  9
$HYPERLINKBASE
  1

  9
$STYLESHEET
  1

  9
$XEDIT
290
     1
  9
$CEPSNTYPE
380
     0
  9
$PSTYLEMODE
290
     1
  9
$FINGERPRINTGUID
  2
{22DE8C11-5738-4368-BD51-8122F02C76AD}
  9
$VERSIONGUID
  2
{FAEB1C32-E019-11D5-929B-00C0DF256EC4}
  9
$EXTNAMES
290
     1
  9
$PSVPSCALE
 40
0.0
  9
$OLESTARTUP
290
     0
  0
ENDSEC
  0
SECTION
  2
CLASSES
  0
CLASS
  1
ACDBDICTIONARYWDFLT
  2
AcDbDictionaryWithDefault
  3
ObjectDBX Classes
 90
        0
280
     0
281
     0
  0
CLASS
  1
VISUALSTYLE
  2
AcDbVisualStyle
  3
ObjectDBX Classes
 90
     4095
280
     0
281
     0
  0
CLASS
  1
SCALE
  2
AcDbScale
  3
ObjectDBX Classes
 90
     1153
280
     0
281
     0
  0
CLASS
  1

  2
exOdDbPolyline
  3

 90
        0
280
     0
281
     1
  0
CLASS
  1

  2
exOdDbCircle
  3

 90
        0
280
     0
281
     1
  0
CLASS
  1

  2
exOdDbSpline
  3

 90
        0
280
     0
281
     1
  0
CLASS
  1
DICTIONARYVAR
  2
AcDbDictionaryVar
  3
ObjectDBX Classes
 90
        0
280
     0
281
     0
  0
CLASS
  1
ACDBPLACEHOLDER
  2
AcDbPlaceHolder
  3
ObjectDBX Classes
 90
        0
280
     0
281
     0
  0
CLASS
  1
LAYOUT
  2
AcDbLayout
  3
ObjectDBX Classes
 90
        0
280
     0
281
     0
  0
ENDSEC
  0
SECTION
  2
TABLES
  0
TABLE
  2
VPORT
  5
8
330
0
100
AcDbSymbolTable
 70
     1
  0
VPORT
  5
29
330
8
100
AcDbSymbolTableRecord
100
AcDbViewportTableRecord
  2
*Active
 70
     0
 10
0.0
 20
0.0
 11
1.0
 21
1.0
 12
145.0773165467365
 22
315.3818334803474
 13
0.0
 23
0.0
 14
0.5
 24
0.5
 15
0.5
 25
0.5
 16
0.0
 26
0.0
 36
1.0
 17
0.0
 27
0.0
 37
0.0
 40
128.5133037662256
 41
1.60267857142857
 42
50.0
 43
0.0
 44
0.0
 50
0.0
 51
0.0
 71
     0
 72
   100
 73
     1
 74
     3
 75
     0
 76
     0
 77
     0
 78
     0
281
     0
 65
     1
110
0.0
120
0.0
130
0.0
111
1.0
121
0.0
131
0.0
112
0.0
122
1.0
132
0.0
 79
     0
146
0.0
  0
ENDTAB
  0
TABLE
  2
LTYPE
  5
5
330
0
100
AcDbSymbolTable
 70
     9
  0
LTYPE
  5
14
330
5
100
AcDbSymbolTableRecord
100
AcDbLinetypeTableRecord
  2
ByBlock
 70
     0
  3

 72
    65
 73
     0
 40
0.0
  0
LTYPE
  5
15
330
5
100
AcDbSymbolTableRecord
100
AcDbLinetypeTableRecord
  2
ByLayer
 70
     0
  3

 72
    65
 73
     0
 40
0.0
  0
LTYPE
  5
16
330
5
100
AcDbSymbolTableRecord
100
AcDbLinetypeTableRecord
  2
Continuous
 70
     0
  3
Solid line
 72
    65
 73
     0
 40
0.0
  0
LTYPE
  5
3B
330
5
100
AcDbSymbolTableRecord
100
AcDbLinetypeTableRecord
  2
DASHED
 70
     0
  3
Dashed
 72
    65
 73
     2
 40
15.0
 49
7.0
 74
     0
 49
-8.0
 74
     0
  0
LTYPE
  5
3C
330
5
100
AcDbSymbolTableRecord
100
AcDbLinetypeTableRecord
  2
DOTTED
 70
     0
  3
Dotted
 72
    65
 73
     2
 40
1.0
 49
0.0
 74
     0
 49
-1.0
 74
     0
  0
LTYPE
  5
3D
330
5
100
AcDbSymbolTableRecord
100
AcDbLinetypeTableRecord
  2
DOT_CENTER
 70
     0
  3
Dot_Center
 72
    65
 73
     4
 40
14.0
 49
12.0
 74
     0
 49
-1.0
 74
     0
 49
0.0
 74
     0
 49
-1.0
 74
     0
  0
LTYPE
  5
3E
330
5
100
AcDbSymbolTableRecord
100
AcDbLinetypeTableRecord
  2
LONG_DASHED
 70
     0
  3
Long_Dashed
 72
    65
 73
     2
 40
15.0
 49
10.0
 74
     0
 49
-5.0
 74
     0
  0
LTYPE
  5
3F
330
5
100
AcDbSymbolTableRecord
100
AcDbLinetypeTableRecord
  2
DASH_CENTER
 70
     0
  3
Dash_Center
 72
    65
 73
     4
 40
14.0
 49
11.0
 74
     0
 49
-1.0
 74
     0
 49
1.0
 74
     0
 49
-1.0
 74
     0
  0
LTYPE
  5
40
330
5
100
AcDbSymbolTableRecord
100
AcDbLinetypeTableRecord
  2
PHANTOM
 70
     0
  3
Phantom
 72
    65
 73
     6
 40
13.0
 49
10.0
 74
     0
 49
-1.0
 74
     0
 49
0.0
 74
     0
 49
-1.0
 74
     0
 49
0.0
 74
     0
 49
-1.0
 74
     0
  0
LTYPE
  5
41
330
5
100
AcDbSymbolTableRecord
100
AcDbLinetypeTableRecord
  2
CENTER_DASH_DASH
 70
     0
  3
Center_Dash_Dash
 72
    65
 73
     6
 40
14.0
 49
9.0
 74
     0
 49
-1.0
 74
     0
 49
1.0
 74
     0
 49
-1.0
 74
     0
 49
1.0
 74
     0
 49
-1.0
 74
     0
  0
LTYPE
  5
42
330
5
100
AcDbSymbolTableRecord
100
AcDbLinetypeTableRecord
  2
CENTER
 70
     0
  3
CENTER
 72
    65
 73
     4
 40
13.0
 49
7.0
 74
     0
 49
-2.0
 74
     0
 49
2.0
 74
     0
 49
-2.0
 74
     0
  0
ENDTAB
  0
TABLE
  2
LAYER
  5
2
330
0
100
AcDbSymbolTable
 70
     7
  0
LAYER
  5
10
330
2
100
AcDbSymbolTableRecord
100
AcDbLayerTableRecord
  2
0
 70
     0
 62
     7
  6
Continuous
370
    -3
390
F
  0
LAYER
  5
43
330
2
100
AcDbSymbolTableRecord
100
AcDbLayerTableRecord
  2
1
 70
     0
 62
     7
  6
Continuous
370
    -3
390
F
  0
LAYER
  5
44
330
2
100
AcDbSymbolTableRecord
100
AcDbLayerTableRecord
  2
BEZUGSACHSEN
 70
     0
 62
     7
  6
Continuous
370
    -3
390
F
  0
LAYER
  5
45
330
2
100
AcDbSymbolTableRecord
100
AcDbLayerTableRecord
  2
BOHRUNGEN
 70
     0
 62
     7
  6
Continuous
370
    -3
390
F
  0
LAYER
  5
46
330
2
100
AcDbSymbolTableRecord
100
AcDbLayerTableRecord
  2
FASEN
 70
     0
 62
     7
  6
Continuous
370
    -3
390
F
  0
LAYER
  5
47
330
2
100
AcDbSymbolTableRecord
100
AcDbLayerTableRecord
  2
RUNDUNGEN
 70
     0
 62
     7
  6
Continuous
370
    -3
390
F
  0
LAYER
  5
48
330
2
100
AcDbSymbolTableRecord
100
AcDbLayerTableRecord
  2
TEIL_STARTBEZUEGE
 70
     0
 62
     7
  6
Continuous
370
    -3
390
F
  0
ENDTAB
  0
TABLE
  2
STYLE
  5
3
330
0
100
AcDbSymbolTable
 70
     2
  0
STYLE
  5
11
330
3
100
AcDbSymbolTableRecord
100
AcDbTextStyleTableRecord
  2
Standard
 70
     0
 40
0.0
 41
1.0
 50
0.0
 71
     0
 42
0.2
  3
txt
  4

  0
STYLE
  5
6F
330
3
100
AcDbSymbolTableRecord
100
AcDbTextStyleTableRecord
  2
CONVERTER_11
 70
     0
 40
0.0
 41
0.72
 50
0.0
 71
     0
 42
0.2
  3
txt.shx
  4

  0
ENDTAB
  0
TABLE
  2
VIEW
  5
6
330
0
100
AcDbSymbolTable
 70
     0
  0
ENDTAB
  0
TABLE
  2
UCS
  5
7
330
0
100
AcDbSymbolTable
 70
     0
  0
ENDTAB
  0
TABLE
  2
APPID
  5
9
330
0
100
AcDbSymbolTable
 70
     1
  0
APPID
  5
12
330
9
100
AcDbSymbolTableRecord
100
AcDbRegAppTableRecord
  2
ACAD
 70
     0
  0
ENDTAB
  0
TABLE
  2
DIMSTYLE
  5
A
330
0
100
AcDbSymbolTable
 70
     8
100
AcDbDimStyleTable
  0
DIMSTYLE
105
27
330
A
100
AcDbSymbolTableRecord
100
AcDbDimStyleTableRecord
  2
Standard
 70
     0
340
11
  0
DIMSTYLE
105
118
102
{ACAD_REACTORS
330
119
102
}
330
A
100
AcDbSymbolTableRecord
100
AcDbDimStyleTableRecord
  2
ME10_DIM_10
 70
     0
  3
<>
 41
3.5
 42
2.0
 44
2.0
 71
     1
 73
     0
 74
     0
 77
     1
 78
     8
140
3.5
146
0.7
147
2.0
172
     1
173
     1
176
     2
177
     2
178
     3
271
     0
272
     0
340
6F
  0
DIMSTYLE
105
123
102
{ACAD_REACTORS
330
124
102
}
330
A
100
AcDbSymbolTableRecord
100
AcDbDimStyleTableRecord
  2
ME10_DIM_11
 70
     0
  3
<>
 41
3.5
 42
2.0
 44
2.0
 71
     1
 73
     0
 74
     0
 77
     1
 78
     8
140
3.5
146
0.7
147
2.0
172
     1
173
     1
176
     2
177
     2
178
     3
271
     2
272
     0
340
6F
  0
DIMSTYLE
105
12E
102
{ACAD_REACTORS
330
12F
102
}
330
A
100
AcDbSymbolTableRecord
100
AcDbDimStyleTableRecord
  2
ME10_DIM_12
 70
     0
  3
<>
 41
3.5
 42
2.0
 44
2.0
 71
     1
 73
     0
 74
     0
 77
     1
 78
     8
140
3.5
146
0.7
147
2.0
172
     1
173
     1
176
     2
177
     2
178
     3
271
     0
272
     0
340
6F
  0
DIMSTYLE
105
139
102
{ACAD_REACTORS
330
13A
102
}
330
A
100
AcDbSymbolTableRecord
100
AcDbDimStyleTableRecord
  2
ME10_DIM_13
 70
     0
  3
\U+2300<>
 41
3.5
 42
2.0
 44
2.0
 71
     1
 73
     0
 74
     0
 77
     1
 78
     8
140
3.5
146
0.7
147
2.0
172
     1
173
     1
176
     2
177
     2
178
     3
271
     2
272
     0
340
6F
  0
DIMSTYLE
105
144
102
{ACAD_REACTORS
330
145
102
}
330
A
100
AcDbSymbolTableRecord
100
AcDbDimStyleTableRecord
  2
ME10_DIM_14
 70
     0
  3
\U+2300<>
 41
3.5
 42
2.0
 44
2.0
 71
     1
 73
     0
 74
     0
 77
     1
 78
     8
140
3.5
146
0.7
147
2.0
172
     1
173
     1
176
     2
177
     2
178
     3
271
     2
272
     0
340
6F
  0
DIMSTYLE
105
14F
102
{ACAD_REACTORS
330
150
102
}
330
A
100
AcDbSymbolTableRecord
100
AcDbDimStyleTableRecord
  2
ME10_DIM_15
 70
     0
  3
\U+2300<>
 41
3.5
 42
2.0
 44
2.0
 71
     1
 73
     0
 74
     0
 77
     1
 78
     8
140
3.5
146
0.7
147
2.0
172
     1
173
     1
176
     2
177
     2
178
     3
271
     2
272
     0
340
6F
  0
DIMSTYLE
105
161
102
{ACAD_REACTORS
330
162
102
}
330
A
100
AcDbSymbolTableRecord
100
AcDbDimStyleTableRecord
  2
ME10_DIM_16
 70
     0
  3
<>
 41
3.5
 42
2.0
 44
2.0
 71
     1
 73
     0
 74
     0
 77
     1
 78
     8
140
3.5
146
0.7
147
2.0
172
     1
173
     1
176
     2
177
     2
178
     3
271
     2
272
     0
340
6F
  0
ENDTAB
  0
TABLE
  2
BLOCK_RECORD
  5
1
330
0
100
AcDbSymbolTable
 70
    10
  0
BLOCK_RECORD
  5
1F
330
1
100
AcDbSymbolTableRecord
100
AcDbBlockTableRecord
  2
*Model_Space
340
22
  0
BLOCK_RECORD
  5
1B
330
1
100
AcDbSymbolTableRecord
100
AcDbBlockTableRecord
  2
*Paper_Space
340
1E
  0
BLOCK_RECORD
  5
23
330
1
100
AcDbSymbolTableRecord
100
AcDbBlockTableRecord
  2
*Paper_Space0
340
26
  0
BLOCK_RECORD
  5
49
330
1
100
AcDbSymbolTableRecord
100
AcDbBlockTableRecord
  2
Urheberrecht_DE-EN_horizontal
340
0
102
{BLKREFS
331
6E
102
}
  0
BLOCK_RECORD
  5
10F
330
1
100
AcDbSymbolTableRecord
100
AcDbBlockTableRecord
  2
*D2
340
0
  0
BLOCK_RECORD
  5
11A
330
1
100
AcDbSymbolTableRecord
100
AcDbBlockTableRecord
  2
*D3
340
0
  0
BLOCK_RECORD
  5
125
330
1
100
AcDbSymbolTableRecord
100
AcDbBlockTableRecord
  2
*D4
340
0
  0
BLOCK_RECORD
  5
130
330
1
100
AcDbSymbolTableRecord
100
AcDbBlockTableRecord
  2
*D5
340
0
  0
BLOCK_RECORD
  5
13B
330
1
100
AcDbSymbolTableRecord
100
AcDbBlockTableRecord
  2
*D6
340
0
  0
BLOCK_RECORD
  5
146
330
1
100
AcDbSymbolTableRecord
100
AcDbBlockTableRecord
  2
*D7
340
0
  0
BLOCK_RECORD
  5
151
330
1
100
AcDbSymbolTableRecord
100
AcDbBlockTableRecord
  2
*D8
340
0
102
{BLKREFS
331
157
102
}
  0
BLOCK_RECORD
  5
158
330
1
100
AcDbSymbolTableRecord
100
AcDbBlockTableRecord
  2
*D9
340
0
  0
ENDTAB
  0
ENDSEC
  0
SECTION
  2
BLOCKS
  0
BLOCK
  5
20
330
1F
100
AcDbEntity
  8
0
100
AcDbBlockBegin
  2
*Model_Space
 70
     0
 10
0.0
 20
0.0
 30
0.0
  3
*Model_Space
  1

  0
ENDBLK
  5
21
330
1F
100
AcDbEntity
  8
0
100
AcDbBlockEnd
  0
BLOCK
  5
1C
330
1B
100
AcDbEntity
 67
     1
  8
0
100
AcDbBlockBegin
  2
*Paper_Space
 70
     0
 10
0.0
 20
0.0
 30
0.0
  3
*Paper_Space
  1

  0
ENDBLK
  5
1D
330
1B
100
AcDbEntity
 67
     1
  8
0
100
AcDbBlockEnd
  0
BLOCK
  5
24
330
23
100
AcDbEntity
  8
0
100
AcDbBlockBegin
  2
*Paper_Space0
 70
     0
 10
0.0
 20
0.0
 30
0.0
  3
*Paper_Space0
  1

  0
ENDBLK
  5
25
330
23
100
AcDbEntity
  8
0
100
AcDbBlockEnd
  0
BLOCK
  5
4A
330
49
100
AcDbEntity
  8
0
100
AcDbBlockBegin
  2
Urheberrecht_DE-EN_horizontal
 70
     0
 10
145.342403477017
 20
276.036435640177
 30
0.0
  3
Urheberrecht_DE-EN_horizontal
  1

  0
MTEXT
  5
70
330
49
100
AcDbEntity
  8
1
 62
     1
100
AcDbMText
 10
148.1780080049639
 20
269.2384276302727
 30
0.0
 40
2.0
 41
0.0
 71
     7
 72
     1
  1
We own the copyright of this document. It \Pdetermined and may neither be copied or \Pmade accessible to outsiders without our\Ppermission.
  7
CONVERTER_11
 73
     1
 44
0.90036014405762
  0
MTEXT
  5
71
330
49
100
AcDbEntity
  8
1
 62
     1
100
AcDbMText
 10
91.88862108765777
 20
269.2384276302727
 30
0.0
 40
2.0
 41
0.0
 71
     7
 72
     1
  1
F\U+00fcr diese Unterlage behalten wir das Ur-\Pheberrecht. Sie darf nur f\U+00fcr den von uns \Pbestimmten Zweck benutzt und ohne unsere \PZustimmung weder vervielf\U+00e4ltigt noch\PDritten zug\U+00e4nglich gemacht werden.
  7
CONVERTER_11
 73
     1
 44
0.90036014405762
  0
ENDBLK
  5
4B
330
49
100
AcDbEntity
  8
0
100
AcDbBlockEnd
  0
BLOCK
  5
116
330
10F
100
AcDbEntity
  8
0
100
AcDbBlockBegin
  2
*D2
 70
     1
 10
0.0
 20
0.0
 30
0.0
  3
*D2
  1

  0
LINE
  5
110
330
10F
100
AcDbEntity
  8
1
  6
Continuous
 62
     2
100
AcDbLine
 10
209.4816265060001
 20
356.625239330422
 30
0.0
 11
54.58162650600008
 21
356.625239330422
 31
0.0
  0
LINE
  5
111
330
10F
100
AcDbEntity
  8
1
  6
Continuous
 62
     2
100
AcDbLine
 10
209.4816265060001
 20
323.3212043879
 30
0.0
 11
209.4816265060001
 21
358.625239330422
 31
0.0
  0
LINE
  5
112
330
10F
100
AcDbEntity
  8
1
  6
Continuous
 62
     2
100
AcDbLine
 10
54.58162650600006
 20
329.3019506607
 30
0.0
 11
54.58162650600006
 21
358.625239330422
 31
0.0
  0
SOLID
  5
113
330
10F
100
AcDbEntity
  8
1
 62
     2
100
AcDbTrace
 10
205.9816265060001
 20
356.1644555888661
 30
0.0
 11
205.9816265060001
 21
357.0860230719779
 31
0.0
 12
209.4816265060001
 22
356.625239330422
 32
0.0
 13
209.4816265060001
 23
356.625239330422
 33
0.0
  0
SOLID
  5
114
330
10F
100
AcDbEntity
  8
1
 62
     2
100
AcDbTrace
 10
58.08162650600008
 20
357.0860230719779
 30
0.0
 11
58.08162650600008
 21
356.1644555888661
 31
0.0
 12
54.58162650600008
 22
356.625239330422
 32
0.0
 13
54.58162650600008
 23
356.625239330422
 33
0.0
  0
MTEXT
  5
115
330
10F
100
AcDbEntity
  8
1
 62
     3
100
AcDbMText
 10
130.1200865277009
 20
358.625239330422
 30
0.0
 40
3.5
 41
0.0
 71
     7
 72
     1
  1
\C3;\C3;\C3;155\C2;\H2.45;\S^ ;\C3;
  7
CONVERTER_11
 11
0.9999999999970619
 21
2.424068405545306E-6
 31
0.0
 73
     1
 44
0.60024009603842
  0
ENDBLK
  5
117
330
10F
100
AcDbEntity
  8
0
100
AcDbBlockEnd
  0
BLOCK
  5
121
330
11A
100
AcDbEntity
  8
0
100
AcDbBlockBegin
  2
*D3
 70
     1
 10
0.0
 20
0.0
 30
0.0
  3
*D3
  1

  0
LINE
  5
11B
330
11A
100
AcDbEntity
  8
1
  6
Continuous
 62
     2
100
AcDbLine
 10
209.481626506
 20
349.570324631512
 30
0.0
 11
79.48162650599997
 21
349.570324631512
 31
0.0
  0
LINE
  5
11C
330
11A
100
AcDbEntity
  8
1
  6
Continuous
 62
     2
100
AcDbLine
 10
209.481626506
 20
323.3212043879
 30
0.0
 11
209.481626506
 21
351.570324631512
 31
0.0
  0
LINE
  5
11D
330
11A
100
AcDbEntity
  8
1
  6
Continuous
 62
     2
100
AcDbLine
 10
79.48162650599997
 20
337.2455948795
 30
0.0
 11
79.48162650599997
 21
351.570324631512
 31
0.0
  0
SOLID
  5
11E
330
11A
100
AcDbEntity
  8
1
 62
     2
100
AcDbTrace
 10
205.981626506
 20
349.1095408899561
 30
0.0
 11
205.981626506
 21
350.0311083730679
 31
0.0
 12
209.481626506
 22
349.570324631512
 32
0.0
 13
209.481626506
 23
349.570324631512
 33
0.0
  0
SOLID
  5
11F
330
11A
100
AcDbEntity
  8
1
 62
     2
100
AcDbTrace
 10
82.98162650599997
 20
350.0311083730679
 30
0.0
 11
82.98162650599997
 21
349.1095408899561
 31
0.0
 12
79.48162650599997
 22
349.570324631512
 32
0.0
 13
79.48162650599997
 23
349.570324631512
 33
0.0
  0
MTEXT
  5
120
330
11A
100
AcDbEntity
  8
1
 62
     3
100
AcDbMText
 10
141.4051382501174
 20
351.570324631512
 30
0.0
 40
3.5
 41
0.0
 71
     7
 72
     1
  1
\C3;\C3;\C3;130\C2;\H2.45;\S^ ;\C3;
  7
CONVERTER_11
 11
0.9999999999970619
 21
2.424068405545306E-6
 31
0.0
 73
     1
 44
0.60024009603842
  0
ENDBLK
  5
122
330
11A
100
AcDbEntity
  8
0
100
AcDbBlockEnd
  0
BLOCK
  5
12C
330
125
100
AcDbEntity
  8
0
100
AcDbBlockBegin
  2
*D4
 70
     1
 10
0.0
 20
0.0
 30
0.0
  3
*D4
  1

  0
LINE
  5
126
330
125
100
AcDbEntity
  8
1
  6
Continuous
 62
     2
100
AcDbLine
 10
209.4816265060001
 20
342.515409932602
 30
0.0
 11
105.4316265060001
 21
342.515409932602
 31
0.0
  0
LINE
  5
127
330
125
100
AcDbEntity
  8
1
  6
Continuous
 62
     2
100
AcDbLine
 10
209.4816265060001
 20
323.3212043879
 30
0.0
 11
209.4816265060001
 21
344.515409932602
 31
0.0
  0
LINE
  5
128
330
125
100
AcDbEntity
  8
1
  6
Continuous
 62
     2
100
AcDbLine
 10
105.4316265060001
 20
337.245544861
 30
0.0
 11
105.4316265060001
 21
344.515409932602
 31
0.0
  0
SOLID
  5
129
330
125
100
AcDbEntity
  8
1
 62
     2
100
AcDbTrace
 10
205.9816265060001
 20
342.0546261910461
 30
0.0
 11
205.9816265060001
 21
342.9761936741579
 31
0.0
 12
209.4816265060001
 22
342.515409932602
 32
0.0
 13
209.4816265060001
 23
342.515409932602
 33
0.0
  0
SOLID
  5
12A
330
125
100
AcDbEntity
  8
1
 62
     2
100
AcDbTrace
 10
108.9316265060001
 20
342.9761936741579
 30
0.0
 11
108.9316265060001
 21
342.0546261910461
 31
0.0
 12
105.4316265060001
 22
342.515409932602
 32
0.0
 13
105.4316265060001
 23
342.515409932602
 33
0.0
  0
MTEXT
  5
12B
330
125
100
AcDbEntity
  8
1
 62
     3
100
AcDbMText
 10
155.3510827770647
 20
344.515409932602
 30
0.0
 40
3.5
 41
0.0
 71
     7
 72
     1
  1
\C3;\C3;\C3;104\C2;\H2.45;\S^ ;\C3;
  7
CONVERTER_11
 11
0.9999999999970619
 21
2.424068405545306E-6
 31
0.0
 73
     1
 44
0.60024009603842
  0
ENDBLK
  5
12D
330
125
100
AcDbEntity
  8
0
100
AcDbBlockEnd
  0
BLOCK
  5
137
330
130
100
AcDbEntity
  8
0
100
AcDbBlockBegin
  2
*D5
 70
     1
 10
0.0
 20
0.0
 30
0.0
  3
*D5
  1

  0
LINE
  5
131
330
130
100
AcDbEntity
  8
1
  6
Continuous
 62
     2
100
AcDbLine
 10
236.6980065874731
 20
326.2455948795
 30
0.0
 11
236.6980065874731
 21
294.2455948795
 31
0.0
  0
LINE
  5
132
330
130
100
AcDbEntity
  8
1
  6
Continuous
 62
     2
100
AcDbLine
 10
160.6568075613001
 20
326.2455948795
 30
0.0
 11
238.6980065874731
 21
326.2455948795
 31
0.0
  0
LINE
  5
133
330
130
100
AcDbEntity
  8
1
  6
Continuous
 62
     2
100
AcDbLine
 10
160.6568075613001
 20
294.2455948795
 30
0.0
 11
238.6980065874731
 21
294.2455948795
 31
0.0
  0
SOLID
  5
134
330
130
100
AcDbEntity
  8
1
 62
     2
100
AcDbTrace
 10
237.158790329029
 20
322.7455948795
 30
0.0
 11
236.2372228459172
 21
322.7455948795
 31
0.0
 12
236.6980065874731
 22
326.2455948795
 32
0.0
 13
236.6980065874731
 23
326.2455948795
 33
0.0
  0
SOLID
  5
135
330
130
100
AcDbEntity
  8
1
 62
     2
100
AcDbTrace
 10
236.2372228459172
 20
297.7455948795
 30
0.0
 11
237.158790329029
 21
297.7455948795
 31
0.0
 12
236.6980065874731
 22
294.2455948795
 32
0.0
 13
236.6980065874731
 23
294.2455948795
 33
0.0
  0
MTEXT
  5
136
330
130
100
AcDbEntity
  8
1
 62
     3
100
AcDbMText
 10
234.6980065874731
 20
301.833673649225
 30
0.0
 40
3.5
 41
0.0
 71
     7
 72
     1
  1
\C3;%%c\C3;\C3;32\C2;\H2.45;\S^ ;\C3;
  7
CONVERTER_11
 11
0.0
 21
1.0
 31
0.0
 73
     1
 44
0.60024009603842
  0
ENDBLK
  5
138
330
130
100
AcDbEntity
  8
0
100
AcDbBlockEnd
  0
BLOCK
  5
142
330
13B
100
AcDbEntity
  8
0
100
AcDbBlockBegin
  2
*D6
 70
     1
 10
0.0
 20
0.0
 30
0.0
  3
*D6
  1

  0
LINE
  5
13C
330
13B
100
AcDbEntity
  8
1
  6
Continuous
 62
     2
100
AcDbLine
 10
229.023132543636
 20
322.2455948794619
 30
0.0
 11
229.023132543636
 21
298.2455948795417
 31
0.0
  0
LINE
  5
13D
330
13B
100
AcDbEntity
  8
1
  6
Continuous
 62
     2
100
AcDbLine
 10
211.481626506
 20
322.2455948794619
 30
0.0
 11
231.023132543636
 21
322.2455948794619
 31
0.0
  0
LINE
  5
13E
330
13B
100
AcDbEntity
  8
1
  6
Continuous
 62
     2
100
AcDbLine
 10
211.481626506
 20
298.2455948795417
 30
0.0
 11
231.023132543636
 21
298.2455948795417
 31
0.0
  0
SOLID
  5
13F
330
13B
100
AcDbEntity
  8
1
 62
     2
100
AcDbTrace
 10
229.4839162851919
 20
318.7455948794619
 30
0.0
 11
228.5623488020801
 21
318.7455948794619
 31
0.0
 12
229.023132543636
 22
322.2455948794619
 32
0.0
 13
229.023132543636
 23
322.2455948794619
 33
0.0
  0
SOLID
  5
140
330
13B
100
AcDbEntity
  8
1
 62
     2
100
AcDbTrace
 10
228.5623488020801
 20
301.7455948795417
 30
0.0
 11
229.4839162851919
 21
301.7455948795417
 31
0.0
 12
229.023132543636
 22
298.2455948795417
 32
0.0
 13
229.023132543636
 23
298.2455948795417
 33
0.0
  0
MTEXT
  5
141
330
13B
100
AcDbEntity
  8
1
 62
     3
100
AcDbMText
 10
227.023132543636
 20
301.978482593448
 30
0.0
 40
3.5
 41
0.0
 71
     7
 72
     1
  1
\C3;%%c\C3;\C3;24\C2;\H2.45;\S^ ;\C3;
  7
CONVERTER_11
 11
0.0
 21
1.0
 31
0.0
 73
     1
 44
0.60024009603842
  0
ENDBLK
  5
143
330
13B
100
AcDbEntity
  8
0
100
AcDbBlockEnd
  0
BLOCK
  5
14D
330
146
100
AcDbEntity
  8
0
100
AcDbBlockBegin
  2
*D7
 70
     1
 10
0.0
 20
0.0
 30
0.0
  3
*D7
  1

  0
LINE
  5
147
330
146
100
AcDbEntity
  8
1
  6
Continuous
 62
     2
100
AcDbLine
 10
219.972573529677
 20
315.2455948795
 30
0.0
 11
219.972573529677
 21
305.2455948795
 31
0.0
  0
LINE
  5
148
330
146
100
AcDbEntity
  8
1
  6
Continuous
 62
     2
100
AcDbLine
 10
211.481626506
 20
315.2455948795
 30
0.0
 11
221.972573529677
 21
315.2455948795
 31
0.0
  0
LINE
  5
149
330
146
100
AcDbEntity
  8
1
  6
Continuous
 62
     2
100
AcDbLine
 10
211.481626506
 20
305.2455948795
 30
0.0
 11
221.972573529677
 21
305.2455948795
 31
0.0
  0
SOLID
  5
14A
330
146
100
AcDbEntity
  8
1
 62
     2
100
AcDbTrace
 10
220.4333572712329
 20
311.7455948795
 30
0.0
 11
219.5117897881211
 21
311.7455948795
 31
0.0
 12
219.972573529677
 22
315.2455948795
 32
0.0
 13
219.972573529677
 23
315.2455948795
 33
0.0
  0
SOLID
  5
14B
330
146
100
AcDbEntity
  8
1
 62
     2
100
AcDbTrace
 10
219.5117897881211
 20
308.7455948795
 30
0.0
 11
220.4333572712329
 21
308.7455948795
 31
0.0
 12
219.972573529677
 22
305.2455948795
 32
0.0
 13
219.972573529677
 23
305.2455948795
 33
0.0
  0
MTEXT
  5
14C
330
146
100
AcDbEntity
  8
1
 62
     3
100
AcDbMText
 10
217.972573529677
 20
301.746842344443
 30
0.0
 40
3.5
 41
0.0
 71
     7
 72
     1
  1
\C3;%%c\C3;\C3;10\C2;\H2.45;\S^ ;\C3;
  7
CONVERTER_11
 11
0.0
 21
1.0
 31
0.0
 73
     1
 44
0.60024009603842
  0
ENDBLK
  5
14E
330
146
100
AcDbEntity
  8
0
100
AcDbBlockEnd
  0
BLOCK
  5
155
330
151
100
AcDbEntity
  8
0
100
AcDbBlockBegin
  2
*D8
 70
     1
 10
0.0
 20
0.0
 30
0.0
  3
*D8
  1

  0
LINE
  5
152
330
151
100
AcDbEntity
  8
1
  6
Continuous
 62
     2
100
AcDbLine
 10
116.9295819942506
 20
334.1661647093059
 30
0.0
 11
105.871097526521
 21
329.1958203974333
 31
0.0
  0
SOLID
  5
153
330
151
100
AcDbEntity
  8
1
 62
     2
100
AcDbTrace
 10
108.8745672611178
 20
331.0509460562077
 30
0.0
 11
109.2523683631948
 21
330.2103790135524
 31
0.0
 12
105.871097526521
 22
329.1958203974333
 32
0.0
 13
105.871097526521
 23
329.1958203974333
 33
0.0
  0
MTEXT
  5
154
330
151
100
AcDbEntity
  8
1
 62
     3
100
AcDbMText
 10
109.3418471958771
 20
332.9485109697104
 30
0.0
 40
3.5
 41
0.0
 71
     7
 72
     1
  1
\C3; R\C3;\C3;5\C2;\H2.45;\S^ ;\C3;
  7
CONVERTER_11
 11
0.9121057958958064
 21
0.4099548964133463
 31
0.0
 73
     1
 44
0.60024009603842
  0
ENDBLK
  5
156
330
151
100
AcDbEntity
  8
0
100
AcDbBlockEnd
  0
BLOCK
  5
15F
330
158
100
AcDbEntity
  8
0
100
AcDbBlockBegin
  2
*D9
 70
     1
 10
0.0
 20
0.0
 30
0.0
  3
*D9
  1

  0
LINE
  5
159
330
158
100
AcDbEntity
  8
1
  6
Continuous
 62
     2
100
AcDbLine
 10
191.465600928778
 20
326.2455948795
 30
0.0
 11
193.465600928778
 21
326.2455948795
 31
0.0
  0
LINE
  5
15A
330
158
100
AcDbEntity
  8
1
  6
Continuous
 62
     2
100
AcDbLine
 10
160.6568075613001
 20
326.2455948795
 30
0.0
 11
191.465600928778
 21
326.2455948795
 31
0.0
  0
ARC
  5
15B
330
158
100
AcDbEntity
  8
1
  6
Continuous
 62
     2
100
AcDbCircle
 10
158.6568075613001
 20
326.2455948795
 30
0.0
 40
32.80879336747785
100
AcDbArc
 50
346.3316395829204
 51
16.28905754703668
  0
SOLID
  5
15C
330
158
100
AcDbEntity
  8
1
 62
     2
100
AcDbTrace
 10
191.3610046028873
 20
320.1412469513637
 30
0.0
 11
190.4474395161295
 21
320.2624305236253
 31
0.0
 12
191.3644623682088
 22
323.6714466199861
 32
0.0
 13
191.3644623682088
 23
323.6714466199861
 33
0.0
  0
SOLID
  5
15D
330
158
100
AcDbEntity
  8
1
 62
     2
100
AcDbTrace
 10
190.8188732723507
 20
329.7160509006728
 30
0.0
 11
191.7391300963297
 21
329.7651834138291
 31
0.0
 12
191.465600928778
 22
326.2455948795
 32
0.0
 13
191.465600928778
 23
326.2455948795
 33
0.0
  0
MTEXT
  5
15E
330
158
100
AcDbEntity
  8
1
 62
     3
100
AcDbMText
 10
192.2401877594658
 20
336.059100632554
 30
0.0
 40
3.5
 41
0.0
 71
     7
 72
     1
  1
\C3;\C3;\C3;4.5%%d\C2;\H2.45;\S^ ;\C3;
  7
CONVERTER_11
 11
0.1820686604713808
 21
-0.9832858195225623
 31
0.0
 73
     1
 44
0.60024009603842
  0
ENDBLK
  5
160
330
158
100
AcDbEntity
  8
0
100
AcDbBlockEnd
  0
ENDSEC
  0
SECTION
  2
ENTITIES
  0
INSERT
  5
6E
330
1F
100
AcDbEntity
  8
0
100
AcDbBlockReference
  2
Urheberrecht_DE-EN_horizontal
 10
145.342403477017
 20
276.036435640177
 30
0.0
  0
LWPOLYLINE
  5
72
330
1F
100
AcDbEntity
  8
1
  6
Continuous
 62
     7
100
AcDbPolyline
 90
        2
 70
     0
 43
0.25
 10
209.481626506
 20
299.1699853712
 10
209.481626506
 20
298.2455948795417
  0
LWPOLYLINE
  5
73
330
1F
100
AcDbEntity
  8
1
  6
Continuous
 62
     7
100
AcDbPolyline
 90
        2
 70
     0
 43
0.25
 10
208.5600856018
 20
298.1730680374
 10
209.481626506
 20
298.2455948795417
  0
LWPOLYLINE
  5
74
330
1F
100
AcDbEntity
  8
1
  6
Continuous
 62
     7
100
AcDbPolyline
 90
        2
 70
     0
 43
0.25
 10
208.5600856018
 20
322.3181217216
 10
209.481626505996
 20
322.2455948794619
  0
LWPOLYLINE
  5
75
330
1F
100
AcDbEntity
  8
1
  6
Continuous
 62
     7
100
AcDbPolyline
 90
        2
 70
     0
 43
0.25
 10
209.481626506
 20
321.3212043879
 10
209.481626506
 20
322.2455948794619
  0
LINE
  5
76
330
1F
100
AcDbEntity
  8
RUNDUNGEN
  6
Continuous
 62
     7
100
AcDbLine
 10
209.481626506
 20
299.1699853712
 30
0.0
 11
209.481626506
 21
321.3212043879
 31
0.0
  0
LINE
  5
77
330
1F
100
AcDbEntity
  8
RUNDUNGEN
  6
Continuous
 62
     9
100
AcDbLine
 10
208.5600856018
 20
298.1730680374
 30
0.0
 11
208.5600856018
 21
322.3181217216
 31
0.0
  0
LINE
  5
78
330
1F
100
AcDbEntity
  8
0
  6
Continuous
 62
     7
100
AcDbLine
 10
100.8735593375
 20
335.2455948795
 30
0.0
 11
105.431626506
 21
335.2455948795
 31
0.0
  0
LINE
  5
79
330
1F
100
AcDbEntity
  8
0
  6
Continuous
 62
     7
100
AcDbLine
 10
91.481626506
 20
335.2455948795
 30
0.0
 11
94.0896936745
 21
335.2455948795
 31
0.0
  0
LINE
  5
7A
330
1F
100
AcDbEntity
  8
0
  6
Continuous
 62
     7
100
AcDbLine
 10
79.481626506
 20
335.2455948795
 30
0.0
 11
81.481626506
 21
335.2455948795
 31
0.0
  0
LINE
  5
7B
330
1F
100
AcDbEntity
  8
BEZUGSACHSEN
  6
Continuous
 62
     7
100
AcDbLine
 10
81.481626506
 20
335.2455948795
 30
0.0
 11
79.481626506
 21
335.2455948795
 31
0.0
  0
LINE
  5
7C
330
1F
100
AcDbEntity
  8
BEZUGSACHSEN
  6
Continuous
 62
     7
100
AcDbLine
 10
94.0896936745
 20
335.2455948795
 30
0.0
 11
91.481626506
 21
335.2455948795
 31
0.0
  0
LINE
  5
7D
330
1F
100
AcDbEntity
  8
0
  6
Continuous
 62
     7
100
AcDbLine
 10
96.319126506
 20
331.7205948795
 30
0.0
 11
98.644126506
 21
331.7205948795
 31
0.0
  0
LINE
  5
7E
330
1F
100
AcDbEntity
  8
0
  6
Continuous
 62
     7
100
AcDbLine
 10
77.481626506
 20
329.4003948795
 30
0.0
 11
55.5315892637
 21
328.3006980137
 31
0.0
  0
LINE
  5
7F
330
1F
100
AcDbEntity
  8
0
  6
Continuous
 62
     7
100
AcDbLine
 10
158.6568075613001
 20
326.2455948795
 30
0.0
 11
208.5600856018
 21
322.3181217216
 31
0.0
  0
LINE
  5
80
330
1F
100
AcDbEntity
  8
RUNDUNGEN
  6
Continuous
 62
     7
100
AcDbLine
 10
208.5600856018
 20
322.3181217216
 30
0.0
 11
158.6568075613001
 21
326.2455948795
 31
0.0
  0
LINE
  5
81
330
1F
100
AcDbEntity
  8
0
  6
Continuous
 62
     7
100
AcDbLine
 10
79.1794568755
 20
329.2003948795
 30
0.0
 11
78.3070281661
 21
329.2003948795
 31
0.0
  0
LINE
  5
82
330
1F
100
AcDbEntity
  8
0
  6
Continuous
 62
     7
100
AcDbLine
 10
110.431626506
 20
326.2455948795
 30
0.0
 11
158.6568075613001
 21
326.2455948795
 31
0.0
  0
LWPOLYLINE
  5
83
330
1F
100
AcDbEntity
  8
BOHRUNGEN
  6
DASHED
 62
     8
100
AcDbPolyline
 90
        2
 70
     0
 43
0.35
 10
167.481626506
 20
305.2455948795
 10
167.481626506
 20
315.2455948795
  0
LINE
  5
84
330
1F
100
AcDbEntity
  8
0
  6
Continuous
 62
     7
100
AcDbLine
 10
78.151736739
 20
329.2208393837
 30
0.0
 11
77.481626506
 21
329.4003948795
 31
0.0
  0
LINE
  5
85
330
1F
100
AcDbEntity
  8
RUNDUNGEN
  6
Continuous
 62
     9
100
AcDbLine
 10
57.781626506
 20
317.8955948795
 30
0.0
 11
58.59968468220001
 21
317.8955948795
 31
0.0
  0
LINE
  5
86
330
1F
100
AcDbEntity
  8
0
  6
Continuous
 62
     9
100
AcDbLine
 10
57.781626506
 20
317.8955948795
 30
0.0
 11
55.3181167159
 21
317.8955948795
 31
0.0
  0
LINE
  5
87
330
1F
100
AcDbEntity
  8
0
  6
Continuous
 62
     7
100
AcDbLine
 10
99.394126506
 20
316.2630948795
 30
0.0
 11
105.431626506
 21
316.2630948795
 31
0.0
  0
LINE
  5
88
330
1F
100
AcDbEntity
  8
0
  6
Continuous
 62
     7
100
AcDbLine
 10
92.449126506
 20
316.2630948795
 30
0.0
 11
95.569126506
 21
316.2630948795
 31
0.0
  0
LINE
  5
89
330
1F
100
AcDbEntity
  8
0
  6
Continuous
 62
     7
100
AcDbLine
 10
99.1156616533
 20
315.8630948795
 30
0.0
 11
105.431626506
 21
315.8630948795
 31
0.0
  0
LINE
  5
8A
330
1F
100
AcDbEntity
  8
0
  6
Continuous
 62
     7
100
AcDbLine
 10
92.449126506
 20
315.8630948795
 30
0.0
 11
95.8475913588
 21
315.8630948795
 31
0.0
  0
LINE
  5
8B
330
1F
100
AcDbEntity
  8
0
  6
Continuous
 62
     7
100
AcDbLine
 10
57.781626506
 20
315.5155948795
 30
0.0
 11
55.731626506
 21
315.5155948795
 31
0.0
  0
LWPOLYLINE
  5
8C
330
1F
100
AcDbEntity
  8
BOHRUNGEN
  6
DASHED
 62
     8
100
AcDbPolyline
 90
        2
 70
     0
 43
0.35
 10
209.481626506
 20
315.2455948795
 10
167.481626506
 20
315.2455948795
  0
LINE
  5
8D
330
1F
100
AcDbEntity
  8
0
  6
Continuous
 62
     7
100
AcDbLine
 10
98.644126506
 20
315.1817497596
 30
0.0
 11
96.319126506
 21
315.1817497596
 31
0.0
  0
LWPOLYLINE
  5
8E
330
1F
100
AcDbEntity
  8
TEIL_STARTBEZUEGE
  6
DOT_CENTER
 62
     7
100
AcDbPolyline
 90
        2
 70
     0
 43
0.25
 10
212.481626506
 20
310.2455948795
 10
51.58162650599999
 20
310.2455948795
  0
LINE
  5
8F
330
1F
100
AcDbEntity
  8
0
  6
Continuous
 62
     7
100
AcDbLine
 10
158.6568075613001
 20
326.2455948795
 30
0.0
 11
158.6568075613001
 21
294.2455948795
 31
0.0
  0
LINE
  5
90
330
1F
100
AcDbEntity
  8
0
  6
Continuous
 62
     7
100
AcDbLine
 10
94.0896936745
 20
335.2455948795
 30
0.0
 11
95.569126506
 21
332.683142049
 31
0.0
  0
LINE
  5
91
330
1F
100
AcDbEntity
  8
0
  6
Continuous
 62
     7
100
AcDbLine
 10
94.0896936745
 20
285.2455948795
 30
0.0
 11
95.569126506
 21
287.80804771
 31
0.0
  0
LINE
  5
92
330
1F
100
AcDbEntity
  8
0
  6
Continuous
 62
     7
100
AcDbLine
 10
96.319126506
 20
305.3094399995
 30
0.0
 11
98.644126506
 21
305.3094399995
 31
0.0
  0
LWPOLYLINE
  5
93
330
1F
100
AcDbEntity
  8
BOHRUNGEN
  6
DASHED
 62
     8
100
AcDbPolyline
 90
        2
 70
     0
 43
0.35
 10
209.481626506
 20
305.2455948795
 10
167.481626506
 20
305.2455948795
  0
LINE
  5
94
330
1F
100
AcDbEntity
  8
0
  6
Continuous
 62
     7
100
AcDbLine
 10
57.781626506
 20
304.9755948795
 30
0.0
 11
55.731626506
 21
304.9755948795
 31
0.0
  0
LINE
  5
95
330
1F
100
AcDbEntity
  8
0
  6
Continuous
 62
     7
100
AcDbLine
 10
95.8475913588
 20
304.6280948795
 30
0.0
 11
92.449126506
 21
304.6280948795
 31
0.0
  0
LINE
  5
96
330
1F
100
AcDbEntity
  8
0
  6
Continuous
 62
     7
100
AcDbLine
 10
105.431626506
 20
304.6280948795
 30
0.0
 11
99.1156616533
 21
304.6280948795
 31
0.0
  0
LINE
  5
97
330
1F
100
AcDbEntity
  8
0
  6
Continuous
 62
     7
100
AcDbLine
 10
99.394126506
 20
304.2280948795
 30
0.0
 11
105.431626506
 21
304.2280948795
 31
0.0
  0
LINE
  5
98
330
1F
100
AcDbEntity
  8
0
  6
Continuous
 62
     7
100
AcDbLine
 10
92.449126506
 20
304.2280948795
 30
0.0
 11
95.569126506
 21
304.2280948795
 31
0.0
  0
LINE
  5
99
330
1F
100
AcDbEntity
  8
0
  6
Continuous
 62
     9
100
AcDbLine
 10
57.781626506
 20
302.5955948795
 30
0.0
 11
55.3181167159
 21
302.5955948795
 31
0.0
  0
LINE
  5
9A
330
1F
100
AcDbEntity
  8
RUNDUNGEN
  6
Continuous
 62
     9
100
AcDbLine
 10
58.59968468220001
 20
302.5955948795
 30
0.0
 11
57.781626506
 21
302.5955948795
 31
0.0
  0
LINE
  5
9B
330
1F
100
AcDbEntity
  8
0
  6
Continuous
 62
     7
100
AcDbLine
 10
105.431626506
 20
289.2455948795
 30
0.0
 11
105.431626506
 21
285.2456084236
 31
0.0
  0
LINE
  5
9C
330
1F
100
AcDbEntity
  8
0
  6
Continuous
 62
     7
100
AcDbLine
 10
105.431626506
 20
335.245544861
 30
0.0
 11
105.431626506
 21
331.2455948795
 31
0.0
  0
LINE
  5
9D
330
1F
100
AcDbEntity
  8
0
  6
Continuous
 62
     7
100
AcDbLine
 10
78.151736739
 20
291.2703503753
 30
0.0
 11
77.481626506
 21
291.0907948795
 31
0.0
  0
LINE
  5
9E
330
1F
100
AcDbEntity
  8
0
  6
Continuous
 62
     7
100
AcDbLine
 10
100.8735593375
 20
316.2630948795
 30
0.0
 11
100.8735593375
 21
335.2455948795
 31
0.0
  0
LINE
  5
9F
330
1F
100
AcDbEntity
  8
0
  6
Continuous
 62
     7
100
AcDbLine
 10
100.8735593375
 20
285.2455948795
 30
0.0
 11
100.8735593375
 21
290.512944272
 31
0.0
  0
LINE
  5
A0
330
1F
100
AcDbEntity
  8
0
  6
Continuous
 62
     7
100
AcDbLine
 10
100.8735593375
 20
304.2280948795
 30
0.0
 11
100.8735593375
 21
294.8955948795
 31
0.0
  0
LINE
  5
A1
330
1F
100
AcDbEntity
  8
0
  6
Continuous
 62
     7
100
AcDbLine
 10
99.394126506
 20
316.2630948795
 30
0.0
 11
99.394126506
 21
332.6830874368
 31
0.0
  0
LINE
  5
A2
330
1F
100
AcDbEntity
  8
0
  6
Continuous
 62
     7
100
AcDbLine
 10
99.394126506
 20
287.8080615513
 30
0.0
 11
99.394126506
 21
294.1730056357
 31
0.0
  0
LINE
  5
A3
330
1F
100
AcDbEntity
  8
0
  6
Continuous
 62
     7
100
AcDbLine
 10
99.394126506
 20
304.2280948795
 30
0.0
 11
99.394126506
 21
294.8955948795
 31
0.0
  0
LINE
  5
A4
330
1F
100
AcDbEntity
  8
0
  6
Continuous
 62
     9
100
AcDbLine
 10
98.644126506
 20
315.1817497596
 30
0.0
 11
98.644126506
 21
331.7205948795
 31
0.0
  0
LINE
  5
A5
330
1F
100
AcDbEntity
  8
0
  6
Continuous
 62
     9
100
AcDbLine
 10
98.644126506
 20
288.7705948795
 30
0.0
 11
98.644126506
 21
305.3094399995
 31
0.0
  0
LINE
  5
A6
330
1F
100
AcDbEntity
  8
0
  6
Continuous
 62
     7
100
AcDbLine
 10
99.3572896118
 20
294.8955948795
 30
0.0
 11
105.431626506
 21
294.8955948795
 31
0.0
  0
LINE
  5
A7
330
1F
100
AcDbEntity
  8
0
  6
Continuous
 62
     7
100
AcDbLine
 10
92.1753127789
 20
294.8955948795
 30
0.0
 11
95.6059634002
 21
294.8955948795
 31
0.0
  0
LINE
  5
A8
330
1F
100
AcDbEntity
  8
0
  6
Continuous
 62
     7
100
AcDbLine
 10
99.3572896118
 20
294.4955948795
 30
0.0
 11
105.431626506
 21
294.4955948795
 31
0.0
  0
LINE
  5
A9
330
1F
100
AcDbEntity
  8
0
  6
Continuous
 62
     7
100
AcDbLine
 10
92.1753127789
 20
294.4955948795
 30
0.0
 11
95.6059634002
 21
294.4955948795
 31
0.0
  0
LINE
  5
AA
330
1F
100
AcDbEntity
  8
0
  6
Continuous
 62
     7
100
AcDbLine
 10
110.431626506
 20
294.2455948795
 30
0.0
 11
158.6568075613001
 21
294.2455948795
 31
0.0
  0
LINE
  5
AB
330
1F
100
AcDbEntity
  8
0
  6
Continuous
 62
     7
100
AcDbLine
 10
158.6568075613001
 20
294.2455948795
 30
0.0
 11
208.5600856018
 21
298.1730680374
 31
0.0
  0
LINE
  5
AC
330
1F
100
AcDbEntity
  8
RUNDUNGEN
  6
Continuous
 62
     7
100
AcDbLine
 10
208.5600856018
 20
298.1730680374
 30
0.0
 11
158.6568075613001
 21
294.2455948795
 31
0.0
  0
LINE
  5
AD
330
1F
100
AcDbEntity
  8
0
  6
Continuous
 62
     9
100
AcDbLine
 10
96.319126506
 20
315.1817497596
 30
0.0
 11
96.319126506
 21
331.7205948795
 31
0.0
  0
LINE
  5
AE
330
1F
100
AcDbEntity
  8
0
  6
Continuous
 62
     9
100
AcDbLine
 10
96.319126506
 20
288.7705948795
 30
0.0
 11
96.319126506
 21
305.3094399995
 31
0.0
  0
LINE
  5
AF
330
1F
100
AcDbEntity
  8
0
  6
Continuous
 62
     7
100
AcDbLine
 10
95.569126506
 20
287.8080615513
 30
0.0
 11
95.569126506
 21
294.1730056357
 31
0.0
  0
LINE
  5
B0
330
1F
100
AcDbEntity
  8
0
  6
Continuous
 62
     7
100
AcDbLine
 10
95.569126506
 20
304.2280948795
 30
0.0
 11
95.569126506
 21
294.8955948795
 31
0.0
  0
LINE
  5
B1
330
1F
100
AcDbEntity
  8
0
  6
Continuous
 62
     7
100
AcDbLine
 10
95.569126506
 20
332.6830874368
 30
0.0
 11
95.569126506
 21
316.2630948795
 31
0.0
  0
LINE
  5
B2
330
1F
100
AcDbEntity
  8
0
  6
Continuous
 62
     7
100
AcDbLine
 10
94.0896936745
 20
290.512944272
 30
0.0
 11
94.0896936745
 21
285.2455948795
 31
0.0
  0
LINE
  5
B3
330
1F
100
AcDbEntity
  8
0
  6
Continuous
 62
     7
100
AcDbLine
 10
94.0896936745
 20
304.2280948795
 30
0.0
 11
94.0896936745
 21
294.8955948795
 31
0.0
  0
LINE
  5
B4
330
1F
100
AcDbEntity
  8
0
  6
Continuous
 62
     7
100
AcDbLine
 10
94.0896936745
 20
335.2455948795
 30
0.0
 11
94.0896936745
 21
316.2630948795
 31
0.0
  0
LINE
  5
B5
330
1F
100
AcDbEntity
  8
0
  6
Continuous
 62
     7
100
AcDbLine
 10
99.394126506
 20
287.80804771
 30
0.0
 11
100.8735593375
 21
285.2455948795
 31
0.0
  0
LINE
  5
B6
330
1F
100
AcDbEntity
  8
0
  6
Continuous
 62
     7
100
AcDbLine
 10
77.481626506
 20
291.0907948795
 30
0.0
 11
55.5315892637
 21
292.1904917454
 31
0.0
  0
LINE
  5
B7
330
1F
100
AcDbEntity
  8
0
  6
Continuous
 62
     7
100
AcDbLine
 10
79.1794568755
 20
291.2907948795
 30
0.0
 11
78.3070281661
 21
291.2907948795
 31
0.0
  0
LINE
  5
B8
330
1F
100
AcDbEntity
  8
0
  6
Continuous
 62
     7
100
AcDbLine
 10
100.8735593375
 20
290.512944272
 30
0.0
 11
105.431626506
 21
290.512944272
 31
0.0
  0
LINE
  5
B9
330
1F
100
AcDbEntity
  8
0
  6
Continuous
 62
     7
100
AcDbLine
 10
86.8139527889
 20
290.512944272
 30
0.0
 11
94.0896936745
 21
290.512944272
 31
0.0
  0
LINE
  5
BA
330
1F
100
AcDbEntity
  8
FASEN
  6
Continuous
 62
     9
100
AcDbLine
 10
92.449126506
 20
315.8630948795
 30
0.0
 11
92.449126506
 21
316.2630948795
 31
0.0
  0
LINE
  5
BB
330
1F
100
AcDbEntity
  8
FASEN
  6
Continuous
 62
     9
100
AcDbLine
 10
92.449126506
 20
304.6280948795
 30
0.0
 11
92.449126506
 21
304.2280948795
 31
0.0
  0
LINE
  5
BC
330
1F
100
AcDbEntity
  8
FASEN
  6
Continuous
 62
     9
100
AcDbLine
 10
92.1753127789
 20
294.4955948795
 30
0.0
 11
92.1753127789
 21
294.8955948795
 31
0.0
  0
LINE
  5
BD
330
1F
100
AcDbEntity
  8
0
  6
Continuous
 62
     9
100
AcDbLine
 10
55.731626506
 20
316.554954639
 30
0.0
 11
54.58162650600001
 21
317.2027429905
 31
0.0
  0
LINE
  5
BE
330
1F
100
AcDbEntity
  8
0
  6
Continuous
 62
     7
100
AcDbLine
 10
96.319126506
 20
288.7705948795
 30
0.0
 11
98.644126506
 21
288.7705948795
 31
0.0
  0
LINE
  5
BF
330
1F
100
AcDbEntity
  8
0
  6
Continuous
 62
     9
100
AcDbLine
 10
54.58162650600001
 20
303.2884467685
 30
0.0
 11
55.731626506
 21
303.93623512
 31
0.0
  0
LINE
  5
C0
330
1F
100
AcDbEntity
  8
0
  6
Continuous
 62
     7
100
AcDbLine
 10
99.394126506
 20
332.683142049
 30
0.0
 11
100.8735593375
 21
335.2455948795
 31
0.0
  0
LWPOLYLINE
  5
C1
330
1F
100
AcDbEntity
  8
BEZUGSACHSEN
  6
DOT_CENTER
 62
     7
100
AcDbPolyline
 90
        2
 70
     0
 43
0.25
 10
86.481626506
 20
341.1404923073
 10
86.481626506
 20
327.1404923073
  0
LINE
  5
C2
330
1F
100
AcDbEntity
  8
0
  6
Continuous
 62
     7
100
AcDbLine
 10
100.8735593375
 20
285.2455948795
 30
0.0
 11
105.431626506
 21
285.2455948795
 31
0.0
  0
LINE
  5
C3
330
1F
100
AcDbEntity
  8
0
  6
Continuous
 62
     7
100
AcDbLine
 10
94.0896936745
 20
285.2455948795
 30
0.0
 11
79.481626506
 21
285.2455948795
 31
0.0
  0
LINE
  5
C4
330
1F
100
AcDbEntity
  8
0
  6
Continuous
 62
     7
100
AcDbLine
 10
79.481626506
 20
335.2455948795
 30
0.0
 11
79.481626506
 21
285.2455948795
 31
0.0
  0
LINE
  5
C5
330
1F
100
AcDbEntity
  8
0
  6
Continuous
 62
     9
100
AcDbLine
 10
79.1794568755
 20
291.2907948795
 30
0.0
 11
79.1794568755
 21
329.2003948795
 31
0.0
  0
LINE
  5
C6
330
1F
100
AcDbEntity
  8
0
  6
Continuous
 62
     9
100
AcDbLine
 10
78.3070281661
 20
291.2907948795
 30
0.0
 11
78.3070281661
 21
329.2003948795
 31
0.0
  0
LINE
  5
C7
330
1F
100
AcDbEntity
  8
0
  6
Continuous
 62
     9
100
AcDbLine
 10
78.151736739
 20
291.2703503753
 30
0.0
 11
78.151736739
 21
329.2208393837
 31
0.0
  0
LINE
  5
C8
330
1F
100
AcDbEntity
  8
0
  6
Continuous
 62
     7
100
AcDbLine
 10
55.731626506
 20
315.5155948795
 30
0.0
 11
54.58162650600001
 21
316.6655948795
 31
0.0
  0
LINE
  5
C9
330
1F
100
AcDbEntity
  8
0
  6
Continuous
 62
     7
100
AcDbLine
 10
54.58162650600001
 20
303.8255948795
 30
0.0
 11
55.731626506
 21
304.9755948795
 31
0.0
  0
LINE
  5
CA
330
1F
100
AcDbEntity
  8
0
  6
Continuous
 62
     7
100
AcDbLine
 10
77.481626506
 20
329.4003948795
 30
0.0
 11
77.481626506
 21
291.0907948795
 31
0.0
  0
LWPOLYLINE
  5
CB
330
1F
100
AcDbEntity
  8
BEZUGSACHSEN
  6
DOT_CENTER
 62
     7
100
AcDbPolyline
 90
        2
 70
     0
 43
0.25
 10
71.981626506
 20
310.2455948795
 10
71.981626506
 20
316.2455948795
  0
LINE
  5
CC
330
1F
100
AcDbEntity
  8
BEZUGSACHSEN
  6
CENTER
 62
     7
100
AcDbLine
 10
71.981626506
 20
310.2455948795
 30
0.0
 11
71.981626506
 21
304.2455948795
 31
0.0
  0
LINE
  5
CD
330
1F
100
AcDbEntity
  8
0
  6
Continuous
 62
     7
100
AcDbLine
 10
55.269697237
 20
317.9815525855
 30
0.0
 11
55.3181167159
 21
317.8955948795
 31
0.0
  0
LINE
  5
CE
330
1F
100
AcDbEntity
  8
0
  6
Continuous
 62
     7
100
AcDbLine
 10
55.3181167159
 20
302.5955948795
 30
0.0
 11
55.269697237
 21
302.5096371735
 31
0.0
  0
LINE
  5
CF
330
1F
100
AcDbEntity
  8
RUNDUNGEN
  6
Continuous
 62
     7
100
AcDbLine
 10
59.181626506
 20
316.1767451263
 30
0.0
 11
59.181626506
 21
304.3144446327
 31
0.0
  0
LINE
  5
D0
330
1F
100
AcDbEntity
  8
RUNDUNGEN
  6
Continuous
 62
     9
100
AcDbLine
 10
57.781626506
 20
315.5155948795
 30
0.0
 11
57.781626506
 21
318.3500656771
 31
0.0
  0
LINE
  5
D1
330
1F
100
AcDbEntity
  8
RUNDUNGEN
  6
Continuous
 62
     9
100
AcDbLine
 10
57.781626506
 20
302.1411240819
 30
0.0
 11
57.781626506
 21
304.9755948795
 31
0.0
  0
LINE
  5
D2
330
1F
100
AcDbEntity
  8
0
  6
Continuous
 62
     7
100
AcDbLine
 10
55.731626506
 20
315.5155948795
 30
0.0
 11
55.731626506
 21
316.554954639
 31
0.0
  0
LINE
  5
D3
330
1F
100
AcDbEntity
  8
0
  6
Continuous
 62
     7
100
AcDbLine
 10
55.731626506
 20
303.93623512
 30
0.0
 11
55.731626506
 21
304.9755948795
 31
0.0
  0
LINE
  5
D4
330
1F
100
AcDbEntity
  8
0
  6
Continuous
 62
     9
100
AcDbLine
 10
55.5315892637
 20
302.3970823335
 30
0.0
 11
55.5315892637
 21
292.1904917454
 31
0.0
  0
LINE
  5
D5
330
1F
100
AcDbEntity
  8
0
  6
Continuous
 62
     9
100
AcDbLine
 10
55.5315892637
 20
328.3006980137
 30
0.0
 11
55.5315892637
 21
318.0941074255
 31
0.0
  0
LINE
  5
D6
330
1F
100
AcDbEntity
  8
0
  6
Continuous
 62
     7
100
AcDbLine
 10
54.58162650600001
 20
316.6655948795
 30
0.0
 11
54.58162650600001
 21
327.3019506607
 31
0.0
  0
LINE
  5
D7
330
1F
100
AcDbEntity
  8
0
  6
Continuous
 62
     7
100
AcDbLine
 10
54.58162650600001
 20
293.1892390981
 30
0.0
 11
54.58162650600001
 21
303.8255948795
 31
0.0
  0
LWPOLYLINE
  5
D8
330
1F
100
AcDbEntity
  8
1
  6
Continuous
 62
     7
100
AcDbPolyline
 90
        2
 70
     0
 43
0.5
 10
105.431626506
 20
331.2455948795
 10
105.431626506
 20
289.2455948795
  0
LINE
  5
D9
330
1F
100
AcDbEntity
  8
RUNDUNGEN
  6
Continuous
 62
     9
100
AcDbLine
 10
110.431626506
 20
326.2455948795
 30
0.0
 11
110.431626506
 21
294.2455948795
 31
0.0
  0
ARC
  5
DA
330
1F
100
AcDbEntity
  8
0
  6
Continuous
 62
     7
100
AcDbCircle
 10
98.644126506
 20
332.4705948795
 30
0.0
 40
0.75
100
AcDbArc
 50
270.0
 51
0.0
  0
ARC
  5
DB
330
1F
100
AcDbEntity
  8
RUNDUNGEN
  6
Continuous
 62
     7
100
AcDbCircle
 10
208.481626506
 20
321.3212043879
 30
0.0
 40
1.0
100
AcDbArc
 50
0.0
 51
85.49999999572873
  0
ARC
  5
DC
330
1F
100
AcDbEntity
  8
0
  6
Continuous
 62
     7
100
AcDbCircle
 10
216.1480700941
 20
343.1661303893
 30
0.0
 40
126.7303074976999
100
AcDbArc
 50
202.8862467703002
 51
204.5491891221036
  0
ARC
  5
DD
330
1F
100
AcDbEntity
  8
RUNDUNGEN
  6
Continuous
 62
     7
100
AcDbCircle
 10
144.7516970414
 20
1076.6814546813
 30
0.0
 40
779.4077988407996
100
AcDbArc
 50
263.4268476068
 51
263.5933190568001
  0
ARC
  5
DE
330
1F
100
AcDbEntity
  8
0
  6
Continuous
 62
     7
100
AcDbCircle
 10
98.644126506
 20
288.0205948795
 30
0.0
 40
0.75
100
AcDbArc
 50
0.0
 51
90.0
  0
ARC
  5
DF
330
1F
100
AcDbEntity
  8
RUNDUNGEN
  6
Continuous
 62
     7
100
AcDbCircle
 10
208.481626506
 20
299.1699853712
 30
0.0
 40
1.000000000072341
100
AcDbArc
 50
274.5000000038215
 51
0.0
  0
ARC
  5
E0
330
1F
100
AcDbEntity
  8
0
  6
Continuous
 62
     7
100
AcDbCircle
 10
97.9687861157
 20
294.1736419723
 30
0.0
 40
1.425340532344761
100
AcDbArc
 50
359.9744205669359
 51
13.05450641546304
  0
ARC
  5
E1
330
1F
100
AcDbEntity
  8
0
  6
Continuous
 62
     7
100
AcDbCircle
 10
133.1370149094
 20
294.6955948795
 30
0.0
 40
33.78031736353756
100
AcDbArc
 50
179.660772196786
 51
180.339227803214
  0
ARC
  5
E2
330
1F
100
AcDbEntity
  8
RUNDUNGEN
  6
Continuous
 62
     7
100
AcDbCircle
 10
144.7516970414
 20
-456.1902649223
 30
0.0
 40
779.4077988409
100
AcDbArc
 50
96.40668094319999
 51
96.57315239320002
  0
ARC
  5
E3
330
1F
100
AcDbEntity
  8
0
  6
Continuous
 62
     7
100
AcDbCircle
 10
79.1794568755
 20
329.8003948795
 30
0.0
 40
0.6000000000000227
100
AcDbArc
 50
270.0
 51
300.2968216182418
  0
ARC
  5
E4
330
1F
100
AcDbEntity
  8
0
  6
Continuous
 62
     7
100
AcDbCircle
 10
78.3070281661
 20
329.8003948795
 30
0.0
 40
0.6000000000355948
100
AcDbArc
 50
254.9999999971062
 51
270.0
  0
ARC
  5
E5
330
1F
100
AcDbEntity
  8
0
  6
Continuous
 62
     7
100
AcDbCircle
 10
96.319126506
 20
332.4705948795
 30
0.0
 40
0.75
100
AcDbArc
 50
180.0
 51
270.0
  0
ARC
  5
E6
330
1F
100
AcDbEntity
  8
0
  6
Continuous
 62
     7
100
AcDbCircle
 10
55.58162650600001
 20
327.3019506611
 30
0.0
 40
0.9999999999712412
100
AcDbArc
 50
92.86812048358115
 51
180.0000000229187
  0
ARC
  5
E7
330
1F
100
AcDbEntity
  8
RUNDUNGEN
  6
Continuous
 62
     7
100
AcDbCircle
 10
57.781626506
 20
314.1155948795
 30
0.0
 40
1.400000000000068
100
AcDbArc
 50
6.05709561601253
 51
90.0
  0
ARC
  5
E8
330
1F
100
AcDbEntity
  8
FASEN
  6
Continuous
 62
     7
100
AcDbCircle
 10
92.449126506
 20
310.2455948795
 30
0.0
 40
5.617499843000019
100
AcDbArc
 50
90.0
 51
270.0
  0
ARC
  5
E9
330
1F
100
AcDbEntity
  8
0
  6
Continuous
 62
     7
100
AcDbCircle
 10
92.449126506
 20
310.2455948795
 30
0.0
 40
6.017499999999984
100
AcDbArc
 50
90.0
 51
270.0
  0
ARC
  5
EA
330
1F
100
AcDbEntity
  8
0
  6
Continuous
 62
     7
100
AcDbCircle
 10
-21.184817082
 20
343.1661303893
 30
0.0
 40
126.7303074976679
100
AcDbArc
 50
335.4508108778776
 51
337.1137532296997
  0
ARC
  5
EB
330
1F
100
AcDbEntity
  8
0
  6
Continuous
 62
     7
100
AcDbCircle
 10
96.07274646
 20
304.1525997465
 30
0.0
 40
0.5037304978997338
100
AcDbArc
 50
166.1596109370713
 51
171.3804870338136
  0
ARC
  5
EC
330
1F
100
AcDbEntity
  8
0
  6
Continuous
 62
     7
100
AcDbCircle
 10
79.1794568755
 20
290.6907948795
 30
0.0
 40
0.5999999999998945
100
AcDbArc
 50
59.70317838175824
 51
90.0
  0
ARC
  5
ED
330
1F
100
AcDbEntity
  8
0
  6
Continuous
 62
     7
100
AcDbCircle
 10
78.3070281661
 20
290.6907948795
 30
0.0
 40
0.6000000000000227
100
AcDbArc
 50
90.0
 51
105.0000000028938
  0
ARC
  5
EE
330
1F
100
AcDbEntity
  8
0
  6
Continuous
 62
     7
100
AcDbCircle
 10
96.319126506
 20
288.0205948795
 30
0.0
 40
0.75
100
AcDbArc
 50
90.0
 51
180.0
  0
ARC
  5
EF
330
1F
100
AcDbEntity
  8
0
  6
Continuous
 62
     7
100
AcDbCircle
 10
55.58162650600001
 20
293.189239098
 30
0.0
 40
1.0
100
AcDbArc
 50
179.9999999942679
 51
267.1318795164188
  0
ARC
  5
F0
330
1F
100
AcDbEntity
  8
RUNDUNGEN
  6
Continuous
 62
     7
100
AcDbCircle
 10
57.781626506
 20
306.3755948795
 30
0.0
 40
1.399999999999977
100
AcDbArc
 50
270.0
 51
353.9429041005092
  0
ARC
  5
F1
330
1F
100
AcDbEntity
  8
0
  6
Continuous
 62
     7
100
AcDbCircle
 10
96.9944668963
 20
294.1736419723
 30
0.0
 40
1.425340532341817
100
AcDbArc
 50
166.945493584537
 51
180.0255794330641
  0
ARC
  5
F2
330
1F
100
AcDbEntity
  8
FASEN
  6
Continuous
 62
     7
100
AcDbCircle
 10
92.1753127789
 20
288.8955948795
 30
0.0
 40
5.599990644600041
100
AcDbArc
 50
90.0
 51
163.2131310087986
  0
ARC
  5
F3
330
1F
100
AcDbEntity
  8
FASEN
  6
Continuous
 62
     7
100
AcDbCircle
 10
92.1753127789
 20
288.8955948795
 30
0.0
 40
6.0
100
AcDbArc
 50
90.0
 51
161.1845969504029
  0
ARC
  5
F4
330
1F
100
AcDbEntity
  8
FASEN
  6
Continuous
 62
     7
100
AcDbCircle
 10
94.6559818536
 20
298.678986688
 30
0.0
 40
11.3217343455995
100
AcDbArc
 50
223.8842578163006
 51
226.1595439826519
  0
ARC
  5
F5
330
1F
100
AcDbEntity
  8
0
  6
Continuous
 62
     7
100
AcDbCircle
 10
61.8262381027
 20
294.6955948795
 30
0.0
 40
33.78031736343756
100
AcDbArc
 50
359.660772196785
 51
0.33922780321496
  0
CIRCLE
  5
F6
330
1F
100
AcDbEntity
  8
FASEN
  6
Continuous
 62
     7
100
AcDbCircle
 10
71.981626506
 20
310.2455948795
 30
0.0
 40
3.0
  0
SPLINE
  5
F7
330
1F
100
AcDbEntity
  8
0
  6
Continuous
 62
     7
100
AcDbSpline
210
0.0
220
0.0
230
1.0
 70
     8
 71
     3
 72
    11
 73
     7
 74
     5
 42
0.0000000001
 43
0.0000000001
 44
0.00000001
 40
0.0
 40
0.0
 40
0.0
 40
0.0
 40
0.3847579053301837
 40
0.7696659746337586
 40
1.093183244053877
 40
1.416570809308373
 40
1.416570809308373
 40
1.416570809308373
 40
1.416570809308373
 10
55.731626506
 20
316.554954639
 30
0.0
 10
55.72299846821377
 20
316.6833012113171
 30
0.0
 10
55.70573902527595
 20
316.9400444472712
 30
0.0
 10
55.59989110728924
 20
317.2911387257845
 30
0.0
 10
55.47111296241153
 20
317.6103313922065
 30
0.0
 10
55.36910864746213
 20
317.8005197612999
 30
0.0
 10
55.3181167159
 20
317.8955948795
 30
0.0
 11
55.731626506
 21
316.554954639
 31
0.0
 11
55.69143203272017
 21
316.9376072883203
 31
0.0
 11
55.58809494352897
 21
317.3083844017085
 31
0.0
 11
55.46577823173035
 21
317.6078873994027
 31
0.0
 11
55.3181167159
 21
317.8955948795
 31
0.0
  0
SPLINE
  5
F8
330
1F
100
AcDbEntity
  8
0
  6
Continuous
 62
     7
100
AcDbSpline
210
0.0
220
0.0
230
1.0
 70
     8
 71
     3
 72
    11
 73
     7
 74
     5
 42
0.0000000001
 43
0.0000000001
 44
0.00000001
 40
0.0
 40
0.0
 40
0.0
 40
0.0
 40
0.4419689633842116
 40
0.8839020538558594
 40
1.150518561878978
 40
1.416734593058768
 40
1.416734593058768
 40
1.416734593058768
 40
1.416734593058768
 10
55.3181167159
 20
302.5955948795
 30
0.0
 10
55.38681681602831
 20
302.7261191236926
 30
0.0
 10
55.52421144016336
 20
302.9871570179295
 30
0.0
 10
55.64913761173947
 20
303.3513260494906
 30
0.0
 10
55.71917397712576
 20
303.6697117803565
 30
0.0
 10
55.72747774341167
 20
303.847438533251
 30
0.0
 10
55.731626506
 20
303.93623512
 30
0.0
 11
55.3181167159
 21
302.5955948795
 31
0.0
 11
55.513861591496
 21
302.9918530128838
 31
0.0
 11
55.65804881228937
 21
303.4096028205603
 31
0.0
 11
55.71169649204343
 21
303.6707661579709
 31
0.0
 11
55.731626506
 21
303.93623512
 31
0.0
  0
SPLINE
  5
F9
330
1F
100
AcDbEntity
  8
0
  6
Continuous
 62
     7
100
AcDbSpline
210
0.0
220
0.0
230
1.0
 70
     8
 71
     3
 72
    11
 73
     7
 74
     5
 42
0.0000000001
 43
0.0000000001
 44
0.00000001
 40
0.0
 40
0.0
 40
0.0
 40
0.0
 40
0.0719820116836954
 40
0.1441794862811984
 40
0.2163078795669783
 40
0.2883301028958452
 40
0.2883301028958452
 40
0.2883301028958452
 40
0.2883301028958452
 10
55.5315892637
 20
302.3970823335
 30
0.0
 10
55.50786243049861
 20
302.4009855206784
 30
0.0
 10
55.46033774284346
 20
302.4088035783999
 30
0.0
 10
55.39247107463299
 20
302.4342373022259
 30
0.0
 10
55.32823425731364
 20
302.4674648324011
 30
0.0
 10
55.28919999391959
 20
302.4955866305654
 30
0.0
 10
55.269697237
 20
302.5096371735
 30
0.0
 11
55.5315892637
 21
302.3970823335
 31
0.0
 11
55.46097913715521
 21
302.4110687567511
 31
0.0
 11
55.39305745474133
 21
302.4355456927589
 31
0.0
 11
55.32914564625108
 21
302.4689789973143
 31
0.0
 11
55.269697237
 21
302.5096371735
 31
0.0
  0
SPLINE
  5
FA
330
1F
100
AcDbEntity
  8
0
  6
Continuous
 62
     7
100
AcDbSpline
210
0.0
220
0.0
230
1.0
 70
     8
 71
     3
 72
    13
 73
     9
 74
     7
 42
0.0000000001
 43
0.0000000001
 44
0.00000001
 40
0.0
 40
0.0
 40
0.0
 40
0.0
 40
0.1312911943314483
 40
0.2626255805391597
 40
0.3227118842560645
 40
0.3827399627618178
 40
0.4404729026377384
 40
0.4981360903238616
 40
0.4981360903238616
 40
0.4981360903238616
 40
0.4981360903238616
 10
99.1156616533
 20
304.6280948795
 30
0.0
 10
99.15098827129682
 20
304.602064288678
 30
0.0
 10
99.22165312896024
 20
304.5499945435497
 30
0.0
 10
99.29116197997232
 20
304.4663152342442
 30
0.0
 10
99.3344171243472
 20
304.394419352708
 30
0.0
 10
99.35913502714651
 20
304.3404132518684
 30
0.0
 10
99.37797423959361
 20
304.2848682209034
 30
0.0
 10
99.38502457641027
 20
304.2470116990669
 30
0.0
 10
99.388547614
 20
304.2280948795
 30
0.0
 11
99.1156616533
 21
304.6280948795
 31
0.0
 11
99.21811817045655
 21
304.5459971340917
 31
0.0
 11
99.30260041436708
 21
304.4454413214084
 31
0.0
 11
99.33343403797211
 21
304.3938695117665
 31
0.0
 11
99.35848734533755
 21
304.3393195163572
 31
0.0
 11
99.37664453509305
 21
304.2845161514341
 31
0.0
 11
99.388547614
 21
304.2280948795
 31
0.0
  0
SPLINE
  5
FB
330
1F
100
AcDbEntity
  8
0
  6
Continuous
 62
     7
100
AcDbSpline
210
0.0
220
0.0
230
1.0
 70
     8
 71
     3
 72
    11
 73
     7
 74
     5
 42
0.0000000001
 43
0.0000000001
 44
0.00000001
 40
0.0
 40
0.0
 40
0.0
 40
0.0
 40
0.1068456601645113
 40
0.2142571945307653
 40
0.333367911668979
 40
0.452134311556728
 40
0.452134311556728
 40
0.452134311556728
 40
0.452134311556728
 10
95.58364132822
 20
304.273101134794
 30
0.0
 10
95.59432757680784
 20
304.3072098260616
 30
0.0
 10
95.61575667031491
 20
304.3756078544781
 30
0.0
 10
95.67475550589431
 20
304.4708612401379
 30
0.0
 10
95.75117144652978
 20
304.5579997315654
 30
0.0
 10
95.81548241719658
 20
304.604752387698
 30
0.0
 10
95.8475913588
 20
304.6280948795
 30
0.0
 11
95.58364132822
 21
304.273101134794
 31
0.0
 11
95.61980076421005
 21
304.3736421228778
 31
0.0
 11
95.67494293344578
 21
304.4658190119927
 31
0.0
 11
95.75417267451773
 21
304.5547572549866
 31
0.0
 11
95.8475913588
 21
304.6280948795
 31
0.0
  0
SPLINE
  5
FC
330
1F
100
AcDbEntity
  8
0
  6
Continuous
 62
     7
100
AcDbSpline
210
0.0
220
0.0
230
1.0
 70
     8
 71
     3
 72
    13
 73
     9
 74
     7
 42
0.0000000001
 43
0.0000000001
 44
0.00000001
 40
0.0
 40
0.0
 40
0.0
 40
0.0
 40
0.0576631896509718
 40
0.1153961315071591
 40
0.1754242231518839
 40
0.2355105400445472
 40
0.3668449112209757
 40
0.4981360904229046
 40
0.4981360904229046
 40
0.4981360904229046
 40
0.4981360904229046
 10
99.388547614
 20
316.2630948795
 30
0.0
 10
99.38502457626467
 20
316.2441780592916
 30
0.0
 10
99.37797423915579
 20
316.2063215361669
 30
0.0
 10
99.35913502452485
 20
316.150776499902
 30
0.0
 10
99.33441711668769
 20
316.0967703909207
 30
0.0
 10
99.29116196731687
 20
316.024874507922
 30
0.0
 10
99.22165311716446
 20
315.9411952058121
 30
0.0
 10
99.15098826735603
 20
315.8891254671028
 30
0.0
 10
99.1156616533
 20
315.8630948795
 30
0.0
 11
99.388547614
 21
316.2630948795
 31
0.0
 11
99.37664453456634
 21
316.2066736056689
 31
0.0
 11
99.35848734385272
 21
316.1518702389771
 31
0.0
 11
99.3334340299233
 21
316.0973202321241
 31
0.0
 11
99.30260039742387
 21
316.0457484124489
 31
0.0
 11
99.21811815954584
 21
315.9451926143295
 31
0.0
 11
99.1156616533
 21
315.8630948795
 31
0.0
  0
SPLINE
  5
FD
330
1F
100
AcDbEntity
  8
0
  6
Continuous
 62
     7
100
AcDbSpline
210
0.0
220
0.0
230
1.0
 70
     8
 71
     3
 72
    13
 73
     9
 74
     7
 42
0.0000000001
 43
0.0000000001
 44
0.00000001
 40
0.0
 40
0.0
 40
0.0
 40
0.0
 40
0.1312848068297605
 40
0.2626131915295675
 40
0.3227000711483982
 40
0.3827285903612921
 40
0.4404671082546637
 40
0.498135943452784
 40
0.498135943452784
 40
0.498135943452784
 40
0.498135943452784
 10
95.8475913588
 20
315.8630948795
 30
0.0
 10
95.8122665464705
 20
315.8891243267065
 30
0.0
 10
95.7416051963109
 20
315.9411918611737
 30
0.0
 10
95.6720984360037
 20
316.0248673629343
 30
0.0
 10
95.62884130676412
 20
316.0967600713509
 30
0.0
 10
95.60412054300943
 20
316.1507673285638
 30
0.0
 10
95.58527967190851
 20
316.2063159767839
 30
0.0
 10
95.57822873685667
 20
316.2441761985662
 30
0.0
 10
95.574705398
 20
316.2630948795
 30
0.0
 11
95.8475913588
 21
315.8630948795
 31
0.0
 11
95.7451399462636
 21
315.9451887804527
 31
0.0
 11
95.66066017991145
 21
316.0457388361709
 31
0.0
 11
95.6298243910252
 21
316.0973100221772
 31
0.0
 11
95.60476914231647
 21
316.1518596109111
 31
0.0
 11
95.58660960076897
 21
316.2066680728427
 31
0.0
 11
95.574705398
 21
316.2630948795
 31
0.0
  0
SPLINE
  5
FE
330
1F
100
AcDbEntity
  8
0
  6
Continuous
 62
     7
100
AcDbSpline
210
0.0
220
0.0
230
1.0
 70
     8
 71
     3
 72
    27
 73
    23
 74
    21
 42
0.0000000001
 43
0.0000000001
 44
0.00000001
 40
0.0
 40
0.0
 40
0.0
 40
0.0
 40
0.0730306819963018
 40
0.1460817688472905
 40
0.2142068182787518
 40
0.2823160953907874
 40
0.3442738268991122
 40
0.4062919405942435
 40
0.4617913416795777
 40
0.5170559905369552
 40
0.5428520623207304
 40
0.5686432246551915
 40
0.5939867602586786
 40
0.619329249803994
 40
0.6451121206617481
 40
0.6708991015162237
 40
0.6979696845543355
 40
0.7250453874537317
 40
0.7848430773613768
 40
0.8448837205933717
 40
0.9129318640912695
 40
0.9808740945976607
 40
0.9808740945976607
 40
0.9808740945976607
 40
0.9808740945976607
 10
55.269697237
 20
302.5096371735
 30
0.0
 10
55.24986486274938
 20
302.4955118393636
 30
0.0
 10
55.21019457306047
 20
302.4672572244568
 30
0.0
 10
55.14942656295295
 20
302.429665346482
 30
0.0
 10
55.08805929449854
 20
302.3963974450673
 30
0.0
 10
55.02773795459331
 20
302.3692777970161
 30
0.0
 10
54.96724810408956
 20
302.3480125968849
 30
0.0
 10
54.90880472528428
 20
302.3344963888247
 30
0.0
 10
54.85129814161387
 20
302.3289849880549
 30
0.0
 10
54.80557914509127
 20
302.3321528927752
 30
0.0
 10
54.77080398832054
 20
302.3401137499781
 30
0.0
 10
54.746511561107
 20
302.3485013135347
 30
0.0
 10
54.72349317573582
 20
302.3595891982513
 30
0.0
 10
54.70192213014364
 20
302.3732818061459
 30
0.0
 10
54.68204879402127
 20
302.389575322646
 30
0.0
 10
54.66377925167404
 20
302.4084494292015
 30
0.0
 10
54.64747768061439
 20
302.4295945396354
 30
0.0
 10
54.62745717266154
 20
302.4619322412678
 30
0.0
 10
54.60788995248299
 20
302.5071529987198
 30
0.0
 10
54.59214742042525
 20
302.567917458341
 30
0.0
 10
54.58303051334119
 20
302.6328054924425
 30
0.0
 10
54.58209426538863
 20
302.6781542622314
 30
0.0
 10
54.58162650600001
 20
302.7008109877
 30
0.0
 11
55.269697237
 21
302.5096371735
 31
0.0
 11
55.20975738105533
 21
302.4679155462285
 31
0.0
 11
55.14766870344356
 21
302.4294258410786
 31
0.0
 11
55.08767533470256
 21
302.3971486344593
 31
0.0
 11
55.02548928260413
 21
302.36936791177
 31
0.0
 11
54.96693509238435
 21
302.3491153242474
 31
0.0
 11
54.90644660734769
 21
302.3354262919853
 31
0.0
 11
54.85116541714077
 21
302.3305096335533
 31
0.0
 11
54.79606519732226
 21
302.3347695853465
 31
0.0
 11
54.77092728125272
 21
302.3405594467572
 31
0.0
 11
54.74656256105195
 21
302.3490178428286
 31
0.0
 11
54.72373229298227
 21
302.3600211903534
 31
0.0
 11
54.70234407506832
 21
302.3736147885091
 31
0.0
 11
54.6823859349572
 21
302.3899374437151
 31
0.0
 11
54.66443445657441
 21
302.4084499477451
 31
0.0
 11
54.64786085647402
 21
302.4298539717998
 31
0.0
 11
54.63356536669566
 21
302.4528481593152
 31
0.0
 11
54.6093963422577
 21
302.5075438810493
 31
0.0
 11
54.59386754165492
 21
302.5655415981729
 31
0.0
 11
54.58437476684429
 21
302.6329243634761
 31
0.0
 11
54.58162650600001
 21
302.7008109877
 31
0.0
  0
SPLINE
  5
FF
330
1F
100
AcDbEntity
  8
0
  6
Continuous
 62
     7
100
AcDbSpline
210
0.0
220
0.0
230
1.0
 70
     8
 71
     3
 72
    25
 73
    21
 74
    19
 42
0.0000000001
 43
0.0000000001
 44
0.00000001
 40
0.0
 40
0.0
 40
0.0
 40
0.0
 40
0.1085025556844913
 40
0.2170033620505707
 40
0.2712583157975977
 40
0.3255127643024081
 40
0.3797719179216878
 40
0.4340272286554712
 40
0.4882788892801395
 40
0.542551168631592
 40
0.5968541105456275
 40
0.6511051290604506
 40
0.6782579265035666
 40
0.7054161158499201
 40
0.7326228693298148
 40
0.7598194768361257
 40
0.7870692643102614
 40
0.8143404776110387
 40
0.8416356458557911
 40
0.8688504929747988
 40
0.8688504929747988
 40
0.8688504929747988
 40
0.8688504929747988
 10
95.8475913588
 20
304.6280948795
 30
0.0
 10
95.85892500932509
 20
304.6624437093505
 30
0.0
 10
95.88159212764998
 20
304.731140815267
 30
0.0
 10
95.91355885202927
 20
304.815756005989
 30
0.0
 10
95.94109873626958
 20
304.882649206845
 30
0.0
 10
95.96297735645206
 20
304.9323055714278
 30
0.0
 10
95.98619952003408
 20
304.9813497360464
 30
0.0
 10
96.01100515379464
 20
305.0296146526962
 30
0.0
 10
96.03761798668441
 20
305.076918060964
 30
0.0
 10
96.06643305797508
 20
305.1229404079838
 30
0.0
 10
96.09778357512602
 20
305.1672892869724
 30
0.0
 10
96.1267084106814
 20
305.2021549281952
 30
0.0
 10
96.15183039119397
 20
305.228223691705
 30
0.0
 10
96.17181283192356
 20
305.2466628906559
 30
0.0
 10
96.1930146849934
 20
305.2637235416881
 30
0.0
 10
96.21563423115091
 20
305.2789299328439
 30
0.0
 10
96.23974106729213
 20
305.2917514118875
 30
0.0
 10
96.26525071961889
 20
305.3015362009938
 30
0.0
 10
96.29186235384839
 20
305.3081104086955
 30
0.0
 10
96.31004738723377
 20
305.3089972381496
 30
0.0
 10
96.319126506
 20
305.3094399995
 30
0.0
 11
95.8475913588
 21
304.6280948795
 31
0.0
 11
95.88231879043676
 21
304.7308898700491
 31
0.0
 11
95.92060682976664
 21
304.8324105626509
 31
0.0
 11
95.94130251734595
 21
304.8825632148411
 31
0.0
 11
95.96320062254675
 21
304.9322020924591
 31
0.0
 11
95.98646407401793
 21
304.9812211456643
 31
0.0
 11
96.01130656203665
 21
305.029454842722
 31
0.0
 11
96.03798012662328
 21
305.0766963883443
 31
0.0
 11
96.06685008120797
 21
305.1226529551033
 31
0.0
 11
96.09835322761501
 21
305.1668837279541
 31
0.0
 11
96.13314454397936
 21
305.2085098893857
 31
0.0
 11
96.15201543683669
 21
305.2280333063959
 31
0.0
 11
96.17200197833631
 21
305.2464209491882
 31
0.0
 11
96.19324958587346
 21
305.2634134948734
 31
0.0
 11
96.21586378299172
 21
305.2785215572425
 31
0.0
 11
96.23996342654607
 21
305.2912399729433
 31
0.0
 11
96.2654287220408
 21
305.3009989585598
 31
0.0
 11
96.2920006851361
 21
305.3072405117936
 31
0.0
 11
96.319126506
 21
305.3094399995
 31
0.0
  0
SPLINE
  5
100
330
1F
100
AcDbEntity
  8
0
  6
Continuous
 62
     7
100
AcDbSpline
210
0.0
220
0.0
230
1.0
 70
     8
 71
     3
 72
    25
 73
    21
 74
    19
 42
0.0000000001
 43
0.0000000001
 44
0.00000001
 40
0.0
 40
0.0
 40
0.0
 40
0.0
 40
0.0272074181921223
 40
0.0544897104248879
 40
0.0817252616173436
 40
0.1089465264920781
 40
0.1361394923903892
 40
0.163337502821967
 40
0.1904999128442515
 40
0.2176598701399178
 40
0.2719180517152952
 40
0.3262245621573963
 40
0.3805032120755965
 40
0.4347626394216064
 40
0.4890258447819508
 40
0.54329244659681
 40
0.5975546790192175
 40
0.6518175542927627
 40
0.7603351297790469
 40
0.8688543879244851
 40
0.8688543879244851
 40
0.8688543879244851
 40
0.8688543879244851
 10
98.644126506
 20
305.3094399995
 30
0.0
 10
98.6532031788832
 20
305.3090027590109
 30
0.0
 10
98.67138150339501
 20
305.3081270747594
 30
0.0
 10
98.69798337661845
 20
305.3015865328348
 30
0.0
 10
98.72345883331636
 20
305.2917787942621
 30
0.0
 10
98.7475293569077
 20
305.27894116504
 30
0.0
 10
98.77015172867178
 20
305.2637659265116
 30
0.0
 10
98.79137558427794
 20
305.2467360776409
 30
0.0
 10
98.8113609396386
 20
305.2282977787917
 30
0.0
 10
98.83647744347286
 20
305.2022152766102
 30
0.0
 10
98.86541004068077
 20
305.167349327064
 30
0.0
 10
98.8967786338286
 20
305.1230060435953
 30
0.0
 10
98.92560178484042
 20
305.0769815665946
 30
0.0
 10
98.95221866432597
 20
305.0296720020004
 30
0.0
 10
98.97702939435841
 20
304.9814010591266
 30
0.0
 10
99.00025656996513
 20
304.9323507287617
 30
0.0
 10
99.02213920650455
 20
304.8826876913256
 30
0.0
 10
99.04968377426381
 20
304.8157847089901
 30
0.0
 10
99.08165565393949
 20
304.7311567032594
 30
0.0
 10
99.10432626159238
 20
304.6624489983138
 30
0.0
 10
99.1156616533
 20
304.6280948795
 30
0.0
 11
98.644126506
 21
305.3094399995
 31
0.0
 11
98.67124639708403
 21
305.3072593775081
 31
0.0
 11
98.69780969339732
 21
305.3010372590227
 31
0.0
 11
98.72323355029239
 21
305.2912698259241
 31
0.0
 11
98.74729790944203
 21
305.2785456803693
 31
0.0
 11
98.76991991267279
 21
305.2634558704244
 31
0.0
 11
98.79117954454804
 21
305.2464923854062
 31
0.0
 11
98.81117355502163
 21
305.2281066283263
 31
0.0
 11
98.83004476763014
 21
305.2085735636669
 31
0.0
 11
98.86484273353435
 21
305.1669436244789
 31
0.0
 11
98.89635941609207
 21
305.1227181137758
 31
0.0
 11
98.92523860981917
 21
305.0767598282702
 31
0.0
 11
98.95191738073329
 21
305.0295123030606
 31
0.0
 11
98.97676489190486
 21
304.9812723129636
 31
0.0
 11
99.00003309122911
 21
304.9322472686216
 31
0.0
 11
99.0219352975629
 21
304.8826016925329
 31
0.0
 11
99.04263448178786
 21
304.8324419137717
 31
0.0
 11
99.08092882931399
 21
304.7309056781857
 31
0.0
 11
99.1156616533
 21
304.6280948795
 31
0.0
  0
SPLINE
  5
101
330
1F
100
AcDbEntity
  8
0
  6
Continuous
 62
     7
100
AcDbSpline
210
0.0
220
0.0
230
1.0
 70
     8
 71
     3
 72
    25
 73
    21
 74
    19
 42
0.0000000001
 43
0.0000000001
 44
0.00000001
 40
0.0
 40
0.0
 40
0.0
 40
0.0
 40
0.1085285490187801
 40
0.2170554556524951
 40
0.2713241332608831
 40
0.3255921109184631
 40
0.3798650579415656
 40
0.4341347749078841
 40
0.4884007825040005
 40
0.5426855351780376
 40
0.5969918906374249
 40
0.6512511252726052
 40
0.6784124281106648
 40
0.705575110488224
 40
0.7327602080917374
 40
0.7599421722339701
 40
0.7871532997509735
 40
0.8143760191877439
 40
0.8416525758241737
 40
0.8688563236522894
 40
0.8688563236522894
 40
0.8688563236522894
 40
0.8688563236522894
 10
99.1156616533
 20
315.8630948795
 30
0.0
 10
99.10432522989393
 20
315.8287378389505
 30
0.0
 10
99.0816525546383
 20
315.7600242777837
 30
0.0
 10
99.04967753478655
 20
315.6753887565749
 30
0.0
 10
99.02213047636182
 20
315.6084792741282
 30
0.0
 10
99.00024536499176
 20
315.5588108043291
 30
0.0
 10
98.97701494085142
 20
315.5097551451049
 30
0.0
 10
98.95220070876059
 20
315.4614787257659
 30
0.0
 10
98.9255807929224
 20
315.4141635243826
 30
0.0
 10
98.89675343718807
 20
315.3681366516809
 30
0.0
 10
98.86537702269754
 20
315.3237959351663
 30
0.0
 10
98.83644008752549
 20
315.2889328602912
 30
0.0
 10
98.81132336749091
 20
315.262849355548
 30
0.0
 10
98.79133769099053
 20
315.2444166182603
 30
0.0
 10
98.77010982389697
 20
315.2274041060551
 30
0.0
 10
98.74749148045981
 20
315.212244268704
 30
0.0
 10
98.72343743459598
 20
315.1994013046851
 30
0.0
 10
98.6979749658134
 20
315.1895843264952
 30
0.0
 10
98.67137717576108
 20
315.1830563760467
 30
0.0
 10
98.65320196598908
 20
315.1821849101996
 30
0.0
 10
98.644126506
 20
315.1817497596
 30
0.0
 11
99.1156616533
 21
315.8630948795
 31
0.0
 11
99.08092565038457
 21
315.7602753480209
 31
0.0
 11
99.0426278451204
 21
315.6587304437892
 31
0.0
 11
99.02192650678246
 21
315.6085652769861
 31
0.0
 11
99.00002185697369
 21
315.558914499391
 31
0.0
 11
98.9767504407857
 21
315.5098839582235
 31
0.0
 11
98.95189950664111
 21
315.461638406597
 31
0.0
 11
98.9252171457739
 21
315.4143853516802
 31
0.0
 11
98.89633229249955
 21
315.3684234149912
 31
0.0
 11
98.86481026140858
 21
315.3242019066589
 31
0.0
 11
98.8300078593038
 21
315.2825743034258
 31
0.0
 11
98.81113515650775
 21
315.2630408075525
 31
0.0
 11
98.79113719013338
 21
315.2446589508771
 31
0.0
 11
98.76987941547722
 21
315.2277138469123
 31
0.0
 11
98.74726235180663
 21
315.2126364596867
 31
0.0
 11
98.72321102611363
 21
315.1999093550216
 31
0.0
 11
98.69780240712237
 21
315.1901380432115
 31
0.0
 11
98.6712432879123
 21
315.1839232440413
 31
0.0
 11
98.644126506
 21
315.1817497596
 31
0.0
  0
SPLINE
  5
102
330
1F
100
AcDbEntity
  8
0
  6
Continuous
 62
     7
100
AcDbSpline
210
0.0
220
0.0
230
1.0
 70
     8
 71
     3
 72
    25
 73
    21
 74
    19
 42
0.0000000001
 43
0.0000000001
 44
0.00000001
 40
0.0
 40
0.0
 40
0.0
 40
0.0
 40
0.0272067661190284
 40
0.0544881809105461
 40
0.0817226175091369
 40
0.1089430469604984
 40
0.1361366760738807
 40
0.1633351631960923
 40
0.1904968256267865
 40
0.2176561384001099
 40
0.2719142873675712
 40
0.3262206322329901
 40
0.380499730362912
 40
0.4347596646362764
 40
0.4890233385774731
 40
0.5432903872878725
 40
0.5975530058261721
 40
0.6518162746155366
 40
0.7603346281833392
 40
0.8688546602969379
 40
0.8688546602969379
 40
0.8688546602969379
 40
0.8688546602969379
 10
96.319126506
 20
315.1817497596
 30
0.0
 10
96.31005004967778
 20
315.1821867498871
 30
0.0
 10
96.29187223347029
 20
315.1830619294552
 30
0.0
 10
96.26527083153508
 20
315.1896008519905
 30
0.0
 10
96.23979659206402
 20
315.1994093734784
 30
0.0
 10
96.21572709097937
 20
315.2122478743307
 30
0.0
 10
96.1931042384543
 20
315.2274224950431
 30
0.0
 10
96.17187954119005
 20
315.2444515341361
 30
0.0
 10
96.1518943429947
 20
315.2628895808025
 30
0.0
 10
96.12677839334069
 20
315.2889719495603
 30
0.0
 10
96.09784559620711
 20
315.3238373313682
 30
0.0
 10
96.06647620424273
 20
315.36818016581
 30
0.0
 10
96.03765278322912
 20
315.4142047978207
 30
0.0
 10
96.0110357912398
 20
315.4615148427166
 30
0.0
 10
95.98622479797025
 20
315.5097861811294
 30
0.0
 10
95.96299733687754
 20
315.5588368569027
 30
0.0
 10
95.941114498637
 20
315.6085002528984
 30
0.0
 10
95.91356972552558
 20
315.6754037123076
 30
0.0
 10
95.88159760499141
 20
315.7600323205941
 30
0.0
 10
95.85892683264137
 20
315.8287405160713
 30
0.0
 10
95.8475913588
 20
315.8630948795
 30
0.0
 11
96.319126506
 21
315.1817497596
 31
0.0
 11
96.29200719817288
 21
315.1839294994086
 31
0.0
 11
96.26544455326112
 21
315.1901505514353
 31
0.0
 11
96.24002200287745
 21
315.1999182773135
 31
0.0
 11
96.21595879310439
 21
315.2126428093259
 31
0.0
 11
96.19333595192252
 21
315.2277325582044
 31
0.0
 11
96.1720753823715
 21
315.2446956323392
 31
0.0
 11
96.15208178664889
 21
315.2630807359854
 31
0.0
 11
96.13321110415569
 21
315.2826134166145
 31
0.0
 11
96.09841282632594
 21
315.3242430525661
 31
0.0
 11
96.06689563986839
 21
315.3684680008469
 31
0.0
 11
96.03801601321892
 21
315.4144265436696
 31
0.0
 11
96.01133704369451
 21
315.4616745388913
 31
0.0
 11
95.98648929056492
 21
315.5099149314478
 31
0.0
 11
95.96322081940146
 21
315.5589403414456
 31
0.0
 11
95.94131841518988
 21
315.6085862522579
 31
0.0
 11
95.92061906978667
 21
315.6587463902121
 31
0.0
 11
95.8823244360274
 21
315.7602833494255
 31
0.0
 11
95.8475913588
 21
315.8630948795
 31
0.0
  0
SPLINE
  5
103
330
1F
100
AcDbEntity
  8
FASEN
  6
Continuous
 62
     7
100
AcDbSpline
210
0.0
220
0.0
230
1.0
 70
     8
 71
     3
 72
    43
 73
    39
 74
    37
 42
0.0000000001
 43
0.0000000001
 44
0.00000001
 40
0.0
 40
0.0
 40
0.0
 40
0.0
 40
0.3536627138593042
 40
0.7077087111144514
 40
1.061386016660993
 40
1.41494091301058
 40
1.76827360093501
 40
2.121679340800044
 40
2.47499047378077
 40
2.828124790763259
 40
3.004861640145576
 40
3.181542282463842
 40
3.358289604779825
 40
3.535092628060604
 40
3.888693191045399
 40
4.242467023618155
 40
4.59637940293837
 40
4.950247373426287
 40
5.303947628008897
 40
5.657661399089087
 40
6.0107125555012
 40
6.363747200733128
 40
6.715806091116678
 40
7.067909115960415
 40
7.419215040258316
 40
7.770346273726294
 40
7.945854779192588
 40
8.1213087100407
 40
8.296759233390452
 40
8.47226498981532
 40
8.823345921689175
 40
9.174601594818506
 40
9.526721241941386
 40
9.878775142226317
 40
10.23179857976971
 40
10.58493613220602
 40
10.93889559964734
 40
11.29248564906169
 40
11.29248564906169
 40
11.29248564906169
 40
11.29248564906169
 10
68.3823780944
 20
310.2455948795
 30
0.0
 10
68.38570792125755
 20
310.3635321892418
 30
0.0
 10
68.39237118368595
 20
310.5995346237617
 30
0.0
 10
68.4467071389429
 20
310.9500189310058
 30
0.0
 10
68.53265036447354
 20
311.2936313972098
 30
0.0
 10
68.65253750926927
 20
311.6268689002079
 30
0.0
 10
68.80458637068995
 20
311.9465403903936
 30
0.0
 10
68.9874002871332
 20
312.249608195837
 30
0.0
 10
69.19926348281788
 20
312.5330149448155
 30
0.0
 10
69.3981979219952
 20
312.750729543941
 30
0.0
 10
69.56957839714129
 20
312.9123911130048
 30
0.0
 10
69.70400492091257
 20
313.0272217626676
 30
0.0
 10
69.84392318787957
 20
313.1353290847085
 30
0.0
 10
70.03737753990167
 20
313.2701446923955
 30
0.0
 10
70.29142233851029
 20
313.4205741986837
 30
0.0
 10
70.61245075306039
 20
313.5705027171936
 30
0.0
 10
70.94670961622957
 20
313.6883323968887
 30
0.0
 10
71.2908104250386
 20
313.7730926317661
 30
0.0
 10
71.64146222917158
 20
313.8239366474568
 30
0.0
 10
71.99511875826636
 20
313.8405507568532
 30
0.0
 10
72.34849074340043
 20
313.8226894942608
 30
0.0
 10
72.69792281138257
 20
313.7707291727876
 30
0.0
 10
73.04031354940135
 20
313.6850156361182
 30
0.0
 10
73.3721999611194
 20
313.5665694260678
 30
0.0
 10
73.6905874757895
 20
313.4163142960667
 30
0.0
 10
73.94222385192973
 20
313.2659026479608
 30
0.0
 10
74.13371974532322
 20
313.1312295800364
 30
0.0
 10
74.27217067789053
 20
313.0233085443115
 30
0.0
 10
74.40516879171628
 20
312.9087362593001
 30
0.0
 10
74.57479950436873
 20
312.747416817381
 30
0.0
 10
74.77167030941204
 20
312.5302371462263
 30
0.0
 10
74.98139704995144
 20
312.2474894046091
 30
0.0
 10
75.16235739329875
 20
311.9451109969687
 30
0.0
 10
75.31298921154313
 20
311.6259203277589
 30
0.0
 10
75.43182101050334
 20
311.2931466618002
 30
0.0
 10
75.51706614967645
 20
310.9497620353221
 30
0.0
 10
75.57090130972037
 20
310.599451269806
 30
0.0
 10
75.57755153902181
 20
310.3635059465367
 30
0.0
 10
75.5808749176
 20
310.2455948795
 30
0.0
 11
68.3823780944
 21
310.2455948795
 31
0.0
 11
68.39975125827556
 21
310.5988306199783
 31
0.0
 11
68.45200182736261
 21
310.9489997879564
 31
0.0
 11
68.53833070131135
 21
311.291979323762
 31
0.0
 11
68.65793159674568
 21
311.6246904455239
 31
0.0
 11
68.80970845011377
 21
311.9437637523636
 31
0.0
 11
68.9922661743101
 21
312.2463662875575
 31
0.0
 11
69.20377786895314
 21
312.5293708099902
 31
0.0
 11
69.44200523128075
 21
312.7900460287378
 31
0.0
 11
69.57056398494963
 21
312.9113248842102
 31
0.0
 11
69.7049000104013
 21
313.0260849889324
 31
0.0
 11
69.84476442777311
 21
313.1341477517099
 31
0.0
 11
69.9898218960403
 21
313.2352300940905
 31
0.0
 11
70.29405333218645
 21
313.4154427224038
 31
0.0
 11
70.61459952816935
 21
313.5651292643978
 31
0.0
 11
70.94836828569812
 21
313.682825435677
 31
0.0
 11
71.29196795250945
 21
313.767452910556
 31
0.0
 11
71.64200384719913
 21
313.8182342311433
 31
0.0
 11
71.99532928377987
 21
313.8348043161402
 31
0.0
 11
72.34793100961474
 21
313.8169958355144
 31
0.0
 11
72.69712008672226
 21
313.7650299893958
 31
0.0
 11
73.0386408380551
 21
313.6795370732731
 31
0.0
 11
73.37024321436749
 21
313.561146177812
 31
0.0
 11
73.68795185412002
 21
313.4112226217129
 31
0.0
 11
73.9893136682673
 21
313.2310166282205
 31
0.0
 11
74.13287963387127
 21
313.1300609497709
 31
0.0
 11
74.27126296622603
 21
313.0221993014595
 31
0.0
 11
74.40418784392597
 21
312.9076835251134
 31
0.0
 11
74.53136046844149
 21
312.7867314928357
 31
0.0
 11
74.76717858027523
 21
312.5266398957846
 31
0.0
 11
74.97641207745936
 21
312.24450182398
 31
0.0
 11
75.15726696670016
 21
311.9423764279477
 31
0.0
 11
75.30754453135461
 21
311.6240077701509
 31
0.0
 11
75.42618124513025
 21
311.2915158490468
 31
0.0
 11
75.51176985420004
 21
310.9489071495977
 31
0.0
 11
75.56359705912354
 21
310.5987625431547
 31
0.0
 11
75.5808749176
 21
310.2455948795
 31
0.0
  0
SPLINE
  5
104
330
1F
100
AcDbEntity
  8
0
  6
Continuous
 62
     7
100
AcDbSpline
210
0.0
220
0.0
230
1.0
 70
     8
 71
     3
 72
    27
 73
    23
 74
    21
 42
0.0000000001
 43
0.0000000001
 44
0.00000001
 40
0.0
 40
0.0
 40
0.0
 40
0.0
 40
0.0679422772597665
 40
0.1359904671786551
 40
0.1960311417421432
 40
0.2558288643478818
 40
0.2829045758332134
 40
0.3099751664853608
 40
0.3357621418216405
 40
0.3615450076801139
 40
0.3868874812416825
 40
0.4122310011775835
 40
0.4380221512557798
 40
0.4638182097210038
 40
0.5190828346243171
 40
0.5745822153246328
 40
0.6366003186768412
 40
0.6985580374144096
 40
0.7666673007986469
 40
0.8347923375117364
 40
0.907843419985138
 40
0.9808740973028307
 40
0.9808740973028307
 40
0.9808740973028307
 40
0.9808740973028307
 10
54.58162650600001
 20
317.7903787714
 30
0.0
 10
54.58209426606646
 20
317.8130355124749
 30
0.0
 10
54.58303051537288
 20
317.8583843133655
 30
0.0
 10
54.59214743686903
 20
317.9232723879006
 30
0.0
 10
54.60788999483309
 20
317.9840368792106
 30
0.0
 10
54.62745723865833
 20
318.029257652816
 30
0.0
 10
54.64747776307855
 20
318.0615953634784
 30
0.0
 10
54.66377934746297
 20
318.0827404687971
 30
0.0
 10
54.68204890977522
 20
318.1016145552412
 30
0.0
 10
54.70192225920839
 20
318.1179080414695
 30
0.0
 10
54.72349330854922
 20
318.1316006200668
 30
0.0
 10
54.74651168784816
 20
318.1426884824245
 30
0.0
 10
54.77080410269307
 20
318.1510760382757
 30
0.0
 10
54.80557924324508
 20
318.1590368930176
 30
0.0
 10
54.85129822286318
 20
318.1622047799087
 30
0.0
 10
54.90880478518139
 20
318.1566933547027
 30
0.0
 10
54.96724814742022
 20
318.1431771427168
 30
0.0
 10
55.02773798654445
 20
318.1219119473525
 30
0.0
 10
55.08805931415799
 20
318.0947923037585
 30
0.0
 10
55.14942657304776
 20
318.0615244063214
 30
0.0
 10
55.21019457682161
 20
318.0239325319287
 30
0.0
 10
55.24986486403034
 20
317.9956779187454
 30
0.0
 10
55.269697237
 20
317.9815525855
 30
0.0
 11
54.58162650600001
 21
317.7903787714
 31
0.0
 11
54.58437477112236
 21
317.8582654422424
 31
0.0
 11
54.59386756178733
 21
317.9256482521914
 31
0.0
 11
54.60939638546723
 21
317.9836459955713
 31
0.0
 11
54.63356543902839
 21
318.0383417401845
 31
0.0
 11
54.64786094018953
 21
318.0613359307332
 31
0.0
 11
54.66443455713164
 21
318.0827399513768
 31
0.0
 11
54.68238605051176
 21
318.1012524331774
 31
0.0
 11
54.70234420608122
 21
318.1175750615852
 31
0.0
 11
54.72373242440301
 21
318.1311686293008
 31
0.0
 11
54.74656268552996
 21
318.1421719551442
 31
0.0
 11
54.77092739578219
 21
318.1506303425012
 31
0.0
 11
54.79606529907276
 21
318.1564202000552
 31
0.0
 11
54.85116549622889
 21
318.1606801342165
 31
0.0
 11
54.90644666423812
 21
318.1557634563083
 31
0.0
 11
54.9669351370048
 21
318.1420744166867
 31
0.0
 11
55.02548931482737
 21
318.1218218323902
 31
0.0
 11
55.08767535410951
 21
318.0940411146683
 31
0.0
 11
55.14766871124282
 21
318.0617639133176
 31
0.0
 11
55.20975738494895
 21
318.0232742101757
 31
0.0
 11
55.269697237
 21
317.9815525855
 31
0.0
  0
SPLINE
  5
105
330
1F
100
AcDbEntity
  8
0
  6
Continuous
 62
     7
100
AcDbSpline
210
0.0
220
0.0
230
1.0
 70
     8
 71
     3
 72
    11
 73
     7
 74
     5
 42
0.0000000001
 43
0.0000000001
 44
0.00000001
 40
0.0
 40
0.0
 40
0.0
 40
0.0
 40
0.0720335617525657
 40
0.1441734621227445
 40
0.2163593594324979
 40
0.288329653018874
 40
0.288329653018874
 40
0.288329653018874
 40
0.288329653018874
 10
55.269697237
 20
317.9815525855
 30
0.0
 10
55.28920329048967
 20
317.9956050555534
 30
0.0
 10
55.32824419302917
 20
318.0237307404377
 30
0.0
 10
55.3924861177224
 20
318.0569567333905
 30
0.0
 10
55.46034931445425
 20
318.0823879270494
 30
0.0
 10
55.5078663031634
 20
318.0902048230671
 30
0.0
 10
55.5315892637
 20
318.0941074255
 30
0.0
 11
55.269697237
 21
317.9815525855
 31
0.0
 11
55.32915586297494
 21
318.022215908236
 31
0.0
 11
55.3930792897455
 21
318.0556518280728
 31
0.0
 11
55.46099061881949
 21
318.0801233452676
 31
0.0
 11
55.5315892637
 21
318.0941074255
 31
0.0
  0
SPLINE
  5
106
330
1F
100
AcDbEntity
  8
FASEN
  6
Continuous
 62
     7
100
AcDbSpline
210
0.0
220
0.0
230
1.0
 70
     8
 71
     3
 72
    41
 73
    37
 74
    35
 42
0.0000000001
 43
0.0000000001
 44
0.00000001
 40
0.0
 40
0.0
 40
0.0
 40
0.0
 40
0.3535888544086814
 40
0.70755072895149
 40
1.060684840903195
 40
1.413709983367192
 40
1.765779918047506
 40
2.117876005200366
 40
2.469055569646642
 40
2.820227711234568
 40
3.171084425210248
 40
3.521941346594721
 40
3.873160085232
 40
4.224381765451238
 40
4.576461723091928
 40
4.928542604176174
 40
5.281581803842223
 40
5.634626310516397
 40
5.988339657502327
 40
6.342041478561661
 40
6.695908397039933
 40
7.049820838068179
 40
7.403595216304212
 40
7.757194007936078
 40
7.933994428119241
 40
8.11073969616464
 40
8.287420502925036
 40
8.464157456691956
 40
8.817287503341824
 40
9.170592253406474
 40
9.523997521630083
 40
9.877334047478548
 40
10.23089310697786
 40
10.58456791527064
 40
10.93860935642998
 40
11.29227461512924
 40
11.29227461512924
 40
11.29227461512924
 40
11.29227461512924
 10
75.5808749176
 20
310.2455948795
 30
0.0
 10
75.57756630742594
 20
310.1276832873152
 30
0.0
 10
75.57094559664483
 20
309.8917357115871
 30
0.0
 10
75.517068763733
 20
309.5414307672983
 30
0.0
 10
75.43183547558718
 20
309.1980447435941
 30
0.0
 10
75.31300700988749
 20
308.8652635366832
 30
0.0
 10
75.16234432481477
 20
308.546088017807
 30
0.0
 10
74.98139437792838
 20
308.243742272648
 30
0.0
 10
74.77169321727531
 20
307.9609627142041
 30
0.0
 10
74.5355320423959
 20
307.7004289975814
 30
0.0
 10
74.274912608222
 20
307.4645258220249
 30
0.0
 10
73.99241085464999
 20
307.2552978687007
 30
0.0
 10
73.69056883694952
 20
307.0748536501882
 30
0.0
 10
73.37217060907307
 20
306.9246032916757
 30
0.0
 10
73.04031094061581
 20
306.8061791208879
 30
0.0
 10
72.6979199849043
 20
306.7204586405077
 30
0.0
 10
72.34848139033909
 20
306.6684965431935
 30
0.0
 10
71.99510999337416
 20
306.6506397053353
 30
0.0
 10
71.64145545984245
 20
306.6672537630583
 30
0.0
 10
71.29080344614538
 20
306.7180978128793
 30
0.0
 10
70.94670404817975
 20
306.8028651676466
 30
0.0
 10
70.61244658621321
 20
306.9206967713075
 30
0.0
 10
70.2914118421997
 20
307.0706100491936
 30
0.0
 10
70.03736555287726
 20
307.2210365308069
 30
0.0
 10
69.84392394148338
 20
307.3558669494683
 30
0.0
 10
69.7040154841297
 20
307.4639842867404
 30
0.0
 10
69.56959073688245
 20
307.5788158137871
 30
0.0
 10
69.39820598152414
 20
307.7404707316613
 30
0.0
 10
69.19926004324864
 20
307.9581697500786
 30
0.0
 10
68.98738633977455
 20
308.241565074965
 30
0.0
 10
68.80458731574353
 20
308.5446416026289
 30
0.0
 10
68.65255413564789
 20
308.8643225902257
 30
0.0
 10
68.53265465186635
 20
309.1975564923983
 30
0.0
 10
68.44670422002818
 20
309.5411686410784
 30
0.0
 10
68.3924267810538
 20
309.8916585317958
 30
0.0
 10
68.38572646943135
 20
310.127657912196
 30
0.0
 10
68.3823780944
 20
310.2455948795
 30
0.0
 11
75.5808749176
 21
310.2455948795
 31
0.0
 11
75.56362709036023
 21
309.8924269443508
 31
0.0
 11
75.51178102988
 21
309.5422826960151
 31
0.0
 11
75.4261950621235
 21
309.1996768829484
 31
0.0
 11
75.3075579017737
 21
308.8671833109867
 31
0.0
 11
75.15725235832743
 21
308.5488101297746
 31
0.0
 11
74.97640500773308
 21
308.2467076796499
 31
0.0
 11
74.76723921620022
 21
307.9646141523631
 31
0.0
 11
74.53136859279473
 21
307.70444704829
 31
0.0
 11
74.27126878376252
 21
307.4689719475188
 31
0.0
 11
73.98930473682903
 21
307.2601733471397
 31
0.0
 11
73.68787095021615
 21
307.079917210883
 31
0.0
 11
73.37023582745634
 21
306.930035265855
 31
0.0
 11
73.03865277784978
 21
306.8116588417416
 31
0.0
 11
72.6971113708714
 21
306.7261578818388
 31
0.0
 11
72.34791789112136
 21
306.6741906787113
 31
0.0
 11
71.99532266350884
 21
306.6563853660858
 31
0.0
 11
71.6419976830707
 21
306.6729561244985
 31
0.0
 11
71.2919604134995
 21
306.7237388787742
 31
0.0
 11
70.94836301505036
 21
306.8083711644121
 31
0.0
 11
70.61459418819467
 21
306.9260673246466
 31
0.0
 11
70.29404274228744
 21
307.0757439134075
 31
0.0
 11
69.98981349789187
 21
307.2559567661622
 31
0.0
 11
69.84476538340454
 21
307.3570479777516
 31
0.0
 11
69.70490992689268
 21
307.4651189778409
 31
0.0
 11
69.57057543343117
 21
307.579881129023
 31
0.0
 11
69.44201306175121
 21
307.7011563013166
 31
0.0
 11
69.20377456828277
 21
307.961815561802
 31
0.0
 11
68.99225779820733
 21
308.2448083221248
 31
0.0
 11
68.80971049873733
 21
308.5474165954162
 31
0.0
 11
68.65794357901864
 21
308.8664988772461
 31
0.0
 11
68.53833507070954
 21
309.1992116862783
 31
0.0
 11
68.4520096674855
 21
309.5421895205171
 31
0.0
 11
68.39978806730525
 21
309.8923584033905
 31
0.0
 11
68.3823780944
 21
310.2455948795
 31
0.0
  0
SPLINE
  5
107
330
1F
100
AcDbEntity
  8
RUNDUNGEN
  6
Continuous
 62
     7
100
AcDbSpline
210
0.0
220
0.0
230
1.0
 70
     8
 71
     3
 72
    17
 73
    13
 74
    11
 42
0.0000000001
 43
0.0000000001
 44
0.00000001
 40
0.0
 40
0.0
 40
0.0
 40
0.0
 40
0.1190059192966241
 40
0.238081474414736
 40
0.3590691915226897
 40
0.4800850747380935
 40
0.6044906460082837
 40
0.7286521943718414
 40
0.7922003881097865
 40
0.855740987154259
 40
0.9198158321753069
 40
0.9838416202249777
 40
0.9838416202249777
 40
0.9838416202249777
 40
0.9838416202249777
 10
58.59968468220001
 20
302.5955948795
 30
0.0
 10
58.57633898148576
 20
302.5634983484612
 30
0.0
 10
58.52963391941704
 20
302.499286505231
 30
0.0
 10
58.44956745691843
 20
302.4100287111109
 30
0.0
 10
58.36119652796208
 20
302.3280270181771
 30
0.0
 10
58.26227176992495
 20
302.2558203458536
 30
0.0
 10
58.15343769705905
 20
302.1972064029027
 30
0.0
 10
58.05487564509158
 20
302.162326446081
 30
0.0
 10
57.97282911592445
 20
302.1449794961178
 30
0.0
 10
57.90946619669311
 20
302.1375864335832
 30
0.0
 10
57.84547889440019
 20
302.1356531021569
 30
0.0
 10
57.80290520084236
 20
302.1393008876334
 30
0.0
 10
57.781626506
 20
302.1411240819
 30
0.0
 11
58.59968468220001
 21
302.5955948795
 31
0.0
 11
58.52805272587716
 21
302.5005618764906
 31
0.0
 11
58.44870874612934
 21
302.4117726839925
 31
0.0
 11
58.35967653808756
 21
302.3298501985431
 31
0.0
 11
58.26172534332878
 21
302.2587839798754
 31
0.0
 11
58.15203904019167
 21
302.2000842263224
 31
0.0
 11
58.03485056752594
 21
302.1590604287616
 31
0.0
 11
57.97267073802044
 21
302.1459439608673
 31
0.0
 11
57.90956633403052
 21
302.1385114697636
 31
0.0
 11
57.84551204464297
 21
302.136888578662
 31
0.0
 11
57.781626506
 21
302.1411240819
 31
0.0
  0
SPLINE
  5
108
330
1F
100
AcDbEntity
  8
RUNDUNGEN
  6
Continuous
 62
     7
100
AcDbSpline
210
0.0
220
0.0
230
1.0
 70
     8
 71
     3
 72
    15
 73
    11
 74
     9
 42
0.0000000001
 43
0.0000000001
 44
0.00000001
 40
0.0
 40
0.0
 40
0.0
 40
0.0
 40
0.2324947530409237
 40
0.4652174309420912
 40
0.6957353316873834
 40
0.9261855605834928
 40
1.155384407735248
 40
1.384632178777802
 40
1.613395801694713
 40
1.842048806074109
 40
1.842048806074109
 40
1.842048806074109
 40
1.842048806074109
 10
59.181626506
 20
304.3144446327
 30
0.0
 10
59.1794638990303
 20
304.2369211234924
 30
0.0
 10
59.17513656499191
 20
304.0817981053622
 30
0.0
 10
59.14179722661787
 20
303.8518163931865
 30
0.0
 10
59.09082016782779
 20
303.6260841367859
 30
0.0
 10
59.02204447144796
 20
303.4062904565276
 30
0.0
 10
58.93754409683567
 20
303.1925543741063
 30
0.0
 10
58.83839572165532
 20
302.9858990066197
 30
0.0
 10
58.72691921639665
 20
302.7857176977548
 30
0.0
 10
58.64208935537263
 20
302.6589589340915
 30
0.0
 10
58.59968468220001
 20
302.5955948795
 30
0.0
 11
59.181626506
 21
304.3144446327
 31
0.0
 11
59.17065166361731
 21
304.0822090561269
 31
0.0
 11
59.13870238793596
 21
303.8516898842714
 31
0.0
 11
59.08779910634636
 21
303.6268624871699
 31
0.0
 11
59.01926126726886
 21
303.4068400505575
 31
0.0
 11
58.93507315710123
 21
303.1936629560045
 31
0.0
 11
58.83625261837672
 21
302.9868078336261
 31
0.0
 11
58.72425733564375
 21
302.7873338959409
 31
0.0
 11
58.59968468220001
 21
302.5955948795
 31
0.0
  0
SPLINE
  5
109
330
1F
100
AcDbEntity
  8
RUNDUNGEN
  6
Continuous
 62
     7
100
AcDbSpline
210
0.0
220
0.0
230
1.0
 70
     8
 71
     3
 72
    15
 73
    11
 74
     9
 42
0.0000000001
 43
0.0000000001
 44
0.00000001
 40
0.0
 40
0.0
 40
0.0
 40
0.0
 40
0.12730798475757
 40
0.2549893804120407
 40
0.3793073351267331
 40
0.5035989687571705
 40
0.6245667031765896
 40
0.7455591721837426
 40
0.8645937372882117
 40
0.9835510381703093
 40
0.9835510381703093
 40
0.9835510381703093
 40
0.9835510381703093
 10
57.781626506
 20
318.3500656771
 30
0.0
 10
57.82410567563106
 20
318.3525123212085
 30
0.0
 10
57.90918861182922
 20
318.3574127857512
 30
0.0
 10
58.03483496351048
 20
318.3357485983029
 30
0.0
 10
58.15362098077436
 20
318.2941091258954
 30
0.0
 10
58.262387629468
 20
318.2352376370972
 30
0.0
 10
58.36123783467076
 20
318.1630636005117
 30
0.0
 10
58.44962347882095
 20
318.0811101885272
 30
0.0
 10
58.529668358956
 20
317.991871492672
 30
0.0
 10
58.57635095963144
 20
317.9276801373015
 30
0.0
 10
58.59968468220001
 20
317.8955948795
 30
0.0
 11
57.781626506
 21
318.3500656771
 31
0.0
 11
57.90891017440657
 21
318.3525537968721
 31
0.0
 11
58.03494144644975
 21
318.3320926809824
 31
0.0
 11
58.15230044844378
 21
318.291082700302
 31
0.0
 11
58.26182873715966
 21
318.2323292820057
 31
0.0
 11
58.35971572782397
 21
318.1612565739579
 31
0.0
 11
58.44876942279029
 21
318.0793504266349
 31
0.0
 11
58.52808858399462
 21
317.9905940276799
 31
0.0
 11
58.59968468220001
 21
317.8955948795
 31
0.0
  0
SPLINE
  5
10A
330
1F
100
AcDbEntity
  8
RUNDUNGEN
  6
Continuous
 62
     7
100
AcDbSpline
210
0.0
220
0.0
230
1.0
 70
     8
 71
     3
 72
    15
 73
    11
 74
     9
 42
0.0000000001
 43
0.0000000001
 44
0.00000001
 40
0.0
 40
0.0
 40
0.0
 40
0.0
 40
0.2286533797279554
 40
0.4574173649059952
 40
0.6866651598261932
 40
0.9158640491966175
 40
1.146314057938368
 40
1.376831724027737
 40
1.609554238619443
 40
1.842048835071212
 40
1.842048835071212
 40
1.842048835071212
 40
1.842048835071212
 10
58.59968468220001
 20
317.8955948795
 30
0.0
 10
58.64208945066983
 20
317.8322307387458
 30
0.0
 10
58.7269194998735
 20
317.7054718063925
 30
0.0
 10
58.83839627501316
 20
317.5052903530547
 30
0.0
 10
58.93754452760103
 20
317.2986347608608
 30
0.0
 10
59.02204463648618
 20
317.0848986322181
 30
0.0
 10
59.09082024994513
 20
316.8651050757926
 30
0.0
 10
59.14179730436621
 20
316.639373029066
 30
0.0
 10
59.1751365866462
 20
316.4093914947615
 30
0.0
 10
59.17946390622569
 20
316.2542685832957
 30
0.0
 10
59.181626506
 20
316.1767451263
 30
0.0
 11
58.59968468220001
 21
317.8955948795
 31
0.0
 11
58.72425762862753
 21
317.703855605799
 31
0.0
 11
58.83625316677222
 21
317.5043813960619
 31
0.0
 11
58.93507357473397
 21
317.2975261847521
 31
0.0
 11
59.01926149697755
 21
317.0843489705923
 31
0.0
 11
59.08779920649503
 21
316.8643267242098
 31
0.0
 11
59.13870245210613
 21
316.6394995595576
 31
0.0
 11
59.17065169022415
 21
316.4089805473665
 31
0.0
 11
59.181626506
 21
316.1767451263
 31
0.0
  0
SPLINE
  5
10B
330
1F
100
AcDbEntity
  8
BEZUGSACHSEN
  6
Continuous
 62
     7
100
AcDbSpline
210
0.0
220
0.0
230
1.0
 70
     8
 71
     3
 72
    15
 73
    11
 74
     9
 42
0.0000000001
 43
0.0000000001
 44
0.00000001
 40
0.0
 40
0.0
 40
0.0
 40
0.0
 40
0.1942981503281676
 40
0.388601224543184
 40
0.9369792399517649
 40
1.485374928806593
 40
2.300027372100614
 40
3.114746618584104
 40
4.074175664698124
 40
5.033464878716005
 40
5.033464878716005
 40
5.033464878716005
 40
5.033464878716005
 10
91.481626506
 20
335.2455948795
 30
0.0
 10
91.41809214007259
 20
335.2330224275107
 30
0.0
 10
91.29102179813538
 20
335.2078772049219
 30
0.0
 10
90.98410449987172
 20
335.1499869309038
 30
0.0
 10
90.5601567169209
 20
335.0757864758861
 30
0.0
 10
89.93036044423586
 20
334.9790618886772
 30
0.0
 10
89.21008896081008
 20
334.8875167786683
 30
0.0
 10
88.35083898429217
 20
334.806793342149
 30
0.0
 10
87.44102095977074
 20
334.7513777379415
 30
0.0
 10
86.80140911940782
 20
334.7441206078857
 30
0.0
 10
86.481626506
 20
334.7404923073
 30
0.0
 11
91.481626506
 21
335.2455948795
 31
0.0
 11
91.29096840158135
 21
335.2081614927919
 31
0.0
 11
91.10004439735833
 21
335.1720822846402
 31
0.0
 11
90.55985470787003
 21
335.0776707008489
 31
0.0
 11
90.01781404127107
 21
334.9944255970439
 31
0.0
 11
89.20963370908241
 21
334.8919407004573
 31
0.0
 11
88.39851906431954
 21
334.8153869047197
 31
0.0
 11
87.44073159783699
 21
334.7592864272157
 31
0.0
 11
86.481626506
 21
334.7404923073
 31
0.0
  0
SPLINE
  5
10C
330
1F
100
AcDbEntity
  8
BEZUGSACHSEN
  6
Continuous
 62
     7
100
AcDbSpline
210
0.0
220
0.0
230
1.0
 70
     8
 71
     3
 72
    15
 73
    11
 74
     9
 42
0.0000000001
 43
0.0000000001
 44
0.00000001
 40
0.0
 40
0.0
 40
0.0
 40
0.0
 40
0.959279472746091
 40
1.918698757741676
 40
2.733413612637687
 40
3.54806168260848
 40
4.096465872364967
 40
4.644852382944469
 40
4.839161107525547
 40
5.033464909266138
 40
5.033464909266138
 40
5.033464909266138
 40
5.033464909266138
 10
86.481626506
 20
334.7404923073
 30
0.0
 10
86.16184714021932
 20
334.7441204702669
 30
0.0
 10
85.52224180172671
 20
334.7513773249951
 30
0.0
 10
84.61243167998828
 20
334.8067915613974
 30
0.0
 10
83.75318780994178
 20
334.8875140175178
 30
0.0
 10
83.03291636203761
 20
334.9790586655603
 30
0.0
 10
82.40311583028156
 20
335.0757832426596
 30
0.0
 10
81.97916055402952
 20
335.1499846818882
 30
0.0
 10
81.67223675233345
 20
335.2078760815688
 30
0.0
 10
81.54516271819773
 20
335.233022053037
 30
0.0
 10
81.481626506
 20
335.2455948795
 30
0.0
 11
86.481626506
 21
334.7404923073
 31
0.0
 11
85.52253114559247
 21
334.7592858295022
 31
0.0
 11
84.56475337954197
 21
334.8153849852959
 31
0.0
 11
83.75364306215226
 21
334.8919378938768
 31
0.0
 11
82.94546699441437
 21
334.9944216557265
 31
0.0
 11
82.40341784446795
 21
335.0776675228
 31
0.0
 11
81.86321972044817
 21
335.172080190335
 31
0.0
 11
81.67229015362666
 21
335.2081603921315
 31
0.0
 11
81.481626506
 21
335.2455948795
 31
0.0
  0
ARC
  5
10D
330
1F
100
AcDbEntity
  8
1
  6
Continuous
 62
     7
100
AcDbCircle
 10
110.431626506
 20
331.2455948795
 30
0.0
 40
5.0
100
AcDbArc
 50
180.0
 51
270.0
  0
ARC
  5
10E
330
1F
100
AcDbEntity
  8
1
  6
Continuous
 62
     7
100
AcDbCircle
 10
110.431626506
 20
289.2455948795
 30
0.0
 40
5.0
100
AcDbArc
 50
90.0
 51
180.0
  0
DIMENSION
  5
119
330
1F
100
AcDbEntity
  8
1
100
AcDbDimension
  2
*D2
 10
209.4816265060001
 20
356.625239330422
 30
0.0
 11
133.0600865277009
 21
360.375239330422
 31
0.0
 70
    32
  1
<>
 71
     5
 42
-1.0
 53
0.00013888888889
  3
ME10_DIM_10
100
AcDbAlignedDimension
 13
54.58162650600001
 23
327.3019506607
 33
0.0
 14
209.481626506
 24
321.3212043879
 34
0.0
100
AcDbRotatedDimension
  0
DIMENSION
  5
124
330
1F
100
AcDbEntity
  8
1
100
AcDbDimension
  2
*D3
 10
209.481626506
 20
349.570324631512
 30
0.0
 11
144.3451382501174
 21
353.320324631512
 31
0.0
 70
    32
  1
<>
 71
     5
 42
-1.0
 53
0.00013888888889
  3
ME10_DIM_11
100
AcDbAlignedDimension
 13
79.481626506
 23
335.2455948795
 33
0.0
 14
209.481626506
 24
321.3212043879
 34
0.0
100
AcDbRotatedDimension
  0
DIMENSION
  5
12F
330
1F
100
AcDbEntity
  8
1
100
AcDbDimension
  2
*D4
 10
209.4816265060001
 20
342.515409932602
 30
0.0
 11
158.2910827770647
 21
346.265409932602
 31
0.0
 70
    32
  1
<>
 71
     5
 42
-1.0
 53
0.00013888888889
  3
ME10_DIM_12
100
AcDbAlignedDimension
 13
105.431626506
 23
335.245544861
 33
0.0
 14
209.481626506
 24
321.3212043879
 34
0.0
100
AcDbRotatedDimension
  0
DIMENSION
  5
13A
330
1F
100
AcDbEntity
  8
1
100
AcDbDimension
  2
*D5
 10
236.6980065874731
 20
326.2455948795
 30
0.0
 11
232.9480065874731
 21
310.688673649225
 31
0.0
 70
    32
  1
<>
 71
     5
 42
-1.0
 53
90.0
  3
ME10_DIM_13
100
AcDbAlignedDimension
 13
158.6568075613001
 23
294.2455948795
 33
0.0
 14
158.6568075613001
 24
326.2455948795
 34
0.0
 50
90.0
100
AcDbRotatedDimension
  0
DIMENSION
  5
145
330
1F
100
AcDbEntity
  8
1
100
AcDbDimension
  2
*D6
 10
229.023132543636
 20
322.2455948794619
 30
0.0
 11
225.273132543636
 21
310.833482593448
 31
0.0
 70
    32
  1
<>
 71
     5
 42
-1.0
 53
90.0
  3
ME10_DIM_14
100
AcDbAlignedDimension
 13
209.481626506
 23
298.2455948795417
 33
0.0
 14
209.481626506
 24
322.2455948794619
 34
0.0
 50
90.0
100
AcDbRotatedDimension
  0
DIMENSION
  5
150
330
1F
100
AcDbEntity
  8
1
100
AcDbDimension
  2
*D7
 10
219.972573529677
 20
315.2455948795
 30
0.0
 11
216.222573529677
 21
310.181842344443
 31
0.0
 70
    32
  1
<>
 71
     5
 42
-1.0
 53
90.0
  3
ME10_DIM_15
100
AcDbAlignedDimension
 13
209.481626506
 23
305.2455948795
 33
0.0
 14
209.481626506
 24
315.2455948795
 34
0.0
 50
90.0
100
AcDbRotatedDimension
  0
INSERT
  5
157
330
1F
100
AcDbEntity
  8
1
100
AcDbBlockReference
  2
*D8
 10
0.0
 20
0.0
 30
0.0
  0
DIMENSION
  5
162
330
1F
100
AcDbEntity
  8
1
100
AcDbDimension
  2
*D9
 10
191.4403065381064
 20
324.9575276966255
 30
0.0
 11
194.6045506583966
 21
332.9018054163667
 31
0.0
 70
    37
  1
<>
 71
     5
 42
-1.0
  3
ME10_DIM_16
100
AcDb3PointAngularDimension
 13
191.3644623682088
 23
323.6714466199861
 33
0.0
 14
161.9376868980479
 24
326.2455948795
 34
0.0
 15
158.6568075613001
 25
326.2455948795
 35
0.0
  0
ENDSEC
  0
SECTION
  2
OBJECTS
  0
DICTIONARY
  5
C
330
0
100
AcDbDictionary
281
     1
  3
ACAD_GROUP
350
D
  3
ACAD_LAYOUT
350
1A
  3
ACAD_MLEADERSTYLE
350
165
  3
ACAD_MLINESTYLE
350
17
  3
ACAD_PLOTSETTINGS
350
19
  3
ACAD_PLOTSTYLENAME
350
E
  3
ACAD_SCALELIST
350
4C
  3
ACAD_VISUALSTYLE
350
2A
  3
AcDbVariableDictionary
350
163
  0
DICTIONARY
  5
D
102
{ACAD_REACTORS
330
C
102
}
330
C
100
AcDbDictionary
281
     1
  0
DICTIONARY
  5
1A
102
{ACAD_REACTORS
330
C
102
}
330
C
100
AcDbDictionary
281
     1
  3
Layout1
350
1E
  3
Layout2
350
26
  3
Model
350
22
  0
DICTIONARY
  5
165
102
{ACAD_REACTORS
330
C
102
}
330
C
100
AcDbDictionary
281
     1
  0
DICTIONARY
  5
17
102
{ACAD_REACTORS
330
C
102
}
330
C
100
AcDbDictionary
281
     1
  3
Standard
350
18
  0
DICTIONARY
  5
19
102
{ACAD_REACTORS
330
C
102
}
330
C
100
AcDbDictionary
281
     1
  0
ACDBDICTIONARYWDFLT
  5
E
102
{ACAD_REACTORS
330
C
102
}
330
C
100
AcDbDictionary
281
     1
  3
Normal
350
F
100
AcDbDictionaryWithDefault
340
F
  0
DICTIONARY
  5
4C
102
{ACAD_REACTORS
330
C
102
}
330
C
100
AcDbDictionary
281
     1
  3
A0
350
4D
  3
A1
350
4E
  3
A2
350
4F
  3
A3
350
50
  3
A4
350
51
  3
A5
350
52
  3
A6
350
53
  3
A7
350
54
  3
A8
350
55
  3
A9
350
56
  3
B0
350
57
  3
B1
350
58
  3
B2
350
59
  3
B3
350
5A
  3
B4
350
5B
  3
B5
350
5C
  3
B6
350
5D
  3
B7
350
5E
  3
B8
350
5F
  3
B9
350
60
  3
C0
350
61
  3
C1
350
62
  3
C2
350
63
  3
C3
350
64
  3
C4
350
65
  3
C5
350
66
  3
C6
350
67
  3
C7
350
68
  3
C8
350
69
  3
C9
350
6A
  3
D0
350
6B
  3
D1
350
6C
  3
D2
350
6D
  0
DICTIONARY
  5
2A
102
{ACAD_REACTORS
330
C
102
}
330
C
100
AcDbDictionary
281
     1
  3
2dWireframe
350
2F
  3
3D Hidden
350
31
  3
3dWireframe
350
30
  3
Basic
350
32
  3
Brighten
350
36
  3
ColorChange
350
3A
  3
Conceptual
350
34
  3
Dim
350
35
  3
Facepattern
350
39
  3
Flat
350
2B
  3
FlatWithEdges
350
2C
  3
Gouraud
350
2D
  3
GouraudWithEdges
350
2E
  3
Linepattern
350
38
  3
Realistic
350
33
  3
Thicken
350
37
  0
DICTIONARY
  5
163
102
{ACAD_REACTORS
330
C
102
}
330
C
100
AcDbDictionary
281
     1
  3
CANNOSCALE
350
166
  0
LAYOUT
  5
1E
102
{ACAD_REACTORS
330
1A
102
}
330
1A
100
AcDbPlotSettings
  1

  2
none_device
  4

  6

 40
0.0
 41
0.0
 42
0.0
 43
0.0
 44
0.0
 45
0.0
 46
0.0
 47
0.0
 48
0.0
 49
0.0
140
0.0
141
0.0
142
1.0
143
1.0
 70
   688
 72
     0
 73
     0
 74
     5
  7

 75
    16
147
1.0
148
0.0
149
0.0
100
AcDbLayout
  1
Layout1
 70
     1
 71
     1
 10
0.0
 20
0.0
 11
12.0
 21
9.0
 12
0.0
 22
0.0
 32
0.0
 14
1.00000000000000E+20
 24
1.00000000000000E+20
 34
1.00000000000000E+20
 15
-1.00000000000000E+20
 25
-1.00000000000000E+20
 35
-1.00000000000000E+20
146
0.0
 13
0.0
 23
0.0
 33
0.0
 16
1.0
 26
0.0
 36
0.0
 17
0.0
 27
1.0
 37
0.0
 76
     0
330
1B
  0
LAYOUT
  5
26
102
{ACAD_REACTORS
330
1A
102
}
330
1A
100
AcDbPlotSettings
  1

  2
none_device
  4

  6

 40
0.0
 41
0.0
 42
0.0
 43
0.0
 44
0.0
 45
0.0
 46
0.0
 47
0.0
 48
0.0
 49
0.0
140
0.0
141
0.0
142
1.0
143
1.0
 70
   688
 72
     0
 73
     0
 74
     5
  7

 75
    16
147
1.0
148
0.0
149
0.0
100
AcDbLayout
  1
Layout2
 70
     1
 71
     2
 10
0.0
 20
0.0
 11
0.0
 21
0.0
 12
0.0
 22
0.0
 32
0.0
 14
0.0
 24
0.0
 34
0.0
 15
0.0
 25
0.0
 35
0.0
146
0.0
 13
0.0
 23
0.0
 33
0.0
 16
1.0
 26
0.0
 36
0.0
 17
0.0
 27
1.0
 37
0.0
 76
     0
330
23
  0
LAYOUT
  5
22
102
{ACAD_REACTORS
330
1A
102
}
330
1A
100
AcDbPlotSettings
  1

  2
none_device
  4

  6

 40
0.0
 41
0.0
 42
0.0
 43
0.0
 44
0.0
 45
0.0
 46
0.0
 47
0.0
 48
0.0
 49
0.0
140
0.0
141
0.0
142
1.0
143
1.0
 70
  1712
 72
     0
 73
     0
 74
     0
  7

 75
     0
147
1.0
148
0.0
149
0.0
100
AcDbLayout
  1
Model
 70
     1
 71
     0
 10
0.0
 20
0.0
 11
12.0
 21
9.0
 12
0.0
 22
0.0
 32
0.0
 14
51.45662650599999
 24
268.6384276302727
 34
0.0
 15
238.6980065874731
 25
362.125239330422
 35
0.0
146
0.0
 13
0.0
 23
0.0
 33
0.0
 16
1.0
 26
0.0
 36
0.0
 17
0.0
 27
1.0
 37
0.0
 76
     0
330
1F
331
29
  0
MLINESTYLE
  5
18
102
{ACAD_REACTORS
330
17
102
}
330
17
100
AcDbMlineStyle
  2
Standard
 70
     0
  3

 62
   256
 51
90.0
 52
90.0
 71
     2
 49
0.5
 62
   256
  6
BYLAYER
 49
-0.5
 62
   256
  6
BYLAYER
  0
ACDBPLACEHOLDER
  5
F
102
{ACAD_REACTORS
330
E
102
}
330
E
  0
SCALE
  5
4D
102
{ACAD_REACTORS
330
4C
102
}
330
4C
100
AcDbScale
 70
     0
300
1:1
140
1.0
141
1.0
290
     1
  0
SCALE
  5
4E
102
{ACAD_REACTORS
330
4C
102
}
330
4C
100
AcDbScale
 70
     0
300
1:2
140
1.0
141
2.0
290
     0
  0
SCALE
  5
4F
102
{ACAD_REACTORS
330
4C
102
}
330
4C
100
AcDbScale
 70
     0
300
1:4
140
1.0
141
4.0
290
     0
  0
SCALE
  5
50
102
{ACAD_REACTORS
330
4C
102
}
330
4C
100
AcDbScale
 70
     0
300
1:5
140
1.0
141
5.0
290
     0
  0
SCALE
  5
51
102
{ACAD_REACTORS
330
4C
102
}
330
4C
100
AcDbScale
 70
     0
300
1:8
140
1.0
141
8.0
290
     0
  0
SCALE
  5
52
102
{ACAD_REACTORS
330
4C
102
}
330
4C
100
AcDbScale
 70
     0
300
1:10
140
1.0
141
10.0
290
     0
  0
SCALE
  5
53
102
{ACAD_REACTORS
330
4C
102
}
330
4C
100
AcDbScale
 70
     0
300
1:16
140
1.0
141
16.0
290
     0
  0
SCALE
  5
54
102
{ACAD_REACTORS
330
4C
102
}
330
4C
100
AcDbScale
 70
     0
300
1:20
140
1.0
141
20.0
290
     0
  0
SCALE
  5
55
102
{ACAD_REACTORS
330
4C
102
}
330
4C
100
AcDbScale
 70
     0
300
1:30
140
1.0
141
30.0
290
     0
  0
SCALE
  5
56
102
{ACAD_REACTORS
330
4C
102
}
330
4C
100
AcDbScale
 70
     0
300
1:40
140
1.0
141
40.0
290
     0
  0
SCALE
  5
57
102
{ACAD_REACTORS
330
4C
102
}
330
4C
100
AcDbScale
 70
     0
300
1:50
140
1.0
141
50.0
290
     0
  0
SCALE
  5
58
102
{ACAD_REACTORS
330
4C
102
}
330
4C
100
AcDbScale
 70
     0
300
1:100
140
1.0
141
100.0
290
     0
  0
SCALE
  5
59
102
{ACAD_REACTORS
330
4C
102
}
330
4C
100
AcDbScale
 70
     0
300
2:1
140
2.0
141
1.0
290
     0
  0
SCALE
  5
5A
102
{ACAD_REACTORS
330
4C
102
}
330
4C
100
AcDbScale
 70
     0
300
4:1
140
4.0
141
1.0
290
     0
  0
SCALE
  5
5B
102
{ACAD_REACTORS
330
4C
102
}
330
4C
100
AcDbScale
 70
     0
300
8:1
140
8.0
141
1.0
290
     0
  0
SCALE
  5
5C
102
{ACAD_REACTORS
330
4C
102
}
330
4C
100
AcDbScale
 70
     0
300
10:1
140
10.0
141
1.0
290
     0
  0
SCALE
  5
5D
102
{ACAD_REACTORS
330
4C
102
}
330
4C
100
AcDbScale
 70
     0
300
100:1
140
100.0
141
1.0
290
     0
  0
SCALE
  5
5E
102
{ACAD_REACTORS
330
4C
102
}
330
4C
100
AcDbScale
 70
     0
300
1/128" = 1'-0"
140
0.0078125
141
12.0
290
     0
  0
SCALE
  5
5F
102
{ACAD_REACTORS
330
4C
102
}
330
4C
100
AcDbScale
 70
     0
300
1/64" = 1'-0"
140
0.015625
141
12.0
290
     0
  0
SCALE
  5
60
102
{ACAD_REACTORS
330
4C
102
}
330
4C
100
AcDbScale
 70
     0
300
1/32" = 1'-0"
140
0.03125
141
12.0
290
     0
  0
SCALE
  5
61
102
{ACAD_REACTORS
330
4C
102
}
330
4C
100
AcDbScale
 70
     0
300
1/16" = 1'-0"
140
0.0625
141
12.0
290
     0
  0
SCALE
  5
62
102
{ACAD_REACTORS
330
4C
102
}
330
4C
100
AcDbScale
 70
     0
300
3/32" = 1'-0"
140
0.09375
141
12.0
290
     0
  0
SCALE
  5
63
102
{ACAD_REACTORS
330
4C
102
}
330
4C
100
AcDbScale
 70
     0
300
1/8" = 1'-0"
140
0.125
141
12.0
290
     0
  0
SCALE
  5
64
102
{ACAD_REACTORS
330
4C
102
}
330
4C
100
AcDbScale
 70
     0
300
3/16" = 1'-0"
140
0.1875
141
12.0
290
     0
  0
SCALE
  5
65
102
{ACAD_REACTORS
330
4C
102
}
330
4C
100
AcDbScale
 70
     0
300
1/4" = 1'-0"
140
0.25
141
12.0
290
     0
  0
SCALE
  5
66
102
{ACAD_REACTORS
330
4C
102
}
330
4C
100
AcDbScale
 70
     0
300
3/8" = 1'-0"
140
0.375
141
12.0
290
     0
  0
SCALE
  5
67
102
{ACAD_REACTORS
330
4C
102
}
330
4C
100
AcDbScale
 70
     0
300
1/2" = 1'-0"
140
0.5
141
12.0
290
     0
  0
SCALE
  5
68
102
{ACAD_REACTORS
330
4C
102
}
330
4C
100
AcDbScale
 70
     0
300
3/4" = 1'-0"
140
0.75
141
12.0
290
     0
  0
SCALE
  5
69
102
{ACAD_REACTORS
330
4C
102
}
330
4C
100
AcDbScale
 70
     0
300
1" = 1'-0"
140
1.0
141
12.0
290
     0
  0
SCALE
  5
6A
102
{ACAD_REACTORS
330
4C
102
}
330
4C
100
AcDbScale
 70
     0
300
1-1/2" = 1'-0"
140
1.5
141
12.0
290
     0
  0
SCALE
  5
6B
102
{ACAD_REACTORS
330
4C
102
}
330
4C
100
AcDbScale
 70
     0
300
3" = 1'-0"
140
3.0
141
12.0
290
     0
  0
SCALE
  5
6C
102
{ACAD_REACTORS
330
4C
102
}
330
4C
100
AcDbScale
 70
     0
300
6" = 1'-0"
140
6.0
141
12.0
290
     0
  0
SCALE
  5
6D
102
{ACAD_REACTORS
330
4C
102
}
330
4C
100
AcDbScale
 70
     0
300
1'-0" = 1'-0"
140
12.0
141
12.0
290
     0
  0
VISUALSTYLE
  5
2F
102
{ACAD_REACTORS
330
2A
102
}
330
2A
100
AcDbVisualStyle
  2
2dWireframe
 70
     4
 71
     0
 72
     2
 73
     0
 90
        0
 40
-0.6
 41
-30.0
 62
     5
 63
     7
 74
     1
 91
        4
 64
     7
 65
   257
 75
     1
175
     1
 42
1.0
 92
        0
 66
   257
 43
1.0
 76
     1
 77
     6
 78
     2
 67
     7
 79
     5
170
     0
171
     0
290
     0
174
     0
 93
        1
 44
0.0
173
     0
291
     0
 45
0.0
1001
ACAD
1000
AcDbSavedByObjectVersion
1070
     0
  0
VISUALSTYLE
  5
31
102
{ACAD_REACTORS
330
2A
102
}
330
2A
100
AcDbVisualStyle
  2
3D Hidden
 70
     6
 71
     1
 72
     2
 73
     2
 90
        0
 40
-0.6
 41
-30.0
 62
     5
 63
     7
 74
     2
 91
        2
 64
     7
 65
   257
 75
     2
175
     1
 42
40.0
 92
        0
 66
   257
 43
1.0
 76
     1
 77
     6
 78
     2
 67
     7
 79
     3
170
     0
171
     0
290
     0
174
     0
 93
        1
 44
0.0
173
     0
291
     0
 45
0.0
1001
ACAD
1000
AcDbSavedByObjectVersion
1070
     0
  0
VISUALSTYLE
  5
30
102
{ACAD_REACTORS
330
2A
102
}
330
2A
100
AcDbVisualStyle
  2
3dWireframe
 70
     5
 71
     0
 72
     2
 73
     0
 90
        0
 40
-0.6
 41
-30.0
 62
     5
 63
     7
 74
     1
 91
        4
 64
     7
 65
   257
 75
     1
175
     1
 42
1.0
 92
        0
 66
   257
 43
1.0
 76
     1
 77
     6
 78
     2
 67
     7
 79
     5
170
     0
171
     0
290
     0
174
     0
 93
        1
 44
0.0
173
     0
291
     0
 45
0.0
1001
ACAD
1000
AcDbSavedByObjectVersion
1070
     0
  0
VISUALSTYLE
  5
32
102
{ACAD_REACTORS
330
2A
102
}
330
2A
100
AcDbVisualStyle
  2
Basic
 70
     7
 71
     1
 72
     0
 73
     1
 90
        0
 40
-0.6
 41
-30.0
 62
     5
 63
     7
 74
     0
 91
        4
 64
     7
 65
   257
 75
     1
175
     1
 42
1.0
 92
        8
 66
     7
 43
1.0
 76
     1
 77
     6
 78
     2
 67
     7
 79
     5
170
     0
171
     0
290
     0
174
     0
 93
        1
 44
0.0
173
     0
291
     1
 45
0.0
1001
ACAD
1000
AcDbSavedByObjectVersion
1070
     0
  0
VISUALSTYLE
  5
36
102
{ACAD_REACTORS
330
2A
102
}
330
2A
100
AcDbVisualStyle
  2
Brighten
 70
    12
 71
     2
 72
     2
 73
     0
 90
        0
 40
-0.6
 41
-30.0
 62
     5
 63
     7
 74
     1
 91
        4
 64
     7
 65
   257
 75
     1
175
     1
 42
1.0
 92
        8
 66
     7
 43
1.0
 76
     1
 77
     6
 78
     2
 67
     7
 79
     5
170
     0
171
     0
290
     0
174
     0
 93
        1
 44
50.0
173
     0
291
     1
 45
0.0
1001
ACAD
1000
AcDbSavedByObjectVersion
1070
     0
  0
VISUALSTYLE
  5
3A
102
{ACAD_REACTORS
330
2A
102
}
330
2A
100
AcDbVisualStyle
  2
ColorChange
 70
    16
 71
     2
 72
     2
 73
     3
 90
        0
 40
-0.6
 41
-30.0
 62
     5
 63
     8
 74
     1
 91
        4
 64
     7
 65
   257
 75
     1
175
     1
 42
1.0
 92
        8
 66
     8
 43
1.0
 76
     1
 77
     6
 78
     2
 67
     7
 79
     5
170
     0
171
     0
290
     0
174
     0
 93
        1
 44
0.0
173
     0
291
     1
 45
0.0
1001
ACAD
1000
AcDbSavedByObjectVersion
1070
     0
  0
VISUALSTYLE
  5
34
102
{ACAD_REACTORS
330
2A
102
}
330
2A
100
AcDbVisualStyle
  2
Conceptual
 70
     9
 71
     3
 72
     2
 73
     0
 90
        0
 40
-0.6
 41
-30.0
 62
     5
 63
     7
 74
     2
 91
        2
 64
     7
 65
   257
 75
     1
175
     1
 42
40.0
 92
        8
 66
     7
 43
1.0
 76
     1
 77
     6
 78
     2
 67
     7
 79
     3
170
     0
171
     0
290
     0
174
     0
 93
        1
 44
0.0
173
     0
291
     0
 45
0.0
1001
ACAD
1000
AcDbSavedByObjectVersion
1070
     0
  0
VISUALSTYLE
  5
35
102
{ACAD_REACTORS
330
2A
102
}
330
2A
100
AcDbVisualStyle
  2
Dim
 70
    11
 71
     2
 72
     2
 73
     0
 90
        0
 40
-0.6
 41
-30.0
 62
     5
 63
     7
 74
     1
 91
        4
 64
     7
 65
   257
 75
     1
175
     1
 42
1.0
 92
        8
 66
     7
 43
1.0
 76
     1
 77
     6
 78
     2
 67
     7
 79
     5
170
     0
171
     0
290
     0
174
     0
 93
        1
 44
-50.0
173
     0
291
     1
 45
0.0
1001
ACAD
1000
AcDbSavedByObjectVersion
1070
     0
  0
VISUALSTYLE
  5
39
102
{ACAD_REACTORS
330
2A
102
}
330
2A
100
AcDbVisualStyle
  2
Facepattern
 70
    15
 71
     2
 72
     2
 73
     0
 90
        0
 40
-0.6
 41
-30.0
 62
     5
 63
     7
 74
     1
 91
        4
 64
     7
 65
   257
 75
     1
175
     1
 42
1.0
 92
        8
 66
     7
 43
1.0
 76
     1
 77
     6
 78
     2
 67
     7
 79
     5
170
     0
171
     0
290
     0
174
     0
 93
        1
 44
0.0
173
     0
291
     1
 45
0.0
1001
ACAD
1000
AcDbSavedByObjectVersion
1070
     0
  0
VISUALSTYLE
  5
2B
102
{ACAD_REACTORS
330
2A
102
}
330
2A
100
AcDbVisualStyle
  2
Flat
 70
     0
 71
     2
 72
     1
 73
     1
 90
        2
 40
-0.6
 41
30.0
 62
     5
 63
     7
 74
     0
 91
        4
 64
     7
 65
   257
 75
     1
175
     1
 42
1.0
 92
        8
 66
     7
 43
1.0
 76
     1
 77
     6
 78
     2
 67
     7
 79
     5
170
     0
171
     0
290
     0
174
     0
 93
       13
 44
0.0
173
     0
291
     1
 45
0.0
1001
ACAD
1000
AcDbSavedByObjectVersion
1070
     0
  0
VISUALSTYLE
  5
2C
102
{ACAD_REACTORS
330
2A
102
}
330
2A
100
AcDbVisualStyle
  2
FlatWithEdges
 70
     1
 71
     2
 72
     1
 73
     1
 90
        2
 40
-0.6
 41
30.0
 62
     5
 63
     7
 74
     1
 91
        4
 64
     7
 65
   257
 75
     1
175
     1
 42
1.0
 92
        0
 66
   257
 43
1.0
 76
     1
 77
     6
 78
     2
 67
     7
 79
     5
170
     0
171
     0
290
     0
174
     0
 93
       13
 44
0.0
173
     0
291
     1
 45
0.0
1001
ACAD
1000
AcDbSavedByObjectVersion
1070
     0
  0
VISUALSTYLE
  5
2D
102
{ACAD_REACTORS
330
2A
102
}
330
2A
100
AcDbVisualStyle
  2
Gouraud
 70
     2
 71
     2
 72
     2
 73
     1
 90
        2
 40
-0.6
 41
30.0
 62
     5
 63
     7
 74
     0
 91
        4
 64
     7
 65
   257
 75
     1
175
     1
 42
1.0
 92
        0
 66
     7
 43
1.0
 76
     1
 77
     6
 78
     2
 67
     7
 79
     5
170
     0
171
     0
290
     0
174
     0
 93
       13
 44
0.0
173
     0
291
     1
 45
0.0
1001
ACAD
1000
AcDbSavedByObjectVersion
1070
     0
  0
VISUALSTYLE
  5
2E
102
{ACAD_REACTORS
330
2A
102
}
330
2A
100
AcDbVisualStyle
  2
GouraudWithEdges
 70
     3
 71
     2
 72
     2
 73
     1
 90
        2
 40
-0.6
 41
30.0
 62
     5
 63
     7
 74
     1
 91
        4
 64
     7
 65
   257
 75
     1
175
     1
 42
1.0
 92
        0
 66
   257
 43
1.0
 76
     1
 77
     6
 78
     2
 67
     7
 79
     5
170
     0
171
     0
290
     0
174
     0
 93
       13
 44
0.0
173
     0
291
     1
 45
0.0
1001
ACAD
1000
AcDbSavedByObjectVersion
1070
     0
  0
VISUALSTYLE
  5
38
102
{ACAD_REACTORS
330
2A
102
}
330
2A
100
AcDbVisualStyle
  2
Linepattern
 70
    14
 71
     2
 72
     2
 73
     0
 90
        0
 40
-0.6
 41
-30.0
 62
     5
 63
     7
 74
     1
 91
        4
 64
     7
 65
   257
 75
     7
175
     7
 42
1.0
 92
        8
 66
     7
 43
1.0
 76
     1
 77
     6
 78
     2
 67
     7
 79
     5
170
     0
171
     0
290
     0
174
     0
 93
        1
 44
0.0
173
     0
291
     1
 45
0.0
1001
ACAD
1000
AcDbSavedByObjectVersion
1070
     0
  0
VISUALSTYLE
  5
33
102
{ACAD_REACTORS
330
2A
102
}
330
2A
100
AcDbVisualStyle
  2
Realistic
 70
     8
 71
     2
 72
     2
 73
     0
 90
        0
 40
-0.6
 41
-30.0
 62
     5
 63
     7
 74
     1
 91
        0
 64
     7
 65
   257
 75
     1
175
     1
 42
1.0
 92
        8
 66
     8
 43
1.0
 76
     1
 77
     6
 78
     2
 67
     7
 79
     5
170
     0
171
     0
290
     0
174
     0
 93
       13
 44
0.0
173
     0
291
     0
 45
0.0
1001
ACAD
1000
AcDbSavedByObjectVersion
1070
     0
  0
VISUALSTYLE
  5
37
102
{ACAD_REACTORS
330
2A
102
}
330
2A
100
AcDbVisualStyle
  2
Thicken
 70
    13
 71
     2
 72
     2
 73
     0
 90
        0
 40
-0.6
 41
-30.0
 62
     5
 63
     7
 74
     1
 91
        4
 64
     7
 65
   257
 75
     1
175
     1
 42
1.0
 92
       12
 66
     7
 43
1.0
 76
     1
 77
     6
 78
     2
 67
     7
 79
     5
170
     0
171
     0
290
     0
174
     0
 93
        1
 44
0.0
173
     0
291
     1
 45
0.0
1001
ACAD
1000
AcDbSavedByObjectVersion
1070
     0
  0
DICTIONARYVAR
  5
166
102
{ACAD_REACTORS
330
163
102
}
330
163
100
DictionaryVariables
280
     0
  1
1:1
  0
ENDSEC
  0
EOF
