  0
SECTION
  2
HEADER
  9
$ACADVER
  1
AC1015
  9
$ACADMAINTVER
 70
     6
  9
$DWGCODEPAGE
  3
ANSI_1252
  9
$INSBASE
 10
0.0
 20
0.0
 30
0.0
  9
$EXTMIN
 10
47.13367846389996
 20
276.4745922488697
 30
0.0
  9
$EXTMAX
 10
236.718398256845
 20
370.277572824391
 30
0.0
  9
$LIMMIN
 10
0.0
 20
0.0
  9
$LIMMAX
 10
12.0
 20
9.0
  9
$ORTHOMODE
 70
     0
  9
$REGENMODE
 70
     1
  9
$FILLMODE
 70
     1
  9
$QTEXTMODE
 70
     0
  9
$MIRRTEXT
 70
     1
  9
$LTSCALE
 40
1.0
  9
$ATTMODE
 70
     1
  9
$TEXTSIZE
 40
0.2
  9
$TRACEWID
 40
0.05
  9
$TEXTSTYLE
  7
Standard
  9
$CLAYER
  8
0
  9
$CELTYPE
  6
ByLayer
  9
$CECOLOR
 62
   256
  9
$CELTSCALE
 40
1.0
  9
$DISPSILH
 70
     0
  9
$DIMSCALE
 40
1.0
  9
$DIMASZ
 40
0.18
  9
$DIMEXO
 40
0.0625
  9
$DIMDLI
 40
0.38
  9
$DIMRND
 40
0.0
  9
$DIMDLE
 40
0.0
  9
$DIMEXE
 40
0.18
  9
$DIMTP
 40
0.0
  9
$DIMTM
 40
0.0
  9
$DIMTXT
 40
0.18
  9
$DIMCEN
 40
0.09
  9
$DIMTSZ
 40
0.0
  9
$DIMTOL
 70
     0
  9
$DIMLIM
 70
     0
  9
$DIMTIH
 70
     1
  9
$DIMTOH
 70
     1
  9
$DIMSE1
 70
     0
  9
$DIMSE2
 70
     0
  9
$DIMTAD
 70
     0
  9
$DIMZIN
 70
     0
  9
$DIMBLK
  1

  9
$DIMASO
 70
     1
  9
$DIMSHO
 70
     1
  9
$DIMPOST
  1

  9
$DIMAPOST
  1

  9
$DIMALT
 70
     0
  9
$DIMALTD
 70
     2
  9
$DIMALTF
 40
25.4
  9
$DIMLFAC
 40
1.0
  9
$DIMTOFL
 70
     0
  9
$DIMTVP
 40
0.0
  9
$DIMTIX
 70
     0
  9
$DIMSOXD
 70
     0
  9
$DIMSAH
 70
     0
  9
$DIMBLK1
  1

  9
$DIMBLK2
  1

  9
$DIMSTYLE
  2
Standard
  9
$DIMCLRD
 70
     0
  9
$DIMCLRE
 70
     0
  9
$DIMCLRT
 70
     0
  9
$DIMTFAC
 40
1.0
  9
$DIMGAP
 40
0.09
  9
$DIMJUST
 70
     0
  9
$DIMSD1
 70
     0
  9
$DIMSD2
 70
     0
  9
$DIMTOLJ
 70
     1
  9
$DIMTZIN
 70
     0
  9
$DIMALTZ
 70
     0
  9
$DIMALTTZ
 70
     0
  9
$DIMUPT
 70
     0
  9
$DIMDEC
 70
     4
  9
$DIMTDEC
 70
     4
  9
$DIMALTU
 70
     2
  9
$DIMALTTD
 70
     2
  9
$DIMTXSTY
  7
Standard
  9
$DIMAUNIT
 70
     0
  9
$DIMADEC
 70
     0
  9
$DIMALTRND
 40
0.0
  9
$DIMAZIN
 70
     0
  9
$DIMDSEP
 70
    46
  9
$DIMATFIT
 70
     3
  9
$DIMFRAC
 70
     0
  9
$DIMLDRBLK
  1

  9
$DIMLUNIT
 70
     2
  9
$DIMLWD
 70
    -2
  9
$DIMLWE
 70
    -2
  9
$DIMTMOVE
 70
     0
  9
$LUNITS
 70
     2
  9
$LUPREC
 70
     4
  9
$SKETCHINC
 40
0.1
  9
$FILLETRAD
 40
0.5
  9
$AUNITS
 70
     0
  9
$AUPREC
 70
     0
  9
$MENU
  1
.
  9
$ELEVATION
 40
0.0
  9
$PELEVATION
 40
0.0
  9
$THICKNESS
 40
0.0
  9
$LIMCHECK
 70
     0
  9
$CHAMFERA
 40
0.5
  9
$CHAMFERB
 40
0.5
  9
$CHAMFERC
 40
1.0
  9
$CHAMFERD
 40
0.0
  9
$SKPOLY
 70
     0
  9
$TDCREATE
 40
2456749.744183576
  9
$TDUCREATE
 40
2456749.660850243
  9
$TDUPDATE
 40
2456749.744183588
  9
$TDUUPDATE
 40
2456749.660850255
  9
$TDINDWG
 40
0.0000000116
  9
$TDUSRTIMER
 40
0.0000000116
  9
$USRTIMER
 70
     1
  9
$ANGBASE
 50
0.0
  9
$ANGDIR
 70
     0
  9
$PDMODE
 70
     0
  9
$PDSIZE
 40
0.0
  9
$PLINEWID
 40
0.0
  9
$SPLFRAME
 70
     0
  9
$SPLINETYPE
 70
     6
  9
$SPLINESEGS
 70
     8
  9
$HANDSEED
  5
167
  9
$SURFTAB1
 70
     6
  9
$SURFTAB2
 70
     6
  9
$SURFTYPE
 70
     6
  9
$SURFU
 70
     6
  9
$SURFV
 70
     6
  9
$UCSBASE
  2

  9
$UCSNAME
  2

  9
$UCSORG
 10
0.0
 20
0.0
 30
0.0
  9
$UCSXDIR
 10
1.0
 20
0.0
 30
0.0
  9
$UCSYDIR
 10
0.0
 20
1.0
 30
0.0
  9
$UCSORTHOREF
  2

  9
$UCSORTHOVIEW
 70
     0
  9
$UCSORGTOP
 10
0.0
 20
0.0
 30
0.0
  9
$UCSORGBOTTOM
 10
0.0
 20
0.0
 30
0.0
  9
$UCSORGLEFT
 10
0.0
 20
0.0
 30
0.0
  9
$UCSORGRIGHT
 10
0.0
 20
0.0
 30
0.0
  9
$UCSORGFRONT
 10
0.0
 20
0.0
 30
0.0
  9
$UCSORGBACK
 10
0.0
 20
0.0
 30
0.0
  9
$PUCSBASE
  2

  9
$PUCSNAME
  2

  9
$PUCSORG
 10
0.0
 20
0.0
 30
0.0
  9
$PUCSXDIR
 10
1.0
 20
0.0
 30
0.0
  9
$PUCSYDIR
 10
0.0
 20
1.0
 30
0.0
  9
$PUCSORTHOREF
  2

  9
$PUCSORTHOVIEW
 70
     0
  9
$PUCSORGTOP
 10
0.0
 20
0.0
 30
0.0
  9
$PUCSORGBOTTOM
 10
0.0
 20
0.0
 30
0.0
  9
$PUCSORGLEFT
 10
0.0
 20
0.0
 30
0.0
  9
$PUCSORGRIGHT
 10
0.0
 20
0.0
 30
0.0
  9
$PUCSORGFRONT
 10
0.0
 20
0.0
 30
0.0
  9
$PUCSORGBACK
 10
0.0
 20
0.0
 30
0.0
  9
$USERI1
 70
     0
  9
$USERI2
 70
     0
  9
$USERI3
 70
     0
  9
$USERI4
 70
     0
  9
$USERI5
 70
     0
  9
$USERR1
 40
16.5
  9
$USERR2
 40
0.0
  9
$USERR3
 40
0.0
  9
$USERR4
 40
0.0
  9
$USERR5
 40
0.0
  9
$WORLDVIEW
 70
     1
  9
$SHADEDGE
 70
     3
  9
$SHADEDIF
 70
    70
  9
$TILEMODE
 70
     1
  9
$MAXACTVP
 70
    64
  9
$PINSBASE
 10
0.0
 20
0.0
 30
0.0
  9
$PLIMCHECK
 70
     0
  9
$PEXTMIN
 10
1.00000000000000E+20
 20
1.00000000000000E+20
 30
1.00000000000000E+20
  9
$PEXTMAX
 10
-1.00000000000000E+20
 20
-1.00000000000000E+20
 30
-1.00000000000000E+20
  9
$PLIMMIN
 10
0.0
 20
0.0
  9
$PLIMMAX
 10
12.0
 20
9.0
  9
$UNITMODE
 70
     0
  9
$VISRETAIN
 70
     1
  9
$PLINEGEN
 70
     0
  9
$PSLTSCALE
 70
     1
  9
$TREEDEPTH
 70
  3020
  9
$CMLSTYLE
  2
Standard
  9
$CMLJUST
 70
     0
  9
$CMLSCALE
 40
1.0
  9
$PROXYGRAPHICS
 70
     1
  9
$MEASUREMENT
 70
     1
  9
$CELWEIGHT
370
    -1
  9
$ENDCAPS
280
     0
  9
$JOINSTYLE
280
     0
  9
$LWDISPLAY
290
     0
  9
$INSUNITS
 70
     1
  9
$HYPERLINKBASE
  1

  9
$STYLESHEET
  1

  9
$XEDIT
290
     1
  9
$CEPSNTYPE
380
     0
  9
$PSTYLEMODE
290
     1
  9
$FINGERPRINTGUID
  2
{46B3E773-EBE3-4069-B2E8-0B09A7041276}
  9
$VERSIONGUID
  2
{FAEB1C32-E019-11D5-929B-00C0DF256EC4}
  9
$EXTNAMES
290
     1
  9
$PSVPSCALE
 40
0.0
  9
$OLESTARTUP
290
     0
  0
ENDSEC
  0
SECTION
  2
CLASSES
  0
CLASS
  1
ACDBDICTIONARYWDFLT
  2
AcDbDictionaryWithDefault
  3
ObjectDBX Classes
 90
        0
280
     0
281
     0
  0
CLASS
  1
VISUALSTYLE
  2
AcDbVisualStyle
  3
ObjectDBX Classes
 90
     4095
280
     0
281
     0
  0
CLASS
  1
SCALE
  2
AcDbScale
  3
ObjectDBX Classes
 90
     1153
280
     0
281
     0
  0
CLASS
  1

  2
exOdDbPolyline
  3

 90
        0
280
     0
281
     1
  0
CLASS
  1

  2
exOdDbCircle
  3

 90
        0
280
     0
281
     1
  0
CLASS
  1

  2
exOdDbSpline
  3

 90
        0
280
     0
281
     1
  0
CLASS
  1
DICTIONARYVAR
  2
AcDbDictionaryVar
  3
ObjectDBX Classes
 90
        0
280
     0
281
     0
  0
CLASS
  1
ACDBPLACEHOLDER
  2
AcDbPlaceHolder
  3
ObjectDBX Classes
 90
        0
280
     0
281
     0
  0
CLASS
  1
LAYOUT
  2
AcDbLayout
  3
ObjectDBX Classes
 90
        0
280
     0
281
     0
  0
ENDSEC
  0
SECTION
  2
TABLES
  0
TABLE
  2
VPORT
  5
8
330
0
100
AcDbSymbolTable
 70
     1
  0
VPORT
  5
29
330
8
100
AcDbSymbolTableRecord
100
AcDbViewportTableRecord
  2
*Active
 70
     0
 10
0.0
 20
0.0
 11
1.0
 21
1.0
 12
141.9260383603725
 22
323.3760825366303
 13
0.0
 23
0.0
 14
0.5
 24
0.5
 15
0.5
 25
0.5
 16
0.0
 26
0.0
 36
1.0
 17
0.0
 27
0.0
 37
0.0
 40
130.1216572617874
 41
1.60267857142857
 42
50.0
 43
0.0
 44
0.0
 50
0.0
 51
0.0
 71
     0
 72
   100
 73
     1
 74
     3
 75
     0
 76
     0
 77
     0
 78
     0
281
     0
 65
     1
110
0.0
120
0.0
130
0.0
111
1.0
121
0.0
131
0.0
112
0.0
122
1.0
132
0.0
 79
     0
146
0.0
  0
ENDTAB
  0
TABLE
  2
LTYPE
  5
5
330
0
100
AcDbSymbolTable
 70
     8
  0
LTYPE
  5
14
330
5
100
AcDbSymbolTableRecord
100
AcDbLinetypeTableRecord
  2
ByBlock
 70
     0
  3

 72
    65
 73
     0
 40
0.0
  0
LTYPE
  5
15
330
5
100
AcDbSymbolTableRecord
100
AcDbLinetypeTableRecord
  2
ByLayer
 70
     0
  3

 72
    65
 73
     0
 40
0.0
  0
LTYPE
  5
16
330
5
100
AcDbSymbolTableRecord
100
AcDbLinetypeTableRecord
  2
Continuous
 70
     0
  3
Solid line
 72
    65
 73
     0
 40
0.0
  0
LTYPE
  5
3B
330
5
100
AcDbSymbolTableRecord
100
AcDbLinetypeTableRecord
  2
DASHED
 70
     0
  3
Dashed
 72
    65
 73
     2
 40
15.0
 49
7.0
 74
     0
 49
-8.0
 74
     0
  0
LTYPE
  5
3C
330
5
100
AcDbSymbolTableRecord
100
AcDbLinetypeTableRecord
  2
DOTTED
 70
     0
  3
Dotted
 72
    65
 73
     2
 40
1.0
 49
0.0
 74
     0
 49
-1.0
 74
     0
  0
LTYPE
  5
3D
330
5
100
AcDbSymbolTableRecord
100
AcDbLinetypeTableRecord
  2
DOT_CENTER
 70
     0
  3
Dot_Center
 72
    65
 73
     4
 40
14.0
 49
12.0
 74
     0
 49
-1.0
 74
     0
 49
0.0
 74
     0
 49
-1.0
 74
     0
  0
LTYPE
  5
3E
330
5
100
AcDbSymbolTableRecord
100
AcDbLinetypeTableRecord
  2
LONG_DASHED
 70
     0
  3
Long_Dashed
 72
    65
 73
     2
 40
15.0
 49
10.0
 74
     0
 49
-5.0
 74
     0
  0
LTYPE
  5
3F
330
5
100
AcDbSymbolTableRecord
100
AcDbLinetypeTableRecord
  2
DASH_CENTER
 70
     0
  3
Dash_Center
 72
    65
 73
     4
 40
14.0
 49
11.0
 74
     0
 49
-1.0
 74
     0
 49
1.0
 74
     0
 49
-1.0
 74
     0
  0
LTYPE
  5
40
330
5
100
AcDbSymbolTableRecord
100
AcDbLinetypeTableRecord
  2
PHANTOM
 70
     0
  3
Phantom
 72
    65
 73
     6
 40
13.0
 49
10.0
 74
     0
 49
-1.0
 74
     0
 49
0.0
 74
     0
 49
-1.0
 74
     0
 49
0.0
 74
     0
 49
-1.0
 74
     0
  0
LTYPE
  5
41
330
5
100
AcDbSymbolTableRecord
100
AcDbLinetypeTableRecord
  2
CENTER_DASH_DASH
 70
     0
  3
Center_Dash_Dash
 72
    65
 73
     6
 40
14.0
 49
9.0
 74
     0
 49
-1.0
 74
     0
 49
1.0
 74
     0
 49
-1.0
 74
     0
 49
1.0
 74
     0
 49
-1.0
 74
     0
  0
ENDTAB
  0
TABLE
  2
LAYER
  5
2
330
0
100
AcDbSymbolTable
 70
     7
  0
LAYER
  5
10
330
2
100
AcDbSymbolTableRecord
100
AcDbLayerTableRecord
  2
0
 70
     0
 62
     7
  6
Continuous
370
    -3
390
F
  0
LAYER
  5
42
330
2
100
AcDbSymbolTableRecord
100
AcDbLayerTableRecord
  2
1
 70
     0
 62
     7
  6
Continuous
370
    -3
390
F
  0
LAYER
  5
43
330
2
100
AcDbSymbolTableRecord
100
AcDbLayerTableRecord
  2
BEZUGSACHSEN
 70
     0
 62
     7
  6
Continuous
370
    -3
390
F
  0
LAYER
  5
44
330
2
100
AcDbSymbolTableRecord
100
AcDbLayerTableRecord
  2
BOHRUNGEN
 70
     0
 62
     7
  6
Continuous
370
    -3
390
F
  0
LAYER
  5
45
330
2
100
AcDbSymbolTableRecord
100
AcDbLayerTableRecord
  2
FASEN
 70
     0
 62
     7
  6
Continuous
370
    -3
390
F
  0
LAYER
  5
46
330
2
100
AcDbSymbolTableRecord
100
AcDbLayerTableRecord
  2
RUNDUNGEN
 70
     0
 62
     7
  6
Continuous
370
    -3
390
F
  0
LAYER
  5
47
330
2
100
AcDbSymbolTableRecord
100
AcDbLayerTableRecord
  2
TEIL_STARTBEZUEGE
 70
     0
 62
     7
  6
Continuous
370
    -3
390
F
  0
ENDTAB
  0
TABLE
  2
STYLE
  5
3
330
0
100
AcDbSymbolTable
 70
     2
  0
STYLE
  5
11
330
3
100
AcDbSymbolTableRecord
100
AcDbTextStyleTableRecord
  2
Standard
 70
     0
 40
0.0
 41
1.0
 50
0.0
 71
     0
 42
0.2
  3
txt
  4

  0
STYLE
  5
6E
330
3
100
AcDbSymbolTableRecord
100
AcDbTextStyleTableRecord
  2
CONVERTER_11
 70
     0
 40
0.0
 41
0.72
 50
0.0
 71
     0
 42
0.2
  3
txt.shx
  4

  0
ENDTAB
  0
TABLE
  2
VIEW
  5
6
330
0
100
AcDbSymbolTable
 70
     0
  0
ENDTAB
  0
TABLE
  2
UCS
  5
7
330
0
100
AcDbSymbolTable
 70
     0
  0
ENDTAB
  0
TABLE
  2
APPID
  5
9
330
0
100
AcDbSymbolTable
 70
     1
  0
APPID
  5
12
330
9
100
AcDbSymbolTableRecord
100
AcDbRegAppTableRecord
  2
ACAD
 70
     0
  0
ENDTAB
  0
TABLE
  2
DIMSTYLE
  5
A
330
0
100
AcDbSymbolTable
 70
     8
100
AcDbDimStyleTable
  0
DIMSTYLE
105
27
330
A
100
AcDbSymbolTableRecord
100
AcDbDimStyleTableRecord
  2
Standard
 70
     0
340
11
  0
DIMSTYLE
105
116
102
{ACAD_REACTORS
330
117
102
}
330
A
100
AcDbSymbolTableRecord
100
AcDbDimStyleTableRecord
  2
ME10_DIM_10
 70
     0
  3
<>
 41
3.5
 42
2.0
 44
2.0
 71
     1
 73
     0
 74
     0
 77
     1
 78
     8
140
3.5
146
0.7
147
2.0
172
     1
173
     1
176
     2
177
     2
178
     3
271
     0
272
     0
340
6E
  0
DIMSTYLE
105
123
102
{ACAD_REACTORS
330
124
102
}
330
A
100
AcDbSymbolTableRecord
100
AcDbDimStyleTableRecord
  2
ME10_DIM_11
 70
     0
  3
\U+2300<>
 41
3.5
 42
2.0
 44
2.0
 71
     1
 73
     0
 74
     0
 77
     1
 78
     8
140
3.5
146
0.7
147
2.0
172
     1
173
     1
176
     2
177
     2
178
     3
271
     2
272
     0
340
6E
  0
DIMSTYLE
105
12E
102
{ACAD_REACTORS
330
12F
102
}
330
A
100
AcDbSymbolTableRecord
100
AcDbDimStyleTableRecord
  2
ME10_DIM_12
 70
     0
  3
\U+2300<>
 41
3.5
 42
2.0
 44
2.0
 71
     1
 73
     0
 74
     0
 77
     1
 78
     8
140
3.5
146
0.7
147
2.0
172
     1
173
     1
176
     2
177
     2
178
     3
271
     2
272
     0
340
6E
  0
DIMSTYLE
105
139
102
{ACAD_REACTORS
330
13A
102
}
330
A
100
AcDbSymbolTableRecord
100
AcDbDimStyleTableRecord
  2
ME10_DIM_13
 70
     0
  3
\U+2300<>
 41
3.5
 42
2.0
 44
2.0
 71
     1
 73
     0
 74
     0
 77
     1
 78
     8
140
3.5
146
0.7
147
2.0
172
     1
173
     1
176
     2
177
     2
178
     3
271
     2
272
     0
340
6E
  0
DIMSTYLE
105
144
102
{ACAD_REACTORS
330
145
102
}
330
A
100
AcDbSymbolTableRecord
100
AcDbDimStyleTableRecord
  2
ME10_DIM_14
 70
     0
  3
<>
 41
3.5
 42
2.0
 44
2.0
 71
     1
 73
     0
 74
     0
 77
     1
 78
     8
140
3.5
146
0.7
147
2.0
172
     1
173
     1
176
     2
177
     2
178
     3
271
     2
272
     0
340
6E
  0
DIMSTYLE
105
14F
102
{ACAD_REACTORS
330
150
102
}
330
A
100
AcDbSymbolTableRecord
100
AcDbDimStyleTableRecord
  2
ME10_DIM_15
 70
     0
  3
<>
 41
3.5
 42
2.0
 44
2.0
 71
     1
 73
     0
 74
     0
 77
     1
 78
     8
140
3.5
146
0.7
147
2.0
172
     1
173
     1
176
     2
177
     2
178
     3
271
     0
272
     0
340
6E
  0
DIMSTYLE
105
161
102
{ACAD_REACTORS
330
162
102
}
330
A
100
AcDbSymbolTableRecord
100
AcDbDimStyleTableRecord
  2
ME10_DIM_16
 70
     0
  3
<>
 41
3.5
 42
2.0
 44
2.0
 71
     1
 73
     0
 74
     0
 77
     1
 78
     8
140
3.5
146
0.7
147
2.0
172
     1
173
     1
176
     2
177
     2
178
     3
271
     2
272
     0
340
6E
  0
ENDTAB
  0
TABLE
  2
BLOCK_RECORD
  5
1
330
0
100
AcDbSymbolTable
 70
    10
  0
BLOCK_RECORD
  5
1F
330
1
100
AcDbSymbolTableRecord
100
AcDbBlockTableRecord
  2
*Model_Space
340
22
  0
BLOCK_RECORD
  5
1B
330
1
100
AcDbSymbolTableRecord
100
AcDbBlockTableRecord
  2
*Paper_Space
340
1E
  0
BLOCK_RECORD
  5
23
330
1
100
AcDbSymbolTableRecord
100
AcDbBlockTableRecord
  2
*Paper_Space0
340
26
  0
BLOCK_RECORD
  5
48
330
1
100
AcDbSymbolTableRecord
100
AcDbBlockTableRecord
  2
Urheberrecht_DE-EN_horizontal
340
0
102
{BLKREFS
331
6D
102
}
  0
BLOCK_RECORD
  5
10D
330
1
100
AcDbSymbolTableRecord
100
AcDbBlockTableRecord
  2
*D2
340
0
  0
BLOCK_RECORD
  5
118
330
1
100
AcDbSymbolTableRecord
100
AcDbBlockTableRecord
  2
*D3
340
0
  0
BLOCK_RECORD
  5
125
330
1
100
AcDbSymbolTableRecord
100
AcDbBlockTableRecord
  2
*D4
340
0
  0
BLOCK_RECORD
  5
130
330
1
100
AcDbSymbolTableRecord
100
AcDbBlockTableRecord
  2
*D5
340
0
  0
BLOCK_RECORD
  5
13B
330
1
100
AcDbSymbolTableRecord
100
AcDbBlockTableRecord
  2
*D6
340
0
  0
BLOCK_RECORD
  5
146
330
1
100
AcDbSymbolTableRecord
100
AcDbBlockTableRecord
  2
*D7
340
0
  0
BLOCK_RECORD
  5
151
330
1
100
AcDbSymbolTableRecord
100
AcDbBlockTableRecord
  2
*D8
340
0
102
{BLKREFS
331
157
102
}
  0
BLOCK_RECORD
  5
158
330
1
100
AcDbSymbolTableRecord
100
AcDbBlockTableRecord
  2
*D9
340
0
  0
ENDTAB
  0
ENDSEC
  0
SECTION
  2
BLOCKS
  0
BLOCK
  5
20
330
1F
100
AcDbEntity
  8
0
100
AcDbBlockBegin
  2
*Model_Space
 70
     0
 10
0.0
 20
0.0
 30
0.0
  3
*Model_Space
  1

  0
ENDBLK
  5
21
330
1F
100
AcDbEntity
  8
0
100
AcDbBlockEnd
  0
BLOCK
  5
1C
330
1B
100
AcDbEntity
 67
     1
  8
0
100
AcDbBlockBegin
  2
*Paper_Space
 70
     0
 10
0.0
 20
0.0
 30
0.0
  3
*Paper_Space
  1

  0
ENDBLK
  5
1D
330
1B
100
AcDbEntity
 67
     1
  8
0
100
AcDbBlockEnd
  0
BLOCK
  5
24
330
23
100
AcDbEntity
  8
0
100
AcDbBlockBegin
  2
*Paper_Space0
 70
     0
 10
0.0
 20
0.0
 30
0.0
  3
*Paper_Space0
  1

  0
ENDBLK
  5
25
330
23
100
AcDbEntity
  8
0
100
AcDbBlockEnd
  0
BLOCK
  5
49
330
48
100
AcDbEntity
  8
0
100
AcDbBlockBegin
  2
Urheberrecht_DE-EN_horizontal
 70
     0
 10
142.033075775632
 20
283.872600258774
 30
0.0
  3
Urheberrecht_DE-EN_horizontal
  1

  0
MTEXT
  5
6F
330
48
100
AcDbEntity
  8
1
 62
     1
100
AcDbMText
 10
88.57929338627277
 20
277.0745922488697
 30
0.0
 40
2.0
 41
0.0
 71
     7
 72
     1
  1
F\U+00fcr diese Unterlage behalten wir das Ur-\Pheberrecht. Sie darf nur f\U+00fcr den von uns \Pbestimmten Zweck benutzt und ohne unsere \PZustimmung weder vervielf\U+00e4ltigt noch\PDritten zug\U+00e4nglich gemacht werden.
  7
CONVERTER_11
 73
     1
 44
0.90036014405762
  0
MTEXT
  5
70
330
48
100
AcDbEntity
  8
1
 62
     1
100
AcDbMText
 10
144.8686803035789
 20
277.0745922488697
 30
0.0
 40
2.0
 41
0.0
 71
     7
 72
     1
  1
We own the copyright of this document. It \Pdetermined and may neither be copied or \Pmade accessible to outsiders without our\Ppermission.
  7
CONVERTER_11
 73
     1
 44
0.90036014405762
  0
ENDBLK
  5
4A
330
48
100
AcDbEntity
  8
0
100
AcDbBlockEnd
  0
BLOCK
  5
114
330
10D
100
AcDbEntity
  8
0
100
AcDbBlockBegin
  2
*D2
 70
     1
 10
0.0
 20
0.0
 30
0.0
  3
*D2
  1

  0
LINE
  5
10E
330
10D
100
AcDbEntity
  8
1
  6
Continuous
 62
     2
100
AcDbLine
 10
205.1586784639
 20
349.240861014928
 30
0.0
 11
101.1086784639
 21
349.240861014928
 31
0.0
  0
LINE
  5
10F
330
10D
100
AcDbEntity
  8
1
  6
Continuous
 62
     2
100
AcDbLine
 10
205.1586784639
 20
330.8959643653
 30
0.0
 11
205.1586784639
 21
351.240861014928
 31
0.0
  0
LINE
  5
110
330
10D
100
AcDbEntity
  8
1
  6
Continuous
 62
     2
100
AcDbLine
 10
101.1086784639
 20
346.3203048384
 30
0.0
 11
101.1086784639
 21
351.240861014928
 31
0.0
  0
SOLID
  5
111
330
10D
100
AcDbEntity
  8
1
 62
     2
100
AcDbTrace
 10
201.6586784639
 20
348.7800772733721
 30
0.0
 11
201.6586784639
 21
349.7016447564839
 31
0.0
 12
205.1586784639
 22
349.240861014928
 32
0.0
 13
205.1586784639
 23
349.240861014928
 33
0.0
  0
SOLID
  5
112
330
10D
100
AcDbEntity
  8
1
 62
     2
100
AcDbTrace
 10
104.6086784639
 20
349.7016447564839
 30
0.0
 11
104.6086784639
 21
348.7800772733721
 31
0.0
 12
101.1086784639
 22
349.240861014928
 32
0.0
 13
101.1086784639
 23
349.240861014928
 33
0.0
  0
MTEXT
  5
113
330
10D
100
AcDbEntity
  8
1
 62
     3
100
AcDbMText
 10
150.1033138581834
 20
351.240861014928
 30
0.0
 40
3.5
 41
0.0
 71
     7
 72
     1
  1
\C3;\C3;\C3;104\C2;\H2.45;\S^ ;\C3;
  7
CONVERTER_11
 11
0.9999999999970619
 21
2.424068405545306E-6
 31
0.0
 73
     1
 44
0.60024009603842
  0
ENDBLK
  5
115
330
10D
100
AcDbEntity
  8
0
100
AcDbBlockEnd
  0
BLOCK
  5
121
330
118
100
AcDbEntity
  8
0
100
AcDbBlockBegin
  2
*D3
 70
     1
 10
0.0
 20
0.0
 30
0.0
  3
*D3
  1

  0
LINE
  5
119
330
118
100
AcDbEntity
  8
1
  6
Continuous
 62
     2
100
AcDbLine
 10
215.915240194326
 20
330.3203548569
 30
0.0
 11
215.915240194326
 21
323.3203548569
 31
0.0
  0
LINE
  5
11A
330
118
100
AcDbEntity
  8
1
  6
Continuous
 62
     2
100
AcDbLine
 10
215.915240194326
 20
323.3203548569
 30
0.0
 11
215.915240194326
 21
315.3203548569
 31
0.0
  0
LINE
  5
11B
330
118
100
AcDbEntity
  8
1
  6
Continuous
 62
     2
100
AcDbLine
 10
215.915240194326
 20
315.3203548569
 30
0.0
 11
215.915240194326
 21
308.3203548569
 31
0.0
  0
LINE
  5
11C
330
118
100
AcDbEntity
  8
1
  6
Continuous
 62
     2
100
AcDbLine
 10
207.1586784639
 20
323.3203548569
 30
0.0
 11
217.915240194326
 21
323.3203548569
 31
0.0
  0
LINE
  5
11D
330
118
100
AcDbEntity
  8
1
  6
Continuous
 62
     2
100
AcDbLine
 10
207.1586784639
 20
315.3203548569
 30
0.0
 11
217.915240194326
 21
315.3203548569
 31
0.0
  0
SOLID
  5
11E
330
118
100
AcDbEntity
  8
1
 62
     2
100
AcDbTrace
 10
215.4544564527701
 20
326.8203548569
 30
0.0
 11
216.3760239358819
 21
326.8203548569
 31
0.0
 12
215.915240194326
 22
323.3203548569
 32
0.0
 13
215.915240194326
 23
323.3203548569
 33
0.0
  0
SOLID
  5
11F
330
118
100
AcDbEntity
  8
1
 62
     2
100
AcDbTrace
 10
216.3760239358819
 20
311.8203548569
 30
0.0
 11
215.4544564527701
 21
311.8203548569
 31
0.0
 12
215.915240194326
 22
315.3203548569
 32
0.0
 13
215.915240194326
 23
315.3203548569
 33
0.0
  0
MTEXT
  5
120
330
118
100
AcDbEntity
  8
1
 62
     3
100
AcDbMText
 10
213.915240194326
 20
311.750691169242
 30
0.0
 40
3.5
 41
0.0
 71
     7
 72
     1
  1
\C3;%%c\C3;\C3;8\C2;\H2.45;\S^ ;\C3;
  7
CONVERTER_11
 11
0.0
 21
1.0
 31
0.0
 73
     1
 44
0.60024009603842
  0
ENDBLK
  5
122
330
118
100
AcDbEntity
  8
0
100
AcDbBlockEnd
  0
BLOCK
  5
12C
330
125
100
AcDbEntity
  8
0
100
AcDbBlockBegin
  2
*D4
 70
     1
 10
0.0
 20
0.0
 30
0.0
  3
*D4
  1

  0
LINE
  5
126
330
125
100
AcDbEntity
  8
1
  6
Continuous
 62
     2
100
AcDbLine
 10
226.26968196524
 20
329.8203548569466
 30
0.0
 11
226.26968196524
 21
308.8203548569486
 31
0.0
  0
LINE
  5
127
330
125
100
AcDbEntity
  8
1
  6
Continuous
 62
     2
100
AcDbLine
 10
207.1586784639
 20
329.8203548569466
 30
0.0
 11
228.26968196524
 21
329.8203548569466
 31
0.0
  0
LINE
  5
128
330
125
100
AcDbEntity
  8
1
  6
Continuous
 62
     2
100
AcDbLine
 10
207.1586784639
 20
308.8203548569486
 30
0.0
 11
228.26968196524
 21
308.8203548569486
 31
0.0
  0
SOLID
  5
129
330
125
100
AcDbEntity
  8
1
 62
     2
100
AcDbTrace
 10
226.7304657067959
 20
326.3203548569466
 30
0.0
 11
225.8088982236841
 21
326.3203548569466
 31
0.0
 12
226.26968196524
 22
329.8203548569466
 32
0.0
 13
226.26968196524
 23
329.8203548569466
 33
0.0
  0
SOLID
  5
12A
330
125
100
AcDbEntity
  8
1
 62
     2
100
AcDbTrace
 10
225.8088982236841
 20
312.3203548569486
 30
0.0
 11
226.7304657067959
 21
312.3203548569486
 31
0.0
 12
226.26968196524
 22
308.8203548569486
 32
0.0
 13
226.26968196524
 23
308.8203548569486
 33
0.0
  0
MTEXT
  5
12B
330
125
100
AcDbEntity
  8
1
 62
     3
100
AcDbMText
 10
224.26968196524
 20
311.418884630392
 30
0.0
 40
3.5
 41
0.0
 71
     7
 72
     1
  1
\C3;%%c\C3;\C3;21\C2;\H2.45;\S^ ;\C3;
  7
CONVERTER_11
 11
0.0
 21
1.0
 31
0.0
 73
     1
 44
0.60024009603842
  0
ENDBLK
  5
12D
330
125
100
AcDbEntity
  8
0
100
AcDbBlockEnd
  0
BLOCK
  5
137
330
130
100
AcDbEntity
  8
0
100
AcDbBlockBegin
  2
*D5
 70
     1
 10
0.0
 20
0.0
 30
0.0
  3
*D5
  1

  0
LINE
  5
131
330
130
100
AcDbEntity
  8
1
  6
Continuous
 62
     2
100
AcDbLine
 10
234.718398256845
 20
332.8203548568999
 30
0.0
 11
234.718398256845
 21
305.8203548568999
 31
0.0
  0
LINE
  5
132
330
130
100
AcDbEntity
  8
1
  6
Continuous
 62
     2
100
AcDbLine
 10
169.0400642553
 20
332.8203548568999
 30
0.0
 11
236.718398256845
 21
332.8203548568999
 31
0.0
  0
LINE
  5
133
330
130
100
AcDbEntity
  8
1
  6
Continuous
 62
     2
100
AcDbLine
 10
169.0400642553
 20
305.8203548568999
 30
0.0
 11
236.718398256845
 21
305.8203548568999
 31
0.0
  0
SOLID
  5
134
330
130
100
AcDbEntity
  8
1
 62
     2
100
AcDbTrace
 10
235.1791819984009
 20
329.3203548568999
 30
0.0
 11
234.2576145152891
 21
329.3203548568999
 31
0.0
 12
234.718398256845
 22
332.8203548568999
 32
0.0
 13
234.718398256845
 23
332.8203548568999
 33
0.0
  0
SOLID
  5
135
330
130
100
AcDbEntity
  8
1
 62
     2
100
AcDbTrace
 10
234.2576145152891
 20
309.3203548568999
 30
0.0
 11
235.1791819984009
 21
309.3203548568999
 31
0.0
 12
234.718398256845
 22
305.8203548568999
 32
0.0
 13
234.718398256845
 23
305.8203548568999
 33
0.0
  0
MTEXT
  5
136
330
130
100
AcDbEntity
  8
1
 62
     3
100
AcDbMText
 10
232.718398256845
 20
311.1894571783219
 30
0.0
 40
3.5
 41
0.0
 71
     7
 72
     1
  1
\C3;%%c\C3;\C3;27\C2;\H2.45;\S^ ;\C3;
  7
CONVERTER_11
 11
0.0
 21
1.0
 31
0.0
 73
     1
 44
0.60024009603842
  0
ENDBLK
  5
138
330
130
100
AcDbEntity
  8
0
100
AcDbBlockEnd
  0
BLOCK
  5
142
330
13B
100
AcDbEntity
  8
0
100
AcDbBlockBegin
  2
*D6
 70
     1
 10
0.0
 20
0.0
 30
0.0
  3
*D6
  1

  0
LINE
  5
13C
330
13B
100
AcDbEntity
  8
1
  6
Continuous
 62
     2
100
AcDbLine
 10
75.1586784639
 20
357.364631895693
 30
0.0
 11
205.1586784639
 21
357.364631895693
 31
0.0
  0
LINE
  5
13D
330
13B
100
AcDbEntity
  8
1
  6
Continuous
 62
     2
100
AcDbLine
 10
75.1586784639
 20
346.3203548569
 30
0.0
 11
75.1586784639
 21
359.364631895693
 31
0.0
  0
LINE
  5
13E
330
13B
100
AcDbEntity
  8
1
  6
Continuous
 62
     2
100
AcDbLine
 10
205.1586784639
 20
330.8959643653
 30
0.0
 11
205.1586784639
 21
359.364631895693
 31
0.0
  0
SOLID
  5
13F
330
13B
100
AcDbEntity
  8
1
 62
     2
100
AcDbTrace
 10
78.6586784639
 20
357.8254156372489
 30
0.0
 11
78.6586784639
 21
356.9038481541371
 31
0.0
 12
75.1586784639
 22
357.364631895693
 32
0.0
 13
75.1586784639
 23
357.364631895693
 33
0.0
  0
SOLID
  5
140
330
13B
100
AcDbEntity
  8
1
 62
     2
100
AcDbTrace
 10
201.6586784639
 20
356.9038481541371
 30
0.0
 11
201.6586784639
 21
357.8254156372489
 31
0.0
 12
205.1586784639
 22
357.364631895693
 32
0.0
 13
205.1586784639
 23
357.364631895693
 33
0.0
  0
MTEXT
  5
141
330
13B
100
AcDbEntity
  8
1
 62
     3
100
AcDbMText
 10
137.6000124011619
 20
359.364631895693
 30
0.0
 40
3.5
 41
0.0
 71
     7
 72
     1
  1
\C3;\C3;\C3;130\C2;\H2.45;\S^ ;\C3;
  7
CONVERTER_11
 11
0.9999999999970619
 21
2.424068405545306E-6
 31
0.0
 73
     1
 44
0.60024009603842
  0
ENDBLK
  5
143
330
13B
100
AcDbEntity
  8
0
100
AcDbBlockEnd
  0
BLOCK
  5
14D
330
146
100
AcDbEntity
  8
0
100
AcDbBlockBegin
  2
*D7
 70
     1
 10
0.0
 20
0.0
 30
0.0
  3
*D7
  1

  0
LINE
  5
147
330
146
100
AcDbEntity
  8
1
  6
Continuous
 62
     2
100
AcDbLine
 10
205.1586784639
 20
364.777572824391
 30
0.0
 11
50.25867846389997
 21
364.777572824391
 31
0.0
  0
LINE
  5
148
330
146
100
AcDbEntity
  8
1
  6
Continuous
 62
     2
100
AcDbLine
 10
205.1586784639
 20
330.8959643653
 30
0.0
 11
205.1586784639
 21
366.777572824391
 31
0.0
  0
LINE
  5
149
330
146
100
AcDbEntity
  8
1
  6
Continuous
 62
     2
100
AcDbLine
 10
50.25867846389997
 20
338.3767106381
 30
0.0
 11
50.25867846389997
 21
366.777572824391
 31
0.0
  0
SOLID
  5
14A
330
146
100
AcDbEntity
  8
1
 62
     2
100
AcDbTrace
 10
201.6586784639
 20
364.3167890828351
 30
0.0
 11
201.6586784639
 21
365.2383565659468
 31
0.0
 12
205.1586784639
 22
364.777572824391
 32
0.0
 13
205.1586784639
 23
364.777572824391
 33
0.0
  0
SOLID
  5
14B
330
146
100
AcDbEntity
  8
1
 62
     2
100
AcDbTrace
 10
53.75867846389997
 20
365.2383565659468
 30
0.0
 11
53.75867846389997
 21
364.3167890828351
 31
0.0
 12
50.25867846389997
 22
364.777572824391
 32
0.0
 13
50.25867846389997
 23
364.777572824391
 33
0.0
  0
MTEXT
  5
14C
330
146
100
AcDbEntity
  8
1
 62
     3
100
AcDbMText
 10
127.3049280015895
 20
366.777572824391
 30
0.0
 40
3.5
 41
0.0
 71
     7
 72
     1
  1
\C3;\C3;\C3;155\C2;\H2.45;\S^ ;\C3;
  7
CONVERTER_11
 11
0.9999999999970619
 21
2.424068405545306E-6
 31
0.0
 73
     1
 44
0.60024009603842
  0
ENDBLK
  5
14E
330
146
100
AcDbEntity
  8
0
100
AcDbBlockEnd
  0
BLOCK
  5
155
330
151
100
AcDbEntity
  8
0
100
AcDbBlockBegin
  2
*D8
 70
     1
 10
0.0
 20
0.0
 30
0.0
  3
*D8
  1

  0
LINE
  5
152
330
151
100
AcDbEntity
  8
1
  6
Continuous
 62
     2
100
AcDbLine
 10
114.7333558591956
 20
342.7654687099414
 30
0.0
 11
101.6432392806184
 21
337.5395893176994
 31
0.0
  0
SOLID
  5
153
330
151
100
AcDbEntity
  8
1
 62
     2
100
AcDbTrace
 10
104.7229333595442
 20
339.2652213864533
 30
0.0
 11
105.0646217727555
 21
338.409338418866
 31
0.0
 12
101.6432392806184
 22
337.5395893176994
 32
0.0
 13
101.6432392806184
 23
337.5395893176994
 33
0.0
  0
MTEXT
  5
154
330
151
100
AcDbEntity
  8
1
 62
     3
100
AcDbMText
 10
103.9151496969281
 20
340.6000783454396
 30
0.0
 40
3.5
 41
0.0
 71
     7
 72
     1
  1
\C3; R\C3;\C3;7.5\C2;\H2.45;\S^ ;\C3;
  7
CONVERTER_11
 11
0.9287252244375434
 21
0.3707687385600825
 31
0.0
 73
     1
 44
0.60024009603842
  0
ENDBLK
  5
156
330
151
100
AcDbEntity
  8
0
100
AcDbBlockEnd
  0
BLOCK
  5
15F
330
158
100
AcDbEntity
  8
0
100
AcDbBlockBegin
  2
*D9
 70
     1
 10
0.0
 20
0.0
 30
0.0
  3
*D9
  1

  0
LINE
  5
159
330
158
100
AcDbEntity
  8
1
  6
Continuous
 62
     2
100
AcDbLine
 10
191.2471934786474
 20
332.8203548568998
 30
0.0
 11
193.2471934786474
 21
332.8203548568998
 31
0.0
  0
LINE
  5
15A
330
158
100
AcDbEntity
  8
1
  6
Continuous
 62
     2
100
AcDbLine
 10
169.0400642553
 20
332.8203548568999
 30
0.0
 11
191.2471934786474
 21
332.8203548568998
 31
0.0
  0
ARC
  5
15B
330
158
100
AcDbEntity
  8
1
  6
Continuous
 62
     2
100
AcDbCircle
 10
167.0400642553
 20
332.8203548568999
 30
0.0
 40
24.20712922334737
100
AcDbArc
 50
343.0737911890647
 51
21.19539637416466
  0
SOLID
  5
15C
330
158
100
AcDbEntity
  8
1
 62
     2
100
AcDbTrace
 10
191.1022085755673
 20
327.3915853115581
 30
0.0
 11
190.1911042768447
 21
327.5300612400738
 31
0.0
 12
191.1725709779742
 22
330.9210853878876
 32
0.0
 13
191.1725709779742
 23
330.9210853878876
 33
0.0
  0
SOLID
  5
15D
330
158
100
AcDbEntity
  8
1
 62
     2
100
AcDbTrace
 10
190.5348090000356
 20
336.27793059882
 30
0.0
 11
191.4539693644022
 21
336.3444952328713
 31
0.0
 12
191.2471934786474
 22
332.8203548568998
 32
0.0
 13
191.2471934786474
 23
332.8203548568998
 33
0.0
  0
MTEXT
  5
15E
330
158
100
AcDbEntity
  8
1
 62
     3
100
AcDbMText
 10
191.6956387551382
 20
342.3813429445482
 30
0.0
 40
3.5
 41
0.0
 71
     7
 72
     1
  1
\C3;\C3;\C3;4.5%%d\C2;\H2.45;\S^ ;\C3;
  7
CONVERTER_11
 11
0.2336712333306538
 21
-0.9723156661875459
 31
0.0
 73
     1
 44
0.60024009603842
  0
ENDBLK
  5
160
330
158
100
AcDbEntity
  8
0
100
AcDbBlockEnd
  0
ENDSEC
  0
SECTION
  2
ENTITIES
  0
INSERT
  5
6D
330
1F
100
AcDbEntity
  8
0
100
AcDbBlockReference
  2
Urheberrecht_DE-EN_horizontal
 10
142.033075775632
 20
283.872600258774
 30
0.0
  0
LWPOLYLINE
  5
71
330
1F
100
AcDbEntity
  8
1
  6
Continuous
 62
     7
100
AcDbPolyline
 90
        2
 70
     0
 43
0.5
 10
101.1086784639
 20
340.3203548569
 10
101.1086784639
 20
298.3203548569
  0
LINE
  5
72
330
1F
100
AcDbEntity
  8
0
  6
Continuous
 62
     7
100
AcDbLine
 10
101.1086784639
 20
344.3203048384
 30
0.0
 11
101.1086784639
 21
340.3203548569
 31
0.0
  0
LINE
  5
73
330
1F
100
AcDbEntity
  8
0
  6
Continuous
 62
     7
100
AcDbLine
 10
50.2586784639
 20
302.2639990755
 30
0.0
 11
50.2586784639
 21
312.9003548569
 31
0.0
  0
LINE
  5
74
330
1F
100
AcDbEntity
  8
0
  6
Continuous
 62
     7
100
AcDbLine
 10
50.2586784639
 20
325.7403548569
 30
0.0
 11
50.2586784639
 21
336.3767106381
 31
0.0
  0
LINE
  5
75
330
1F
100
AcDbEntity
  8
0
  6
Continuous
 62
     9
100
AcDbLine
 10
51.2086412215
 20
337.3754579911
 30
0.0
 11
51.2086412215
 21
327.1688674029
 31
0.0
  0
LINE
  5
76
330
1F
100
AcDbEntity
  8
0
  6
Continuous
 62
     9
100
AcDbLine
 10
51.2086412215
 20
311.4718423109
 30
0.0
 11
51.2086412215
 21
301.2652517228
 31
0.0
  0
LINE
  5
77
330
1F
100
AcDbEntity
  8
0
  6
Continuous
 62
     7
100
AcDbLine
 10
51.4086784639
 20
313.0109950974
 30
0.0
 11
51.4086784639
 21
314.0503548569
 31
0.0
  0
LINE
  5
78
330
1F
100
AcDbEntity
  8
0
  6
Continuous
 62
     7
100
AcDbLine
 10
51.4086784639
 20
324.5903548569
 30
0.0
 11
51.4086784639
 21
325.6297146164
 31
0.0
  0
LINE
  5
79
330
1F
100
AcDbEntity
  8
RUNDUNGEN
  6
Continuous
 62
     9
100
AcDbLine
 10
53.4586784639
 20
311.2158840593
 30
0.0
 11
53.4586784639
 21
314.0503548569
 31
0.0
  0
LINE
  5
7A
330
1F
100
AcDbEntity
  8
RUNDUNGEN
  6
Continuous
 62
     9
100
AcDbLine
 10
53.4586784639
 20
324.5903548569
 30
0.0
 11
53.4586784639
 21
327.4248256545
 31
0.0
  0
LINE
  5
7B
330
1F
100
AcDbEntity
  8
RUNDUNGEN
  6
Continuous
 62
     7
100
AcDbLine
 10
54.85867846390001
 20
325.2515051037
 30
0.0
 11
54.85867846390001
 21
313.3892046101
 31
0.0
  0
LINE
  5
7C
330
1F
100
AcDbEntity
  8
0
  6
Continuous
 62
     7
100
AcDbLine
 10
50.99516867369999
 20
311.6703548569
 30
0.0
 11
50.94674919489999
 21
311.5843971509
 31
0.0
  0
LINE
  5
7D
330
1F
100
AcDbEntity
  8
0
  6
Continuous
 62
     7
100
AcDbLine
 10
50.94674919489999
 20
327.056312563
 30
0.0
 11
50.99516867369999
 21
326.9703548569
 31
0.0
  0
LWPOLYLINE
  5
7E
330
1F
100
AcDbEntity
  8
BEZUGSACHSEN
  6
DOT_CENTER
 62
     7
100
AcDbPolyline
 90
        2
 70
     0
 43
0.25
 10
67.6586784639
 20
313.3203548569
 10
67.6586784639
 20
325.3203548569
  0
LINE
  5
7F
330
1F
100
AcDbEntity
  8
0
  6
Continuous
 62
     7
100
AcDbLine
 10
50.2586784639
 20
312.9003548569
 30
0.0
 11
51.4086784639
 21
314.0503548569
 31
0.0
  0
LINE
  5
80
330
1F
100
AcDbEntity
  8
0
  6
Continuous
 62
     7
100
AcDbLine
 10
51.4086784639
 20
324.5903548569
 30
0.0
 11
50.2586784639
 21
325.7403548569
 31
0.0
  0
LINE
  5
81
330
1F
100
AcDbEntity
  8
0
  6
Continuous
 62
     7
100
AcDbLine
 10
73.1586784639
 20
338.4751548569
 30
0.0
 11
73.1586784639
 21
300.1655548569
 31
0.0
  0
LINE
  5
82
330
1F
100
AcDbEntity
  8
0
  6
Continuous
 62
     9
100
AcDbLine
 10
73.8287886969
 20
300.3451103527
 30
0.0
 11
73.8287886969
 21
338.2955993612
 31
0.0
  0
LINE
  5
83
330
1F
100
AcDbEntity
  8
0
  6
Continuous
 62
     9
100
AcDbLine
 10
73.9840801239
 20
300.3655548569
 30
0.0
 11
73.9840801239
 21
338.2751548569
 31
0.0
  0
LINE
  5
84
330
1F
100
AcDbEntity
  8
0
  6
Continuous
 62
     9
100
AcDbLine
 10
74.8565088333
 20
300.3655548569
 30
0.0
 11
74.8565088333
 21
338.2751548569
 31
0.0
  0
LINE
  5
85
330
1F
100
AcDbEntity
  8
0
  6
Continuous
 62
     7
100
AcDbLine
 10
75.1586784639
 20
344.3203548569
 30
0.0
 11
75.1586784639
 21
294.3203548569
 31
0.0
  0
LINE
  5
86
330
1F
100
AcDbEntity
  8
0
  6
Continuous
 62
     7
100
AcDbLine
 10
89.7667456324
 20
294.3203548569
 30
0.0
 11
75.1586784639
 21
294.3203548569
 31
0.0
  0
LINE
  5
87
330
1F
100
AcDbEntity
  8
0
  6
Continuous
 62
     7
100
AcDbLine
 10
96.5506112953
 20
294.3203548569
 30
0.0
 11
101.1086784639
 21
294.3203548569
 31
0.0
  0
LWPOLYLINE
  5
88
330
1F
100
AcDbEntity
  8
BEZUGSACHSEN
  6
DOT_CENTER
 62
     7
100
AcDbPolyline
 90
        2
 70
     0
 43
0.25
 10
82.1586784639
 20
350.2152522848
 10
82.1586784639
 20
336.2152522848
  0
LINE
  5
89
330
1F
100
AcDbEntity
  8
0
  6
Continuous
 62
     9
100
AcDbLine
 10
50.2586784639
 20
312.3632067459
 30
0.0
 11
51.4086784639
 21
313.0109950974
 31
0.0
  0
LINE
  5
8A
330
1F
100
AcDbEntity
  8
0
  6
Continuous
 62
     7
100
AcDbLine
 10
91.9961784639
 20
297.8453548569
 30
0.0
 11
94.3211784639
 21
297.8453548569
 31
0.0
  0
LINE
  5
8B
330
1F
100
AcDbEntity
  8
0
  6
Continuous
 62
     7
100
AcDbLine
 10
73.1586784639
 20
300.1655548569
 30
0.0
 11
51.2086412215
 21
301.2652517228
 31
0.0
  0
LINE
  5
8C
330
1F
100
AcDbEntity
  8
0
  6
Continuous
 62
     7
100
AcDbLine
 10
95.0711784639
 20
341.7579020264
 30
0.0
 11
96.5506112953
 21
344.3203548569
 31
0.0
  0
LINE
  5
8D
330
1F
100
AcDbEntity
  8
0
  6
Continuous
 62
     7
100
AcDbLine
 10
82.4910047467
 20
299.5877042494
 30
0.0
 11
89.7667456324
 21
299.5877042494
 31
0.0
  0
LINE
  5
8E
330
1F
100
AcDbEntity
  8
0
  6
Continuous
 62
     7
100
AcDbLine
 10
96.5506112953
 20
299.5877042494
 30
0.0
 11
101.1086784639
 21
299.5877042494
 31
0.0
  0
LINE
  5
8F
330
1F
100
AcDbEntity
  8
0
  6
Continuous
 62
     7
100
AcDbLine
 10
74.8565088333
 20
300.3655548569
 30
0.0
 11
73.9840801239
 21
300.3655548569
 31
0.0
  0
LINE
  5
90
330
1F
100
AcDbEntity
  8
0
  6
Continuous
 62
     9
100
AcDbLine
 10
51.4086784639
 20
325.6297146164
 30
0.0
 11
50.2586784639
 21
326.2775029679
 31
0.0
  0
LINE
  5
91
330
1F
100
AcDbEntity
  8
0
  6
Continuous
 62
     7
100
AcDbLine
 10
95.0711784639
 20
296.8828076875
 30
0.0
 11
96.5506112953
 21
294.3203548569
 31
0.0
  0
LINE
  5
92
330
1F
100
AcDbEntity
  8
FASEN
  6
Continuous
 62
     9
100
AcDbLine
 10
87.8523647367
 20
303.5703548569
 30
0.0
 11
87.8523647367
 21
303.9703548569
 31
0.0
  0
LINE
  5
93
330
1F
100
AcDbEntity
  8
FASEN
  6
Continuous
 62
     9
100
AcDbLine
 10
88.1261784639
 20
313.7028548569
 30
0.0
 11
88.1261784639
 21
313.3028548569
 31
0.0
  0
LINE
  5
94
330
1F
100
AcDbEntity
  8
FASEN
  6
Continuous
 62
     9
100
AcDbLine
 10
88.1261784639
 20
324.9378548569
 30
0.0
 11
88.1261784639
 21
325.3378548569
 31
0.0
  0
LINE
  5
95
330
1F
100
AcDbEntity
  8
0
  6
Continuous
 62
     7
100
AcDbLine
 10
89.7667456324
 20
344.3203548569
 30
0.0
 11
89.7667456324
 21
325.3378548569
 31
0.0
  0
LINE
  5
96
330
1F
100
AcDbEntity
  8
0
  6
Continuous
 62
     7
100
AcDbLine
 10
89.7667456324
 20
313.3028548569
 30
0.0
 11
89.7667456324
 21
303.9703548569
 31
0.0
  0
LINE
  5
97
330
1F
100
AcDbEntity
  8
0
  6
Continuous
 62
     7
100
AcDbLine
 10
89.7667456324
 20
299.5877042494
 30
0.0
 11
89.7667456324
 21
294.3203548569
 31
0.0
  0
LINE
  5
98
330
1F
100
AcDbEntity
  8
0
  6
Continuous
 62
     7
100
AcDbLine
 10
91.2461784639
 20
341.7578474142
 30
0.0
 11
91.2461784639
 21
325.3378548569
 31
0.0
  0
LINE
  5
99
330
1F
100
AcDbEntity
  8
0
  6
Continuous
 62
     7
100
AcDbLine
 10
91.2461784639
 20
313.3028548569
 30
0.0
 11
91.2461784639
 21
303.9703548569
 31
0.0
  0
LINE
  5
9A
330
1F
100
AcDbEntity
  8
0
  6
Continuous
 62
     7
100
AcDbLine
 10
91.2461784639
 20
296.8828215287
 30
0.0
 11
91.2461784639
 21
303.2477656131
 31
0.0
  0
LINE
  5
9B
330
1F
100
AcDbEntity
  8
RUNDUNGEN
  6
Continuous
 62
     7
100
AcDbLine
 10
204.2371375596
 20
308.7478280149
 30
0.0
 11
167.0400642553
 21
305.8203548568998
 31
0.0
  0
LINE
  5
9C
330
1F
100
AcDbEntity
  8
0
  6
Continuous
 62
     7
100
AcDbLine
 10
167.0400642553
 20
305.8203548568998
 30
0.0
 11
204.2371375596
 21
308.7478280149
 31
0.0
  0
LINE
  5
9D
330
1F
100
AcDbEntity
  8
0
  6
Continuous
 62
     7
100
AcDbLine
 10
87.8523647367
 20
303.5703548569
 30
0.0
 11
91.2830153581
 21
303.5703548569
 31
0.0
  0
LINE
  5
9E
330
1F
100
AcDbEntity
  8
0
  6
Continuous
 62
     7
100
AcDbLine
 10
95.0343415697
 20
303.5703548569
 30
0.0
 11
101.1086784639
 21
303.5703548569
 31
0.0
  0
LINE
  5
9F
330
1F
100
AcDbEntity
  8
0
  6
Continuous
 62
     7
100
AcDbLine
 10
87.8523647367
 20
303.9703548569
 30
0.0
 11
91.2830153581
 21
303.9703548569
 31
0.0
  0
LINE
  5
A0
330
1F
100
AcDbEntity
  8
0
  6
Continuous
 62
     7
100
AcDbLine
 10
95.0343415697
 20
303.9703548569
 30
0.0
 11
101.1086784639
 21
303.9703548569
 31
0.0
  0
LINE
  5
A1
330
1F
100
AcDbEntity
  8
0
  6
Continuous
 62
     7
100
AcDbLine
 10
108.6086784639
 20
305.8203548568999
 30
0.0
 11
167.0400642553
 21
305.8203548568998
 31
0.0
  0
LINE
  5
A2
330
1F
100
AcDbEntity
  8
0
  6
Continuous
 62
     9
100
AcDbLine
 10
91.9961784639
 20
297.8453548569
 30
0.0
 11
91.9961784639
 21
314.3841999769
 31
0.0
  0
LINE
  5
A3
330
1F
100
AcDbEntity
  8
0
  6
Continuous
 62
     9
100
AcDbLine
 10
91.9961784639
 20
324.256509737
 30
0.0
 11
91.9961784639
 21
340.7953548569
 31
0.0
  0
LINE
  5
A4
330
1F
100
AcDbEntity
  8
0
  6
Continuous
 62
     9
100
AcDbLine
 10
94.3211784639
 20
297.8453548569
 30
0.0
 11
94.3211784639
 21
314.3841999769
 31
0.0
  0
LINE
  5
A5
330
1F
100
AcDbEntity
  8
0
  6
Continuous
 62
     9
100
AcDbLine
 10
94.3211784639
 20
324.256509737
 30
0.0
 11
94.3211784639
 21
340.7953548569
 31
0.0
  0
LINE
  5
A6
330
1F
100
AcDbEntity
  8
0
  6
Continuous
 62
     7
100
AcDbLine
 10
95.0711784639
 20
313.3028548569
 30
0.0
 11
95.0711784639
 21
303.9703548569
 31
0.0
  0
LINE
  5
A7
330
1F
100
AcDbEntity
  8
0
  6
Continuous
 62
     7
100
AcDbLine
 10
95.0711784639
 20
296.8828215287
 30
0.0
 11
95.0711784639
 21
303.2477656131
 31
0.0
  0
LINE
  5
A8
330
1F
100
AcDbEntity
  8
0
  6
Continuous
 62
     7
100
AcDbLine
 10
95.0711784639
 20
325.3378548569
 30
0.0
 11
95.0711784639
 21
341.7578474142
 31
0.0
  0
LINE
  5
A9
330
1F
100
AcDbEntity
  8
0
  6
Continuous
 62
     7
100
AcDbLine
 10
73.8287886969
 20
300.3451103527
 30
0.0
 11
73.1586784639
 21
300.1655548569
 31
0.0
  0
LINE
  5
AA
330
1F
100
AcDbEntity
  8
0
  6
Continuous
 62
     7
100
AcDbLine
 10
96.5506112953
 20
313.3028548569
 30
0.0
 11
96.5506112953
 21
303.9703548569
 31
0.0
  0
LINE
  5
AB
330
1F
100
AcDbEntity
  8
0
  6
Continuous
 62
     7
100
AcDbLine
 10
96.5506112953
 20
294.3203548569
 30
0.0
 11
96.5506112953
 21
299.5877042494
 31
0.0
  0
LINE
  5
AC
330
1F
100
AcDbEntity
  8
0
  6
Continuous
 62
     7
100
AcDbLine
 10
96.5506112953
 20
325.3378548569
 30
0.0
 11
96.5506112953
 21
344.3203548569
 31
0.0
  0
LINE
  5
AD
330
1F
100
AcDbEntity
  8
RUNDUNGEN
  6
Continuous
 62
     9
100
AcDbLine
 10
54.2767366401
 20
311.6703548569
 30
0.0
 11
53.4586784639
 21
311.6703548569
 31
0.0
  0
LINE
  5
AE
330
1F
100
AcDbEntity
  8
0
  6
Continuous
 62
     9
100
AcDbLine
 10
53.4586784639
 20
311.6703548569
 30
0.0
 11
50.99516867369999
 21
311.6703548569
 31
0.0
  0
LINE
  5
AF
330
1F
100
AcDbEntity
  8
0
  6
Continuous
 62
     7
100
AcDbLine
 10
88.1261784639
 20
313.3028548569
 30
0.0
 11
91.2461784639
 21
313.3028548569
 31
0.0
  0
LINE
  5
B0
330
1F
100
AcDbEntity
  8
0
  6
Continuous
 62
     7
100
AcDbLine
 10
95.0711784639
 20
313.3028548569
 30
0.0
 11
101.1086784639
 21
313.3028548569
 31
0.0
  0
LINE
  5
B1
330
1F
100
AcDbEntity
  8
0
  6
Continuous
 62
     7
100
AcDbLine
 10
101.1086784639
 20
313.7028548569
 30
0.0
 11
94.7927136111
 21
313.7028548569
 31
0.0
  0
LINE
  5
B2
330
1F
100
AcDbEntity
  8
0
  6
Continuous
 62
     7
100
AcDbLine
 10
91.5246433166
 20
313.7028548569
 30
0.0
 11
88.1261784639
 21
313.7028548569
 31
0.0
  0
LINE
  5
B3
330
1F
100
AcDbEntity
  8
0
  6
Continuous
 62
     7
100
AcDbLine
 10
53.4586784639
 20
314.0503548569
 30
0.0
 11
51.4086784639
 21
314.0503548569
 31
0.0
  0
LINE
  5
B4
330
1F
100
AcDbEntity
  8
0
  6
Continuous
 62
     7
100
AcDbLine
 10
91.9961784639
 20
314.3841999769
 30
0.0
 11
94.3211784639
 21
314.3841999769
 31
0.0
  0
LINE
  5
B5
330
1F
100
AcDbEntity
  8
0
  6
Continuous
 62
     7
100
AcDbLine
 10
101.1086784639
 20
298.3203548569
 30
0.0
 11
101.1086784639
 21
294.320368401
 31
0.0
  0
LINE
  5
B6
330
1F
100
AcDbEntity
  8
RUNDUNGEN
  6
Continuous
 62
     9
100
AcDbLine
 10
108.6086784639
 20
332.8203548569
 30
0.0
 11
108.6086784639
 21
305.8203548568999
 31
0.0
  0
LWPOLYLINE
  5
B7
330
1F
100
AcDbEntity
  8
BOHRUNGEN
  6
DASHED
 62
     8
100
AcDbPolyline
 90
        2
 70
     0
 43
0.35
 10
205.1586784639
 20
315.3203548569
 10
169.1586784639
 20
315.3203548569
  0
LINE
  5
B8
330
1F
100
AcDbEntity
  8
0
  6
Continuous
 62
     7
100
AcDbLine
 10
89.7667456324
 20
294.3203548569
 30
0.0
 11
91.2461784639
 21
296.8828076875
 31
0.0
  0
LWPOLYLINE
  5
B9
330
1F
100
AcDbEntity
  8
TEIL_STARTBEZUEGE
  6
DOT_CENTER
 62
     7
100
AcDbPolyline
 90
        2
 70
     0
 43
0.25
 10
208.1586784639
 20
319.3203548569
 10
47.25867846389996
 20
319.3203548569
  0
LINE
  5
BA
330
1F
100
AcDbEntity
  8
0
  6
Continuous
 62
     7
100
AcDbLine
 10
89.7667456324
 20
344.3203548569
 30
0.0
 11
91.2461784639
 21
341.7579020264
 31
0.0
  0
LWPOLYLINE
  5
BB
330
1F
100
AcDbEntity
  8
BOHRUNGEN
  6
DASHED
 62
     8
100
AcDbPolyline
 90
        2
 70
     0
 43
0.35
 10
205.1586784639
 20
323.3203548569
 10
169.1586784639
 20
323.3203548569
  0
LINE
  5
BC
330
1F
100
AcDbEntity
  8
0
  6
Continuous
 62
     7
100
AcDbLine
 10
94.3211784639
 20
324.256509737
 30
0.0
 11
91.9961784639
 21
324.256509737
 31
0.0
  0
LINE
  5
BD
330
1F
100
AcDbEntity
  8
0
  6
Continuous
 62
     7
100
AcDbLine
 10
53.4586784639
 20
324.5903548569
 30
0.0
 11
51.4086784639
 21
324.5903548569
 31
0.0
  0
LINE
  5
BE
330
1F
100
AcDbEntity
  8
0
  6
Continuous
 62
     7
100
AcDbLine
 10
88.1261784639
 20
324.9378548569
 30
0.0
 11
91.5246433166
 21
324.9378548569
 31
0.0
  0
LINE
  5
BF
330
1F
100
AcDbEntity
  8
0
  6
Continuous
 62
     7
100
AcDbLine
 10
94.7927136111
 20
324.9378548569
 30
0.0
 11
101.1086784639
 21
324.9378548569
 31
0.0
  0
LINE
  5
C0
330
1F
100
AcDbEntity
  8
0
  6
Continuous
 62
     7
100
AcDbLine
 10
88.1261784639
 20
325.3378548569
 30
0.0
 11
91.2461784639
 21
325.3378548569
 31
0.0
  0
LINE
  5
C1
330
1F
100
AcDbEntity
  8
0
  6
Continuous
 62
     7
100
AcDbLine
 10
95.0711784639
 20
325.3378548569
 30
0.0
 11
101.1086784639
 21
325.3378548569
 31
0.0
  0
LINE
  5
C2
330
1F
100
AcDbEntity
  8
0
  6
Continuous
 62
     9
100
AcDbLine
 10
53.4586784639
 20
326.9703548569
 30
0.0
 11
50.99516867369999
 21
326.9703548569
 31
0.0
  0
LINE
  5
C3
330
1F
100
AcDbEntity
  8
RUNDUNGEN
  6
Continuous
 62
     9
100
AcDbLine
 10
53.4586784639
 20
326.9703548569
 30
0.0
 11
54.2767366401
 21
326.9703548569
 31
0.0
  0
LINE
  5
C4
330
1F
100
AcDbEntity
  8
0
  6
Continuous
 62
     7
100
AcDbLine
 10
73.8287886969
 20
338.2955993612
 30
0.0
 11
73.1586784639
 21
338.4751548569
 31
0.0
  0
LINE
  5
C5
330
1F
100
AcDbEntity
  8
0
  6
Continuous
 62
     7
100
AcDbLine
 10
167.0400642553
 20
332.8203548568999
 30
0.0
 11
167.0400642553
 21
305.8203548568998
 31
0.0
  0
LINE
  5
C6
330
1F
100
AcDbEntity
  8
RUNDUNGEN
  6
Continuous
 62
     7
100
AcDbLine
 10
167.0400642553
 20
332.8203548568999
 30
0.0
 11
108.6086784639
 21
332.8203548569
 31
0.0
  0
LINE
  5
C7
330
1F
100
AcDbEntity
  8
RUNDUNGEN
  6
Continuous
 62
     7
100
AcDbLine
 10
204.2371375596
 20
329.892881699
 30
0.0
 11
167.0400642553
 21
332.8203548568999
 31
0.0
  0
LINE
  5
C8
330
1F
100
AcDbEntity
  8
0
  6
Continuous
 62
     7
100
AcDbLine
 10
167.0400642553
 20
332.8203548568999
 30
0.0
 11
204.2371375596
 21
329.892881699
 31
0.0
  0
LWPOLYLINE
  5
C9
330
1F
100
AcDbEntity
  8
BOHRUNGEN
  6
DASHED
 62
     8
100
AcDbPolyline
 90
        2
 70
     0
 43
0.35
 10
169.1586784639
 20
315.3203548569
 10
169.1586784639
 20
323.3203548569
  0
LINE
  5
CA
330
1F
100
AcDbEntity
  8
0
  6
Continuous
 62
     7
100
AcDbLine
 10
73.1586784639
 20
338.4751548569
 30
0.0
 11
51.2086412215
 21
337.3754579911
 31
0.0
  0
LINE
  5
CB
330
1F
100
AcDbEntity
  8
0
  6
Continuous
 62
     7
100
AcDbLine
 10
74.8565088333
 20
338.2751548569
 30
0.0
 11
73.9840801239
 21
338.2751548569
 31
0.0
  0
LINE
  5
CC
330
1F
100
AcDbEntity
  8
0
  6
Continuous
 62
     7
100
AcDbLine
 10
91.9961784639
 20
340.7953548569
 30
0.0
 11
94.3211784639
 21
340.7953548569
 31
0.0
  0
LINE
  5
CD
330
1F
100
AcDbEntity
  8
BEZUGSACHSEN
  6
Continuous
 62
     7
100
AcDbLine
 10
89.7667456324
 20
344.3203548569
 30
0.0
 11
87.1586784639
 21
344.3203548569
 31
0.0
  0
LINE
  5
CE
330
1F
100
AcDbEntity
  8
BEZUGSACHSEN
  6
Continuous
 62
     7
100
AcDbLine
 10
77.1586784639
 20
344.3203548569
 30
0.0
 11
75.1586784639
 21
344.3203548569
 31
0.0
  0
LINE
  5
CF
330
1F
100
AcDbEntity
  8
0
  6
Continuous
 62
     7
100
AcDbLine
 10
75.1586784639
 20
344.3203548569
 30
0.0
 11
77.1586784639
 21
344.3203548569
 31
0.0
  0
LINE
  5
D0
330
1F
100
AcDbEntity
  8
0
  6
Continuous
 62
     7
100
AcDbLine
 10
87.1586784639
 20
344.3203548569
 30
0.0
 11
89.7667456324
 21
344.3203548569
 31
0.0
  0
LINE
  5
D1
330
1F
100
AcDbEntity
  8
0
  6
Continuous
 62
     7
100
AcDbLine
 10
96.5506112953
 20
344.3203548569
 30
0.0
 11
101.1086784639
 21
344.3203548569
 31
0.0
  0
LINE
  5
D2
330
1F
100
AcDbEntity
  8
RUNDUNGEN
  6
Continuous
 62
     9
100
AcDbLine
 10
204.2371375596
 20
308.7478280149
 30
0.0
 11
204.2371375596
 21
329.892881699
 31
0.0
  0
LINE
  5
D3
330
1F
100
AcDbEntity
  8
RUNDUNGEN
  6
Continuous
 62
     7
100
AcDbLine
 10
205.1586784639
 20
309.7447453486
 30
0.0
 11
205.1586784639
 21
328.8959643653
 31
0.0
  0
LWPOLYLINE
  5
D4
330
1F
100
AcDbEntity
  8
1
  6
Continuous
 62
     7
100
AcDbPolyline
 90
        2
 70
     0
 43
0.25
 10
205.1586784639
 20
328.8959643653
 10
205.1586784639
 20
329.8203548569466
  0
LWPOLYLINE
  5
D5
330
1F
100
AcDbEntity
  8
1
  6
Continuous
 62
     7
100
AcDbPolyline
 90
        2
 70
     0
 43
0.25
 10
204.2371375596
 20
329.892881699
 10
205.1586784638949
 20
329.8203548569466
  0
LWPOLYLINE
  5
D6
330
1F
100
AcDbEntity
  8
1
  6
Continuous
 62
     7
100
AcDbPolyline
 90
        2
 70
     0
 43
0.25
 10
204.2371375596
 20
308.7478280149
 10
205.1586784639
 20
308.8203548569486
  0
LWPOLYLINE
  5
D7
330
1F
100
AcDbEntity
  8
1
  6
Continuous
 62
     7
100
AcDbPolyline
 90
        2
 70
     0
 43
0.25
 10
205.1586784639
 20
309.7447453486
 10
205.1586784639
 20
308.8203548569486
  0
ARC
  5
D8
330
1F
100
AcDbEntity
  8
0
  6
Continuous
 62
     7
100
AcDbCircle
 10
57.50329006050001
 20
303.7703548569
 30
0.0
 40
33.78031736353756
100
AcDbArc
 50
359.6607721967861
 51
0.33922780321396
  0
ARC
  5
D9
330
1F
100
AcDbEntity
  8
FASEN
  6
Continuous
 62
     7
100
AcDbCircle
 10
90.3330338116
 20
307.7537466655
 30
0.0
 40
11.32173434580035
100
AcDbArc
 50
223.8842578162989
 51
226.1595439822723
  0
ARC
  5
DA
330
1F
100
AcDbEntity
  8
FASEN
  6
Continuous
 62
     7
100
AcDbCircle
 10
87.8523647367
 20
297.9703548569
 30
0.0
 40
6.0
100
AcDbArc
 50
90.0
 51
161.1845969504029
  0
ARC
  5
DB
330
1F
100
AcDbEntity
  8
FASEN
  6
Continuous
 62
     7
100
AcDbCircle
 10
87.8523647367
 20
297.9703548569
 30
0.0
 40
5.599990644600041
100
AcDbArc
 50
90.0
 51
163.2131310087987
  0
ARC
  5
DC
330
1F
100
AcDbEntity
  8
0
  6
Continuous
 62
     7
100
AcDbCircle
 10
92.6715188541
 20
303.2484019497
 30
0.0
 40
1.4253405322444
100
AcDbArc
 50
166.945493583629
 51
180.0255794330658
  0
ARC
  5
DD
330
1F
100
AcDbEntity
  8
RUNDUNGEN
  6
Continuous
 62
     7
100
AcDbCircle
 10
53.4586784639
 20
315.4503548569
 30
0.0
 40
1.399999999999977
100
AcDbArc
 50
270.0
 51
353.9429041005092
  0
ARC
  5
DE
330
1F
100
AcDbEntity
  8
0
  6
Continuous
 62
     7
100
AcDbCircle
 10
51.2586784639
 20
302.2639990754
 30
0.0
 40
1.0
100
AcDbArc
 50
179.9999999942711
 51
267.1318795106977
  0
ARC
  5
DF
330
1F
100
AcDbEntity
  8
0
  6
Continuous
 62
     7
100
AcDbCircle
 10
91.9961784639
 20
297.0953548569
 30
0.0
 40
0.75
100
AcDbArc
 50
90.0
 51
180.0
  0
ARC
  5
E0
330
1F
100
AcDbEntity
  8
0
  6
Continuous
 62
     7
100
AcDbCircle
 10
73.9840801239
 20
299.7655548569
 30
0.0
 40
0.6000000000000227
100
AcDbArc
 50
90.0
 51
104.9999999936697
  0
ARC
  5
E1
330
1F
100
AcDbEntity
  8
0
  6
Continuous
 62
     7
100
AcDbCircle
 10
74.8565088333
 20
299.7655548569
 30
0.0
 40
0.5999999999998945
100
AcDbArc
 50
59.70317838175824
 51
90.0
  0
ARC
  5
E2
330
1F
100
AcDbEntity
  8
0
  6
Continuous
 62
     7
100
AcDbCircle
 10
91.7497984178
 20
313.2273597239
 30
0.0
 40
0.50373049789972
100
AcDbArc
 50
166.1596109370709
 51
171.3804870338134
  0
ARC
  5
E3
330
1F
100
AcDbEntity
  8
0
  6
Continuous
 62
     7
100
AcDbCircle
 10
-25.507765124
 20
352.2408903666
 30
0.0
 40
126.7303074975354
100
AcDbArc
 50
335.4508108778999
 51
337.1137532296999
  0
ARC
  5
E4
330
1F
100
AcDbEntity
  8
0
  6
Continuous
 62
     7
100
AcDbCircle
 10
88.1261784639
 20
319.3203548569
 30
0.0
 40
6.017499999999984
100
AcDbArc
 50
90.0
 51
270.0
  0
ARC
  5
E5
330
1F
100
AcDbEntity
  8
FASEN
  6
Continuous
 62
     7
100
AcDbCircle
 10
88.1261784639
 20
319.3203548569
 30
0.0
 40
5.617499843000019
100
AcDbArc
 50
90.0
 51
270.0
  0
ARC
  5
E6
330
1F
100
AcDbEntity
  8
RUNDUNGEN
  6
Continuous
 62
     7
100
AcDbCircle
 10
53.4586784639
 20
323.1903548569
 30
0.0
 40
1.400000000000061
100
AcDbArc
 50
6.05709561601257
 51
90.0
  0
ARC
  5
E7
330
1F
100
AcDbEntity
  8
0
  6
Continuous
 62
     7
100
AcDbCircle
 10
51.2586784639
 20
336.3767106385
 30
0.0
 40
0.999999999976244
100
AcDbArc
 50
92.86812048930244
 51
180.0000000229187
  0
ARC
  5
E8
330
1F
100
AcDbEntity
  8
0
  6
Continuous
 62
     7
100
AcDbCircle
 10
91.9961784639
 20
341.5453548569
 30
0.0
 40
0.75
100
AcDbArc
 50
180.0
 51
270.0
  0
ARC
  5
E9
330
1F
100
AcDbEntity
  8
0
  6
Continuous
 62
     7
100
AcDbCircle
 10
73.9840801239
 20
338.8751548569
 30
0.0
 40
0.5999999999131319
100
AcDbArc
 50
255.000000003859
 51
270.0
  0
ARC
  5
EA
330
1F
100
AcDbEntity
  8
0
  6
Continuous
 62
     7
100
AcDbCircle
 10
74.8565088333
 20
338.8751548569
 30
0.0
 40
0.6000000000000227
100
AcDbArc
 50
270.0
 51
300.2968216182418
  0
ARC
  5
EB
330
1F
100
AcDbEntity
  8
RUNDUNGEN
  6
Continuous
 62
     7
100
AcDbCircle
 10
140.4287490064
 20
-447.1155050081
 30
0.0
 40
779.4077989045003
100
AcDbArc
 50
96.40668094319999
 51
96.57315239320002
  0
ARC
  5
EC
330
1F
100
AcDbEntity
  8
0
  6
Continuous
 62
     7
100
AcDbCircle
 10
128.8140668672
 20
303.7703548569
 30
0.0
 40
33.78031736343758
100
AcDbArc
 50
179.660772196785
 51
180.339227803215
  0
ARC
  5
ED
330
1F
100
AcDbEntity
  8
0
  6
Continuous
 62
     7
100
AcDbCircle
 10
93.6458380736
 20
303.2484019497
 30
0.0
 40
1.425340532344747
100
AcDbArc
 50
359.9744205669359
 51
13.05450641546304
  0
ARC
  5
EE
330
1F
100
AcDbEntity
  8
RUNDUNGEN
  6
Continuous
 62
     7
100
AcDbCircle
 10
204.1586784639
 20
309.7447453486
 30
0.0
 40
0.9999999999648148
100
AcDbArc
 50
274.4999999985582
 51
0.0
  0
ARC
  5
EF
330
1F
100
AcDbEntity
  8
0
  6
Continuous
 62
     7
100
AcDbCircle
 10
94.3211784639
 20
297.0953548569
 30
0.0
 40
0.75
100
AcDbArc
 50
0.0
 51
90.0
  0
ARC
  5
F0
330
1F
100
AcDbEntity
  8
RUNDUNGEN
  6
Continuous
 62
     7
100
AcDbCircle
 10
140.4287490064
 20
1085.7562147219
 30
0.0
 40
779.4077989043996
100
AcDbArc
 50
263.4268476068
 51
263.5933190568001
  0
ARC
  5
F1
330
1F
100
AcDbEntity
  8
0
  6
Continuous
 62
     7
100
AcDbCircle
 10
211.8251220517
 20
352.2408903666
 30
0.0
 40
126.7303074975
100
AcDbArc
 50
202.8862467703001
 51
204.5491891221
  0
ARC
  5
F2
330
1F
100
AcDbEntity
  8
RUNDUNGEN
  6
Continuous
 62
     7
100
AcDbCircle
 10
204.1586784639
 20
328.8959643653
 30
0.0
 40
1.0
100
AcDbArc
 50
0.0
 51
85.50000000144155
  0
ARC
  5
F3
330
1F
100
AcDbEntity
  8
0
  6
Continuous
 62
     7
100
AcDbCircle
 10
94.3211784639
 20
341.5453548569
 30
0.0
 40
0.75
100
AcDbArc
 50
270.0
 51
0.0
  0
CIRCLE
  5
F4
330
1F
100
AcDbEntity
  8
FASEN
  6
Continuous
 62
     7
100
AcDbCircle
 10
67.6586784639
 20
319.3203548569
 30
0.0
 40
3.0
  0
SPLINE
  5
F5
330
1F
100
AcDbEntity
  8
BEZUGSACHSEN
  6
Continuous
 62
     7
100
AcDbSpline
210
0.0
220
0.0
230
1.0
 70
     8
 71
     3
 72
    15
 73
    11
 74
     9
 42
0.0000000001
 43
0.0000000001
 44
0.00000001
 40
0.0
 40
0.0
 40
0.0
 40
0.0
 40
0.9592794728329802
 40
1.918698757838194
 40
2.733413612732469
 40
3.548061682702947
 40
4.096465872459421
 40
4.644852383038936
 40
4.839161107607711
 40
5.033464909262445
 40
5.033464909262445
 40
5.033464909262445
 40
5.033464909262445
 10
82.1586784639
 20
343.8152522848
 30
0.0
 10
81.83889909809037
 20
343.8188804477587
 30
0.0
 10
81.19929375956559
 20
343.8261373024704
 30
0.0
 10
80.28948363779193
 20
343.8815515388127
 30
0.0
 10
79.430239767741
 20
343.9622739949182
 30
0.0
 10
78.70996831983751
 20
344.0538186429603
 30
0.0
 10
78.08016778808148
 20
344.1505432200593
 30
0.0
 10
77.65621251183379
 20
344.2247446592885
 30
0.0
 10
77.34928871016932
 20
344.2826360589605
 30
0.0
 10
77.22221467606838
 20
344.307782030436
 30
0.0
 10
77.1586784639
 20
344.3203548569
 30
0.0
 11
82.1586784639
 21
343.8152522848
 31
0.0
 11
81.19958310340498
 21
343.8340458069721
 31
0.0
 11
80.24180533734197
 21
343.8901449627169
 31
0.0
 11
79.43069501995227
 21
343.9666978712794
 31
0.0
 11
78.62251895221436
 21
344.0691816331264
 31
0.0
 11
78.08046980226796
 21
344.1524275002
 31
0.0
 11
77.54027167824816
 21
344.246840167735
 31
0.0
 11
77.34934211143917
 21
344.2829203695315
 31
0.0
 11
77.1586784639
 21
344.3203548569
 31
0.0
  0
SPLINE
  5
F6
330
1F
100
AcDbEntity
  8
BEZUGSACHSEN
  6
Continuous
 62
     7
100
AcDbSpline
210
0.0
220
0.0
230
1.0
 70
     8
 71
     3
 72
    15
 73
    11
 74
     9
 42
0.0000000001
 43
0.0000000001
 44
0.00000001
 40
0.0
 40
0.0
 40
0.0
 40
0.0
 40
0.1942981503433454
 40
0.3886012245878463
 40
0.9369792400434207
 40
1.485374928904991
 40
2.300027372196054
 40
3.114746618659443
 40
4.074175664721924
 40
5.033464878709079
 40
5.033464878709079
 40
5.033464878709079
 40
5.033464878709079
 10
87.1586784639
 20
344.3203548569
 30
0.0
 10
87.09514409796748
 20
344.3077824049104
 30
0.0
 10
86.96807375601534
 20
344.2826371823204
 30
0.0
 10
86.6611564577197
 20
344.2247469083069
 30
0.0
 10
86.23720867474083
 20
344.1505464532891
 30
0.0
 10
85.60741240203907
 20
344.0538218660777
 30
0.0
 10
84.88714091861866
 20
343.9622767560694
 30
0.0
 10
84.02789094212382
 20
343.8815533195663
 30
0.0
 10
83.11807291763309
 20
343.8261377154176
 30
0.0
 10
82.47846107729758
 20
343.8188805853779
 30
0.0
 10
82.1586784639
 20
343.8152522848
 30
0.0
 11
87.1586784639
 21
344.3203548569
 31
0.0
 11
86.96802035946587
 21
344.282921470192
 31
0.0
 11
86.77709635521286
 21
344.2468422620402
 31
0.0
 11
86.23690666567686
 21
344.1524306782489
 31
0.0
 11
85.69486599907107
 21
344.0691855744438
 31
0.0
 11
84.88668566688506
 21
343.96670067786
 31
0.0
 11
84.07557102214064
 21
343.8901468821409
 31
0.0
 11
83.11778355570685
 21
343.8340464046856
 31
0.0
 11
82.1586784639
 21
343.8152522848
 31
0.0
  0
SPLINE
  5
F7
330
1F
100
AcDbEntity
  8
0
  6
Continuous
 62
     7
100
AcDbSpline
210
0.0
220
0.0
230
1.0
 70
     8
 71
     3
 72
    27
 73
    23
 74
    21
 42
0.0000000001
 43
0.0000000001
 44
0.00000001
 40
0.0
 40
0.0
 40
0.0
 40
0.0
 40
0.0730306820182209
 40
0.1460817688958908
 40
0.2142068183175094
 40
0.2823160954175367
 40
0.3442738269432618
 40
0.4062919406489616
 40
0.4617913417079867
 40
0.5170559905345758
 40
0.5428520623134684
 40
0.5686432246472396
 40
0.5939867602525564
 40
0.6193292498096847
 40
0.6451121206929048
 40
0.6708991015705741
 40
0.6979696846181375
 40
0.7250453875188044
 40
0.7848430774253439
 40
0.8448837206523824
 40
0.912931864143532
 40
0.9808740946486648
 40
0.9808740946486648
 40
0.9808740946486648
 40
0.9808740946486648
 10
50.94674919489999
 20
311.5843971509
 30
0.0
 10
50.92691682064081
 20
311.570271816763
 30
0.0
 10
50.88724653093347
 20
311.542017201854
 30
0.0
 10
50.82647852080237
 20
311.5044253238928
 30
0.0
 10
50.76511125235275
 20
311.4711574224674
 30
0.0
 10
50.70478991245154
 20
311.4440377744095
 30
0.0
 10
50.64430006193898
 20
311.4227725742867
 30
0.0
 10
50.58585668313331
 20
311.4092563662282
 30
0.0
 10
50.52835009947879
 20
311.4037449654539
 30
0.0
 10
50.48263110297688
 20
311.4069128701765
 30
0.0
 10
50.44785594621858
 20
311.414873727379
 30
0.0
 10
50.42356351900616
 20
311.4232612909349
 30
0.0
 10
50.4005451336313
 20
311.4343491756538
 30
0.0
 10
50.37897408802552
 20
311.4480417835503
 30
0.0
 10
50.35910075187357
 20
311.4643353000453
 30
0.0
 10
50.34083120949241
 20
311.4832094065955
 30
0.0
 10
50.32452963841654
 20
311.504354517032
 30
0.0
 10
50.30450913046189
 20
311.5366922186673
 30
0.0
 10
50.28494191028393
 20
311.5819129761177
 30
0.0
 10
50.26919937824155
 20
311.6426774357404
 30
0.0
 10
50.26008247121787
 20
311.7075654698457
 30
0.0
 10
50.25914622328087
 20
311.7529142396319
 30
0.0
 10
50.2586784639
 20
311.7755709651
 30
0.0
 11
50.94674919489999
 21
311.5843971509
 31
0.0
 11
50.88680933892866
 21
311.5426755236285
 31
0.0
 11
50.82472066128545
 21
311.5041858184786
 31
0.0
 11
50.76472729255563
 21
311.4719086118592
 31
0.0
 11
50.70254124047035
 21
311.44412788917
 31
0.0
 11
50.64398705023215
 21
311.4238753016474
 31
0.0
 11
50.58349856518465
 21
311.4101862693853
 31
0.0
 11
50.52821737500415
 21
311.4052696109533
 31
0.0
 11
50.47311715521651
 21
311.4095295627465
 31
0.0
 11
50.447979239152
 21
311.4153194241572
 31
0.0
 11
50.42361451895194
 21
311.4237778202286
 31
0.0
 11
50.40078425088026
 21
311.4347811677534
 31
0.0
 11
50.37939603295228
 21
311.4483747659091
 31
0.0
 11
50.35943789280826
 21
311.4646974211151
 31
0.0
 11
50.34148641439215
 21
311.4832099251451
 31
0.0
 11
50.32491281427625
 21
311.5046139491998
 31
0.0
 11
50.31061732449566
 21
311.5276081367153
 31
0.0
 11
50.28644830006044
 21
311.5823038584493
 31
0.0
 11
50.27091949947682
 21
311.6403015755729
 31
0.0
 11
50.26142672471457
 21
311.7076843408761
 31
0.0
 11
50.2586784639
 21
311.7755709651
 31
0.0
  0
SPLINE
  5
F8
330
1F
100
AcDbEntity
  8
RUNDUNGEN
  6
Continuous
 62
     7
100
AcDbSpline
210
0.0
220
0.0
230
1.0
 70
     8
 71
     3
 72
    15
 73
    11
 74
     9
 42
0.0000000001
 43
0.0000000001
 44
0.00000001
 40
0.0
 40
0.0
 40
0.0
 40
0.0
 40
0.2286533797108455
 40
0.4574173648533577
 40
0.6866651597359449
 40
0.9158640490876706
 40
1.146314057848033
 40
1.37683172397257
 40
1.60955423858548
 40
1.842048835040626
 40
1.842048835040626
 40
1.842048835040626
 40
1.842048835040626
 10
54.2767366401
 20
326.9703548569
 30
0.0
 10
54.31914140856188
 20
326.9069907161472
 30
0.0
 10
54.40397145774624
 20
326.7802317838017
 30
0.0
 10
54.51544823283089
 20
326.5800503304679
 30
0.0
 10
54.61459648540512
 20
326.3733947383025
 30
0.0
 10
54.69909659429288
 20
326.1596586096739
 30
0.0
 10
54.76787220774727
 20
325.9398650532344
 30
0.0
 10
54.81884926218221
 20
325.7141330064868
 30
0.0
 10
54.85218854452384
 20
325.484151472171
 30
0.0
 10
54.85651586411829
 20
325.3290285606969
 30
0.0
 10
54.85867846390001
 20
325.2515051037
 30
0.0
 11
54.2767366401
 21
326.9703548569
 31
0.0
 11
54.40130958649944
 21
326.7786155832011
 31
0.0
 11
54.51330512459727
 21
326.5791413734785
 31
0.0
 11
54.6121255325371
 21
326.3722861621999
 31
0.0
 11
54.69631345477756
 21
326.1591089480589
 31
0.0
 11
54.76485116429814
 21
325.939086701658
 31
0.0
 11
54.81575440993091
 21
325.7142595369746
 31
0.0
 11
54.84770364809593
 21
325.4837405247686
 31
0.0
 11
54.85867846390001
 21
325.2515051037
 31
0.0
  0
SPLINE
  5
F9
330
1F
100
AcDbEntity
  8
RUNDUNGEN
  6
Continuous
 62
     7
100
AcDbSpline
210
0.0
220
0.0
230
1.0
 70
     8
 71
     3
 72
    15
 73
    11
 74
     9
 42
0.0000000001
 43
0.0000000001
 44
0.00000001
 40
0.0
 40
0.0
 40
0.0
 40
0.0
 40
0.1273079846700976
 40
0.2549893803122405
 40
0.3793073350289841
 40
0.5035989686726733
 40
0.6245667031165067
 40
0.7455591721317645
 40
0.8645937372229148
 40
0.98355103814204
 40
0.98355103814204
 40
0.98355103814204
 40
0.98355103814204
 10
53.4586784639
 20
327.4248256545
 30
0.0
 10
53.50115763350189
 20
327.4272722986073
 30
0.0
 10
53.58624056966677
 20
327.4321727631492
 30
0.0
 10
53.71188692131503
 20
327.4105085757003
 30
0.0
 10
53.83067293857965
 20
327.3688691032933
 30
0.0
 10
53.93943958728687
 20
327.3099976144931
 30
0.0
 10
54.03828979251399
 20
327.2378235779165
 30
0.0
 10
54.12667543668222
 20
327.1558701659389
 30
0.0
 10
54.20672031679058
 20
327.0666314700476
 30
0.0
 10
54.25340291750634
 20
327.0024401146978
 30
0.0
 10
54.2767366401
 20
326.9703548569
 30
0.0
 11
53.4586784639
 21
327.4248256545
 31
0.0
 11
53.58596213221908
 21
327.4273137742721
 31
0.0
 11
53.71199340424976
 21
327.4068526583823
 31
0.0
 11
53.82935240624595
 21
327.3658426777018
 31
0.0
 11
53.93888069497692
 21
327.3070892594057
 31
0.0
 11
54.03676768567144
 21
327.2360165513579
 31
0.0
 11
54.12582138064867
 21
327.1541104040348
 31
0.0
 11
54.20514054183302
 21
327.0653540050799
 31
0.0
 11
54.2767366401
 21
326.9703548569
 31
0.0
  0
SPLINE
  5
FA
330
1F
100
AcDbEntity
  8
RUNDUNGEN
  6
Continuous
 62
     7
100
AcDbSpline
210
0.0
220
0.0
230
1.0
 70
     8
 71
     3
 72
    15
 73
    11
 74
     9
 42
0.0000000001
 43
0.0000000001
 44
0.00000001
 40
0.0
 40
0.0
 40
0.0
 40
0.0
 40
0.2324947530161945
 40
0.4652174308918898
 40
0.6957353316508772
 40
0.926185560558356
 40
1.155384407681358
 40
1.384632178690856
 40
1.613395801615779
 40
1.842048806033286
 40
1.842048806033286
 40
1.842048806033286
 40
1.842048806033286
 10
54.85867846390001
 20
313.3892046101
 30
0.0
 10
54.85651585692327
 20
313.3116811009006
 30
0.0
 10
54.85218852287079
 20
313.1565580827871
 30
0.0
 10
54.81884918443141
 20
312.9265763706326
 30
0.0
 10
54.7678721256277
 20
312.7008441142371
 30
0.0
 10
54.69909642926835
 20
312.4810504339742
 30
0.0
 10
54.61459605468652
 20
312.267314351559
 30
0.0
 10
54.51544767951635
 20
312.060658984085
 30
0.0
 10
54.40397117420338
 20
311.8604776752485
 30
0.0
 10
54.31914131324341
 20
311.7337189115254
 30
0.0
 10
54.2767366401
 20
311.6703548569
 30
0.0
 11
54.85867846390001
 21
313.3892046101
 31
0.0
 11
54.84770362148908
 21
313.156969033553
 31
0.0
 11
54.81575434576074
 21
312.9264498617298
 31
0.0
 11
54.76485106415154
 21
312.7016224646187
 31
0.0
 11
54.69631322508563
 21
312.4816000279908
 31
0.0
 11
54.61212511494821
 21
312.2684229334567
 31
0.0
 11
54.51330457623506
 21
312.0615678111095
 31
0.0
 11
54.40130929348228
 21
311.8620938734263
 31
0.0
 11
54.2767366401
 21
311.6703548569
 31
0.0
  0
SPLINE
  5
FB
330
1F
100
AcDbEntity
  8
RUNDUNGEN
  6
Continuous
 62
     7
100
AcDbSpline
210
0.0
220
0.0
230
1.0
 70
     8
 71
     3
 72
    17
 73
    13
 74
    11
 42
0.0000000001
 43
0.0000000001
 44
0.00000001
 40
0.0
 40
0.0
 40
0.0
 40
0.0
 40
0.1190059193320621
 40
0.2380814744263016
 40
0.3590691915214743
 40
0.480085074751685
 40
0.6044906460465332
 40
0.7286521944228028
 40
0.792200388158977
 40
0.8557409871820122
 40
0.9198158321560999
 40
0.9838416201775988
 40
0.9838416201775988
 40
0.9838416201775988
 40
0.9838416201775988
 10
54.2767366401
 20
311.6703548569
 30
0.0
 10
54.253390939361
 20
311.6382583258652
 30
0.0
 10
54.2066858772544
 20
311.5740464826591
 30
0.0
 10
54.12661941478405
 20
311.4847886885156
 30
0.0
 10
54.03824848580081
 20
311.4027869956176
 30
0.0
 10
53.93932372773369
 20
311.3305803233238
 30
0.0
 10
53.83048965486518
 20
311.2719663803465
 30
0.0
 10
53.73192760289659
 20
311.2370864234891
 30
0.0
 10
53.64988107373407
 20
311.2197394735197
 30
0.0
 10
53.58651815452647
 20
311.2123464109839
 30
0.0
 10
53.5225308522657
 20
311.2104130795573
 30
0.0
 10
53.47995715873294
 20
311.2140608650333
 30
0.0
 10
53.4586784639
 20
311.2158840593
 30
0.0
 11
54.2767366401
 21
311.6703548569
 31
0.0
 11
54.20510468371556
 21
311.5753218538926
 31
0.0
 11
54.12576070398773
 21
311.4865326614087
 31
0.0
 11
54.03672849593502
 21
311.4046101759901
 31
0.0
 11
53.93877730114603
 21
311.3335439573387
 31
0.0
 11
53.82909099799382
 21
311.2748442037617
 31
0.0
 11
53.71190252532595
 21
311.2338204061686
 31
0.0
 11
53.64972269582355
 21
311.2207039382682
 31
0.0
 11
53.58661829185532
 21
311.2132714471635
 31
0.0
 11
53.52256400251474
 21
311.2116485560621
 31
0.0
 11
53.4586784639
 21
311.2158840593
 31
0.0
  0
SPLINE
  5
FC
330
1F
100
AcDbEntity
  8
0
  6
Continuous
 62
     7
100
AcDbSpline
210
0.0
220
0.0
230
1.0
 70
     8
 71
     3
 72
    11
 73
     7
 74
     5
 42
0.0000000001
 43
0.0000000001
 44
0.00000001
 40
0.0
 40
0.0
 40
0.0
 40
0.0
 40
0.0719820116952374
 40
0.1441794862810811
 40
0.2163078795456222
 40
0.2883301028005353
 40
0.2883301028005353
 40
0.2883301028005353
 40
0.2883301028005353
 10
51.2086412215
 20
311.4718423109
 30
0.0
 10
51.18491438830045
 20
311.475745498106
 30
0.0
 10
51.13738970065663
 20
311.4835635558811
 30
0.0
 10
51.06952303243557
 20
311.5089972796422
 30
0.0
 10
51.00528621513364
 20
311.5422248097852
 30
0.0
 10
50.96625195178816
 20
311.5703466079635
 30
0.0
 10
50.94674919489999
 20
311.5843971509
 30
0.0
 11
51.2086412215
 21
311.4718423109
 31
0.0
 11
51.13803109495521
 21
311.4858287342105
 31
0.0
 11
51.07010941254133
 21
311.5103056701839
 31
0.0
 11
51.00619760406357
 21
311.5437389747173
 31
0.0
 11
50.94674919489999
 21
311.5843971509
 31
0.0
  0
SPLINE
  5
FD
330
1F
100
AcDbEntity
  8
FASEN
  6
Continuous
 62
     7
100
AcDbSpline
210
0.0
220
0.0
230
1.0
 70
     8
 71
     3
 72
    41
 73
    37
 74
    35
 42
0.0000000001
 43
0.0000000001
 44
0.00000001
 40
0.0
 40
0.0
 40
0.0
 40
0.0
 40
0.3535888544087382
 40
0.7075507289514904
 40
1.060684840903144
 40
1.413709983367136
 40
1.765779918047501
 40
2.117876005200362
 40
2.469055569646675
 40
2.820227711234578
 40
3.171084425210268
 40
3.521941346594742
 40
3.873160085232037
 40
4.224381765451251
 40
4.576461723089968
 40
4.928542604160111
 40
5.281581803795273
 40
5.634626310450655
 40
5.988339657455253
 40
6.342041478545541
 40
6.695908397035568
 40
7.049820838049254
 40
7.40359521625361
 40
7.757194007881188
 40
7.933994428082999
 40
8.11073969614802
 40
8.287420502916651
 40
8.464157456684777
 40
8.817287503336146
 40
9.170592253412515
 40
9.523997521662796
 40
9.877334047528253
 40
10.23089310700996
 40
10.58456791527242
 40
10.93860935641547
 40
11.29227461510832
 40
11.29227461510832
 40
11.29227461510832
 40
11.29227461510832
 10
71.2579268754
 20
319.3203548569
 30
0.0
 10
71.25461826522597
 20
319.2024432647152
 30
0.0
 10
71.24799755444485
 20
318.966495688987
 30
0.0
 10
71.19412072153298
 20
318.6161907446983
 30
0.0
 10
71.10888743338715
 20
318.272804720994
 30
0.0
 10
70.99005896768747
 20
317.9400235140832
 30
0.0
 10
70.83939628261477
 20
317.620847995207
 30
0.0
 10
70.65844633572837
 20
317.318502250048
 30
0.0
 10
70.44874517507537
 20
317.035722691604
 30
0.0
 10
70.21258400019585
 20
316.7751889749815
 30
0.0
 10
69.95196456602199
 20
316.5392857994249
 30
0.0
 10
69.66946281244995
 20
316.3300578461007
 30
0.0
 10
69.36762079474956
 20
316.1496136275883
 30
0.0
 10
69.04922256687365
 20
315.999363269076
 30
0.0
 10
68.71736289842154
 20
315.88093909829
 30
0.0
 10
68.37497194272638
 20
315.7952186179095
 30
0.0
 10
68.02553334818302
 20
315.7432565205923
 30
0.0
 10
67.67216195122825
 20
315.7253996827353
 30
0.0
 10
67.31850741768645
 20
315.7420137404593
 30
0.0
 10
66.96785540396834
 20
315.7928577902775
 30
0.0
 10
66.62375600599248
 20
315.8776251450429
 30
0.0
 10
66.28949854403743
 20
315.9954567487032
 30
0.0
 10
65.96846380004695
 20
316.1453700265997
 30
0.0
 10
65.7144175107349
 20
316.2957965082169
 30
0.0
 10
65.52097589932059
 20
316.4306269268686
 30
0.0
 10
65.38106744194401
 20
316.5387442641364
 30
0.0
 10
65.24664269468497
 20
316.6535757911846
 30
0.0
 10
65.0752579393241
 20
316.8152307090614
 30
0.0
 10
64.8763120010453
 20
317.0329297274824
 30
0.0
 10
64.66443829756977
 20
317.3163250523849
 30
0.0
 10
64.48163927354608
 20
317.6194015800749
 30
0.0
 10
64.32960609345545
 20
317.9390825676828
 30
0.0
 10
64.20970660966731
 20
318.2723164698421
 30
0.0
 10
64.1237561778282
 20
318.6159286184992
 30
0.0
 10
64.06947873884684
 20
318.9664185092007
 30
0.0
 10
64.06277842729573
 20
319.2024178895964
 30
0.0
 10
64.0594300523
 20
319.3203548569
 30
0.0
 11
71.2579268754
 21
319.3203548569
 31
0.0
 11
71.24067904816023
 21
318.9671869217507
 31
0.0
 11
71.18883298768
 21
318.6170426734151
 31
0.0
 11
71.10324701992349
 21
318.2744368603485
 31
0.0
 11
70.98460985957371
 21
317.9419432883868
 31
0.0
 11
70.83430431612743
 21
317.6235701071746
 31
0.0
 11
70.65345696553308
 21
317.3214676570499
 31
0.0
 11
70.44429117400024
 21
317.039374129763
 31
0.0
 11
70.20842055059472
 21
316.77920702569
 31
0.0
 11
69.9483207415625
 21
316.5437319249188
 31
0.0
 11
69.666356694629
 21
316.3349333245397
 31
0.0
 11
69.36492290801614
 21
316.154677188283
 31
0.0
 11
69.04728778525633
 21
316.004795243255
 31
0.0
 11
68.71570473565184
 21
315.8864188191416
 31
0.0
 11
68.374163328688
 21
315.8009178592389
 31
0.0
 11
68.02496984896919
 21
315.7489506561113
 31
0.0
 11
67.6723746213755
 21
315.7311453434858
 31
0.0
 11
67.31904964091866
 21
315.7477161018985
 31
0.0
 11
66.96901237131618
 21
315.7984988561742
 31
0.0
 11
66.62541497285494
 21
315.8831311418121
 31
0.0
 11
66.29164614601467
 21
316.0008273020466
 31
0.0
 11
65.97109470014243
 21
316.1505038908074
 31
0.0
 11
65.66686545575187
 21
316.3307167435623
 31
0.0
 11
65.52181734124173
 21
316.4318079551516
 31
0.0
 11
65.38196188470516
 21
316.539878955241
 31
0.0
 11
65.24762739123273
 21
316.654641106423
 31
0.0
 11
65.11906501955121
 21
316.7759162787166
 31
0.0
 11
64.88082652608279
 21
317.0365755392041
 31
0.0
 11
64.66930975600732
 21
317.3195682995415
 31
0.0
 11
64.48676245653732
 21
317.6221765728641
 31
0.0
 11
64.33499553681862
 21
317.9412588547128
 31
0.0
 11
64.21538702850954
 21
318.2739716637263
 31
0.0
 11
64.1290616252855
 21
318.6169494979338
 31
0.0
 11
64.07684002511776
 21
318.9671183807926
 31
0.0
 11
64.0594300523
 21
319.3203548569
 31
0.0
  0
SPLINE
  5
FE
330
1F
100
AcDbEntity
  8
0
  6
Continuous
 62
     7
100
AcDbSpline
210
0.0
220
0.0
230
1.0
 70
     8
 71
     3
 72
    11
 73
     7
 74
     5
 42
0.0000000001
 43
0.0000000001
 44
0.00000001
 40
0.0
 40
0.0
 40
0.0
 40
0.0
 40
0.072033561682563
 40
0.1441734620247757
 40
0.2163593593462941
 40
0.288329652871376
 40
0.288329652871376
 40
0.288329652871376
 40
0.288329652871376
 10
50.94674919489999
 20
327.056312563
 30
0.0
 10
50.96625524838468
 20
327.070365033019
 30
0.0
 10
51.00529615092567
 20
327.0984907178432
 30
0.0
 10
51.06953807558161
 20
327.1317167108009
 30
0.0
 10
51.13740127229517
 20
327.157147904437
 30
0.0
 10
51.18491826098506
 20
327.1649648004643
 30
0.0
 10
51.2086412215
 20
327.1688674029
 30
0.0
 11
50.94674919489999
 21
327.056312563
 31
0.0
 11
51.00620782084992
 21
327.0969758856486
 31
0.0
 11
51.07013124759548
 21
327.1304118054728
 31
0.0
 11
51.13804257668198
 21
327.1548833226676
 31
0.0
 11
51.2086412215
 21
327.1688674029
 31
0.0
  0
SPLINE
  5
FF
330
1F
100
AcDbEntity
  8
0
  6
Continuous
 62
     7
100
AcDbSpline
210
0.0
220
0.0
230
1.0
 70
     8
 71
     3
 72
    27
 73
    23
 74
    21
 42
0.0000000001
 43
0.0000000001
 44
0.00000001
 40
0.0
 40
0.0
 40
0.0
 40
0.0
 40
0.0679422772585648
 40
0.1359904671707052
 40
0.1960311417291783
 40
0.255828864333921
 40
0.2829045758192489
 40
0.3099751664713514
 40
0.3357621418075902
 40
0.3615450076661052
 40
0.3868874812276678
 40
0.4122310011635687
 40
0.438022151241765
 40
0.4638182097069752
 40
0.5190828346121741
 40
0.5745822153236411
 40
0.6366003186991551
 40
0.6985580374499314
 40
0.766667300824833
 40
0.8347923375154583
 40
0.9078434199690965
 40
0.9808740973414318
 40
0.9808740973414318
 40
0.9808740973414318
 40
0.9808740973414318
 10
50.2586784639
 20
326.8651387488
 30
0.0
 10
50.25914622395869
 20
326.8877954898744
 30
0.0
 10
50.2600824732496
 20
326.9331442907623
 30
0.0
 10
50.26919939468527
 20
326.998032365301
 30
0.0
 10
50.28494195263409
 20
327.0587968566127
 30
0.0
 10
50.3045091964585
 20
327.1040176302163
 30
0.0
 10
50.32452972087854
 20
327.1363553408785
 30
0.0
 10
50.34083130526297
 20
327.1575004461971
 30
0.0
 10
50.35910086757529
 20
327.1763745326412
 30
0.0
 10
50.37897421700838
 20
327.1926680188695
 30
0.0
 10
50.40054526634922
 20
327.2063605974669
 30
0.0
 10
50.42356364564814
 20
327.2174484598245
 30
0.0
 10
50.44785606049307
 20
327.2258360156758
 30
0.0
 10
50.48263120104568
 20
327.2337968704177
 30
0.0
 10
50.52835018066801
 20
327.2369647573088
 30
0.0
 10
50.58585674299818
 20
327.2314533321125
 30
0.0
 10
50.64430010526128
 20
327.2179371201645
 30
0.0
 10
50.70478994440781
 20
327.1966719248318
 30
0.0
 10
50.76511127200526
 20
327.1695522812139
 30
0.0
 10
50.82647853086191
 20
327.1362843837535
 30
0.0
 10
50.88724653465171
 20
327.0986925093815
 30
0.0
 10
50.9269168219003
 20
327.0704378962344
 30
0.0
 10
50.94674919489999
 20
327.056312563
 30
0.0
 11
50.2586784639
 21
326.8651387488
 31
0.0
 11
50.26142672899264
 21
326.9330254196424
 31
0.0
 11
50.27091951960924
 21
327.0004082295914
 31
0.0
 11
50.28644834326995
 21
327.0584059729712
 31
0.0
 11
50.31061739682839
 21
327.1131017175845
 31
0.0
 11
50.32491289798953
 21
327.1360959081332
 31
0.0
 11
50.34148651493164
 21
327.1574999287768
 31
0.0
 11
50.35943800831176
 21
327.1760124105773
 31
0.0
 11
50.37939616388122
 21
327.1923350389852
 31
0.0
 11
50.40078438220301
 21
327.2059286067008
 31
0.0
 11
50.42361464332996
 21
327.2169319325442
 31
0.0
 11
50.44797935358218
 21
327.2253903199012
 31
0.0
 11
50.47311725687274
 21
327.2311801774552
 31
0.0
 11
50.52821745403063
 21
327.2354401116183
 31
0.0
 11
50.58349862205215
 21
327.2305234337223
 31
0.0
 11
50.64398709484971
 21
327.2168343941316
 31
0.0
 11
50.70254127269359
 21
327.1965818098564
 31
0.0
 11
50.76472731195966
 21
327.1688010921214
 31
0.0
 11
50.82472066906143
 21
327.1365238907595
 31
0.0
 11
50.88680934276377
 21
327.098034187649
 31
0.0
 11
50.94674919489999
 21
327.056312563
 31
0.0
  0
SPLINE
  5
100
330
1F
100
AcDbEntity
  8
0
  6
Continuous
 62
     7
100
AcDbSpline
210
0.0
220
0.0
230
1.0
 70
     8
 71
     3
 72
    25
 73
    21
 74
    19
 42
0.0000000001
 43
0.0000000001
 44
0.00000001
 40
0.0
 40
0.0
 40
0.0
 40
0.0
 40
0.0272067661449932
 40
0.0544881809679335
 40
0.0817226175578027
 40
0.1089430469953048
 40
0.1361366761230354
 40
0.1633351632611098
 40
0.1904968256842966
 40
0.2176561384432746
 40
0.2719142874126569
 40
0.3262206322898811
 40
0.3804997304113725
 40
0.4347596646695744
 40
0.4890233386062189
 40
0.5432903873303255
 40
0.5975530059009838
 40
0.6518162747187743
 40
0.7603346282746886
 40
0.8688546603594083
 40
0.8688546603594083
 40
0.8688546603594083
 40
0.8688546603594083
 10
91.9961784639
 20
324.256509737
 30
0.0
 10
91.98710200756926
 20
324.2569467272876
 30
0.0
 10
91.9689241913429
 20
324.2578219068567
 30
0.0
 10
91.94232278938884
 20
324.2643608293835
 30
0.0
 10
91.91684854991573
 20
324.2741693508767
 30
0.0
 10
91.89277904884014
 20
324.2870078517393
 30
0.0
 10
91.87015619630411
 20
324.3021824724437
 30
0.0
 10
91.84893149902204
 20
324.3192115115273
 30
0.0
 10
91.82894630083442
 20
324.3376495582
 30
0.0
 10
91.80383035120364
 20
324.3637319269706
 30
0.0
 10
91.77489755406478
 20
324.398597308772
 30
0.0
 10
91.74352816207679
 20
324.4429401432001
 30
0.0
 10
91.71470474108061
 20
324.4889647752179
 30
0.0
 10
91.68808774912458
 20
324.5362748201215
 30
0.0
 10
91.66327675586626
 20
324.5845461585376
 30
0.0
 10
91.64004929476391
 20
324.6335968343215
 30
0.0
 10
91.6181664565003
 20
324.6832602303339
 30
0.0
 10
91.59062168335777
 20
324.7501636897483
 30
0.0
 10
91.55864956279248
 20
324.8347922980187
 30
0.0
 10
91.53597879044113
 20
324.9035004934813
 30
0.0
 10
91.5246433166
 20
324.9378548569
 30
0.0
 11
91.9961784639
 21
324.256509737
 31
0.0
 11
91.96905915604682
 21
324.2586894768086
 31
0.0
 11
91.94249651110279
 21
324.2649105288353
 31
0.0
 11
91.91707396072849
 21
324.2746782547136
 31
0.0
 11
91.89301075097104
 21
324.2874027867259
 31
0.0
 11
91.87038790977196
 21
324.3024925356044
 31
0.0
 11
91.84912734020065
 21
324.3194556097392
 31
0.0
 11
91.82913374448819
 21
324.3378407133853
 31
0.0
 11
91.8102630620157
 21
324.3573733940145
 31
0.0
 11
91.77546478418301
 21
324.3990030299661
 31
0.0
 11
91.74394759770504
 21
324.4432279782469
 31
0.0
 11
91.71506797107142
 21
324.4891865210696
 31
0.0
 11
91.68838900157785
 21
324.5364345162913
 31
0.0
 11
91.66354124846129
 21
324.5846749088494
 31
0.0
 11
91.64027277728897
 21
324.6337003188581
 31
0.0
 11
91.61837037305186
 21
324.6833462296946
 31
0.0
 11
91.59767102762
 21
324.7335063676677
 31
0.0
 11
91.55937639383157
 21
324.8350433268574
 31
0.0
 11
91.5246433166
 21
324.9378548569
 31
0.0
  0
SPLINE
  5
101
330
1F
100
AcDbEntity
  8
0
  6
Continuous
 62
     7
100
AcDbSpline
210
0.0
220
0.0
230
1.0
 70
     8
 71
     3
 72
    25
 73
    21
 74
    19
 42
0.0000000001
 43
0.0000000001
 44
0.00000001
 40
0.0
 40
0.0
 40
0.0
 40
0.0
 40
0.1085285490187801
 40
0.2170554556524951
 40
0.2713241332608886
 40
0.3255921109184627
 40
0.379865057941526
 40
0.4341347749078446
 40
0.4884007825040035
 40
0.5426855351780255
 40
0.5969918906350125
 40
0.6512511252515416
 40
0.6784124280696342
 40
0.7055751104284133
 40
0.732760208024946
 40
0.7599421721780335
 40
0.7871532997217424
 40
0.8143760191692504
 40
0.8416525757742156
 40
0.8688563235763801
 40
0.8688563235763801
 40
0.8688563235763801
 40
0.8688563235763801
 10
94.7927136111
 20
324.9378548569
 30
0.0
 10
94.78137718769395
 20
324.9034978163505
 30
0.0
 10
94.75870451243827
 20
324.8347842551838
 30
0.0
 10
94.7267294925866
 20
324.7501487339748
 30
0.0
 10
94.6991824341618
 20
324.6832392515282
 30
0.0
 10
94.67729732279177
 20
324.6335707817291
 30
0.0
 10
94.65406689865137
 20
324.584515122505
 30
0.0
 10
94.62925266656053
 20
324.5362387031658
 30
0.0
 10
94.60263275072242
 20
324.4889235017827
 30
0.0
 10
94.57380539498851
 20
324.4428966290815
 30
0.0
 10
94.54242898050214
 20
324.3985559125728
 30
0.0
 10
94.51349204535262
 20
324.3636928376978
 30
0.0
 10
94.48837532535308
 20
324.3376093329475
 30
0.0
 10
94.46838964887655
 20
324.3191765956564
 30
0.0
 10
94.44716178178987
 20
324.3021640834498
 30
0.0
 10
94.42454343833938
 20
324.2870042460994
 30
0.0
 10
94.40048939245278
 20
324.2741612820892
 30
0.0
 10
94.37502692366787
 20
324.2643443039022
 30
0.0
 10
94.34842913363364
 20
324.2578163534455
 30
0.0
 10
94.33025392388055
 20
324.2569448875991
 30
0.0
 10
94.3211784639
 20
324.256509737
 30
0.0
 11
94.7927136111
 21
324.9378548569
 31
0.0
 11
94.75797760818458
 21
324.8350353254209
 31
0.0
 11
94.71967980292041
 21
324.7334904211892
 31
0.0
 11
94.69897846458245
 21
324.6833252543861
 31
0.0
 11
94.67707381477369
 21
324.633674476791
 31
0.0
 11
94.65380239858567
 21
324.5846439356235
 31
0.0
 11
94.62895146444109
 21
324.536398383997
 31
0.0
 11
94.60226910357389
 21
324.4891453290801
 31
0.0
 11
94.57338425029957
 21
324.4431833923912
 31
0.0
 11
94.54186221921273
 21
324.3989618840589
 31
0.0
 11
94.5070598171371
 21
324.3573342808257
 31
0.0
 11
94.48818711436972
 21
324.3378007849525
 31
0.0
 11
94.46818914802087
 21
324.3194189282771
 31
0.0
 11
94.44693137337359
 21
324.3024738243123
 31
0.0
 11
94.42431430968995
 21
324.2873964370867
 31
0.0
 11
94.40026298396677
 21
324.2746693324216
 31
0.0
 11
94.37485436496402
 21
324.2648980206114
 31
0.0
 11
94.34829524578626
 21
324.2586832214413
 31
0.0
 11
94.3211784639
 21
324.256509737
 31
0.0
  0
SPLINE
  5
102
330
1F
100
AcDbEntity
  8
0
  6
Continuous
 62
     7
100
AcDbSpline
210
0.0
220
0.0
230
1.0
 70
     8
 71
     3
 72
    25
 73
    21
 74
    19
 42
0.0000000001
 43
0.0000000001
 44
0.00000001
 40
0.0
 40
0.0
 40
0.0
 40
0.0
 40
0.0272074181306941
 40
0.054489710379402
 40
0.0817252615499331
 40
0.1089465263892175
 40
0.1361394922857886
 40
0.1633375027352927
 40
0.1904999127674376
 40
0.2176598700645657
 40
0.2719180516412829
 40
0.3262245620917911
 40
0.3805032120278331
 40
0.4347626393901859
 40
0.4890258447550759
 40
0.5432924465563306
 40
0.597554678946287
 40
0.6518175541914586
 40
0.7603351296895149
 40
0.8688543878638905
 40
0.8688543878638905
 40
0.8688543878638905
 40
0.8688543878638905
 10
94.3211784639
 20
314.3841999769
 30
0.0
 10
94.33025513676229
 20
314.3837627364089
 30
0.0
 10
94.34843346125817
 20
314.3828870521521
 30
0.0
 10
94.37503533446322
 20
314.3763465102537
 30
0.0
 10
94.40051079116053
 20
314.3665387717162
 30
0.0
 10
94.42458131473691
 20
314.353701142505
 30
0.0
 10
94.44720368647971
 20
314.3385259039554
 30
0.0
 10
94.46842754207393
 20
314.3214960550567
 30
0.0
 10
94.48841289743555
 20
314.3030577561946
 30
0.0
 10
94.5135294012729
 20
314.2769752540104
 30
0.0
 10
94.54246199848295
 20
314.2421093044611
 30
0.0
 10
94.57383059164397
 20
314.197766020991
 30
0.0
 10
94.60265374268988
 20
314.1517415439951
 30
0.0
 10
94.62927062221061
 20
314.1044319794058
 30
0.0
 10
94.6540813522544
 20
314.0561610365347
 30
0.0
 10
94.67730852785147
 20
314.0071107061804
 30
0.0
 10
94.69919116436793
 20
313.9574476687613
 30
0.0
 10
94.7267357320959
 20
313.8905446864305
 30
0.0
 10
94.75870761174062
 20
313.8059166806842
 30
0.0
 10
94.78137821939215
 20
313.7372089757239
 30
0.0
 10
94.7927136111
 20
313.7028548569
 30
0.0
 11
94.3211784639
 21
314.3841999769
 31
0.0
 11
94.34829835492256
 21
314.3820193549101
 31
0.0
 11
94.37486165125564
 21
314.3757972364393
 31
0.0
 11
94.40028550813926
 21
314.366029803372
 31
0.0
 11
94.42434986725868
 21
314.353305657836
 31
0.0
 11
94.44697187047488
 21
314.3382158478724
 31
0.0
 11
94.46823150234803
 21
314.3212523628227
 31
0.0
 11
94.48822551282163
 21
314.3028666057283
 31
0.0
 11
94.50709672543013
 21
314.2833335410669
 31
0.0
 11
94.54189469133642
 21
314.2417036018789
 31
0.0
 11
94.57341137390871
 21
314.1974780911758
 31
0.0
 11
94.60229056766917
 21
314.1515198056701
 31
0.0
 11
94.62896933861663
 21
314.1042722804606
 31
0.0
 11
94.65381684980122
 21
314.0560322903652
 31
0.0
 11
94.67708504911661
 21
314.007007246034
 31
0.0
 11
94.6989872554249
 21
313.9573616699695
 31
0.0
 11
94.7196864396212
 21
313.9072018912272
 31
0.0
 11
94.75798078711814
 21
313.8056656556176
 31
0.0
 11
94.7927136111
 21
313.7028548569
 31
0.0
  0
SPLINE
  5
103
330
1F
100
AcDbEntity
  8
0
  6
Continuous
 62
     7
100
AcDbSpline
210
0.0
220
0.0
230
1.0
 70
     8
 71
     3
 72
    25
 73
    21
 74
    19
 42
0.0000000001
 43
0.0000000001
 44
0.00000001
 40
0.0
 40
0.0
 40
0.0
 40
0.0
 40
0.1085025556844868
 40
0.2170033620505711
 40
0.2712583157975873
 40
0.3255127643024034
 40
0.3797719179217345
 40
0.4340272286554738
 40
0.4882788892800857
 40
0.5425511686316421
 40
0.5968541105456231
 40
0.6511051290604026
 40
0.6782579265035793
 40
0.7054161158499328
 40
0.7326228693314478
 40
0.7598194768498154
 40
0.7870692643534873
 40
0.8143404776853956
 40
0.841635645944342
 40
0.8688504930654177
 40
0.8688504930654177
 40
0.8688504930654177
 40
0.8688504930654177
 10
91.5246433166
 20
313.7028548569
 30
0.0
 10
91.53597696712507
 20
313.7372036867505
 30
0.0
 10
91.55864408544994
 20
313.805900792667
 30
0.0
 10
91.59061080982933
 20
313.890515983389
 30
0.0
 10
91.61815069406953
 20
313.9574091842449
 30
0.0
 10
91.6400293142521
 20
314.0070655488281
 30
0.0
 10
91.66325147783402
 20
314.0561097134462
 30
0.0
 10
91.68805711159465
 20
314.1043746300962
 30
0.0
 10
91.71466994448447
 20
314.151678038364
 30
0.0
 10
91.74348501577502
 20
314.1977003853839
 30
0.0
 10
91.77483553292603
 20
314.2420492643724
 30
0.0
 10
91.80376036848138
 20
314.2769149055951
 30
0.0
 10
91.82888234899399
 20
314.3029836691049
 30
0.0
 10
91.84886478972398
 20
314.3214228680564
 30
0.0
 10
91.87006664279745
 20
314.3384835190913
 30
0.0
 10
91.89268618897168
 20
314.3536899102488
 30
0.0
 10
91.91679302514314
 20
314.3665113892876
 30
0.0
 10
91.94230267749737
 20
314.3762961783908
 30
0.0
 10
91.96891431174225
 20
314.3828703860949
 30
0.0
 10
91.98709934513306
 20
314.3837572155494
 30
0.0
 10
91.9961784639
 20
314.3841999769
 30
0.0
 11
91.5246433166
 21
313.7028548569
 31
0.0
 11
91.55937074823674
 21
313.805649847449
 31
0.0
 11
91.59765878756664
 21
313.9071705400509
 31
0.0
 11
91.61835447514592
 21
313.9573231922411
 31
0.0
 11
91.64025258034674
 21
314.0069620698591
 31
0.0
 11
91.66351603181792
 21
314.0559811230643
 31
0.0
 11
91.68835851983665
 21
314.104214820122
 31
0.0
 11
91.71503208442327
 21
314.1514563657442
 31
0.0
 11
91.74390203900798
 21
314.1974129325034
 31
0.0
 11
91.775405185415
 21
314.2416437053541
 31
0.0
 11
91.81019650177934
 21
314.2832698667856
 31
0.0
 11
91.82906739463671
 21
314.3027932837959
 31
0.0
 11
91.84905393613633
 21
314.3211809265882
 31
0.0
 11
91.87030154367555
 21
314.3381734722734
 31
0.0
 11
91.89291574080835
 21
314.3532815346424
 31
0.0
 11
91.91701538439607
 21
314.3659999503433
 31
0.0
 11
91.94248067992413
 21
314.3757589359598
 31
0.0
 11
91.96905264303402
 21
314.3820004891936
 31
0.0
 11
91.9961784639
 21
314.3841999769
 31
0.0
  0
SPLINE
  5
104
330
1F
100
AcDbEntity
  8
0
  6
Continuous
 62
     7
100
AcDbSpline
210
0.0
220
0.0
230
1.0
 70
     8
 71
     3
 72
    13
 73
     9
 74
     7
 42
0.0000000001
 43
0.0000000001
 44
0.00000001
 40
0.0
 40
0.0
 40
0.0
 40
0.0
 40
0.1312848067903252
 40
0.2626131915162859
 40
0.3227000711396067
 40
0.3827285903530107
 40
0.4404671082423952
 40
0.4981359434224572
 40
0.4981359434224572
 40
0.4981359434224572
 40
0.4981359434224572
 10
91.5246433166
 20
324.9378548569
 30
0.0
 10
91.48931850429216
 20
324.9638843041115
 30
0.0
 10
91.4186571541582
 20
325.0159518386019
 30
0.0
 10
91.34915039381868
 20
325.0996273403274
 30
0.0
 10
91.30589326456433
 20
325.1715200487493
 30
0.0
 10
91.28117250081213
 20
325.2255273059625
 30
0.0
 10
91.26233162970378
 20
325.2810759541758
 30
0.0
 10
91.2552806947215
 20
325.3189361759652
 30
0.0
 10
91.2517573559
 20
325.3378548569
 30
0.0
 11
91.5246433166
 21
324.9378548569
 31
0.0
 11
91.42219190411414
 21
325.0199487578527
 31
0.0
 11
91.33771213772133
 21
325.1204988135709
 31
0.0
 11
91.30687634882642
 21
325.1720699995772
 31
0.0
 11
91.28182110011647
 21
325.2266195883111
 31
0.0
 11
91.26366155858148
 21
325.2814280502427
 31
0.0
 11
91.2517573559
 21
325.3378548569
 31
0.0
  0
SPLINE
  5
105
330
1F
100
AcDbEntity
  8
0
  6
Continuous
 62
     7
100
AcDbSpline
210
0.0
220
0.0
230
1.0
 70
     8
 71
     3
 72
    13
 73
     9
 74
     7
 42
0.0000000001
 43
0.0000000001
 44
0.00000001
 40
0.0
 40
0.0
 40
0.0
 40
0.0
 40
0.057663189650737
 40
0.1153961315037284
 40
0.1754242231382459
 40
0.2355105400165068
 40
0.3668449111806241
 40
0.498136090447353
 40
0.498136090447353
 40
0.498136090447353
 40
0.498136090447353
 10
95.0655995718
 20
325.3378548569
 30
0.0
 10
95.06207653406469
 20
325.3189380366917
 30
0.0
 10
95.05502619695604
 20
325.2810815135682
 30
0.0
 10
95.03618698233491
 20
325.2255364773055
 30
0.0
 10
95.01146907452406
 20
325.1715303683226
 30
0.0
 10
94.96821392519091
 20
325.0996344853155
 30
0.0
 10
94.89870507503812
 20
325.015955183182
 30
0.0
 10
94.8280402251875
 20
324.9638854444979
 30
0.0
 10
94.7927136111
 20
324.9378548569
 30
0.0
 11
95.0655995718
 21
325.3378548569
 31
0.0
 11
95.05369649236775
 21
325.2814335830689
 31
0.0
 11
95.03553930166412
 21
325.2266302163771
 31
0.0
 11
95.01048598775915
 21
325.1720802095241
 31
0.0
 11
94.9796523552878
 21
325.1205083898489
 31
0.0
 11
94.89517011742883
 21
325.0199525917295
 31
0.0
 11
94.7927136111
 21
324.9378548569
 31
0.0
  0
SPLINE
  5
106
330
1F
100
AcDbEntity
  8
0
  6
Continuous
 62
     7
100
AcDbSpline
210
0.0
220
0.0
230
1.0
 70
     8
 71
     3
 72
    11
 73
     7
 74
     5
 42
0.0000000001
 43
0.0000000001
 44
0.00000001
 40
0.0
 40
0.0
 40
0.0
 40
0.0
 40
0.1068456601932236
 40
0.2142571945557665
 40
0.3333679116620581
 40
0.4521343115265875
 40
0.4521343115265875
 40
0.4521343115265875
 40
0.4521343115265875
 10
91.26069328602
 20
313.347861112194
 30
0.0
 10
91.27137953464215
 20
313.3819698034596
 30
0.0
 10
91.29280862821476
 20
313.4503678318619
 30
0.0
 10
91.35180746376622
 20
313.5456212175269
 30
0.0
 10
91.42822340435791
 20
313.6327597089702
 30
0.0
 10
91.49253437500515
 20
313.6795123650991
 30
0.0
 10
91.5246433166
 20
313.7028548569
 30
0.0
 11
91.26069328602
 21
313.347861112194
 31
0.0
 11
91.29685272209474
 21
313.4484021002779
 31
0.0
 11
91.35199489132333
 21
313.5405789893927
 31
0.0
 11
91.43122463234717
 21
313.6295172323867
 31
0.0
 11
91.5246433166
 21
313.7028548569
 31
0.0
  0
SPLINE
  5
107
330
1F
100
AcDbEntity
  8
0
  6
Continuous
 62
     7
100
AcDbSpline
210
0.0
220
0.0
230
1.0
 70
     8
 71
     3
 72
    13
 73
     9
 74
     7
 42
0.0000000001
 43
0.0000000001
 44
0.00000001
 40
0.0
 40
0.0
 40
0.0
 40
0.0
 40
0.1312911943743747
 40
0.2626255805762447
 40
0.3227118843015312
 40
0.3827399628074405
 40
0.4404729026719106
 40
0.4981360903526245
 40
0.4981360903526245
 40
0.4981360903526245
 40
0.4981360903526245
 10
94.7927136111
 20
313.7028548569
 30
0.0
 10
94.82804022911927
 20
313.6768242660822
 30
0.0
 10
94.89870508681452
 20
313.6247545209723
 30
0.0
 10
94.96821393781147
 20
313.5410752116337
 30
0.0
 10
95.01146908220927
 20
313.4691793301118
 30
0.0
 10
95.03618698501715
 20
313.4151732292751
 30
0.0
 10
95.055026197416
 20
313.3596281982993
 30
0.0
 10
95.06207653421761
 20
313.3217716764661
 30
0.0
 10
95.0655995718
 20
313.3028548569
 30
0.0
 11
94.7927136111
 21
313.7028548569
 31
0.0
 11
94.8951701283116
 21
313.6207571114917
 31
0.0
 11
94.97965237221305
 21
313.5202012988084
 31
0.0
 11
95.01048599583423
 21
313.4686294891664
 31
0.0
 11
95.03553930320017
 21
313.4140794937572
 31
0.0
 11
95.05369649291926
 21
313.3592761288341
 31
0.0
 11
95.0655995718
 21
313.3028548569
 31
0.0
  0
SPLINE
  5
108
330
1F
100
AcDbEntity
  8
FASEN
  6
Continuous
 62
     7
100
AcDbSpline
210
0.0
220
0.0
230
1.0
 70
     8
 71
     3
 72
    43
 73
    39
 74
    37
 42
0.0000000001
 43
0.0000000001
 44
0.00000001
 40
0.0
 40
0.0
 40
0.0
 40
0.0
 40
0.3536627138549493
 40
0.7077087111083051
 40
1.061386016654846
 40
1.41494091300438
 40
1.768273600928919
 40
2.121679340793945
 40
2.474990473774618
 40
2.828124790757117
 40
3.004861640139395
 40
3.181542282457709
 40
3.358289604773681
 40
3.53509262805446
 40
3.888693191041065
 40
4.242467023627055
 40
4.596379402978705
 40
4.950247373498994
 40
5.303947628093957
 40
5.657661399161596
 40
6.010712555540286
 40
6.363747200737111
 40
6.715806091099077
 40
7.06790911593554
 40
7.419215040243933
 40
7.770346273728377
 40
7.945854779199339
 40
8.121308710056537
 40
8.296759233425709
 40
8.472264989871247
 40
8.823345921763327
 40
9.174601594886497
 40
9.526721241993284
 40
9.878775142270182
 40
10.23179857981592
 40
10.58493613223333
 40
10.93889559963591
 40
11.29248564910826
 40
11.29248564910826
 40
11.29248564910826
 40
11.29248564910826
 10
64.0594300523
 20
319.3203548569
 30
0.0
 10
64.06275987912203
 20
319.438292166642
 30
0.0
 10
64.06942314147936
 20
319.674294601163
 30
0.0
 10
64.1237590967449
 20
320.0247789084068
 30
0.0
 10
64.20970232227303
 20
320.3683913746097
 30
0.0
 10
64.32958946706941
 20
320.701628877608
 30
0.0
 10
64.48163832848991
 20
321.0213003677935
 30
0.0
 10
64.66445224493319
 20
321.3243681732373
 30
0.0
 10
64.87631544061787
 20
321.6077749222153
 30
0.0
 10
65.07524987979514
 20
321.8254895213411
 30
0.0
 10
65.24663035494132
 20
321.9871510904048
 30
0.0
 10
65.38105687871257
 20
322.1019817400676
 30
0.0
 10
65.52097514567956
 20
322.2100890621085
 30
0.0
 10
65.71442949770214
 20
322.3449046697958
 30
0.0
 10
65.96847429631524
 20
322.4953341760865
 30
0.0
 10
66.28950271088229
 20
322.6452626945974
 30
0.0
 10
66.6237615740802
 20
322.7630923742886
 30
0.0
 10
66.96786238291563
 20
322.847852609164
 30
0.0
 10
67.31851418705915
 20
322.8986966248555
 30
0.0
 10
67.67217071614267
 20
322.9153107342533
 30
0.0
 10
68.0255427012497
 20
322.8974494716613
 30
0.0
 10
68.3749747692023
 20
322.8454891501987
 30
0.0
 10
68.71736550720777
 20
322.7597756135664
 30
0.0
 10
69.04925191892825
 20
322.6413294035366
 30
0.0
 10
69.36763943359237
 20
322.4910742735049
 30
0.0
 10
69.61927580972659
 20
322.3406626253695
 30
0.0
 10
69.81077170312503
 20
322.2059895574351
 30
0.0
 10
69.9492226357044
 20
322.0980685217079
 30
0.0
 10
70.08222074955415
 20
321.9834962366996
 30
0.0
 10
70.25185146224082
 20
321.8221767947882
 30
0.0
 10
70.4487222673044
 20
321.6049971236356
 30
0.0
 10
70.65844900783627
 20
321.3222493820136
 30
0.0
 10
70.83940935115106
 20
321.0198709743649
 30
0.0
 10
70.9900411693706
 20
320.7006803051527
 30
0.0
 10
71.10887296834922
 20
320.3679066392107
 30
0.0
 10
71.19411810754427
 20
320.0245220127555
 30
0.0
 10
71.24795326754735
 20
319.6742112472322
 30
0.0
 10
71.25460349683051
 20
319.4382659239562
 30
0.0
 10
71.2579268754
 20
319.3203548569
 30
0.0
 11
64.0594300523
 21
319.3203548569
 31
0.0
 11
64.07680321608807
 21
319.6735905973783
 31
0.0
 11
64.1290537851626
 21
320.0237597653564
 31
0.0
 11
64.21538265911134
 21
320.366739301162
 31
0.0
 11
64.33498355454567
 21
320.6994504229239
 31
0.0
 11
64.48676040791378
 21
321.0185237297636
 31
0.0
 11
64.66931813211009
 21
321.3211262649576
 31
0.0
 11
64.88082982675311
 21
321.6041307873902
 31
0.0
 11
65.11905718908073
 21
321.8648060061378
 31
0.0
 11
65.24761594274962
 21
321.9860848616102
 31
0.0
 11
65.3819519682013
 21
322.1008449663324
 31
0.0
 11
65.5218163855731
 21
322.2089077291099
 31
0.0
 11
65.66687385384029
 21
322.3099900714905
 31
0.0
 11
65.97110528998854
 21
322.4902026998038
 31
0.0
 11
66.29165148598602
 21
322.6398892417978
 31
0.0
 11
66.62542024354815
 21
322.757585413077
 31
0.0
 11
66.9690199103928
 21
322.842212887956
 31
0.0
 11
67.31905580509498
 21
322.8929942085433
 31
0.0
 11
67.67238124166315
 21
322.9095642935401
 31
0.0
 11
68.02498296746467
 21
322.8917558129166
 31
0.0
 11
68.37417204453887
 21
322.8397899668125
 31
0.0
 11
68.71569279585717
 21
322.7542970507207
 31
0.0
 11
69.0472951721675
 21
322.6359061552754
 31
0.0
 11
69.36500381192
 21
322.4859825991517
 31
0.0
 11
69.6663656260673
 21
322.3057766056272
 31
0.0
 11
69.80993159167282
 21
322.2048209271717
 31
0.0
 11
69.94831492403853
 21
322.0969592788596
 31
0.0
 11
70.081239801764
 21
321.9824435025133
 31
0.0
 11
70.20841242630816
 21
321.8614914702358
 31
0.0
 11
70.44423053816897
 21
321.6013998731846
 31
0.0
 11
70.65346403534275
 21
321.31926180138
 31
0.0
 11
70.83431892455232
 21
321.0171364053478
 31
0.0
 11
70.98459648918795
 21
320.698767747551
 31
0.0
 11
71.10323320297917
 21
320.36627582645
 31
0.0
 11
71.18882181205838
 21
320.0236671270227
 31
0.0
 11
71.24064901694959
 21
319.673522520614
 31
0.0
 11
71.2579268754
 21
319.3203548569
 31
0.0
  0
SPLINE
  5
109
330
1F
100
AcDbEntity
  8
0
  6
Continuous
 62
     7
100
AcDbSpline
210
0.0
220
0.0
230
1.0
 70
     8
 71
     3
 72
    11
 73
     7
 74
     5
 42
0.0000000001
 43
0.0000000001
 44
0.00000001
 40
0.0
 40
0.0
 40
0.0
 40
0.0
 40
0.4419689634229184
 40
0.8839020538983706
 40
1.150518561921155
 40
1.416734593101626
 40
1.416734593101626
 40
1.416734593101626
 40
1.416734593101626
 10
50.99516867369999
 20
311.6703548569
 30
0.0
 10
51.06386877386292
 20
311.8008791010897
 30
0.0
 10
51.20126339806177
 20
312.0619169953103
 30
0.0
 10
51.32618956963861
 20
312.4260860268896
 30
0.0
 10
51.39622593502592
 20
312.7444717577559
 30
0.0
 10
51.40452970131174
 20
312.9221985106507
 30
0.0
 10
51.4086784639
 20
313.0109950974
 30
0.0
 11
50.99516867369999
 21
311.6703548569
 31
0.0
 11
51.1909135493835
 21
312.0666129902838
 31
0.0
 11
51.33510077018936
 21
312.4843627979599
 31
0.0
 11
51.38874844994342
 21
312.7455261353702
 31
0.0
 11
51.4086784639
 21
313.0109950974
 31
0.0
  0
SPLINE
  5
10A
330
1F
100
AcDbEntity
  8
0
  6
Continuous
 62
     7
100
AcDbSpline
210
0.0
220
0.0
230
1.0
 70
     8
 71
     3
 72
    11
 73
     7
 74
     5
 42
0.0000000001
 43
0.0000000001
 44
0.00000001
 40
0.0
 40
0.0
 40
0.0
 40
0.0
 40
0.3847579053301837
 40
0.7696659746337038
 40
1.093183244058603
 40
1.416570809353053
 40
1.416570809353053
 40
1.416570809353053
 40
1.416570809353053
 10
51.4086784639
 20
325.6297146164
 30
0.0
 10
51.40005042611389
 20
325.7580611887172
 30
0.0
 10
51.38279098317629
 20
326.0148044246715
 30
0.0
 10
51.27694306518746
 20
326.3658987031848
 30
0.0
 10
51.14816492030932
 20
326.6850913696253
 30
0.0
 10
51.04616060529657
 20
326.8752797387028
 30
0.0
 10
50.99516867369999
 20
326.9703548569
 30
0.0
 11
51.4086784639
 21
325.6297146164
 31
0.0
 11
51.36848399062017
 21
326.0123672657203
 31
0.0
 11
51.26514690142898
 21
326.3831443791084
 31
0.0
 11
51.14283018961785
 21
326.6826473768027
 31
0.0
 11
50.99516867369999
 21
326.9703548569
 31
0.0
  0
ARC
  5
10B
330
1F
100
AcDbEntity
  8
1
  6
Continuous
 62
     7
100
AcDbCircle
 10
108.6086784639
 20
298.3203548569
 30
0.0
 40
7.499999999999886
100
AcDbArc
 50
90.0
 51
180.0
  0
ARC
  5
10C
330
1F
100
AcDbEntity
  8
1
  6
Continuous
 62
     7
100
AcDbCircle
 10
108.6086784639
 20
340.3203548569
 30
0.0
 40
7.5
100
AcDbArc
 50
180.0
 51
270.0
  0
DIMENSION
  5
117
330
1F
100
AcDbEntity
  8
1
100
AcDbDimension
  2
*D2
 10
205.1586784639
 20
349.240861014928
 30
0.0
 11
153.0433138581834
 21
352.990861014928
 31
0.0
 70
    32
  1
<>
 71
     5
 42
-1.0
 53
0.00013888888889
  3
ME10_DIM_10
100
AcDbAlignedDimension
 13
101.1086784639
 23
344.3203048384
 33
0.0
 14
205.1586784639
 24
328.8959643653
 34
0.0
100
AcDbRotatedDimension
  0
DIMENSION
  5
124
330
1F
100
AcDbEntity
  8
1
100
AcDbDimension
  2
*D3
 10
215.915240194326
 20
323.3203548569
 30
0.0
 11
212.165240194326
 21
319.345691169242
 31
0.0
 70
    32
  1
<>
 71
     5
 42
-1.0
 53
90.0
  3
ME10_DIM_11
100
AcDbAlignedDimension
 13
205.1586784639
 23
315.3203548569
 33
0.0
 14
205.1586784639
 24
323.3203548569
 34
0.0
 50
90.0
100
AcDbRotatedDimension
  0
DIMENSION
  5
12F
330
1F
100
AcDbEntity
  8
1
100
AcDbDimension
  2
*D4
 10
226.26968196524
 20
329.8203548569466
 30
0.0
 11
222.51968196524
 21
319.853884630392
 31
0.0
 70
    32
  1
<>
 71
     5
 42
-1.0
 53
90.0
  3
ME10_DIM_12
100
AcDbAlignedDimension
 13
205.1586784639
 23
308.8203548569486
 33
0.0
 14
205.1586784639
 24
329.8203548569466
 34
0.0
 50
90.0
100
AcDbRotatedDimension
  0
DIMENSION
  5
13A
330
1F
100
AcDbEntity
  8
1
100
AcDbDimension
  2
*D5
 10
234.718398256845
 20
332.8203548568999
 30
0.0
 11
230.968398256845
 21
320.0444571783219
 31
0.0
 70
    32
  1
<>
 71
     5
 42
-1.0
 53
90.0
  3
ME10_DIM_13
100
AcDbAlignedDimension
 13
167.0400642553
 23
305.8203548568998
 33
0.0
 14
167.0400642553
 24
332.8203548568999
 34
0.0
 50
90.0
100
AcDbRotatedDimension
  0
DIMENSION
  5
145
330
1F
100
AcDbEntity
  8
1
100
AcDbDimension
  2
*D6
 10
75.1586784639
 20
357.364631895693
 30
0.0
 11
140.5400124011619
 21
361.114631895693
 31
0.0
 70
    32
  1
<>
 71
     5
 42
-1.0
 53
0.00013888888889
  3
ME10_DIM_14
100
AcDbAlignedDimension
 13
205.1586784639
 23
328.8959643653
 33
0.0
 14
75.1586784639
 24
344.3203548569
 34
0.0
100
AcDbRotatedDimension
  0
DIMENSION
  5
150
330
1F
100
AcDbEntity
  8
1
100
AcDbDimension
  2
*D7
 10
205.1586784639
 20
364.777572824391
 30
0.0
 11
130.2449280015895
 21
368.527572824391
 31
0.0
 70
    32
  1
<>
 71
     5
 42
-1.0
 53
0.00013888888889
  3
ME10_DIM_15
100
AcDbAlignedDimension
 13
50.2586784639
 23
336.3767106381
 33
0.0
 14
205.1586784639
 24
328.8959643653
 34
0.0
100
AcDbRotatedDimension
  0
INSERT
  5
157
330
1F
100
AcDbEntity
  8
1
100
AcDbBlockReference
  2
*D8
 10
0.0
 20
0.0
 30
0.0
  0
DIMENSION
  5
162
330
1F
100
AcDbEntity
  8
1
100
AcDbDimension
  2
*D9
 10
191.2285306593004
 20
331.8699874235446
 30
0.0
 11
194.2232189807903
 21
339.3531317229039
 31
0.0
 70
    37
  1
<>
 71
     5
 42
-1.0
  3
ME10_DIM_16
100
AcDb3PointAngularDimension
 13
191.1725709779742
 23
330.9210853878876
 33
0.0
 14
169.4607771776347
 24
332.8203548568999
 34
0.0
 15
167.0400642553
 25
332.8203548568999
 35
0.0
  0
ENDSEC
  0
SECTION
  2
OBJECTS
  0
DICTIONARY
  5
C
330
0
100
AcDbDictionary
281
     1
  3
ACAD_GROUP
350
D
  3
ACAD_LAYOUT
350
1A
  3
ACAD_MLEADERSTYLE
350
165
  3
ACAD_MLINESTYLE
350
17
  3
ACAD_PLOTSETTINGS
350
19
  3
ACAD_PLOTSTYLENAME
350
E
  3
ACAD_SCALELIST
350
4B
  3
ACAD_VISUALSTYLE
350
2A
  3
AcDbVariableDictionary
350
163
  0
DICTIONARY
  5
D
102
{ACAD_REACTORS
330
C
102
}
330
C
100
AcDbDictionary
281
     1
  0
DICTIONARY
  5
1A
102
{ACAD_REACTORS
330
C
102
}
330
C
100
AcDbDictionary
281
     1
  3
Layout1
350
1E
  3
Layout2
350
26
  3
Model
350
22
  0
DICTIONARY
  5
165
102
{ACAD_REACTORS
330
C
102
}
330
C
100
AcDbDictionary
281
     1
  0
DICTIONARY
  5
17
102
{ACAD_REACTORS
330
C
102
}
330
C
100
AcDbDictionary
281
     1
  3
Standard
350
18
  0
DICTIONARY
  5
19
102
{ACAD_REACTORS
330
C
102
}
330
C
100
AcDbDictionary
281
     1
  0
ACDBDICTIONARYWDFLT
  5
E
102
{ACAD_REACTORS
330
C
102
}
330
C
100
AcDbDictionary
281
     1
  3
Normal
350
F
100
AcDbDictionaryWithDefault
340
F
  0
DICTIONARY
  5
4B
102
{ACAD_REACTORS
330
C
102
}
330
C
100
AcDbDictionary
281
     1
  3
A0
350
4C
  3
A1
350
4D
  3
A2
350
4E
  3
A3
350
4F
  3
A4
350
50
  3
A5
350
51
  3
A6
350
52
  3
A7
350
53
  3
A8
350
54
  3
A9
350
55
  3
B0
350
56
  3
B1
350
57
  3
B2
350
58
  3
B3
350
59
  3
B4
350
5A
  3
B5
350
5B
  3
B6
350
5C
  3
B7
350
5D
  3
B8
350
5E
  3
B9
350
5F
  3
C0
350
60
  3
C1
350
61
  3
C2
350
62
  3
C3
350
63
  3
C4
350
64
  3
C5
350
65
  3
C6
350
66
  3
C7
350
67
  3
C8
350
68
  3
C9
350
69
  3
D0
350
6A
  3
D1
350
6B
  3
D2
350
6C
  0
DICTIONARY
  5
2A
102
{ACAD_REACTORS
330
C
102
}
330
C
100
AcDbDictionary
281
     1
  3
2dWireframe
350
2F
  3
3D Hidden
350
31
  3
3dWireframe
350
30
  3
Basic
350
32
  3
Brighten
350
36
  3
ColorChange
350
3A
  3
Conceptual
350
34
  3
Dim
350
35
  3
Facepattern
350
39
  3
Flat
350
2B
  3
FlatWithEdges
350
2C
  3
Gouraud
350
2D
  3
GouraudWithEdges
350
2E
  3
Linepattern
350
38
  3
Realistic
350
33
  3
Thicken
350
37
  0
DICTIONARY
  5
163
102
{ACAD_REACTORS
330
C
102
}
330
C
100
AcDbDictionary
281
     1
  3
CANNOSCALE
350
166
  0
LAYOUT
  5
1E
102
{ACAD_REACTORS
330
1A
102
}
330
1A
100
AcDbPlotSettings
  1

  2
none_device
  4

  6

 40
0.0
 41
0.0
 42
0.0
 43
0.0
 44
0.0
 45
0.0
 46
0.0
 47
0.0
 48
0.0
 49
0.0
140
0.0
141
0.0
142
1.0
143
1.0
 70
   688
 72
     0
 73
     0
 74
     5
  7

 75
    16
147
1.0
148
0.0
149
0.0
100
AcDbLayout
  1
Layout1
 70
     1
 71
     1
 10
0.0
 20
0.0
 11
12.0
 21
9.0
 12
0.0
 22
0.0
 32
0.0
 14
1.00000000000000E+20
 24
1.00000000000000E+20
 34
1.00000000000000E+20
 15
-1.00000000000000E+20
 25
-1.00000000000000E+20
 35
-1.00000000000000E+20
146
0.0
 13
0.0
 23
0.0
 33
0.0
 16
1.0
 26
0.0
 36
0.0
 17
0.0
 27
1.0
 37
0.0
 76
     0
330
1B
  0
LAYOUT
  5
26
102
{ACAD_REACTORS
330
1A
102
}
330
1A
100
AcDbPlotSettings
  1

  2
none_device
  4

  6

 40
0.0
 41
0.0
 42
0.0
 43
0.0
 44
0.0
 45
0.0
 46
0.0
 47
0.0
 48
0.0
 49
0.0
140
0.0
141
0.0
142
1.0
143
1.0
 70
   688
 72
     0
 73
     0
 74
     5
  7

 75
    16
147
1.0
148
0.0
149
0.0
100
AcDbLayout
  1
Layout2
 70
     1
 71
     2
 10
0.0
 20
0.0
 11
0.0
 21
0.0
 12
0.0
 22
0.0
 32
0.0
 14
0.0
 24
0.0
 34
0.0
 15
0.0
 25
0.0
 35
0.0
146
0.0
 13
0.0
 23
0.0
 33
0.0
 16
1.0
 26
0.0
 36
0.0
 17
0.0
 27
1.0
 37
0.0
 76
     0
330
23
  0
LAYOUT
  5
22
102
{ACAD_REACTORS
330
1A
102
}
330
1A
100
AcDbPlotSettings
  1

  2
none_device
  4

  6

 40
0.0
 41
0.0
 42
0.0
 43
0.0
 44
0.0
 45
0.0
 46
0.0
 47
0.0
 48
0.0
 49
0.0
140
0.0
141
0.0
142
1.0
143
1.0
 70
  1712
 72
     0
 73
     0
 74
     0
  7

 75
     0
147
1.0
148
0.0
149
0.0
100
AcDbLayout
  1
Model
 70
     1
 71
     0
 10
0.0
 20
0.0
 11
12.0
 21
9.0
 12
0.0
 22
0.0
 32
0.0
 14
47.13367846389996
 24
276.4745922488697
 34
0.0
 15
236.718398256845
 25
370.277572824391
 35
0.0
146
0.0
 13
0.0
 23
0.0
 33
0.0
 16
1.0
 26
0.0
 36
0.0
 17
0.0
 27
1.0
 37
0.0
 76
     0
330
1F
331
29
  0
MLINESTYLE
  5
18
102
{ACAD_REACTORS
330
17
102
}
330
17
100
AcDbMlineStyle
  2
Standard
 70
     0
  3

 62
   256
 51
90.0
 52
90.0
 71
     2
 49
0.5
 62
   256
  6
BYLAYER
 49
-0.5
 62
   256
  6
BYLAYER
  0
ACDBPLACEHOLDER
  5
F
102
{ACAD_REACTORS
330
E
102
}
330
E
  0
SCALE
  5
4C
102
{ACAD_REACTORS
330
4B
102
}
330
4B
100
AcDbScale
 70
     0
300
1:1
140
1.0
141
1.0
290
     1
  0
SCALE
  5
4D
102
{ACAD_REACTORS
330
4B
102
}
330
4B
100
AcDbScale
 70
     0
300
1:2
140
1.0
141
2.0
290
     0
  0
SCALE
  5
4E
102
{ACAD_REACTORS
330
4B
102
}
330
4B
100
AcDbScale
 70
     0
300
1:4
140
1.0
141
4.0
290
     0
  0
SCALE
  5
4F
102
{ACAD_REACTORS
330
4B
102
}
330
4B
100
AcDbScale
 70
     0
300
1:5
140
1.0
141
5.0
290
     0
  0
SCALE
  5
50
102
{ACAD_REACTORS
330
4B
102
}
330
4B
100
AcDbScale
 70
     0
300
1:8
140
1.0
141
8.0
290
     0
  0
SCALE
  5
51
102
{ACAD_REACTORS
330
4B
102
}
330
4B
100
AcDbScale
 70
     0
300
1:10
140
1.0
141
10.0
290
     0
  0
SCALE
  5
52
102
{ACAD_REACTORS
330
4B
102
}
330
4B
100
AcDbScale
 70
     0
300
1:16
140
1.0
141
16.0
290
     0
  0
SCALE
  5
53
102
{ACAD_REACTORS
330
4B
102
}
330
4B
100
AcDbScale
 70
     0
300
1:20
140
1.0
141
20.0
290
     0
  0
SCALE
  5
54
102
{ACAD_REACTORS
330
4B
102
}
330
4B
100
AcDbScale
 70
     0
300
1:30
140
1.0
141
30.0
290
     0
  0
SCALE
  5
55
102
{ACAD_REACTORS
330
4B
102
}
330
4B
100
AcDbScale
 70
     0
300
1:40
140
1.0
141
40.0
290
     0
  0
SCALE
  5
56
102
{ACAD_REACTORS
330
4B
102
}
330
4B
100
AcDbScale
 70
     0
300
1:50
140
1.0
141
50.0
290
     0
  0
SCALE
  5
57
102
{ACAD_REACTORS
330
4B
102
}
330
4B
100
AcDbScale
 70
     0
300
1:100
140
1.0
141
100.0
290
     0
  0
SCALE
  5
58
102
{ACAD_REACTORS
330
4B
102
}
330
4B
100
AcDbScale
 70
     0
300
2:1
140
2.0
141
1.0
290
     0
  0
SCALE
  5
59
102
{ACAD_REACTORS
330
4B
102
}
330
4B
100
AcDbScale
 70
     0
300
4:1
140
4.0
141
1.0
290
     0
  0
SCALE
  5
5A
102
{ACAD_REACTORS
330
4B
102
}
330
4B
100
AcDbScale
 70
     0
300
8:1
140
8.0
141
1.0
290
     0
  0
SCALE
  5
5B
102
{ACAD_REACTORS
330
4B
102
}
330
4B
100
AcDbScale
 70
     0
300
10:1
140
10.0
141
1.0
290
     0
  0
SCALE
  5
5C
102
{ACAD_REACTORS
330
4B
102
}
330
4B
100
AcDbScale
 70
     0
300
100:1
140
100.0
141
1.0
290
     0
  0
SCALE
  5
5D
102
{ACAD_REACTORS
330
4B
102
}
330
4B
100
AcDbScale
 70
     0
300
1/128" = 1'-0"
140
0.0078125
141
12.0
290
     0
  0
SCALE
  5
5E
102
{ACAD_REACTORS
330
4B
102
}
330
4B
100
AcDbScale
 70
     0
300
1/64" = 1'-0"
140
0.015625
141
12.0
290
     0
  0
SCALE
  5
5F
102
{ACAD_REACTORS
330
4B
102
}
330
4B
100
AcDbScale
 70
     0
300
1/32" = 1'-0"
140
0.03125
141
12.0
290
     0
  0
SCALE
  5
60
102
{ACAD_REACTORS
330
4B
102
}
330
4B
100
AcDbScale
 70
     0
300
1/16" = 1'-0"
140
0.0625
141
12.0
290
     0
  0
SCALE
  5
61
102
{ACAD_REACTORS
330
4B
102
}
330
4B
100
AcDbScale
 70
     0
300
3/32" = 1'-0"
140
0.09375
141
12.0
290
     0
  0
SCALE
  5
62
102
{ACAD_REACTORS
330
4B
102
}
330
4B
100
AcDbScale
 70
     0
300
1/8" = 1'-0"
140
0.125
141
12.0
290
     0
  0
SCALE
  5
63
102
{ACAD_REACTORS
330
4B
102
}
330
4B
100
AcDbScale
 70
     0
300
3/16" = 1'-0"
140
0.1875
141
12.0
290
     0
  0
SCALE
  5
64
102
{ACAD_REACTORS
330
4B
102
}
330
4B
100
AcDbScale
 70
     0
300
1/4" = 1'-0"
140
0.25
141
12.0
290
     0
  0
SCALE
  5
65
102
{ACAD_REACTORS
330
4B
102
}
330
4B
100
AcDbScale
 70
     0
300
3/8" = 1'-0"
140
0.375
141
12.0
290
     0
  0
SCALE
  5
66
102
{ACAD_REACTORS
330
4B
102
}
330
4B
100
AcDbScale
 70
     0
300
1/2" = 1'-0"
140
0.5
141
12.0
290
     0
  0
SCALE
  5
67
102
{ACAD_REACTORS
330
4B
102
}
330
4B
100
AcDbScale
 70
     0
300
3/4" = 1'-0"
140
0.75
141
12.0
290
     0
  0
SCALE
  5
68
102
{ACAD_REACTORS
330
4B
102
}
330
4B
100
AcDbScale
 70
     0
300
1" = 1'-0"
140
1.0
141
12.0
290
     0
  0
SCALE
  5
69
102
{ACAD_REACTORS
330
4B
102
}
330
4B
100
AcDbScale
 70
     0
300
1-1/2" = 1'-0"
140
1.5
141
12.0
290
     0
  0
SCALE
  5
6A
102
{ACAD_REACTORS
330
4B
102
}
330
4B
100
AcDbScale
 70
     0
300
3" = 1'-0"
140
3.0
141
12.0
290
     0
  0
SCALE
  5
6B
102
{ACAD_REACTORS
330
4B
102
}
330
4B
100
AcDbScale
 70
     0
300
6" = 1'-0"
140
6.0
141
12.0
290
     0
  0
SCALE
  5
6C
102
{ACAD_REACTORS
330
4B
102
}
330
4B
100
AcDbScale
 70
     0
300
1'-0" = 1'-0"
140
12.0
141
12.0
290
     0
  0
VISUALSTYLE
  5
2F
102
{ACAD_REACTORS
330
2A
102
}
330
2A
100
AcDbVisualStyle
  2
2dWireframe
 70
     4
 71
     0
 72
     2
 73
     0
 90
        0
 40
-0.6
 41
-30.0
 62
     5
 63
     7
 74
     1
 91
        4
 64
     7
 65
   257
 75
     1
175
     1
 42
1.0
 92
        0
 66
   257
 43
1.0
 76
     1
 77
     6
 78
     2
 67
     7
 79
     5
170
     0
171
     0
290
     0
174
     0
 93
        1
 44
0.0
173
     0
291
     0
 45
0.0
1001
ACAD
1000
AcDbSavedByObjectVersion
1070
     0
  0
VISUALSTYLE
  5
31
102
{ACAD_REACTORS
330
2A
102
}
330
2A
100
AcDbVisualStyle
  2
3D Hidden
 70
     6
 71
     1
 72
     2
 73
     2
 90
        0
 40
-0.6
 41
-30.0
 62
     5
 63
     7
 74
     2
 91
        2
 64
     7
 65
   257
 75
     2
175
     1
 42
40.0
 92
        0
 66
   257
 43
1.0
 76
     1
 77
     6
 78
     2
 67
     7
 79
     3
170
     0
171
     0
290
     0
174
     0
 93
        1
 44
0.0
173
     0
291
     0
 45
0.0
1001
ACAD
1000
AcDbSavedByObjectVersion
1070
     0
  0
VISUALSTYLE
  5
30
102
{ACAD_REACTORS
330
2A
102
}
330
2A
100
AcDbVisualStyle
  2
3dWireframe
 70
     5
 71
     0
 72
     2
 73
     0
 90
        0
 40
-0.6
 41
-30.0
 62
     5
 63
     7
 74
     1
 91
        4
 64
     7
 65
   257
 75
     1
175
     1
 42
1.0
 92
        0
 66
   257
 43
1.0
 76
     1
 77
     6
 78
     2
 67
     7
 79
     5
170
     0
171
     0
290
     0
174
     0
 93
        1
 44
0.0
173
     0
291
     0
 45
0.0
1001
ACAD
1000
AcDbSavedByObjectVersion
1070
     0
  0
VISUALSTYLE
  5
32
102
{ACAD_REACTORS
330
2A
102
}
330
2A
100
AcDbVisualStyle
  2
Basic
 70
     7
 71
     1
 72
     0
 73
     1
 90
        0
 40
-0.6
 41
-30.0
 62
     5
 63
     7
 74
     0
 91
        4
 64
     7
 65
   257
 75
     1
175
     1
 42
1.0
 92
        8
 66
     7
 43
1.0
 76
     1
 77
     6
 78
     2
 67
     7
 79
     5
170
     0
171
     0
290
     0
174
     0
 93
        1
 44
0.0
173
     0
291
     1
 45
0.0
1001
ACAD
1000
AcDbSavedByObjectVersion
1070
     0
  0
VISUALSTYLE
  5
36
102
{ACAD_REACTORS
330
2A
102
}
330
2A
100
AcDbVisualStyle
  2
Brighten
 70
    12
 71
     2
 72
     2
 73
     0
 90
        0
 40
-0.6
 41
-30.0
 62
     5
 63
     7
 74
     1
 91
        4
 64
     7
 65
   257
 75
     1
175
     1
 42
1.0
 92
        8
 66
     7
 43
1.0
 76
     1
 77
     6
 78
     2
 67
     7
 79
     5
170
     0
171
     0
290
     0
174
     0
 93
        1
 44
50.0
173
     0
291
     1
 45
0.0
1001
ACAD
1000
AcDbSavedByObjectVersion
1070
     0
  0
VISUALSTYLE
  5
3A
102
{ACAD_REACTORS
330
2A
102
}
330
2A
100
AcDbVisualStyle
  2
ColorChange
 70
    16
 71
     2
 72
     2
 73
     3
 90
        0
 40
-0.6
 41
-30.0
 62
     5
 63
     8
 74
     1
 91
        4
 64
     7
 65
   257
 75
     1
175
     1
 42
1.0
 92
        8
 66
     8
 43
1.0
 76
     1
 77
     6
 78
     2
 67
     7
 79
     5
170
     0
171
     0
290
     0
174
     0
 93
        1
 44
0.0
173
     0
291
     1
 45
0.0
1001
ACAD
1000
AcDbSavedByObjectVersion
1070
     0
  0
VISUALSTYLE
  5
34
102
{ACAD_REACTORS
330
2A
102
}
330
2A
100
AcDbVisualStyle
  2
Conceptual
 70
     9
 71
     3
 72
     2
 73
     0
 90
        0
 40
-0.6
 41
-30.0
 62
     5
 63
     7
 74
     2
 91
        2
 64
     7
 65
   257
 75
     1
175
     1
 42
40.0
 92
        8
 66
     7
 43
1.0
 76
     1
 77
     6
 78
     2
 67
     7
 79
     3
170
     0
171
     0
290
     0
174
     0
 93
        1
 44
0.0
173
     0
291
     0
 45
0.0
1001
ACAD
1000
AcDbSavedByObjectVersion
1070
     0
  0
VISUALSTYLE
  5
35
102
{ACAD_REACTORS
330
2A
102
}
330
2A
100
AcDbVisualStyle
  2
Dim
 70
    11
 71
     2
 72
     2
 73
     0
 90
        0
 40
-0.6
 41
-30.0
 62
     5
 63
     7
 74
     1
 91
        4
 64
     7
 65
   257
 75
     1
175
     1
 42
1.0
 92
        8
 66
     7
 43
1.0
 76
     1
 77
     6
 78
     2
 67
     7
 79
     5
170
     0
171
     0
290
     0
174
     0
 93
        1
 44
-50.0
173
     0
291
     1
 45
0.0
1001
ACAD
1000
AcDbSavedByObjectVersion
1070
     0
  0
VISUALSTYLE
  5
39
102
{ACAD_REACTORS
330
2A
102
}
330
2A
100
AcDbVisualStyle
  2
Facepattern
 70
    15
 71
     2
 72
     2
 73
     0
 90
        0
 40
-0.6
 41
-30.0
 62
     5
 63
     7
 74
     1
 91
        4
 64
     7
 65
   257
 75
     1
175
     1
 42
1.0
 92
        8
 66
     7
 43
1.0
 76
     1
 77
     6
 78
     2
 67
     7
 79
     5
170
     0
171
     0
290
     0
174
     0
 93
        1
 44
0.0
173
     0
291
     1
 45
0.0
1001
ACAD
1000
AcDbSavedByObjectVersion
1070
     0
  0
VISUALSTYLE
  5
2B
102
{ACAD_REACTORS
330
2A
102
}
330
2A
100
AcDbVisualStyle
  2
Flat
 70
     0
 71
     2
 72
     1
 73
     1
 90
        2
 40
-0.6
 41
30.0
 62
     5
 63
     7
 74
     0
 91
        4
 64
     7
 65
   257
 75
     1
175
     1
 42
1.0
 92
        8
 66
     7
 43
1.0
 76
     1
 77
     6
 78
     2
 67
     7
 79
     5
170
     0
171
     0
290
     0
174
     0
 93
       13
 44
0.0
173
     0
291
     1
 45
0.0
1001
ACAD
1000
AcDbSavedByObjectVersion
1070
     0
  0
VISUALSTYLE
  5
2C
102
{ACAD_REACTORS
330
2A
102
}
330
2A
100
AcDbVisualStyle
  2
FlatWithEdges
 70
     1
 71
     2
 72
     1
 73
     1
 90
        2
 40
-0.6
 41
30.0
 62
     5
 63
     7
 74
     1
 91
        4
 64
     7
 65
   257
 75
     1
175
     1
 42
1.0
 92
        0
 66
   257
 43
1.0
 76
     1
 77
     6
 78
     2
 67
     7
 79
     5
170
     0
171
     0
290
     0
174
     0
 93
       13
 44
0.0
173
     0
291
     1
 45
0.0
1001
ACAD
1000
AcDbSavedByObjectVersion
1070
     0
  0
VISUALSTYLE
  5
2D
102
{ACAD_REACTORS
330
2A
102
}
330
2A
100
AcDbVisualStyle
  2
Gouraud
 70
     2
 71
     2
 72
     2
 73
     1
 90
        2
 40
-0.6
 41
30.0
 62
     5
 63
     7
 74
     0
 91
        4
 64
     7
 65
   257
 75
     1
175
     1
 42
1.0
 92
        0
 66
     7
 43
1.0
 76
     1
 77
     6
 78
     2
 67
     7
 79
     5
170
     0
171
     0
290
     0
174
     0
 93
       13
 44
0.0
173
     0
291
     1
 45
0.0
1001
ACAD
1000
AcDbSavedByObjectVersion
1070
     0
  0
VISUALSTYLE
  5
2E
102
{ACAD_REACTORS
330
2A
102
}
330
2A
100
AcDbVisualStyle
  2
GouraudWithEdges
 70
     3
 71
     2
 72
     2
 73
     1
 90
        2
 40
-0.6
 41
30.0
 62
     5
 63
     7
 74
     1
 91
        4
 64
     7
 65
   257
 75
     1
175
     1
 42
1.0
 92
        0
 66
   257
 43
1.0
 76
     1
 77
     6
 78
     2
 67
     7
 79
     5
170
     0
171
     0
290
     0
174
     0
 93
       13
 44
0.0
173
     0
291
     1
 45
0.0
1001
ACAD
1000
AcDbSavedByObjectVersion
1070
     0
  0
VISUALSTYLE
  5
38
102
{ACAD_REACTORS
330
2A
102
}
330
2A
100
AcDbVisualStyle
  2
Linepattern
 70
    14
 71
     2
 72
     2
 73
     0
 90
        0
 40
-0.6
 41
-30.0
 62
     5
 63
     7
 74
     1
 91
        4
 64
     7
 65
   257
 75
     7
175
     7
 42
1.0
 92
        8
 66
     7
 43
1.0
 76
     1
 77
     6
 78
     2
 67
     7
 79
     5
170
     0
171
     0
290
     0
174
     0
 93
        1
 44
0.0
173
     0
291
     1
 45
0.0
1001
ACAD
1000
AcDbSavedByObjectVersion
1070
     0
  0
VISUALSTYLE
  5
33
102
{ACAD_REACTORS
330
2A
102
}
330
2A
100
AcDbVisualStyle
  2
Realistic
 70
     8
 71
     2
 72
     2
 73
     0
 90
        0
 40
-0.6
 41
-30.0
 62
     5
 63
     7
 74
     1
 91
        0
 64
     7
 65
   257
 75
     1
175
     1
 42
1.0
 92
        8
 66
     8
 43
1.0
 76
     1
 77
     6
 78
     2
 67
     7
 79
     5
170
     0
171
     0
290
     0
174
     0
 93
       13
 44
0.0
173
     0
291
     0
 45
0.0
1001
ACAD
1000
AcDbSavedByObjectVersion
1070
     0
  0
VISUALSTYLE
  5
37
102
{ACAD_REACTORS
330
2A
102
}
330
2A
100
AcDbVisualStyle
  2
Thicken
 70
    13
 71
     2
 72
     2
 73
     0
 90
        0
 40
-0.6
 41
-30.0
 62
     5
 63
     7
 74
     1
 91
        4
 64
     7
 65
   257
 75
     1
175
     1
 42
1.0
 92
       12
 66
     7
 43
1.0
 76
     1
 77
     6
 78
     2
 67
     7
 79
     5
170
     0
171
     0
290
     0
174
     0
 93
        1
 44
0.0
173
     0
291
     1
 45
0.0
1001
ACAD
1000
AcDbSavedByObjectVersion
1070
     0
  0
DICTIONARYVAR
  5
166
102
{ACAD_REACTORS
330
163
102
}
330
163
100
DictionaryVariables
280
     0
  1
1:1
  0
ENDSEC
  0
EOF
