  0
SECTION
  2
HEADER
  9
$ACADVER
  1
AC1015
  9
$ACADMAINTVER
 70
     6
  9
$DWGCODEPAGE
  3
ANSI_1252
  9
$INSBASE
 10
0.0
 20
0.0
 30
0.0
  9
$EXTMIN
 10
49.53531626509997
 20
263.3151478368127
 30
0.0
  9
$EXTMAX
 10
237.283094936814
 20
361.753269361333
 30
0.0
  9
$LIMMIN
 10
0.0
 20
0.0
  9
$LIMMAX
 10
12.0
 20
9.0
  9
$ORTHOMODE
 70
     0
  9
$REGENMODE
 70
     1
  9
$FILLMODE
 70
     1
  9
$QTEXTMODE
 70
     0
  9
$MIRRTEXT
 70
     1
  9
$LTSCALE
 40
1.0
  9
$ATTMODE
 70
     1
  9
$TEXTSIZE
 40
0.2
  9
$TRACEWID
 40
0.05
  9
$TEXTSTYLE
  7
Standard
  9
$CLAYER
  8
0
  9
$CELTYPE
  6
ByLayer
  9
$CECOLOR
 62
   256
  9
$CELTSCALE
 40
1.0
  9
$DISPSILH
 70
     0
  9
$DIMSCALE
 40
1.0
  9
$DIMASZ
 40
0.18
  9
$DIMEXO
 40
0.0625
  9
$DIMDLI
 40
0.38
  9
$DIMRND
 40
0.0
  9
$DIMDLE
 40
0.0
  9
$DIMEXE
 40
0.18
  9
$DIMTP
 40
0.0
  9
$DIMTM
 40
0.0
  9
$DIMTXT
 40
0.18
  9
$DIMCEN
 40
0.09
  9
$DIMTSZ
 40
0.0
  9
$DIMTOL
 70
     0
  9
$DIMLIM
 70
     0
  9
$DIMTIH
 70
     1
  9
$DIMTOH
 70
     1
  9
$DIMSE1
 70
     0
  9
$DIMSE2
 70
     0
  9
$DIMTAD
 70
     0
  9
$DIMZIN
 70
     0
  9
$DIMBLK
  1

  9
$DIMASO
 70
     1
  9
$DIMSHO
 70
     1
  9
$DIMPOST
  1

  9
$DIMAPOST
  1

  9
$DIMALT
 70
     0
  9
$DIMALTD
 70
     2
  9
$DIMALTF
 40
25.4
  9
$DIMLFAC
 40
1.0
  9
$DIMTOFL
 70
     0
  9
$DIMTVP
 40
0.0
  9
$DIMTIX
 70
     0
  9
$DIMSOXD
 70
     0
  9
$DIMSAH
 70
     0
  9
$DIMBLK1
  1

  9
$DIMBLK2
  1

  9
$DIMSTYLE
  2
Standard
  9
$DIMCLRD
 70
     0
  9
$DIMCLRE
 70
     0
  9
$DIMCLRT
 70
     0
  9
$DIMTFAC
 40
1.0
  9
$DIMGAP
 40
0.09
  9
$DIMJUST
 70
     0
  9
$DIMSD1
 70
     0
  9
$DIMSD2
 70
     0
  9
$DIMTOLJ
 70
     1
  9
$DIMTZIN
 70
     0
  9
$DIMALTZ
 70
     0
  9
$DIMALTTZ
 70
     0
  9
$DIMUPT
 70
     0
  9
$DIMDEC
 70
     4
  9
$DIMTDEC
 70
     4
  9
$DIMALTU
 70
     2
  9
$DIMALTTD
 70
     2
  9
$DIMTXSTY
  7
Standard
  9
$DIMAUNIT
 70
     0
  9
$DIMADEC
 70
     0
  9
$DIMALTRND
 40
0.0
  9
$DIMAZIN
 70
     0
  9
$DIMDSEP
 70
    46
  9
$DIMATFIT
 70
     3
  9
$DIMFRAC
 70
     0
  9
$DIMLDRBLK
  1

  9
$DIMLUNIT
 70
     2
  9
$DIMLWD
 70
    -2
  9
$DIMLWE
 70
    -2
  9
$DIMTMOVE
 70
     0
  9
$LUNITS
 70
     2
  9
$LUPREC
 70
     4
  9
$SKETCHINC
 40
0.1
  9
$FILLETRAD
 40
0.5
  9
$AUNITS
 70
     0
  9
$AUPREC
 70
     0
  9
$MENU
  1
.
  9
$ELEVATION
 40
0.0
  9
$PELEVATION
 40
0.0
  9
$THICKNESS
 40
0.0
  9
$LIMCHECK
 70
     0
  9
$CHAMFERA
 40
0.5
  9
$CHAMFERB
 40
0.5
  9
$CHAMFERC
 40
1.0
  9
$CHAMFERD
 40
0.0
  9
$SKPOLY
 70
     0
  9
$TDCREATE
 40
2456749.744261528
  9
$TDUCREATE
 40
2456749.660928194
  9
$TDUPDATE
 40
2456749.74426154
  9
$TDUUPDATE
 40
2456749.660928206
  9
$TDINDWG
 40
0.0000000116
  9
$TDUSRTIMER
 40
0.0000000116
  9
$USRTIMER
 70
     1
  9
$ANGBASE
 50
0.0
  9
$ANGDIR
 70
     0
  9
$PDMODE
 70
     0
  9
$PDSIZE
 40
0.0
  9
$PLINEWID
 40
0.0
  9
$SPLFRAME
 70
     0
  9
$SPLINETYPE
 70
     6
  9
$SPLINESEGS
 70
     8
  9
$HANDSEED
  5
168
  9
$SURFTAB1
 70
     6
  9
$SURFTAB2
 70
     6
  9
$SURFTYPE
 70
     6
  9
$SURFU
 70
     6
  9
$SURFV
 70
     6
  9
$UCSBASE
  2

  9
$UCSNAME
  2

  9
$UCSORG
 10
0.0
 20
0.0
 30
0.0
  9
$UCSXDIR
 10
1.0
 20
0.0
 30
0.0
  9
$UCSYDIR
 10
0.0
 20
1.0
 30
0.0
  9
$UCSORTHOREF
  2

  9
$UCSORTHOVIEW
 70
     0
  9
$UCSORGTOP
 10
0.0
 20
0.0
 30
0.0
  9
$UCSORGBOTTOM
 10
0.0
 20
0.0
 30
0.0
  9
$UCSORGLEFT
 10
0.0
 20
0.0
 30
0.0
  9
$UCSORGRIGHT
 10
0.0
 20
0.0
 30
0.0
  9
$UCSORGFRONT
 10
0.0
 20
0.0
 30
0.0
  9
$UCSORGBACK
 10
0.0
 20
0.0
 30
0.0
  9
$PUCSBASE
  2

  9
$PUCSNAME
  2

  9
$PUCSORG
 10
0.0
 20
0.0
 30
0.0
  9
$PUCSXDIR
 10
1.0
 20
0.0
 30
0.0
  9
$PUCSYDIR
 10
0.0
 20
1.0
 30
0.0
  9
$PUCSORTHOREF
  2

  9
$PUCSORTHOVIEW
 70
     0
  9
$PUCSORGTOP
 10
0.0
 20
0.0
 30
0.0
  9
$PUCSORGBOTTOM
 10
0.0
 20
0.0
 30
0.0
  9
$PUCSORGLEFT
 10
0.0
 20
0.0
 30
0.0
  9
$PUCSORGRIGHT
 10
0.0
 20
0.0
 30
0.0
  9
$PUCSORGFRONT
 10
0.0
 20
0.0
 30
0.0
  9
$PUCSORGBACK
 10
0.0
 20
0.0
 30
0.0
  9
$USERI1
 70
     0
  9
$USERI2
 70
     0
  9
$USERI3
 70
     0
  9
$USERI4
 70
     0
  9
$USERI5
 70
     0
  9
$USERR1
 40
16.5
  9
$USERR2
 40
0.0
  9
$USERR3
 40
0.0
  9
$USERR4
 40
0.0
  9
$USERR5
 40
0.0
  9
$WORLDVIEW
 70
     1
  9
$SHADEDGE
 70
     3
  9
$SHADEDIF
 70
    70
  9
$TILEMODE
 70
     1
  9
$MAXACTVP
 70
    64
  9
$PINSBASE
 10
0.0
 20
0.0
 30
0.0
  9
$PLIMCHECK
 70
     0
  9
$PEXTMIN
 10
1.00000000000000E+20
 20
1.00000000000000E+20
 30
1.00000000000000E+20
  9
$PEXTMAX
 10
-1.00000000000000E+20
 20
-1.00000000000000E+20
 30
-1.00000000000000E+20
  9
$PLIMMIN
 10
0.0
 20
0.0
  9
$PLIMMAX
 10
12.0
 20
9.0
  9
$UNITMODE
 70
     0
  9
$VISRETAIN
 70
     1
  9
$PLINEGEN
 70
     0
  9
$PSLTSCALE
 70
     1
  9
$TREEDEPTH
 70
  3020
  9
$CMLSTYLE
  2
Standard
  9
$CMLJUST
 70
     0
  9
$CMLSCALE
 40
1.0
  9
$PROXYGRAPHICS
 70
     1
  9
$MEASUREMENT
 70
     1
  9
$CELWEIGHT
370
    -1
  9
$ENDCAPS
280
     0
  9
$JOINSTYLE
280
     0
  9
$LWDISPLAY
290
     0
  9
$INSUNITS
 70
     1
  9
$HYPERLINKBASE
  1

  9
$STYLESHEET
  1

  9
$XEDIT
290
     1
  9
$CEPSNTYPE
380
     0
  9
$PSTYLEMODE
290
     1
  9
$FINGERPRINTGUID
  2
{E8DF2408-4E52-4C3C-9358-B9976207FAC0}
  9
$VERSIONGUID
  2
{FAEB1C32-E019-11D5-929B-00C0DF256EC4}
  9
$EXTNAMES
290
     1
  9
$PSVPSCALE
 40
0.0
  9
$OLESTARTUP
290
     0
  0
ENDSEC
  0
SECTION
  2
CLASSES
  0
CLASS
  1
ACDBDICTIONARYWDFLT
  2
AcDbDictionaryWithDefault
  3
ObjectDBX Classes
 90
        0
280
     0
281
     0
  0
CLASS
  1
VISUALSTYLE
  2
AcDbVisualStyle
  3
ObjectDBX Classes
 90
     4095
280
     0
281
     0
  0
CLASS
  1
SCALE
  2
AcDbScale
  3
ObjectDBX Classes
 90
     1153
280
     0
281
     0
  0
CLASS
  1

  2
exOdDbPolyline
  3

 90
        0
280
     0
281
     1
  0
CLASS
  1

  2
exOdDbCircle
  3

 90
        0
280
     0
281
     1
  0
CLASS
  1

  2
exOdDbSpline
  3

 90
        0
280
     0
281
     1
  0
CLASS
  1
DICTIONARYVAR
  2
AcDbDictionaryVar
  3
ObjectDBX Classes
 90
        0
280
     0
281
     0
  0
CLASS
  1
ACDBPLACEHOLDER
  2
AcDbPlaceHolder
  3
ObjectDBX Classes
 90
        0
280
     0
281
     0
  0
CLASS
  1
LAYOUT
  2
AcDbLayout
  3
ObjectDBX Classes
 90
        0
280
     0
281
     0
  0
ENDSEC
  0
SECTION
  2
TABLES
  0
TABLE
  2
VPORT
  5
8
330
0
100
AcDbSymbolTable
 70
     1
  0
VPORT
  5
29
330
8
100
AcDbSymbolTableRecord
100
AcDbViewportTableRecord
  2
*Active
 70
     0
 10
0.0
 20
0.0
 11
1.0
 21
1.0
 12
143.409205600957
 22
312.5342085990728
 13
0.0
 23
0.0
 14
0.5
 24
0.5
 15
0.5
 25
0.5
 16
0.0
 26
0.0
 36
1.0
 17
0.0
 27
0.0
 37
0.0
 40
128.8608709323408
 41
1.60267857142857
 42
50.0
 43
0.0
 44
0.0
 50
0.0
 51
0.0
 71
     0
 72
   100
 73
     1
 74
     3
 75
     0
 76
     0
 77
     0
 78
     0
281
     0
 65
     1
110
0.0
120
0.0
130
0.0
111
1.0
121
0.0
131
0.0
112
0.0
122
1.0
132
0.0
 79
     0
146
0.0
  0
ENDTAB
  0
TABLE
  2
LTYPE
  5
5
330
0
100
AcDbSymbolTable
 70
     9
  0
LTYPE
  5
14
330
5
100
AcDbSymbolTableRecord
100
AcDbLinetypeTableRecord
  2
ByBlock
 70
     0
  3

 72
    65
 73
     0
 40
0.0
  0
LTYPE
  5
15
330
5
100
AcDbSymbolTableRecord
100
AcDbLinetypeTableRecord
  2
ByLayer
 70
     0
  3

 72
    65
 73
     0
 40
0.0
  0
LTYPE
  5
16
330
5
100
AcDbSymbolTableRecord
100
AcDbLinetypeTableRecord
  2
Continuous
 70
     0
  3
Solid line
 72
    65
 73
     0
 40
0.0
  0
LTYPE
  5
3B
330
5
100
AcDbSymbolTableRecord
100
AcDbLinetypeTableRecord
  2
DASHED
 70
     0
  3
Dashed
 72
    65
 73
     2
 40
15.0
 49
7.0
 74
     0
 49
-8.0
 74
     0
  0
LTYPE
  5
3C
330
5
100
AcDbSymbolTableRecord
100
AcDbLinetypeTableRecord
  2
DOTTED
 70
     0
  3
Dotted
 72
    65
 73
     2
 40
1.0
 49
0.0
 74
     0
 49
-1.0
 74
     0
  0
LTYPE
  5
3D
330
5
100
AcDbSymbolTableRecord
100
AcDbLinetypeTableRecord
  2
DOT_CENTER
 70
     0
  3
Dot_Center
 72
    65
 73
     4
 40
14.0
 49
12.0
 74
     0
 49
-1.0
 74
     0
 49
0.0
 74
     0
 49
-1.0
 74
     0
  0
LTYPE
  5
3E
330
5
100
AcDbSymbolTableRecord
100
AcDbLinetypeTableRecord
  2
LONG_DASHED
 70
     0
  3
Long_Dashed
 72
    65
 73
     2
 40
15.0
 49
10.0
 74
     0
 49
-5.0
 74
     0
  0
LTYPE
  5
3F
330
5
100
AcDbSymbolTableRecord
100
AcDbLinetypeTableRecord
  2
DASH_CENTER
 70
     0
  3
Dash_Center
 72
    65
 73
     4
 40
14.0
 49
11.0
 74
     0
 49
-1.0
 74
     0
 49
1.0
 74
     0
 49
-1.0
 74
     0
  0
LTYPE
  5
40
330
5
100
AcDbSymbolTableRecord
100
AcDbLinetypeTableRecord
  2
PHANTOM
 70
     0
  3
Phantom
 72
    65
 73
     6
 40
13.0
 49
10.0
 74
     0
 49
-1.0
 74
     0
 49
0.0
 74
     0
 49
-1.0
 74
     0
 49
0.0
 74
     0
 49
-1.0
 74
     0
  0
LTYPE
  5
41
330
5
100
AcDbSymbolTableRecord
100
AcDbLinetypeTableRecord
  2
CENTER_DASH_DASH
 70
     0
  3
Center_Dash_Dash
 72
    65
 73
     6
 40
14.0
 49
9.0
 74
     0
 49
-1.0
 74
     0
 49
1.0
 74
     0
 49
-1.0
 74
     0
 49
1.0
 74
     0
 49
-1.0
 74
     0
  0
LTYPE
  5
42
330
5
100
AcDbSymbolTableRecord
100
AcDbLinetypeTableRecord
  2
HIDDEN
 70
     0
  3
HIDDEN
 72
    65
 73
     2
 40
4.0
 49
2.0
 74
     0
 49
-2.0
 74
     0
  0
ENDTAB
  0
TABLE
  2
LAYER
  5
2
330
0
100
AcDbSymbolTable
 70
     7
  0
LAYER
  5
10
330
2
100
AcDbSymbolTableRecord
100
AcDbLayerTableRecord
  2
0
 70
     0
 62
     7
  6
Continuous
370
    -3
390
F
  0
LAYER
  5
43
330
2
100
AcDbSymbolTableRecord
100
AcDbLayerTableRecord
  2
1
 70
     0
 62
     7
  6
Continuous
370
    -3
390
F
  0
LAYER
  5
44
330
2
100
AcDbSymbolTableRecord
100
AcDbLayerTableRecord
  2
BEZUGSACHSEN
 70
     0
 62
     7
  6
Continuous
370
    -3
390
F
  0
LAYER
  5
45
330
2
100
AcDbSymbolTableRecord
100
AcDbLayerTableRecord
  2
BOHRUNGEN
 70
     0
 62
     7
  6
Continuous
370
    -3
390
F
  0
LAYER
  5
46
330
2
100
AcDbSymbolTableRecord
100
AcDbLayerTableRecord
  2
FASEN
 70
     0
 62
     7
  6
Continuous
370
    -3
390
F
  0
LAYER
  5
47
330
2
100
AcDbSymbolTableRecord
100
AcDbLayerTableRecord
  2
RUNDUNGEN
 70
     0
 62
     7
  6
Continuous
370
    -3
390
F
  0
LAYER
  5
48
330
2
100
AcDbSymbolTableRecord
100
AcDbLayerTableRecord
  2
TEIL_STARTBEZUEGE
 70
     0
 62
     7
  6
Continuous
370
    -3
390
F
  0
ENDTAB
  0
TABLE
  2
STYLE
  5
3
330
0
100
AcDbSymbolTable
 70
     2
  0
STYLE
  5
11
330
3
100
AcDbSymbolTableRecord
100
AcDbTextStyleTableRecord
  2
Standard
 70
     0
 40
0.0
 41
1.0
 50
0.0
 71
     0
 42
0.2
  3
txt
  4

  0
STYLE
  5
6F
330
3
100
AcDbSymbolTableRecord
100
AcDbTextStyleTableRecord
  2
CONVERTER_11
 70
     0
 40
0.0
 41
0.72
 50
0.0
 71
     0
 42
0.2
  3
txt.shx
  4

  0
ENDTAB
  0
TABLE
  2
VIEW
  5
6
330
0
100
AcDbSymbolTable
 70
     0
  0
ENDTAB
  0
TABLE
  2
UCS
  5
7
330
0
100
AcDbSymbolTable
 70
     0
  0
ENDTAB
  0
TABLE
  2
APPID
  5
9
330
0
100
AcDbSymbolTable
 70
     1
  0
APPID
  5
12
330
9
100
AcDbSymbolTableRecord
100
AcDbRegAppTableRecord
  2
ACAD
 70
     0
  0
ENDTAB
  0
TABLE
  2
DIMSTYLE
  5
A
330
0
100
AcDbSymbolTable
 70
     8
100
AcDbDimStyleTable
  0
DIMSTYLE
105
27
330
A
100
AcDbSymbolTableRecord
100
AcDbDimStyleTableRecord
  2
Standard
 70
     0
340
11
  0
DIMSTYLE
105
117
102
{ACAD_REACTORS
330
118
102
}
330
A
100
AcDbSymbolTableRecord
100
AcDbDimStyleTableRecord
  2
ME10_DIM_10
 70
     0
  3
<>
 41
3.5
 42
2.0
 44
2.0
 71
     1
 73
     0
 74
     0
 77
     1
 78
     8
140
3.5
146
0.7
147
2.0
172
     1
173
     1
176
     2
177
     2
178
     3
271
     0
272
     0
340
6F
  0
DIMSTYLE
105
122
102
{ACAD_REACTORS
330
123
102
}
330
A
100
AcDbSymbolTableRecord
100
AcDbDimStyleTableRecord
  2
ME10_DIM_11
 70
     0
  3
<>
 41
3.5
 42
2.0
 44
2.0
 71
     1
 73
     0
 74
     0
 77
     1
 78
     8
140
3.5
146
0.7
147
2.0
172
     1
173
     1
176
     2
177
     2
178
     3
271
     0
272
     0
340
6F
  0
DIMSTYLE
105
12D
102
{ACAD_REACTORS
330
12E
102
}
330
A
100
AcDbSymbolTableRecord
100
AcDbDimStyleTableRecord
  2
ME10_DIM_12
 70
     0
  3
<>
 41
3.5
 42
2.0
 44
2.0
 71
     1
 73
     0
 74
     0
 77
     1
 78
     8
140
3.5
146
0.7
147
2.0
172
     1
173
     1
176
     2
177
     2
178
     3
271
     2
272
     0
340
6F
  0
DIMSTYLE
105
138
102
{ACAD_REACTORS
330
139
102
}
330
A
100
AcDbSymbolTableRecord
100
AcDbDimStyleTableRecord
  2
ME10_DIM_13
 70
     0
  3
\U+2300<>
 41
3.5
 42
2.0
 44
2.0
 71
     1
 73
     0
 74
     0
 77
     1
 78
     8
140
3.5
146
0.7
147
2.0
172
     1
173
     1
176
     2
177
     2
178
     3
271
     2
272
     0
340
6F
  0
DIMSTYLE
105
143
102
{ACAD_REACTORS
330
144
102
}
330
A
100
AcDbSymbolTableRecord
100
AcDbDimStyleTableRecord
  2
ME10_DIM_14
 70
     0
  3
\U+2300<>
 41
3.5
 42
2.0
 44
2.0
 71
     1
 73
     0
 74
     0
 77
     1
 78
     8
140
3.5
146
0.7
147
2.0
172
     1
173
     1
176
     2
177
     2
178
     3
271
     2
272
     0
340
6F
  0
DIMSTYLE
105
150
102
{ACAD_REACTORS
330
151
102
}
330
A
100
AcDbSymbolTableRecord
100
AcDbDimStyleTableRecord
  2
ME10_DIM_15
 70
     0
  3
\U+2300<>
 41
3.5
 42
2.0
 44
2.0
 71
     1
 73
     0
 74
     0
 77
     1
 78
     8
140
3.5
146
0.7
147
2.0
172
     1
173
     1
176
     2
177
     2
178
     3
271
     2
272
     0
340
6F
  0
DIMSTYLE
105
162
102
{ACAD_REACTORS
330
163
102
}
330
A
100
AcDbSymbolTableRecord
100
AcDbDimStyleTableRecord
  2
ME10_DIM_16
 70
     0
  3
<>
 41
3.5
 42
2.0
 44
2.0
 71
     1
 73
     0
 74
     0
 77
     1
 78
     8
140
3.5
146
0.7
147
2.0
172
     1
173
     1
176
     2
177
     2
178
     3
271
     2
272
     0
340
6F
  0
ENDTAB
  0
TABLE
  2
BLOCK_RECORD
  5
1
330
0
100
AcDbSymbolTable
 70
    10
  0
BLOCK_RECORD
  5
1F
330
1
100
AcDbSymbolTableRecord
100
AcDbBlockTableRecord
  2
*Model_Space
340
22
  0
BLOCK_RECORD
  5
1B
330
1
100
AcDbSymbolTableRecord
100
AcDbBlockTableRecord
  2
*Paper_Space
340
1E
  0
BLOCK_RECORD
  5
23
330
1
100
AcDbSymbolTableRecord
100
AcDbBlockTableRecord
  2
*Paper_Space0
340
26
  0
BLOCK_RECORD
  5
49
330
1
100
AcDbSymbolTableRecord
100
AcDbBlockTableRecord
  2
Urheberrecht_DE-EN_horizontal
340
0
102
{BLKREFS
331
6E
102
}
  0
BLOCK_RECORD
  5
10E
330
1
100
AcDbSymbolTableRecord
100
AcDbBlockTableRecord
  2
*D2
340
0
  0
BLOCK_RECORD
  5
119
330
1
100
AcDbSymbolTableRecord
100
AcDbBlockTableRecord
  2
*D3
340
0
  0
BLOCK_RECORD
  5
124
330
1
100
AcDbSymbolTableRecord
100
AcDbBlockTableRecord
  2
*D4
340
0
  0
BLOCK_RECORD
  5
12F
330
1
100
AcDbSymbolTableRecord
100
AcDbBlockTableRecord
  2
*D5
340
0
  0
BLOCK_RECORD
  5
13A
330
1
100
AcDbSymbolTableRecord
100
AcDbBlockTableRecord
  2
*D6
340
0
  0
BLOCK_RECORD
  5
145
330
1
100
AcDbSymbolTableRecord
100
AcDbBlockTableRecord
  2
*D7
340
0
  0
BLOCK_RECORD
  5
152
330
1
100
AcDbSymbolTableRecord
100
AcDbBlockTableRecord
  2
*D8
340
0
102
{BLKREFS
331
158
102
}
  0
BLOCK_RECORD
  5
159
330
1
100
AcDbSymbolTableRecord
100
AcDbBlockTableRecord
  2
*D9
340
0
  0
ENDTAB
  0
ENDSEC
  0
SECTION
  2
BLOCKS
  0
BLOCK
  5
20
330
1F
100
AcDbEntity
  8
0
100
AcDbBlockBegin
  2
*Model_Space
 70
     0
 10
0.0
 20
0.0
 30
0.0
  3
*Model_Space
  1

  0
ENDBLK
  5
21
330
1F
100
AcDbEntity
  8
0
100
AcDbBlockEnd
  0
BLOCK
  5
1C
330
1B
100
AcDbEntity
 67
     1
  8
0
100
AcDbBlockBegin
  2
*Paper_Space
 70
     0
 10
0.0
 20
0.0
 30
0.0
  3
*Paper_Space
  1

  0
ENDBLK
  5
1D
330
1B
100
AcDbEntity
 67
     1
  8
0
100
AcDbBlockEnd
  0
BLOCK
  5
24
330
23
100
AcDbEntity
  8
0
100
AcDbBlockBegin
  2
*Paper_Space0
 70
     0
 10
0.0
 20
0.0
 30
0.0
  3
*Paper_Space0
  1

  0
ENDBLK
  5
25
330
23
100
AcDbEntity
  8
0
100
AcDbBlockEnd
  0
BLOCK
  5
4A
330
49
100
AcDbEntity
  8
0
100
AcDbBlockBegin
  2
Urheberrecht_DE-EN_horizontal
 70
     0
 10
142.0790330686351
 20
270.713155846717
 30
0.0
  3
Urheberrecht_DE-EN_horizontal
  1

  0
MTEXT
  5
70
330
49
100
AcDbEntity
  8
1
 62
     1
100
AcDbMText
 10
144.914637596582
 20
263.9151478368127
 30
0.0
 40
2.0
 41
0.0
 71
     7
 72
     1
  1
We own the copyright of this document. It \Pdetermined and may neither be copied or \Pmade accessible to outsiders without our\Ppermission.
  7
CONVERTER_11
 73
     1
 44
0.90036014405762
  0
MTEXT
  5
71
330
49
100
AcDbEntity
  8
1
 62
     1
100
AcDbMText
 10
88.62525067927582
 20
263.9151478368127
 30
0.0
 40
2.0
 41
0.0
 71
     7
 72
     1
  1
F\U+00fcr diese Unterlage behalten wir das Ur-\Pheberrecht. Sie darf nur f\U+00fcr den von uns \Pbestimmten Zweck benutzt und ohne unsere \PZustimmung weder vervielf\U+00e4ltigt noch\PDritten zug\U+00e4nglich gemacht werden.
  7
CONVERTER_11
 73
     1
 44
0.90036014405762
  0
ENDBLK
  5
4B
330
49
100
AcDbEntity
  8
0
100
AcDbBlockEnd
  0
BLOCK
  5
115
330
10E
100
AcDbEntity
  8
0
100
AcDbBlockBegin
  2
*D2
 70
     1
 10
0.0
 20
0.0
 30
0.0
  3
*D2
  1

  0
LINE
  5
10F
330
10E
100
AcDbEntity
  8
1
  6
Continuous
 62
     2
100
AcDbLine
 10
207.5603162651
 20
341.144736963485
 30
0.0
 11
103.5103162651
 21
341.144736963485
 31
0.0
  0
LINE
  5
110
330
10E
100
AcDbEntity
  8
1
  6
Continuous
 62
     2
100
AcDbLine
 10
207.5603162651
 20
319.3509483638
 30
0.0
 11
207.5603162651
 21
343.144736963485
 31
0.0
  0
LINE
  5
111
330
10E
100
AcDbEntity
  8
1
  6
Continuous
 62
     2
100
AcDbLine
 10
103.5103162651
 20
334.7752888369
 30
0.0
 11
103.5103162651
 21
343.144736963485
 31
0.0
  0
SOLID
  5
112
330
10E
100
AcDbEntity
  8
1
 62
     2
100
AcDbTrace
 10
204.0603162651
 20
340.6839532219291
 30
0.0
 11
204.0603162651
 21
341.6055207050409
 31
0.0
 12
207.5603162651
 22
341.144736963485
 32
0.0
 13
207.5603162651
 23
341.144736963485
 33
0.0
  0
SOLID
  5
113
330
10E
100
AcDbEntity
  8
1
 62
     2
100
AcDbTrace
 10
107.0103162651
 20
341.6055207050409
 30
0.0
 11
107.0103162651
 21
340.6839532219291
 31
0.0
 12
103.5103162651
 22
341.144736963485
 32
0.0
 13
103.5103162651
 23
341.144736963485
 33
0.0
  0
MTEXT
  5
114
330
10E
100
AcDbEntity
  8
1
 62
     3
100
AcDbMText
 10
151.1334091790111
 20
343.144736963485
 30
0.0
 40
3.5
 41
0.0
 71
     7
 72
     1
  1
\C3;\C3;\C3;104\C2;\H2.45;\S^ ;\C3;
  7
CONVERTER_11
 11
0.9999999999970619
 21
2.424068405545306E-6
 31
0.0
 73
     1
 44
0.60024009603842
  0
ENDBLK
  5
116
330
10E
100
AcDbEntity
  8
0
100
AcDbBlockEnd
  0
BLOCK
  5
120
330
119
100
AcDbEntity
  8
0
100
AcDbBlockBegin
  2
*D3
 70
     1
 10
0.0
 20
0.0
 30
0.0
  3
*D3
  1

  0
LINE
  5
11A
330
119
100
AcDbEntity
  8
1
  6
Continuous
 62
     2
100
AcDbLine
 10
207.5603162651
 20
356.253269361333
 30
0.0
 11
52.66031626510002
 21
356.253269361333
 31
0.0
  0
LINE
  5
11B
330
119
100
AcDbEntity
  8
1
  6
Continuous
 62
     2
100
AcDbLine
 10
207.5603162651
 20
319.3509483638
 30
0.0
 11
207.5603162651
 21
358.253269361333
 31
0.0
  0
LINE
  5
11C
330
119
100
AcDbEntity
  8
1
  6
Continuous
 62
     2
100
AcDbLine
 10
52.66031626510002
 20
326.8316946366
 30
0.0
 11
52.66031626510002
 21
358.253269361333
 31
0.0
  0
SOLID
  5
11D
330
119
100
AcDbEntity
  8
1
 62
     2
100
AcDbTrace
 10
204.0603162651
 20
355.7924856197772
 30
0.0
 11
204.0603162651
 21
356.7140531028889
 31
0.0
 12
207.5603162651
 22
356.253269361333
 32
0.0
 13
207.5603162651
 23
356.253269361333
 33
0.0
  0
SOLID
  5
11E
330
119
100
AcDbEntity
  8
1
 62
     2
100
AcDbTrace
 10
56.16031626510002
 20
356.7140531028889
 30
0.0
 11
56.16031626510002
 21
355.7924856197772
 31
0.0
 12
52.66031626510002
 22
356.253269361333
 32
0.0
 13
52.66031626510002
 23
356.253269361333
 33
0.0
  0
MTEXT
  5
11F
330
119
100
AcDbEntity
  8
1
 62
     3
100
AcDbMText
 10
132.1701929689112
 20
358.253269361333
 30
0.0
 40
3.5
 41
0.0
 71
     7
 72
     1
  1
\C3;\C3;\C3;155\C2;\H2.45;\S^ ;\C3;
  7
CONVERTER_11
 11
0.9999999999970619
 21
2.424068405545306E-6
 31
0.0
 73
     1
 44
0.60024009603842
  0
ENDBLK
  5
121
330
119
100
AcDbEntity
  8
0
100
AcDbBlockEnd
  0
BLOCK
  5
12B
330
124
100
AcDbEntity
  8
0
100
AcDbBlockBegin
  2
*D4
 70
     1
 10
0.0
 20
0.0
 30
0.0
  3
*D4
  1

  0
LINE
  5
125
330
124
100
AcDbEntity
  8
1
  6
Continuous
 62
     2
100
AcDbLine
 10
207.5603162651
 20
349.230993739798
 30
0.0
 11
77.56031626510003
 21
349.230993739798
 31
0.0
  0
LINE
  5
126
330
124
100
AcDbEntity
  8
1
  6
Continuous
 62
     2
100
AcDbLine
 10
207.5603162651
 20
319.3509483638
 30
0.0
 11
207.5603162651
 21
351.230993739798
 31
0.0
  0
LINE
  5
127
330
124
100
AcDbEntity
  8
1
  6
Continuous
 62
     2
100
AcDbLine
 10
77.56031626510003
 20
334.7753388554
 30
0.0
 11
77.56031626510003
 21
351.230993739798
 31
0.0
  0
SOLID
  5
128
330
124
100
AcDbEntity
  8
1
 62
     2
100
AcDbTrace
 10
204.0603162651
 20
348.7702099982421
 30
0.0
 11
204.0603162651
 21
349.6917774813539
 31
0.0
 12
207.5603162651
 22
349.230993739798
 32
0.0
 13
207.5603162651
 23
349.230993739798
 33
0.0
  0
SOLID
  5
129
330
124
100
AcDbEntity
  8
1
 62
     2
100
AcDbTrace
 10
81.06031626510003
 20
349.6917774813539
 30
0.0
 11
81.06031626510003
 21
348.7702099982421
 31
0.0
 12
77.56031626510003
 22
349.230993739798
 32
0.0
 13
77.56031626510003
 23
349.230993739798
 33
0.0
  0
MTEXT
  5
12A
330
124
100
AcDbEntity
  8
1
 62
     3
100
AcDbMText
 10
139.7604074391037
 20
351.230993739798
 30
0.0
 40
3.5
 41
0.0
 71
     7
 72
     1
  1
\C3;\C3;\C3;130\C2;\H2.45;\S^ ;\C3;
  7
CONVERTER_11
 11
0.9999999999970619
 21
2.424068405545306E-6
 31
0.0
 73
     1
 44
0.60024009603842
  0
ENDBLK
  5
12C
330
124
100
AcDbEntity
  8
0
100
AcDbBlockEnd
  0
BLOCK
  5
136
330
12F
100
AcDbEntity
  8
0
100
AcDbBlockBegin
  2
*D5
 70
     1
 10
0.0
 20
0.0
 30
0.0
  3
*D5
  1

  0
LINE
  5
130
330
12F
100
AcDbEntity
  8
1
  6
Continuous
 62
     2
100
AcDbLine
 10
235.283094936814
 20
321.2753388553999
 30
0.0
 11
235.283094936814
 21
294.2753388553999
 31
0.0
  0
LINE
  5
131
330
12F
100
AcDbEntity
  8
1
  6
Continuous
 62
     2
100
AcDbLine
 10
171.4417020565
 20
321.2753388553999
 30
0.0
 11
237.283094936814
 21
321.2753388553999
 31
0.0
  0
LINE
  5
132
330
12F
100
AcDbEntity
  8
1
  6
Continuous
 62
     2
100
AcDbLine
 10
171.4417020565
 20
294.2753388553999
 30
0.0
 11
237.283094936814
 21
294.2753388553999
 31
0.0
  0
SOLID
  5
133
330
12F
100
AcDbEntity
  8
1
 62
     2
100
AcDbTrace
 10
235.7438786783699
 20
317.7753388553999
 30
0.0
 11
234.8223111952581
 21
317.7753388553999
 31
0.0
 12
235.283094936814
 22
321.2753388553999
 32
0.0
 13
235.283094936814
 23
321.2753388553999
 33
0.0
  0
SOLID
  5
134
330
12F
100
AcDbEntity
  8
1
 62
     2
100
AcDbTrace
 10
234.8223111952581
 20
297.7753388553999
 30
0.0
 11
235.7438786783699
 21
297.7753388553999
 31
0.0
 12
235.283094936814
 22
294.2753388553999
 32
0.0
 13
235.283094936814
 23
294.2753388553999
 33
0.0
  0
MTEXT
  5
135
330
12F
100
AcDbEntity
  8
1
 62
     3
100
AcDbMText
 10
233.283094936814
 20
299.0598122390799
 30
0.0
 40
3.5
 41
0.0
 71
     7
 72
     1
  1
\C3;%%c\C3;\C3;27\C2;\H2.45;\S^ ;\C3;
  7
CONVERTER_11
 11
0.0
 21
1.0
 31
0.0
 73
     1
 44
0.60024009603842
  0
ENDBLK
  5
137
330
12F
100
AcDbEntity
  8
0
100
AcDbBlockEnd
  0
BLOCK
  5
141
330
13A
100
AcDbEntity
  8
0
100
AcDbBlockBegin
  2
*D6
 70
     1
 10
0.0
 20
0.0
 30
0.0
  3
*D6
  1

  0
LINE
  5
13B
330
13A
100
AcDbEntity
  8
1
  6
Continuous
 62
     2
100
AcDbLine
 10
227.198725881451
 20
318.2753388554466
 30
0.0
 11
227.198725881451
 21
297.2753388553559
 31
0.0
  0
LINE
  5
13C
330
13A
100
AcDbEntity
  8
1
  6
Continuous
 62
     2
100
AcDbLine
 10
209.5603162651
 20
318.2753388554466
 30
0.0
 11
229.198725881451
 21
318.2753388554466
 31
0.0
  0
LINE
  5
13D
330
13A
100
AcDbEntity
  8
1
  6
Continuous
 62
     2
100
AcDbLine
 10
209.5603162651
 20
297.2753388553559
 30
0.0
 11
229.198725881451
 21
297.2753388553559
 31
0.0
  0
SOLID
  5
13E
330
13A
100
AcDbEntity
  8
1
 62
     2
100
AcDbTrace
 10
227.6595096230069
 20
314.7753388554466
 30
0.0
 11
226.7379421398951
 21
314.7753388554466
 31
0.0
 12
227.198725881451
 22
318.2753388554466
 32
0.0
 13
227.198725881451
 23
318.2753388554466
 33
0.0
  0
SOLID
  5
13F
330
13A
100
AcDbEntity
  8
1
 62
     2
100
AcDbTrace
 10
226.7379421398951
 20
300.7753388553559
 30
0.0
 11
227.6595096230069
 21
300.7753388553559
 31
0.0
 12
227.198725881451
 22
297.2753388553559
 32
0.0
 13
227.198725881451
 23
297.2753388553559
 33
0.0
  0
MTEXT
  5
140
330
13A
100
AcDbEntity
  8
1
 62
     3
100
AcDbMText
 10
225.198725881451
 20
298.88646405153
 30
0.0
 40
3.5
 41
0.0
 71
     7
 72
     1
  1
\C3;%%c\C3;\C3;21\C2;\H2.45;\S^ ;\C3;
  7
CONVERTER_11
 11
0.0
 21
1.0
 31
0.0
 73
     1
 44
0.60024009603842
  0
ENDBLK
  5
142
330
13A
100
AcDbEntity
  8
0
100
AcDbBlockEnd
  0
BLOCK
  5
14E
330
145
100
AcDbEntity
  8
0
100
AcDbBlockBegin
  2
*D7
 70
     1
 10
0.0
 20
0.0
 30
0.0
  3
*D7
  1

  0
LINE
  5
146
330
145
100
AcDbEntity
  8
1
  6
Continuous
 62
     2
100
AcDbLine
 10
217.927660450989
 20
297.7753388554
 30
0.0
 11
217.927660450989
 21
304.7753388554
 31
0.0
  0
LINE
  5
147
330
145
100
AcDbEntity
  8
1
  6
Continuous
 62
     2
100
AcDbLine
 10
217.927660450989
 20
304.7753388554
 30
0.0
 11
217.927660450989
 21
310.7753388554
 31
0.0
  0
LINE
  5
148
330
145
100
AcDbEntity
  8
1
  6
Continuous
 62
     2
100
AcDbLine
 10
217.927660450989
 20
310.7753388554
 30
0.0
 11
217.927660450989
 21
317.7753388554
 31
0.0
  0
LINE
  5
149
330
145
100
AcDbEntity
  8
1
  6
Continuous
 62
     2
100
AcDbLine
 10
209.5603162651
 20
304.7753388554
 30
0.0
 11
219.927660450989
 21
304.7753388554
 31
0.0
  0
LINE
  5
14A
330
145
100
AcDbEntity
  8
1
  6
Continuous
 62
     2
100
AcDbLine
 10
209.5603162651
 20
310.7753388554
 30
0.0
 11
219.927660450989
 21
310.7753388554
 31
0.0
  0
SOLID
  5
14B
330
145
100
AcDbEntity
  8
1
 62
     2
100
AcDbTrace
 10
218.3884441925449
 20
301.2753388554
 30
0.0
 11
217.4668767094331
 21
301.2753388554
 31
0.0
 12
217.927660450989
 22
304.7753388554
 32
0.0
 13
217.927660450989
 23
304.7753388554
 33
0.0
  0
SOLID
  5
14C
330
145
100
AcDbEntity
  8
1
 62
     2
100
AcDbTrace
 10
217.4668767094331
 20
314.2753388554
 30
0.0
 11
218.3884441925449
 21
314.2753388554
 31
0.0
 12
217.927660450989
 22
310.7753388554
 32
0.0
 13
217.927660450989
 23
310.7753388554
 33
0.0
  0
MTEXT
  5
14D
330
145
100
AcDbEntity
  8
1
 62
     3
100
AcDbMText
 10
215.927660450989
 20
300.31981223908
 30
0.0
 40
3.5
 41
0.0
 71
     7
 72
     1
  1
\C3;%%c\C3;\C3;6\C2;\H2.45;\S^ ;\C3;
  7
CONVERTER_11
 11
0.0
 21
1.0
 31
0.0
 73
     1
 44
0.60024009603842
  0
ENDBLK
  5
14F
330
145
100
AcDbEntity
  8
0
100
AcDbBlockEnd
  0
BLOCK
  5
156
330
152
100
AcDbEntity
  8
0
100
AcDbBlockBegin
  2
*D8
 70
     1
 10
0.0
 20
0.0
 30
0.0
  3
*D8
  1

  0
LINE
  5
153
330
152
100
AcDbEntity
  8
1
  6
Continuous
 62
     2
100
AcDbLine
 10
117.3026346484124
 20
333.4274956120119
 30
0.0
 11
104.979596652429
 21
324.3165922878828
 31
0.0
  0
SOLID
  5
154
330
152
100
AcDbEntity
  8
1
 62
     2
100
AcDbTrace
 10
107.5199967482048
 20
326.7678550257109
 30
0.0
 11
108.0678681951462
 21
326.026826346404
 31
0.0
 12
104.979596652429
 22
324.3165922878828
 32
0.0
 13
104.979596652429
 23
324.3165922878828
 33
0.0
  0
MTEXT
  5
155
330
152
100
AcDbEntity
  8
1
 62
     3
100
AcDbMText
 10
107.3891945240771
 20
328.5853674743827
 30
0.0
 40
3.5
 41
0.0
 71
     7
 72
     1
  1
\C3; R\C3;\C3;7.5\C2;\H2.45;\S^ ;\C3;
  7
CONVERTER_11
 11
0.8040959483561275
 21
0.5944995423356185
 31
0.0
 73
     1
 44
0.60024009603842
  0
ENDBLK
  5
157
330
152
100
AcDbEntity
  8
0
100
AcDbBlockEnd
  0
BLOCK
  5
160
330
159
100
AcDbEntity
  8
0
100
AcDbBlockBegin
  2
*D9
 70
     1
 10
0.0
 20
0.0
 30
0.0
  3
*D9
  1

  0
LINE
  5
15A
330
159
100
AcDbEntity
  8
1
  6
Continuous
 62
     2
100
AcDbLine
 10
193.2368824881515
 20
321.2753388553999
 30
0.0
 11
195.2368824881515
 21
321.2753388553999
 31
0.0
  0
LINE
  5
15B
330
159
100
AcDbEntity
  8
1
  6
Continuous
 62
     2
100
AcDbLine
 10
171.4417020565
 20
321.2753388553999
 30
0.0
 11
193.2368824881515
 21
321.2753388553999
 31
0.0
  0
ARC
  5
15C
330
159
100
AcDbEntity
  8
1
  6
Continuous
 62
     2
100
AcDbCircle
 10
169.4417020565
 20
321.2753388553999
 30
0.0
 40
23.79518043165151
100
AcDbArc
 50
342.8586652008526
 51
22.21736277061886
  0
SOLID
  5
15D
330
159
100
AcDbEntity
  8
1
 62
     2
100
AcDbTrace
 10
193.0887501881538
 20
315.878981266216
 30
0.0
 11
192.1778199128174
 21
316.0185973806313
 31
0.0
 12
193.1635298881222
 22
319.40839051607
 32
0.0
 13
193.1635298881222
 23
319.40839051607
 33
0.0
  0
SOLID
  5
15E
330
159
100
AcDbEntity
  8
1
 62
     2
100
AcDbTrace
 10
192.5201712318448
 20
324.7320203032
 30
0.0
 11
193.439247567236
 21
324.7997352620559
 31
0.0
 12
193.2368824881515
 22
321.2753388553999
 32
0.0
 13
193.2368824881515
 23
321.2753388553999
 33
0.0
  0
MTEXT
  5
15F
330
159
100
AcDbEntity
  8
1
 62
     3
100
AcDbMText
 10
193.5449399384606
 20
331.1202097081371
 30
0.0
 40
3.5
 41
0.0
 71
     7
 72
     1
  1
\C3;\C3;\C3;4.5%%d\C2;\H2.45;\S^ ;\C3;
  7
CONVERTER_11
 11
0.2489281178621446
 21
-0.9685219626511369
 31
0.0
 73
     1
 44
0.60024009603842
  0
ENDBLK
  5
161
330
159
100
AcDbEntity
  8
0
100
AcDbBlockEnd
  0
ENDSEC
  0
SECTION
  2
ENTITIES
  0
INSERT
  5
6E
330
1F
100
AcDbEntity
  8
0
100
AcDbBlockReference
  2
Urheberrecht_DE-EN_horizontal
 10
142.0790330686351
 20
270.713155846717
 30
0.0
  0
LWPOLYLINE
  5
72
330
1F
100
AcDbEntity
  8
1
  6
Continuous
 62
     7
100
AcDbPolyline
 90
        2
 70
     0
 43
0.5
 10
103.5103162651
 20
328.7753388554
 10
103.5103162651
 20
286.7753388553999
  0
LINE
  5
73
330
1F
100
AcDbEntity
  8
0
  6
Continuous
 62
     7
100
AcDbLine
 10
103.5103162651
 20
332.7752888369
 30
0.0
 11
103.5103162651
 21
328.7753388554
 31
0.0
  0
LWPOLYLINE
  5
74
330
1F
100
AcDbEntity
  8
1
  6
Continuous
 62
     7
100
AcDbPolyline
 90
        2
 70
     0
 43
0.25
 10
207.5603162651
 20
298.1997293471
 10
207.5603162651
 20
297.2753388553559
  0
LWPOLYLINE
  5
75
330
1F
100
AcDbEntity
  8
1
  6
Continuous
 62
     7
100
AcDbPolyline
 90
        2
 70
     0
 43
0.25
 10
206.6387753608
 20
297.2028120133
 10
207.5603162651
 20
297.2753388553559
  0
LWPOLYLINE
  5
76
330
1F
100
AcDbEntity
  8
1
  6
Continuous
 62
     7
100
AcDbPolyline
 90
        2
 70
     0
 43
0.25
 10
206.6387753608
 20
318.3478656975
 10
207.5603162650949
 20
318.2753388554467
  0
LWPOLYLINE
  5
77
330
1F
100
AcDbEntity
  8
1
  6
Continuous
 62
     7
100
AcDbPolyline
 90
        2
 70
     0
 43
0.25
 10
207.5603162651
 20
317.3509483638
 10
207.5603162651
 20
318.2753388554467
  0
LINE
  5
78
330
1F
100
AcDbEntity
  8
RUNDUNGEN
  6
Continuous
 62
     7
100
AcDbLine
 10
207.5603162651
 20
298.1997293471
 30
0.0
 11
207.5603162651
 21
317.3509483638
 31
0.0
  0
LINE
  5
79
330
1F
100
AcDbEntity
  8
RUNDUNGEN
  6
Continuous
 62
     9
100
AcDbLine
 10
206.6387753608
 20
297.2028120133
 30
0.0
 11
206.6387753608
 21
318.3478656975
 31
0.0
  0
LINE
  5
7A
330
1F
100
AcDbEntity
  8
0
  6
Continuous
 62
     7
100
AcDbLine
 10
98.9522490965
 20
332.7753388554
 30
0.0
 11
103.5103162651
 21
332.7753388554
 31
0.0
  0
LINE
  5
7B
330
1F
100
AcDbEntity
  8
0
  6
Continuous
 62
     7
100
AcDbLine
 10
89.5603162651
 20
332.7753388554
 30
0.0
 11
92.1683834336
 21
332.7753388554
 31
0.0
  0
LINE
  5
7C
330
1F
100
AcDbEntity
  8
0
  6
Continuous
 62
     7
100
AcDbLine
 10
77.5603162651
 20
332.7753388554
 30
0.0
 11
79.5603162651
 21
332.7753388554
 31
0.0
  0
LINE
  5
7D
330
1F
100
AcDbEntity
  8
BEZUGSACHSEN
  6
Continuous
 62
     7
100
AcDbLine
 10
79.5603162651
 20
332.7753388554
 30
0.0
 11
77.5603162651
 21
332.7753388554
 31
0.0
  0
LINE
  5
7E
330
1F
100
AcDbEntity
  8
BEZUGSACHSEN
  6
Continuous
 62
     7
100
AcDbLine
 10
92.1683834336
 20
332.7753388554
 30
0.0
 11
89.5603162651
 21
332.7753388554
 31
0.0
  0
LINE
  5
7F
330
1F
100
AcDbEntity
  8
0
  6
Continuous
 62
     7
100
AcDbLine
 10
94.3978162651
 20
329.2503388554
 30
0.0
 11
96.7228162651
 21
329.2503388554
 31
0.0
  0
LINE
  5
80
330
1F
100
AcDbEntity
  8
0
  6
Continuous
 62
     7
100
AcDbLine
 10
77.25814663449998
 20
326.7301388554
 30
0.0
 11
76.38571792510001
 21
326.7301388554
 31
0.0
  0
LINE
  5
81
330
1F
100
AcDbEntity
  8
0
  6
Continuous
 62
     7
100
AcDbLine
 10
75.5603162651
 20
326.9301388554
 30
0.0
 11
53.6102790227
 21
325.8304419896
 31
0.0
  0
LINE
  5
82
330
1F
100
AcDbEntity
  8
BOHRUNGEN
  6
HIDDEN
 62
     8
100
AcDbLine
 10
171.5603162651
 20
304.7753388554
 30
0.0
 11
171.5603162651
 21
310.7753388554
 31
0.0
  0
LINE
  5
83
330
1F
100
AcDbEntity
  8
0
  6
Continuous
 62
     7
100
AcDbLine
 10
169.4417020565
 20
321.2753388553999
 30
0.0
 11
206.6387753608
 21
318.3478656975
 31
0.0
  0
LINE
  5
84
330
1F
100
AcDbEntity
  8
RUNDUNGEN
  6
Continuous
 62
     7
100
AcDbLine
 10
206.6387753608
 20
318.3478656975
 30
0.0
 11
169.4417020565
 21
321.2753388553999
 31
0.0
  0
LINE
  5
85
330
1F
100
AcDbEntity
  8
RUNDUNGEN
  6
Continuous
 62
     7
100
AcDbLine
 10
169.4417020565
 20
321.2753388553999
 30
0.0
 11
111.0103162651
 21
321.2753388554
 31
0.0
  0
LINE
  5
86
330
1F
100
AcDbEntity
  8
0
  6
Continuous
 62
     7
100
AcDbLine
 10
169.4417020565
 20
321.2753388553999
 30
0.0
 11
169.4417020565
 21
294.2753388553999
 31
0.0
  0
LINE
  5
87
330
1F
100
AcDbEntity
  8
0
  6
Continuous
 62
     7
100
AcDbLine
 10
76.2304264981
 20
326.7505833596
 30
0.0
 11
75.5603162651
 21
326.9301388554
 31
0.0
  0
LINE
  5
88
330
1F
100
AcDbEntity
  8
RUNDUNGEN
  6
Continuous
 62
     9
100
AcDbLine
 10
55.8603162651
 20
315.4253388554
 30
0.0
 11
56.67837444129999
 21
315.4253388554
 31
0.0
  0
LINE
  5
89
330
1F
100
AcDbEntity
  8
0
  6
Continuous
 62
     9
100
AcDbLine
 10
55.8603162651
 20
315.4253388554
 30
0.0
 11
53.3968064749
 21
315.4253388554
 31
0.0
  0
LINE
  5
8A
330
1F
100
AcDbEntity
  8
0
  6
Continuous
 62
     7
100
AcDbLine
 10
97.4728162651
 20
313.7928388554
 30
0.0
 11
103.5103162651
 21
313.7928388554
 31
0.0
  0
LINE
  5
8B
330
1F
100
AcDbEntity
  8
0
  6
Continuous
 62
     7
100
AcDbLine
 10
90.5278162651
 20
313.7928388554
 30
0.0
 11
93.6478162651
 21
313.7928388554
 31
0.0
  0
LINE
  5
8C
330
1F
100
AcDbEntity
  8
0
  6
Continuous
 62
     7
100
AcDbLine
 10
97.1943514123
 20
313.3928388554
 30
0.0
 11
103.5103162651
 21
313.3928388554
 31
0.0
  0
LINE
  5
8D
330
1F
100
AcDbEntity
  8
0
  6
Continuous
 62
     7
100
AcDbLine
 10
90.5278162651
 20
313.3928388554
 30
0.0
 11
93.9262811178
 21
313.3928388554
 31
0.0
  0
LINE
  5
8E
330
1F
100
AcDbEntity
  8
0
  6
Continuous
 62
     7
100
AcDbLine
 10
55.8603162651
 20
313.0453388554
 30
0.0
 11
53.8103162651
 21
313.0453388554
 31
0.0
  0
LINE
  5
8F
330
1F
100
AcDbEntity
  8
0
  6
Continuous
 62
     7
100
AcDbLine
 10
96.7228162651
 20
312.7114937355
 30
0.0
 11
94.3978162651
 21
312.7114937355
 31
0.0
  0
LINE
  5
90
330
1F
100
AcDbEntity
  8
0
  6
Continuous
 62
     7
100
AcDbLine
 10
92.1683834336
 20
332.7753388554
 30
0.0
 11
93.6478162651
 21
330.2128860249
 31
0.0
  0
LINE
  5
91
330
1F
100
AcDbEntity
  8
BOHRUNGEN
  6
HIDDEN
 62
     8
100
AcDbLine
 10
207.5603162651
 20
310.7753388554
 30
0.0
 11
171.5603162651
 21
310.7753388554
 31
0.0
  0
LWPOLYLINE
  5
92
330
1F
100
AcDbEntity
  8
TEIL_STARTBEZUEGE
  6
DOT_CENTER
 62
     7
100
AcDbPolyline
 90
        2
 70
     0
 43
0.25
 10
210.5603162651
 20
307.7753388554
 10
49.66031626509997
 20
307.7753388554
  0
LINE
  5
93
330
1F
100
AcDbEntity
  8
0
  6
Continuous
 62
     7
100
AcDbLine
 10
92.1683834336
 20
282.7753388554
 30
0.0
 11
93.6478162651
 21
285.3377916859
 31
0.0
  0
LINE
  5
94
330
1F
100
AcDbEntity
  8
BOHRUNGEN
  6
HIDDEN
 62
     8
100
AcDbLine
 10
207.5603162651
 20
304.7753388554
 30
0.0
 11
171.5603162651
 21
304.7753388554
 31
0.0
  0
LINE
  5
95
330
1F
100
AcDbEntity
  8
RUNDUNGEN
  6
Continuous
 62
     9
100
AcDbLine
 10
111.0103162651
 20
321.2753388554
 30
0.0
 11
111.0103162651
 21
294.2753388553999
 31
0.0
  0
LINE
  5
96
330
1F
100
AcDbEntity
  8
0
  6
Continuous
 62
     7
100
AcDbLine
 10
103.5103162651
 20
286.7753388553999
 30
0.0
 11
103.5103162651
 21
282.7753523995
 31
0.0
  0
LINE
  5
97
330
1F
100
AcDbEntity
  8
0
  6
Continuous
 62
     7
100
AcDbLine
 10
94.3978162651
 20
302.8391839754
 30
0.0
 11
96.7228162651
 21
302.8391839754
 31
0.0
  0
LINE
  5
98
330
1F
100
AcDbEntity
  8
0
  6
Continuous
 62
     7
100
AcDbLine
 10
55.8603162651
 20
302.5053388554
 30
0.0
 11
53.8103162651
 21
302.5053388554
 31
0.0
  0
LINE
  5
99
330
1F
100
AcDbEntity
  8
0
  6
Continuous
 62
     7
100
AcDbLine
 10
93.9262811178
 20
302.1578388554
 30
0.0
 11
90.5278162651
 21
302.1578388554
 31
0.0
  0
LINE
  5
9A
330
1F
100
AcDbEntity
  8
0
  6
Continuous
 62
     7
100
AcDbLine
 10
103.5103162651
 20
302.1578388554
 30
0.0
 11
97.1943514123
 21
302.1578388554
 31
0.0
  0
LINE
  5
9B
330
1F
100
AcDbEntity
  8
0
  6
Continuous
 62
     7
100
AcDbLine
 10
97.4728162651
 20
301.7578388554
 30
0.0
 11
103.5103162651
 21
301.7578388554
 31
0.0
  0
LINE
  5
9C
330
1F
100
AcDbEntity
  8
0
  6
Continuous
 62
     7
100
AcDbLine
 10
90.5278162651
 20
301.7578388554
 30
0.0
 11
93.6478162651
 21
301.7578388554
 31
0.0
  0
LINE
  5
9D
330
1F
100
AcDbEntity
  8
0
  6
Continuous
 62
     9
100
AcDbLine
 10
55.8603162651
 20
300.1253388554
 30
0.0
 11
53.3968064749
 21
300.1253388554
 31
0.0
  0
LINE
  5
9E
330
1F
100
AcDbEntity
  8
RUNDUNGEN
  6
Continuous
 62
     9
100
AcDbLine
 10
56.67837444129999
 20
300.1253388554
 30
0.0
 11
55.8603162651
 21
300.1253388554
 31
0.0
  0
LINE
  5
9F
330
1F
100
AcDbEntity
  8
0
  6
Continuous
 62
     7
100
AcDbLine
 10
98.9522490965
 20
313.7928388554
 30
0.0
 11
98.9522490965
 21
332.7753388554
 31
0.0
  0
LINE
  5
A0
330
1F
100
AcDbEntity
  8
0
  6
Continuous
 62
     7
100
AcDbLine
 10
98.9522490965
 20
282.7753388554
 30
0.0
 11
98.9522490965
 21
288.0426882479
 31
0.0
  0
LINE
  5
A1
330
1F
100
AcDbEntity
  8
0
  6
Continuous
 62
     7
100
AcDbLine
 10
98.9522490965
 20
301.7578388554
 30
0.0
 11
98.9522490965
 21
292.4253388554
 31
0.0
  0
LINE
  5
A2
330
1F
100
AcDbEntity
  8
0
  6
Continuous
 62
     7
100
AcDbLine
 10
76.2304264981
 20
288.8000943512
 30
0.0
 11
75.5603162651
 21
288.6205388554
 31
0.0
  0
LINE
  5
A3
330
1F
100
AcDbEntity
  8
0
  6
Continuous
 62
     7
100
AcDbLine
 10
97.4728162651
 20
313.7928388554
 30
0.0
 11
97.4728162651
 21
330.2128314127
 31
0.0
  0
LINE
  5
A4
330
1F
100
AcDbEntity
  8
0
  6
Continuous
 62
     7
100
AcDbLine
 10
97.4728162651
 20
285.3378055272
 30
0.0
 11
97.4728162651
 21
291.7027496116
 31
0.0
  0
LINE
  5
A5
330
1F
100
AcDbEntity
  8
0
  6
Continuous
 62
     7
100
AcDbLine
 10
97.4728162651
 20
301.7578388554
 30
0.0
 11
97.4728162651
 21
292.4253388554
 31
0.0
  0
LINE
  5
A6
330
1F
100
AcDbEntity
  8
0
  6
Continuous
 62
     9
100
AcDbLine
 10
96.7228162651
 20
312.7114937355
 30
0.0
 11
96.7228162651
 21
329.2503388554
 31
0.0
  0
LINE
  5
A7
330
1F
100
AcDbEntity
  8
0
  6
Continuous
 62
     9
100
AcDbLine
 10
96.7228162651
 20
286.3003388554
 30
0.0
 11
96.7228162651
 21
302.8391839754
 31
0.0
  0
LINE
  5
A8
330
1F
100
AcDbEntity
  8
0
  6
Continuous
 62
     9
100
AcDbLine
 10
94.3978162651
 20
312.7114937355
 30
0.0
 11
94.3978162651
 21
329.2503388554
 31
0.0
  0
LINE
  5
A9
330
1F
100
AcDbEntity
  8
0
  6
Continuous
 62
     9
100
AcDbLine
 10
94.3978162651
 20
286.3003388554
 30
0.0
 11
94.3978162651
 21
302.8391839754
 31
0.0
  0
LINE
  5
AA
330
1F
100
AcDbEntity
  8
0
  6
Continuous
 62
     7
100
AcDbLine
 10
111.0103162651
 20
294.2753388553999
 30
0.0
 11
169.4417020565
 21
294.2753388553999
 31
0.0
  0
LINE
  5
AB
330
1F
100
AcDbEntity
  8
0
  6
Continuous
 62
     7
100
AcDbLine
 10
97.4359793709
 20
292.4253388554
 30
0.0
 11
103.5103162651
 21
292.4253388554
 31
0.0
  0
LINE
  5
AC
330
1F
100
AcDbEntity
  8
0
  6
Continuous
 62
     7
100
AcDbLine
 10
90.2540025379
 20
292.4253388554
 30
0.0
 11
93.6846531593
 21
292.4253388554
 31
0.0
  0
LINE
  5
AD
330
1F
100
AcDbEntity
  8
0
  6
Continuous
 62
     7
100
AcDbLine
 10
97.4359793709
 20
292.0253388554
 30
0.0
 11
103.5103162651
 21
292.0253388554
 31
0.0
  0
LINE
  5
AE
330
1F
100
AcDbEntity
  8
0
  6
Continuous
 62
     7
100
AcDbLine
 10
90.2540025379
 20
292.0253388554
 30
0.0
 11
93.6846531593
 21
292.0253388554
 31
0.0
  0
LINE
  5
AF
330
1F
100
AcDbEntity
  8
0
  6
Continuous
 62
     7
100
AcDbLine
 10
169.4417020565
 20
294.2753388553999
 30
0.0
 11
206.6387753608
 21
297.2028120133
 31
0.0
  0
LINE
  5
B0
330
1F
100
AcDbEntity
  8
RUNDUNGEN
  6
Continuous
 62
     7
100
AcDbLine
 10
206.6387753608
 20
297.2028120133
 30
0.0
 11
169.4417020565
 21
294.2753388553999
 31
0.0
  0
LINE
  5
B1
330
1F
100
AcDbEntity
  8
0
  6
Continuous
 62
     7
100
AcDbLine
 10
93.6478162651
 20
285.3378055272
 30
0.0
 11
93.6478162651
 21
291.7027496116
 31
0.0
  0
LINE
  5
B2
330
1F
100
AcDbEntity
  8
0
  6
Continuous
 62
     7
100
AcDbLine
 10
93.6478162651
 20
301.7578388554
 30
0.0
 11
93.6478162651
 21
292.4253388554
 31
0.0
  0
LINE
  5
B3
330
1F
100
AcDbEntity
  8
0
  6
Continuous
 62
     7
100
AcDbLine
 10
93.6478162651
 20
330.2128314127
 30
0.0
 11
93.6478162651
 21
313.7928388554
 31
0.0
  0
LINE
  5
B4
330
1F
100
AcDbEntity
  8
0
  6
Continuous
 62
     7
100
AcDbLine
 10
92.1683834336
 20
288.0426882479
 30
0.0
 11
92.1683834336
 21
282.7753388554
 31
0.0
  0
LINE
  5
B5
330
1F
100
AcDbEntity
  8
0
  6
Continuous
 62
     7
100
AcDbLine
 10
92.1683834336
 20
301.7578388554
 30
0.0
 11
92.1683834336
 21
292.4253388554
 31
0.0
  0
LINE
  5
B6
330
1F
100
AcDbEntity
  8
0
  6
Continuous
 62
     7
100
AcDbLine
 10
92.1683834336
 20
332.7753388554
 30
0.0
 11
92.1683834336
 21
313.7928388554
 31
0.0
  0
LINE
  5
B7
330
1F
100
AcDbEntity
  8
FASEN
  6
Continuous
 62
     9
100
AcDbLine
 10
90.5278162651
 20
313.3928388554
 30
0.0
 11
90.5278162651
 21
313.7928388554
 31
0.0
  0
LINE
  5
B8
330
1F
100
AcDbEntity
  8
FASEN
  6
Continuous
 62
     9
100
AcDbLine
 10
90.5278162651
 20
302.1578388554
 30
0.0
 11
90.5278162651
 21
301.7578388554
 31
0.0
  0
LINE
  5
B9
330
1F
100
AcDbEntity
  8
FASEN
  6
Continuous
 62
     9
100
AcDbLine
 10
90.2540025379
 20
292.0253388554
 30
0.0
 11
90.2540025379
 21
292.4253388554
 31
0.0
  0
LINE
  5
BA
330
1F
100
AcDbEntity
  8
0
  6
Continuous
 62
     7
100
AcDbLine
 10
97.4728162651
 20
285.3377916859
 30
0.0
 11
98.9522490965
 21
282.7753388554
 31
0.0
  0
LINE
  5
BB
330
1F
100
AcDbEntity
  8
0
  6
Continuous
 62
     9
100
AcDbLine
 10
53.8103162651
 20
314.0846986149
 30
0.0
 11
52.66031626509999
 21
314.7324869664
 31
0.0
  0
LINE
  5
BC
330
1F
100
AcDbEntity
  8
0
  6
Continuous
 62
     7
100
AcDbLine
 10
77.25814663449998
 20
288.8205388554
 30
0.0
 11
76.38571792510001
 21
288.8205388554
 31
0.0
  0
LINE
  5
BD
330
1F
100
AcDbEntity
  8
0
  6
Continuous
 62
     7
100
AcDbLine
 10
98.9522490965
 20
288.0426882479
 30
0.0
 11
103.5103162651
 21
288.0426882479
 31
0.0
  0
LINE
  5
BE
330
1F
100
AcDbEntity
  8
0
  6
Continuous
 62
     7
100
AcDbLine
 10
84.8926425479
 20
288.0426882479
 30
0.0
 11
92.1683834336
 21
288.0426882479
 31
0.0
  0
LINE
  5
BF
330
1F
100
AcDbEntity
  8
0
  6
Continuous
 62
     7
100
AcDbLine
 10
97.4728162651
 20
330.2128860249
 30
0.0
 11
98.9522490965
 21
332.7753388554
 31
0.0
  0
LINE
  5
C0
330
1F
100
AcDbEntity
  8
0
  6
Continuous
 62
     7
100
AcDbLine
 10
75.5603162651
 20
288.6205388554
 30
0.0
 11
53.6102790227
 21
289.7202357213
 31
0.0
  0
LINE
  5
C1
330
1F
100
AcDbEntity
  8
0
  6
Continuous
 62
     7
100
AcDbLine
 10
94.3978162651
 20
286.3003388554
 30
0.0
 11
96.7228162651
 21
286.3003388554
 31
0.0
  0
LINE
  5
C2
330
1F
100
AcDbEntity
  8
0
  6
Continuous
 62
     9
100
AcDbLine
 10
52.66031626509999
 20
300.8181907444
 30
0.0
 11
53.8103162651
 21
301.4659790959
 31
0.0
  0
LWPOLYLINE
  5
C3
330
1F
100
AcDbEntity
  8
BEZUGSACHSEN
  6
DOT_CENTER
 62
     7
100
AcDbPolyline
 90
        2
 70
     0
 43
0.25
 10
84.5603162651
 20
338.6702362833
 10
84.5603162651
 20
324.6702362833
  0
LINE
  5
C4
330
1F
100
AcDbEntity
  8
0
  6
Continuous
 62
     7
100
AcDbLine
 10
98.9522490965
 20
282.7753388554
 30
0.0
 11
103.5103162651
 21
282.7753388554
 31
0.0
  0
LINE
  5
C5
330
1F
100
AcDbEntity
  8
0
  6
Continuous
 62
     7
100
AcDbLine
 10
92.1683834336
 20
282.7753388554
 30
0.0
 11
77.5603162651
 21
282.7753388554
 31
0.0
  0
LINE
  5
C6
330
1F
100
AcDbEntity
  8
0
  6
Continuous
 62
     7
100
AcDbLine
 10
77.5603162651
 20
332.7753388554
 30
0.0
 11
77.5603162651
 21
282.7753388554
 31
0.0
  0
LINE
  5
C7
330
1F
100
AcDbEntity
  8
0
  6
Continuous
 62
     9
100
AcDbLine
 10
77.25814663449998
 20
288.8205388554
 30
0.0
 11
77.25814663449998
 21
326.7301388554
 31
0.0
  0
LINE
  5
C8
330
1F
100
AcDbEntity
  8
0
  6
Continuous
 62
     9
100
AcDbLine
 10
76.38571792510001
 20
288.8205388554
 30
0.0
 11
76.38571792510001
 21
326.7301388554
 31
0.0
  0
LINE
  5
C9
330
1F
100
AcDbEntity
  8
0
  6
Continuous
 62
     9
100
AcDbLine
 10
76.2304264981
 20
288.8000943512
 30
0.0
 11
76.2304264981
 21
326.7505833596
 31
0.0
  0
LINE
  5
CA
330
1F
100
AcDbEntity
  8
0
  6
Continuous
 62
     7
100
AcDbLine
 10
75.5603162651
 20
326.9301388554
 30
0.0
 11
75.5603162651
 21
288.6205388554
 31
0.0
  0
LINE
  5
CB
330
1F
100
AcDbEntity
  8
0
  6
Continuous
 62
     7
100
AcDbLine
 10
53.8103162651
 20
313.0453388554
 30
0.0
 11
52.66031626509999
 21
314.1953388554
 31
0.0
  0
LINE
  5
CC
330
1F
100
AcDbEntity
  8
0
  6
Continuous
 62
     7
100
AcDbLine
 10
52.66031626509999
 20
301.3553388554
 30
0.0
 11
53.8103162651
 21
302.5053388554
 31
0.0
  0
LWPOLYLINE
  5
CD
330
1F
100
AcDbEntity
  8
BEZUGSACHSEN
  6
DOT_CENTER
 62
     7
100
AcDbPolyline
 90
        2
 70
     0
 43
0.25
 10
70.0603162651
 20
301.7753388554
 10
70.0603162651
 20
313.7753388554
  0
LINE
  5
CE
330
1F
100
AcDbEntity
  8
0
  6
Continuous
 62
     7
100
AcDbLine
 10
53.3483869961
 20
315.5112965615
 30
0.0
 11
53.3968064749
 21
315.4253388554
 31
0.0
  0
LINE
  5
CF
330
1F
100
AcDbEntity
  8
0
  6
Continuous
 62
     7
100
AcDbLine
 10
53.3968064749
 20
300.1253388554
 30
0.0
 11
53.3483869961
 21
300.0393811494
 31
0.0
  0
LINE
  5
D0
330
1F
100
AcDbEntity
  8
RUNDUNGEN
  6
Continuous
 62
     7
100
AcDbLine
 10
57.2603162651
 20
313.7064891022
 30
0.0
 11
57.2603162651
 21
301.8441886086
 31
0.0
  0
LINE
  5
D1
330
1F
100
AcDbEntity
  8
RUNDUNGEN
  6
Continuous
 62
     9
100
AcDbLine
 10
55.8603162651
 20
313.0453388554
 30
0.0
 11
55.8603162651
 21
315.879809653
 31
0.0
  0
LINE
  5
D2
330
1F
100
AcDbEntity
  8
RUNDUNGEN
  6
Continuous
 62
     9
100
AcDbLine
 10
55.8603162651
 20
299.6708680578
 30
0.0
 11
55.8603162651
 21
302.5053388554
 31
0.0
  0
LINE
  5
D3
330
1F
100
AcDbEntity
  8
0
  6
Continuous
 62
     7
100
AcDbLine
 10
53.8103162651
 20
313.0453388554
 30
0.0
 11
53.8103162651
 21
314.0846986149
 31
0.0
  0
LINE
  5
D4
330
1F
100
AcDbEntity
  8
0
  6
Continuous
 62
     7
100
AcDbLine
 10
53.8103162651
 20
301.4659790959
 30
0.0
 11
53.8103162651
 21
302.5053388554
 31
0.0
  0
LINE
  5
D5
330
1F
100
AcDbEntity
  8
0
  6
Continuous
 62
     9
100
AcDbLine
 10
53.6102790227
 20
299.9268263094
 30
0.0
 11
53.6102790227
 21
289.7202357213
 31
0.0
  0
LINE
  5
D6
330
1F
100
AcDbEntity
  8
0
  6
Continuous
 62
     9
100
AcDbLine
 10
53.6102790227
 20
325.8304419896
 30
0.0
 11
53.6102790227
 21
315.6238514014
 31
0.0
  0
LINE
  5
D7
330
1F
100
AcDbEntity
  8
0
  6
Continuous
 62
     7
100
AcDbLine
 10
52.66031626509999
 20
314.1953388554
 30
0.0
 11
52.66031626509999
 21
324.8316946366
 31
0.0
  0
LINE
  5
D8
330
1F
100
AcDbEntity
  8
0
  6
Continuous
 62
     7
100
AcDbLine
 10
52.66031626509999
 20
290.718983074
 30
0.0
 11
52.66031626509999
 21
301.3553388554
 31
0.0
  0
ARC
  5
D9
330
1F
100
AcDbEntity
  8
0
  6
Continuous
 62
     7
100
AcDbCircle
 10
96.7228162651
 20
330.0003388554
 30
0.0
 40
0.75
100
AcDbArc
 50
270.0
 51
0.0
  0
ARC
  5
DA
330
1F
100
AcDbEntity
  8
RUNDUNGEN
  6
Continuous
 62
     7
100
AcDbCircle
 10
206.5603162651
 20
317.3509483638
 30
0.0
 40
1.0
100
AcDbArc
 50
0.0
 51
85.50000000144182
  0
ARC
  5
DB
330
1F
100
AcDbEntity
  8
0
  6
Continuous
 62
     7
100
AcDbCircle
 10
214.2267598531
 20
340.6958743652
 30
0.0
 40
126.7303074976998
100
AcDbArc
 50
202.8862467703002
 51
204.5491891221036
  0
ARC
  5
DC
330
1F
100
AcDbEntity
  8
RUNDUNGEN
  6
Continuous
 62
     7
100
AcDbCircle
 10
142.8303868004
 20
1074.2111986572
 30
0.0
 40
779.4077988407994
100
AcDbArc
 50
263.4268476068
 51
263.5933190568001
  0
ARC
  5
DD
330
1F
100
AcDbEntity
  8
0
  6
Continuous
 62
     7
100
AcDbCircle
 10
96.7228162651
 20
285.5503388554
 30
0.0
 40
0.75
100
AcDbArc
 50
0.0
 51
90.0
  0
ARC
  5
DE
330
1F
100
AcDbEntity
  8
RUNDUNGEN
  6
Continuous
 62
     7
100
AcDbCircle
 10
206.5603162651
 20
298.1997293471
 30
0.0
 40
1.000000000064494
100
AcDbArc
 50
274.4999999981087
 51
0.0
  0
ARC
  5
DF
330
1F
100
AcDbEntity
  8
0
  6
Continuous
 62
     7
100
AcDbCircle
 10
96.0474758748
 20
291.7033859482
 30
0.0
 40
1.425340532344747
100
AcDbArc
 50
359.9744205669359
 51
13.05450641546304
  0
ARC
  5
E0
330
1F
100
AcDbEntity
  8
0
  6
Continuous
 62
     7
100
AcDbCircle
 10
131.2157046684
 20
292.2253388554
 30
0.0
 40
33.78031736343758
100
AcDbArc
 50
179.660772196785
 51
180.339227803215
  0
ARC
  5
E1
330
1F
100
AcDbEntity
  8
RUNDUNGEN
  6
Continuous
 62
     7
100
AcDbCircle
 10
142.8303868004
 20
-458.6605209464
 30
0.0
 40
779.4077988409
100
AcDbArc
 50
96.40668094319999
 51
96.57315239320002
  0
ARC
  5
E2
330
1F
100
AcDbEntity
  8
0
  6
Continuous
 62
     7
100
AcDbCircle
 10
77.25814663449998
 20
327.3301388554
 30
0.0
 40
0.5999999999999659
100
AcDbArc
 50
270.0
 51
300.2968216182429
  0
ARC
  5
E3
330
1F
100
AcDbEntity
  8
0
  6
Continuous
 62
     7
100
AcDbCircle
 10
76.38571792510001
 20
327.3301388554
 30
0.0
 40
0.6000000000097162
100
AcDbArc
 50
255.0000000063289
 51
270.0
  0
ARC
  5
E4
330
1F
100
AcDbEntity
  8
0
  6
Continuous
 62
     7
100
AcDbCircle
 10
94.3978162651
 20
330.0003388554
 30
0.0
 40
0.75
100
AcDbArc
 50
180.0
 51
270.0
  0
ARC
  5
E5
330
1F
100
AcDbEntity
  8
0
  6
Continuous
 62
     7
100
AcDbCircle
 10
53.66031626509999
 20
324.831694637
 30
0.0
 40
0.999999999976244
100
AcDbArc
 50
92.86812048930244
 51
180.0000000229187
  0
ARC
  5
E6
330
1F
100
AcDbEntity
  8
RUNDUNGEN
  6
Continuous
 62
     7
100
AcDbCircle
 10
55.8603162651
 20
311.6453388554
 30
0.0
 40
1.400000000000047
100
AcDbArc
 50
6.05709561601263
 51
90.0
  0
ARC
  5
E7
330
1F
100
AcDbEntity
  8
FASEN
  6
Continuous
 62
     7
100
AcDbCircle
 10
90.5278162651
 20
307.7753388554
 30
0.0
 40
5.617499843000019
100
AcDbArc
 50
90.0
 51
270.0
  0
ARC
  5
E8
330
1F
100
AcDbEntity
  8
0
  6
Continuous
 62
     7
100
AcDbCircle
 10
90.5278162651
 20
307.7753388554
 30
0.0
 40
6.017500000000041
100
AcDbArc
 50
90.0
 51
270.0
  0
ARC
  5
E9
330
1F
100
AcDbEntity
  8
0
  6
Continuous
 62
     7
100
AcDbCircle
 10
-23.106127323
 20
340.6958743652
 30
0.0
 40
126.7303074977589
100
AcDbArc
 50
335.4508108778964
 51
337.1137532296997
  0
ARC
  5
EA
330
1F
100
AcDbEntity
  8
0
  6
Continuous
 62
     7
100
AcDbCircle
 10
94.151436219
 20
301.6823437224
 30
0.0
 40
0.5037304978999786
100
AcDbArc
 50
166.1596109369583
 51
171.3804870339457
  0
ARC
  5
EB
330
1F
100
AcDbEntity
  8
0
  6
Continuous
 62
     7
100
AcDbCircle
 10
77.25814663449998
 20
288.2205388554
 30
0.0
 40
0.5999999999999016
100
AcDbArc
 50
59.70317838175706
 51
90.0
  0
ARC
  5
EC
330
1F
100
AcDbEntity
  8
0
  6
Continuous
 62
     7
100
AcDbCircle
 10
76.38571792510001
 20
288.2205388554
 30
0.0
 40
0.6000000000000227
100
AcDbArc
 50
90.0
 51
104.9999999936696
  0
ARC
  5
ED
330
1F
100
AcDbEntity
  8
0
  6
Continuous
 62
     7
100
AcDbCircle
 10
94.3978162651
 20
285.5503388554
 30
0.0
 40
0.75
100
AcDbArc
 50
90.0
 51
180.0
  0
ARC
  5
EE
330
1F
100
AcDbEntity
  8
0
  6
Continuous
 62
     7
100
AcDbCircle
 10
53.66031626509999
 20
290.7189830739
 30
0.0
 40
1.0
100
AcDbArc
 50
179.9999999942711
 51
267.1318795106976
  0
ARC
  5
EF
330
1F
100
AcDbEntity
  8
RUNDUNGEN
  6
Continuous
 62
     7
100
AcDbCircle
 10
55.8603162651
 20
303.9053388554
 30
0.0
 40
1.399999999999977
100
AcDbArc
 50
270.0
 51
353.9429041005114
  0
ARC
  5
F0
330
1F
100
AcDbEntity
  8
0
  6
Continuous
 62
     7
100
AcDbCircle
 10
95.0731566553
 20
291.7033859482
 30
0.0
 40
1.4253405322444
100
AcDbArc
 50
166.945493583629
 51
180.0255794330658
  0
ARC
  5
F1
330
1F
100
AcDbEntity
  8
FASEN
  6
Continuous
 62
     7
100
AcDbCircle
 10
90.2540025379
 20
286.4253388554
 30
0.0
 40
5.599990644599984
100
AcDbArc
 50
90.0
 51
163.2131310087987
  0
ARC
  5
F2
330
1F
100
AcDbEntity
  8
FASEN
  6
Continuous
 62
     7
100
AcDbCircle
 10
90.2540025379
 20
286.4253388554
 30
0.0
 40
6.0
100
AcDbArc
 50
90.0
 51
161.1845969504035
  0
ARC
  5
F3
330
1F
100
AcDbEntity
  8
FASEN
  6
Continuous
 62
     7
100
AcDbCircle
 10
92.7346716126
 20
296.2087306639
 30
0.0
 40
11.3217343455995
100
AcDbArc
 50
223.8842578163006
 51
226.1595439826519
  0
ARC
  5
F4
330
1F
100
AcDbEntity
  8
0
  6
Continuous
 62
     7
100
AcDbCircle
 10
59.9049278617
 20
292.2253388554
 30
0.0
 40
33.78031736353756
100
AcDbArc
 50
359.6607721967859
 51
0.33922780321396
  0
CIRCLE
  5
F5
330
1F
100
AcDbEntity
  8
FASEN
  6
Continuous
 62
     7
100
AcDbCircle
 10
70.0603162651
 20
307.7753388554
 30
0.0
 40
3.0
  0
SPLINE
  5
F6
330
1F
100
AcDbEntity
  8
0
  6
Continuous
 62
     7
100
AcDbSpline
210
0.0
220
0.0
230
1.0
 70
     8
 71
     3
 72
    11
 73
     7
 74
     5
 42
0.0000000001
 43
0.0000000001
 44
0.00000001
 40
0.0
 40
0.0
 40
0.0
 40
0.0
 40
0.3847579053301853
 40
0.7696659746337677
 40
1.093183244058675
 40
1.41657080935309
 40
1.41657080935309
 40
1.41657080935309
 40
1.41657080935309
 10
53.8103162651
 20
314.0846986149
 30
0.0
 10
53.80168822731388
 20
314.2130451872173
 30
0.0
 10
53.78442878437629
 20
314.4697884231715
 30
0.0
 10
53.67858086638742
 20
314.8208827016848
 30
0.0
 10
53.54980272150924
 20
315.1400753681253
 30
0.0
 10
53.44779840649655
 20
315.3302637372028
 30
0.0
 10
53.3968064749
 20
315.4253388554
 30
0.0
 11
53.8103162651
 21
314.0846986149
 31
0.0
 11
53.77012179182015
 21
314.4673512642203
 31
0.0
 11
53.66678470262893
 21
314.8381283776085
 31
0.0
 11
53.54446799081779
 21
315.1376313753028
 31
0.0
 11
53.3968064749
 21
315.4253388554
 31
0.0
  0
SPLINE
  5
F7
330
1F
100
AcDbEntity
  8
0
  6
Continuous
 62
     7
100
AcDbSpline
210
0.0
220
0.0
230
1.0
 70
     8
 71
     3
 72
    11
 73
     7
 74
     5
 42
0.0000000001
 43
0.0000000001
 44
0.00000001
 40
0.0
 40
0.0
 40
0.0
 40
0.0
 40
0.4419689634229058
 40
0.8839020538983535
 40
1.150518561921191
 40
1.416734593101665
 40
1.416734593101665
 40
1.416734593101665
 40
1.416734593101665
 10
53.3968064749
 20
300.1253388554
 30
0.0
 10
53.46550657506294
 20
300.2558630995897
 30
0.0
 10
53.60290119926177
 20
300.5169009938103
 30
0.0
 10
53.72782737083857
 20
300.8810700253895
 30
0.0
 10
53.79786373622588
 20
301.199455756256
 30
0.0
 10
53.80616750251171
 20
301.3771825091507
 30
0.0
 10
53.8103162651
 20
301.4659790959
 30
0.0
 11
53.3968064749
 21
300.1253388554
 31
0.0
 11
53.59255135058348
 21
300.5215969887838
 31
0.0
 11
53.73673857138932
 21
300.9393467964599
 31
0.0
 11
53.79038625114337
 21
301.2005101338702
 31
0.0
 11
53.8103162651
 21
301.4659790959
 31
0.0
  0
SPLINE
  5
F8
330
1F
100
AcDbEntity
  8
FASEN
  6
Continuous
 62
     7
100
AcDbSpline
210
0.0
220
0.0
230
1.0
 70
     8
 71
     3
 72
    43
 73
    39
 74
    37
 42
0.0000000001
 43
0.0000000001
 44
0.00000001
 40
0.0
 40
0.0
 40
0.0
 40
0.0
 40
0.3536627138549493
 40
0.7077087111083051
 40
1.061386016654901
 40
1.414940913004386
 40
1.768273600928971
 40
2.121679340793955
 40
2.474990473774628
 40
2.828124790757126
 40
3.004861640139454
 40
3.181542282457794
 40
3.358289604773743
 40
3.535092628054489
 40
3.88869319104107
 40
4.242467023627061
 40
4.596379402978703
 40
4.950247373499005
 40
5.303947628093955
 40
5.657661399161613
 40
6.010712555540429
 40
6.36374720073939
 40
6.715806091111292
 40
7.067909115969603
 40
7.419215040299132
 40
7.770346273771379
 40
7.945854779220271
 40
8.1213087100575
 40
8.296759233418381
 40
8.472264989862808
 40
8.823345921756282
 40
9.174601594888102
 40
9.526721242010973
 40
9.878775142295904
 40
10.23179857983819
 40
10.58493613226927
 40
10.93889559970378
 40
11.2924856491167
 40
11.2924856491167
 40
11.2924856491167
 40
11.2924856491167
 10
66.4610678535
 20
307.7753388554
 30
0.0
 10
66.46439768032201
 20
307.893276165142
 30
0.0
 10
66.47106094267934
 20
308.1292785996631
 30
0.0
 10
66.5253968979449
 20
308.4797629069067
 30
0.0
 10
66.61134012347301
 20
308.8233753731099
 30
0.0
 10
66.73122726826946
 20
309.1566128761078
 30
0.0
 10
66.88327612968988
 20
309.4762843662937
 30
0.0
 10
67.06609004613321
 20
309.7793521717371
 30
0.0
 10
67.27795324181788
 20
310.0627589207155
 30
0.0
 10
67.47688768099518
 20
310.2804735198411
 30
0.0
 10
67.64826815614133
 20
310.4421350889047
 30
0.0
 10
67.78269467991254
 20
310.5569657385678
 30
0.0
 10
67.92261294687957
 20
310.6650730606084
 30
0.0
 10
68.11606729890221
 20
310.7998886682958
 30
0.0
 10
68.37011209751523
 20
310.9503181745865
 30
0.0
 10
68.69114051208228
 20
311.1002466930975
 30
0.0
 10
69.02539937528017
 20
311.2180763727886
 30
0.0
 10
69.3695001841156
 20
311.3028366076639
 30
0.0
 10
69.72015198825918
 20
311.3536806233554
 30
0.0
 10
70.07380851734267
 20
311.3702947327535
 30
0.0
 10
70.4271805024506
 20
311.352433470161
 30
0.0
 10
70.77661257040614
 20
311.3004731486856
 30
0.0
 10
71.11900330841397
 20
311.2147596120144
 30
0.0
 10
71.4508897201437
 20
311.0963134019636
 30
0.0
 10
71.76927723483684
 20
310.9460582719727
 30
0.0
 10
72.02091361098778
 20
310.7956466238708
 30
0.0
 10
72.21240950436348
 20
310.6609735559344
 30
0.0
 10
72.35086043691874
 20
310.5530525202038
 30
0.0
 10
72.48385855075671
 20
310.4384802351971
 30
0.0
 10
72.65348926344141
 20
310.2771607932875
 30
0.0
 10
72.85036006850686
 20
310.0599811221327
 30
0.0
 10
73.0600868090511
 20
309.7772333805099
 30
0.0
 10
73.2410471523987
 20
309.4748549728685
 30
0.0
 10
73.39167897064299
 20
309.1556643036592
 30
0.0
 10
73.51051076960239
 20
308.8228906377024
 30
0.0
 10
73.59575590875852
 20
308.4795060112232
 30
0.0
 10
73.64959106874235
 20
308.1291952457026
 30
0.0
 10
73.65624129802913
 20
307.8932499224363
 30
0.0
 10
73.6595646766
 20
307.7753388554
 30
0.0
 11
66.4610678535
 21
307.7753388554
 31
0.0
 11
66.47844101728806
 21
308.1285745958783
 31
0.0
 11
66.5306915863626
 21
308.4787437638564
 31
0.0
 11
66.61702046031134
 21
308.821723299662
 31
0.0
 11
66.73662135574568
 21
309.1544344214238
 31
0.0
 11
66.88839820911377
 21
309.4735077282637
 31
0.0
 11
67.0709559333101
 21
309.7761102634576
 31
0.0
 11
67.28246762795312
 21
310.0591147858902
 31
0.0
 11
67.52069499028075
 21
310.3197900046378
 31
0.0
 11
67.64925374394964
 21
310.4410688601102
 31
0.0
 11
67.78358976940132
 21
310.5558289648325
 31
0.0
 11
67.92345418677313
 21
310.66389172761
 31
0.0
 11
68.06851165504031
 21
310.7649740699904
 31
0.0
 11
68.37274309118854
 21
310.9451866983038
 31
0.0
 11
68.69328928718602
 21
311.0948732402978
 31
0.0
 11
69.02705804474812
 21
311.2125694115771
 31
0.0
 11
69.3706577115928
 21
311.297196886456
 31
0.0
 11
69.72069360629496
 21
311.3479782070433
 31
0.0
 11
70.07401904286314
 21
311.3645482920402
 31
0.0
 11
70.42662076866468
 21
311.3467398114145
 31
0.0
 11
70.77580984573886
 21
311.2947739652957
 31
0.0
 11
71.11733059705969
 21
311.2092810491731
 31
0.0
 11
71.44893297338756
 21
311.090890153712
 31
0.0
 11
71.76664161317505
 21
310.9409665976129
 31
0.0
 11
72.06800342732731
 21
310.7607606041204
 31
0.0
 11
72.21156939291001
 21
310.6598049256709
 31
0.0
 11
72.34995272525101
 21
310.5519432773596
 31
0.0
 11
72.48287760296554
 21
310.4374275010133
 31
0.0
 11
72.61005022750817
 21
310.3164754687357
 31
0.0
 11
72.84586833937105
 21
310.0563838716846
 31
0.0
 11
73.05510183655936
 21
309.77424579988
 31
0.0
 11
73.23595672580015
 21
309.4721204038477
 31
0.0
 11
73.3862342904546
 21
309.1537517460509
 31
0.0
 11
73.50487100422711
 21
308.8212598249469
 31
0.0
 11
73.59045961327509
 21
308.4786511254977
 31
0.0
 11
73.64228681815169
 21
308.1285065190546
 31
0.0
 11
73.6595646766
 21
307.7753388554
 31
0.0
  0
SPLINE
  5
F9
330
1F
100
AcDbEntity
  8
0
  6
Continuous
 62
     7
100
AcDbSpline
210
0.0
220
0.0
230
1.0
 70
     8
 71
     3
 72
    13
 73
     9
 74
     7
 42
0.0000000001
 43
0.0000000001
 44
0.00000001
 40
0.0
 40
0.0
 40
0.0
 40
0.0
 40
0.1312911943997038
 40
0.2626255806154504
 40
0.3227118843306925
 40
0.3827399628269443
 40
0.4404729026882275
 40
0.4981360903687593
 40
0.4981360903687593
 40
0.4981360903687593
 40
0.4981360903687593
 10
97.1943514123
 20
302.1578388554
 30
0.0
 10
97.22967803032904
 20
302.131808264582
 30
0.0
 10
97.30034288804077
 20
302.0797385194741
 30
0.0
 10
97.36985173907075
 20
301.9960592101468
 30
0.0
 10
97.41310688344493
 20
301.9241633286116
 30
0.0
 10
97.43782478622705
 20
301.8701572277719
 30
0.0
 10
97.45666399861632
 20
301.8146121967981
 30
0.0
 10
97.46371433541765
 20
301.7767556749661
 30
0.0
 10
97.467237373
 20
301.7578388554
 30
0.0
 11
97.1943514123
 21
302.1578388554
 31
0.0
 11
97.29680792954406
 21
302.0757411099917
 31
0.0
 11
97.38129017346708
 21
301.9751852973084
 31
0.0
 11
97.41212379706887
 21
301.9236134876665
 31
0.0
 11
97.43717710441155
 21
301.8690634922573
 31
0.0
 11
97.45533429412068
 21
301.8142601273342
 31
0.0
 11
97.467237373
 21
301.7578388554
 31
0.0
  0
SPLINE
  5
FA
330
1F
100
AcDbEntity
  8
0
  6
Continuous
 62
     7
100
AcDbSpline
210
0.0
220
0.0
230
1.0
 70
     8
 71
     3
 72
    11
 73
     7
 74
     5
 42
0.0000000001
 43
0.0000000001
 44
0.00000001
 40
0.0
 40
0.0
 40
0.0
 40
0.0
 40
0.1068456601924213
 40
0.2142571945548666
 40
0.3333679116611064
 40
0.4521343115256469
 40
0.4521343115256469
 40
0.4521343115256469
 40
0.4521343115256469
 10
93.66233108722
 20
301.802845110695
 30
0.0
 10
93.67301733584216
 20
301.8369538019604
 30
0.0
 10
93.69444642941491
 20
301.9053518303622
 30
0.0
 10
93.75344526496619
 20
302.0006052160268
 30
0.0
 10
93.82986120555792
 20
302.0877437074702
 30
0.0
 10
93.89417217620516
 20
302.1344963635991
 30
0.0
 10
93.9262811178
 20
302.1578388554
 30
0.0
 11
93.66233108722
 21
301.802845110695
 31
0.0
 11
93.69849052329474
 21
301.903386098778
 31
0.0
 11
93.75363269252333
 21
301.9955629878927
 31
0.0
 11
93.83286243354715
 21
302.0845012308867
 31
0.0
 11
93.9262811178
 21
302.1578388554
 31
0.0
  0
SPLINE
  5
FB
330
1F
100
AcDbEntity
  8
0
  6
Continuous
 62
     7
100
AcDbSpline
210
0.0
220
0.0
230
1.0
 70
     8
 71
     3
 72
    13
 73
     9
 74
     7
 42
0.0000000001
 43
0.0000000001
 44
0.00000001
 40
0.0
 40
0.0
 40
0.0
 40
0.0
 40
0.0576631896507926
 40
0.1153961315038425
 40
0.1754242231383481
 40
0.2355105400165187
 40
0.366844911180636
 40
0.4981360904474004
 40
0.4981360904474004
 40
0.4981360904474004
 40
0.4981360904474004
 10
97.467237373
 20
313.7928388554
 30
0.0
 10
97.46371433526468
 20
313.7739220351918
 30
0.0
 10
97.45666399815606
 20
313.7360655120682
 30
0.0
 10
97.43782478353488
 20
313.6805204758055
 30
0.0
 10
97.41310687572408
 20
313.6265143668226
 30
0.0
 10
97.36985172639088
 20
313.5546184838157
 30
0.0
 10
97.30034287623803
 20
313.4709391816817
 30
0.0
 10
97.22967802638749
 20
313.4188694429979
 30
0.0
 10
97.1943514123
 20
313.3928388554
 30
0.0
 11
97.467237373
 21
313.7928388554
 31
0.0
 11
97.45533429356774
 21
313.7364175815688
 31
0.0
 11
97.4371771028641
 21
313.681614214877
 31
0.0
 11
97.41212378895916
 21
313.627064208024
 31
0.0
 11
97.3812901564878
 21
313.5754923883489
 31
0.0
 11
97.29680791862883
 21
313.4749365902296
 31
0.0
 11
97.1943514123
 21
313.3928388554
 31
0.0
  0
SPLINE
  5
FC
330
1F
100
AcDbEntity
  8
0
  6
Continuous
 62
     7
100
AcDbSpline
210
0.0
220
0.0
230
1.0
 70
     8
 71
     3
 72
    13
 73
     9
 74
     7
 42
0.0000000001
 43
0.0000000001
 44
0.00000001
 40
0.0
 40
0.0
 40
0.0
 40
0.0
 40
0.1312848067903607
 40
0.2626131915163122
 40
0.3227000711395843
 40
0.3827285903529942
 40
0.4404671082423787
 40
0.4981359434224962
 40
0.4981359434224962
 40
0.4981359434224962
 40
0.4981359434224962
 10
93.9262811178
 20
313.3928388554
 30
0.0
 10
93.89095630549214
 20
313.4188683026115
 30
0.0
 10
93.82029495535818
 20
313.4709358371019
 30
0.0
 10
93.75078819501874
 20
313.5546113388275
 30
0.0
 10
93.70753106576437
 20
313.6265040472494
 30
0.0
 10
93.68281030201209
 20
313.6805113044622
 30
0.0
 10
93.66396943090382
 20
313.736059952676
 30
0.0
 10
93.6569184959215
 20
313.7739201744652
 30
0.0
 10
93.6533951571
 20
313.7928388554
 30
0.0
 11
93.9262811178
 21
313.3928388554
 31
0.0
 11
93.82382970531414
 21
313.4749327563527
 31
0.0
 11
93.73934993892134
 21
313.575482812071
 31
0.0
 11
93.70851415002643
 21
313.6270539980772
 31
0.0
 11
93.68345890131647
 21
313.6816035868111
 31
0.0
 11
93.66529935978147
 21
313.7364120487426
 31
0.0
 11
93.6533951571
 21
313.7928388554
 31
0.0
  0
SPLINE
  5
FD
330
1F
100
AcDbEntity
  8
0
  6
Continuous
 62
     7
100
AcDbSpline
210
0.0
220
0.0
230
1.0
 70
     8
 71
     3
 72
    25
 73
    21
 74
    19
 42
0.0000000001
 43
0.0000000001
 44
0.00000001
 40
0.0
 40
0.0
 40
0.0
 40
0.0
 40
0.1085025556844868
 40
0.2170033620506293
 40
0.2712583157975983
 40
0.3255127643024087
 40
0.3797719179216885
 40
0.4340272286554784
 40
0.4882788892801327
 40
0.5425511686316005
 40
0.596854110545674
 40
0.6511051290604536
 40
0.6782579265050314
 40
0.7054161158620836
 40
0.7326228693680036
 40
0.7598194769019925
 40
0.787069264389048
 40
0.8143404776918299
 40
0.8416356459365824
 40
0.8688504930555855
 40
0.8688504930555855
 40
0.8688504930555855
 40
0.8688504930555855
 10
93.9262811178
 20
302.1578388554
 30
0.0
 10
93.93761476832506
 20
302.1921876852504
 30
0.0
 10
93.96028188664995
 20
302.2608847911669
 30
0.0
 10
93.99224861102928
 20
302.3454999818891
 30
0.0
 10
94.01978849526955
 20
302.4123931827448
 30
0.0
 10
94.0416671154521
 20
302.462049547328
 30
0.0
 10
94.06488927903405
 20
302.5110937119462
 30
0.0
 10
94.0896949127947
 20
302.5593586285962
 30
0.0
 10
94.1163077456844
 20
302.606662036864
 30
0.0
 10
94.14512281697509
 20
302.6526843838837
 30
0.0
 10
94.17647333412602
 20
302.6970332628725
 30
0.0
 10
94.20539816968169
 20
302.7318989040955
 30
0.0
 10
94.23052015019718
 20
302.7579676676082
 30
0.0
 10
94.25050259094246
 20
302.7764068665614
 30
0.0
 10
94.27170444404427
 20
302.7934675175885
 30
0.0
 10
94.2943239902313
 20
302.8086739087395
 30
0.0
 10
94.31843082638704
 20
302.8214953877851
 30
0.0
 10
94.3439404787182
 20
302.8312801768939
 30
0.0
 10
94.37055211294836
 20
302.8378543845954
 30
0.0
 10
94.38873714633377
 20
302.8387412140495
 30
0.0
 10
94.3978162651
 20
302.8391839754
 30
0.0
 11
93.9262811178
 21
302.1578388554
 31
0.0
 11
93.96100854943674
 21
302.260633845949
 31
0.0
 11
93.99929658876665
 21
302.362154538551
 31
0.0
 11
94.01999227634595
 21
302.4123071907411
 31
0.0
 11
94.04189038154675
 21
302.4619460683591
 31
0.0
 11
94.06515383301793
 21
302.5109651215643
 31
0.0
 11
94.08999632103666
 21
302.559198818622
 31
0.0
 11
94.11666988562327
 21
302.6064403642442
 31
0.0
 11
94.14553984020799
 21
302.6523969310033
 31
0.0
 11
94.177042986615
 21
302.6966277038541
 31
0.0
 11
94.21183430297936
 21
302.7382538652857
 31
0.0
 11
94.2307051958388
 21
302.7577772822959
 31
0.0
 11
94.25069173735295
 21
302.7761649250882
 31
0.0
 11
94.27193934492342
 21
302.7931574707733
 31
0.0
 11
94.29455354207501
 21
302.8082655331424
 31
0.0
 11
94.31865318564397
 21
302.8209839488432
 31
0.0
 11
94.3441184811408
 21
302.8307429344598
 31
0.0
 11
94.3706904442361
 21
302.8369844876937
 31
0.0
 11
94.3978162651
 21
302.8391839754
 31
0.0
  0
SPLINE
  5
FE
330
1F
100
AcDbEntity
  8
0
  6
Continuous
 62
     7
100
AcDbSpline
210
0.0
220
0.0
230
1.0
 70
     8
 71
     3
 72
    25
 73
    21
 74
    19
 42
0.0000000001
 43
0.0000000001
 44
0.00000001
 40
0.0
 40
0.0
 40
0.0
 40
0.0
 40
0.027207418130891
 40
0.0544897103828908
 40
0.0817252615646412
 40
0.1089465264126938
 40
0.1361394922988438
 40
0.1633375027288353
 40
0.1904999127510814
 40
0.2176598700467984
 40
0.2719180516235065
 40
0.326224562074023
 40
0.3805032120100017
 40
0.4347626393723475
 40
0.489025844738659
 40
0.5432924465497221
 40
0.5975546789618278
 40
0.6518175542245024
 40
0.7603351297004912
 40
0.8688543878445968
 40
0.8688543878445968
 40
0.8688543878445968
 40
0.8688543878445968
 10
96.7228162651
 20
302.8391839754
 30
0.0
 10
96.73189293796239
 20
302.8387467349088
 30
0.0
 10
96.75007126245953
 20
302.8378710506518
 30
0.0
 10
96.77667313566761
 20
302.8313305087399
 30
0.0
 10
96.80214859235966
 20
302.8215227701662
 30
0.0
 10
96.82621911592766
 20
302.8086851409355
 30
0.0
 10
96.84884148767588
 20
302.7935099024083
 30
0.0
 10
96.8700653432783
 20
302.7764800535406
 30
0.0
 10
96.89005069863859
 20
302.7580417546915
 30
0.0
 10
96.91516720247323
 20
302.7319592525101
 30
0.0
 10
96.94409979968296
 20
302.697093302961
 30
0.0
 10
96.97546839284395
 20
302.652750019491
 30
0.0
 10
97.00429154388992
 20
302.6067255424952
 30
0.0
 10
97.0309084234108
 20
302.5594159779054
 30
0.0
 10
97.05571915345624
 20
302.511145035031
 30
0.0
 10
97.07894632905439
 20
302.4620947046647
 30
0.0
 10
97.10082896556695
 20
302.4124316672258
 30
0.0
 10
97.12837353328653
 20
302.3455286848855
 30
0.0
 10
97.16034541294087
 20
302.2609006791553
 30
0.0
 10
97.1830160205925
 20
302.1921929742134
 30
0.0
 10
97.1943514123
 20
302.1578388554
 30
0.0
 11
96.7228162651
 21
302.8391839754
 31
0.0
 11
96.74993615612259
 21
302.837003353408
 31
0.0
 11
96.77649945245565
 21
302.8307812349227
 31
0.0
 11
96.80192330933926
 21
302.8210138018241
 31
0.0
 11
96.82598766845868
 21
302.8082896562693
 31
0.0
 11
96.84860967167486
 21
302.7931998463245
 31
0.0
 11
96.86986930354804
 21
302.7762363613061
 31
0.0
 11
96.88986331402162
 21
302.7578506042263
 31
0.0
 11
96.90873452663016
 21
302.7383175395669
 31
0.0
 11
96.94353249253643
 21
302.6966876003789
 31
0.0
 11
96.97504917510874
 21
302.6524620896758
 31
0.0
 11
97.00392836886917
 21
302.6065038041701
 31
0.0
 11
97.03060713981661
 21
302.5592562789606
 31
0.0
 11
97.05545465100121
 21
302.5110162888636
 31
0.0
 11
97.07872285031661
 21
302.4619912445216
 31
0.0
 11
97.10062505662488
 21
302.4123456684329
 31
0.0
 11
97.1213242408212
 21
302.3621858896717
 31
0.0
 11
97.15961858831815
 21
302.2606496540857
 31
0.0
 11
97.1943514123
 21
302.1578388554
 31
0.0
  0
SPLINE
  5
FF
330
1F
100
AcDbEntity
  8
0
  6
Continuous
 62
     7
100
AcDbSpline
210
0.0
220
0.0
230
1.0
 70
     8
 71
     3
 72
    25
 73
    21
 74
    19
 42
0.0000000001
 43
0.0000000001
 44
0.00000001
 40
0.0
 40
0.0
 40
0.0
 40
0.0
 40
0.1085285490187801
 40
0.2170554556524951
 40
0.2713241332608306
 40
0.3255921109184048
 40
0.3798650579415708
 40
0.4341347749078323
 40
0.4884007825039981
 40
0.5426855351779871
 40
0.596991890635012
 40
0.6512511252515412
 40
0.6784124280695929
 40
0.705575110428372
 40
0.7327602080233532
 40
0.7599421721642853
 40
0.7871532996813013
 40
0.8143760191180921
 40
0.841652575754509
 40
0.8688563235826201
 40
0.8688563235826201
 40
0.8688563235826201
 40
0.8688563235826201
 10
97.1943514123
 20
313.3928388554
 30
0.0
 10
97.18301498889394
 20
313.3584818148505
 30
0.0
 10
97.1603423136383
 20
313.2897682536837
 30
0.0
 10
97.1283672937866
 20
313.2051327324749
 30
0.0
 10
97.1008202353618
 20
313.1382232500282
 30
0.0
 10
97.07893512399178
 20
313.0885547802292
 30
0.0
 10
97.05570469985142
 20
313.0394991210049
 30
0.0
 10
97.03089046776054
 20
312.9912227016658
 30
0.0
 10
97.00427055192245
 20
312.9439075002827
 30
0.0
 10
96.97544319618845
 20
312.8978806275816
 30
0.0
 10
96.94406678170218
 20
312.8535399110729
 30
0.0
 10
96.9151298465526
 20
312.8186768361977
 30
0.0
 10
96.8900131265531
 20
312.7925933314477
 30
0.0
 10
96.87002745007686
 20
312.7741605941566
 30
0.0
 10
96.84879958299396
 20
312.7571480819529
 30
0.0
 10
96.8261812395594
 20
312.7419882446036
 30
0.0
 10
96.80212719369592
 20
312.7291452805851
 30
0.0
 10
96.77666472491345
 20
312.7193283023952
 30
0.0
 10
96.75006693486104
 20
312.7128003519468
 30
0.0
 10
96.73189172508907
 20
312.7119288860996
 30
0.0
 10
96.7228162651
 20
312.7114937355
 30
0.0
 11
97.1943514123
 21
313.3928388554
 31
0.0
 11
97.15961540938457
 21
313.2900193239209
 31
0.0
 11
97.1213176041204
 21
313.1884744196892
 31
0.0
 11
97.10061626578246
 21
313.1383092528861
 31
0.0
 11
97.0787116159737
 21
313.088658475291
 31
0.0
 11
97.05544019978568
 21
313.0396279341235
 31
0.0
 11
97.03058926564111
 21
312.991382382497
 31
0.0
 11
97.0039069047739
 21
312.9441293275801
 31
0.0
 11
96.97502205149955
 21
312.8981673908912
 31
0.0
 11
96.94350002041273
 21
312.8539458825589
 31
0.0
 11
96.9086976183371
 21
312.8123182793257
 31
0.0
 11
96.88982491556972
 21
312.7927847834525
 31
0.0
 11
96.86982694922087
 21
312.7744029267772
 31
0.0
 11
96.84856917457566
 21
312.7574578228122
 31
0.0
 11
96.82595211090663
 21
312.7423804355867
 31
0.0
 11
96.80190078521362
 21
312.7296533309216
 31
0.0
 11
96.77649216622235
 21
312.7198820191114
 31
0.0
 11
96.74993304701229
 21
312.7136672199413
 31
0.0
 11
96.7228162651
 21
312.7114937355
 31
0.0
  0
SPLINE
  5
100
330
1F
100
AcDbEntity
  8
0
  6
Continuous
 62
     7
100
AcDbSpline
210
0.0
220
0.0
230
1.0
 70
     8
 71
     3
 72
    25
 73
    21
 74
    19
 42
0.0000000001
 43
0.0000000001
 44
0.00000001
 40
0.0
 40
0.0
 40
0.0
 40
0.0
 40
0.0272067661450074
 40
0.0544881809679615
 40
0.0817226175577971
 40
0.1089430469953397
 40
0.1361366761229954
 40
0.1633351632611163
 40
0.1904968256843031
 40
0.2176561384432713
 40
0.2719142874126719
 40
0.326220632289896
 40
0.3804997304113874
 40
0.4347596646695894
 40
0.4890233386061768
 40
0.5432903873302894
 40
0.5975530059009477
 40
0.6518162747187328
 40
0.7603346282747535
 40
0.8688546603593701
 40
0.8688546603593701
 40
0.8688546603593701
 40
0.8688546603593701
 10
94.3978162651
 20
312.7114937355
 30
0.0
 10
94.38873980876926
 20
312.7119307257876
 30
0.0
 10
94.37056199254287
 20
312.7128059053566
 30
0.0
 10
94.34396059058886
 20
312.7193448278836
 30
0.0
 10
94.31848635111567
 20
312.7291533493766
 30
0.0
 10
94.29441685004018
 20
312.7419918502394
 30
0.0
 10
94.27179399750412
 20
312.7571664709437
 30
0.0
 10
94.25056930022207
 20
312.7741955100274
 30
0.0
 10
94.23058410203441
 20
312.7926335567
 30
0.0
 10
94.20546815240364
 20
312.8187159254705
 30
0.0
 10
94.17653535526478
 20
312.8535813072721
 30
0.0
 10
94.14516596327678
 20
312.8979241417001
 30
0.0
 10
94.11634254228059
 20
312.9439487737179
 30
0.0
 10
94.08972555032459
 20
312.9912588186215
 30
0.0
 10
94.06491455706626
 20
313.0395301570377
 30
0.0
 10
94.04168709596392
 20
313.0885808328215
 30
0.0
 10
94.01980425770029
 20
313.1382442288339
 30
0.0
 10
93.99225948455774
 20
313.2051476882482
 30
0.0
 10
93.96028736399255
 20
313.2897762965187
 30
0.0
 10
93.93761659164116
 20
313.3584844919814
 30
0.0
 10
93.9262811178
 20
313.3928388554
 30
0.0
 11
94.3978162651
 21
312.7114937355
 31
0.0
 11
94.37069695724682
 21
312.7136734753087
 31
0.0
 11
94.34413431230277
 21
312.7198945273353
 31
0.0
 11
94.31871176192848
 21
312.7296622532136
 31
0.0
 11
94.29464855217105
 21
312.742386785226
 31
0.0
 11
94.27202571097199
 21
312.7574765341044
 31
0.0
 11
94.25076514140066
 21
312.7744396082393
 31
0.0
 11
94.2307715456882
 21
312.7928247118854
 31
0.0
 11
94.21190086321572
 21
312.8123573925146
 31
0.0
 11
94.17710258538301
 21
312.8539870284662
 31
0.0
 11
94.14558539890504
 21
312.8982119767469
 31
0.0
 11
94.11670577227142
 21
312.9441705195696
 31
0.0
 11
94.09002680277784
 21
312.9914185147913
 31
0.0
 11
94.0651790496613
 21
313.0396589073493
 31
0.0
 11
94.04191057848897
 21
313.0886843173581
 31
0.0
 11
94.02000817425186
 21
313.1383302281945
 31
0.0
 11
93.99930882882
 21
313.1884903661677
 31
0.0
 11
93.96101419503158
 21
313.2900273253575
 31
0.0
 11
93.9262811178
 21
313.3928388554
 31
0.0
  0
SPLINE
  5
101
330
1F
100
AcDbEntity
  8
0
  6
Continuous
 62
     7
100
AcDbSpline
210
0.0
220
0.0
230
1.0
 70
     8
 71
     3
 72
    27
 73
    23
 74
    21
 42
0.0000000001
 43
0.0000000001
 44
0.00000001
 40
0.0
 40
0.0
 40
0.0
 40
0.0
 40
0.0679422772585648
 40
0.1359904671706509
 40
0.1960311417291789
 40
0.2558288643339159
 40
0.2829045758192474
 40
0.3099751664713499
 40
0.3357621418076296
 40
0.361545007666103
 40
0.3868874812276472
 40
0.4122310011635728
 40
0.438022151242459
 40
0.4638182097125529
 40
0.5190828346485347
 40
0.5745822153863278
 40
0.6366003187494923
 40
0.6985580374708177
 40
0.7666673008315265
 40
0.834792337529666
 40
0.9078434200018792
 40
0.9808740973408372
 40
0.9808740973408372
 40
0.9808740973408372
 40
0.9808740973408372
 10
52.66031626509999
 20
315.3201227473
 30
0.0
 10
52.66078402515869
 20
315.3427794883744
 30
0.0
 10
52.66172027444959
 20
315.3881282892623
 30
0.0
 10
52.6708371958853
 20
315.4530163638011
 30
0.0
 10
52.68657975383408
 20
315.5137808551127
 30
0.0
 10
52.70614699765849
 20
315.5590016287162
 30
0.0
 10
52.72616752207854
 20
315.5913393393785
 30
0.0
 10
52.74246910646299
 20
315.6124844446971
 30
0.0
 10
52.76073866877523
 20
315.6313585311411
 30
0.0
 10
52.78061201820839
 20
315.6476520173696
 30
0.0
 10
52.80218306754924
 20
315.6613445959666
 30
0.0
 10
52.82520144684835
 20
315.6724324583246
 30
0.0
 10
52.84949386169504
 20
315.6808200141764
 30
0.0
 10
52.88426900226008
 20
315.6887808689189
 30
0.0
 10
52.92998798190312
 20
315.6919487558082
 30
0.0
 10
52.98749454424855
 20
315.6864373306159
 30
0.0
 10
53.04593790650684
 20
315.6729211186676
 30
0.0
 10
53.10642774563132
 20
315.6516559233282
 30
0.0
 10
53.16674907321453
 20
315.6245362797088
 30
0.0
 10
53.22811633206891
 20
315.5912683822335
 30
0.0
 10
53.28888433582531
 20
315.5536765078148
 30
0.0
 10
53.32855462309621
 20
315.5254218947089
 30
0.0
 10
53.3483869961
 20
315.5112965615
 30
0.0
 11
52.66031626509999
 21
315.3201227473
 31
0.0
 11
52.66306453019264
 21
315.3880094181424
 31
0.0
 11
52.67255732080925
 21
315.4553922280913
 31
0.0
 11
52.68808614446996
 21
315.5133899714712
 31
0.0
 11
52.71225519802839
 21
315.5680857160845
 31
0.0
 11
52.72655069918953
 21
315.5910799066332
 31
0.0
 11
52.74312431613164
 21
315.6124839272767
 31
0.0
 11
52.76107580951176
 21
315.6309964090773
 31
0.0
 11
52.78103396508122
 21
315.6473190374852
 31
0.0
 11
52.80242218340302
 21
315.6609126052007
 31
0.0
 11
52.82525244452997
 21
315.6719159310442
 31
0.0
 11
52.84961715478291
 21
315.6803743184013
 31
0.0
 11
52.8747550580785
 21
315.6861641759551
 31
0.0
 11
52.92985525526726
 21
315.6904241101183
 31
0.0
 11
52.9851364233152
 21
315.6855074322223
 31
0.0
 11
53.04562489610009
 21
315.6718183926316
 31
0.0
 11
53.10417907391283
 21
315.6515658083564
 31
0.0
 11
53.16636511316207
 21
315.6237850906185
 31
0.0
 11
53.22635847026142
 21
315.5915078892363
 31
0.0
 11
53.28844714396377
 21
315.5530181860905
 31
0.0
 11
53.3483869961
 21
315.5112965615
 31
0.0
  0
SPLINE
  5
102
330
1F
100
AcDbEntity
  8
0
  6
Continuous
 62
     7
100
AcDbSpline
210
0.0
220
0.0
230
1.0
 70
     8
 71
     3
 72
    11
 73
     7
 74
     5
 42
0.0000000001
 43
0.0000000001
 44
0.00000001
 40
0.0
 40
0.0
 40
0.0
 40
0.0
 40
0.0720335616825571
 40
0.1441734620247761
 40
0.2163593593462954
 40
0.2883296528713604
 40
0.2883296528713604
 40
0.2883296528713604
 40
0.2883296528713604
 10
53.3483869961
 20
315.5112965615
 30
0.0
 10
53.36789304958468
 20
315.5253490315191
 30
0.0
 10
53.40693395212565
 20
315.5534747163433
 30
0.0
 10
53.47117587678164
 20
315.5867007093011
 30
0.0
 10
53.53903907349519
 20
315.6121319029369
 30
0.0
 10
53.58655606218505
 20
315.6199487989641
 30
0.0
 10
53.6102790227
 20
315.6238514014
 30
0.0
 11
53.3483869961
 21
315.5112965615
 31
0.0
 11
53.40784562204991
 21
315.5519598841486
 31
0.0
 11
53.47176904879549
 21
315.5853958039727
 31
0.0
 11
53.53968037788201
 21
315.6098673211675
 31
0.0
 11
53.6102790227
 21
315.6238514014
 31
0.0
  0
SPLINE
  5
103
330
1F
100
AcDbEntity
  8
FASEN
  6
Continuous
 62
     7
100
AcDbSpline
210
0.0
220
0.0
230
1.0
 70
     8
 71
     3
 72
    41
 73
    37
 74
    35
 42
0.0000000001
 43
0.0000000001
 44
0.00000001
 40
0.0
 40
0.0
 40
0.0
 40
0.0
 40
0.3535888544087374
 40
0.7075507289514356
 40
1.060684840903085
 40
1.413709983367136
 40
1.765779918047399
 40
2.117876005200259
 40
2.469055569646672
 40
2.820227711234566
 40
3.171084425210283
 40
3.521941346594712
 40
3.87316008523199
 40
4.224381765451228
 40
4.576461723089964
 40
4.928542604160122
 40
5.281581803795267
 40
5.634626310450653
 40
5.988339657455247
 40
6.34204147854553
 40
6.695908397035571
 40
7.049820838049243
 40
7.403595216253636
 40
7.757194007881156
 40
7.933994428081717
 40
8.110739696138022
 40
8.287420502887912
 40
8.464157456639416
 40
8.817287503294178
 40
9.170592253391494
 40
9.523997521650875
 40
9.877334047517342
 40
10.23089310699905
 40
10.58456791526146
 40
10.93860935640462
 40
11.29227461509741
 40
11.29227461509741
 40
11.29227461509741
 40
11.29227461509741
 10
73.6595646766
 20
307.7753388554
 30
0.0
 10
73.65625606642595
 20
307.6574272632151
 30
0.0
 10
73.64963535564486
 20
307.4214796874871
 30
0.0
 10
73.59575852273301
 20
307.0711747431983
 30
0.0
 10
73.51052523458718
 20
306.7277887194942
 30
0.0
 10
73.39169676888748
 20
306.3950075125832
 30
0.0
 10
73.24103408381475
 20
306.0758319937071
 30
0.0
 10
73.06008413692834
 20
305.7734862485481
 30
0.0
 10
72.8503829762754
 20
305.490706690104
 30
0.0
 10
72.61422180139584
 20
305.2301729734814
 30
0.0
 10
72.35360236722202
 20
304.9942697979247
 30
0.0
 10
72.07110061364996
 20
304.7850418446006
 30
0.0
 10
71.76925859594954
 20
304.6045976260883
 30
0.0
 10
71.45086036807366
 20
304.4543472675759
 30
0.0
 10
71.11900069962155
 20
304.3359230967899
 30
0.0
 10
70.77660974392639
 20
304.2502026164095
 30
0.0
 10
70.42717114938301
 20
304.1982405190925
 30
0.0
 10
70.07379975242824
 20
304.1803836812352
 30
0.0
 10
69.72014521888644
 20
304.1969977389593
 30
0.0
 10
69.36949320516833
 20
304.2478417887774
 30
0.0
 10
69.0253938071925
 20
304.332609143543
 30
0.0
 10
68.69113634523744
 20
304.4504407472033
 30
0.0
 10
68.37010160124703
 20
304.6003540250998
 30
0.0
 10
68.11605531193527
 20
304.7507805067166
 30
0.0
 10
67.92261370052367
 20
304.8856109253664
 30
0.0
 10
67.78270524315779
 20
304.9937282626328
 30
0.0
 10
67.64828049592163
 20
305.1085597896853
 30
0.0
 10
67.47689574058536
 20
305.2702147075724
 30
0.0
 10
67.2779498023004
 20
305.487913725989
 30
0.0
 10
67.06607609878891
 20
305.771309050879
 30
0.0
 10
66.8832770747478
 20
306.0743855785713
 30
0.0
 10
66.73124389465559
 20
306.3940665661825
 30
0.0
 10
66.61134441086732
 20
306.727300468342
 30
0.0
 10
66.5253939790282
 20
307.0709126169991
 30
0.0
 10
66.47111654004686
 20
307.4214025077007
 30
0.0
 10
66.46441622849575
 20
307.6574018880966
 30
0.0
 10
66.4610678535
 20
307.7753388554
 30
0.0
 11
73.6595646766
 21
307.7753388554
 31
0.0
 11
73.64231684936024
 21
307.4221709202507
 31
0.0
 11
73.59047078888
 21
307.0720266719152
 31
0.0
 11
73.5048848211235
 21
306.7294208588485
 31
0.0
 11
73.3862476607737
 21
306.3969272868868
 31
0.0
 11
73.23594211732743
 21
306.0785541056747
 31
0.0
 11
73.05509476673308
 21
305.77645165555
 31
0.0
 11
72.84592897520022
 21
305.494358128263
 31
0.0
 11
72.61005835179472
 21
305.23419102419
 31
0.0
 11
72.34995854276251
 21
304.9987159234187
 31
0.0
 11
72.06799449582903
 21
304.7899173230397
 31
0.0
 11
71.76656070921615
 21
304.609661186783
 31
0.0
 11
71.44892558645634
 21
304.459779241755
 31
0.0
 11
71.11734253685185
 21
304.3414028176416
 31
0.0
 11
70.775801129888
 21
304.2559018577388
 31
0.0
 11
70.42660765016919
 21
304.2039346546113
 31
0.0
 11
70.07401242257549
 21
304.1861293419857
 31
0.0
 11
69.72068744211866
 21
304.2027001003984
 31
0.0
 11
69.37065017251619
 21
304.2534828546742
 31
0.0
 11
69.02705277405495
 21
304.3381151403121
 31
0.0
 11
68.6932839472147
 21
304.4558113005466
 31
0.0
 11
68.37273250134244
 21
304.6054878893075
 31
0.0
 11
68.06850325695189
 21
304.7857007420623
 31
0.0
 11
67.9234551424433
 21
304.8867919536516
 31
0.0
 11
67.78359968591771
 21
304.9948629537409
 31
0.0
 11
67.64926519246997
 21
305.109625104923
 31
0.0
 11
67.52070282081125
 21
305.2309002772166
 31
0.0
 11
67.28246432733779
 21
305.4915595377041
 31
0.0
 11
67.07094755722734
 21
305.7745522980415
 31
0.0
 11
66.88840025773982
 21
306.0771605713641
 31
0.0
 11
66.73663333801865
 21
306.3962428532128
 31
0.0
 11
66.61702482970955
 21
306.7289556622263
 31
0.0
 11
66.53069942648551
 21
307.0719334964338
 31
0.0
 11
66.47847782631777
 21
307.4221023792927
 31
0.0
 11
66.4610678535
 21
307.7753388554
 31
0.0
  0
SPLINE
  5
104
330
1F
100
AcDbEntity
  8
0
  6
Continuous
 62
     7
100
AcDbSpline
210
0.0
220
0.0
230
1.0
 70
     8
 71
     3
 72
    11
 73
     7
 74
     5
 42
0.0000000001
 43
0.0000000001
 44
0.00000001
 40
0.0
 40
0.0
 40
0.0
 40
0.0
 40
0.0719820116952484
 40
0.1441794862810855
 40
0.2163078795456529
 40
0.2883301028005339
 40
0.2883301028005339
 40
0.2883301028005339
 40
0.2883301028005339
 10
53.6102790227
 20
299.9268263094
 30
0.0
 10
53.58655218950044
 20
299.9307294966059
 30
0.0
 10
53.53902750185663
 20
299.9385475543811
 30
0.0
 10
53.47116083363555
 20
299.9639812781421
 30
0.0
 10
53.40692401633366
 20
299.9972088082853
 30
0.0
 10
53.36788975298816
 20
300.0253306064635
 30
0.0
 10
53.3483869961
 20
300.0393811494
 30
0.0
 11
53.6102790227
 21
299.9268263094
 31
0.0
 11
53.53966889615521
 21
299.9408127327106
 31
0.0
 11
53.47174721374134
 21
299.9652896686839
 31
0.0
 11
53.40783540526358
 21
299.9987229732174
 31
0.0
 11
53.3483869961
 21
300.0393811494
 31
0.0
  0
SPLINE
  5
105
330
1F
100
AcDbEntity
  8
RUNDUNGEN
  6
Continuous
 62
     7
100
AcDbSpline
210
0.0
220
0.0
230
1.0
 70
     8
 71
     3
 72
    17
 73
    13
 74
    11
 42
0.0000000001
 43
0.0000000001
 44
0.00000001
 40
0.0
 40
0.0
 40
0.0
 40
0.0
 40
0.1190059193319713
 40
0.2380814744262437
 40
0.3590691915214059
 40
0.4800850747516281
 40
0.6044906460465032
 40
0.7286521944227794
 40
0.7922003881589487
 40
0.8557409871819628
 40
0.919815832156059
 40
0.9838416201775617
 40
0.9838416201775617
 40
0.9838416201775617
 40
0.9838416201775617
 10
56.67837444129999
 20
300.1253388554
 30
0.0
 10
56.65502874056099
 20
300.0932423243653
 30
0.0
 10
56.60832367845435
 20
300.0290304811592
 30
0.0
 10
56.52825721598408
 20
299.9397726870155
 30
0.0
 10
56.43988628700082
 20
299.8577709941177
 30
0.0
 10
56.34096152893369
 20
299.7855643218239
 30
0.0
 10
56.23212745606516
 20
299.7269503788464
 30
0.0
 10
56.1335654040966
 20
299.6920704219891
 30
0.0
 10
56.05151887493408
 20
299.6747234720198
 30
0.0
 10
55.98815595572644
 20
299.6673304094839
 30
0.0
 10
55.9241686534657
 20
299.6653970780571
 30
0.0
 10
55.88159495993294
 20
299.6690448635333
 30
0.0
 10
55.8603162651
 20
299.6708680578
 30
0.0
 11
56.67837444129999
 21
300.1253388554
 31
0.0
 11
56.60674248491555
 21
300.0303058523927
 31
0.0
 11
56.52739850518773
 21
299.9415166599087
 31
0.0
 11
56.43836629713504
 21
299.8595941744901
 31
0.0
 11
56.34041510234603
 21
299.7885279558388
 31
0.0
 11
56.23072879919383
 21
299.7298282022617
 31
0.0
 11
56.11354032652594
 21
299.6888044046686
 31
0.0
 11
56.05136049702354
 21
299.6756879367682
 31
0.0
 11
55.98825609305533
 21
299.6682554456636
 31
0.0
 11
55.92420180371474
 21
299.6666325545621
 31
0.0
 11
55.8603162651
 21
299.6708680578
 31
0.0
  0
SPLINE
  5
106
330
1F
100
AcDbEntity
  8
RUNDUNGEN
  6
Continuous
 62
     7
100
AcDbSpline
210
0.0
220
0.0
230
1.0
 70
     8
 71
     3
 72
    15
 73
    11
 74
     9
 42
0.0000000001
 43
0.0000000001
 44
0.00000001
 40
0.0
 40
0.0
 40
0.0
 40
0.0
 40
0.2324947530161942
 40
0.4652174308918885
 40
0.6957353316528703
 40
0.9261855605743552
 40
1.155384407728442
 40
1.384632178767996
 40
1.613395801694612
 40
1.842048806040524
 40
1.842048806040524
 40
1.842048806040524
 40
1.842048806040524
 10
57.2603162651
 20
301.8441886086
 30
0.0
 10
57.25815365812326
 20
301.7666650994007
 30
0.0
 10
57.25382632407076
 20
301.611542081287
 30
0.0
 10
57.22048698563136
 20
301.3815603691319
 30
0.0
 10
57.16950992682631
 20
301.1558281127314
 30
0.0
 10
57.10073423046499
 20
300.9360344324527
 30
0.0
 10
57.01623385588685
 20
300.7222983500092
 30
0.0
 10
56.91708548072134
 20
300.5156429825101
 30
0.0
 10
56.80560897542557
 20
300.3154616736778
 30
0.0
 10
56.72077911444627
 20
300.1887029099951
 30
0.0
 10
56.67837444129999
 20
300.1253388554
 30
0.0
 11
57.2603162651
 21
301.8441886086
 31
0.0
 11
57.24934142268908
 21
301.611953032053
 31
0.0
 11
57.21739214696074
 21
301.3814338602298
 31
0.0
 11
57.16648886535155
 21
301.1566064631166
 31
0.0
 11
57.09795102628563
 21
300.9365840264741
 31
0.0
 11
57.01376291614821
 21
300.7234069319065
 31
0.0
 11
56.91494237743506
 21
300.516551809526
 31
0.0
 11
56.80294709468227
 21
300.3170778718409
 31
0.0
 11
56.67837444129999
 21
300.1253388554
 31
0.0
  0
SPLINE
  5
107
330
1F
100
AcDbEntity
  8
RUNDUNGEN
  6
Continuous
 62
     7
100
AcDbSpline
210
0.0
220
0.0
230
1.0
 70
     8
 71
     3
 72
    15
 73
    11
 74
     9
 42
0.0000000001
 43
0.0000000001
 44
0.00000001
 40
0.0
 40
0.0
 40
0.0
 40
0.0
 40
0.1273079846700905
 40
0.2549893803122404
 40
0.3793073350289652
 40
0.5035989686726607
 40
0.6245667031165161
 40
0.7455591721317353
 40
0.8645937372228856
 40
0.9835510381420065
 40
0.9835510381420065
 40
0.9835510381420065
 40
0.9835510381420065
 10
55.8603162651
 20
315.879809653
 30
0.0
 10
55.9027954347019
 20
315.8822562971073
 30
0.0
 10
55.98787837086677
 20
315.8871567616492
 30
0.0
 10
56.11352472251502
 20
315.8654925742003
 30
0.0
 10
56.23231073977968
 20
315.8238531017934
 30
0.0
 10
56.34107738848691
 20
315.7649816129933
 30
0.0
 10
56.43992759371393
 20
315.6928075764164
 30
0.0
 10
56.52831323788222
 20
315.6108541644389
 30
0.0
 10
56.60835811799058
 20
315.5216154685476
 30
0.0
 10
56.65504071870633
 20
315.4574241131979
 30
0.0
 10
56.67837444129999
 20
315.4253388554
 30
0.0
 11
55.8603162651
 21
315.879809653
 31
0.0
 11
55.98759993341908
 21
315.8822977727721
 31
0.0
 11
56.11363120544976
 21
315.8618366568823
 31
0.0
 11
56.23099020744595
 21
315.8208266762019
 31
0.0
 11
56.34051849617693
 21
315.7620732579057
 31
0.0
 11
56.43840548687144
 21
315.6910005498579
 31
0.0
 11
56.52745918184867
 21
315.6090944025349
 31
0.0
 11
56.60677834303301
 21
315.5203380035799
 31
0.0
 11
56.67837444129999
 21
315.4253388554
 31
0.0
  0
SPLINE
  5
108
330
1F
100
AcDbEntity
  8
RUNDUNGEN
  6
Continuous
 62
     7
100
AcDbSpline
210
0.0
220
0.0
230
1.0
 70
     8
 71
     3
 72
    15
 73
    11
 74
     9
 42
0.0000000001
 43
0.0000000001
 44
0.00000001
 40
0.0
 40
0.0
 40
0.0
 40
0.0
 40
0.2286533797108931
 40
0.4574173648534089
 40
0.6866651597359961
 40
0.9158640490876662
 40
1.146314057848085
 40
1.376831723972676
 40
1.609554238585531
 40
1.842048835040676
 40
1.842048835040676
 40
1.842048835040676
 40
1.842048835040676
 10
56.67837444129999
 20
315.4253388554
 30
0.0
 10
56.72077920976186
 20
315.3619747146473
 30
0.0
 10
56.80560925894623
 20
315.2352157823018
 30
0.0
 10
56.91708603403087
 20
315.0350343289678
 30
0.0
 10
57.01623428660511
 20
314.8283787368025
 30
0.0
 10
57.10073439549289
 20
314.6146426081739
 30
0.0
 10
57.1695100089473
 20
314.3948490517345
 30
0.0
 10
57.22048706338219
 20
314.1691170049868
 30
0.0
 10
57.25382634572384
 20
313.939135470671
 30
0.0
 10
57.2581536653183
 20
313.784012559197
 30
0.0
 10
57.2603162651
 20
313.7064891022
 30
0.0
 11
56.67837444129999
 21
315.4253388554
 31
0.0
 11
56.80294738769943
 21
315.2335995817011
 31
0.0
 11
56.91494292579727
 21
315.0341253719785
 31
0.0
 11
57.0137633337371
 21
314.8272701606999
 31
0.0
 11
57.09795125597755
 21
314.614092946559
 31
0.0
 11
57.16648896549813
 21
314.394070700158
 31
0.0
 11
57.2173922111309
 21
314.1692435354745
 31
0.0
 11
57.24934144929593
 21
313.9387245232686
 31
0.0
 11
57.2603162651
 21
313.7064891022
 31
0.0
  0
SPLINE
  5
109
330
1F
100
AcDbEntity
  8
0
  6
Continuous
 62
     7
100
AcDbSpline
210
0.0
220
0.0
230
1.0
 70
     8
 71
     3
 72
    27
 73
    23
 74
    21
 42
0.0000000001
 43
0.0000000001
 44
0.00000001
 40
0.0
 40
0.0
 40
0.0
 40
0.0
 40
0.0730306820182209
 40
0.1460817688959268
 40
0.2142068183175392
 40
0.2823160954175368
 40
0.3442738269432686
 40
0.4062919406489809
 40
0.4617913417080081
 40
0.5170559905345902
 40
0.5428520623134827
 40
0.5686432246472286
 40
0.5939867602525207
 40
0.6193292498097221
 40
0.6451121206929062
 40
0.6708991015706163
 40
0.697969684618184
 40
0.7250453875187544
 40
0.784843077425343
 40
0.8448837206523796
 40
0.9129318641435302
 40
0.9808740946487198
 40
0.9808740946487198
 40
0.9808740946487198
 40
0.9808740946487198
 10
53.3483869961
 20
300.0393811494
 30
0.0
 10
53.32855462184081
 20
300.0252558152631
 30
0.0
 10
53.28888433213345
 20
299.997001200354
 30
0.0
 10
53.22811632200236
 20
299.9594093223928
 30
0.0
 10
53.16674905355277
 20
299.9261414209674
 30
0.0
 10
53.10642771365153
 20
299.8990217729094
 30
0.0
 10
53.045937863139
 20
299.8777565727868
 30
0.0
 10
52.98749448433333
 20
299.8642403647283
 30
0.0
 10
52.92998790067877
 20
299.8587289639539
 30
0.0
 10
52.88426890417691
 20
299.8618968686768
 30
0.0
 10
52.84949374741856
 20
299.8698577258789
 30
0.0
 10
52.8252013202062
 20
299.878245289435
 30
0.0
 10
52.80218293483123
 20
299.8893331741536
 30
0.0
 10
52.78061188922557
 20
299.9030257820503
 30
0.0
 10
52.76073855307352
 20
299.9193192985452
 30
0.0
 10
52.74246901069243
 20
299.9381934050955
 30
0.0
 10
52.72616743961654
 20
299.9593385155319
 30
0.0
 10
52.70614693166182
 20
299.9916762171673
 30
0.0
 10
52.68657971148399
 20
300.0368969746177
 30
0.0
 10
52.67083717944153
 20
300.0976614342404
 30
0.0
 10
52.66172027241785
 20
300.1625494683458
 30
0.0
 10
52.66078402448086
 20
300.2078982381319
 30
0.0
 10
52.66031626509999
 20
300.2305549636
 30
0.0
 11
53.3483869961
 21
300.0393811494
 31
0.0
 11
53.28844714012866
 21
299.9976595221285
 31
0.0
 11
53.22635846248545
 21
299.9591698169785
 31
0.0
 11
53.16636509375564
 21
299.9268926103592
 31
0.0
 11
53.10417904167036
 21
299.8991118876701
 31
0.0
 11
53.04562485143215
 21
299.8788593001474
 31
0.0
 11
52.98513636638465
 21
299.8651702678853
 31
0.0
 11
52.92985517620414
 21
299.8602536094533
 31
0.0
 11
52.87475495641652
 21
299.8645135612466
 31
0.0
 11
52.84961704035201
 21
299.8703034226573
 31
0.0
 11
52.82525232015195
 21
299.8787618187285
 31
0.0
 11
52.80242205208027
 21
299.8897651662534
 31
0.0
 11
52.78103383415228
 21
299.9033587644092
 31
0.0
 11
52.76107569400826
 21
299.9196814196151
 31
0.0
 11
52.74312421559215
 21
299.9381939236451
 31
0.0
 11
52.72655061547623
 21
299.9595979476998
 31
0.0
 11
52.71225512569565
 21
299.9825921352152
 31
0.0
 11
52.68808610126044
 21
300.0372878569493
 31
0.0
 11
52.67255730067682
 21
300.0952855740729
 31
0.0
 11
52.66306452591456
 21
300.1626683393761
 31
0.0
 11
52.66031626509999
 21
300.2305549636
 31
0.0
  0
SPLINE
  5
10A
330
1F
100
AcDbEntity
  8
BEZUGSACHSEN
  6
Continuous
 62
     7
100
AcDbSpline
210
0.0
220
0.0
230
1.0
 70
     8
 71
     3
 72
    15
 73
    11
 74
     9
 42
0.0000000001
 43
0.0000000001
 44
0.00000001
 40
0.0
 40
0.0
 40
0.0
 40
0.0
 40
0.1942981503433563
 40
0.3886012245878606
 40
0.936979240043421
 40
1.485374928904992
 40
2.300027372196061
 40
3.114746618659465
 40
4.074175664721928
 40
5.033464878709084
 40
5.033464878709084
 40
5.033464878709084
 40
5.033464878709084
 10
89.5603162651
 20
332.7753388554
 30
0.0
 10
89.49678189916747
 20
332.7627664034105
 30
0.0
 10
89.36971155721535
 20
332.7376211808204
 30
0.0
 10
89.06279425891967
 20
332.6797309068069
 30
0.0
 10
88.63884647594081
 20
332.6055304517891
 30
0.0
 10
88.00905020323906
 20
332.5088058645777
 30
0.0
 10
87.28877871981865
 20
332.4172607545695
 30
0.0
 10
86.42952874332383
 20
332.3365373180661
 30
0.0
 10
85.51971071883304
 20
332.2811217139176
 30
0.0
 10
84.88009887849756
 20
332.2738645838778
 30
0.0
 10
84.5603162651
 20
332.2702362833
 30
0.0
 11
89.5603162651
 21
332.7753388554
 31
0.0
 11
89.36965816066586
 21
332.737905468692
 31
0.0
 11
89.17873415641284
 21
332.7018262605402
 31
0.0
 11
88.63854446687685
 21
332.6074146767489
 31
0.0
 11
88.09650380027107
 21
332.5241695729438
 31
0.0
 11
87.28832346808505
 21
332.4216846763599
 31
0.0
 11
86.47720882334062
 21
332.3451308806408
 31
0.0
 11
85.51942135690685
 21
332.2890304031856
 31
0.0
 11
84.5603162651
 21
332.2702362833
 31
0.0
  0
SPLINE
  5
10B
330
1F
100
AcDbEntity
  8
BEZUGSACHSEN
  6
Continuous
 62
     7
100
AcDbSpline
210
0.0
220
0.0
230
1.0
 70
     8
 71
     3
 72
    15
 73
    11
 74
     9
 42
0.0000000001
 43
0.0000000001
 44
0.00000001
 40
0.0
 40
0.0
 40
0.0
 40
0.0
 40
0.9592794728028449
 40
1.91869875775937
 40
2.733413612639164
 40
3.548061682634151
 40
4.096465872427383
 40
4.64485238303477
 40
4.839161107606377
 40
5.033464909261491
 40
5.033464909261491
 40
5.033464909261491
 40
5.033464909261491
 10
84.5603162651
 20
332.2702362833
 30
0.0
 10
84.24053689930041
 20
332.2738644462586
 30
0.0
 10
83.60093156080185
 20
332.2811213009697
 30
0.0
 10
82.69112143905949
 20
332.3365355373139
 30
0.0
 10
81.83187756902161
 20
332.4172579934202
 30
0.0
 10
81.11160612110247
 20
332.5088026414624
 30
0.0
 10
80.48180558931598
 20
332.6055272185588
 30
0.0
 10
80.05785031304524
 20
332.6797286577869
 30
0.0
 10
79.75092651137052
 20
332.7376200574604
 30
0.0
 10
79.62385247726849
 20
332.7627660289359
 30
0.0
 10
79.5603162651
 20
332.7753388554
 30
0.0
 11
84.5603162651
 21
332.2702362833
 31
0.0
 11
83.60122090463511
 21
332.2890298054721
 31
0.0
 11
82.64344313862088
 21
332.3451289612169
 31
0.0
 11
81.83233282124573
 21
332.4216818697794
 31
0.0
 11
81.02415675348311
 21
332.5241656316264
 31
0.0
 11
80.48210760349951
 21
332.6074114987
 31
0.0
 11
79.94190947945143
 21
332.701824166235
 31
0.0
 11
79.75097991263956
 21
332.7379043680315
 31
0.0
 11
79.5603162651
 21
332.7753388554
 31
0.0
  0
ARC
  5
10C
330
1F
100
AcDbEntity
  8
1
  6
Continuous
 62
     7
100
AcDbCircle
 10
111.0103162651
 20
286.7753388553999
 30
0.0
 40
7.5
100
AcDbArc
 50
90.0
 51
180.0
  0
ARC
  5
10D
330
1F
100
AcDbEntity
  8
1
  6
Continuous
 62
     7
100
AcDbCircle
 10
111.0103162651
 20
328.7753388554
 30
0.0
 40
7.5
100
AcDbArc
 50
180.0
 51
270.0
  0
DIMENSION
  5
118
330
1F
100
AcDbEntity
  8
1
100
AcDbDimension
  2
*D2
 10
207.5603162651
 20
341.144736963485
 30
0.0
 11
154.0734091790111
 21
344.894736963485
 31
0.0
 70
    32
  1
<>
 71
     5
 42
-1.0
 53
0.00013888888889
  3
ME10_DIM_10
100
AcDbAlignedDimension
 13
103.5103162651
 23
332.7752888369
 33
0.0
 14
207.5603162651
 24
317.3509483638
 34
0.0
100
AcDbRotatedDimension
  0
DIMENSION
  5
123
330
1F
100
AcDbEntity
  8
1
100
AcDbDimension
  2
*D3
 10
207.5603162651
 20
356.253269361333
 30
0.0
 11
135.1101929689112
 21
360.003269361333
 31
0.0
 70
    32
  1
<>
 71
     5
 42
-1.0
 53
0.00013888888889
  3
ME10_DIM_11
100
AcDbAlignedDimension
 13
52.66031626509999
 23
324.8316946366
 33
0.0
 14
207.5603162651
 24
317.3509483638
 34
0.0
100
AcDbRotatedDimension
  0
DIMENSION
  5
12E
330
1F
100
AcDbEntity
  8
1
100
AcDbDimension
  2
*D4
 10
207.5603162651
 20
349.230993739798
 30
0.0
 11
142.7004074391037
 21
352.980993739798
 31
0.0
 70
    32
  1
<>
 71
     5
 42
-1.0
 53
0.00013888888889
  3
ME10_DIM_12
100
AcDbAlignedDimension
 13
77.5603162651
 23
332.7753388554
 33
0.0
 14
207.5603162651
 24
317.3509483638
 34
0.0
100
AcDbRotatedDimension
  0
DIMENSION
  5
139
330
1F
100
AcDbEntity
  8
1
100
AcDbDimension
  2
*D5
 10
235.283094936814
 20
321.2753388553999
 30
0.0
 11
231.533094936814
 21
307.9148122390799
 31
0.0
 70
    32
  1
<>
 71
     5
 42
-1.0
 53
90.0
  3
ME10_DIM_13
100
AcDbAlignedDimension
 13
169.4417020565
 23
294.2753388553999
 33
0.0
 14
169.4417020565
 24
321.2753388553999
 34
0.0
 50
90.0
100
AcDbRotatedDimension
  0
DIMENSION
  5
144
330
1F
100
AcDbEntity
  8
1
100
AcDbDimension
  2
*D6
 10
227.198725881451
 20
318.2753388554466
 30
0.0
 11
223.448725881451
 21
307.32146405153
 31
0.0
 70
    32
  1
<>
 71
     5
 42
-1.0
 53
90.0
  3
ME10_DIM_14
100
AcDbAlignedDimension
 13
207.5603162651
 23
297.2753388553559
 33
0.0
 14
207.5603162651
 24
318.2753388554467
 34
0.0
 50
90.0
100
AcDbRotatedDimension
  0
DIMENSION
  5
151
330
1F
100
AcDbEntity
  8
1
100
AcDbDimension
  2
*D7
 10
217.927660450989
 20
304.7753388554
 30
0.0
 11
214.177660450989
 21
307.91481223908
 31
0.0
 70
    32
  1
<>
 71
     5
 42
-1.0
 53
90.0
  3
ME10_DIM_15
100
AcDbAlignedDimension
 13
207.5603162651
 23
310.7753388554
 33
0.0
 14
207.5603162651
 24
304.7753388554
 34
0.0
 50
90.0
100
AcDbRotatedDimension
  0
INSERT
  5
158
330
1F
100
AcDbEntity
  8
1
100
AcDbBlockReference
  2
*D8
 10
0.0
 20
0.0
 30
0.0
  0
DIMENSION
  5
163
330
1F
100
AcDbEntity
  8
1
100
AcDbDimension
  2
*D9
 10
193.2185372663936
 20
320.3411444557087
 30
0.0
 11
196.1198142697428
 21
328.1321087764241
 31
0.0
 70
    37
  1
<>
 71
     5
 42
-1.0
  3
ME10_DIM_16
100
AcDb3PointAngularDimension
 13
193.1635298881222
 23
319.40839051607
 33
0.0
 14
171.8212200996651
 24
321.2753388553999
 34
0.0
 15
169.4417020565
 25
321.2753388553999
 35
0.0
  0
ENDSEC
  0
SECTION
  2
OBJECTS
  0
DICTIONARY
  5
C
330
0
100
AcDbDictionary
281
     1
  3
ACAD_GROUP
350
D
  3
ACAD_LAYOUT
350
1A
  3
ACAD_MLEADERSTYLE
350
166
  3
ACAD_MLINESTYLE
350
17
  3
ACAD_PLOTSETTINGS
350
19
  3
ACAD_PLOTSTYLENAME
350
E
  3
ACAD_SCALELIST
350
4C
  3
ACAD_VISUALSTYLE
350
2A
  3
AcDbVariableDictionary
350
164
  0
DICTIONARY
  5
D
102
{ACAD_REACTORS
330
C
102
}
330
C
100
AcDbDictionary
281
     1
  0
DICTIONARY
  5
1A
102
{ACAD_REACTORS
330
C
102
}
330
C
100
AcDbDictionary
281
     1
  3
Layout1
350
1E
  3
Layout2
350
26
  3
Model
350
22
  0
DICTIONARY
  5
166
102
{ACAD_REACTORS
330
C
102
}
330
C
100
AcDbDictionary
281
     1
  0
DICTIONARY
  5
17
102
{ACAD_REACTORS
330
C
102
}
330
C
100
AcDbDictionary
281
     1
  3
Standard
350
18
  0
DICTIONARY
  5
19
102
{ACAD_REACTORS
330
C
102
}
330
C
100
AcDbDictionary
281
     1
  0
ACDBDICTIONARYWDFLT
  5
E
102
{ACAD_REACTORS
330
C
102
}
330
C
100
AcDbDictionary
281
     1
  3
Normal
350
F
100
AcDbDictionaryWithDefault
340
F
  0
DICTIONARY
  5
4C
102
{ACAD_REACTORS
330
C
102
}
330
C
100
AcDbDictionary
281
     1
  3
A0
350
4D
  3
A1
350
4E
  3
A2
350
4F
  3
A3
350
50
  3
A4
350
51
  3
A5
350
52
  3
A6
350
53
  3
A7
350
54
  3
A8
350
55
  3
A9
350
56
  3
B0
350
57
  3
B1
350
58
  3
B2
350
59
  3
B3
350
5A
  3
B4
350
5B
  3
B5
350
5C
  3
B6
350
5D
  3
B7
350
5E
  3
B8
350
5F
  3
B9
350
60
  3
C0
350
61
  3
C1
350
62
  3
C2
350
63
  3
C3
350
64
  3
C4
350
65
  3
C5
350
66
  3
C6
350
67
  3
C7
350
68
  3
C8
350
69
  3
C9
350
6A
  3
D0
350
6B
  3
D1
350
6C
  3
D2
350
6D
  0
DICTIONARY
  5
2A
102
{ACAD_REACTORS
330
C
102
}
330
C
100
AcDbDictionary
281
     1
  3
2dWireframe
350
2F
  3
3D Hidden
350
31
  3
3dWireframe
350
30
  3
Basic
350
32
  3
Brighten
350
36
  3
ColorChange
350
3A
  3
Conceptual
350
34
  3
Dim
350
35
  3
Facepattern
350
39
  3
Flat
350
2B
  3
FlatWithEdges
350
2C
  3
Gouraud
350
2D
  3
GouraudWithEdges
350
2E
  3
Linepattern
350
38
  3
Realistic
350
33
  3
Thicken
350
37
  0
DICTIONARY
  5
164
102
{ACAD_REACTORS
330
C
102
}
330
C
100
AcDbDictionary
281
     1
  3
CANNOSCALE
350
167
  0
LAYOUT
  5
1E
102
{ACAD_REACTORS
330
1A
102
}
330
1A
100
AcDbPlotSettings
  1

  2
none_device
  4

  6

 40
0.0
 41
0.0
 42
0.0
 43
0.0
 44
0.0
 45
0.0
 46
0.0
 47
0.0
 48
0.0
 49
0.0
140
0.0
141
0.0
142
1.0
143
1.0
 70
   688
 72
     0
 73
     0
 74
     5
  7

 75
    16
147
1.0
148
0.0
149
0.0
100
AcDbLayout
  1
Layout1
 70
     1
 71
     1
 10
0.0
 20
0.0
 11
12.0
 21
9.0
 12
0.0
 22
0.0
 32
0.0
 14
1.00000000000000E+20
 24
1.00000000000000E+20
 34
1.00000000000000E+20
 15
-1.00000000000000E+20
 25
-1.00000000000000E+20
 35
-1.00000000000000E+20
146
0.0
 13
0.0
 23
0.0
 33
0.0
 16
1.0
 26
0.0
 36
0.0
 17
0.0
 27
1.0
 37
0.0
 76
     0
330
1B
  0
LAYOUT
  5
26
102
{ACAD_REACTORS
330
1A
102
}
330
1A
100
AcDbPlotSettings
  1

  2
none_device
  4

  6

 40
0.0
 41
0.0
 42
0.0
 43
0.0
 44
0.0
 45
0.0
 46
0.0
 47
0.0
 48
0.0
 49
0.0
140
0.0
141
0.0
142
1.0
143
1.0
 70
   688
 72
     0
 73
     0
 74
     5
  7

 75
    16
147
1.0
148
0.0
149
0.0
100
AcDbLayout
  1
Layout2
 70
     1
 71
     2
 10
0.0
 20
0.0
 11
0.0
 21
0.0
 12
0.0
 22
0.0
 32
0.0
 14
0.0
 24
0.0
 34
0.0
 15
0.0
 25
0.0
 35
0.0
146
0.0
 13
0.0
 23
0.0
 33
0.0
 16
1.0
 26
0.0
 36
0.0
 17
0.0
 27
1.0
 37
0.0
 76
     0
330
23
  0
LAYOUT
  5
22
102
{ACAD_REACTORS
330
1A
102
}
330
1A
100
AcDbPlotSettings
  1

  2
none_device
  4

  6

 40
0.0
 41
0.0
 42
0.0
 43
0.0
 44
0.0
 45
0.0
 46
0.0
 47
0.0
 48
0.0
 49
0.0
140
0.0
141
0.0
142
1.0
143
1.0
 70
  1712
 72
     0
 73
     0
 74
     0
  7

 75
     0
147
1.0
148
0.0
149
0.0
100
AcDbLayout
  1
Model
 70
     1
 71
     0
 10
0.0
 20
0.0
 11
12.0
 21
9.0
 12
0.0
 22
0.0
 32
0.0
 14
49.53531626509997
 24
263.3151478368127
 34
0.0
 15
237.283094936814
 25
361.753269361333
 35
0.0
146
0.0
 13
0.0
 23
0.0
 33
0.0
 16
1.0
 26
0.0
 36
0.0
 17
0.0
 27
1.0
 37
0.0
 76
     0
330
1F
331
29
  0
MLINESTYLE
  5
18
102
{ACAD_REACTORS
330
17
102
}
330
17
100
AcDbMlineStyle
  2
Standard
 70
     0
  3

 62
   256
 51
90.0
 52
90.0
 71
     2
 49
0.5
 62
   256
  6
BYLAYER
 49
-0.5
 62
   256
  6
BYLAYER
  0
ACDBPLACEHOLDER
  5
F
102
{ACAD_REACTORS
330
E
102
}
330
E
  0
SCALE
  5
4D
102
{ACAD_REACTORS
330
4C
102
}
330
4C
100
AcDbScale
 70
     0
300
1:1
140
1.0
141
1.0
290
     1
  0
SCALE
  5
4E
102
{ACAD_REACTORS
330
4C
102
}
330
4C
100
AcDbScale
 70
     0
300
1:2
140
1.0
141
2.0
290
     0
  0
SCALE
  5
4F
102
{ACAD_REACTORS
330
4C
102
}
330
4C
100
AcDbScale
 70
     0
300
1:4
140
1.0
141
4.0
290
     0
  0
SCALE
  5
50
102
{ACAD_REACTORS
330
4C
102
}
330
4C
100
AcDbScale
 70
     0
300
1:5
140
1.0
141
5.0
290
     0
  0
SCALE
  5
51
102
{ACAD_REACTORS
330
4C
102
}
330
4C
100
AcDbScale
 70
     0
300
1:8
140
1.0
141
8.0
290
     0
  0
SCALE
  5
52
102
{ACAD_REACTORS
330
4C
102
}
330
4C
100
AcDbScale
 70
     0
300
1:10
140
1.0
141
10.0
290
     0
  0
SCALE
  5
53
102
{ACAD_REACTORS
330
4C
102
}
330
4C
100
AcDbScale
 70
     0
300
1:16
140
1.0
141
16.0
290
     0
  0
SCALE
  5
54
102
{ACAD_REACTORS
330
4C
102
}
330
4C
100
AcDbScale
 70
     0
300
1:20
140
1.0
141
20.0
290
     0
  0
SCALE
  5
55
102
{ACAD_REACTORS
330
4C
102
}
330
4C
100
AcDbScale
 70
     0
300
1:30
140
1.0
141
30.0
290
     0
  0
SCALE
  5
56
102
{ACAD_REACTORS
330
4C
102
}
330
4C
100
AcDbScale
 70
     0
300
1:40
140
1.0
141
40.0
290
     0
  0
SCALE
  5
57
102
{ACAD_REACTORS
330
4C
102
}
330
4C
100
AcDbScale
 70
     0
300
1:50
140
1.0
141
50.0
290
     0
  0
SCALE
  5
58
102
{ACAD_REACTORS
330
4C
102
}
330
4C
100
AcDbScale
 70
     0
300
1:100
140
1.0
141
100.0
290
     0
  0
SCALE
  5
59
102
{ACAD_REACTORS
330
4C
102
}
330
4C
100
AcDbScale
 70
     0
300
2:1
140
2.0
141
1.0
290
     0
  0
SCALE
  5
5A
102
{ACAD_REACTORS
330
4C
102
}
330
4C
100
AcDbScale
 70
     0
300
4:1
140
4.0
141
1.0
290
     0
  0
SCALE
  5
5B
102
{ACAD_REACTORS
330
4C
102
}
330
4C
100
AcDbScale
 70
     0
300
8:1
140
8.0
141
1.0
290
     0
  0
SCALE
  5
5C
102
{ACAD_REACTORS
330
4C
102
}
330
4C
100
AcDbScale
 70
     0
300
10:1
140
10.0
141
1.0
290
     0
  0
SCALE
  5
5D
102
{ACAD_REACTORS
330
4C
102
}
330
4C
100
AcDbScale
 70
     0
300
100:1
140
100.0
141
1.0
290
     0
  0
SCALE
  5
5E
102
{ACAD_REACTORS
330
4C
102
}
330
4C
100
AcDbScale
 70
     0
300
1/128" = 1'-0"
140
0.0078125
141
12.0
290
     0
  0
SCALE
  5
5F
102
{ACAD_REACTORS
330
4C
102
}
330
4C
100
AcDbScale
 70
     0
300
1/64" = 1'-0"
140
0.015625
141
12.0
290
     0
  0
SCALE
  5
60
102
{ACAD_REACTORS
330
4C
102
}
330
4C
100
AcDbScale
 70
     0
300
1/32" = 1'-0"
140
0.03125
141
12.0
290
     0
  0
SCALE
  5
61
102
{ACAD_REACTORS
330
4C
102
}
330
4C
100
AcDbScale
 70
     0
300
1/16" = 1'-0"
140
0.0625
141
12.0
290
     0
  0
SCALE
  5
62
102
{ACAD_REACTORS
330
4C
102
}
330
4C
100
AcDbScale
 70
     0
300
3/32" = 1'-0"
140
0.09375
141
12.0
290
     0
  0
SCALE
  5
63
102
{ACAD_REACTORS
330
4C
102
}
330
4C
100
AcDbScale
 70
     0
300
1/8" = 1'-0"
140
0.125
141
12.0
290
     0
  0
SCALE
  5
64
102
{ACAD_REACTORS
330
4C
102
}
330
4C
100
AcDbScale
 70
     0
300
3/16" = 1'-0"
140
0.1875
141
12.0
290
     0
  0
SCALE
  5
65
102
{ACAD_REACTORS
330
4C
102
}
330
4C
100
AcDbScale
 70
     0
300
1/4" = 1'-0"
140
0.25
141
12.0
290
     0
  0
SCALE
  5
66
102
{ACAD_REACTORS
330
4C
102
}
330
4C
100
AcDbScale
 70
     0
300
3/8" = 1'-0"
140
0.375
141
12.0
290
     0
  0
SCALE
  5
67
102
{ACAD_REACTORS
330
4C
102
}
330
4C
100
AcDbScale
 70
     0
300
1/2" = 1'-0"
140
0.5
141
12.0
290
     0
  0
SCALE
  5
68
102
{ACAD_REACTORS
330
4C
102
}
330
4C
100
AcDbScale
 70
     0
300
3/4" = 1'-0"
140
0.75
141
12.0
290
     0
  0
SCALE
  5
69
102
{ACAD_REACTORS
330
4C
102
}
330
4C
100
AcDbScale
 70
     0
300
1" = 1'-0"
140
1.0
141
12.0
290
     0
  0
SCALE
  5
6A
102
{ACAD_REACTORS
330
4C
102
}
330
4C
100
AcDbScale
 70
     0
300
1-1/2" = 1'-0"
140
1.5
141
12.0
290
     0
  0
SCALE
  5
6B
102
{ACAD_REACTORS
330
4C
102
}
330
4C
100
AcDbScale
 70
     0
300
3" = 1'-0"
140
3.0
141
12.0
290
     0
  0
SCALE
  5
6C
102
{ACAD_REACTORS
330
4C
102
}
330
4C
100
AcDbScale
 70
     0
300
6" = 1'-0"
140
6.0
141
12.0
290
     0
  0
SCALE
  5
6D
102
{ACAD_REACTORS
330
4C
102
}
330
4C
100
AcDbScale
 70
     0
300
1'-0" = 1'-0"
140
12.0
141
12.0
290
     0
  0
VISUALSTYLE
  5
2F
102
{ACAD_REACTORS
330
2A
102
}
330
2A
100
AcDbVisualStyle
  2
2dWireframe
 70
     4
 71
     0
 72
     2
 73
     0
 90
        0
 40
-0.6
 41
-30.0
 62
     5
 63
     7
 74
     1
 91
        4
 64
     7
 65
   257
 75
     1
175
     1
 42
1.0
 92
        0
 66
   257
 43
1.0
 76
     1
 77
     6
 78
     2
 67
     7
 79
     5
170
     0
171
     0
290
     0
174
     0
 93
        1
 44
0.0
173
     0
291
     0
 45
0.0
1001
ACAD
1000
AcDbSavedByObjectVersion
1070
     0
  0
VISUALSTYLE
  5
31
102
{ACAD_REACTORS
330
2A
102
}
330
2A
100
AcDbVisualStyle
  2
3D Hidden
 70
     6
 71
     1
 72
     2
 73
     2
 90
        0
 40
-0.6
 41
-30.0
 62
     5
 63
     7
 74
     2
 91
        2
 64
     7
 65
   257
 75
     2
175
     1
 42
40.0
 92
        0
 66
   257
 43
1.0
 76
     1
 77
     6
 78
     2
 67
     7
 79
     3
170
     0
171
     0
290
     0
174
     0
 93
        1
 44
0.0
173
     0
291
     0
 45
0.0
1001
ACAD
1000
AcDbSavedByObjectVersion
1070
     0
  0
VISUALSTYLE
  5
30
102
{ACAD_REACTORS
330
2A
102
}
330
2A
100
AcDbVisualStyle
  2
3dWireframe
 70
     5
 71
     0
 72
     2
 73
     0
 90
        0
 40
-0.6
 41
-30.0
 62
     5
 63
     7
 74
     1
 91
        4
 64
     7
 65
   257
 75
     1
175
     1
 42
1.0
 92
        0
 66
   257
 43
1.0
 76
     1
 77
     6
 78
     2
 67
     7
 79
     5
170
     0
171
     0
290
     0
174
     0
 93
        1
 44
0.0
173
     0
291
     0
 45
0.0
1001
ACAD
1000
AcDbSavedByObjectVersion
1070
     0
  0
VISUALSTYLE
  5
32
102
{ACAD_REACTORS
330
2A
102
}
330
2A
100
AcDbVisualStyle
  2
Basic
 70
     7
 71
     1
 72
     0
 73
     1
 90
        0
 40
-0.6
 41
-30.0
 62
     5
 63
     7
 74
     0
 91
        4
 64
     7
 65
   257
 75
     1
175
     1
 42
1.0
 92
        8
 66
     7
 43
1.0
 76
     1
 77
     6
 78
     2
 67
     7
 79
     5
170
     0
171
     0
290
     0
174
     0
 93
        1
 44
0.0
173
     0
291
     1
 45
0.0
1001
ACAD
1000
AcDbSavedByObjectVersion
1070
     0
  0
VISUALSTYLE
  5
36
102
{ACAD_REACTORS
330
2A
102
}
330
2A
100
AcDbVisualStyle
  2
Brighten
 70
    12
 71
     2
 72
     2
 73
     0
 90
        0
 40
-0.6
 41
-30.0
 62
     5
 63
     7
 74
     1
 91
        4
 64
     7
 65
   257
 75
     1
175
     1
 42
1.0
 92
        8
 66
     7
 43
1.0
 76
     1
 77
     6
 78
     2
 67
     7
 79
     5
170
     0
171
     0
290
     0
174
     0
 93
        1
 44
50.0
173
     0
291
     1
 45
0.0
1001
ACAD
1000
AcDbSavedByObjectVersion
1070
     0
  0
VISUALSTYLE
  5
3A
102
{ACAD_REACTORS
330
2A
102
}
330
2A
100
AcDbVisualStyle
  2
ColorChange
 70
    16
 71
     2
 72
     2
 73
     3
 90
        0
 40
-0.6
 41
-30.0
 62
     5
 63
     8
 74
     1
 91
        4
 64
     7
 65
   257
 75
     1
175
     1
 42
1.0
 92
        8
 66
     8
 43
1.0
 76
     1
 77
     6
 78
     2
 67
     7
 79
     5
170
     0
171
     0
290
     0
174
     0
 93
        1
 44
0.0
173
     0
291
     1
 45
0.0
1001
ACAD
1000
AcDbSavedByObjectVersion
1070
     0
  0
VISUALSTYLE
  5
34
102
{ACAD_REACTORS
330
2A
102
}
330
2A
100
AcDbVisualStyle
  2
Conceptual
 70
     9
 71
     3
 72
     2
 73
     0
 90
        0
 40
-0.6
 41
-30.0
 62
     5
 63
     7
 74
     2
 91
        2
 64
     7
 65
   257
 75
     1
175
     1
 42
40.0
 92
        8
 66
     7
 43
1.0
 76
     1
 77
     6
 78
     2
 67
     7
 79
     3
170
     0
171
     0
290
     0
174
     0
 93
        1
 44
0.0
173
     0
291
     0
 45
0.0
1001
ACAD
1000
AcDbSavedByObjectVersion
1070
     0
  0
VISUALSTYLE
  5
35
102
{ACAD_REACTORS
330
2A
102
}
330
2A
100
AcDbVisualStyle
  2
Dim
 70
    11
 71
     2
 72
     2
 73
     0
 90
        0
 40
-0.6
 41
-30.0
 62
     5
 63
     7
 74
     1
 91
        4
 64
     7
 65
   257
 75
     1
175
     1
 42
1.0
 92
        8
 66
     7
 43
1.0
 76
     1
 77
     6
 78
     2
 67
     7
 79
     5
170
     0
171
     0
290
     0
174
     0
 93
        1
 44
-50.0
173
     0
291
     1
 45
0.0
1001
ACAD
1000
AcDbSavedByObjectVersion
1070
     0
  0
VISUALSTYLE
  5
39
102
{ACAD_REACTORS
330
2A
102
}
330
2A
100
AcDbVisualStyle
  2
Facepattern
 70
    15
 71
     2
 72
     2
 73
     0
 90
        0
 40
-0.6
 41
-30.0
 62
     5
 63
     7
 74
     1
 91
        4
 64
     7
 65
   257
 75
     1
175
     1
 42
1.0
 92
        8
 66
     7
 43
1.0
 76
     1
 77
     6
 78
     2
 67
     7
 79
     5
170
     0
171
     0
290
     0
174
     0
 93
        1
 44
0.0
173
     0
291
     1
 45
0.0
1001
ACAD
1000
AcDbSavedByObjectVersion
1070
     0
  0
VISUALSTYLE
  5
2B
102
{ACAD_REACTORS
330
2A
102
}
330
2A
100
AcDbVisualStyle
  2
Flat
 70
     0
 71
     2
 72
     1
 73
     1
 90
        2
 40
-0.6
 41
30.0
 62
     5
 63
     7
 74
     0
 91
        4
 64
     7
 65
   257
 75
     1
175
     1
 42
1.0
 92
        8
 66
     7
 43
1.0
 76
     1
 77
     6
 78
     2
 67
     7
 79
     5
170
     0
171
     0
290
     0
174
     0
 93
       13
 44
0.0
173
     0
291
     1
 45
0.0
1001
ACAD
1000
AcDbSavedByObjectVersion
1070
     0
  0
VISUALSTYLE
  5
2C
102
{ACAD_REACTORS
330
2A
102
}
330
2A
100
AcDbVisualStyle
  2
FlatWithEdges
 70
     1
 71
     2
 72
     1
 73
     1
 90
        2
 40
-0.6
 41
30.0
 62
     5
 63
     7
 74
     1
 91
        4
 64
     7
 65
   257
 75
     1
175
     1
 42
1.0
 92
        0
 66
   257
 43
1.0
 76
     1
 77
     6
 78
     2
 67
     7
 79
     5
170
     0
171
     0
290
     0
174
     0
 93
       13
 44
0.0
173
     0
291
     1
 45
0.0
1001
ACAD
1000
AcDbSavedByObjectVersion
1070
     0
  0
VISUALSTYLE
  5
2D
102
{ACAD_REACTORS
330
2A
102
}
330
2A
100
AcDbVisualStyle
  2
Gouraud
 70
     2
 71
     2
 72
     2
 73
     1
 90
        2
 40
-0.6
 41
30.0
 62
     5
 63
     7
 74
     0
 91
        4
 64
     7
 65
   257
 75
     1
175
     1
 42
1.0
 92
        0
 66
     7
 43
1.0
 76
     1
 77
     6
 78
     2
 67
     7
 79
     5
170
     0
171
     0
290
     0
174
     0
 93
       13
 44
0.0
173
     0
291
     1
 45
0.0
1001
ACAD
1000
AcDbSavedByObjectVersion
1070
     0
  0
VISUALSTYLE
  5
2E
102
{ACAD_REACTORS
330
2A
102
}
330
2A
100
AcDbVisualStyle
  2
GouraudWithEdges
 70
     3
 71
     2
 72
     2
 73
     1
 90
        2
 40
-0.6
 41
30.0
 62
     5
 63
     7
 74
     1
 91
        4
 64
     7
 65
   257
 75
     1
175
     1
 42
1.0
 92
        0
 66
   257
 43
1.0
 76
     1
 77
     6
 78
     2
 67
     7
 79
     5
170
     0
171
     0
290
     0
174
     0
 93
       13
 44
0.0
173
     0
291
     1
 45
0.0
1001
ACAD
1000
AcDbSavedByObjectVersion
1070
     0
  0
VISUALSTYLE
  5
38
102
{ACAD_REACTORS
330
2A
102
}
330
2A
100
AcDbVisualStyle
  2
Linepattern
 70
    14
 71
     2
 72
     2
 73
     0
 90
        0
 40
-0.6
 41
-30.0
 62
     5
 63
     7
 74
     1
 91
        4
 64
     7
 65
   257
 75
     7
175
     7
 42
1.0
 92
        8
 66
     7
 43
1.0
 76
     1
 77
     6
 78
     2
 67
     7
 79
     5
170
     0
171
     0
290
     0
174
     0
 93
        1
 44
0.0
173
     0
291
     1
 45
0.0
1001
ACAD
1000
AcDbSavedByObjectVersion
1070
     0
  0
VISUALSTYLE
  5
33
102
{ACAD_REACTORS
330
2A
102
}
330
2A
100
AcDbVisualStyle
  2
Realistic
 70
     8
 71
     2
 72
     2
 73
     0
 90
        0
 40
-0.6
 41
-30.0
 62
     5
 63
     7
 74
     1
 91
        0
 64
     7
 65
   257
 75
     1
175
     1
 42
1.0
 92
        8
 66
     8
 43
1.0
 76
     1
 77
     6
 78
     2
 67
     7
 79
     5
170
     0
171
     0
290
     0
174
     0
 93
       13
 44
0.0
173
     0
291
     0
 45
0.0
1001
ACAD
1000
AcDbSavedByObjectVersion
1070
     0
  0
VISUALSTYLE
  5
37
102
{ACAD_REACTORS
330
2A
102
}
330
2A
100
AcDbVisualStyle
  2
Thicken
 70
    13
 71
     2
 72
     2
 73
     0
 90
        0
 40
-0.6
 41
-30.0
 62
     5
 63
     7
 74
     1
 91
        4
 64
     7
 65
   257
 75
     1
175
     1
 42
1.0
 92
       12
 66
     7
 43
1.0
 76
     1
 77
     6
 78
     2
 67
     7
 79
     5
170
     0
171
     0
290
     0
174
     0
 93
        1
 44
0.0
173
     0
291
     1
 45
0.0
1001
ACAD
1000
AcDbSavedByObjectVersion
1070
     0
  0
DICTIONARYVAR
  5
167
102
{ACAD_REACTORS
330
164
102
}
330
164
100
DictionaryVariables
280
     0
  1
1:1
  0
ENDSEC
  0
EOF
