  0
SECTION
  2
HEADER
  9
$ACADVER
  1
AC1015
  9
$ACADMAINTVER
 70
     6
  9
$DWGCODEPAGE
  3
ANSI_1252
  9
$INSBASE
 10
0.0
 20
0.0
 30
0.0
  9
$EXTMIN
 10
18.9279663509033
 20
240.3293713196
 30
0.0
  9
$EXTMAX
 10
251.214438872266
 20
368.01684538109
 30
0.0
  9
$LIMMIN
 10
0.0
 20
0.0
  9
$LIMMAX
 10
12.0
 20
9.0
  9
$ORTHOMODE
 70
     0
  9
$REGENMODE
 70
     1
  9
$FILLMODE
 70
     1
  9
$QTEXTMODE
 70
     0
  9
$MIRRTEXT
 70
     1
  9
$LTSCALE
 40
1.0
  9
$ATTMODE
 70
     1
  9
$TEXTSIZE
 40
0.2
  9
$TRACEWID
 40
0.05
  9
$TEXTSTYLE
  7
Standard
  9
$CLAYER
  8
0
  9
$CELTYPE
  6
ByLayer
  9
$CECOLOR
 62
   256
  9
$CELTSCALE
 40
1.0
  9
$DISPSILH
 70
     0
  9
$DIMSCALE
 40
1.0
  9
$DIMASZ
 40
0.18
  9
$DIMEXO
 40
0.0625
  9
$DIMDLI
 40
0.38
  9
$DIMRND
 40
0.0
  9
$DIMDLE
 40
0.0
  9
$DIMEXE
 40
0.18
  9
$DIMTP
 40
0.0
  9
$DIMTM
 40
0.0
  9
$DIMTXT
 40
0.18
  9
$DIMCEN
 40
0.09
  9
$DIMTSZ
 40
0.0
  9
$DIMTOL
 70
     0
  9
$DIMLIM
 70
     0
  9
$DIMTIH
 70
     1
  9
$DIMTOH
 70
     1
  9
$DIMSE1
 70
     0
  9
$DIMSE2
 70
     0
  9
$DIMTAD
 70
     0
  9
$DIMZIN
 70
     0
  9
$DIMBLK
  1

  9
$DIMASO
 70
     1
  9
$DIMSHO
 70
     1
  9
$DIMPOST
  1

  9
$DIMAPOST
  1

  9
$DIMALT
 70
     0
  9
$DIMALTD
 70
     2
  9
$DIMALTF
 40
25.4
  9
$DIMLFAC
 40
1.0
  9
$DIMTOFL
 70
     0
  9
$DIMTVP
 40
0.0
  9
$DIMTIX
 70
     0
  9
$DIMSOXD
 70
     0
  9
$DIMSAH
 70
     0
  9
$DIMBLK1
  1

  9
$DIMBLK2
  1

  9
$DIMSTYLE
  2
Standard
  9
$DIMCLRD
 70
     0
  9
$DIMCLRE
 70
     0
  9
$DIMCLRT
 70
     0
  9
$DIMTFAC
 40
1.0
  9
$DIMGAP
 40
0.09
  9
$DIMJUST
 70
     0
  9
$DIMSD1
 70
     0
  9
$DIMSD2
 70
     0
  9
$DIMTOLJ
 70
     1
  9
$DIMTZIN
 70
     0
  9
$DIMALTZ
 70
     0
  9
$DIMALTTZ
 70
     0
  9
$DIMUPT
 70
     0
  9
$DIMDEC
 70
     4
  9
$DIMTDEC
 70
     4
  9
$DIMALTU
 70
     2
  9
$DIMALTTD
 70
     2
  9
$DIMTXSTY
  7
Standard
  9
$DIMAUNIT
 70
     0
  9
$DIMADEC
 70
     0
  9
$DIMALTRND
 40
0.0
  9
$DIMAZIN
 70
     0
  9
$DIMDSEP
 70
    46
  9
$DIMATFIT
 70
     3
  9
$DIMFRAC
 70
     0
  9
$DIMLDRBLK
  1

  9
$DIMLUNIT
 70
     2
  9
$DIMLWD
 70
    -2
  9
$DIMLWE
 70
    -2
  9
$DIMTMOVE
 70
     0
  9
$LUNITS
 70
     2
  9
$LUPREC
 70
     4
  9
$SKETCHINC
 40
0.1
  9
$FILLETRAD
 40
0.5
  9
$AUNITS
 70
     0
  9
$AUPREC
 70
     0
  9
$MENU
  1
.
  9
$ELEVATION
 40
0.0
  9
$PELEVATION
 40
0.0
  9
$THICKNESS
 40
0.0
  9
$LIMCHECK
 70
     0
  9
$CHAMFERA
 40
0.5
  9
$CHAMFERB
 40
0.5
  9
$CHAMFERC
 40
1.0
  9
$CHAMFERD
 40
0.0
  9
$SKPOLY
 70
     0
  9
$TDCREATE
 40
2456748.729793079
  9
$TDUCREATE
 40
2456748.646459745
  9
$TDUPDATE
 40
2456748.72979309
  9
$TDUUPDATE
 40
2456748.646459757
  9
$TDINDWG
 40
0.0000000116
  9
$TDUSRTIMER
 40
0.0000000116
  9
$USRTIMER
 70
     1
  9
$ANGBASE
 50
0.0
  9
$ANGDIR
 70
     0
  9
$PDMODE
 70
     0
  9
$PDSIZE
 40
0.0
  9
$PLINEWID
 40
0.0
  9
$SPLFRAME
 70
     0
  9
$SPLINETYPE
 70
     6
  9
$SPLINESEGS
 70
     8
  9
$HANDSEED
  5
155
  9
$SURFTAB1
 70
     6
  9
$SURFTAB2
 70
     6
  9
$SURFTYPE
 70
     6
  9
$SURFU
 70
     6
  9
$SURFV
 70
     6
  9
$UCSBASE
  2

  9
$UCSNAME
  2

  9
$UCSORG
 10
0.0
 20
0.0
 30
0.0
  9
$UCSXDIR
 10
1.0
 20
0.0
 30
0.0
  9
$UCSYDIR
 10
0.0
 20
1.0
 30
0.0
  9
$UCSORTHOREF
  2

  9
$UCSORTHOVIEW
 70
     0
  9
$UCSORGTOP
 10
0.0
 20
0.0
 30
0.0
  9
$UCSORGBOTTOM
 10
0.0
 20
0.0
 30
0.0
  9
$UCSORGLEFT
 10
0.0
 20
0.0
 30
0.0
  9
$UCSORGRIGHT
 10
0.0
 20
0.0
 30
0.0
  9
$UCSORGFRONT
 10
0.0
 20
0.0
 30
0.0
  9
$UCSORGBACK
 10
0.0
 20
0.0
 30
0.0
  9
$PUCSBASE
  2

  9
$PUCSNAME
  2

  9
$PUCSORG
 10
0.0
 20
0.0
 30
0.0
  9
$PUCSXDIR
 10
1.0
 20
0.0
 30
0.0
  9
$PUCSYDIR
 10
0.0
 20
1.0
 30
0.0
  9
$PUCSORTHOREF
  2

  9
$PUCSORTHOVIEW
 70
     0
  9
$PUCSORGTOP
 10
0.0
 20
0.0
 30
0.0
  9
$PUCSORGBOTTOM
 10
0.0
 20
0.0
 30
0.0
  9
$PUCSORGLEFT
 10
0.0
 20
0.0
 30
0.0
  9
$PUCSORGRIGHT
 10
0.0
 20
0.0
 30
0.0
  9
$PUCSORGFRONT
 10
0.0
 20
0.0
 30
0.0
  9
$PUCSORGBACK
 10
0.0
 20
0.0
 30
0.0
  9
$USERI1
 70
     0
  9
$USERI2
 70
     0
  9
$USERI3
 70
     0
  9
$USERI4
 70
     0
  9
$USERI5
 70
     0
  9
$USERR1
 40
16.5
  9
$USERR2
 40
0.0
  9
$USERR3
 40
0.0
  9
$USERR4
 40
0.0
  9
$USERR5
 40
0.0
  9
$WORLDVIEW
 70
     1
  9
$SHADEDGE
 70
     3
  9
$SHADEDIF
 70
    70
  9
$TILEMODE
 70
     1
  9
$MAXACTVP
 70
    64
  9
$PINSBASE
 10
0.0
 20
0.0
 30
0.0
  9
$PLIMCHECK
 70
     0
  9
$PEXTMIN
 10
1.00000000000000E+20
 20
1.00000000000000E+20
 30
1.00000000000000E+20
  9
$PEXTMAX
 10
-1.00000000000000E+20
 20
-1.00000000000000E+20
 30
-1.00000000000000E+20
  9
$PLIMMIN
 10
0.0
 20
0.0
  9
$PLIMMAX
 10
12.0
 20
9.0
  9
$UNITMODE
 70
     0
  9
$VISRETAIN
 70
     1
  9
$PLINEGEN
 70
     0
  9
$PSLTSCALE
 70
     1
  9
$TREEDEPTH
 70
  3020
  9
$CMLSTYLE
  2
Standard
  9
$CMLJUST
 70
     0
  9
$CMLSCALE
 40
1.0
  9
$PROXYGRAPHICS
 70
     1
  9
$MEASUREMENT
 70
     1
  9
$CELWEIGHT
370
    -1
  9
$ENDCAPS
280
     0
  9
$JOINSTYLE
280
     0
  9
$LWDISPLAY
290
     0
  9
$INSUNITS
 70
     1
  9
$HYPERLINKBASE
  1

  9
$STYLESHEET
  1

  9
$XEDIT
290
     1
  9
$CEPSNTYPE
380
     0
  9
$PSTYLEMODE
290
     1
  9
$FINGERPRINTGUID
  2
{908BFB65-7FE3-454D-AB0B-2C4AFD3BCB5A}
  9
$VERSIONGUID
  2
{FAEB1C32-E019-11D5-929B-00C0DF256EC4}
  9
$EXTNAMES
290
     1
  9
$PSVPSCALE
 40
0.0
  9
$OLESTARTUP
290
     0
  0
ENDSEC
  0
SECTION
  2
CLASSES
  0
CLASS
  1
ACDBDICTIONARYWDFLT
  2
AcDbDictionaryWithDefault
  3
ObjectDBX Classes
 90
        0
280
     0
281
     0
  0
CLASS
  1
VISUALSTYLE
  2
AcDbVisualStyle
  3
ObjectDBX Classes
 90
     4095
280
     0
281
     0
  0
CLASS
  1
SCALE
  2
AcDbScale
  3
ObjectDBX Classes
 90
     1153
280
     0
281
     0
  0
CLASS
  1

  2
exOdDbPolyline
  3

 90
        0
280
     0
281
     1
  0
CLASS
  1

  2
exOdDbCircle
  3

 90
        0
280
     0
281
     1
  0
CLASS
  1

  2
exOdDbSpline
  3

 90
        0
280
     0
281
     1
  0
CLASS
  1
DICTIONARYVAR
  2
AcDbDictionaryVar
  3
ObjectDBX Classes
 90
        0
280
     0
281
     0
  0
CLASS
  1
ACDBPLACEHOLDER
  2
AcDbPlaceHolder
  3
ObjectDBX Classes
 90
        0
280
     0
281
     0
  0
CLASS
  1
LAYOUT
  2
AcDbLayout
  3
ObjectDBX Classes
 90
        0
280
     0
281
     0
  0
ENDSEC
  0
SECTION
  2
TABLES
  0
TABLE
  2
VPORT
  5
8
330
0
100
AcDbSymbolTable
 70
     1
  0
VPORT
  5
29
330
8
100
AcDbSymbolTableRecord
100
AcDbViewportTableRecord
  2
*Active
 70
     0
 10
0.0
 20
0.0
 11
1.0
 21
1.0
 12
135.0712026115847
 22
304.173108350345
 13
0.0
 23
0.0
 14
0.5
 24
0.5
 15
0.5
 25
0.5
 16
0.0
 26
0.0
 36
1.0
 17
0.0
 27
0.0
 37
0.0
 40
159.4300468781721
 41
1.60267857142857
 42
50.0
 43
0.0
 44
0.0
 50
0.0
 51
0.0
 71
     0
 72
   100
 73
     1
 74
     3
 75
     0
 76
     0
 77
     0
 78
     0
281
     0
 65
     1
110
0.0
120
0.0
130
0.0
111
1.0
121
0.0
131
0.0
112
0.0
122
1.0
132
0.0
 79
     0
146
0.0
  0
ENDTAB
  0
TABLE
  2
LTYPE
  5
5
330
0
100
AcDbSymbolTable
 70
     8
  0
LTYPE
  5
14
330
5
100
AcDbSymbolTableRecord
100
AcDbLinetypeTableRecord
  2
ByBlock
 70
     0
  3

 72
    65
 73
     0
 40
0.0
  0
LTYPE
  5
15
330
5
100
AcDbSymbolTableRecord
100
AcDbLinetypeTableRecord
  2
ByLayer
 70
     0
  3

 72
    65
 73
     0
 40
0.0
  0
LTYPE
  5
16
330
5
100
AcDbSymbolTableRecord
100
AcDbLinetypeTableRecord
  2
Continuous
 70
     0
  3
Solid line
 72
    65
 73
     0
 40
0.0
  0
LTYPE
  5
3B
330
5
100
AcDbSymbolTableRecord
100
AcDbLinetypeTableRecord
  2
DASHED
 70
     0
  3
Dashed
 72
    65
 73
     2
 40
15.0
 49
7.0
 74
     0
 49
-8.0
 74
     0
  0
LTYPE
  5
3C
330
5
100
AcDbSymbolTableRecord
100
AcDbLinetypeTableRecord
  2
DOTTED
 70
     0
  3
Dotted
 72
    65
 73
     2
 40
1.0
 49
0.0
 74
     0
 49
-1.0
 74
     0
  0
LTYPE
  5
3D
330
5
100
AcDbSymbolTableRecord
100
AcDbLinetypeTableRecord
  2
DOT_CENTER
 70
     0
  3
Dot_Center
 72
    65
 73
     4
 40
14.0
 49
12.0
 74
     0
 49
-1.0
 74
     0
 49
0.0
 74
     0
 49
-1.0
 74
     0
  0
LTYPE
  5
3E
330
5
100
AcDbSymbolTableRecord
100
AcDbLinetypeTableRecord
  2
LONG_DASHED
 70
     0
  3
Long_Dashed
 72
    65
 73
     2
 40
15.0
 49
10.0
 74
     0
 49
-5.0
 74
     0
  0
LTYPE
  5
3F
330
5
100
AcDbSymbolTableRecord
100
AcDbLinetypeTableRecord
  2
DASH_CENTER
 70
     0
  3
Dash_Center
 72
    65
 73
     4
 40
14.0
 49
11.0
 74
     0
 49
-1.0
 74
     0
 49
1.0
 74
     0
 49
-1.0
 74
     0
  0
LTYPE
  5
40
330
5
100
AcDbSymbolTableRecord
100
AcDbLinetypeTableRecord
  2
PHANTOM
 70
     0
  3
Phantom
 72
    65
 73
     6
 40
13.0
 49
10.0
 74
     0
 49
-1.0
 74
     0
 49
0.0
 74
     0
 49
-1.0
 74
     0
 49
0.0
 74
     0
 49
-1.0
 74
     0
  0
LTYPE
  5
41
330
5
100
AcDbSymbolTableRecord
100
AcDbLinetypeTableRecord
  2
CENTER_DASH_DASH
 70
     0
  3
Center_Dash_Dash
 72
    65
 73
     6
 40
14.0
 49
9.0
 74
     0
 49
-1.0
 74
     0
 49
1.0
 74
     0
 49
-1.0
 74
     0
 49
1.0
 74
     0
 49
-1.0
 74
     0
  0
ENDTAB
  0
TABLE
  2
LAYER
  5
2
330
0
100
AcDbSymbolTable
 70
     6
  0
LAYER
  5
10
330
2
100
AcDbSymbolTableRecord
100
AcDbLayerTableRecord
  2
0
 70
     0
 62
     7
  6
Continuous
370
    -3
390
F
  0
LAYER
  5
42
330
2
100
AcDbSymbolTableRecord
100
AcDbLayerTableRecord
  2
1
 70
     0
 62
     7
  6
Continuous
370
    -3
390
F
  0
LAYER
  5
43
330
2
100
AcDbSymbolTableRecord
100
AcDbLayerTableRecord
  2
BEZUGSACHSEN
 70
     0
 62
     7
  6
Continuous
370
    -3
390
F
  0
LAYER
  5
44
330
2
100
AcDbSymbolTableRecord
100
AcDbLayerTableRecord
  2
DEFAULT_2
 70
     0
 62
     7
  6
Continuous
370
    -3
390
F
  0
LAYER
  5
45
330
2
100
AcDbSymbolTableRecord
100
AcDbLayerTableRecord
  2
FASEN
 70
     0
 62
     7
  6
Continuous
370
    -3
390
F
  0
LAYER
  5
46
330
2
100
AcDbSymbolTableRecord
100
AcDbLayerTableRecord
  2
RUNDUNGEN
 70
     0
 62
     7
  6
Continuous
370
    -3
390
F
  0
ENDTAB
  0
TABLE
  2
STYLE
  5
3
330
0
100
AcDbSymbolTable
 70
     2
  0
STYLE
  5
11
330
3
100
AcDbSymbolTableRecord
100
AcDbTextStyleTableRecord
  2
Standard
 70
     0
 40
0.0
 41
1.0
 50
0.0
 71
     0
 42
0.2
  3
txt
  4

  0
STYLE
  5
6D
330
3
100
AcDbSymbolTableRecord
100
AcDbTextStyleTableRecord
  2
CONVERTER_11
 70
     0
 40
0.0
 41
0.72
 50
0.0
 71
     0
 42
0.2
  3
txt.shx
  4

  0
ENDTAB
  0
TABLE
  2
VIEW
  5
6
330
0
100
AcDbSymbolTable
 70
     0
  0
ENDTAB
  0
TABLE
  2
UCS
  5
7
330
0
100
AcDbSymbolTable
 70
     0
  0
ENDTAB
  0
TABLE
  2
APPID
  5
9
330
0
100
AcDbSymbolTable
 70
     1
  0
APPID
  5
12
330
9
100
AcDbSymbolTableRecord
100
AcDbRegAppTableRecord
  2
ACAD
 70
     0
  0
ENDTAB
  0
TABLE
  2
DIMSTYLE
  5
A
330
0
100
AcDbSymbolTable
 70
     8
100
AcDbDimStyleTable
  0
DIMSTYLE
105
27
330
A
100
AcDbSymbolTableRecord
100
AcDbDimStyleTableRecord
  2
Standard
 70
     0
340
11
  0
DIMSTYLE
105
106
102
{ACAD_REACTORS
330
107
102
}
330
A
100
AcDbSymbolTableRecord
100
AcDbDimStyleTableRecord
  2
ME10_DIM_10
 70
     0
  3
\U+2300<>
 41
3.5
 42
2.0
 44
2.0
 71
     1
 73
     0
 74
     0
 77
     1
 78
     8
140
3.5
146
0.7
147
2.0
172
     1
173
     1
176
     2
177
     2
178
     3
271
     2
272
     0
340
6D
  0
DIMSTYLE
105
111
102
{ACAD_REACTORS
330
112
102
}
330
A
100
AcDbSymbolTableRecord
100
AcDbDimStyleTableRecord
  2
ME10_DIM_11
 70
     0
  3
\U+2300<>
 41
3.5
 42
2.0
 44
2.0
 71
     1
 73
     0
 74
     0
 77
     1
 78
     8
140
3.5
146
0.7
147
2.0
172
     1
173
     1
176
     2
177
     2
178
     3
271
     2
272
     0
340
6D
  0
DIMSTYLE
105
11C
102
{ACAD_REACTORS
330
11D
102
}
330
A
100
AcDbSymbolTableRecord
100
AcDbDimStyleTableRecord
  2
ME10_DIM_12
 70
     0
  3
\U+2300<>
 41
3.5
 42
2.0
 44
2.0
 71
     1
 73
     0
 74
     0
 77
     1
 78
     8
140
3.5
146
0.7
147
2.0
172
     1
173
     1
176
     2
177
     2
178
     3
271
     2
272
     0
340
6D
  0
DIMSTYLE
105
127
102
{ACAD_REACTORS
330
128
102
}
330
A
100
AcDbSymbolTableRecord
100
AcDbDimStyleTableRecord
  2
ME10_DIM_13
 70
     0
  3
<>
 41
3.5
 42
2.0
 44
2.0
 71
     1
 73
     0
 74
     0
 77
     1
 78
     8
140
3.5
146
0.7
147
2.0
172
     1
173
     1
176
     2
177
     2
178
     3
271
     2
272
     0
340
6D
  0
DIMSTYLE
105
132
102
{ACAD_REACTORS
330
133
102
}
330
A
100
AcDbSymbolTableRecord
100
AcDbDimStyleTableRecord
  2
ME10_DIM_14
 70
     0
  3
<>
 41
3.5
 42
2.0
 44
2.0
 71
     1
 73
     0
 74
     0
 77
     1
 78
     8
140
3.5
146
0.7
147
2.0
172
     1
173
     1
176
     2
177
     2
178
     3
271
     2
272
     0
340
6D
  0
DIMSTYLE
105
13D
102
{ACAD_REACTORS
330
13E
102
}
330
A
100
AcDbSymbolTableRecord
100
AcDbDimStyleTableRecord
  2
ME10_DIM_15
 70
     0
  3
<>
 41
3.5
 42
2.0
 44
2.0
 71
     1
 73
     0
 74
     0
 77
     1
 78
     8
140
3.5
146
0.7
147
2.0
172
     1
173
     1
176
     2
177
     2
178
     3
271
     2
272
     0
340
6D
  0
DIMSTYLE
105
14F
102
{ACAD_REACTORS
330
150
102
}
330
A
100
AcDbSymbolTableRecord
100
AcDbDimStyleTableRecord
  2
ME10_DIM_16
 70
     0
  3
<>
 41
3.5
 42
2.0
 44
2.0
 71
     1
 73
     0
 74
     0
 77
     1
 78
     8
140
3.5
146
0.7
147
2.0
172
     1
173
     1
176
     2
177
     2
178
     3
271
     2
272
     0
340
6D
  0
ENDTAB
  0
TABLE
  2
BLOCK_RECORD
  5
1
330
0
100
AcDbSymbolTable
 70
    10
  0
BLOCK_RECORD
  5
1F
330
1
100
AcDbSymbolTableRecord
100
AcDbBlockTableRecord
  2
*Model_Space
340
22
  0
BLOCK_RECORD
  5
1B
330
1
100
AcDbSymbolTableRecord
100
AcDbBlockTableRecord
  2
*Paper_Space
340
1E
  0
BLOCK_RECORD
  5
23
330
1
100
AcDbSymbolTableRecord
100
AcDbBlockTableRecord
  2
*Paper_Space0
340
26
  0
BLOCK_RECORD
  5
47
330
1
100
AcDbSymbolTableRecord
100
AcDbBlockTableRecord
  2
Urheberrecht_DE-EN
340
0
102
{BLKREFS
331
6C
102
}
  0
BLOCK_RECORD
  5
FD
330
1
100
AcDbSymbolTableRecord
100
AcDbBlockTableRecord
  2
*D2
340
0
  0
BLOCK_RECORD
  5
108
330
1
100
AcDbSymbolTableRecord
100
AcDbBlockTableRecord
  2
*D3
340
0
  0
BLOCK_RECORD
  5
113
330
1
100
AcDbSymbolTableRecord
100
AcDbBlockTableRecord
  2
*D4
340
0
  0
BLOCK_RECORD
  5
11E
330
1
100
AcDbSymbolTableRecord
100
AcDbBlockTableRecord
  2
*D5
340
0
  0
BLOCK_RECORD
  5
129
330
1
100
AcDbSymbolTableRecord
100
AcDbBlockTableRecord
  2
*D6
340
0
  0
BLOCK_RECORD
  5
134
330
1
100
AcDbSymbolTableRecord
100
AcDbBlockTableRecord
  2
*D7
340
0
  0
BLOCK_RECORD
  5
13F
330
1
100
AcDbSymbolTableRecord
100
AcDbBlockTableRecord
  2
*D8
340
0
102
{BLKREFS
331
145
102
}
  0
BLOCK_RECORD
  5
146
330
1
100
AcDbSymbolTableRecord
100
AcDbBlockTableRecord
  2
*D9
340
0
  0
ENDTAB
  0
ENDSEC
  0
SECTION
  2
BLOCKS
  0
BLOCK
  5
20
330
1F
100
AcDbEntity
  8
0
100
AcDbBlockBegin
  2
*Model_Space
 70
     0
 10
0.0
 20
0.0
 30
0.0
  3
*Model_Space
  1

  0
ENDBLK
  5
21
330
1F
100
AcDbEntity
  8
0
100
AcDbBlockEnd
  0
BLOCK
  5
1C
330
1B
100
AcDbEntity
 67
     1
  8
0
100
AcDbBlockBegin
  2
*Paper_Space
 70
     0
 10
0.0
 20
0.0
 30
0.0
  3
*Paper_Space
  1

  0
ENDBLK
  5
1D
330
1B
100
AcDbEntity
 67
     1
  8
0
100
AcDbBlockEnd
  0
BLOCK
  5
24
330
23
100
AcDbEntity
  8
0
100
AcDbBlockBegin
  2
*Paper_Space0
 70
     0
 10
0.0
 20
0.0
 30
0.0
  3
*Paper_Space0
  1

  0
ENDBLK
  5
25
330
23
100
AcDbEntity
  8
0
100
AcDbBlockEnd
  0
BLOCK
  5
48
330
47
100
AcDbEntity
  8
0
100
AcDbBlockBegin
  2
Urheberrecht_DE-EN
 70
     0
 10
32.9279663509033
 20
307.030695468436
 30
0.0
  3
Urheberrecht_DE-EN
  1

  0
MTEXT
  5
6E
330
47
100
AcDbEntity
  8
1
 62
     1
100
AcDbMText
 10
32.9279663509033
 20
307.030695468436
 30
0.0
 40
2.0
 41
0.0
 71
     7
 72
     1
  1
We own the copyright of this document. It \Pdetermined and may neither be copied or \Pmade accessible to outsiders without our\Ppermission.
  7
CONVERTER_11
 11
0.0
 21
1.0
 31
0.0
 73
     1
 44
0.90036014405762
  0
MTEXT
  5
6F
330
47
100
AcDbEntity
  8
1
 62
     1
100
AcDbMText
 10
32.9279663509033
 20
250.7413085511298
 30
0.0
 40
2.0
 41
0.0
 71
     7
 72
     1
  1
F\U+00fcr diese Unterlage behalten wir das Ur-\Pheberrecht. Sie darf nur f\U+00fcr den von uns \Pbestimmten Zweck benutzt und ohne unsere \PZustimmung weder vervielf\U+00e4ltigt noch\PDritten zug\U+00e4nglich gemacht werden.
  7
CONVERTER_11
 11
0.0
 21
1.0
 31
0.0
 73
     1
 44
0.90036014405762
  0
ENDBLK
  5
49
330
47
100
AcDbEntity
  8
0
100
AcDbBlockEnd
  0
BLOCK
  5
104
330
FD
100
AcDbEntity
  8
0
100
AcDbBlockBegin
  2
*D2
 70
     1
 10
0.0
 20
0.0
 30
0.0
  3
*D2
  1

  0
LINE
  5
FE
330
FD
100
AcDbEntity
  8
1
  6
Continuous
 62
     2
100
AcDbLine
 10
232.970138404417
 20
302.8293713196
 30
0.0
 11
232.970138404417
 21
277.8293713196
 31
0.0
  0
LINE
  5
FF
330
FD
100
AcDbEntity
  8
1
  6
Continuous
 62
     2
100
AcDbLine
 10
222.6579396413
 20
302.8293713196
 30
0.0
 11
234.970138404417
 21
302.8293713196
 31
0.0
  0
LINE
  5
100
330
FD
100
AcDbEntity
  8
1
  6
Continuous
 62
     2
100
AcDbLine
 10
222.6579396413
 20
277.8293713196
 30
0.0
 11
234.970138404417
 21
277.8293713196
 31
0.0
  0
SOLID
  5
101
330
FD
100
AcDbEntity
  8
1
 62
     2
100
AcDbTrace
 10
233.4309221459729
 20
299.3293713196
 30
0.0
 11
232.5093546628611
 21
299.3293713196
 31
0.0
 12
232.970138404417
 22
302.8293713196
 32
0.0
 13
232.970138404417
 23
302.8293713196
 33
0.0
  0
SOLID
  5
102
330
FD
100
AcDbEntity
  8
1
 62
     2
100
AcDbTrace
 10
232.5093546628611
 20
281.3293713196
 30
0.0
 11
233.4309221459729
 21
281.3293713196
 31
0.0
 12
232.970138404417
 22
277.8293713196
 32
0.0
 13
232.970138404417
 23
277.8293713196
 33
0.0
  0
MTEXT
  5
103
330
FD
100
AcDbEntity
  8
1
 62
     3
100
AcDbMText
 10
230.970138404417
 20
281.018793850708
 30
0.0
 40
3.5
 41
0.0
 71
     7
 72
     1
  1
\C3;%%c\C3;\C3;25\C2;\H2.45;\S^ ;\C3;
  7
CONVERTER_11
 11
0.0
 21
1.0
 31
0.0
 73
     1
 44
0.60024009603842
  0
ENDBLK
  5
105
330
FD
100
AcDbEntity
  8
0
100
AcDbBlockEnd
  0
BLOCK
  5
10F
330
108
100
AcDbEntity
  8
0
100
AcDbBlockBegin
  2
*D3
 70
     1
 10
0.0
 20
0.0
 30
0.0
  3
*D3
  1

  0
LINE
  5
109
330
108
100
AcDbEntity
  8
1
  6
Continuous
 62
     2
100
AcDbLine
 10
241.18354875333
 20
312.3293713195681
 30
0.0
 11
241.18354875333
 21
268.3293713196417
 31
0.0
  0
LINE
  5
10A
330
108
100
AcDbEntity
  8
1
  6
Continuous
 62
     2
100
AcDbLine
 10
222.6579396413105
 20
312.3293713195681
 30
0.0
 11
243.18354875333
 21
312.3293713195681
 31
0.0
  0
LINE
  5
10B
330
108
100
AcDbEntity
  8
1
  6
Continuous
 62
     2
100
AcDbLine
 10
222.6579396413
 20
268.3293713196417
 30
0.0
 11
243.18354875333
 21
268.3293713196417
 31
0.0
  0
SOLID
  5
10C
330
108
100
AcDbEntity
  8
1
 62
     2
100
AcDbTrace
 10
241.6443324948859
 20
308.8293713195681
 30
0.0
 11
240.7227650117741
 21
308.8293713195681
 31
0.0
 12
241.18354875333
 22
312.3293713195681
 32
0.0
 13
241.18354875333
 23
312.3293713195681
 33
0.0
  0
SOLID
  5
10D
330
108
100
AcDbEntity
  8
1
 62
     2
100
AcDbTrace
 10
240.7227650117741
 20
271.8293713196417
 30
0.0
 11
241.6443324948859
 21
271.8293713196417
 31
0.0
 12
241.18354875333
 22
268.3293713196417
 32
0.0
 13
241.18354875333
 23
268.3293713196417
 33
0.0
  0
MTEXT
  5
10E
330
108
100
AcDbEntity
  8
1
 62
     3
100
AcDbMText
 10
239.18354875333
 20
281.201314080684
 30
0.0
 40
3.5
 41
0.0
 71
     7
 72
     1
  1
\C3;%%c\C3;\C3;44\C2;\H2.45;\S^ ;\C3;
  7
CONVERTER_11
 11
0.0
 21
1.0
 31
0.0
 73
     1
 44
0.60024009603842
  0
ENDBLK
  5
110
330
108
100
AcDbEntity
  8
0
100
AcDbBlockEnd
  0
BLOCK
  5
11A
330
113
100
AcDbEntity
  8
0
100
AcDbBlockBegin
  2
*D4
 70
     1
 10
0.0
 20
0.0
 30
0.0
  3
*D4
  1

  0
LINE
  5
114
330
113
100
AcDbEntity
  8
1
  6
Continuous
 62
     2
100
AcDbLine
 10
249.214438872266
 20
316.8293713196
 30
0.0
 11
249.214438872266
 21
263.8293713196
 31
0.0
  0
LINE
  5
115
330
113
100
AcDbEntity
  8
1
  6
Continuous
 62
     2
100
AcDbLine
 10
165.4800183285
 20
316.8293713196
 30
0.0
 11
251.214438872266
 21
316.8293713196
 31
0.0
  0
LINE
  5
116
330
113
100
AcDbEntity
  8
1
  6
Continuous
 62
     2
100
AcDbLine
 10
165.4800183285
 20
263.8293713196
 30
0.0
 11
251.214438872266
 21
263.8293713196
 31
0.0
  0
SOLID
  5
117
330
113
100
AcDbEntity
  8
1
 62
     2
100
AcDbTrace
 10
249.6752226138219
 20
313.3293713196
 30
0.0
 11
248.7536551307101
 21
313.3293713196
 31
0.0
 12
249.214438872266
 22
316.8293713196
 32
0.0
 13
249.214438872266
 23
316.8293713196
 33
0.0
  0
SOLID
  5
118
330
113
100
AcDbEntity
  8
1
 62
     2
100
AcDbTrace
 10
248.7536551307101
 20
267.3293713196
 30
0.0
 11
249.6752226138219
 21
267.3293713196
 31
0.0
 12
249.214438872266
 22
263.8293713196
 32
0.0
 13
249.214438872266
 23
263.8293713196
 33
0.0
  0
MTEXT
  5
119
330
113
100
AcDbEntity
  8
1
 62
     3
100
AcDbMText
 10
247.214438872266
 20
281.383834310659
 30
0.0
 40
3.5
 41
0.0
 71
     7
 72
     1
  1
\C3;%%c\C3;\C3;53\C2;\H2.45;\S^ ;\C3;
  7
CONVERTER_11
 11
0.0
 21
1.0
 31
0.0
 73
     1
 44
0.60024009603842
  0
ENDBLK
  5
11B
330
113
100
AcDbEntity
  8
0
100
AcDbBlockEnd
  0
BLOCK
  5
125
330
11E
100
AcDbEntity
  8
0
100
AcDbBlockBegin
  2
*D5
 70
     1
 10
0.0
 20
0.0
 30
0.0
  3
*D5
  1

  0
LINE
  5
11F
330
11E
100
AcDbEntity
  8
1
  6
Continuous
 62
     2
100
AcDbLine
 10
220.6579396413
 20
347.732706753047
 30
0.0
 11
119.6579396413
 21
347.732706753047
 31
0.0
  0
LINE
  5
120
330
11E
100
AcDbEntity
  8
1
  6
Continuous
 62
     2
100
AcDbLine
 10
220.6579396413
 20
313.4049808279
 30
0.0
 11
220.6579396413
 21
349.732706753047
 31
0.0
  0
LINE
  5
121
330
11E
100
AcDbEntity
  8
1
  6
Continuous
 62
     2
100
AcDbLine
 10
119.6579396413
 20
342.3293343985
 30
0.0
 11
119.6579396413
 21
349.732706753047
 31
0.0
  0
SOLID
  5
122
330
11E
100
AcDbEntity
  8
1
 62
     2
100
AcDbTrace
 10
217.1579396413
 20
347.2719230114911
 30
0.0
 11
217.1579396413
 21
348.1934904946029
 31
0.0
 12
220.6579396413
 22
347.732706753047
 32
0.0
 13
220.6579396413
 23
347.732706753047
 33
0.0
  0
SOLID
  5
123
330
11E
100
AcDbEntity
  8
1
 62
     2
100
AcDbTrace
 10
123.1579396413
 20
348.1934904946029
 30
0.0
 11
123.1579396413
 21
347.2719230114911
 31
0.0
 12
119.6579396413
 22
347.732706753047
 32
0.0
 13
119.6579396413
 23
347.732706753047
 33
0.0
  0
MTEXT
  5
124
330
11E
100
AcDbEntity
  8
1
 62
     3
100
AcDbMText
 10
168.940820902561
 20
349.732706753047
 30
0.0
 40
3.5
 41
0.0
 71
     7
 72
     1
  1
\C3;\C3;\C3;101\C2;\H2.45;\S^ ;\C3;
  7
CONVERTER_11
 11
0.9999999999970619
 21
2.424068405545306E-6
 31
0.0
 73
     1
 44
0.60024009603842
  0
ENDBLK
  5
126
330
11E
100
AcDbEntity
  8
0
100
AcDbBlockEnd
  0
BLOCK
  5
130
330
129
100
AcDbEntity
  8
0
100
AcDbBlockBegin
  2
*D6
 70
     1
 10
0.0
 20
0.0
 30
0.0
  3
*D6
  1

  0
LINE
  5
12A
330
129
100
AcDbEntity
  8
1
  6
Continuous
 62
     2
100
AcDbLine
 10
220.6579396413
 20
355.03351595208
 30
0.0
 11
90.6579396413
 21
355.03351595208
 31
0.0
  0
LINE
  5
12B
330
129
100
AcDbEntity
  8
1
  6
Continuous
 62
     2
100
AcDbLine
 10
220.6579396413
 20
313.4049808279
 30
0.0
 11
220.6579396413
 21
357.03351595208
 31
0.0
  0
LINE
  5
12C
330
129
100
AcDbEntity
  8
1
  6
Continuous
 62
     2
100
AcDbLine
 10
90.6579396413
 20
342.3293713196
 30
0.0
 11
90.6579396413
 21
357.03351595208
 31
0.0
  0
SOLID
  5
12D
330
129
100
AcDbEntity
  8
1
 62
     2
100
AcDbTrace
 10
217.1579396413
 20
354.5727322105241
 30
0.0
 11
217.1579396413
 21
355.4942996936359
 31
0.0
 12
220.6579396413
 22
355.03351595208
 32
0.0
 13
220.6579396413
 23
355.03351595208
 33
0.0
  0
SOLID
  5
12E
330
129
100
AcDbEntity
  8
1
 62
     2
100
AcDbTrace
 10
94.1579396413
 20
355.4942996936359
 30
0.0
 11
94.1579396413
 21
354.5727322105241
 31
0.0
 12
90.6579396413
 22
355.03351595208
 32
0.0
 13
90.6579396413
 23
355.03351595208
 33
0.0
  0
MTEXT
  5
12F
330
129
100
AcDbEntity
  8
1
 62
     3
100
AcDbMText
 10
152.459040664688
 20
357.03351595208
 30
0.0
 40
3.5
 41
0.0
 71
     7
 72
     1
  1
\C3;\C3;\C3;130\C2;\H2.45;\S^ ;\C3;
  7
CONVERTER_11
 11
0.9999999999970619
 21
2.424068405545306E-6
 31
0.0
 73
     1
 44
0.60024009603842
  0
ENDBLK
  5
131
330
129
100
AcDbEntity
  8
0
100
AcDbBlockEnd
  0
BLOCK
  5
13B
330
134
100
AcDbEntity
  8
0
100
AcDbBlockBegin
  2
*D7
 70
     1
 10
0.0
 20
0.0
 30
0.0
  3
*D7
  1

  0
LINE
  5
135
330
134
100
AcDbEntity
  8
1
  6
Continuous
 62
     2
100
AcDbLine
 10
220.6579396413
 20
362.51684538109
 30
0.0
 11
40.6579396413
 21
362.51684538109
 31
0.0
  0
LINE
  5
136
330
134
100
AcDbEntity
  8
1
  6
Continuous
 62
     2
100
AcDbLine
 10
220.6579396413
 20
313.4049808279
 30
0.0
 11
220.6579396413
 21
364.51684538109
 31
0.0
  0
LINE
  5
137
330
134
100
AcDbEntity
  8
1
  6
Continuous
 62
     2
100
AcDbLine
 10
40.6579396413
 20
325.9295628822
 30
0.0
 11
40.6579396413
 21
364.51684538109
 31
0.0
  0
SOLID
  5
138
330
134
100
AcDbEntity
  8
1
 62
     2
100
AcDbTrace
 10
217.1579396413
 20
362.0560616395341
 30
0.0
 11
217.1579396413
 21
362.9776291226459
 31
0.0
 12
220.6579396413
 22
362.51684538109
 32
0.0
 13
220.6579396413
 23
362.51684538109
 33
0.0
  0
SOLID
  5
139
330
134
100
AcDbEntity
  8
1
 62
     2
100
AcDbTrace
 10
44.1579396413
 20
362.9776291226459
 30
0.0
 11
44.1579396413
 21
362.0560616395341
 31
0.0
 12
40.6579396413
 22
362.51684538109
 32
0.0
 13
40.6579396413
 23
362.51684538109
 33
0.0
  0
MTEXT
  5
13A
330
134
100
AcDbEntity
  8
1
 62
     3
100
AcDbMText
 10
133.476936747201
 20
364.51684538109
 30
0.0
 40
3.5
 41
0.0
 71
     7
 72
     1
  1
\C3;\C3;\C3;180\C2;\H2.45;\S^ ;\C3;
  7
CONVERTER_11
 11
0.9999999999970619
 21
2.424068405545306E-6
 31
0.0
 73
     1
 44
0.60024009603842
  0
ENDBLK
  5
13C
330
134
100
AcDbEntity
  8
0
100
AcDbBlockEnd
  0
BLOCK
  5
143
330
13F
100
AcDbEntity
  8
0
100
AcDbBlockBegin
  2
*D8
 70
     1
 10
0.0
 20
0.0
 30
0.0
  3
*D8
  1

  0
LINE
  5
140
330
13F
100
AcDbEntity
  8
1
  6
Continuous
 62
     2
100
AcDbLine
 10
133.3128041928647
 20
331.2114874455106
 30
0.0
 11
122.4879763854609
 21
323.743554469154
 31
0.0
  0
SOLID
  5
141
330
13F
100
AcDbEntity
  8
1
 62
     2
100
AcDbTrace
 10
125.1072435549607
 20
326.1103584642627
 30
0.0
 11
125.6305681403907
 21
325.3517953461153
 31
0.0
 12
122.4879763854609
 22
323.743554469154
 32
0.0
 13
122.4879763854609
 23
323.743554469154
 33
0.0
  0
MTEXT
  5
142
330
13F
100
AcDbEntity
  8
1
 62
     3
100
AcDbMText
 10
124.6866604848004
 20
327.6901745187993
 30
0.0
 40
3.5
 41
0.0
 71
     7
 72
     1
  1
\C3; R\C3;\C3;16\C2;\H2.45;\S^ ;\C3;
  7
CONVERTER_11
 11
0.8231227034899425
 21
0.5678635531528751
 31
0.0
 73
     1
 44
0.60024009603842
  0
ENDBLK
  5
144
330
13F
100
AcDbEntity
  8
0
100
AcDbBlockEnd
  0
BLOCK
  5
14D
330
146
100
AcDbEntity
  8
0
100
AcDbBlockBegin
  2
*D9
 70
     1
 10
0.0
 20
0.0
 30
0.0
  3
*D9
  1

  0
LINE
  5
147
330
146
100
AcDbEntity
  8
1
  6
Continuous
 62
     2
100
AcDbLine
 10
202.2832882309504
 20
316.8293713196
 30
0.0
 11
204.2832882309504
 21
316.8293713196
 31
0.0
  0
LINE
  5
148
330
146
100
AcDbEntity
  8
1
  6
Continuous
 62
     2
100
AcDbLine
 10
165.4800183285001
 20
316.8293713196
 30
0.0
 11
202.2832882309504
 21
316.8293713196
 31
0.0
  0
ARC
  5
149
330
146
100
AcDbEntity
  8
1
  6
Continuous
 62
     2
100
AcDbCircle
 10
163.4800183285001
 20
316.8293713196
 30
0.0
 40
38.80326990245032
100
AcDbArc
 50
347.7480027276403
 51
20.59148712215362
  0
SOLID
  5
14A
330
146
100
AcDbEntity
  8
1
 62
     2
100
AcDbTrace
 10
202.1893018036068
 20
310.2547935385814
 30
0.0
 11
201.2747691821889
 21
310.3684452446466
 31
0.0
 12
202.1636706997795
 22
313.784901851792
 32
0.0
 13
202.1636706997795
 23
313.784901851792
 33
0.0
  0
SOLID
  5
14B
330
146
100
AcDbEntity
  8
1
 62
     2
100
AcDbTrace
 10
201.6651789960708
 20
320.3050385404712
 30
0.0
 11
202.5858094287125
 21
320.3465864937664
 31
0.0
 12
202.2832882309504
 22
316.8293713196
 32
0.0
 13
202.2832882309504
 23
316.8293713196
 33
0.0
  0
MTEXT
  5
14C
330
146
100
AcDbEntity
  8
1
 62
     3
100
AcDbMText
 10
201.819517528607
 20
331.2337408239277
 30
0.0
 40
3.5
 41
0.0
 71
     7
 72
     1
  1
\C3;\C3;\C3;4.5%%d\C2;\H2.45;\S^ ;\C3;
  7
CONVERTER_11
 11
0.2695924777074893
 21
-0.9629745043164626
 31
0.0
 73
     1
 44
0.60024009603842
  0
ENDBLK
  5
14E
330
146
100
AcDbEntity
  8
0
100
AcDbBlockEnd
  0
ENDSEC
  0
SECTION
  2
ENTITIES
  0
INSERT
  5
6C
330
1F
100
AcDbEntity
  8
0
100
AcDbBlockReference
  2
Urheberrecht_DE-EN
 10
32.9279663509033
 20
307.030695468436
 30
0.0
  0
LINE
  5
70
330
1F
100
AcDbEntity
  8
BEZUGSACHSEN
  6
Continuous
 62
     7
100
AcDbLine
 10
40.6579396413
 20
256.7291797566
 30
0.0
 11
40.6579396413
 21
278.3193713196
 31
0.0
  0
LINE
  5
71
330
1F
100
AcDbEntity
  8
BEZUGSACHSEN
  6
Continuous
 62
     7
100
AcDbLine
 10
40.6579396413
 20
302.3393713196
 30
0.0
 11
40.6579396413
 21
323.9295628822
 31
0.0
  0
LINE
  5
72
330
1F
100
AcDbEntity
  8
BEZUGSACHSEN
  6
Continuous
 62
     9
100
AcDbLine
 10
42.5578651566
 20
325.9270575879
 30
0.0
 11
42.5578651566
 21
306.0059037059
 31
0.0
  0
LINE
  5
73
330
1F
100
AcDbEntity
  8
BEZUGSACHSEN
  6
Continuous
 62
     9
100
AcDbLine
 10
42.5578651566
 20
274.6528389333
 30
0.0
 11
42.5578651566
 21
254.7316850513
 31
0.0
  0
LINE
  5
74
330
1F
100
AcDbEntity
  8
BEZUGSACHSEN
  6
Continuous
 62
     7
100
AcDbLine
 10
42.6579396413
 20
277.9257313712
 30
0.0
 11
42.6579396413
 21
280.3193713196
 31
0.0
  0
LINE
  5
75
330
1F
100
AcDbEntity
  8
BEZUGSACHSEN
  6
Continuous
 62
     7
100
AcDbLine
 10
42.6579396413
 20
300.3393713196
 30
0.0
 11
42.6579396413
 21
302.733011268
 31
0.0
  0
LINE
  5
76
330
1F
100
AcDbEntity
  8
BEZUGSACHSEN
  6
Continuous
 62
     9
100
AcDbLine
 10
48.6579396413
 20
273.9707237322
 30
0.0
 11
48.6579396413
 21
280.3193713196
 31
0.0
  0
LINE
  5
77
330
1F
100
AcDbEntity
  8
BEZUGSACHSEN
  6
Continuous
 62
     9
100
AcDbLine
 10
48.6579396413
 20
300.3393713196
 30
0.0
 11
48.6579396413
 21
306.688018907
 31
0.0
  0
LINE
  5
78
330
1F
100
AcDbEntity
  8
BEZUGSACHSEN
  6
Continuous
 62
     7
100
AcDbLine
 10
50.6579396413
 20
303.1990268454
 30
0.0
 11
50.6579396413
 21
277.4597157938
 31
0.0
  0
LINE
  5
79
330
1F
100
AcDbEntity
  8
BEZUGSACHSEN
  6
Continuous
 62
     7
100
AcDbLine
 10
41.9248925683
 20
275.3193713196
 30
0.0
 11
41.8037823169
 21
275.0870353241
 31
0.0
  0
LINE
  5
7A
330
1F
100
AcDbEntity
  8
BEZUGSACHSEN
  6
Continuous
 62
     7
100
AcDbLine
 10
41.8037823169
 20
305.571707315
 30
0.0
 11
41.9248925683
 21
305.3393713196
 31
0.0
  0
LWPOLYLINE
  5
7B
330
1F
100
AcDbEntity
  8
BEZUGSACHSEN
  6
DOT_CENTER
 62
     7
100
AcDbPolyline
 90
        2
 70
     0
 43
0.25
 10
75.6579396413
 20
290.3293713196
 10
75.6579396413
 20
281.3293713196
  0
LWPOLYLINE
  5
7C
330
1F
100
AcDbEntity
  8
BEZUGSACHSEN
  6
DOT_CENTER
 62
     7
100
AcDbPolyline
 90
        2
 70
     0
 43
0.25
 10
75.6579396413
 20
290.3293713196
 10
75.6579396413
 20
299.3293713196
  0
LINE
  5
7D
330
1F
100
AcDbEntity
  8
BEZUGSACHSEN
  6
Continuous
 62
     7
100
AcDbLine
 10
40.6579396413
 20
278.3193713196
 30
0.0
 11
42.6579396413
 21
280.3193713196
 31
0.0
  0
LINE
  5
7E
330
1F
100
AcDbEntity
  8
BEZUGSACHSEN
  6
Continuous
 62
     7
100
AcDbLine
 10
42.6579396413
 20
300.3393713196
 30
0.0
 11
40.6579396413
 21
302.3393713196
 31
0.0
  0
LINE
  5
7F
330
1F
100
AcDbEntity
  8
BEZUGSACHSEN
  6
Continuous
 62
     7
100
AcDbLine
 10
107.4103443771
 20
240.3293713196
 30
0.0
 11
90.6579396413
 21
240.3293713196
 31
0.0
  0
LINE
  5
80
330
1F
100
AcDbEntity
  8
BEZUGSACHSEN
  6
Continuous
 62
     7
100
AcDbLine
 10
113.9055349055
 20
240.3293713196
 30
0.0
 11
119.6579396413
 21
240.3293713196
 31
0.0
  0
LINE
  5
81
330
1F
100
AcDbEntity
  8
BEZUGSACHSEN
  6
Continuous
 62
     7
100
AcDbLine
 10
88.1579396413
 20
328.2116213196
 30
0.0
 11
88.1579396413
 21
252.4471213196
 31
0.0
  0
LINE
  5
82
330
1F
100
AcDbEntity
  8
BEZUGSACHSEN
  6
Continuous
 62
     9
100
AcDbLine
 10
88.7771832553
 20
252.6130471459
 30
0.0
 11
88.7771832553
 21
328.0456954933
 31
0.0
  0
LINE
  5
83
330
1F
100
AcDbEntity
  8
BEZUGSACHSEN
  6
Continuous
 62
     9
100
AcDbLine
 10
89.0360023004
 20
252.6471213196
 30
0.0
 11
89.0360023004
 21
328.0116213196
 31
0.0
  0
LINE
  5
84
330
1F
100
AcDbEntity
  8
BEZUGSACHSEN
  6
Continuous
 62
     9
100
AcDbLine
 10
89.9573683526
 20
252.6471213196
 30
0.0
 11
89.9573683526
 21
328.0116213196
 31
0.0
  0
LINE
  5
85
330
1F
100
AcDbEntity
  8
BEZUGSACHSEN
  6
Continuous
 62
     7
100
AcDbLine
 10
109.7829396413
 20
244.3293713196
 30
0.0
 11
111.5329396413
 21
244.3293713196
 31
0.0
  0
LINE
  5
86
330
1F
100
AcDbEntity
  8
BEZUGSACHSEN
  6
Continuous
 62
     7
100
AcDbLine
 10
90.6579396413
 20
340.3293713196
 30
0.0
 11
90.6579396413
 21
240.3293713196
 31
0.0
  0
LINE
  5
87
330
1F
100
AcDbEntity
  8
BEZUGSACHSEN
  6
Continuous
 62
     7
100
AcDbLine
 10
112.5329396413
 20
337.9519665838
 30
0.0
 11
113.9055349055
 21
340.3293713196
 31
0.0
  0
LINE
  5
88
330
1F
100
AcDbEntity
  8
FASEN
  6
Continuous
 62
     7
100
AcDbLine
 10
96.0594256058
 20
251.4996146889
 30
0.0
 11
107.4103443771
 21
251.4996146889
 31
0.0
  0
LINE
  5
89
330
1F
100
AcDbEntity
  8
0
  6
Continuous
 62
     7
100
AcDbLine
 10
113.9055349055
 20
251.4996146889
 30
0.0
 11
119.6579396413
 21
251.4996146889
 31
0.0
  0
LINE
  5
8A
330
1F
100
AcDbEntity
  8
BEZUGSACHSEN
  6
Continuous
 62
     7
100
AcDbLine
 10
89.9573683526
 20
252.6471213196
 30
0.0
 11
89.0360023004
 21
252.6471213196
 31
0.0
  0
LINE
  5
8B
330
1F
100
AcDbEntity
  8
0
  6
Continuous
 62
     7
100
AcDbLine
 10
109.7829396413
 20
256.8069907359
 30
0.0
 11
111.5329396413
 21
256.8069907359
 31
0.0
  0
LINE
  5
8C
330
1F
100
AcDbEntity
  8
BEZUGSACHSEN
  6
Continuous
 62
     7
100
AcDbLine
 10
88.1579396413
 20
252.4471213196
 30
0.0
 11
42.5578651566
 21
254.7316850513
 31
0.0
  0
LINE
  5
8D
330
1F
100
AcDbEntity
  8
BEZUGSACHSEN
  6
Continuous
 62
     7
100
AcDbLine
 10
112.5329396413
 20
242.7067760554
 30
0.0
 11
113.9055349055
 21
240.3293713196
 31
0.0
  0
LWPOLYLINE
  5
8E
330
1F
100
AcDbEntity
  8
BEZUGSACHSEN
  6
DOT_CENTER
 62
     7
100
AcDbPolyline
 90
        2
 70
     0
 43
0.25
 10
97.6579396413
 20
332.4787431749
 10
97.6579396413
 20
343.3293713196
  0
LINE
  5
8F
330
1F
100
AcDbEntity
  8
FASEN
  6
Continuous
 62
     9
100
AcDbLine
 10
103.6298135632
 20
258.4293713196
 30
0.0
 11
103.6298135632
 21
258.8293713196
 31
0.0
  0
LINE
  5
90
330
1F
100
AcDbEntity
  8
BEZUGSACHSEN
  6
Continuous
 62
     9
100
AcDbLine
 10
40.6579396413
 20
276.8831873506
 30
0.0
 11
42.6579396413
 21
277.9257313712
 31
0.0
  0
LINE
  5
91
330
1F
100
AcDbEntity
  8
RUNDUNGEN
  6
Continuous
 62
     7
100
AcDbLine
 10
219.7363987371
 20
268.2568444775
 30
0.0
 11
163.4800183285
 21
263.8293713196
 31
0.0
  0
LINE
  5
92
330
1F
100
AcDbEntity
  8
0
  6
Continuous
 62
     7
100
AcDbLine
 10
163.4800183285
 20
263.8293713196
 30
0.0
 11
219.7363987371
 21
268.2568444775
 31
0.0
  0
LINE
  5
93
330
1F
100
AcDbEntity
  8
FASEN
  6
Continuous
 62
     7
100
AcDbLine
 10
103.6298135632
 20
258.4293713196
 30
0.0
 11
119.6579396413
 21
258.4293713196
 31
0.0
  0
LINE
  5
94
330
1F
100
AcDbEntity
  8
0
  6
Continuous
 62
     7
100
AcDbLine
 10
103.6298135632
 20
258.8293713196
 30
0.0
 11
119.6579396413
 21
258.8293713196
 31
0.0
  0
LINE
  5
95
330
1F
100
AcDbEntity
  8
BEZUGSACHSEN
  6
Continuous
 62
     9
100
AcDbLine
 10
42.6579396413
 20
302.733011268
 30
0.0
 11
40.6579396413
 21
303.7755552886
 31
0.0
  0
LINE
  5
96
330
1F
100
AcDbEntity
  8
FASEN
  6
Continuous
 62
     9
100
AcDbLine
 10
105.6579396413
 20
280.7293713196
 30
0.0
 11
105.6579396413
 21
280.3293713196
 31
0.0
  0
LINE
  5
97
330
1F
100
AcDbEntity
  8
FASEN
  6
Continuous
 62
     9
100
AcDbLine
 10
105.6579396413
 20
299.9293713196
 30
0.0
 11
105.6579396413
 21
300.3293713196
 31
0.0
  0
LINE
  5
98
330
1F
100
AcDbEntity
  8
0
  6
Continuous
 62
     7
100
AcDbLine
 10
107.4103443771
 20
340.3293713196
 30
0.0
 11
107.4103443771
 21
300.3293713196
 31
0.0
  0
LINE
  5
99
330
1F
100
AcDbEntity
  8
0
  6
Continuous
 62
     7
100
AcDbLine
 10
107.4103443771
 20
280.3293713196
 30
0.0
 11
107.4103443771
 21
258.8293713196
 31
0.0
  0
LINE
  5
9A
330
1F
100
AcDbEntity
  8
0
  6
Continuous
 62
     7
100
AcDbLine
 10
107.4103443771
 20
251.4996146889
 30
0.0
 11
107.4103443771
 21
240.3293713196
 31
0.0
  0
LINE
  5
9B
330
1F
100
AcDbEntity
  8
0
  6
Continuous
 62
     7
100
AcDbLine
 10
108.7829396413
 20
337.9519331573
 30
0.0
 11
108.7829396413
 21
300.3293713196
 31
0.0
  0
LINE
  5
9C
330
1F
100
AcDbEntity
  8
0
  6
Continuous
 62
     7
100
AcDbLine
 10
108.7829396413
 20
280.3293713196
 30
0.0
 11
108.7829396413
 21
258.8293713196
 31
0.0
  0
LINE
  5
9D
330
1F
100
AcDbEntity
  8
0
  6
Continuous
 62
     7
100
AcDbLine
 10
108.7829396413
 20
242.7068135894
 30
0.0
 11
108.7829396413
 21
255.4474275664
 31
0.0
  0
LINE
  5
9E
330
1F
100
AcDbEntity
  8
0
  6
Continuous
 62
     9
100
AcDbLine
 10
109.7829396413
 20
244.3293713196
 30
0.0
 11
109.7829396413
 21
256.8069907359
 31
0.0
  0
LINE
  5
9F
330
1F
100
AcDbEntity
  8
0
  6
Continuous
 62
     9
100
AcDbLine
 10
109.7829396413
 20
258.8293713196
 30
0.0
 11
109.7829396413
 21
280.3293713196
 31
0.0
  0
LINE
  5
A0
330
1F
100
AcDbEntity
  8
0
  6
Continuous
 62
     9
100
AcDbLine
 10
109.7829396413
 20
300.3293713196
 30
0.0
 11
109.7829396413
 21
336.3293713196
 31
0.0
  0
LINE
  5
A1
330
1F
100
AcDbEntity
  8
BEZUGSACHSEN
  6
Continuous
 62
     7
100
AcDbLine
 10
88.7771832553
 20
252.6130471459
 30
0.0
 11
88.1579396413
 21
252.4471213196
 31
0.0
  0
LINE
  5
A2
330
1F
100
AcDbEntity
  8
RUNDUNGEN
  6
Continuous
 62
     7
100
AcDbLine
 10
163.4800183285
 20
263.8293713196
 30
0.0
 11
135.6579396413
 21
263.8293713196
 31
0.0
  0
LINE
  5
A3
330
1F
100
AcDbEntity
  8
0
  6
Continuous
 62
     7
100
AcDbLine
 10
135.6579396413
 20
263.8293713196
 30
0.0
 11
163.4800183285
 21
263.8293713196
 31
0.0
  0
LINE
  5
A4
330
1F
100
AcDbEntity
  8
0
  6
Continuous
 62
     9
100
AcDbLine
 10
111.5329396413
 20
244.3293713196
 30
0.0
 11
111.5329396413
 21
256.8069907359
 31
0.0
  0
LINE
  5
A5
330
1F
100
AcDbEntity
  8
0
  6
Continuous
 62
     9
100
AcDbLine
 10
111.5329396413
 20
258.8293713196
 30
0.0
 11
111.5329396413
 21
280.3293713196
 31
0.0
  0
LINE
  5
A6
330
1F
100
AcDbEntity
  8
0
  6
Continuous
 62
     9
100
AcDbLine
 10
111.5329396413
 20
300.3293713196
 30
0.0
 11
111.5329396413
 21
336.3293713196
 31
0.0
  0
LINE
  5
A7
330
1F
100
AcDbEntity
  8
0
  6
Continuous
 62
     7
100
AcDbLine
 10
112.5329396413
 20
242.7068135894
 30
0.0
 11
112.5329396413
 21
255.4474275664
 31
0.0
  0
LINE
  5
A8
330
1F
100
AcDbEntity
  8
0
  6
Continuous
 62
     7
100
AcDbLine
 10
112.5329396413
 20
258.8293713196
 30
0.0
 11
112.5329396413
 21
280.3293713196
 31
0.0
  0
LINE
  5
A9
330
1F
100
AcDbEntity
  8
0
  6
Continuous
 62
     7
100
AcDbLine
 10
112.5329396413
 20
300.3293713196
 30
0.0
 11
112.5329396413
 21
337.9519331573
 31
0.0
  0
LINE
  5
AA
330
1F
100
AcDbEntity
  8
0
  6
Continuous
 62
     7
100
AcDbLine
 10
113.9055349055
 20
340.3293713196
 30
0.0
 11
113.9055349055
 21
300.3293713196
 31
0.0
  0
LINE
  5
AB
330
1F
100
AcDbEntity
  8
0
  6
Continuous
 62
     7
100
AcDbLine
 10
113.9055349055
 20
280.3293713196
 30
0.0
 11
113.9055349055
 21
258.8293713196
 31
0.0
  0
LINE
  5
AC
330
1F
100
AcDbEntity
  8
0
  6
Continuous
 62
     7
100
AcDbLine
 10
113.9055349055
 20
251.4996146889
 30
0.0
 11
113.9055349055
 21
240.3293713196
 31
0.0
  0
LINE
  5
AD
330
1F
100
AcDbEntity
  8
BEZUGSACHSEN
  6
Continuous
 62
     9
100
AcDbLine
 10
50.2117855882
 20
275.3193713196
 30
0.0
 11
41.9248925683
 21
275.3193713196
 31
0.0
  0
LINE
  5
AE
330
1F
100
AcDbEntity
  8
0
  6
Continuous
 62
     7
100
AcDbLine
 10
119.6579396413
 20
340.3293343985
 30
0.0
 11
119.6579396413
 21
300.3293713196
 31
0.0
  0
LINE
  5
AF
330
1F
100
AcDbEntity
  8
0
  6
Continuous
 62
     7
100
AcDbLine
 10
119.6579396413
 20
280.3293713196
 30
0.0
 11
119.6579396413
 21
258.8293713196
 31
0.0
  0
LINE
  5
B0
330
1F
100
AcDbEntity
  8
0
  6
Continuous
 62
     7
100
AcDbLine
 10
119.6579396413
 20
251.4996146889
 30
0.0
 11
119.6579396413
 21
240.3293731874
 31
0.0
  0
LINE
  5
B1
330
1F
100
AcDbEntity
  8
FASEN
  6
Continuous
 62
     7
100
AcDbLine
 10
119.6579396413
 20
251.4996146889
 30
0.0
 11
119.6579396413
 21
258.8293713196
 31
0.0
  0
LINE
  5
B2
330
1F
100
AcDbEntity
  8
FASEN
  6
Continuous
 62
     7
100
AcDbLine
 10
119.6579396413
 20
280.3293713196
 30
0.0
 11
119.6579396413
 21
300.3293713196
 31
0.0
  0
LWPOLYLINE
  5
B3
330
1F
100
AcDbEntity
  8
DEFAULT_2
  6
DASHED
 62
     8
100
AcDbPolyline
 90
        2
 70
     0
 43
0.35
 10
220.6579396413
 20
277.8293713196
 10
162.6579396413
 20
277.8293713196
  0
LINE
  5
B4
330
1F
100
AcDbEntity
  8
BEZUGSACHSEN
  6
Continuous
 62
     7
100
AcDbLine
 10
48.6579396413
 20
280.3193713196
 30
0.0
 11
42.6579396413
 21
280.3193713196
 31
0.0
  0
LINE
  5
B5
330
1F
100
AcDbEntity
  8
0
  6
Continuous
 62
     7
100
AcDbLine
 10
105.6579396413
 20
280.3293713196
 30
0.0
 11
119.6579396413
 21
280.3293713196
 31
0.0
  0
LINE
  5
B6
330
1F
100
AcDbEntity
  8
FASEN
  6
Continuous
 62
     7
100
AcDbLine
 10
119.6579396413
 20
280.7293713196
 30
0.0
 11
105.6579396413
 21
280.7293713196
 31
0.0
  0
LWPOLYLINE
  5
B7
330
1F
100
AcDbEntity
  8
BEZUGSACHSEN
  6
DOT_CENTER
 62
     7
100
AcDbPolyline
 90
        2
 70
     0
 43
0.25
 10
223.6579396413
 20
290.3293713196
 10
37.6579396413
 20
290.3293713196
  0
LINE
  5
B8
330
1F
100
AcDbEntity
  8
RUNDUNGEN
  6
Continuous
 62
     9
100
AcDbLine
 10
135.6579396413
 20
316.8293713196
 30
0.0
 11
135.6579396413
 21
263.8293713196
 31
0.0
  0
LINE
  5
B9
330
1F
100
AcDbEntity
  8
BEZUGSACHSEN
  6
Continuous
 62
     7
100
AcDbLine
 10
107.4103443771
 20
240.3293713196
 30
0.0
 11
108.7829396413
 21
242.7067760554
 31
0.0
  0
LINE
  5
BA
330
1F
100
AcDbEntity
  8
BEZUGSACHSEN
  6
Continuous
 62
     7
100
AcDbLine
 10
107.4103443771
 20
340.3293713196
 30
0.0
 11
108.7829396413
 21
337.9519665838
 31
0.0
  0
LINE
  5
BB
330
1F
100
AcDbEntity
  8
FASEN
  6
Continuous
 62
     7
100
AcDbLine
 10
105.6579396413
 20
299.9293713196
 30
0.0
 11
119.6579396413
 21
299.9293713196
 31
0.0
  0
LINE
  5
BC
330
1F
100
AcDbEntity
  8
0
  6
Continuous
 62
     7
100
AcDbLine
 10
105.6579396413
 20
300.3293713196
 30
0.0
 11
119.6579396413
 21
300.3293713196
 31
0.0
  0
LINE
  5
BD
330
1F
100
AcDbEntity
  8
BEZUGSACHSEN
  6
Continuous
 62
     7
100
AcDbLine
 10
48.6579396413
 20
300.3393713196
 30
0.0
 11
42.6579396413
 21
300.3393713196
 31
0.0
  0
LWPOLYLINE
  5
BE
330
1F
100
AcDbEntity
  8
DEFAULT_2
  6
DASHED
 62
     8
100
AcDbPolyline
 90
        2
 70
     0
 43
0.35
 10
220.6579396413
 20
302.8293713196
 10
162.6579396413
 20
302.8293713196
  0
LINE
  5
BF
330
1F
100
AcDbEntity
  8
BEZUGSACHSEN
  6
Continuous
 62
     9
100
AcDbLine
 10
41.9248925683
 20
305.3393713196
 30
0.0
 11
50.2117855882
 21
305.3393713196
 31
0.0
  0
LINE
  5
C0
330
1F
100
AcDbEntity
  8
RUNDUNGEN
  6
Continuous
 62
     7
100
AcDbLine
 10
163.4800183285
 20
316.8293713196
 30
0.0
 11
135.6579396413
 21
316.8293713196
 31
0.0
  0
LINE
  5
C1
330
1F
100
AcDbEntity
  8
0
  6
Continuous
 62
     7
100
AcDbLine
 10
135.6579396413
 20
316.8293713196
 30
0.0
 11
163.4800183285
 21
316.8293713196
 31
0.0
  0
LINE
  5
C2
330
1F
100
AcDbEntity
  8
BEZUGSACHSEN
  6
Continuous
 62
     7
100
AcDbLine
 10
88.7771832553
 20
328.0456954933
 30
0.0
 11
88.1579396413
 21
328.2116213196
 31
0.0
  0
LWPOLYLINE
  5
C3
330
1F
100
AcDbEntity
  8
DEFAULT_2
  6
DASHED
 62
     8
100
AcDbPolyline
 90
        2
 70
     0
 43
0.35
 10
162.6579396413
 20
302.8293713196
 10
162.6579396413
 20
277.8293713196
  0
LINE
  5
C4
330
1F
100
AcDbEntity
  8
0
  6
Continuous
 62
     7
100
AcDbLine
 10
163.4800183285
 20
316.8293713196
 30
0.0
 11
163.4800183285
 21
263.8293713196
 31
0.0
  0
LINE
  5
C5
330
1F
100
AcDbEntity
  8
RUNDUNGEN
  6
Continuous
 62
     7
100
AcDbLine
 10
219.7363987371
 20
312.4018981617
 30
0.0
 11
163.4800183285
 21
316.8293713196
 31
0.0
  0
LINE
  5
C6
330
1F
100
AcDbEntity
  8
0
  6
Continuous
 62
     7
100
AcDbLine
 10
163.4800183285
 20
316.8293713196
 30
0.0
 11
219.7363987371
 21
312.4018981617
 31
0.0
  0
LINE
  5
C7
330
1F
100
AcDbEntity
  8
BEZUGSACHSEN
  6
Continuous
 62
     7
100
AcDbLine
 10
88.1579396413
 20
328.2116213196
 30
0.0
 11
42.5578651566
 21
325.9270575879
 31
0.0
  0
LINE
  5
C8
330
1F
100
AcDbEntity
  8
BEZUGSACHSEN
  6
Continuous
 62
     7
100
AcDbLine
 10
89.9573683526
 20
328.0116213196
 30
0.0
 11
89.0360023004
 21
328.0116213196
 31
0.0
  0
LINE
  5
C9
330
1F
100
AcDbEntity
  8
BEZUGSACHSEN
  6
Continuous
 62
     7
100
AcDbLine
 10
109.7829396413
 20
336.3293713196
 30
0.0
 11
111.5329396413
 21
336.3293713196
 31
0.0
  0
LINE
  5
CA
330
1F
100
AcDbEntity
  8
BEZUGSACHSEN
  6
Continuous
 62
     7
100
AcDbLine
 10
107.4103443771
 20
340.3293713196
 30
0.0
 11
102.6579396413
 21
340.3293713196
 31
0.0
  0
LINE
  5
CB
330
1F
100
AcDbEntity
  8
BEZUGSACHSEN
  6
Continuous
 62
     7
100
AcDbLine
 10
92.6579396413
 20
340.3293713196
 30
0.0
 11
90.6579396413
 21
340.3293713196
 31
0.0
  0
LINE
  5
CC
330
1F
100
AcDbEntity
  8
BEZUGSACHSEN
  6
Continuous
 62
     7
100
AcDbLine
 10
113.9055349055
 20
340.3293713196
 30
0.0
 11
119.6579396413
 21
340.3293713196
 31
0.0
  0
LINE
  5
CD
330
1F
100
AcDbEntity
  8
RUNDUNGEN
  6
Continuous
 62
     9
100
AcDbLine
 10
219.7363987371
 20
268.2568444775
 30
0.0
 11
219.7363987371
 21
312.4018981617
 31
0.0
  0
LINE
  5
CE
330
1F
100
AcDbEntity
  8
RUNDUNGEN
  6
Continuous
 62
     7
100
AcDbLine
 10
220.6579396413
 20
269.2537618113
 30
0.0
 11
220.6579396413
 21
311.4049808279
 31
0.0
  0
LWPOLYLINE
  5
CF
330
1F
100
AcDbEntity
  8
1
  6
Continuous
 62
     7
100
AcDbPolyline
 90
        2
 70
     0
 43
0.25
 10
220.6579396413
 20
311.4049808279
 10
220.6579396413
 20
312.3293713195681
  0
LWPOLYLINE
  5
D0
330
1F
100
AcDbEntity
  8
1
  6
Continuous
 62
     7
100
AcDbPolyline
 90
        2
 70
     0
 43
0.25
 10
219.7363987371
 20
312.4018981617
 10
220.6579396413105
 20
312.3293713195681
  0
LWPOLYLINE
  5
D1
330
1F
100
AcDbEntity
  8
1
  6
Continuous
 62
     7
100
AcDbPolyline
 90
        2
 70
     0
 43
0.25
 10
219.7363987371
 20
268.2568444775
 10
220.6579396413
 20
268.3293713196417
  0
LWPOLYLINE
  5
D2
330
1F
100
AcDbEntity
  8
1
  6
Continuous
 62
     7
100
AcDbPolyline
 90
        2
 70
     0
 43
0.25
 10
220.6579396413
 20
269.2537618113
 10
220.6579396413
 20
268.3293713196417
  0
ARC
  5
D3
330
1F
100
AcDbEntity
  8
FASEN
  6
Continuous
 62
     7
100
AcDbCircle
 10
108.5585936642
 20
265.8606345896
 30
0.0
 40
19.03859487300018
100
AcDbArc
 50
227.4837701983004
 51
228.9651953375289
  0
ARC
  5
D4
330
1F
100
AcDbEntity
  8
FASEN
  6
Continuous
 62
     7
100
AcDbCircle
 10
103.6298135632
 20
250.8293713196
 30
0.0
 40
8.0
100
AcDbArc
 50
90.0
 51
172.8323734889969
  0
ARC
  5
D5
330
1F
100
AcDbEntity
  8
FASEN
  6
Continuous
 62
     7
100
AcDbCircle
 10
103.6298135632
 20
250.8293713196
 30
0.0
 40
7.599982194900008
100
AcDbArc
 50
90.0
 51
174.9405171273015
  0
ARC
  5
D6
330
1F
100
AcDbEntity
  8
BEZUGSACHSEN
  6
Continuous
 62
     7
100
AcDbCircle
 10
48.6579396413
 20
282.3193713196
 30
0.0
 40
2.0
100
AcDbArc
 50
270.0
 51
355.2355361864946
  0
ARC
  5
D7
330
1F
100
AcDbEntity
  8
BEZUGSACHSEN
  6
Continuous
 62
     7
100
AcDbCircle
 10
42.6579396413
 20
256.7291797565
 30
0.0
 40
2.0
100
AcDbArc
 50
179.9999999971356
 51
267.1318795135587
  0
ARC
  5
D8
330
1F
100
AcDbEntity
  8
BEZUGSACHSEN
  6
Continuous
 62
     7
100
AcDbCircle
 10
109.7829396413
 20
243.3293713196
 30
0.0
 40
1.0
100
AcDbArc
 50
90.0
 51
180.0
  0
ARC
  5
D9
330
1F
100
AcDbEntity
  8
BEZUGSACHSEN
  6
Continuous
 62
     7
100
AcDbCircle
 10
89.0360023004
 20
251.6471213196
 30
0.0
 40
1.0
100
AcDbArc
 50
90.0
 51
104.9999999996981
  0
ARC
  5
DA
330
1F
100
AcDbEntity
  8
BEZUGSACHSEN
  6
Continuous
 62
     7
100
AcDbCircle
 10
89.9573683526
 20
251.6471213196
 30
0.0
 40
0.999999999999833
100
AcDbArc
 50
45.49026120128803
 51
90.0
  0
ARC
  5
DB
330
1F
100
AcDbEntity
  8
0
  6
Continuous
 62
     7
100
AcDbCircle
 10
-133.9398402412
 20
359.76383891
 30
0.0
 40
264.5204223901892
100
AcDbArc
 50
335.840076470599
 51
336.5770705490999
  0
ARC
  5
DC
330
1F
100
AcDbEntity
  8
BEZUGSACHSEN
  6
Continuous
 62
     7
100
AcDbCircle
 10
97.6731476525
 20
390.3821410864
 30
0.0
 40
50.3034002103998
100
AcDbArc
 50
264.2781515102
 51
269.9826780125999
  0
ARC
  5
DD
330
1F
100
AcDbEntity
  8
BEZUGSACHSEN
  6
Continuous
 62
     7
100
AcDbCircle
 10
97.6427316403
 20
390.3821408856
 30
0.0
 40
50.30340000959742
100
AcDbArc
 50
270.017321976058
 51
275.7218485011659
  0
ARC
  5
DE
330
1F
100
AcDbEntity
  8
0
  6
Continuous
 62
     7
100
AcDbCircle
 10
105.6579396413
 20
290.3293713196
 30
0.0
 40
10.0
100
AcDbArc
 50
90.0
 51
270.0
  0
ARC
  5
DF
330
1F
100
AcDbEntity
  8
FASEN
  6
Continuous
 62
     7
100
AcDbCircle
 10
105.6579396413
 20
290.3293713196
 30
0.0
 40
9.599999195900011
100
AcDbArc
 50
90.0
 51
270.0
  0
ARC
  5
E0
330
1F
100
AcDbEntity
  8
BEZUGSACHSEN
  6
Continuous
 62
     7
100
AcDbCircle
 10
48.6579396413
 20
298.3393713196
 30
0.0
 40
1.999999999999992
100
AcDbArc
 50
4.76446378498877
 51
90.0
  0
ARC
  5
E1
330
1F
100
AcDbEntity
  8
BEZUGSACHSEN
  6
Continuous
 62
     7
100
AcDbCircle
 10
42.6579396413
 20
323.9295628827
 30
0.0
 40
1.999999999947484
100
AcDbArc
 50
92.86812048644138
 51
180.0000000143238
  0
ARC
  5
E2
330
1F
100
AcDbEntity
  8
BEZUGSACHSEN
  6
Continuous
 62
     7
100
AcDbCircle
 10
109.7829396413
 20
337.3293713196
 30
0.0
 40
1.0
100
AcDbArc
 50
180.0
 51
270.0
  0
ARC
  5
E3
330
1F
100
AcDbEntity
  8
BEZUGSACHSEN
  6
Continuous
 62
     7
100
AcDbCircle
 10
89.0360023004
 20
329.0116213196
 30
0.0
 40
1.000000000009914
100
AcDbArc
 50
255.0000000003019
 51
270.0
  0
ARC
  5
E4
330
1F
100
AcDbEntity
  8
BEZUGSACHSEN
  6
Continuous
 62
     7
100
AcDbCircle
 10
89.9573683526
 20
329.0116213196
 30
0.0
 40
1.0
100
AcDbArc
 50
270.0
 51
314.5097387987131
  0
ARC
  5
E5
330
1F
100
AcDbEntity
  8
BEZUGSACHSEN
  6
Continuous
 62
     7
100
AcDbCircle
 10
226.9879862438
 20
-1315.7133880081
 30
0.0
 40
1632.1727637359
100
AcDbArc
 50
96.2726189838
 51
96.48809068979999
  0
ARC
  5
E6
330
1F
100
AcDbEntity
  8
RUNDUNGEN
  6
Continuous
 62
     7
100
AcDbCircle
 10
135.6579396413
 20
247.8293713196
 30
0.0
 40
16.0
100
AcDbArc
 50
90.0
 51
180.0
  0
ARC
  5
E7
330
1F
100
AcDbEntity
  8
RUNDUNGEN
  6
Continuous
 62
     7
100
AcDbCircle
 10
219.6579396413
 20
269.2537618113
 30
0.0
 40
1.000000000072339
100
AcDbArc
 50
274.5000000038199
 51
0.0
  0
ARC
  5
E8
330
1F
100
AcDbEntity
  8
BEZUGSACHSEN
  6
Continuous
 62
     7
100
AcDbCircle
 10
111.5329396413
 20
243.3293713196
 30
0.0
 40
1.0
100
AcDbArc
 50
0.0
 51
90.0
  0
ARC
  5
E9
330
1F
100
AcDbEntity
  8
BEZUGSACHSEN
  6
Continuous
 62
     7
100
AcDbCircle
 10
226.9879862448
 20
1896.3721306565
 30
0.0
 40
1632.1727637452
100
AcDbArc
 50
263.5119093102
 51
263.7273810162
  0
ARC
  5
EA
330
1F
100
AcDbEntity
  8
0
  6
Continuous
 62
     7
100
AcDbCircle
 10
355.2557195238
 20
359.76383891
 30
0.0
 40
264.5204223902001
100
AcDbArc
 50
203.4229294508999
 51
204.1599235294009
  0
ARC
  5
EB
330
1F
100
AcDbEntity
  8
RUNDUNGEN
  6
Continuous
 62
     7
100
AcDbCircle
 10
135.6579396413
 20
332.8293713196
 30
0.0
 40
16.0
100
AcDbArc
 50
180.0
 51
270.0
  0
ARC
  5
EC
330
1F
100
AcDbEntity
  8
RUNDUNGEN
  6
Continuous
 62
     7
100
AcDbCircle
 10
219.6579396413
 20
311.4049808279
 30
0.0
 40
1.0
100
AcDbArc
 50
0.0
 51
85.49999999618008
  0
ARC
  5
ED
330
1F
100
AcDbEntity
  8
BEZUGSACHSEN
  6
Continuous
 62
     7
100
AcDbCircle
 10
111.5329396413
 20
337.3293713196
 30
0.0
 40
1.0
100
AcDbArc
 50
270.0
 51
0.0
  0
CIRCLE
  5
EE
330
1F
100
AcDbEntity
  8
BEZUGSACHSEN
  6
Continuous
 62
     7
100
AcDbCircle
 10
75.6579396413
 20
290.3293713196
 30
0.0
 40
6.0
  0
SPLINE
  5
EF
330
1F
100
AcDbEntity
  8
BEZUGSACHSEN
  6
Continuous
 62
     7
100
AcDbSpline
210
0.0
220
0.0
230
1.0
 70
     8
 71
     3
 72
    19
 73
    15
 74
    13
 42
0.0000000001
 43
0.0000000001
 44
0.00000001
 40
0.0
 40
0.0
 40
0.0
 40
0.0
 40
0.146238598863309
 40
0.2927479275636368
 40
0.436479070671734
 40
0.5801659236748677
 40
0.7203799973224668
 40
0.8606059383249275
 40
0.9980411884486489
 40
1.135484020477985
 40
1.4054156311219
 40
1.675815514119578
 40
1.943997429555428
 40
2.211934834782281
 40
2.211934834782281
 40
2.211934834782281
 40
2.211934834782281
 10
48.6579396413
 20
306.688018907
 30
0.0
 10
48.70665444666675
 20
306.6913269843474
 30
0.0
 10
48.80417424255943
 20
306.6979492632476
 30
0.0
 10
48.9495105028911
 20
306.6815899504899
 30
0.0
 10
49.09016743999948
 20
306.6464181844193
 30
0.0
 10
49.22301957343729
 20
306.5936124977883
 30
0.0
 10
49.34747403649921
 20
306.5259407100429
 30
0.0
 10
49.46227659366515
 20
306.4466405086387
 30
0.0
 10
49.5683865314323
 20
306.3575558690459
 30
0.0
 10
49.69748899658272
 20
306.2296083334648
 30
0.0
 10
49.84052884646119
 20
306.0538060445557
 30
0.0
 10
49.98543644815633
 20
305.826120578677
 30
0.0
 10
50.11007319659889
 20
305.5874579592067
 30
0.0
 10
50.17789176776729
 20
305.4220417187738
 30
0.0
 10
50.2117855882
 20
305.3393713196
 30
0.0
 11
48.6579396413
 21
306.688018907
 31
0.0
 11
48.8040735032044
 21
306.693552640135
 31
0.0
 11
48.94978286404854
 21
306.6782632464709
 31
0.0
 11
49.0892129455743
 21
306.6433649103375
 31
0.0
 11
49.22284528248507
 21
306.5905604573273
 31
0.0
 11
49.34615907330244
 21
306.5238244442376
 31
0.0
 11
49.46169018463014
 21
306.4443519531139
 31
0.0
 11
49.56710273439299
 21
306.3561666803691
 31
0.0
 11
49.66489123806049
 21
306.2595854160022
 31
0.0
 11
49.83613963392176
 21
306.0509300510107
 31
0.0
 11
49.98248205445232
 21
305.8235537270928
 31
0.0
 11
50.10634968025909
 21
305.5856916850519
 31
0.0
 11
50.2117855882
 21
305.3393713196
 31
0.0
  0
SPLINE
  5
F0
330
1F
100
AcDbEntity
  8
BEZUGSACHSEN
  6
Continuous
 62
     7
100
AcDbSpline
210
0.0
220
0.0
230
1.0
 70
     8
 71
     3
 72
    11
 73
     7
 74
     5
 42
0.0000000001
 43
0.0000000001
 44
0.00000001
 40
0.0
 40
0.0
 40
0.0
 40
0.0
 40
0.5521269407035837
 40
1.105196183339654
 40
1.651906304698611
 40
2.198197048720033
 40
2.198197048720033
 40
2.198197048720033
 40
2.198197048720033
 10
50.6579396413
 20
277.4597157938
 30
0.0
 10
50.65135420367224
 20
277.2755806033891
 30
0.0
 10
50.63817208920678
 20
276.9069959634124
 30
0.0
 10
50.54068372540955
 20
276.363571558727
 30
0.0
 10
50.40104641237707
 20
275.83229742921
 30
0.0
 10
50.27485639016154
 20
275.4903029491159
 30
0.0
 10
50.2117855882
 20
275.3193713196
 30
0.0
 11
50.6579396413
 21
277.4597157938
 31
0.0
 11
50.62519505887319
 21
276.908560687707
 31
0.0
 11
50.53312840592982
 21
276.3632082158451
 31
0.0
 11
50.3926369210964
 21
275.8348578590878
 31
0.0
 11
50.2117855882
 21
275.3193713196
 31
0.0
  0
SPLINE
  5
F1
330
1F
100
AcDbEntity
  8
BEZUGSACHSEN
  6
Continuous
 62
     7
100
AcDbSpline
210
0.0
220
0.0
230
1.0
 70
     8
 71
     3
 72
    19
 73
    15
 74
    13
 42
0.0000000001
 43
0.0000000001
 44
0.00000001
 40
0.0
 40
0.0
 40
0.0
 40
0.0
 40
0.267941164301008
 40
0.5361267936528478
 40
0.8065304773370868
 40
1.076465993228367
 40
1.213913376164061
 40
1.351353104897028
 40
1.491586367053726
 40
1.631807897516363
 40
1.775491562719511
 40
1.91921920469817
 40
2.065713007339569
 40
2.211936409351657
 40
2.211936409351657
 40
2.211936409351657
 40
2.211936409351657
 10
50.2117855882
 20
275.3193713196
 30
0.0
 10
50.17789134443535
 20
275.2366997398939
 30
0.0
 10
50.11007193236318
 20
275.071281152311
 30
0.0
 10
49.98543342607069
 20
274.8326151786551
 30
0.0
 10
49.84052262672884
 20
274.6049271826406
 30
0.0
 10
49.69747899518373
 20
274.4291226913148
 30
0.0
 10
49.56837260825791
 20
274.3011729721828
 30
0.0
 10
49.46225750919051
 20
274.2120859513713
 30
0.0
 10
49.34744808156257
 20
274.1327843110459
 30
0.0
 10
49.2229884693522
 20
274.0651138436109
 30
0.0
 10
49.09013491423147
 20
274.0123111569316
 30
0.0
 10
48.9494841153567
 20
273.9771448929436
 30
0.0
 10
48.80415873223118
 20
273.960792691061
 30
0.0
 10
48.70664931315627
 20
273.9674154244271
 30
0.0
 10
48.6579396413
 20
273.9707237322
 30
0.0
 11
50.2117855882
 21
275.3193713196
 31
0.0
 11
50.10634832856857
 21
275.0730474437609
 31
0.0
 11
49.98247881300443
 21
274.8351821984964
 31
0.0
 11
49.83613332668708
 21
274.6078033279201
 31
0.0
 11
49.66488113553
 21
274.3991460257153
 31
0.0
 11
49.56708869682402
 21
274.3025622692766
 31
0.0
 11
49.46167170755773
 21
274.214375323484
 31
0.0
 11
49.34613306386616
 21
274.1349008645112
 31
0.0
 11
49.22281105400462
 21
274.0681643715782
 31
0.0
 11
49.08918036581984
 21
274.0153644206173
 31
0.0
 11
48.94975266461422
 21
273.9804709942269
 31
0.0
 11
48.80405822608355
 21
273.9651881674737
 31
0.0
 11
48.6579396413
 21
273.9707237322
 31
0.0
  0
SPLINE
  5
F2
330
1F
100
AcDbEntity
  8
BEZUGSACHSEN
  6
Continuous
 62
     7
100
AcDbSpline
210
0.0
220
0.0
230
1.0
 70
     8
 71
     3
 72
    47
 73
    43
 74
    41
 42
0.0000000001
 43
0.0000000001
 44
0.00000001
 40
0.0
 40
0.0
 40
0.0
 40
0.0
 40
0.6366022432335553
 40
1.273595002182802
 40
1.592921746402414
 40
1.912076344897139
 40
2.231392290450019
 40
2.550826842773445
 40
3.18977432119912
 40
3.829081697019187
 40
4.468337152530824
 40
5.107221744808758
 40
5.426176341299895
 40
5.745033356846677
 40
6.06335673162546
 40
6.381780214938515
 40
7.017059195731585
 40
7.652639341047719
 40
8.287532214287342
 40
8.92234794654928
 40
9.559226748633616
 40
10.19613435943236
 40
10.83451785509482
 40
11.47287689980531
 40
12.11234487372438
 40
12.75189588955634
 40
13.39354300525453
 40
14.03487957361732
 40
14.35615205779251
 40
14.67732107721051
 40
14.99840882482003
 40
15.31959604131171
 40
15.96011121036653
 40
16.60099592099036
 40
17.23809108088745
 40
17.8748255521135
 40
18.19205670344167
 40
18.50917199111009
 40
18.82571084637316
 40
19.14241581834066
 40
19.77338975001945
 40
20.40398930748756
 40
20.40398930748756
 40
20.40398930748756
 40
20.40398930748756
 10
69.158524047
 20
290.3293713001
 30
0.0
 10
69.16452969088529
 20
290.5416511098125
 30
0.0
 10
69.17654466274328
 20
290.9663409496424
 30
0.0
 10
69.25781000795808
 20
291.4924837107582
 30
0.0
 10
69.35052960455968
 20
291.9074580868692
 30
0.0
 10
69.43582256870394
 20
292.2152820625676
 30
0.0
 10
69.53606118214135
 20
292.5185747393622
 30
0.0
 10
69.68954673128916
 20
292.916012101917
 30
0.0
 10
69.91801867806325
 20
293.3981116788011
 30
0.0
 10
70.24763363862442
 20
293.9469275516321
 30
0.0
 10
70.6298608557162
 20
294.4604630909754
 30
0.0
 10
70.98871555284168
 20
294.8549658530599
 30
0.0
 10
71.29766890640833
 20
295.1478391511066
 30
0.0
 10
71.53956401538353
 20
295.3555609722215
 30
0.0
 10
71.7912072688692
 20
295.5510703693541
 30
0.0
 10
72.138501376026
 20
295.7945655720289
 30
0.0
 10
72.59424171078646
 20
296.0664476420736
 30
0.0
 10
73.16972113547621
 20
296.3377767545892
 30
0.0
 10
73.76883190063887
 20
296.5515603854031
 30
0.0
 10
74.38628230310174
 20
296.7062501167749
 30
0.0
 10
75.0165528648012
 20
296.8000571004264
 30
0.0
 10
75.65414679953156
 20
296.8321838252323
 30
0.0
 10
76.29232544376426
 20
296.8017542522829
 30
0.0
 10
76.92533786495741
 20
296.7090829971188
 30
0.0
 10
77.54657154939056
 20
296.5545910358923
 30
0.0
 10
78.15070730135449
 20
296.3395539033535
 30
0.0
 10
78.73118637491085
 20
296.0656305376136
 30
0.0
 10
79.19081539912617
 20
295.79046365955
 30
0.0
 10
79.54071438780993
 20
295.5438539607022
 30
0.0
 10
79.79384601698224
 20
295.3459497683355
 30
0.0
 10
80.03684465634805
 20
295.1357712389323
 30
0.0
 10
80.34608899985511
 20
294.8402518987751
 30
0.0
 10
80.70440919065
 20
294.4427809160112
 30
0.0
 10
81.08435960897819
 20
293.9271141544577
 30
0.0
 10
81.41083263854931
 20
293.3775179979801
 30
0.0
 10
81.63620377851107
 20
292.8964124562683
 30
0.0
 10
81.78729476166201
 20
292.5004222686514
 30
0.0
 10
81.885707679211
 20
292.1989959178688
 30
0.0
 10
81.9693744573831
 20
291.893300549952
 30
0.0
 10
82.06019381482639
 20
291.4817485322363
 30
0.0
 10
82.13970879049972
 20
290.9603233157143
 30
0.0
 10
82.15148107511547
 20
290.5396470265553
 30
0.0
 10
82.1573654707
 20
290.3293713002
 30
0.0
 11
69.158524047
 21
290.3293713001
 31
0.0
 11
69.1897727180398
 21
290.9652061345092
 31
0.0
 11
69.2832139204134
 21
291.5953081235973
 31
0.0
 11
69.35315442744785
 21
291.9068813815153
 31
0.0
 11
69.43829576642399
 21
292.2144697592829
 31
0.0
 11
69.53852030456194
 21
292.5176491039609
 31
0.0
 11
69.65360019431398
 21
292.8156340904832
 31
0.0
 11
69.9271960885583
 21
293.3930413703466
 31
0.0
 11
70.25641560223644
 21
293.9410636624036
 31
0.0
 11
70.63803985758383
 21
294.4539091217108
 31
0.0
 11
71.06797449371263
 21
294.9264868728872
 31
0.0
 11
71.29944675477375
 21
295.1459239412737
 31
0.0
 11
71.54134915580103
 21
295.3536570025341
 31
0.0
 11
71.79272296295552
 21
295.54895416075
 31
0.0
 11
72.05345224124743
 21
295.7317484663687
 31
0.0
 11
72.59898588545725
 21
296.0572825298285
 31
0.0
 11
73.17389570557597
 21
296.3282821974503
 31
0.0
 11
73.77184189332284
 21
296.5417050571665
 31
0.0
 11
74.38763442554634
 21
296.6959469813798
 31
0.0
 11
75.01756670752398
 21
296.7897549163684
 31
0.0
 11
75.65366982926164
 21
296.8217568414506
 31
0.0
 11
76.29133078828036
 21
296.7913925716991
 31
0.0
 11
76.92294832119093
 21
296.6988638621887
 31
0.0
 11
77.54352119331334
 21
296.5445635055659
 31
0.0
 11
78.1460220004497
 21
296.3300447901779
 31
0.0
 11
78.72632919679585
 21
296.0562664510919
 31
0.0
 11
79.27655418483877
 21
295.7267743321383
 31
0.0
 11
79.53916148900903
 21
295.5416975564896
 31
0.0
 11
79.7921819464256
 21
295.3438840403624
 31
0.0
 11
80.03503024780086
 21
295.1338315607671
 31
0.0
 11
80.26723268320946
 21
294.9119233431906
 31
0.0
 11
80.6961487409412
 21
294.4362231253967
 31
0.0
 11
81.07625939959664
 21
293.9202298119827
 31
0.0
 11
81.40169854528268
 21
293.3725258725963
 31
0.0
 11
81.67177940337827
 21
292.7959089140026
 31
0.0
 11
81.78486984855668
 21
292.4995203943491
 31
0.0
 11
81.883313951895
 21
292.1980724482773
 31
0.0
 11
81.96679675727063
 21
291.8927407137689
 31
0.0
 11
82.03534618071467
 21
291.5835433402121
 31
0.0
 11
82.12677325863919
 21
290.9592283621118
 31
0.0
 11
82.1573654707
 21
290.3293713002
 31
0.0
  0
SPLINE
  5
F3
330
1F
100
AcDbEntity
  8
BEZUGSACHSEN
  6
Continuous
 62
     7
100
AcDbSpline
210
0.0
220
0.0
230
1.0
 70
     8
 71
     3
 72
    47
 73
    43
 74
    41
 42
0.0000000001
 43
0.0000000001
 44
0.00000001
 40
0.0
 40
0.0
 40
0.0
 40
0.0
 40
0.6302393214445833
 40
1.260854867298405
 40
1.57747608839128
 40
1.893930800232163
 40
2.210999113882231
 40
2.528183472218688
 40
3.164887038244772
 40
3.801951183384118
 40
4.442851001615126
 40
5.083381259775399
 40
5.404527292279353
 40
5.725573838712492
 40
6.046670709992156
 40
6.367871027129827
 40
7.009090242525726
 40
7.650619763920972
 40
8.290330346442184
 40
8.929958764428394
 40
9.568647011317664
 40
10.20735923012213
 40
10.84445705813908
 40
11.48152626492456
 40
12.11643462218333
 40
12.75141965575052
 40
13.38691908733768
 40
14.02211738528517
 40
14.34050449141169
 40
14.65879153790779
 40
14.97761586867289
 40
15.29653774943816
 40
15.93537694101119
 40
16.57458694068429
 40
17.21386274992531
 40
17.85277859075694
 40
18.17219860085187
 40
18.49150024079842
 40
18.81067156638817
 40
19.13001452424091
 40
19.76719627025525
 40
20.40398968275492
 40
20.40398968275492
 40
20.40398968275492
 40
20.40398968275492
 10
82.1573532791
 20
290.3293713383
 30
0.0
 10
82.15148407736544
 20
290.119215316415
 30
0.0
 10
82.13974217024798
 20
289.698777818992
 30
0.0
 10
82.06029542772418
 20
289.1776143767344
 30
0.0
 10
81.96956392263282
 20
288.7662229093079
 30
0.0
 10
81.8859585403138
 20
288.4605850690071
 30
0.0
 10
81.78760659893817
 20
288.1592012228115
 30
0.0
 10
81.63658778808338
 20
287.7632280432211
 30
0.0
 10
81.41130520047633
 20
287.2821212345501
 30
0.0
 10
81.08492716572356
 20
286.7324870095583
 30
0.0
 10
80.705060103706
 20
286.2167591468838
 30
0.0
 10
80.34680566443393
 20
285.819233744672
 30
0.0
 10
80.03762492675571
 20
285.5236803897598
 30
0.0
 10
79.79469997072059
 20
285.3134954813406
 30
0.0
 10
79.54165106739897
 20
285.1155860170113
 30
0.0
 10
79.19186855894434
 20
284.8689626655165
 30
0.0
 10
78.73238332119355
 20
284.5937560562222
 30
0.0
 10
78.1519876142323
 20
284.3197159495195
 30
0.0
 10
77.54783330639637
 20
284.1045274721981
 30
0.0
 10
76.92641815898995
 20
283.9498656331831
 30
0.0
 10
76.29314894755228
 20
283.8570552601274
 30
0.0
 10
75.65468948311138
 20
283.8265445102817
 30
0.0
 10
75.01685646955492
 20
283.8586462526512
 30
0.0
 10
74.38642648256203
 20
283.9524593150275
 30
0.0
 10
73.76885281306497
 20
284.1071731313168
 30
0.0
 10
73.16970940163206
 20
284.3209697033903
 30
0.0
 10
72.59425218016594
 20
284.5922910718467
 30
0.0
 10
72.13856678721072
 20
284.8641359554955
 30
0.0
 10
71.79131088946025
 20
285.1075965080871
 30
0.0
 10
71.53969130815528
 20
285.3030790344067
 30
0.0
 10
71.29781625787997
 20
285.5107720930965
 30
0.0
 10
70.988879974194
 20
285.8036096412295
 30
0.0
 10
70.63003721730612
 20
286.1980672901819
 30
0.0
 10
70.24781031206905
 20
286.7115519561482
 30
0.0
 10
69.91818586680358
 20
287.2603197348673
 30
0.0
 10
69.6896984208806
 20
287.7423831513625
 30
0.0
 10
69.53619692092037
 20
288.1397927105397
 30
0.0
 10
69.43594011799706
 20
288.4430750738319
 30
0.0
 10
69.35062362507203
 20
288.7508989455349
 30
0.0
 10
69.25786116971338
 20
289.1659398126379
 30
0.0
 10
69.17656880282634
 20
289.6922126116992
 30
0.0
 10
69.16452900328362
 20
290.1170282613805
 30
0.0
 10
69.1585109385
 20
290.32937134
 30
0.0
 11
82.1573532791
 21
290.3293713383
 31
0.0
 11
82.12681370041068
 21
289.6998723816461
 31
0.0
 11
82.0354824249076
 21
289.0759055838215
 31
0.0
 11
81.96698768620217
 21
288.7667818732847
 31
0.0
 11
81.88356886134123
 21
288.4615198803915
 31
0.0
 11
81.78518211749119
 21
288.1601026211719
 31
0.0
 11
81.67215148638708
 21
287.8637413659351
 31
0.0
 11
81.40217134987475
 21
287.2871113659532
 31
0.0
 11
81.0768347280214
 21
286.7393825941115
 31
0.0
 11
80.69679823322944
 21
286.2233158933501
 31
0.0
 11
80.26794773556873
 21
285.747536257095
 31
0.0
 11
80.03581060119869
 21
285.5256193243488
 31
0.0
 11
79.79302810786236
 21
285.3155537490966
 31
0.0
 11
79.54009849956402
 21
285.1177411762109
 31
0.0
 11
79.2775841037297
 21
284.9326578552199
 31
0.0
 11
78.72752592213087
 21
284.603115628716
 31
0.0
 11
78.14738509047987
 21
284.3292602977967
 31
0.0
 11
77.54477978018832
 21
284.1145594142446
 31
0.0
 11
76.92408050986704
 21
283.9601025305581
 31
0.0
 11
76.29215169594465
 21
283.8674275563248
 31
0.0
 11
75.65416556876347
 21
283.8369808820485
 31
0.0
 11
75.01787058063859
 21
283.8689547862685
 31
0.0
 11
74.38774730653093
 21
283.9627728744078
 31
0.0
 11
73.77186339828948
 21
284.1170312086601
 31
0.0
 11
73.17383092847051
 21
284.3304864917911
 31
0.0
 11
72.5989951799238
 21
284.6014539985891
 31
0.0
 11
72.05352849238241
 21
284.9269428163664
 31
0.0
 11
71.79282619960551
 21
285.1097122445771
 31
0.0
 11
71.54147694779718
 21
285.3049817956664
 31
0.0
 11
71.29959364944763
 21
285.5126869325007
 31
0.0
 11
71.06813781814743
 21
285.7320937787658
 31
0.0
 11
70.6382147872672
 21
286.2046207094358
 31
0.0
 11
70.2565936478094
 21
286.7174118263645
 31
0.0
 11
69.92736217363036
 21
287.2653901075862
 31
0.0
 11
69.65374786648633
 21
287.8427536521503
 31
0.0
 11
69.53865561402637
 21
288.1407182746691
 31
0.0
 11
69.43841592559947
 21
288.4438775432667
 31
0.0
 11
69.35324884538223
 21
288.7514761510756
 31
0.0
 11
69.28328581790855
 21
289.063060970213
 31
0.0
 11
69.18979692096832
 21
289.6933469399146
 31
0.0
 11
69.1585109385
 21
290.32937134
 31
0.0
  0
SPLINE
  5
F4
330
1F
100
AcDbEntity
  8
BEZUGSACHSEN
  6
Continuous
 62
     7
100
AcDbSpline
210
0.0
220
0.0
230
1.0
 70
     8
 71
     3
 72
    27
 73
    23
 74
    21
 42
0.0000000001
 43
0.0000000001
 44
0.00000001
 40
0.0
 40
0.0
 40
0.0
 40
0.0
 40
0.1219765139516125
 40
0.2439857714748842
 40
0.356683139830716
 40
0.4694418149413714
 40
0.5721317672392452
 40
0.6745445880580756
 40
0.7225206520876553
 40
0.7704888797598742
 40
0.8171412936039882
 40
0.8637898734330411
 40
0.9102318001039246
 40
0.9566751324478989
 40
1.004175175776943
 40
1.051683100148157
 40
1.153672388724009
 40
1.256049376657696
 40
1.370745138082751
 40
1.485385401869891
 40
1.611534903907493
 40
1.737631875952383
 40
1.737631875952383
 40
1.737631875952383
 40
1.737631875952383
 10
41.8037823169
 20
275.0870353241
 30
0.0
 10
41.76852729929661
 20
275.0667557988352
 30
0.0
 10
41.69800780017619
 20
275.026191304437
 30
0.0
 10
41.59035539699116
 20
274.9753954435457
 30
0.0
 10
41.48219738112667
 20
274.9336438076792
 30
0.0
 10
41.37661816017804
 20
274.904229222537
 30
0.0
 10
41.27178661505126
 20
274.8873146351442
 30
0.0
 10
41.18705894520608
 20
274.88544941192
 30
0.0
 10
41.12123500878739
 20
274.8924047199385
 30
0.0
 10
41.07452780555363
 20
274.9016018470899
 30
0.0
 10
41.0293471882354
 20
274.9151352920782
 30
0.0
 10
40.9862075775774
 20
274.9329285508994
 30
0.0
 10
40.94525310100459
 20
274.9551569086382
 30
0.0
 10
40.90660567454164
 20
274.9816919403626
 30
0.0
 10
40.87069959590545
 20
275.0123872178803
 30
0.0
 10
40.82526027436523
 20
275.0599246909661
 30
0.0
 10
40.77671713430459
 20
275.1290940580583
 30
0.0
 10
40.73049142537661
 20
275.2252521127787
 30
0.0
 10
40.69652555157859
 20
275.330827545767
 30
0.0
 10
40.6735701273617
 20
275.4472452366726
 30
0.0
 10
40.66012556899755
 20
275.56899254533
 30
0.0
 10
40.6586681826996
 20
275.6530959088479
 30
0.0
 10
40.6579396413
 20
275.6951388334
 30
0.0
 11
41.8037823169
 21
275.0870353241
 31
0.0
 11
41.69723769283946
 21
275.0276508729399
 31
0.0
 11
41.58694480367078
 21
274.9754805986431
 31
0.0
 11
41.48162679582116
 21
274.9353705742487
 31
0.0
 11
41.37290306729776
 21
274.9054762659496
 31
0.0
 11
41.27143891521104
 21
274.8896569061565
 31
0.0
 11
41.16903937462855
 21
274.8880076770745
 31
0.0
 11
41.1213355183929
 21
274.89311108966
 31
0.0
 11
41.07428474810744
 21
274.902447892194
 31
0.0
 11
41.02960518066381
 21
274.915871154485
 31
0.0
 11
40.98649904406641
 21
274.9337023346959
 31
0.0
 11
40.94567645126956
 21
274.9558465996475
 31
0.0
 11
40.9073891947234
 21
274.9821347929171
 31
0.0
 11
40.87125209771356
 21
275.0129627726752
 31
0.0
 11
40.83839959734668
 21
275.0472806411653
 31
0.0
 11
40.7792272031237
 21
275.1303495447702
 31
0.0
 11
40.73432747954911
 21
275.2223553189439
 31
0.0
 11
40.69868931996903
 21
275.3313738461337
 31
0.0
 11
40.67583775657164
 21
275.4437134924366
 31
0.0
 11
40.6620710002322
 21
275.5691095581015
 31
0.0
 11
40.6579396413
 21
275.6951388334
 31
0.0
  0
SPLINE
  5
F5
330
1F
100
AcDbEntity
  8
BEZUGSACHSEN
  6
Continuous
 62
     7
100
AcDbSpline
210
0.0
220
0.0
230
1.0
 70
     8
 71
     3
 72
    27
 73
    23
 74
    21
 42
0.0000000001
 43
0.0000000001
 44
0.00000001
 40
0.0
 40
0.0
 40
0.0
 40
0.0
 40
0.1260969825534952
 40
0.2522464959256148
 40
0.3668867952577171
 40
0.4815825893844963
 40
0.583959600645713
 40
0.6859489160928116
 40
0.733456841014978
 40
0.7809568848595482
 40
0.8274002264082378
 40
0.8738421606841765
 40
0.9204907318643241
 40
0.9671431398888186
 40
1.015111401762147
 40
1.063087497059942
 40
1.165500418662791
 40
1.268190478897086
 40
1.3809491538409
 40
1.493646517722054
 40
1.615655563694854
 40
1.737631867557756
 40
1.737631867557756
 40
1.737631867557756
 40
1.737631867557756
 10
40.6579396413
 20
304.9636038058
 30
0.0
 10
40.65866818278388
 20
305.0056467338613
 30
0.0
 10
40.66012556925519
 20
305.089750104673
 30
0.0
 10
40.673570131264
 20
305.2114974322315
 30
0.0
 10
40.69652556456393
 20
305.3279151486015
 30
0.0
 10
40.73049146489785
 20
305.4334906063788
 30
0.0
 10
40.77671722375639
 20
305.5296486686184
 30
0.0
 10
40.82526039231108
 20
305.5988180342771
 30
0.0
 10
40.87069971786845
 20
305.6463555158942
 30
0.0
 10
40.90660579595954
 20
305.6770507993764
 30
0.0
 10
40.94525322705228
 20
305.7035858350885
 30
0.0
 10
40.98620771425745
 20
305.7258141809835
 30
0.0
 10
41.02934734042941
 20
305.7436073978597
 30
0.0
 10
41.07452797503073
 20
305.7571408049206
 30
0.0
 10
41.12123519800079
 20
305.7663379302563
 30
0.0
 10
41.18705918918933
 20
305.7732932506385
 30
0.0
 10
41.27178694119056
 20
305.7714279940003
 30
0.0
 10
41.37661854469867
 20
305.7545133330639
 30
0.0
 10
41.48219778706468
 20
305.7250987002056
 30
0.0
 10
41.59035572516509
 20
305.6833470627362
 30
0.0
 10
41.69800798641965
 20
305.6325512355618
 30
0.0
 10
41.76852736123682
 20
305.591986807312
 30
0.0
 10
41.8037823169
 20
305.571707315
 30
0.0
 11
40.6579396413
 21
304.9636038058
 31
0.0
 11
40.66207100089397
 21
305.0896330915911
 31
0.0
 11
40.675837760063
 21
305.2150291683479
 31
0.0
 11
40.69868933616496
 21
305.3273688483395
 31
0.0
 11
40.73432752553866
 21
305.4363874001943
 31
0.0
 11
40.7792272903388
 21
305.5283931802066
 31
0.0
 11
40.83839971929294
 21
305.6114620920632
 31
0.0
 11
40.87125221945447
 21
305.6457799615126
 31
0.0
 11
40.90738931438128
 21
305.6766079445068
 31
0.0
 11
40.94567657924272
 21
305.7028961419276
 31
0.0
 11
40.98649918717999
 21
305.7250403949178
 31
0.0
 11
41.02960533079657
 21
305.7428715355334
 31
0.0
 11
41.0742849028307
 21
305.7562947623188
 31
0.0
 11
41.12133570856182
 21
305.7656315619418
 31
0.0
 11
41.1690395958128
 21
305.7707349785591
 31
0.0
 11
41.27143923667244
 21
305.769085717195
 31
0.0
 11
41.37290348700758
 21
305.7532662869002
 31
0.0
 11
41.48162720346441
 21
305.7233719353451
 31
0.0
 11
41.58694519576173
 21
305.6832618826871
 31
0.0
 11
41.69723788166712
 21
305.6310916734201
 31
0.0
 11
41.8037823169
 21
305.571707315
 31
0.0
  0
SPLINE
  5
F6
330
1F
100
AcDbEntity
  8
BEZUGSACHSEN
  6
Continuous
 62
     7
100
AcDbSpline
210
0.0
220
0.0
230
1.0
 70
     8
 71
     3
 72
    15
 73
    11
 74
     9
 42
0.0000000001
 43
0.0000000001
 44
0.00000001
 40
0.0
 40
0.0
 40
0.0
 40
0.0
 40
0.1110371613214498
 40
0.222252233714254
 40
0.33339801917927
 40
0.4445069474842335
 40
0.5556201065320288
 40
0.6667525642390795
 40
0.7778876033754663
 40
0.8889820915597619
 40
0.8889820915597619
 40
0.8889820915597619
 40
0.8889820915597619
 10
42.5578651566
 20
274.6528389333
 30
0.0
 10
42.52122342974057
 20
274.6583710861499
 30
0.0
 10
42.44788126622758
 20
274.6694442558303
 30
0.0
 10
42.34136471621237
 20
274.7024628193323
 30
0.0
 10
42.2389518084442
 20
274.7460531067815
 30
0.0
 10
42.14150184281021
 20
274.7998326145973
 30
0.0
 10
42.04919704707758
 20
274.8619277499623
 30
0.0
 10
41.96220041895113
 20
274.9312144236144
 30
0.0
 10
41.87994766350671
 20
275.0060963752268
 30
0.0
 10
41.82916767710525
 20
275.0600589567188
 30
0.0
 10
41.8037823169
 20
275.0870353241
 30
0.0
 11
42.5578651566
 21
274.6528389333
 31
0.0
 11
42.44852287154917
 21
274.6721654925951
 31
0.0
 11
42.3420309179465
 21
274.7042319259051
 31
0.0
 11
42.23976273731744
 21
274.7477589848163
 31
0.0
 11
42.14235987085977
 21
274.8012180865194
 31
0.0
 11
42.05008810407315
 21
274.8631216822765
 31
0.0
 11
41.96299100066437
 21
274.9321471683944
 31
0.0
 11
41.88095109617784
 21
275.0071168355651
 31
0.0
 11
41.8037823169
 21
275.0870353241
 31
0.0
  0
SPLINE
  5
F7
330
1F
100
AcDbEntity
  8
BEZUGSACHSEN
  6
Continuous
 62
     7
100
AcDbSpline
210
0.0
220
0.0
230
1.0
 70
     8
 71
     3
 72
    15
 73
    11
 74
     9
 42
0.0000000001
 43
0.0000000001
 44
0.00000001
 40
0.0
 40
0.0
 40
0.0
 40
0.0
 40
0.1110944831966965
 40
0.2222295182205777
 40
0.3333620402644015
 40
0.4444752610826894
 40
0.5555842178677874
 40
0.6667300354400845
 40
0.7779450181998857
 40
0.8889820872099309
 40
0.8889820872099309
 40
0.8889820872099309
 40
0.8889820872099309
 10
41.8037823169
 20
305.571707315
 30
0.0
 10
41.82916767647352
 20
305.598683680707
 30
0.0
 10
41.8799476618117
 20
305.6526462590629
 30
0.0
 10
41.96220043109582
 20
305.7275282224676
 30
0.0
 10
42.04919708305271
 20
305.7968149313689
 30
0.0
 10
42.14150192347652
 20
305.8589100944416
 30
0.0
 10
42.2389519454446
 20
305.9126895865695
 30
0.0
 10
42.34136485929106
 20
305.9562798321812
 30
0.0
 10
42.447881357862
 20
305.9892983880416
 30
0.0
 10
42.5212234605798
 20
306.0003715546534
 30
0.0
 10
42.5578651566
 20
306.0059037059
 30
0.0
 11
41.8037823169
 21
305.571707315
 31
0.0
 11
41.88095109401441
 21
305.6516257986906
 31
0.0
 11
41.96299099427828
 21
305.7265954643859
 31
0.0
 11
42.05008814288934
 21
305.7956209970505
 31
0.0
 11
42.14235996446192
 21
305.8575246220195
 31
0.0
 11
42.23976287252405
 21
305.9109837071118
 31
0.0
 11
42.34203109589099
 21
305.9545107475946
 31
0.0
 11
42.44852296398108
 21
305.9865771540185
 31
0.0
 11
42.5578651566
 21
306.0059037059
 31
0.0
  0
SPLINE
  5
F8
330
1F
100
AcDbEntity
  8
0
  6
Continuous
 62
     7
100
AcDbSpline
210
0.0
220
0.0
230
1.0
 70
     8
 71
     3
 72
    19
 73
    15
 74
    13
 42
0.0000000001
 43
0.0000000001
 44
0.00000001
 40
0.0
 40
0.0
 40
0.0
 40
0.0
 40
0.1162460235718655
 40
0.2327881717960308
 40
0.3491890045888177
 40
0.4655468550526533
 40
0.5819071369671308
 40
0.6982738488833383
 40
0.8146206072288931
 40
0.9309998277654054
 40
1.16327632338125
 40
1.39613892171556
 40
1.629013178045494
 40
1.861351539731109
 40
1.861351539731109
 40
1.861351539731109
 40
1.861351539731109
 10
109.7829396413
 20
256.8069907359
 30
0.0
 10
109.744155570459
 20
256.8051497890047
 30
0.0
 10
109.6664886303913
 20
256.8014632055934
 30
0.0
 10
109.5528785453346
 20
256.7730577205895
 30
0.0
 10
109.4446908573886
 20
256.7292038063731
 30
0.0
 10
109.343714991425
 20
256.670607118149
 30
0.0
 10
109.2509465347017
 20
256.5999222568217
 30
0.0
 10
109.1668591557184
 20
256.5191646517358
 30
0.0
 10
109.0915555123448
 20
256.4301970129954
 30
0.0
 10
109.0029042681795
 20
256.3028375652556
 30
0.0
 10
108.9129075224371
 20
256.1300521871868
 30
0.0
 10
108.8380140032694
 20
255.9091271970044
 30
0.0
 10
108.7914770779348
 20
255.6801072774007
 30
0.0
 10
108.7857832672119
 20
255.5249278845481
 30
0.0
 10
108.7829396413
 20
255.4474275664
 30
0.0
 11
109.7829396413
 21
256.8069907359
 31
0.0
 11
109.6670682897496
 21
256.7976650784889
 31
0.0
 11
109.5537437650615
 21
256.7704690417017
 31
0.0
 11
109.4458706324524
 21
256.7267364321758
 31
0.0
 11
109.3450818929422
 21
256.6685919625118
 31
0.0
 11
109.2523945878947
 21
256.5982444061204
 31
0.0
 11
109.1683192222692
 21
256.5177922803739
 31
0.0
 11
109.0930204643375
 21
256.4290980571603
 31
0.0
 11
109.0263937350222
 21
256.3336779234702
 31
0.0
 11
108.9185039489137
 21
256.1279787147478
 31
0.0
 11
108.8427458120619
 21
255.9077840408709
 31
0.0
 11
108.7977857982453
 21
255.6792911166504
 31
0.0
 11
108.7829396413
 21
255.4474275664
 31
0.0
  0
SPLINE
  5
F9
330
1F
100
AcDbEntity
  8
0
  6
Continuous
 62
     7
100
AcDbSpline
210
0.0
220
0.0
230
1.0
 70
     8
 71
     3
 72
    19
 73
    15
 74
    13
 42
0.0000000001
 43
0.0000000001
 44
0.00000001
 40
0.0
 40
0.0
 40
0.0
 40
0.0
 40
0.2323383481415016
 40
0.4652125957554434
 40
0.6980761133039021
 40
0.9303535187211196
 40
1.046733461783377
 40
1.163080940863804
 40
1.279447997454902
 40
1.395808629583398
 40
1.51216590457423
 40
1.628566140420367
 40
1.745106920613076
 40
1.861351602876069
 40
1.861351602876069
 40
1.861351602876069
 40
1.861351602876069
 10
112.5329396413
 20
255.4474275664
 30
0.0
 10
112.5300960156941
 20
255.5249278800673
 30
0.0
 10
112.5244022055245
 20
255.6801072655689
 30
0.0
 10
112.4778652296924
 20
255.9091274795975
 30
0.0
 10
112.4029714839302
 20
256.1300530414813
 30
0.0
 10
112.3129741796967
 20
256.3028391056785
 30
0.0
 10
112.2243222419297
 20
256.4301990314123
 30
0.0
 10
112.1490179775857
 20
256.5191669303465
 30
0.0
 10
112.0649300037439
 20
256.5999246003108
 30
0.0
 10
111.9721612698854
 20
256.6706091666877
 30
0.0
 10
111.8711854576263
 20
256.7292053908629
 30
0.0
 10
111.7629984081088
 20
256.7730586420219
 30
0.0
 10
111.6493892987539
 20
256.8014634014723
 30
0.0
 10
111.5717232639618
 20
256.8051498541193
 30
0.0
 10
111.5329396413
 20
256.8069907359
 30
0.0
 11
112.5329396413
 21
255.4474275664
 31
0.0
 11
112.5180934871822
 21
255.6792911032596
 31
0.0
 11
112.4731334855936
 21
255.907784021003
 31
0.0
 11
112.3973750069154
 21
256.1279795493713
 31
0.0
 11
112.2894845957669
 21
256.3336794576104
 31
0.0
 11
112.2228572719493
 21
256.4291000574203
 31
0.0
 11
112.1475578153934
 21
256.5177946329633
 31
0.0
 11
112.0634819490406
 21
256.5982467339719
 31
0.0
 11
111.9707941230394
 21
256.6685941832542
 31
0.0
 11
111.8700056881203
 21
256.7267380292728
 31
0.0
 11
111.7621329593266
 21
256.7704700460071
 31
0.0
 11
111.6488096707727
 21
256.797665371327
 31
0.0
 11
111.5329396413
 21
256.8069907359
 31
0.0
  0
SPLINE
  5
FA
330
1F
100
AcDbEntity
  8
BEZUGSACHSEN
  6
Continuous
 62
     7
100
AcDbSpline
210
0.0
220
0.0
230
1.0
 70
     8
 71
     3
 72
    11
 73
     7
 74
     5
 42
0.0000000001
 43
0.0000000001
 44
0.00000001
 40
0.0
 40
0.0
 40
0.0
 40
0.0
 40
0.5462907431305337
 40
1.093000863660969
 40
1.646070107200488
 40
2.198197048713485
 40
2.198197048713485
 40
2.198197048713485
 40
2.198197048713485
 10
50.2117855882
 20
305.3393713196
 30
0.0
 10
50.27485639006603
 20
305.1684396903654
 30
0.0
 10
50.4010464120977
 20
304.8264452108145
 30
0.0
 10
50.5406837251146
 20
304.2951710815794
 30
0.0
 10
50.6381720891274
 20
303.751746676629
 30
0.0
 10
50.65135420364616
 20
303.3831620360809
 30
0.0
 10
50.6579396413
 20
303.1990268454
 30
0.0
 11
50.2117855882
 21
305.3393713196
 31
0.0
 11
50.39263692082919
 21
304.8238847809626
 31
0.0
 11
50.53312840552751
 21
304.2955344250266
 31
0.0
 11
50.62519505875792
 21
303.750181952297
 31
0.0
 11
50.6579396413
 21
303.1990268454
 31
0.0
  0
SPLINE
  5
FB
330
1F
100
AcDbEntity
  8
BEZUGSACHSEN
  6
Continuous
 62
     7
100
AcDbSpline
210
0.0
220
0.0
230
1.0
 70
     8
 71
     3
 72
    11
 73
     7
 74
     5
 42
0.0000000001
 43
0.0000000001
 44
0.00000001
 40
0.0
 40
0.0
 40
0.0
 40
0.0
 40
0.9140556660003996
 40
1.828030949185947
 40
2.279806974871127
 40
2.730944124762568
 40
2.730944124762568
 40
2.730944124762568
 40
2.730944124762568
 10
41.9248925681854
 20
275.319371319785
 30
0.0
 10
42.05754727514878
 20
275.5940879174516
 30
0.0
 10
42.32284502331037
 20
276.1434969539789
 30
0.0
 10
42.53820023662306
 20
276.8762078750837
 30
0.0
 10
42.64189445028539
 20
277.4741530811897
 30
0.0
 10
42.65259376780649
 20
277.7752762966165
 30
0.0
 10
42.6579396413
 20
277.9257313712
 30
0.0
 11
41.9248925681854
 21
275.319371319785
 31
0.0
 11
42.29970009796089
 21
276.1530481613555
 31
0.0
 11
42.55899145835878
 21
277.029472036371
 31
0.0
 11
42.63170843185738
 21
277.4753574691327
 31
0.0
 11
42.6579396413
 21
277.9257313712
 31
0.0
  0
SPLINE
  5
FC
330
1F
100
AcDbEntity
  8
BEZUGSACHSEN
  6
Continuous
 62
     7
100
AcDbSpline
210
0.0
220
0.0
230
1.0
 70
     8
 71
     3
 72
    11
 73
     7
 74
     5
 42
0.0000000001
 43
0.0000000001
 44
0.00000001
 40
0.0
 40
0.0
 40
0.0
 40
0.0
 40
0.8249192366724182
 40
1.650116891930989
 40
2.190492152293428
 40
2.730585915378245
 40
2.730585915378245
 40
2.730585915378245
 40
2.730585915378245
 10
42.6579396413
 20
302.733011268
 30
0.0
 10
42.6402063369618
 20
303.0082015599768
 30
0.0
 10
42.60473374311586
 20
303.5586750234377
 30
0.0
 10
42.39629892648045
 20
304.2634086085906
 30
0.0
 10
42.16607249550076
 20
304.8556223336707
 30
0.0
 10
42.00527191269881
 20
305.1781496671159
 30
0.0
 10
41.9248925681854
 20
305.339371319415
 30
0.0
 11
42.6579396413
 21
302.733011268
 31
0.0
 11
42.57436418718427
 21
303.5536859236959
 31
0.0
 11
42.35640274507248
 21
304.3495778635952
 31
0.0
 11
42.1584676665133
 21
304.852397042513
 31
0.0
 11
41.9248925681854
 21
305.339371319415
 31
0.0
  0
DIMENSION
  5
107
330
1F
100
AcDbEntity
  8
1
100
AcDbDimension
  2
*D2
 10
232.970138404417
 20
302.8293713196
 30
0.0
 11
229.220138404417
 21
289.873793850708
 31
0.0
 70
    32
  1
<>
 71
     5
 42
-1.0
 53
90.0
  3
ME10_DIM_10
100
AcDbAlignedDimension
 13
220.6579396413
 23
277.8293713196
 33
0.0
 14
220.6579396413
 24
302.8293713196
 34
0.0
 50
90.0
100
AcDbRotatedDimension
  0
DIMENSION
  5
112
330
1F
100
AcDbEntity
  8
1
100
AcDbDimension
  2
*D3
 10
241.18354875333
 20
312.3293713195681
 30
0.0
 11
237.43354875333
 21
290.056314080684
 31
0.0
 70
    32
  1
<>
 71
     5
 42
-1.0
 53
90.0
  3
ME10_DIM_11
100
AcDbAlignedDimension
 13
220.6579396413
 23
268.3293713196417
 33
0.0
 14
220.6579396413105
 24
312.3293713195681
 34
0.0
 50
90.0
100
AcDbRotatedDimension
  0
DIMENSION
  5
11D
330
1F
100
AcDbEntity
  8
1
100
AcDbDimension
  2
*D4
 10
249.214438872266
 20
316.8293713196
 30
0.0
 11
245.464438872266
 21
290.238834310659
 31
0.0
 70
    32
  1
<>
 71
     5
 42
-1.0
 53
90.0
  3
ME10_DIM_12
100
AcDbAlignedDimension
 13
163.4800183285
 23
263.8293713196
 33
0.0
 14
163.4800183285
 24
316.8293713196
 34
0.0
 50
90.0
100
AcDbRotatedDimension
  0
DIMENSION
  5
128
330
1F
100
AcDbEntity
  8
1
100
AcDbDimension
  2
*D5
 10
220.6579396413
 20
347.732706753047
 30
0.0
 11
171.460820902561
 21
351.482706753047
 31
0.0
 70
    32
  1
<>
 71
     5
 42
-1.0
 53
0.00013888888889
  3
ME10_DIM_13
100
AcDbAlignedDimension
 13
119.6579396413
 23
340.3293343985
 33
0.0
 14
220.6579396413
 24
311.4049808279
 34
0.0
100
AcDbRotatedDimension
  0
DIMENSION
  5
133
330
1F
100
AcDbEntity
  8
1
100
AcDbDimension
  2
*D6
 10
220.6579396413
 20
355.03351595208
 30
0.0
 11
155.399040664688
 21
358.78351595208
 31
0.0
 70
    32
  1
<>
 71
     5
 42
-1.0
 53
0.00013888888889
  3
ME10_DIM_14
100
AcDbAlignedDimension
 13
90.6579396413
 23
340.3293713196
 33
0.0
 14
220.6579396413
 24
311.4049808279
 34
0.0
100
AcDbRotatedDimension
  0
DIMENSION
  5
13E
330
1F
100
AcDbEntity
  8
1
100
AcDbDimension
  2
*D7
 10
220.6579396413
 20
362.51684538109
 30
0.0
 11
136.416936747201
 21
366.26684538109
 31
0.0
 70
    32
  1
<>
 71
     5
 42
-1.0
 53
0.00013888888889
  3
ME10_DIM_15
100
AcDbAlignedDimension
 13
40.6579396413
 23
323.9295628822
 33
0.0
 14
220.6579396413
 24
311.4049808279
 34
0.0
100
AcDbRotatedDimension
  0
INSERT
  5
145
330
1F
100
AcDbEntity
  8
1
100
AcDbBlockReference
  2
*D8
 10
0.0
 20
0.0
 30
0.0
  0
DIMENSION
  5
150
330
1F
100
AcDbEntity
  8
1
100
AcDbDimension
  2
*D9
 10
202.2533723161146
 20
315.3059620923913
 30
0.0
 11
204.4577323198568
 21
328.3014127871571
 31
0.0
 70
    37
  1
<>
 71
     5
 42
-1.0
  3
ME10_DIM_16
100
AcDb3PointAngularDimension
 13
202.1636706997795
 23
313.784901851792
 33
0.0
 14
167.3603453187451
 24
316.8293713196
 34
0.0
 15
163.4800183285001
 25
316.8293713196
 35
0.0
  0
ENDSEC
  0
SECTION
  2
OBJECTS
  0
DICTIONARY
  5
C
330
0
100
AcDbDictionary
281
     1
  3
ACAD_GROUP
350
D
  3
ACAD_LAYOUT
350
1A
  3
ACAD_MLEADERSTYLE
350
153
  3
ACAD_MLINESTYLE
350
17
  3
ACAD_PLOTSETTINGS
350
19
  3
ACAD_PLOTSTYLENAME
350
E
  3
ACAD_SCALELIST
350
4A
  3
ACAD_VISUALSTYLE
350
2A
  3
AcDbVariableDictionary
350
151
  0
DICTIONARY
  5
D
102
{ACAD_REACTORS
330
C
102
}
330
C
100
AcDbDictionary
281
     1
  0
DICTIONARY
  5
1A
102
{ACAD_REACTORS
330
C
102
}
330
C
100
AcDbDictionary
281
     1
  3
Layout1
350
1E
  3
Layout2
350
26
  3
Model
350
22
  0
DICTIONARY
  5
153
102
{ACAD_REACTORS
330
C
102
}
330
C
100
AcDbDictionary
281
     1
  0
DICTIONARY
  5
17
102
{ACAD_REACTORS
330
C
102
}
330
C
100
AcDbDictionary
281
     1
  3
Standard
350
18
  0
DICTIONARY
  5
19
102
{ACAD_REACTORS
330
C
102
}
330
C
100
AcDbDictionary
281
     1
  0
ACDBDICTIONARYWDFLT
  5
E
102
{ACAD_REACTORS
330
C
102
}
330
C
100
AcDbDictionary
281
     1
  3
Normal
350
F
100
AcDbDictionaryWithDefault
340
F
  0
DICTIONARY
  5
4A
102
{ACAD_REACTORS
330
C
102
}
330
C
100
AcDbDictionary
281
     1
  3
A0
350
4B
  3
A1
350
4C
  3
A2
350
4D
  3
A3
350
4E
  3
A4
350
4F
  3
A5
350
50
  3
A6
350
51
  3
A7
350
52
  3
A8
350
53
  3
A9
350
54
  3
B0
350
55
  3
B1
350
56
  3
B2
350
57
  3
B3
350
58
  3
B4
350
59
  3
B5
350
5A
  3
B6
350
5B
  3
B7
350
5C
  3
B8
350
5D
  3
B9
350
5E
  3
C0
350
5F
  3
C1
350
60
  3
C2
350
61
  3
C3
350
62
  3
C4
350
63
  3
C5
350
64
  3
C6
350
65
  3
C7
350
66
  3
C8
350
67
  3
C9
350
68
  3
D0
350
69
  3
D1
350
6A
  3
D2
350
6B
  0
DICTIONARY
  5
2A
102
{ACAD_REACTORS
330
C
102
}
330
C
100
AcDbDictionary
281
     1
  3
2dWireframe
350
2F
  3
3D Hidden
350
31
  3
3dWireframe
350
30
  3
Basic
350
32
  3
Brighten
350
36
  3
ColorChange
350
3A
  3
Conceptual
350
34
  3
Dim
350
35
  3
Facepattern
350
39
  3
Flat
350
2B
  3
FlatWithEdges
350
2C
  3
Gouraud
350
2D
  3
GouraudWithEdges
350
2E
  3
Linepattern
350
38
  3
Realistic
350
33
  3
Thicken
350
37
  0
DICTIONARY
  5
151
102
{ACAD_REACTORS
330
C
102
}
330
C
100
AcDbDictionary
281
     1
  3
CANNOSCALE
350
154
  0
LAYOUT
  5
1E
102
{ACAD_REACTORS
330
1A
102
}
330
1A
100
AcDbPlotSettings
  1

  2
none_device
  4

  6

 40
0.0
 41
0.0
 42
0.0
 43
0.0
 44
0.0
 45
0.0
 46
0.0
 47
0.0
 48
0.0
 49
0.0
140
0.0
141
0.0
142
1.0
143
1.0
 70
   688
 72
     0
 73
     0
 74
     5
  7

 75
    16
147
1.0
148
0.0
149
0.0
100
AcDbLayout
  1
Layout1
 70
     1
 71
     1
 10
0.0
 20
0.0
 11
12.0
 21
9.0
 12
0.0
 22
0.0
 32
0.0
 14
1.00000000000000E+20
 24
1.00000000000000E+20
 34
1.00000000000000E+20
 15
-1.00000000000000E+20
 25
-1.00000000000000E+20
 35
-1.00000000000000E+20
146
0.0
 13
0.0
 23
0.0
 33
0.0
 16
1.0
 26
0.0
 36
0.0
 17
0.0
 27
1.0
 37
0.0
 76
     0
330
1B
  0
LAYOUT
  5
26
102
{ACAD_REACTORS
330
1A
102
}
330
1A
100
AcDbPlotSettings
  1

  2
none_device
  4

  6

 40
0.0
 41
0.0
 42
0.0
 43
0.0
 44
0.0
 45
0.0
 46
0.0
 47
0.0
 48
0.0
 49
0.0
140
0.0
141
0.0
142
1.0
143
1.0
 70
   688
 72
     0
 73
     0
 74
     5
  7

 75
    16
147
1.0
148
0.0
149
0.0
100
AcDbLayout
  1
Layout2
 70
     1
 71
     2
 10
0.0
 20
0.0
 11
0.0
 21
0.0
 12
0.0
 22
0.0
 32
0.0
 14
0.0
 24
0.0
 34
0.0
 15
0.0
 25
0.0
 35
0.0
146
0.0
 13
0.0
 23
0.0
 33
0.0
 16
1.0
 26
0.0
 36
0.0
 17
0.0
 27
1.0
 37
0.0
 76
     0
330
23
  0
LAYOUT
  5
22
102
{ACAD_REACTORS
330
1A
102
}
330
1A
100
AcDbPlotSettings
  1

  2
none_device
  4

  6

 40
0.0
 41
0.0
 42
0.0
 43
0.0
 44
0.0
 45
0.0
 46
0.0
 47
0.0
 48
0.0
 49
0.0
140
0.0
141
0.0
142
1.0
143
1.0
 70
  1712
 72
     0
 73
     0
 74
     0
  7

 75
     0
147
1.0
148
0.0
149
0.0
100
AcDbLayout
  1
Model
 70
     1
 71
     0
 10
0.0
 20
0.0
 11
12.0
 21
9.0
 12
0.0
 22
0.0
 32
0.0
 14
18.9279663509033
 24
240.3293713196
 34
0.0
 15
251.214438872266
 25
368.01684538109
 35
0.0
146
0.0
 13
0.0
 23
0.0
 33
0.0
 16
1.0
 26
0.0
 36
0.0
 17
0.0
 27
1.0
 37
0.0
 76
     0
330
1F
331
29
  0
MLINESTYLE
  5
18
102
{ACAD_REACTORS
330
17
102
}
330
17
100
AcDbMlineStyle
  2
Standard
 70
     0
  3

 62
   256
 51
90.0
 52
90.0
 71
     2
 49
0.5
 62
   256
  6
BYLAYER
 49
-0.5
 62
   256
  6
BYLAYER
  0
ACDBPLACEHOLDER
  5
F
102
{ACAD_REACTORS
330
E
102
}
330
E
  0
SCALE
  5
4B
102
{ACAD_REACTORS
330
4A
102
}
330
4A
100
AcDbScale
 70
     0
300
1:1
140
1.0
141
1.0
290
     1
  0
SCALE
  5
4C
102
{ACAD_REACTORS
330
4A
102
}
330
4A
100
AcDbScale
 70
     0
300
1:2
140
1.0
141
2.0
290
     0
  0
SCALE
  5
4D
102
{ACAD_REACTORS
330
4A
102
}
330
4A
100
AcDbScale
 70
     0
300
1:4
140
1.0
141
4.0
290
     0
  0
SCALE
  5
4E
102
{ACAD_REACTORS
330
4A
102
}
330
4A
100
AcDbScale
 70
     0
300
1:5
140
1.0
141
5.0
290
     0
  0
SCALE
  5
4F
102
{ACAD_REACTORS
330
4A
102
}
330
4A
100
AcDbScale
 70
     0
300
1:8
140
1.0
141
8.0
290
     0
  0
SCALE
  5
50
102
{ACAD_REACTORS
330
4A
102
}
330
4A
100
AcDbScale
 70
     0
300
1:10
140
1.0
141
10.0
290
     0
  0
SCALE
  5
51
102
{ACAD_REACTORS
330
4A
102
}
330
4A
100
AcDbScale
 70
     0
300
1:16
140
1.0
141
16.0
290
     0
  0
SCALE
  5
52
102
{ACAD_REACTORS
330
4A
102
}
330
4A
100
AcDbScale
 70
     0
300
1:20
140
1.0
141
20.0
290
     0
  0
SCALE
  5
53
102
{ACAD_REACTORS
330
4A
102
}
330
4A
100
AcDbScale
 70
     0
300
1:30
140
1.0
141
30.0
290
     0
  0
SCALE
  5
54
102
{ACAD_REACTORS
330
4A
102
}
330
4A
100
AcDbScale
 70
     0
300
1:40
140
1.0
141
40.0
290
     0
  0
SCALE
  5
55
102
{ACAD_REACTORS
330
4A
102
}
330
4A
100
AcDbScale
 70
     0
300
1:50
140
1.0
141
50.0
290
     0
  0
SCALE
  5
56
102
{ACAD_REACTORS
330
4A
102
}
330
4A
100
AcDbScale
 70
     0
300
1:100
140
1.0
141
100.0
290
     0
  0
SCALE
  5
57
102
{ACAD_REACTORS
330
4A
102
}
330
4A
100
AcDbScale
 70
     0
300
2:1
140
2.0
141
1.0
290
     0
  0
SCALE
  5
58
102
{ACAD_REACTORS
330
4A
102
}
330
4A
100
AcDbScale
 70
     0
300
4:1
140
4.0
141
1.0
290
     0
  0
SCALE
  5
59
102
{ACAD_REACTORS
330
4A
102
}
330
4A
100
AcDbScale
 70
     0
300
8:1
140
8.0
141
1.0
290
     0
  0
SCALE
  5
5A
102
{ACAD_REACTORS
330
4A
102
}
330
4A
100
AcDbScale
 70
     0
300
10:1
140
10.0
141
1.0
290
     0
  0
SCALE
  5
5B
102
{ACAD_REACTORS
330
4A
102
}
330
4A
100
AcDbScale
 70
     0
300
100:1
140
100.0
141
1.0
290
     0
  0
SCALE
  5
5C
102
{ACAD_REACTORS
330
4A
102
}
330
4A
100
AcDbScale
 70
     0
300
1/128" = 1'-0"
140
0.0078125
141
12.0
290
     0
  0
SCALE
  5
5D
102
{ACAD_REACTORS
330
4A
102
}
330
4A
100
AcDbScale
 70
     0
300
1/64" = 1'-0"
140
0.015625
141
12.0
290
     0
  0
SCALE
  5
5E
102
{ACAD_REACTORS
330
4A
102
}
330
4A
100
AcDbScale
 70
     0
300
1/32" = 1'-0"
140
0.03125
141
12.0
290
     0
  0
SCALE
  5
5F
102
{ACAD_REACTORS
330
4A
102
}
330
4A
100
AcDbScale
 70
     0
300
1/16" = 1'-0"
140
0.0625
141
12.0
290
     0
  0
SCALE
  5
60
102
{ACAD_REACTORS
330
4A
102
}
330
4A
100
AcDbScale
 70
     0
300
3/32" = 1'-0"
140
0.09375
141
12.0
290
     0
  0
SCALE
  5
61
102
{ACAD_REACTORS
330
4A
102
}
330
4A
100
AcDbScale
 70
     0
300
1/8" = 1'-0"
140
0.125
141
12.0
290
     0
  0
SCALE
  5
62
102
{ACAD_REACTORS
330
4A
102
}
330
4A
100
AcDbScale
 70
     0
300
3/16" = 1'-0"
140
0.1875
141
12.0
290
     0
  0
SCALE
  5
63
102
{ACAD_REACTORS
330
4A
102
}
330
4A
100
AcDbScale
 70
     0
300
1/4" = 1'-0"
140
0.25
141
12.0
290
     0
  0
SCALE
  5
64
102
{ACAD_REACTORS
330
4A
102
}
330
4A
100
AcDbScale
 70
     0
300
3/8" = 1'-0"
140
0.375
141
12.0
290
     0
  0
SCALE
  5
65
102
{ACAD_REACTORS
330
4A
102
}
330
4A
100
AcDbScale
 70
     0
300
1/2" = 1'-0"
140
0.5
141
12.0
290
     0
  0
SCALE
  5
66
102
{ACAD_REACTORS
330
4A
102
}
330
4A
100
AcDbScale
 70
     0
300
3/4" = 1'-0"
140
0.75
141
12.0
290
     0
  0
SCALE
  5
67
102
{ACAD_REACTORS
330
4A
102
}
330
4A
100
AcDbScale
 70
     0
300
1" = 1'-0"
140
1.0
141
12.0
290
     0
  0
SCALE
  5
68
102
{ACAD_REACTORS
330
4A
102
}
330
4A
100
AcDbScale
 70
     0
300
1-1/2" = 1'-0"
140
1.5
141
12.0
290
     0
  0
SCALE
  5
69
102
{ACAD_REACTORS
330
4A
102
}
330
4A
100
AcDbScale
 70
     0
300
3" = 1'-0"
140
3.0
141
12.0
290
     0
  0
SCALE
  5
6A
102
{ACAD_REACTORS
330
4A
102
}
330
4A
100
AcDbScale
 70
     0
300
6" = 1'-0"
140
6.0
141
12.0
290
     0
  0
SCALE
  5
6B
102
{ACAD_REACTORS
330
4A
102
}
330
4A
100
AcDbScale
 70
     0
300
1'-0" = 1'-0"
140
12.0
141
12.0
290
     0
  0
VISUALSTYLE
  5
2F
102
{ACAD_REACTORS
330
2A
102
}
330
2A
100
AcDbVisualStyle
  2
2dWireframe
 70
     4
 71
     0
 72
     2
 73
     0
 90
        0
 40
-0.6
 41
-30.0
 62
     5
 63
     7
 74
     1
 91
        4
 64
     7
 65
   257
 75
     1
175
     1
 42
1.0
 92
        0
 66
   257
 43
1.0
 76
     1
 77
     6
 78
     2
 67
     7
 79
     5
170
     0
171
     0
290
     0
174
     0
 93
        1
 44
0.0
173
     0
291
     0
 45
0.0
1001
ACAD
1000
AcDbSavedByObjectVersion
1070
     0
  0
VISUALSTYLE
  5
31
102
{ACAD_REACTORS
330
2A
102
}
330
2A
100
AcDbVisualStyle
  2
3D Hidden
 70
     6
 71
     1
 72
     2
 73
     2
 90
        0
 40
-0.6
 41
-30.0
 62
     5
 63
     7
 74
     2
 91
        2
 64
     7
 65
   257
 75
     2
175
     1
 42
40.0
 92
        0
 66
   257
 43
1.0
 76
     1
 77
     6
 78
     2
 67
     7
 79
     3
170
     0
171
     0
290
     0
174
     0
 93
        1
 44
0.0
173
     0
291
     0
 45
0.0
1001
ACAD
1000
AcDbSavedByObjectVersion
1070
     0
  0
VISUALSTYLE
  5
30
102
{ACAD_REACTORS
330
2A
102
}
330
2A
100
AcDbVisualStyle
  2
3dWireframe
 70
     5
 71
     0
 72
     2
 73
     0
 90
        0
 40
-0.6
 41
-30.0
 62
     5
 63
     7
 74
     1
 91
        4
 64
     7
 65
   257
 75
     1
175
     1
 42
1.0
 92
        0
 66
   257
 43
1.0
 76
     1
 77
     6
 78
     2
 67
     7
 79
     5
170
     0
171
     0
290
     0
174
     0
 93
        1
 44
0.0
173
     0
291
     0
 45
0.0
1001
ACAD
1000
AcDbSavedByObjectVersion
1070
     0
  0
VISUALSTYLE
  5
32
102
{ACAD_REACTORS
330
2A
102
}
330
2A
100
AcDbVisualStyle
  2
Basic
 70
     7
 71
     1
 72
     0
 73
     1
 90
        0
 40
-0.6
 41
-30.0
 62
     5
 63
     7
 74
     0
 91
        4
 64
     7
 65
   257
 75
     1
175
     1
 42
1.0
 92
        8
 66
     7
 43
1.0
 76
     1
 77
     6
 78
     2
 67
     7
 79
     5
170
     0
171
     0
290
     0
174
     0
 93
        1
 44
0.0
173
     0
291
     1
 45
0.0
1001
ACAD
1000
AcDbSavedByObjectVersion
1070
     0
  0
VISUALSTYLE
  5
36
102
{ACAD_REACTORS
330
2A
102
}
330
2A
100
AcDbVisualStyle
  2
Brighten
 70
    12
 71
     2
 72
     2
 73
     0
 90
        0
 40
-0.6
 41
-30.0
 62
     5
 63
     7
 74
     1
 91
        4
 64
     7
 65
   257
 75
     1
175
     1
 42
1.0
 92
        8
 66
     7
 43
1.0
 76
     1
 77
     6
 78
     2
 67
     7
 79
     5
170
     0
171
     0
290
     0
174
     0
 93
        1
 44
50.0
173
     0
291
     1
 45
0.0
1001
ACAD
1000
AcDbSavedByObjectVersion
1070
     0
  0
VISUALSTYLE
  5
3A
102
{ACAD_REACTORS
330
2A
102
}
330
2A
100
AcDbVisualStyle
  2
ColorChange
 70
    16
 71
     2
 72
     2
 73
     3
 90
        0
 40
-0.6
 41
-30.0
 62
     5
 63
     8
 74
     1
 91
        4
 64
     7
 65
   257
 75
     1
175
     1
 42
1.0
 92
        8
 66
     8
 43
1.0
 76
     1
 77
     6
 78
     2
 67
     7
 79
     5
170
     0
171
     0
290
     0
174
     0
 93
        1
 44
0.0
173
     0
291
     1
 45
0.0
1001
ACAD
1000
AcDbSavedByObjectVersion
1070
     0
  0
VISUALSTYLE
  5
34
102
{ACAD_REACTORS
330
2A
102
}
330
2A
100
AcDbVisualStyle
  2
Conceptual
 70
     9
 71
     3
 72
     2
 73
     0
 90
        0
 40
-0.6
 41
-30.0
 62
     5
 63
     7
 74
     2
 91
        2
 64
     7
 65
   257
 75
     1
175
     1
 42
40.0
 92
        8
 66
     7
 43
1.0
 76
     1
 77
     6
 78
     2
 67
     7
 79
     3
170
     0
171
     0
290
     0
174
     0
 93
        1
 44
0.0
173
     0
291
     0
 45
0.0
1001
ACAD
1000
AcDbSavedByObjectVersion
1070
     0
  0
VISUALSTYLE
  5
35
102
{ACAD_REACTORS
330
2A
102
}
330
2A
100
AcDbVisualStyle
  2
Dim
 70
    11
 71
     2
 72
     2
 73
     0
 90
        0
 40
-0.6
 41
-30.0
 62
     5
 63
     7
 74
     1
 91
        4
 64
     7
 65
   257
 75
     1
175
     1
 42
1.0
 92
        8
 66
     7
 43
1.0
 76
     1
 77
     6
 78
     2
 67
     7
 79
     5
170
     0
171
     0
290
     0
174
     0
 93
        1
 44
-50.0
173
     0
291
     1
 45
0.0
1001
ACAD
1000
AcDbSavedByObjectVersion
1070
     0
  0
VISUALSTYLE
  5
39
102
{ACAD_REACTORS
330
2A
102
}
330
2A
100
AcDbVisualStyle
  2
Facepattern
 70
    15
 71
     2
 72
     2
 73
     0
 90
        0
 40
-0.6
 41
-30.0
 62
     5
 63
     7
 74
     1
 91
        4
 64
     7
 65
   257
 75
     1
175
     1
 42
1.0
 92
        8
 66
     7
 43
1.0
 76
     1
 77
     6
 78
     2
 67
     7
 79
     5
170
     0
171
     0
290
     0
174
     0
 93
        1
 44
0.0
173
     0
291
     1
 45
0.0
1001
ACAD
1000
AcDbSavedByObjectVersion
1070
     0
  0
VISUALSTYLE
  5
2B
102
{ACAD_REACTORS
330
2A
102
}
330
2A
100
AcDbVisualStyle
  2
Flat
 70
     0
 71
     2
 72
     1
 73
     1
 90
        2
 40
-0.6
 41
30.0
 62
     5
 63
     7
 74
     0
 91
        4
 64
     7
 65
   257
 75
     1
175
     1
 42
1.0
 92
        8
 66
     7
 43
1.0
 76
     1
 77
     6
 78
     2
 67
     7
 79
     5
170
     0
171
     0
290
     0
174
     0
 93
       13
 44
0.0
173
     0
291
     1
 45
0.0
1001
ACAD
1000
AcDbSavedByObjectVersion
1070
     0
  0
VISUALSTYLE
  5
2C
102
{ACAD_REACTORS
330
2A
102
}
330
2A
100
AcDbVisualStyle
  2
FlatWithEdges
 70
     1
 71
     2
 72
     1
 73
     1
 90
        2
 40
-0.6
 41
30.0
 62
     5
 63
     7
 74
     1
 91
        4
 64
     7
 65
   257
 75
     1
175
     1
 42
1.0
 92
        0
 66
   257
 43
1.0
 76
     1
 77
     6
 78
     2
 67
     7
 79
     5
170
     0
171
     0
290
     0
174
     0
 93
       13
 44
0.0
173
     0
291
     1
 45
0.0
1001
ACAD
1000
AcDbSavedByObjectVersion
1070
     0
  0
VISUALSTYLE
  5
2D
102
{ACAD_REACTORS
330
2A
102
}
330
2A
100
AcDbVisualStyle
  2
Gouraud
 70
     2
 71
     2
 72
     2
 73
     1
 90
        2
 40
-0.6
 41
30.0
 62
     5
 63
     7
 74
     0
 91
        4
 64
     7
 65
   257
 75
     1
175
     1
 42
1.0
 92
        0
 66
     7
 43
1.0
 76
     1
 77
     6
 78
     2
 67
     7
 79
     5
170
     0
171
     0
290
     0
174
     0
 93
       13
 44
0.0
173
     0
291
     1
 45
0.0
1001
ACAD
1000
AcDbSavedByObjectVersion
1070
     0
  0
VISUALSTYLE
  5
2E
102
{ACAD_REACTORS
330
2A
102
}
330
2A
100
AcDbVisualStyle
  2
GouraudWithEdges
 70
     3
 71
     2
 72
     2
 73
     1
 90
        2
 40
-0.6
 41
30.0
 62
     5
 63
     7
 74
     1
 91
        4
 64
     7
 65
   257
 75
     1
175
     1
 42
1.0
 92
        0
 66
   257
 43
1.0
 76
     1
 77
     6
 78
     2
 67
     7
 79
     5
170
     0
171
     0
290
     0
174
     0
 93
       13
 44
0.0
173
     0
291
     1
 45
0.0
1001
ACAD
1000
AcDbSavedByObjectVersion
1070
     0
  0
VISUALSTYLE
  5
38
102
{ACAD_REACTORS
330
2A
102
}
330
2A
100
AcDbVisualStyle
  2
Linepattern
 70
    14
 71
     2
 72
     2
 73
     0
 90
        0
 40
-0.6
 41
-30.0
 62
     5
 63
     7
 74
     1
 91
        4
 64
     7
 65
   257
 75
     7
175
     7
 42
1.0
 92
        8
 66
     7
 43
1.0
 76
     1
 77
     6
 78
     2
 67
     7
 79
     5
170
     0
171
     0
290
     0
174
     0
 93
        1
 44
0.0
173
     0
291
     1
 45
0.0
1001
ACAD
1000
AcDbSavedByObjectVersion
1070
     0
  0
VISUALSTYLE
  5
33
102
{ACAD_REACTORS
330
2A
102
}
330
2A
100
AcDbVisualStyle
  2
Realistic
 70
     8
 71
     2
 72
     2
 73
     0
 90
        0
 40
-0.6
 41
-30.0
 62
     5
 63
     7
 74
     1
 91
        0
 64
     7
 65
   257
 75
     1
175
     1
 42
1.0
 92
        8
 66
     8
 43
1.0
 76
     1
 77
     6
 78
     2
 67
     7
 79
     5
170
     0
171
     0
290
     0
174
     0
 93
       13
 44
0.0
173
     0
291
     0
 45
0.0
1001
ACAD
1000
AcDbSavedByObjectVersion
1070
     0
  0
VISUALSTYLE
  5
37
102
{ACAD_REACTORS
330
2A
102
}
330
2A
100
AcDbVisualStyle
  2
Thicken
 70
    13
 71
     2
 72
     2
 73
     0
 90
        0
 40
-0.6
 41
-30.0
 62
     5
 63
     7
 74
     1
 91
        4
 64
     7
 65
   257
 75
     1
175
     1
 42
1.0
 92
       12
 66
     7
 43
1.0
 76
     1
 77
     6
 78
     2
 67
     7
 79
     5
170
     0
171
     0
290
     0
174
     0
 93
        1
 44
0.0
173
     0
291
     1
 45
0.0
1001
ACAD
1000
AcDbSavedByObjectVersion
1070
     0
  0
DICTIONARYVAR
  5
154
102
{ACAD_REACTORS
330
151
102
}
330
151
100
DictionaryVariables
280
     0
  1
1:1
  0
ENDSEC
  0
EOF
