  0
SECTION
  2
HEADER
  9
$ACADVER
  1
AC1015
  9
$ACADMAINTVER
 70
     6
  9
$DWGCODEPAGE
  3
ANSI_1252
  9
$INSBASE
 10
0.0
 20
0.0
 30
0.0
  9
$EXTMIN
 10
23.9271024510741
 20
253.8115297109
 30
0.0
  9
$EXTMAX
 10
257.169570752804
 20
381.911307855213
 30
0.0
  9
$LIMMIN
 10
0.0
 20
0.0
  9
$LIMMAX
 10
12.0
 20
9.0
  9
$ORTHOMODE
 70
     0
  9
$REGENMODE
 70
     1
  9
$FILLMODE
 70
     1
  9
$QTEXTMODE
 70
     0
  9
$MIRRTEXT
 70
     1
  9
$LTSCALE
 40
1.0
  9
$ATTMODE
 70
     1
  9
$TEXTSIZE
 40
0.2
  9
$TRACEWID
 40
0.05
  9
$TEXTSTYLE
  7
Standard
  9
$CLAYER
  8
0
  9
$CELTYPE
  6
ByLayer
  9
$CECOLOR
 62
   256
  9
$CELTSCALE
 40
1.0
  9
$DISPSILH
 70
     0
  9
$DIMSCALE
 40
1.0
  9
$DIMASZ
 40
0.18
  9
$DIMEXO
 40
0.0625
  9
$DIMDLI
 40
0.38
  9
$DIMRND
 40
0.0
  9
$DIMDLE
 40
0.0
  9
$DIMEXE
 40
0.18
  9
$DIMTP
 40
0.0
  9
$DIMTM
 40
0.0
  9
$DIMTXT
 40
0.18
  9
$DIMCEN
 40
0.09
  9
$DIMTSZ
 40
0.0
  9
$DIMTOL
 70
     0
  9
$DIMLIM
 70
     0
  9
$DIMTIH
 70
     1
  9
$DIMTOH
 70
     1
  9
$DIMSE1
 70
     0
  9
$DIMSE2
 70
     0
  9
$DIMTAD
 70
     0
  9
$DIMZIN
 70
     0
  9
$DIMBLK
  1

  9
$DIMASO
 70
     1
  9
$DIMSHO
 70
     1
  9
$DIMPOST
  1

  9
$DIMAPOST
  1

  9
$DIMALT
 70
     0
  9
$DIMALTD
 70
     2
  9
$DIMALTF
 40
25.4
  9
$DIMLFAC
 40
1.0
  9
$DIMTOFL
 70
     0
  9
$DIMTVP
 40
0.0
  9
$DIMTIX
 70
     0
  9
$DIMSOXD
 70
     0
  9
$DIMSAH
 70
     0
  9
$DIMBLK1
  1

  9
$DIMBLK2
  1

  9
$DIMSTYLE
  2
Standard
  9
$DIMCLRD
 70
     0
  9
$DIMCLRE
 70
     0
  9
$DIMCLRT
 70
     0
  9
$DIMTFAC
 40
1.0
  9
$DIMGAP
 40
0.09
  9
$DIMJUST
 70
     0
  9
$DIMSD1
 70
     0
  9
$DIMSD2
 70
     0
  9
$DIMTOLJ
 70
     1
  9
$DIMTZIN
 70
     0
  9
$DIMALTZ
 70
     0
  9
$DIMALTTZ
 70
     0
  9
$DIMUPT
 70
     0
  9
$DIMDEC
 70
     4
  9
$DIMTDEC
 70
     4
  9
$DIMALTU
 70
     2
  9
$DIMALTTD
 70
     2
  9
$DIMTXSTY
  7
Standard
  9
$DIMAUNIT
 70
     0
  9
$DIMADEC
 70
     0
  9
$DIMALTRND
 40
0.0
  9
$DIMAZIN
 70
     0
  9
$DIMDSEP
 70
    46
  9
$DIMATFIT
 70
     3
  9
$DIMFRAC
 70
     0
  9
$DIMLDRBLK
  1

  9
$DIMLUNIT
 70
     2
  9
$DIMLWD
 70
    -2
  9
$DIMLWE
 70
    -2
  9
$DIMTMOVE
 70
     0
  9
$LUNITS
 70
     2
  9
$LUPREC
 70
     4
  9
$SKETCHINC
 40
0.1
  9
$FILLETRAD
 40
0.5
  9
$AUNITS
 70
     0
  9
$AUPREC
 70
     0
  9
$MENU
  1
.
  9
$ELEVATION
 40
0.0
  9
$PELEVATION
 40
0.0
  9
$THICKNESS
 40
0.0
  9
$LIMCHECK
 70
     0
  9
$CHAMFERA
 40
0.5
  9
$CHAMFERB
 40
0.5
  9
$CHAMFERC
 40
1.0
  9
$CHAMFERD
 40
0.0
  9
$SKPOLY
 70
     0
  9
$TDCREATE
 40
2456748.729944259
  9
$TDUCREATE
 40
2456748.646610926
  9
$TDUPDATE
 40
2456748.729944271
  9
$TDUUPDATE
 40
2456748.646610938
  9
$TDINDWG
 40
0.0000000116
  9
$TDUSRTIMER
 40
0.0000000116
  9
$USRTIMER
 70
     1
  9
$ANGBASE
 50
0.0
  9
$ANGDIR
 70
     0
  9
$PDMODE
 70
     0
  9
$PDSIZE
 40
0.0
  9
$PLINEWID
 40
0.0
  9
$SPLFRAME
 70
     0
  9
$SPLINETYPE
 70
     6
  9
$SPLINESEGS
 70
     8
  9
$HANDSEED
  5
155
  9
$SURFTAB1
 70
     6
  9
$SURFTAB2
 70
     6
  9
$SURFTYPE
 70
     6
  9
$SURFU
 70
     6
  9
$SURFV
 70
     6
  9
$UCSBASE
  2

  9
$UCSNAME
  2

  9
$UCSORG
 10
0.0
 20
0.0
 30
0.0
  9
$UCSXDIR
 10
1.0
 20
0.0
 30
0.0
  9
$UCSYDIR
 10
0.0
 20
1.0
 30
0.0
  9
$UCSORTHOREF
  2

  9
$UCSORTHOVIEW
 70
     0
  9
$UCSORGTOP
 10
0.0
 20
0.0
 30
0.0
  9
$UCSORGBOTTOM
 10
0.0
 20
0.0
 30
0.0
  9
$UCSORGLEFT
 10
0.0
 20
0.0
 30
0.0
  9
$UCSORGRIGHT
 10
0.0
 20
0.0
 30
0.0
  9
$UCSORGFRONT
 10
0.0
 20
0.0
 30
0.0
  9
$UCSORGBACK
 10
0.0
 20
0.0
 30
0.0
  9
$PUCSBASE
  2

  9
$PUCSNAME
  2

  9
$PUCSORG
 10
0.0
 20
0.0
 30
0.0
  9
$PUCSXDIR
 10
1.0
 20
0.0
 30
0.0
  9
$PUCSYDIR
 10
0.0
 20
1.0
 30
0.0
  9
$PUCSORTHOREF
  2

  9
$PUCSORTHOVIEW
 70
     0
  9
$PUCSORGTOP
 10
0.0
 20
0.0
 30
0.0
  9
$PUCSORGBOTTOM
 10
0.0
 20
0.0
 30
0.0
  9
$PUCSORGLEFT
 10
0.0
 20
0.0
 30
0.0
  9
$PUCSORGRIGHT
 10
0.0
 20
0.0
 30
0.0
  9
$PUCSORGFRONT
 10
0.0
 20
0.0
 30
0.0
  9
$PUCSORGBACK
 10
0.0
 20
0.0
 30
0.0
  9
$USERI1
 70
     0
  9
$USERI2
 70
     0
  9
$USERI3
 70
     0
  9
$USERI4
 70
     0
  9
$USERI5
 70
     0
  9
$USERR1
 40
16.5
  9
$USERR2
 40
0.0
  9
$USERR3
 40
0.0
  9
$USERR4
 40
0.0
  9
$USERR5
 40
0.0
  9
$WORLDVIEW
 70
     1
  9
$SHADEDGE
 70
     3
  9
$SHADEDIF
 70
    70
  9
$TILEMODE
 70
     1
  9
$MAXACTVP
 70
    64
  9
$PINSBASE
 10
0.0
 20
0.0
 30
0.0
  9
$PLIMCHECK
 70
     0
  9
$PEXTMIN
 10
1.00000000000000E+20
 20
1.00000000000000E+20
 30
1.00000000000000E+20
  9
$PEXTMAX
 10
-1.00000000000000E+20
 20
-1.00000000000000E+20
 30
-1.00000000000000E+20
  9
$PLIMMIN
 10
0.0
 20
0.0
  9
$PLIMMAX
 10
12.0
 20
9.0
  9
$UNITMODE
 70
     0
  9
$VISRETAIN
 70
     1
  9
$PLINEGEN
 70
     0
  9
$PSLTSCALE
 70
     1
  9
$TREEDEPTH
 70
  3020
  9
$CMLSTYLE
  2
Standard
  9
$CMLJUST
 70
     0
  9
$CMLSCALE
 40
1.0
  9
$PROXYGRAPHICS
 70
     1
  9
$MEASUREMENT
 70
     1
  9
$CELWEIGHT
370
    -1
  9
$ENDCAPS
280
     0
  9
$JOINSTYLE
280
     0
  9
$LWDISPLAY
290
     0
  9
$INSUNITS
 70
     1
  9
$HYPERLINKBASE
  1

  9
$STYLESHEET
  1

  9
$XEDIT
290
     1
  9
$CEPSNTYPE
380
     0
  9
$PSTYLEMODE
290
     1
  9
$FINGERPRINTGUID
  2
{E062978C-56C9-4778-99CB-D4D1B1CB6E44}
  9
$VERSIONGUID
  2
{FAEB1C32-E019-11D5-929B-00C0DF256EC4}
  9
$EXTNAMES
290
     1
  9
$PSVPSCALE
 40
0.0
  9
$OLESTARTUP
290
     0
  0
ENDSEC
  0
SECTION
  2
CLASSES
  0
CLASS
  1
ACDBDICTIONARYWDFLT
  2
AcDbDictionaryWithDefault
  3
ObjectDBX Classes
 90
        0
280
     0
281
     0
  0
CLASS
  1
VISUALSTYLE
  2
AcDbVisualStyle
  3
ObjectDBX Classes
 90
     4095
280
     0
281
     0
  0
CLASS
  1
SCALE
  2
AcDbScale
  3
ObjectDBX Classes
 90
     1153
280
     0
281
     0
  0
CLASS
  1

  2
exOdDbPolyline
  3

 90
        0
280
     0
281
     1
  0
CLASS
  1

  2
exOdDbCircle
  3

 90
        0
280
     0
281
     1
  0
CLASS
  1

  2
exOdDbSpline
  3

 90
        0
280
     0
281
     1
  0
CLASS
  1
DICTIONARYVAR
  2
AcDbDictionaryVar
  3
ObjectDBX Classes
 90
        0
280
     0
281
     0
  0
CLASS
  1
ACDBPLACEHOLDER
  2
AcDbPlaceHolder
  3
ObjectDBX Classes
 90
        0
280
     0
281
     0
  0
CLASS
  1
LAYOUT
  2
AcDbLayout
  3
ObjectDBX Classes
 90
        0
280
     0
281
     0
  0
ENDSEC
  0
SECTION
  2
TABLES
  0
TABLE
  2
VPORT
  5
8
330
0
100
AcDbSymbolTable
 70
     1
  0
VPORT
  5
29
330
8
100
AcDbSymbolTableRecord
100
AcDbViewportTableRecord
  2
*Active
 70
     0
 10
0.0
 20
0.0
 11
1.0
 21
1.0
 12
140.5483366019391
 22
317.8614187830565
 13
0.0
 23
0.0
 14
0.5
 24
0.5
 15
0.5
 25
0.5
 16
0.0
 26
0.0
 36
1.0
 17
0.0
 27
0.0
 37
0.0
 40
160.0861955140565
 41
1.60267857142857
 42
50.0
 43
0.0
 44
0.0
 50
0.0
 51
0.0
 71
     0
 72
   100
 73
     1
 74
     3
 75
     0
 76
     0
 77
     0
 78
     0
281
     0
 65
     1
110
0.0
120
0.0
130
0.0
111
1.0
121
0.0
131
0.0
112
0.0
122
1.0
132
0.0
 79
     0
146
0.0
  0
ENDTAB
  0
TABLE
  2
LTYPE
  5
5
330
0
100
AcDbSymbolTable
 70
     8
  0
LTYPE
  5
14
330
5
100
AcDbSymbolTableRecord
100
AcDbLinetypeTableRecord
  2
ByBlock
 70
     0
  3

 72
    65
 73
     0
 40
0.0
  0
LTYPE
  5
15
330
5
100
AcDbSymbolTableRecord
100
AcDbLinetypeTableRecord
  2
ByLayer
 70
     0
  3

 72
    65
 73
     0
 40
0.0
  0
LTYPE
  5
16
330
5
100
AcDbSymbolTableRecord
100
AcDbLinetypeTableRecord
  2
Continuous
 70
     0
  3
Solid line
 72
    65
 73
     0
 40
0.0
  0
LTYPE
  5
3B
330
5
100
AcDbSymbolTableRecord
100
AcDbLinetypeTableRecord
  2
DASHED
 70
     0
  3
Dashed
 72
    65
 73
     2
 40
15.0
 49
7.0
 74
     0
 49
-8.0
 74
     0
  0
LTYPE
  5
3C
330
5
100
AcDbSymbolTableRecord
100
AcDbLinetypeTableRecord
  2
DOTTED
 70
     0
  3
Dotted
 72
    65
 73
     2
 40
1.0
 49
0.0
 74
     0
 49
-1.0
 74
     0
  0
LTYPE
  5
3D
330
5
100
AcDbSymbolTableRecord
100
AcDbLinetypeTableRecord
  2
DOT_CENTER
 70
     0
  3
Dot_Center
 72
    65
 73
     4
 40
14.0
 49
12.0
 74
     0
 49
-1.0
 74
     0
 49
0.0
 74
     0
 49
-1.0
 74
     0
  0
LTYPE
  5
3E
330
5
100
AcDbSymbolTableRecord
100
AcDbLinetypeTableRecord
  2
LONG_DASHED
 70
     0
  3
Long_Dashed
 72
    65
 73
     2
 40
15.0
 49
10.0
 74
     0
 49
-5.0
 74
     0
  0
LTYPE
  5
3F
330
5
100
AcDbSymbolTableRecord
100
AcDbLinetypeTableRecord
  2
DASH_CENTER
 70
     0
  3
Dash_Center
 72
    65
 73
     4
 40
14.0
 49
11.0
 74
     0
 49
-1.0
 74
     0
 49
1.0
 74
     0
 49
-1.0
 74
     0
  0
LTYPE
  5
40
330
5
100
AcDbSymbolTableRecord
100
AcDbLinetypeTableRecord
  2
PHANTOM
 70
     0
  3
Phantom
 72
    65
 73
     6
 40
13.0
 49
10.0
 74
     0
 49
-1.0
 74
     0
 49
0.0
 74
     0
 49
-1.0
 74
     0
 49
0.0
 74
     0
 49
-1.0
 74
     0
  0
LTYPE
  5
41
330
5
100
AcDbSymbolTableRecord
100
AcDbLinetypeTableRecord
  2
CENTER_DASH_DASH
 70
     0
  3
Center_Dash_Dash
 72
    65
 73
     6
 40
14.0
 49
9.0
 74
     0
 49
-1.0
 74
     0
 49
1.0
 74
     0
 49
-1.0
 74
     0
 49
1.0
 74
     0
 49
-1.0
 74
     0
  0
ENDTAB
  0
TABLE
  2
LAYER
  5
2
330
0
100
AcDbSymbolTable
 70
     6
  0
LAYER
  5
10
330
2
100
AcDbSymbolTableRecord
100
AcDbLayerTableRecord
  2
0
 70
     0
 62
     7
  6
Continuous
370
    -3
390
F
  0
LAYER
  5
42
330
2
100
AcDbSymbolTableRecord
100
AcDbLayerTableRecord
  2
1
 70
     0
 62
     7
  6
Continuous
370
    -3
390
F
  0
LAYER
  5
43
330
2
100
AcDbSymbolTableRecord
100
AcDbLayerTableRecord
  2
BEZUGSACHSEN
 70
     0
 62
     7
  6
Continuous
370
    -3
390
F
  0
LAYER
  5
44
330
2
100
AcDbSymbolTableRecord
100
AcDbLayerTableRecord
  2
DEFAULT_2
 70
     0
 62
     7
  6
Continuous
370
    -3
390
F
  0
LAYER
  5
45
330
2
100
AcDbSymbolTableRecord
100
AcDbLayerTableRecord
  2
FASEN
 70
     0
 62
     7
  6
Continuous
370
    -3
390
F
  0
LAYER
  5
46
330
2
100
AcDbSymbolTableRecord
100
AcDbLayerTableRecord
  2
RUNDUNGEN
 70
     0
 62
     7
  6
Continuous
370
    -3
390
F
  0
ENDTAB
  0
TABLE
  2
STYLE
  5
3
330
0
100
AcDbSymbolTable
 70
     2
  0
STYLE
  5
11
330
3
100
AcDbSymbolTableRecord
100
AcDbTextStyleTableRecord
  2
Standard
 70
     0
 40
0.0
 41
1.0
 50
0.0
 71
     0
 42
0.2
  3
txt
  4

  0
STYLE
  5
6D
330
3
100
AcDbSymbolTableRecord
100
AcDbTextStyleTableRecord
  2
CONVERTER_11
 70
     0
 40
0.0
 41
0.72
 50
0.0
 71
     0
 42
0.2
  3
txt.shx
  4

  0
ENDTAB
  0
TABLE
  2
VIEW
  5
6
330
0
100
AcDbSymbolTable
 70
     0
  0
ENDTAB
  0
TABLE
  2
UCS
  5
7
330
0
100
AcDbSymbolTable
 70
     0
  0
ENDTAB
  0
TABLE
  2
APPID
  5
9
330
0
100
AcDbSymbolTable
 70
     1
  0
APPID
  5
12
330
9
100
AcDbSymbolTableRecord
100
AcDbRegAppTableRecord
  2
ACAD
 70
     0
  0
ENDTAB
  0
TABLE
  2
DIMSTYLE
  5
A
330
0
100
AcDbSymbolTable
 70
     8
100
AcDbDimStyleTable
  0
DIMSTYLE
105
27
330
A
100
AcDbSymbolTableRecord
100
AcDbDimStyleTableRecord
  2
Standard
 70
     0
340
11
  0
DIMSTYLE
105
106
102
{ACAD_REACTORS
330
107
102
}
330
A
100
AcDbSymbolTableRecord
100
AcDbDimStyleTableRecord
  2
ME10_DIM_10
 70
     0
  3
\U+2300<>
 41
3.5
 42
2.0
 44
2.0
 71
     1
 73
     0
 74
     0
 77
     1
 78
     8
140
3.5
146
0.7
147
2.0
172
     1
173
     1
176
     2
177
     2
178
     3
271
     2
272
     0
340
6D
  0
DIMSTYLE
105
111
102
{ACAD_REACTORS
330
112
102
}
330
A
100
AcDbSymbolTableRecord
100
AcDbDimStyleTableRecord
  2
ME10_DIM_11
 70
     0
  3
\U+2300<>
 41
3.5
 42
2.0
 44
2.0
 71
     1
 73
     0
 74
     0
 77
     1
 78
     8
140
3.5
146
0.7
147
2.0
172
     1
173
     1
176
     2
177
     2
178
     3
271
     2
272
     0
340
6D
  0
DIMSTYLE
105
11C
102
{ACAD_REACTORS
330
11D
102
}
330
A
100
AcDbSymbolTableRecord
100
AcDbDimStyleTableRecord
  2
ME10_DIM_12
 70
     0
  3
\U+2300<>
 41
3.5
 42
2.0
 44
2.0
 71
     1
 73
     0
 74
     0
 77
     1
 78
     8
140
3.5
146
0.7
147
2.0
172
     1
173
     1
176
     2
177
     2
178
     3
271
     2
272
     0
340
6D
  0
DIMSTYLE
105
127
102
{ACAD_REACTORS
330
128
102
}
330
A
100
AcDbSymbolTableRecord
100
AcDbDimStyleTableRecord
  2
ME10_DIM_13
 70
     0
  3
<>
 41
3.5
 42
2.0
 44
2.0
 71
     1
 73
     0
 74
     0
 77
     1
 78
     8
140
3.5
146
0.7
147
2.0
172
     1
173
     1
176
     2
177
     2
178
     3
271
     2
272
     0
340
6D
  0
DIMSTYLE
105
132
102
{ACAD_REACTORS
330
133
102
}
330
A
100
AcDbSymbolTableRecord
100
AcDbDimStyleTableRecord
  2
ME10_DIM_14
 70
     0
  3
<>
 41
3.5
 42
2.0
 44
2.0
 71
     1
 73
     0
 74
     0
 77
     1
 78
     8
140
3.5
146
0.7
147
2.0
172
     1
173
     1
176
     2
177
     2
178
     3
271
     2
272
     0
340
6D
  0
DIMSTYLE
105
13D
102
{ACAD_REACTORS
330
13E
102
}
330
A
100
AcDbSymbolTableRecord
100
AcDbDimStyleTableRecord
  2
ME10_DIM_15
 70
     0
  3
<>
 41
3.5
 42
2.0
 44
2.0
 71
     1
 73
     0
 74
     0
 77
     1
 78
     8
140
3.5
146
0.7
147
2.0
172
     1
173
     1
176
     2
177
     2
178
     3
271
     2
272
     0
340
6D
  0
DIMSTYLE
105
14F
102
{ACAD_REACTORS
330
150
102
}
330
A
100
AcDbSymbolTableRecord
100
AcDbDimStyleTableRecord
  2
ME10_DIM_16
 70
     0
  3
<>
 41
3.5
 42
2.0
 44
2.0
 71
     1
 73
     0
 74
     0
 77
     1
 78
     8
140
3.5
146
0.7
147
2.0
172
     1
173
     1
176
     2
177
     2
178
     3
271
     2
272
     0
340
6D
  0
ENDTAB
  0
TABLE
  2
BLOCK_RECORD
  5
1
330
0
100
AcDbSymbolTable
 70
    10
  0
BLOCK_RECORD
  5
1F
330
1
100
AcDbSymbolTableRecord
100
AcDbBlockTableRecord
  2
*Model_Space
340
22
  0
BLOCK_RECORD
  5
1B
330
1
100
AcDbSymbolTableRecord
100
AcDbBlockTableRecord
  2
*Paper_Space
340
1E
  0
BLOCK_RECORD
  5
23
330
1
100
AcDbSymbolTableRecord
100
AcDbBlockTableRecord
  2
*Paper_Space0
340
26
  0
BLOCK_RECORD
  5
47
330
1
100
AcDbSymbolTableRecord
100
AcDbBlockTableRecord
  2
Urheberrecht_DE-EN
340
0
102
{BLKREFS
331
6C
102
}
  0
BLOCK_RECORD
  5
FD
330
1
100
AcDbSymbolTableRecord
100
AcDbBlockTableRecord
  2
*D2
340
0
  0
BLOCK_RECORD
  5
108
330
1
100
AcDbSymbolTableRecord
100
AcDbBlockTableRecord
  2
*D3
340
0
  0
BLOCK_RECORD
  5
113
330
1
100
AcDbSymbolTableRecord
100
AcDbBlockTableRecord
  2
*D4
340
0
  0
BLOCK_RECORD
  5
11E
330
1
100
AcDbSymbolTableRecord
100
AcDbBlockTableRecord
  2
*D5
340
0
  0
BLOCK_RECORD
  5
129
330
1
100
AcDbSymbolTableRecord
100
AcDbBlockTableRecord
  2
*D6
340
0
  0
BLOCK_RECORD
  5
134
330
1
100
AcDbSymbolTableRecord
100
AcDbBlockTableRecord
  2
*D7
340
0
  0
BLOCK_RECORD
  5
13F
330
1
100
AcDbSymbolTableRecord
100
AcDbBlockTableRecord
  2
*D8
340
0
102
{BLKREFS
331
145
102
}
  0
BLOCK_RECORD
  5
146
330
1
100
AcDbSymbolTableRecord
100
AcDbBlockTableRecord
  2
*D9
340
0
  0
ENDTAB
  0
ENDSEC
  0
SECTION
  2
BLOCKS
  0
BLOCK
  5
20
330
1F
100
AcDbEntity
  8
0
100
AcDbBlockBegin
  2
*Model_Space
 70
     0
 10
0.0
 20
0.0
 30
0.0
  3
*Model_Space
  1

  0
ENDBLK
  5
21
330
1F
100
AcDbEntity
  8
0
100
AcDbBlockEnd
  0
BLOCK
  5
1C
330
1B
100
AcDbEntity
 67
     1
  8
0
100
AcDbBlockBegin
  2
*Paper_Space
 70
     0
 10
0.0
 20
0.0
 30
0.0
  3
*Paper_Space
  1

  0
ENDBLK
  5
1D
330
1B
100
AcDbEntity
 67
     1
  8
0
100
AcDbBlockEnd
  0
BLOCK
  5
24
330
23
100
AcDbEntity
  8
0
100
AcDbBlockBegin
  2
*Paper_Space0
 70
     0
 10
0.0
 20
0.0
 30
0.0
  3
*Paper_Space0
  1

  0
ENDBLK
  5
25
330
23
100
AcDbEntity
  8
0
100
AcDbBlockEnd
  0
BLOCK
  5
48
330
47
100
AcDbEntity
  8
0
100
AcDbBlockBegin
  2
Urheberrecht_DE-EN
 70
     0
 10
37.9271024510741
 20
318.759047698898
 30
0.0
  3
Urheberrecht_DE-EN
  1

  0
MTEXT
  5
6E
330
47
100
AcDbEntity
  8
1
 62
     1
100
AcDbMText
 10
37.9271024510741
 20
318.759047698898
 30
0.0
 40
2.0
 41
0.0
 71
     7
 72
     1
  1
We own the copyright of this document. It \Pdetermined and may neither be copied or \Pmade accessible to outsiders without our\Ppermission.
  7
CONVERTER_11
 11
0.0
 21
1.0
 31
0.0
 73
     1
 44
0.90036014405762
  0
MTEXT
  5
6F
330
47
100
AcDbEntity
  8
1
 62
     1
100
AcDbMText
 10
37.9271024510741
 20
262.4696607815918
 30
0.0
 40
2.0
 41
0.0
 71
     7
 72
     1
  1
F\U+00fcr diese Unterlage behalten wir das Ur-\Pheberrecht. Sie darf nur f\U+00fcr den von uns \Pbestimmten Zweck benutzt und ohne unsere \PZustimmung weder vervielf\U+00e4ltigt noch\PDritten zug\U+00e4nglich gemacht werden.
  7
CONVERTER_11
 11
0.0
 21
1.0
 31
0.0
 73
     1
 44
0.90036014405762
  0
ENDBLK
  5
49
330
47
100
AcDbEntity
  8
0
100
AcDbBlockEnd
  0
BLOCK
  5
104
330
FD
100
AcDbEntity
  8
0
100
AcDbBlockBegin
  2
*D2
 70
     1
 10
0.0
 20
0.0
 30
0.0
  3
*D2
  1

  0
LINE
  5
FE
330
FD
100
AcDbEntity
  8
1
  6
Continuous
 62
     2
100
AcDbLine
 10
238.204593247017
 20
312.8115297109
 30
0.0
 11
238.204593247017
 21
294.8115297109
 31
0.0
  0
LINE
  5
FF
330
FD
100
AcDbEntity
  8
1
  6
Continuous
 62
     2
100
AcDbLine
 10
228.4264253212
 20
312.8115297109
 30
0.0
 11
240.204593247017
 21
312.8115297109
 31
0.0
  0
LINE
  5
100
330
FD
100
AcDbEntity
  8
1
  6
Continuous
 62
     2
100
AcDbLine
 10
228.4264253212
 20
294.8115297109
 30
0.0
 11
240.204593247017
 21
294.8115297109
 31
0.0
  0
SOLID
  5
101
330
FD
100
AcDbEntity
  8
1
 62
     2
100
AcDbTrace
 10
238.6653769885729
 20
309.3115297109
 30
0.0
 11
237.7438095054611
 21
309.3115297109
 31
0.0
 12
238.204593247017
 22
312.8115297109
 32
0.0
 13
238.204593247017
 23
312.8115297109
 33
0.0
  0
SOLID
  5
102
330
FD
100
AcDbEntity
  8
1
 62
     2
100
AcDbTrace
 10
237.7438095054611
 20
298.3115297109
 30
0.0
 11
238.6653769885729
 21
298.3115297109
 31
0.0
 12
238.204593247017
 22
294.8115297109
 32
0.0
 13
238.204593247017
 23
294.8115297109
 33
0.0
  0
MTEXT
  5
103
330
FD
100
AcDbEntity
  8
1
 62
     3
100
AcDbMText
 10
236.204593247017
 20
294.809355652222
 30
0.0
 40
3.5
 41
0.0
 71
     7
 72
     1
  1
\C3;%%c\C3;\C3;18\C2;\H2.45;\S^ ;\C3;
  7
CONVERTER_11
 11
0.0
 21
1.0
 31
0.0
 73
     1
 44
0.60024009603842
  0
ENDBLK
  5
105
330
FD
100
AcDbEntity
  8
0
100
AcDbBlockEnd
  0
BLOCK
  5
10F
330
108
100
AcDbEntity
  8
0
100
AcDbBlockBegin
  2
*D3
 70
     1
 10
0.0
 20
0.0
 30
0.0
  3
*D3
  1

  0
LINE
  5
109
330
108
100
AcDbEntity
  8
1
  6
Continuous
 62
     2
100
AcDbLine
 10
246.771679179264
 20
320.3115297109466
 30
0.0
 11
246.771679179264
 21
287.3115297108559
 31
0.0
  0
LINE
  5
10A
330
108
100
AcDbEntity
  8
1
  6
Continuous
 62
     2
100
AcDbLine
 10
228.4264253212
 20
320.3115297109466
 30
0.0
 11
248.771679179264
 21
320.3115297109466
 31
0.0
  0
LINE
  5
10B
330
108
100
AcDbEntity
  8
1
  6
Continuous
 62
     2
100
AcDbLine
 10
228.4264253212
 20
287.3115297108559
 30
0.0
 11
248.771679179264
 21
287.3115297108559
 31
0.0
  0
SOLID
  5
10C
330
108
100
AcDbEntity
  8
1
 62
     2
100
AcDbTrace
 10
247.2324629208199
 20
316.8115297109466
 30
0.0
 11
246.3108954377081
 21
316.8115297109466
 31
0.0
 12
246.771679179264
 22
320.3115297109466
 32
0.0
 13
246.771679179264
 23
320.3115297109466
 33
0.0
  0
SOLID
  5
10D
330
108
100
AcDbEntity
  8
1
 62
     2
100
AcDbTrace
 10
246.3108954377081
 20
290.8115297108559
 30
0.0
 11
247.2324629208199
 21
290.8115297108559
 31
0.0
 12
246.771679179264
 22
287.3115297108559
 32
0.0
 13
246.771679179264
 23
287.3115297108559
 33
0.0
  0
MTEXT
  5
10E
330
108
100
AcDbEntity
  8
1
 62
     3
100
AcDbMText
 10
244.771679179264
 20
294.794956225372
 30
0.0
 40
3.5
 41
0.0
 71
     7
 72
     1
  1
\C3;%%c\C3;\C3;33\C2;\H2.45;\S^ ;\C3;
  7
CONVERTER_11
 11
0.0
 21
1.0
 31
0.0
 73
     1
 44
0.60024009603842
  0
ENDBLK
  5
110
330
108
100
AcDbEntity
  8
0
100
AcDbBlockEnd
  0
BLOCK
  5
11A
330
113
100
AcDbEntity
  8
0
100
AcDbBlockBegin
  2
*D4
 70
     1
 10
0.0
 20
0.0
 30
0.0
  3
*D4
  1

  0
LINE
  5
114
330
113
100
AcDbEntity
  8
1
  6
Continuous
 62
     2
100
AcDbLine
 10
255.169570752804
 20
324.8115297109
 30
0.0
 11
255.169570752804
 21
282.8115297109
 31
0.0
  0
LINE
  5
115
330
113
100
AcDbEntity
  8
1
  6
Continuous
 62
     2
100
AcDbLine
 10
171.2485040084
 20
324.8115297109
 30
0.0
 11
257.169570752804
 21
324.8115297109
 31
0.0
  0
LINE
  5
116
330
113
100
AcDbEntity
  8
1
  6
Continuous
 62
     2
100
AcDbLine
 10
171.2485040084
 20
282.8115297109
 30
0.0
 11
257.169570752804
 21
282.8115297109
 31
0.0
  0
SOLID
  5
117
330
113
100
AcDbEntity
  8
1
 62
     2
100
AcDbTrace
 10
255.6303544943599
 20
321.3115297109
 30
0.0
 11
254.7087870112481
 21
321.3115297109
 31
0.0
 12
255.169570752804
 22
324.8115297109
 32
0.0
 13
255.169570752804
 23
324.8115297109
 33
0.0
  0
SOLID
  5
118
330
113
100
AcDbEntity
  8
1
 62
     2
100
AcDbTrace
 10
254.7087870112481
 20
286.3115297109
 30
0.0
 11
255.6303544943599
 21
286.3115297109
 31
0.0
 12
255.169570752804
 22
282.8115297109
 32
0.0
 13
255.169570752804
 23
282.8115297109
 33
0.0
  0
MTEXT
  5
119
330
113
100
AcDbEntity
  8
1
 62
     3
100
AcDbMText
 10
253.169570752804
 20
294.794956225372
 30
0.0
 40
3.5
 41
0.0
 71
     7
 72
     1
  1
\C3;%%c\C3;\C3;42\C2;\H2.45;\S^ ;\C3;
  7
CONVERTER_11
 11
0.0
 21
1.0
 31
0.0
 73
     1
 44
0.60024009603842
  0
ENDBLK
  5
11B
330
113
100
AcDbEntity
  8
0
100
AcDbBlockEnd
  0
BLOCK
  5
125
330
11E
100
AcDbEntity
  8
0
100
AcDbBlockBegin
  2
*D5
 70
     1
 10
0.0
 20
0.0
 30
0.0
  3
*D5
  1

  0
LINE
  5
11F
330
11E
100
AcDbEntity
  8
1
  6
Continuous
 62
     2
100
AcDbLine
 10
226.4264253212
 20
361.687807569139
 30
0.0
 11
125.4264253212
 21
361.687807569139
 31
0.0
  0
LINE
  5
120
330
11E
100
AcDbEntity
  8
1
  6
Continuous
 62
     2
100
AcDbLine
 10
226.4264253212
 20
321.3871392193
 30
0.0
 11
226.4264253212
 21
363.687807569139
 31
0.0
  0
LINE
  5
121
330
11E
100
AcDbEntity
  8
1
  6
Continuous
 62
     2
100
AcDbLine
 10
125.4264253212
 20
355.8114927898
 30
0.0
 11
125.4264253212
 21
363.687807569139
 31
0.0
  0
SOLID
  5
122
330
11E
100
AcDbEntity
  8
1
 62
     2
100
AcDbTrace
 10
222.9264253212
 20
361.2270238275831
 30
0.0
 11
222.9264253212
 21
362.1485913106949
 31
0.0
 12
226.4264253212
 22
361.687807569139
 32
0.0
 13
226.4264253212
 23
361.687807569139
 33
0.0
  0
SOLID
  5
123
330
11E
100
AcDbEntity
  8
1
 62
     2
100
AcDbTrace
 10
128.9264253212
 20
362.1485913106949
 30
0.0
 11
128.9264253212
 21
361.2270238275831
 31
0.0
 12
125.4264253212
 22
361.687807569139
 32
0.0
 13
125.4264253212
 23
361.687807569139
 33
0.0
  0
MTEXT
  5
124
330
11E
100
AcDbEntity
  8
1
 62
     3
100
AcDbMText
 10
174.65948467479
 20
363.687807569139
 30
0.0
 40
3.5
 41
0.0
 71
     7
 72
     1
  1
\C3;\C3;\C3;101\C2;\H2.45;\S^ ;\C3;
  7
CONVERTER_11
 11
0.9999999999970619
 21
2.424068405545306E-6
 31
0.0
 73
     1
 44
0.60024009603842
  0
ENDBLK
  5
126
330
11E
100
AcDbEntity
  8
0
100
AcDbBlockEnd
  0
BLOCK
  5
130
330
129
100
AcDbEntity
  8
0
100
AcDbBlockBegin
  2
*D6
 70
     1
 10
0.0
 20
0.0
 30
0.0
  3
*D6
  1

  0
LINE
  5
12A
330
129
100
AcDbEntity
  8
1
  6
Continuous
 62
     2
100
AcDbLine
 10
226.4264253212
 20
368.783470357609
 30
0.0
 11
96.4264253212
 21
368.783470357609
 31
0.0
  0
LINE
  5
12B
330
129
100
AcDbEntity
  8
1
  6
Continuous
 62
     2
100
AcDbLine
 10
226.4264253212
 20
321.3871392193
 30
0.0
 11
226.4264253212
 21
370.783470357609
 31
0.0
  0
LINE
  5
12C
330
129
100
AcDbEntity
  8
1
  6
Continuous
 62
     2
100
AcDbLine
 10
96.4264253212
 20
355.8115297109
 30
0.0
 11
96.4264253212
 21
370.783470357609
 31
0.0
  0
SOLID
  5
12D
330
129
100
AcDbEntity
  8
1
 62
     2
100
AcDbTrace
 10
222.9264253212
 20
368.3226866160531
 30
0.0
 11
222.9264253212
 21
369.2442540991649
 31
0.0
 12
226.4264253212
 22
368.783470357609
 32
0.0
 13
226.4264253212
 23
368.783470357609
 33
0.0
  0
SOLID
  5
12E
330
129
100
AcDbEntity
  8
1
 62
     2
100
AcDbTrace
 10
99.9264253212
 20
369.2442540991649
 30
0.0
 11
99.9264253212
 21
368.3226866160531
 31
0.0
 12
96.4264253212
 22
368.783470357609
 32
0.0
 13
96.4264253212
 23
368.783470357609
 33
0.0
  0
MTEXT
  5
12F
330
129
100
AcDbEntity
  8
1
 62
     3
100
AcDbMText
 10
159.693375958428
 20
370.783470357609
 30
0.0
 40
3.5
 41
0.0
 71
     7
 72
     1
  1
\C3;\C3;\C3;130\C2;\H2.45;\S^ ;\C3;
  7
CONVERTER_11
 11
0.9999999999970619
 21
2.424068405545306E-6
 31
0.0
 73
     1
 44
0.60024009603842
  0
ENDBLK
  5
131
330
129
100
AcDbEntity
  8
0
100
AcDbBlockEnd
  0
BLOCK
  5
13B
330
134
100
AcDbEntity
  8
0
100
AcDbBlockBegin
  2
*D7
 70
     1
 10
0.0
 20
0.0
 30
0.0
  3
*D7
  1

  0
LINE
  5
135
330
134
100
AcDbEntity
  8
1
  6
Continuous
 62
     2
100
AcDbLine
 10
226.4264253212
 20
376.411307855213
 30
0.0
 11
46.4264253212
 21
376.411307855213
 31
0.0
  0
LINE
  5
136
330
134
100
AcDbEntity
  8
1
  6
Continuous
 62
     2
100
AcDbLine
 10
226.4264253212
 20
321.3871392193
 30
0.0
 11
226.4264253212
 21
378.411307855213
 31
0.0
  0
LINE
  5
137
330
134
100
AcDbEntity
  8
1
  6
Continuous
 62
     2
100
AcDbLine
 10
46.4264253212
 20
339.4117212735
 30
0.0
 11
46.4264253212
 21
378.411307855213
 31
0.0
  0
SOLID
  5
138
330
134
100
AcDbEntity
  8
1
 62
     2
100
AcDbTrace
 10
222.9264253212
 20
375.9505241136571
 30
0.0
 11
222.9264253212
 21
376.8720915967689
 31
0.0
 12
226.4264253212
 22
376.411307855213
 32
0.0
 13
226.4264253212
 23
376.411307855213
 33
0.0
  0
SOLID
  5
139
330
134
100
AcDbEntity
  8
1
 62
     2
100
AcDbTrace
 10
49.9264253212
 20
376.8720915967689
 30
0.0
 11
49.9264253212
 21
375.9505241136571
 31
0.0
 12
46.4264253212
 22
376.411307855213
 32
0.0
 13
46.4264253212
 23
376.411307855213
 33
0.0
  0
MTEXT
  5
13A
330
134
100
AcDbEntity
  8
1
 62
     3
100
AcDbMText
 10
140.002911720424
 20
378.411307855213
 30
0.0
 40
3.5
 41
0.0
 71
     7
 72
     1
  1
\C3;\C3;\C3;180\C2;\H2.45;\S^ ;\C3;
  7
CONVERTER_11
 11
0.9999999999970619
 21
2.424068405545306E-6
 31
0.0
 73
     1
 44
0.60024009603842
  0
ENDBLK
  5
13C
330
134
100
AcDbEntity
  8
0
100
AcDbBlockEnd
  0
BLOCK
  5
143
330
13F
100
AcDbEntity
  8
0
100
AcDbBlockBegin
  2
*D8
 70
     1
 10
0.0
 20
0.0
 30
0.0
  3
*D8
  1

  0
LINE
  5
140
330
13F
100
AcDbEntity
  8
1
  6
Continuous
 62
     2
100
AcDbLine
 10
143.1033161096094
 20
340.9603923043093
 30
0.0
 11
135.0959067596222
 21
327.6860987309539
 31
0.0
  0
SOLID
  5
141
330
13F
100
AcDbEntity
  8
1
 62
     2
100
AcDbTrace
 10
136.5091914997634
 20
330.9210559021953
 30
0.0
 11
137.2983035160331
 21
330.4450424026937
 31
0.0
 12
135.0959067596222
 22
327.6860987309539
 32
0.0
 13
135.0959067596222
 23
327.6860987309539
 33
0.0
  0
MTEXT
  5
142
330
13F
100
AcDbEntity
  8
1
 62
     3
100
AcDbMText
 10
136.2565052865106
 20
333.4821049634338
 30
0.0
 40
3.5
 41
0.0
 71
     7
 72
     1
  1
\C3; R\C3;\C3;20\C2;\H2.45;\S^ ;\C3;
  7
CONVERTER_11
 11
0.5165259280788921
 21
0.8562715489973023
 31
0.0
 73
     1
 44
0.60024009603842
  0
ENDBLK
  5
144
330
13F
100
AcDbEntity
  8
0
100
AcDbBlockEnd
  0
BLOCK
  5
14D
330
146
100
AcDbEntity
  8
0
100
AcDbBlockBegin
  2
*D9
 70
     1
 10
0.0
 20
0.0
 30
0.0
  3
*D9
  1

  0
LINE
  5
147
330
146
100
AcDbEntity
  8
1
  6
Continuous
 62
     2
100
AcDbLine
 10
204.7156030642693
 20
324.8115297109
 30
0.0
 11
206.7156030642693
 21
324.8115297109
 31
0.0
  0
LINE
  5
148
330
146
100
AcDbEntity
  8
1
  6
Continuous
 62
     2
100
AcDbLine
 10
171.2485040084
 20
324.8115297109
 30
0.0
 11
204.7156030642693
 21
324.8115297109
 31
0.0
  0
ARC
  5
149
330
146
100
AcDbEntity
  8
1
  6
Continuous
 62
     2
100
AcDbCircle
 10
169.2485040084
 20
324.8115297109
 30
0.0
 40
35.46709905586933
100
AcDbArc
 50
347.0188202460826
 51
14.37011950947993
  0
SOLID
  5
14A
330
146
100
AcDbEntity
  8
1
 62
     2
100
AcDbTrace
 10
204.6169252856898
 20
318.4986279099509
 30
0.0
 11
203.7028830265419
 21
318.6161582227249
 31
0.0
 12
204.6062698344272
 22
322.0288131909016
 32
0.0
 13
204.6062698344272
 23
322.0288131909016
 33
0.0
  0
SOLID
  5
14B
330
146
100
AcDbEntity
  8
1
 62
     2
100
AcDbTrace
 10
204.0827549192555
 20
328.2845435147647
 30
0.0
 11
205.0032008132255
 21
328.3299965916987
 31
0.0
 12
204.7156030642693
 22
324.8115297109
 32
0.0
 13
204.7156030642693
 23
324.8115297109
 33
0.0
  0
MTEXT
  5
14C
330
146
100
AcDbEntity
  8
1
 62
     3
100
AcDbMText
 10
205.7045467854558
 20
334.1515876175621
 30
0.0
 40
3.5
 41
0.0
 71
     7
 72
     1
  1
\C3;\C3;\C3;4.5%%d\C2;\H2.45;\S^ ;\C3;
  7
CONVERTER_11
 11
0.1560939960071478
 21
-0.9877422054415416
 31
0.0
 73
     1
 44
0.60024009603842
  0
ENDBLK
  5
14E
330
146
100
AcDbEntity
  8
0
100
AcDbBlockEnd
  0
ENDSEC
  0
SECTION
  2
ENTITIES
  0
INSERT
  5
6C
330
1F
100
AcDbEntity
  8
0
100
AcDbBlockReference
  2
Urheberrecht_DE-EN
 10
37.9271024510741
 20
318.759047698898
 30
0.0
  0
LINE
  5
70
330
1F
100
AcDbEntity
  8
BEZUGSACHSEN
  6
Continuous
 62
     7
100
AcDbLine
 10
46.4264253212
 20
270.211338148
 30
0.0
 11
46.4264253212
 21
291.8015297109
 31
0.0
  0
LINE
  5
71
330
1F
100
AcDbEntity
  8
BEZUGSACHSEN
  6
Continuous
 62
     7
100
AcDbLine
 10
46.4264253212
 20
315.8215297109
 30
0.0
 11
46.4264253212
 21
337.4117212735
 31
0.0
  0
LINE
  5
72
330
1F
100
AcDbEntity
  8
BEZUGSACHSEN
  6
Continuous
 62
     9
100
AcDbLine
 10
48.3263508365
 20
339.4092159792
 30
0.0
 11
48.3263508365
 21
319.4880620972
 31
0.0
  0
LINE
  5
73
330
1F
100
AcDbEntity
  8
BEZUGSACHSEN
  6
Continuous
 62
     9
100
AcDbLine
 10
48.3263508365
 20
288.1349973247
 30
0.0
 11
48.3263508365
 21
268.2138434426
 31
0.0
  0
LINE
  5
74
330
1F
100
AcDbEntity
  8
BEZUGSACHSEN
  6
Continuous
 62
     7
100
AcDbLine
 10
48.4264253212
 20
291.4078897625
 30
0.0
 11
48.4264253212
 21
293.8015297109
 31
0.0
  0
LINE
  5
75
330
1F
100
AcDbEntity
  8
BEZUGSACHSEN
  6
Continuous
 62
     7
100
AcDbLine
 10
48.4264253212
 20
313.8215297109
 30
0.0
 11
48.4264253212
 21
316.2151696593
 31
0.0
  0
LINE
  5
76
330
1F
100
AcDbEntity
  8
BEZUGSACHSEN
  6
Continuous
 62
     9
100
AcDbLine
 10
54.4264253212
 20
287.4528821235
 30
0.0
 11
54.4264253212
 21
293.8015297109
 31
0.0
  0
LINE
  5
77
330
1F
100
AcDbEntity
  8
BEZUGSACHSEN
  6
Continuous
 62
     9
100
AcDbLine
 10
54.4264253212
 20
313.8215297109
 30
0.0
 11
54.4264253212
 21
320.1701772984
 31
0.0
  0
LINE
  5
78
330
1F
100
AcDbEntity
  8
BEZUGSACHSEN
  6
Continuous
 62
     7
100
AcDbLine
 10
56.4264253212
 20
316.6811852367
 30
0.0
 11
56.4264253212
 21
290.9418741851
 31
0.0
  0
LINE
  5
79
330
1F
100
AcDbEntity
  8
BEZUGSACHSEN
  6
Continuous
 62
     7
100
AcDbLine
 10
47.6933782482
 20
288.8015297109
 30
0.0
 11
47.5722679968
 21
288.5691937155
 31
0.0
  0
LINE
  5
7A
330
1F
100
AcDbEntity
  8
BEZUGSACHSEN
  6
Continuous
 62
     7
100
AcDbLine
 10
47.5722679968
 20
319.0538657064
 30
0.0
 11
47.6933782482
 21
318.8215297109
 31
0.0
  0
LWPOLYLINE
  5
7B
330
1F
100
AcDbEntity
  8
BEZUGSACHSEN
  6
DOT_CENTER
 62
     7
100
AcDbPolyline
 90
        2
 70
     0
 43
0.25
 10
81.4264253212
 20
303.8115297109
 10
81.4264253212
 20
294.8115297109
  0
LWPOLYLINE
  5
7C
330
1F
100
AcDbEntity
  8
BEZUGSACHSEN
  6
DOT_CENTER
 62
     7
100
AcDbPolyline
 90
        2
 70
     0
 43
0.25
 10
81.4264253212
 20
303.8115297109
 10
81.4264253212
 20
312.8115297109
  0
LINE
  5
7D
330
1F
100
AcDbEntity
  8
BEZUGSACHSEN
  6
Continuous
 62
     7
100
AcDbLine
 10
46.4264253212
 20
291.8015297109
 30
0.0
 11
48.4264253212
 21
293.8015297109
 31
0.0
  0
LINE
  5
7E
330
1F
100
AcDbEntity
  8
BEZUGSACHSEN
  6
Continuous
 62
     7
100
AcDbLine
 10
48.4264253212
 20
313.8215297109
 30
0.0
 11
46.4264253212
 21
315.8215297109
 31
0.0
  0
LINE
  5
7F
330
1F
100
AcDbEntity
  8
BEZUGSACHSEN
  6
Continuous
 62
     7
100
AcDbLine
 10
113.178830057
 20
253.8115297109
 30
0.0
 11
96.4264253212
 21
253.8115297109
 31
0.0
  0
LINE
  5
80
330
1F
100
AcDbEntity
  8
BEZUGSACHSEN
  6
Continuous
 62
     7
100
AcDbLine
 10
119.6740205854
 20
253.8115297109
 30
0.0
 11
125.4264253212
 21
253.8115297109
 31
0.0
  0
LINE
  5
81
330
1F
100
AcDbEntity
  8
BEZUGSACHSEN
  6
Continuous
 62
     7
100
AcDbLine
 10
93.9264253212
 20
341.6937797109
 30
0.0
 11
93.9264253212
 21
265.9292797109
 31
0.0
  0
LINE
  5
82
330
1F
100
AcDbEntity
  8
BEZUGSACHSEN
  6
Continuous
 62
     9
100
AcDbLine
 10
94.5456689352
 20
266.0952055372
 30
0.0
 11
94.5456689352
 21
341.5278538846
 31
0.0
  0
LINE
  5
83
330
1F
100
AcDbEntity
  8
BEZUGSACHSEN
  6
Continuous
 62
     9
100
AcDbLine
 10
94.8044879803
 20
266.1292797109
 30
0.0
 11
94.8044879803
 21
341.4937797109
 31
0.0
  0
LINE
  5
84
330
1F
100
AcDbEntity
  8
BEZUGSACHSEN
  6
Continuous
 62
     9
100
AcDbLine
 10
95.7258540325
 20
266.1292797109
 30
0.0
 11
95.7258540325
 21
341.4937797109
 31
0.0
  0
LINE
  5
85
330
1F
100
AcDbEntity
  8
BEZUGSACHSEN
  6
Continuous
 62
     7
100
AcDbLine
 10
115.5514253212
 20
257.8115297109
 30
0.0
 11
117.3014253212
 21
257.8115297109
 31
0.0
  0
LINE
  5
86
330
1F
100
AcDbEntity
  8
BEZUGSACHSEN
  6
Continuous
 62
     7
100
AcDbLine
 10
96.4264253212
 20
353.8115297109
 30
0.0
 11
96.4264253212
 21
253.8115297109
 31
0.0
  0
LINE
  5
87
330
1F
100
AcDbEntity
  8
BEZUGSACHSEN
  6
Continuous
 62
     7
100
AcDbLine
 10
118.3014253212
 20
351.4341249751
 30
0.0
 11
119.6740205854
 21
353.8115297109
 31
0.0
  0
LINE
  5
88
330
1F
100
AcDbEntity
  8
FASEN
  6
Continuous
 62
     7
100
AcDbLine
 10
101.8279112856
 20
264.9817730802
 30
0.0
 11
113.178830057
 21
264.9817730802
 31
0.0
  0
LINE
  5
89
330
1F
100
AcDbEntity
  8
0
  6
Continuous
 62
     7
100
AcDbLine
 10
119.6740205854
 20
264.9817730802
 30
0.0
 11
125.4264253212
 21
264.9817730802
 31
0.0
  0
LINE
  5
8A
330
1F
100
AcDbEntity
  8
BEZUGSACHSEN
  6
Continuous
 62
     7
100
AcDbLine
 10
95.7258540325
 20
266.1292797109
 30
0.0
 11
94.8044879803
 21
266.1292797109
 31
0.0
  0
LINE
  5
8B
330
1F
100
AcDbEntity
  8
0
  6
Continuous
 62
     7
100
AcDbLine
 10
115.5514253212
 20
270.2891491272
 30
0.0
 11
117.3014253212
 21
270.2891491272
 31
0.0
  0
LINE
  5
8C
330
1F
100
AcDbEntity
  8
BEZUGSACHSEN
  6
Continuous
 62
     7
100
AcDbLine
 10
93.9264253212
 20
265.9292797109
 30
0.0
 11
48.3263508365
 21
268.2138434426
 31
0.0
  0
LINE
  5
8D
330
1F
100
AcDbEntity
  8
BEZUGSACHSEN
  6
Continuous
 62
     7
100
AcDbLine
 10
118.3014253212
 20
256.1889344467
 30
0.0
 11
119.6740205854
 21
253.8115297109
 31
0.0
  0
LWPOLYLINE
  5
8E
330
1F
100
AcDbEntity
  8
BEZUGSACHSEN
  6
DOT_CENTER
 62
     7
100
AcDbPolyline
 90
        2
 70
     0
 43
0.25
 10
103.4264253212
 20
345.9609015663
 10
103.4264253212
 20
356.8115297109
  0
LINE
  5
8F
330
1F
100
AcDbEntity
  8
FASEN
  6
Continuous
 62
     9
100
AcDbLine
 10
109.3982992431
 20
271.9115297109
 30
0.0
 11
109.3982992431
 21
272.3115297109
 31
0.0
  0
LINE
  5
90
330
1F
100
AcDbEntity
  8
BEZUGSACHSEN
  6
Continuous
 62
     9
100
AcDbLine
 10
46.4264253212
 20
290.3653457419
 30
0.0
 11
48.4264253212
 21
291.4078897625
 31
0.0
  0
LINE
  5
91
330
1F
100
AcDbEntity
  8
FASEN
  6
Continuous
 62
     7
100
AcDbLine
 10
109.3982992431
 20
271.9115297109
 30
0.0
 11
125.4264253212
 21
271.9115297109
 31
0.0
  0
LINE
  5
92
330
1F
100
AcDbEntity
  8
0
  6
Continuous
 62
     7
100
AcDbLine
 10
109.3982992431
 20
272.3115297109
 30
0.0
 11
125.4264253212
 21
272.3115297109
 31
0.0
  0
LINE
  5
93
330
1F
100
AcDbEntity
  8
BEZUGSACHSEN
  6
Continuous
 62
     9
100
AcDbLine
 10
48.4264253212
 20
316.2151696593
 30
0.0
 11
46.4264253212
 21
317.2577136799
 31
0.0
  0
LINE
  5
94
330
1F
100
AcDbEntity
  8
FASEN
  6
Continuous
 62
     9
100
AcDbLine
 10
111.4264253212
 20
294.2115297109
 30
0.0
 11
111.4264253212
 21
293.8115297109
 31
0.0
  0
LINE
  5
95
330
1F
100
AcDbEntity
  8
FASEN
  6
Continuous
 62
     9
100
AcDbLine
 10
111.4264253212
 20
313.4115297109
 30
0.0
 11
111.4264253212
 21
313.8115297109
 31
0.0
  0
LINE
  5
96
330
1F
100
AcDbEntity
  8
0
  6
Continuous
 62
     7
100
AcDbLine
 10
113.178830057
 20
353.8115297109
 30
0.0
 11
113.178830057
 21
313.8115297109
 31
0.0
  0
LINE
  5
97
330
1F
100
AcDbEntity
  8
0
  6
Continuous
 62
     7
100
AcDbLine
 10
113.178830057
 20
293.8115297109
 30
0.0
 11
113.178830057
 21
272.3115297109
 31
0.0
  0
LINE
  5
98
330
1F
100
AcDbEntity
  8
0
  6
Continuous
 62
     7
100
AcDbLine
 10
113.178830057
 20
264.9817730802
 30
0.0
 11
113.178830057
 21
253.8115297109
 31
0.0
  0
LINE
  5
99
330
1F
100
AcDbEntity
  8
0
  6
Continuous
 62
     7
100
AcDbLine
 10
114.5514253212
 20
351.4340915486
 30
0.0
 11
114.5514253212
 21
313.8115297109
 31
0.0
  0
LINE
  5
9A
330
1F
100
AcDbEntity
  8
0
  6
Continuous
 62
     7
100
AcDbLine
 10
114.5514253212
 20
293.8115297109
 30
0.0
 11
114.5514253212
 21
272.3115297109
 31
0.0
  0
LINE
  5
9B
330
1F
100
AcDbEntity
  8
0
  6
Continuous
 62
     7
100
AcDbLine
 10
114.5514253212
 20
256.1889719807
 30
0.0
 11
114.5514253212
 21
268.9295859577
 31
0.0
  0
LINE
  5
9C
330
1F
100
AcDbEntity
  8
0
  6
Continuous
 62
     9
100
AcDbLine
 10
115.5514253212
 20
257.8115297109
 30
0.0
 11
115.5514253212
 21
270.2891491272
 31
0.0
  0
LINE
  5
9D
330
1F
100
AcDbEntity
  8
0
  6
Continuous
 62
     9
100
AcDbLine
 10
115.5514253212
 20
272.3115297109
 30
0.0
 11
115.5514253212
 21
293.8115297109
 31
0.0
  0
LINE
  5
9E
330
1F
100
AcDbEntity
  8
0
  6
Continuous
 62
     9
100
AcDbLine
 10
115.5514253212
 20
313.8115297109
 30
0.0
 11
115.5514253212
 21
349.8115297109
 31
0.0
  0
LINE
  5
9F
330
1F
100
AcDbEntity
  8
BEZUGSACHSEN
  6
Continuous
 62
     7
100
AcDbLine
 10
94.5456689352
 20
266.0952055372
 30
0.0
 11
93.9264253212
 21
265.9292797109
 31
0.0
  0
LINE
  5
A0
330
1F
100
AcDbEntity
  8
RUNDUNGEN
  6
Continuous
 62
     7
100
AcDbLine
 10
225.5048844169
 20
287.2390028688
 30
0.0
 11
169.2485040084
 21
282.8115297109
 31
0.0
  0
LINE
  5
A1
330
1F
100
AcDbEntity
  8
0
  6
Continuous
 62
     7
100
AcDbLine
 10
169.2485040084
 20
282.8115297109
 30
0.0
 11
225.5048844169
 21
287.2390028688
 31
0.0
  0
LINE
  5
A2
330
1F
100
AcDbEntity
  8
RUNDUNGEN
  6
Continuous
 62
     7
100
AcDbLine
 10
169.2485040084
 20
282.8115297109
 30
0.0
 11
145.4264253212
 21
282.8115297109
 31
0.0
  0
LINE
  5
A3
330
1F
100
AcDbEntity
  8
0
  6
Continuous
 62
     7
100
AcDbLine
 10
145.4264253212
 20
282.8115297109
 30
0.0
 11
169.2485040084
 21
282.8115297109
 31
0.0
  0
LINE
  5
A4
330
1F
100
AcDbEntity
  8
0
  6
Continuous
 62
     9
100
AcDbLine
 10
117.3014253212
 20
257.8115297109
 30
0.0
 11
117.3014253212
 21
270.2891491272
 31
0.0
  0
LINE
  5
A5
330
1F
100
AcDbEntity
  8
0
  6
Continuous
 62
     9
100
AcDbLine
 10
117.3014253212
 20
272.3115297109
 30
0.0
 11
117.3014253212
 21
293.8115297109
 31
0.0
  0
LINE
  5
A6
330
1F
100
AcDbEntity
  8
0
  6
Continuous
 62
     9
100
AcDbLine
 10
117.3014253212
 20
313.8115297109
 30
0.0
 11
117.3014253212
 21
349.8115297109
 31
0.0
  0
LINE
  5
A7
330
1F
100
AcDbEntity
  8
0
  6
Continuous
 62
     7
100
AcDbLine
 10
118.3014253212
 20
256.1889719807
 30
0.0
 11
118.3014253212
 21
268.9295859577
 31
0.0
  0
LINE
  5
A8
330
1F
100
AcDbEntity
  8
0
  6
Continuous
 62
     7
100
AcDbLine
 10
118.3014253212
 20
272.3115297109
 30
0.0
 11
118.3014253212
 21
293.8115297109
 31
0.0
  0
LINE
  5
A9
330
1F
100
AcDbEntity
  8
0
  6
Continuous
 62
     7
100
AcDbLine
 10
118.3014253212
 20
313.8115297109
 30
0.0
 11
118.3014253212
 21
351.4340915486
 31
0.0
  0
LINE
  5
AA
330
1F
100
AcDbEntity
  8
0
  6
Continuous
 62
     7
100
AcDbLine
 10
119.6740205854
 20
353.8115297109
 30
0.0
 11
119.6740205854
 21
313.8115297109
 31
0.0
  0
LINE
  5
AB
330
1F
100
AcDbEntity
  8
0
  6
Continuous
 62
     7
100
AcDbLine
 10
119.6740205854
 20
293.8115297109
 30
0.0
 11
119.6740205854
 21
272.3115297109
 31
0.0
  0
LINE
  5
AC
330
1F
100
AcDbEntity
  8
0
  6
Continuous
 62
     7
100
AcDbLine
 10
119.6740205854
 20
264.9817730802
 30
0.0
 11
119.6740205854
 21
253.8115297109
 31
0.0
  0
LINE
  5
AD
330
1F
100
AcDbEntity
  8
BEZUGSACHSEN
  6
Continuous
 62
     9
100
AcDbLine
 10
55.9802712681
 20
288.8015297109
 30
0.0
 11
47.6933782482
 21
288.8015297109
 31
0.0
  0
LINE
  5
AE
330
1F
100
AcDbEntity
  8
0
  6
Continuous
 62
     7
100
AcDbLine
 10
125.4264253212
 20
353.8114927898
 30
0.0
 11
125.4264253212
 21
313.8115297109
 31
0.0
  0
LINE
  5
AF
330
1F
100
AcDbEntity
  8
0
  6
Continuous
 62
     7
100
AcDbLine
 10
125.4264253212
 20
293.8115297109
 30
0.0
 11
125.4264253212
 21
272.3115297109
 31
0.0
  0
LINE
  5
B0
330
1F
100
AcDbEntity
  8
0
  6
Continuous
 62
     7
100
AcDbLine
 10
125.4264253212
 20
264.9817730802
 30
0.0
 11
125.4264253212
 21
253.8115315787
 31
0.0
  0
LINE
  5
B1
330
1F
100
AcDbEntity
  8
FASEN
  6
Continuous
 62
     7
100
AcDbLine
 10
125.4264253212
 20
264.9817730802
 30
0.0
 11
125.4264253212
 21
272.3115297109
 31
0.0
  0
LINE
  5
B2
330
1F
100
AcDbEntity
  8
FASEN
  6
Continuous
 62
     7
100
AcDbLine
 10
125.4264253212
 20
293.8115297109
 30
0.0
 11
125.4264253212
 21
313.8115297109
 31
0.0
  0
LINE
  5
B3
330
1F
100
AcDbEntity
  8
BEZUGSACHSEN
  6
Continuous
 62
     7
100
AcDbLine
 10
54.4264253212
 20
293.8015297109
 30
0.0
 11
48.4264253212
 21
293.8015297109
 31
0.0
  0
LINE
  5
B4
330
1F
100
AcDbEntity
  8
0
  6
Continuous
 62
     7
100
AcDbLine
 10
111.4264253212
 20
293.8115297109
 30
0.0
 11
125.4264253212
 21
293.8115297109
 31
0.0
  0
LINE
  5
B5
330
1F
100
AcDbEntity
  8
FASEN
  6
Continuous
 62
     7
100
AcDbLine
 10
125.4264253212
 20
294.2115297109
 30
0.0
 11
111.4264253212
 21
294.2115297109
 31
0.0
  0
LWPOLYLINE
  5
B6
330
1F
100
AcDbEntity
  8
DEFAULT_2
  6
DASHED
 62
     8
100
AcDbPolyline
 90
        2
 70
     0
 43
0.35
 10
226.4264253212
 20
294.8115297109
 10
176.4264253212
 20
294.8115297109
  0
LWPOLYLINE
  5
B7
330
1F
100
AcDbEntity
  8
BEZUGSACHSEN
  6
DOT_CENTER
 62
     7
100
AcDbPolyline
 90
        2
 70
     0
 43
0.25
 10
229.4264253212
 20
303.8115297109
 10
43.4264253212
 20
303.8115297109
  0
LINE
  5
B8
330
1F
100
AcDbEntity
  8
BEZUGSACHSEN
  6
Continuous
 62
     7
100
AcDbLine
 10
113.178830057
 20
253.8115297109
 30
0.0
 11
114.5514253212
 21
256.1889344467
 31
0.0
  0
LINE
  5
B9
330
1F
100
AcDbEntity
  8
BEZUGSACHSEN
  6
Continuous
 62
     7
100
AcDbLine
 10
113.178830057
 20
353.8115297109
 30
0.0
 11
114.5514253212
 21
351.4341249751
 31
0.0
  0
LINE
  5
BA
330
1F
100
AcDbEntity
  8
RUNDUNGEN
  6
Continuous
 62
     9
100
AcDbLine
 10
145.4264253212
 20
324.8115297109
 30
0.0
 11
145.4264253212
 21
282.8115297109
 31
0.0
  0
LWPOLYLINE
  5
BB
330
1F
100
AcDbEntity
  8
DEFAULT_2
  6
DASHED
 62
     8
100
AcDbPolyline
 90
        2
 70
     0
 43
0.35
 10
226.4264253212
 20
312.8115297109
 10
176.4264253212
 20
312.8115297109
  0
LINE
  5
BC
330
1F
100
AcDbEntity
  8
FASEN
  6
Continuous
 62
     7
100
AcDbLine
 10
111.4264253212
 20
313.4115297109
 30
0.0
 11
125.4264253212
 21
313.4115297109
 31
0.0
  0
LINE
  5
BD
330
1F
100
AcDbEntity
  8
0
  6
Continuous
 62
     7
100
AcDbLine
 10
111.4264253212
 20
313.8115297109
 30
0.0
 11
125.4264253212
 21
313.8115297109
 31
0.0
  0
LINE
  5
BE
330
1F
100
AcDbEntity
  8
BEZUGSACHSEN
  6
Continuous
 62
     7
100
AcDbLine
 10
54.4264253212
 20
313.8215297109
 30
0.0
 11
48.4264253212
 21
313.8215297109
 31
0.0
  0
LINE
  5
BF
330
1F
100
AcDbEntity
  8
BEZUGSACHSEN
  6
Continuous
 62
     9
100
AcDbLine
 10
47.6933782482
 20
318.8215297109
 30
0.0
 11
55.9802712681
 21
318.8215297109
 31
0.0
  0
LINE
  5
C0
330
1F
100
AcDbEntity
  8
RUNDUNGEN
  6
Continuous
 62
     7
100
AcDbLine
 10
169.2485040084
 20
324.8115297109
 30
0.0
 11
145.4264253212
 21
324.8115297109
 31
0.0
  0
LINE
  5
C1
330
1F
100
AcDbEntity
  8
0
  6
Continuous
 62
     7
100
AcDbLine
 10
145.4264253212
 20
324.8115297109
 30
0.0
 11
169.2485040084
 21
324.8115297109
 31
0.0
  0
LINE
  5
C2
330
1F
100
AcDbEntity
  8
RUNDUNGEN
  6
Continuous
 62
     7
100
AcDbLine
 10
225.5048844169
 20
320.384056553
 30
0.0
 11
169.2485040084
 21
324.8115297109
 31
0.0
  0
LINE
  5
C3
330
1F
100
AcDbEntity
  8
0
  6
Continuous
 62
     7
100
AcDbLine
 10
169.2485040084
 20
324.8115297109
 30
0.0
 11
225.5048844169
 21
320.384056553
 31
0.0
  0
LINE
  5
C4
330
1F
100
AcDbEntity
  8
BEZUGSACHSEN
  6
Continuous
 62
     7
100
AcDbLine
 10
94.5456689352
 20
341.5278538846
 30
0.0
 11
93.9264253212
 21
341.6937797109
 31
0.0
  0
LINE
  5
C5
330
1F
100
AcDbEntity
  8
0
  6
Continuous
 62
     7
100
AcDbLine
 10
169.2485040084
 20
324.8115297109
 30
0.0
 11
169.2485040084
 21
282.8115297109
 31
0.0
  0
LWPOLYLINE
  5
C6
330
1F
100
AcDbEntity
  8
DEFAULT_2
  6
DASHED
 62
     8
100
AcDbPolyline
 90
        2
 70
     0
 43
0.35
 10
176.4264253212
 20
312.8115297109
 10
176.4264253212
 20
294.8115297109
  0
LINE
  5
C7
330
1F
100
AcDbEntity
  8
BEZUGSACHSEN
  6
Continuous
 62
     7
100
AcDbLine
 10
93.9264253212
 20
341.6937797109
 30
0.0
 11
48.3263508365
 21
339.4092159792
 31
0.0
  0
LINE
  5
C8
330
1F
100
AcDbEntity
  8
BEZUGSACHSEN
  6
Continuous
 62
     7
100
AcDbLine
 10
95.7258540325
 20
341.4937797109
 30
0.0
 11
94.8044879803
 21
341.4937797109
 31
0.0
  0
LINE
  5
C9
330
1F
100
AcDbEntity
  8
BEZUGSACHSEN
  6
Continuous
 62
     7
100
AcDbLine
 10
115.5514253212
 20
349.8115297109
 30
0.0
 11
117.3014253212
 21
349.8115297109
 31
0.0
  0
LINE
  5
CA
330
1F
100
AcDbEntity
  8
BEZUGSACHSEN
  6
Continuous
 62
     7
100
AcDbLine
 10
113.178830057
 20
353.8115297109
 30
0.0
 11
108.4264253212
 21
353.8115297109
 31
0.0
  0
LINE
  5
CB
330
1F
100
AcDbEntity
  8
BEZUGSACHSEN
  6
Continuous
 62
     7
100
AcDbLine
 10
98.4264253212
 20
353.8115297109
 30
0.0
 11
96.4264253212
 21
353.8115297109
 31
0.0
  0
LINE
  5
CC
330
1F
100
AcDbEntity
  8
BEZUGSACHSEN
  6
Continuous
 62
     7
100
AcDbLine
 10
119.6740205854
 20
353.8115297109
 30
0.0
 11
125.4264253212
 21
353.8115297109
 31
0.0
  0
LINE
  5
CD
330
1F
100
AcDbEntity
  8
RUNDUNGEN
  6
Continuous
 62
     9
100
AcDbLine
 10
225.5048844169
 20
287.2390028688
 30
0.0
 11
225.5048844169
 21
320.384056553
 31
0.0
  0
LINE
  5
CE
330
1F
100
AcDbEntity
  8
RUNDUNGEN
  6
Continuous
 62
     7
100
AcDbLine
 10
226.4264253212
 20
319.3871392193
 30
0.0
 11
226.4264253212
 21
288.2359202026
 31
0.0
  0
LWPOLYLINE
  5
CF
330
1F
100
AcDbEntity
  8
1
  6
Continuous
 62
     7
100
AcDbPolyline
 90
        2
 70
     0
 43
0.25
 10
226.4264253212
 20
319.3871392193
 10
226.4264253212
 20
320.3115297109466
  0
LWPOLYLINE
  5
D0
330
1F
100
AcDbEntity
  8
1
  6
Continuous
 62
     7
100
AcDbPolyline
 90
        2
 70
     0
 43
0.25
 10
225.5048844169
 20
320.384056553
 10
226.4264253211949
 20
320.3115297109466
  0
LWPOLYLINE
  5
D1
330
1F
100
AcDbEntity
  8
1
  6
Continuous
 62
     7
100
AcDbPolyline
 90
        2
 70
     0
 43
0.25
 10
225.5048844169
 20
287.2390028688
 10
226.4264253212
 20
287.3115297108559
  0
LWPOLYLINE
  5
D2
330
1F
100
AcDbEntity
  8
1
  6
Continuous
 62
     7
100
AcDbPolyline
 90
        2
 70
     0
 43
0.25
 10
226.4264253212
 20
288.2359202026
 10
226.4264253212
 20
287.3115297108559
  0
ARC
  5
D3
330
1F
100
AcDbEntity
  8
FASEN
  6
Continuous
 62
     7
100
AcDbCircle
 10
114.327079344
 20
279.3427929809
 30
0.0
 40
19.03859487300018
100
AcDbArc
 50
227.4837701983004
 51
228.9651953375289
  0
ARC
  5
D4
330
1F
100
AcDbEntity
  8
FASEN
  6
Continuous
 62
     7
100
AcDbCircle
 10
109.3982992431
 20
264.3115297109
 30
0.0
 40
8.0
100
AcDbArc
 50
90.0
 51
172.8323734889971
  0
ARC
  5
D5
330
1F
100
AcDbEntity
  8
FASEN
  6
Continuous
 62
     7
100
AcDbCircle
 10
109.3982992431
 20
264.3115297109
 30
0.0
 40
7.599982194900008
100
AcDbArc
 50
90.0
 51
174.9405171273014
  0
ARC
  5
D6
330
1F
100
AcDbEntity
  8
BEZUGSACHSEN
  6
Continuous
 62
     7
100
AcDbCircle
 10
54.4264253212
 20
295.8015297109
 30
0.0
 40
2.0
100
AcDbArc
 50
270.0
 51
355.235536186493
  0
ARC
  5
D7
330
1F
100
AcDbEntity
  8
BEZUGSACHSEN
  6
Continuous
 62
     7
100
AcDbCircle
 10
48.4264253212
 20
270.2113381479
 30
0.0
 40
2.0
100
AcDbArc
 50
179.9999999971356
 51
267.1318795137018
  0
ARC
  5
D8
330
1F
100
AcDbEntity
  8
BEZUGSACHSEN
  6
Continuous
 62
     7
100
AcDbCircle
 10
115.5514253212
 20
256.8115297109
 30
0.0
 40
1.0
100
AcDbArc
 50
90.0
 51
180.0
  0
ARC
  5
D9
330
1F
100
AcDbEntity
  8
BEZUGSACHSEN
  6
Continuous
 62
     7
100
AcDbCircle
 10
94.8044879803
 20
265.1292797109
 30
0.0
 40
1.0
100
AcDbArc
 50
90.0
 51
104.9999999996981
  0
ARC
  5
DA
330
1F
100
AcDbEntity
  8
BEZUGSACHSEN
  6
Continuous
 62
     7
100
AcDbCircle
 10
95.7258540325
 20
265.1292797109
 30
0.0
 40
0.9999999999998127
100
AcDbArc
 50
45.49026120128689
 51
90.0
  0
ARC
  5
DB
330
1F
100
AcDbEntity
  8
0
  6
Continuous
 62
     7
100
AcDbCircle
 10
-128.1713545613
 20
373.2459973013
 30
0.0
 40
264.5204223901892
100
AcDbArc
 50
335.840076470599
 51
336.5770705490999
  0
ARC
  5
DC
330
1F
100
AcDbEntity
  8
BEZUGSACHSEN
  6
Continuous
 62
     7
100
AcDbCircle
 10
103.4416333323
 20
403.8642994777
 30
0.0
 40
50.30340021035248
100
AcDbArc
 50
264.2781515101899
 51
269.9826780126003
  0
ARC
  5
DD
330
1F
100
AcDbEntity
  8
BEZUGSACHSEN
  6
Continuous
 62
     7
100
AcDbCircle
 10
103.4112173201
 20
403.864299277
 30
0.0
 40
50.30340000969741
100
AcDbArc
 50
270.0173219760583
 51
275.7218485012679
  0
ARC
  5
DE
330
1F
100
AcDbEntity
  8
0
  6
Continuous
 62
     7
100
AcDbCircle
 10
111.4264253212
 20
303.8115297109
 30
0.0
 40
10.0
100
AcDbArc
 50
90.0
 51
270.0
  0
ARC
  5
DF
330
1F
100
AcDbEntity
  8
FASEN
  6
Continuous
 62
     7
100
AcDbCircle
 10
111.4264253212
 20
303.8115297109
 30
0.0
 40
9.599999195900011
100
AcDbArc
 50
90.0
 51
270.0
  0
ARC
  5
E0
330
1F
100
AcDbEntity
  8
BEZUGSACHSEN
  6
Continuous
 62
     7
100
AcDbCircle
 10
54.4264253212
 20
311.8215297109
 30
0.0
 40
1.999999999999984
100
AcDbArc
 50
4.76446378498879
 51
90.0
  0
ARC
  5
E1
330
1F
100
AcDbEntity
  8
BEZUGSACHSEN
  6
Continuous
 62
     7
100
AcDbCircle
 10
48.4264253212
 20
337.411721274
 30
0.0
 40
1.999999999947485
100
AcDbArc
 50
92.86812048644158
 51
180.0000000143238
  0
ARC
  5
E2
330
1F
100
AcDbEntity
  8
BEZUGSACHSEN
  6
Continuous
 62
     7
100
AcDbCircle
 10
115.5514253212
 20
350.8115297109
 30
0.0
 40
1.0
100
AcDbArc
 50
180.0
 51
270.0
  0
ARC
  5
E3
330
1F
100
AcDbEntity
  8
BEZUGSACHSEN
  6
Continuous
 62
     7
100
AcDbCircle
 10
94.8044879803
 20
342.4937797109
 30
0.0
 40
1.000000000009914
100
AcDbArc
 50
255.0000000003019
 51
270.0
  0
ARC
  5
E4
330
1F
100
AcDbEntity
  8
BEZUGSACHSEN
  6
Continuous
 62
     7
100
AcDbCircle
 10
95.7258540325
 20
342.4937797109
 30
0.0
 40
1.0
100
AcDbArc
 50
270.0
 51
314.5097387987131
  0
ARC
  5
E5
330
1F
100
AcDbEntity
  8
BEZUGSACHSEN
  6
Continuous
 62
     7
100
AcDbCircle
 10
232.7564719236
 20
-1302.2312296168
 30
0.0
 40
1632.1727637359
100
AcDbArc
 50
96.2726189838
 51
96.48809068979999
  0
ARC
  5
E6
330
1F
100
AcDbEntity
  8
RUNDUNGEN
  6
Continuous
 62
     7
100
AcDbCircle
 10
145.4264253212
 20
262.8115297109
 30
0.0
 40
20.0
100
AcDbArc
 50
90.0
 51
180.0
  0
ARC
  5
E7
330
1F
100
AcDbEntity
  8
RUNDUNGEN
  6
Continuous
 62
     7
100
AcDbCircle
 10
225.4264253212
 20
288.2359202026
 30
0.0
 40
1.000000000064494
100
AcDbArc
 50
274.4999999981087
 51
0.0
  0
ARC
  5
E8
330
1F
100
AcDbEntity
  8
BEZUGSACHSEN
  6
Continuous
 62
     7
100
AcDbCircle
 10
117.3014253212
 20
256.8115297109
 30
0.0
 40
1.0
100
AcDbArc
 50
0.0
 51
90.0
  0
ARC
  5
E9
330
1F
100
AcDbEntity
  8
BEZUGSACHSEN
  6
Continuous
 62
     7
100
AcDbCircle
 10
232.7564719236
 20
1909.8542890384
 30
0.0
 40
1632.1727637357
100
AcDbArc
 50
263.5119093102
 51
263.7273810162
  0
ARC
  5
EA
330
1F
100
AcDbEntity
  8
0
  6
Continuous
 62
     7
100
AcDbCircle
 10
361.0242052037
 20
373.2459973013
 30
0.0
 40
264.5204223902
100
AcDbArc
 50
203.4229294508999
 51
204.1599235294009
  0
ARC
  5
EB
330
1F
100
AcDbEntity
  8
RUNDUNGEN
  6
Continuous
 62
     7
100
AcDbCircle
 10
145.4264253212
 20
344.8115297109
 30
0.0
 40
20.00000000000001
100
AcDbArc
 50
180.0
 51
270.0
  0
ARC
  5
EC
330
1F
100
AcDbEntity
  8
BEZUGSACHSEN
  6
Continuous
 62
     7
100
AcDbCircle
 10
117.3014253212
 20
350.8115297109
 30
0.0
 40
1.0
100
AcDbArc
 50
270.0
 51
0.0
  0
ARC
  5
ED
330
1F
100
AcDbEntity
  8
RUNDUNGEN
  6
Continuous
 62
     7
100
AcDbCircle
 10
225.4264253212
 20
319.3871392193
 30
0.0
 40
1.0
100
AcDbArc
 50
0.0
 51
85.50000000144155
  0
CIRCLE
  5
EE
330
1F
100
AcDbEntity
  8
BEZUGSACHSEN
  6
Continuous
 62
     7
100
AcDbCircle
 10
81.4264253212
 20
303.8115297109
 30
0.0
 40
6.0
  0
SPLINE
  5
EF
330
1F
100
AcDbEntity
  8
BEZUGSACHSEN
  6
Continuous
 62
     7
100
AcDbSpline
210
0.0
220
0.0
230
1.0
 70
     8
 71
     3
 72
    11
 73
     7
 74
     5
 42
0.0000000001
 43
0.0000000001
 44
0.00000001
 40
0.0
 40
0.0
 40
0.0
 40
0.0
 40
0.5521269406194901
 40
1.105196183264978
 40
1.651906304669091
 40
2.198197048716903
 40
2.198197048716903
 40
2.198197048716903
 40
2.198197048716903
 10
56.4264253212
 20
290.9418741851
 30
0.0
 10
56.41983988357094
 20
290.7577389947173
 30
0.0
 10
56.40665776910177
 20
290.3891543547658
 30
0.0
 10
56.30916940530431
 20
289.8457299500908
 30
0.0
 10
56.16953209228086
 20
289.3144558205435
 30
0.0
 10
56.04334207006208
 20
288.9724613404251
 30
0.0
 10
55.9802712681
 20
288.8015297109
 30
0.0
 11
56.4264253212
 21
290.9418741851
 31
0.0
 11
56.39368073877319
 21
290.3907190790912
 31
0.0
 11
56.30161408582982
 21
289.8453666072198
 31
0.0
 11
56.1611226009964
 21
289.3170162504157
 31
0.0
 11
55.9802712681
 21
288.8015297109
 31
0.0
  0
SPLINE
  5
F0
330
1F
100
AcDbEntity
  8
BEZUGSACHSEN
  6
Continuous
 62
     7
100
AcDbSpline
210
0.0
220
0.0
230
1.0
 70
     8
 71
     3
 72
    19
 73
    15
 74
    13
 42
0.0000000001
 43
0.0000000001
 44
0.00000001
 40
0.0
 40
0.0
 40
0.0
 40
0.0
 40
0.2679411643344683
 40
0.5361267936841334
 40
0.8065304773437767
 40
1.076465993191219
 40
1.213913376105303
 40
1.351353104841052
 40
1.491586367035721
 40
1.631807897530539
 40
1.775491562725214
 40
1.919219204694844
 40
2.065713007355726
 40
2.21193640930656
 40
2.21193640930656
 40
2.21193640930656
 40
2.21193640930656
 10
55.9802712681
 20
288.8015297109
 30
0.0
 10
55.94637702430106
 20
288.7188581311964
 30
0.0
 10
55.87855761216478
 20
288.5534395436293
 30
0.0
 10
55.75391910589262
 20
288.3147735699638
 30
0.0
 10
55.60900830659399
 20
288.0870855739489
 30
0.0
 10
55.46596467507805
 20
287.911281082636
 30
0.0
 10
55.33685828814896
 20
287.783331363536
 30
0.0
 10
55.23074318906274
 20
287.6942443427376
 30
0.0
 10
55.11593376141541
 20
287.6149427023989
 30
0.0
 10
54.99147414919861
 20
287.5472722349339
 30
0.0
 10
54.85862059408147
 20
287.4944695482304
 30
0.0
 10
54.71796979520563
 20
287.4593032842411
 30
0.0
 10
54.57264441209669
 20
287.4429510823624
 30
0.0
 10
54.47513499303581
 20
287.4495738157282
 30
0.0
 10
54.4264253212
 20
287.4528821235
 30
0.0
 11
55.9802712681
 21
288.8015297109
 31
0.0
 11
55.87483400838354
 21
288.5552058350609
 31
0.0
 11
55.75096449282422
 21
288.3173405897963
 31
0.0
 11
55.60461900654595
 21
288.0899617192242
 31
0.0
 11
55.43336681542313
 21
287.8813044170479
 31
0.0
 11
55.33557437672113
 21
287.784720660636
 31
0.0
 11
55.23015738744157
 21
287.6965337148549
 31
0.0
 11
55.11461874371885
 21
287.6170592558604
 31
0.0
 11
54.99129673383798
 21
287.5503227628955
 31
0.0
 11
54.85766604566828
 21
287.4975228119195
 31
0.0
 11
54.71823834447252
 21
287.4626293855269
 31
0.0
 11
54.57254390592226
 21
287.4473465587737
 31
0.0
 11
54.4264253212
 21
287.4528821235
 31
0.0
  0
SPLINE
  5
F1
330
1F
100
AcDbEntity
  8
BEZUGSACHSEN
  6
Continuous
 62
     7
100
AcDbSpline
210
0.0
220
0.0
230
1.0
 70
     8
 71
     3
 72
    47
 73
    43
 74
    41
 42
0.0000000001
 43
0.0000000001
 44
0.00000001
 40
0.0
 40
0.0
 40
0.0
 40
0.0
 40
0.636602243146122
 40
1.273595002083
 40
1.592921746302665
 40
1.912076344797335
 40
2.231392290350269
 40
2.550826842673641
 40
3.189774321099317
 40
3.829081696919432
 40
4.468337152434398
 40
5.107221744733944
 40
5.426176341243618
 40
5.745033356799907
 40
6.063356731569704
 40
6.381780214867238
 40
7.017059195645395
 40
7.652639340959746
 40
8.287532214197414
 40
8.922347946445278
 40
9.55922674849871
 40
10.19613435927865
 40
10.83451785495772
 40
11.47287689968475
 40
12.11234487358811
 40
12.75189588940706
 40
13.39354300512365
 40
14.03487957348902
 40
14.35615205764557
 40
14.6773210770441
 40
14.99840882464533
 40
15.31959604113584
 40
15.9601112101905
 40
16.60099592081064
 40
17.2380910806941
 40
17.87482555190373
 40
18.19205670322998
 40
18.50917199090838
 40
18.82571084619607
 40
19.1424158181916
 40
19.77338974989902
 40
20.40398930737132
 40
20.40398930737132
 40
20.40398930737132
 40
20.40398930737132
 10
74.9270097269
 20
303.8115296915
 30
0.0
 10
74.93301537078626
 20
304.0238095011833
 30
0.0
 10
74.94503034264696
 20
304.4484993409797
 30
0.0
 10
75.02629568785926
 20
304.9746421020623
 30
0.0
 10
75.11901528445959
 20
305.3896164781692
 30
0.0
 10
75.20430824860398
 20
305.6974404538676
 30
0.0
 10
75.30454686204132
 20
306.0007331306625
 30
0.0
 10
75.45803241118918
 20
306.3981704932169
 30
0.0
 10
75.68650435796326
 20
306.8802700701012
 30
0.0
 10
76.01611931852494
 20
307.4290859429332
 30
0.0
 10
76.398346535622
 20
307.9426214822827
 30
0.0
 10
76.75720123274702
 20
308.337124244386
 30
0.0
 10
77.066154586305
 20
308.6299975424658
 30
0.0
 10
77.30804969527564
 20
308.8377193635964
 30
0.0
 10
77.55969294876658
 20
309.0332287607147
 30
0.0
 10
77.90698705593223
 20
309.276723963354
 30
0.0
 10
78.36272739069216
 20
309.5486060333764
 30
0.0
 10
78.93820681537612
 20
309.819935145889
 30
0.0
 10
79.53731758053317
 20
310.0337187767013
 30
0.0
 10
80.15476798297968
 20
310.1884085080733
 30
0.0
 10
80.78503854465723
 20
310.2822154917275
 30
0.0
 10
81.42263247937677
 20
310.3143422165323
 30
0.0
 10
82.06081112361404
 20
310.2839126435822
 30
0.0
 10
82.69382354481378
 20
310.1912413884226
 30
0.0
 10
83.31505722924231
 20
310.0367494271926
 30
0.0
 10
83.91919298119949
 20
309.8217122946462
 30
0.0
 10
84.49967205476304
 20
309.5477889289168
 30
0.0
 10
84.95930107898431
 20
309.2726220508597
 30
0.0
 10
85.30920006764728
 20
309.0260123520026
 30
0.0
 10
85.56233169679646
 20
308.8281081596316
 30
0.0
 10
85.80533033615059
 20
308.6179296302298
 30
0.0
 10
86.11457467965536
 20
308.3224102900749
 30
0.0
 10
86.47289487044898
 20
307.9249393073125
 30
0.0
 10
86.85284528879018
 20
307.4092725457772
 30
0.0
 10
87.17931831840872
 20
306.859676389342
 30
0.0
 10
87.40468945840624
 20
306.3785708476574
 30
0.0
 10
87.55578044156402
 20
305.9825806600458
 30
0.0
 10
87.65419335911326
 20
305.6811543092517
 30
0.0
 10
87.7378601372834
 20
305.3754589413126
 30
0.0
 10
87.82867949472396
 20
304.9639069235687
 30
0.0
 10
87.90819447039904
 20
304.4424817070267
 30
0.0
 10
87.91996675501532
 20
304.0218054178567
 30
0.0
 10
87.9258511506
 20
303.8115296915
 30
0.0
 11
74.9270097269
 21
303.8115296915
 31
0.0
 11
74.9582583979398
 21
304.4473645258217
 31
0.0
 11
75.05169960031341
 21
305.0774665148973
 31
0.0
 11
75.12164010734784
 21
305.3890397728154
 31
0.0
 11
75.20678144632399
 21
305.6966281505829
 31
0.0
 11
75.30700598446194
 21
305.9998074952609
 31
0.0
 11
75.42208587421398
 21
306.2977924817832
 31
0.0
 11
75.6956817684583
 21
306.8751997616466
 31
0.0
 11
76.02490128213644
 21
307.4232220537037
 31
0.0
 11
76.40652553748383
 21
307.936067513015
 31
0.0
 11
76.83646017361262
 21
308.4086452642206
 31
0.0
 11
77.06793243467375
 21
308.6280823326341
 31
0.0
 11
77.30983483570101
 21
308.8358153939091
 31
0.0
 11
77.56120864285552
 21
309.0311125521104
 31
0.0
 11
77.82193792114744
 21
309.2139068577019
 31
0.0
 11
78.36747156535726
 21
309.5394409211326
 31
0.0
 11
78.94238138547597
 21
309.8104405887503
 31
0.0
 11
79.54032757322076
 21
310.0238634484665
 31
0.0
 11
80.15612010542974
 21
310.1781053726799
 31
0.0
 11
80.78605238737615
 21
310.2719133076684
 31
0.0
 11
81.42215550909498
 21
310.3039152327507
 31
0.0
 11
82.05981646813032
 21
310.2735509629991
 31
0.0
 11
82.6914340010576
 21
310.1810222534887
 31
0.0
 11
83.31200687316382
 21
310.0267218968659
 31
0.0
 11
83.91450768028638
 21
309.8122031814779
 31
0.0
 11
84.49481487665287
 21
309.5384248423919
 31
0.0
 11
85.04503986469881
 21
309.2089327234384
 31
0.0
 11
85.30764716884626
 21
309.0238559477896
 31
0.0
 11
85.5606676262381
 21
308.8260424316624
 31
0.0
 11
85.80351592760242
 21
308.6159899520671
 31
0.0
 11
86.03571836300945
 21
308.3940817344907
 31
0.0
 11
86.46463442074372
 21
307.9183815166992
 31
0.0
 11
86.84474507941678
 21
307.4023882033028
 31
0.0
 11
87.17018422514197
 21
306.8546842639555
 31
0.0
 11
87.44026508327164
 21
306.2780673053959
 31
0.0
 11
87.55335552845584
 21
305.9816787857467
 31
0.0
 11
87.651799631795
 21
305.6802308396647
 31
0.0
 11
87.73528243717064
 21
305.3748991051308
 31
0.0
 11
87.80383186061468
 21
305.0657017315453
 31
0.0
 11
87.89525893853921
 21
304.4413867534161
 31
0.0
 11
87.9258511506
 21
303.8115296915
 31
0.0
  0
SPLINE
  5
F2
330
1F
100
AcDbEntity
  8
BEZUGSACHSEN
  6
Continuous
 62
     7
100
AcDbSpline
210
0.0
220
0.0
230
1.0
 70
     8
 71
     3
 72
    47
 73
    43
 74
    41
 42
0.0000000001
 43
0.0000000001
 44
0.00000001
 40
0.0
 40
0.0
 40
0.0
 40
0.0
 40
0.6302393213906023
 40
1.260854867258942
 40
1.577476088330746
 40
1.89393080015248
 40
2.210999113812919
 40
2.528183472174148
 40
3.164887038224478
 40
3.801951183352487
 40
4.442851001557768
 40
5.083381259733665
 40
5.404527292272959
 40
5.725573838733289
 40
6.046670710008261
 40
6.367871027124669
 40
7.009090242497381
 40
7.650619763902121
 40
8.290330346452077
 40
8.929958764452879
 40
9.568647011318996
 40
10.20735923009136
 40
10.84445705809283
 40
11.48152626487167
 40
12.11643462212692
 40
12.75141965569339
 40
13.38691908728059
 40
14.02211738522807
 40
14.34050449135545
 40
14.65879153785832
 40
14.97761586863949
 40
15.2965377494204
 40
15.93537694098978
 40
16.57458694063482
 40
17.2138627498608
 40
17.85277859069022
 40
18.17219860078515
 40
18.49150024073169
 40
18.81067156632182
 40
19.1300145241767
 40
19.76719627020932
 40
20.40398968279383
 40
20.40398968279383
 40
20.40398968279383
 40
20.40398968279383
 10
87.925838959
 20
303.8115297296
 30
0.0
 10
87.91996975725453
 20
303.6013737077332
 30
0.0
 10
87.9082278501146
 20
303.1809362103237
 30
0.0
 10
87.82878110756042
 20
302.6597727680924
 30
0.0
 10
87.73804960249537
 20
302.2483813006694
 30
0.0
 10
87.6544442201996
 20
301.9427434603725
 30
0.0
 10
87.55609227883559
 20
301.6413596141674
 30
0.0
 10
87.4050734679877
 20
301.245386434553
 30
0.0
 10
87.17979088038476
 20
300.7642796258656
 30
0.0
 10
86.85341284562864
 20
300.2146454008802
 30
0.0
 10
86.47354578359337
 20
299.6989175382269
 30
0.0
 10
86.1152913442958
 20
299.3013921360276
 30
0.0
 10
85.80611060659612
 20
299.0058387811001
 30
0.0
 10
85.56318565055298
 20
298.7956538726614
 30
0.0
 10
85.31013674724329
 20
298.597744408316
 30
0.0
 10
84.96035423881575
 20
298.3511210568112
 30
0.0
 10
84.50086900107898
 20
298.0759144475145
 30
0.0
 10
83.92047329410997
 20
297.8018743408157
 30
0.0
 10
83.31631898625297
 20
297.5866858635005
 30
0.0
 10
82.69490383883571
 20
297.4320240244997
 30
0.0
 10
82.06163462740652
 20
297.3392136514773
 30
0.0
 10
81.42317516298922
 20
297.3087029016568
 30
0.0
 10
80.78534214945094
 20
297.3408046440015
 30
0.0
 10
80.15491216246069
 20
297.4346177063403
 30
0.0
 10
79.5373384929635
 20
297.5893315226173
 30
0.0
 10
78.93819508153186
 20
297.8031280946904
 30
0.0
 10
78.36273786006592
 20
298.0744494631467
 30
0.0
 10
77.90705246711056
 20
298.3462943467957
 30
0.0
 10
77.55979656935784
 20
298.5897548993886
 30
0.0
 10
77.3081769880513
 20
298.7852374257195
 30
0.0
 10
77.06630193778011
 20
298.9929304844339
 30
0.0
 10
76.75736565410479
 20
299.2857680325914
 30
0.0
 10
76.39852289721374
 20
299.6802256815317
 30
0.0
 10
76.01629599196434
 20
300.1937103474699
 30
0.0
 10
75.68667154670062
 20
300.7424781261731
 30
0.0
 10
75.45818410078039
 20
301.2245415426632
 30
0.0
 10
75.30468260082033
 20
301.6219511018397
 30
0.0
 10
75.20442579789707
 20
301.925233465132
 30
0.0
 10
75.11910930497157
 20
302.2330573368358
 30
0.0
 10
75.02634684960245
 20
302.6480982039427
 30
0.0
 10
74.94505448264498
 20
303.1743710030315
 30
0.0
 10
74.93301468315669
 20
303.5991866527504
 30
0.0
 10
74.9269966184
 20
303.8115297314
 30
0.0
 11
87.925838959
 21
303.8115297296
 31
0.0
 11
87.89529938027877
 21
303.1820307730017
 31
0.0
 11
87.80396810475196
 21
302.5580639751659
 31
0.0
 11
87.73547336606543
 21
302.2489402646465
 31
0.0
 11
87.65205454122867
 21
301.9436782717665
 31
0.0
 11
87.55366779738961
 21
301.6422610125324
 31
0.0
 11
87.44063716628708
 21
301.3458997572685
 31
0.0
 11
87.17065702977474
 21
300.7692697572598
 31
0.0
 11
86.84532040792139
 21
300.2215409854314
 31
0.0
 11
86.46528391312528
 21
299.705474284705
 31
0.0
 11
86.03643341543548
 21
299.2296946484551
 31
0.0
 11
85.80429628103835
 21
299.007777715686
 31
0.0
 11
85.5615137876874
 21
298.7977121404091
 31
0.0
 11
85.30858417940365
 21
298.5998995675125
 31
0.0
 11
85.04606978359642
 21
298.4148162465199
 31
0.0
 11
84.49601160202462
 21
298.085274020016
 31
0.0
 11
83.91587077036316
 21
297.8114186890967
 31
0.0
 11
83.31326546004034
 21
297.5967178055467
 31
0.0
 11
82.69256618970037
 21
297.4422609218748
 31
0.0
 11
82.0606373757968
 21
297.3495859476728
 31
0.0
 11
81.42265124864687
 21
297.3191392734152
 31
0.0
 11
80.78635626053654
 21
297.3511131776163
 31
0.0
 11
80.15623298643094
 21
297.4449312657244
 31
0.0
 11
79.5403490781895
 21
297.5991895999621
 31
0.0
 11
78.94231660837052
 21
297.812644883091
 31
0.0
 11
78.3674808598238
 21
298.0836123898891
 31
0.0
 11
77.82201417228242
 21
298.4091012076664
 31
0.0
 11
77.56131187950551
 21
298.5918706358786
 31
0.0
 11
77.30996262769717
 21
298.7871401869789
 31
0.0
 11
77.06807932934763
 21
298.9948453238379
 31
0.0
 11
76.83662349804743
 21
299.2142521701257
 31
0.0
 11
76.4067004671672
 21
299.6867791007908
 31
0.0
 11
76.0250793277094
 21
300.1995702176845
 31
0.0
 11
75.69584785353035
 21
300.7475484988886
 31
0.0
 11
75.42223354638632
 21
301.3249120434504
 31
0.0
 11
75.30714129392636
 21
301.6228766659691
 31
0.0
 11
75.20690160549947
 21
301.9260359345667
 31
0.0
 11
75.12173452528084
 21
302.2336345423756
 31
0.0
 11
75.05177149779739
 21
302.545219361513
 31
0.0
 11
74.9582826008169
 21
303.1755053312272
 31
0.0
 11
74.9269966184
 21
303.8115297314
 31
0.0
  0
SPLINE
  5
F3
330
1F
100
AcDbEntity
  8
BEZUGSACHSEN
  6
Continuous
 62
     7
100
AcDbSpline
210
0.0
220
0.0
230
1.0
 70
     8
 71
     3
 72
    27
 73
    23
 74
    21
 42
0.0000000001
 43
0.0000000001
 44
0.00000001
 40
0.0
 40
0.0
 40
0.0
 40
0.0
 40
0.121976513964681
 40
0.2439857715013452
 40
0.3566831398548972
 40
0.4694418149765611
 40
0.5721317673071817
 40
0.6745445881283929
 40
0.7225206521322275
 40
0.7704888797790155
 40
0.8171412936193696
 40
0.8637898734536318
 40
0.910231800115598
 40
0.9566751324419083
 40
1.00417517576125
 40
1.051683100130981
 40
1.153672388706791
 40
1.256049376640477
 40
1.370745138065592
 40
1.485385401852728
 40
1.611534903902648
 40
1.73763187603503
 40
1.73763187603503
 40
1.73763187603503
 40
1.73763187603503
 10
47.5722679968
 20
288.5691937155
 30
0.0
 10
47.53701297919618
 20
288.5489141902274
 30
0.0
 10
47.46649348007478
 20
288.5083496958139
 30
0.0
 10
47.35884107690028
 20
288.4575538348802
 30
0.0
 10
47.25068306102011
 20
288.4158021990295
 30
0.0
 10
47.14510384004727
 20
288.3863876139229
 30
0.0
 10
47.04027229490364
 20
288.3694730265468
 30
0.0
 10
46.95554462505835
 20
288.3676078032964
 30
0.0
 10
46.88972068865162
 20
288.374563111274
 30
0.0
 10
46.84301348543313
 20
288.3837602384144
 30
0.0
 10
46.79783286813085
 20
288.3972936834305
 30
0.0
 10
46.75469325748495
 20
288.4150869422713
 30
0.0
 10
46.71373878090851
 20
288.4373152999858
 30
0.0
 10
46.67509135443765
 20
288.4638503316781
 30
0.0
 10
46.63918527580245
 20
288.4945456091833
 30
0.0
 10
46.59374595426501
 20
288.5420830822665
 30
0.0
 10
46.54520281420459
 20
288.6112524493585
 30
0.0
 10
46.49897710527658
 20
288.7074105040787
 30
0.0
 10
46.46501123147868
 20
288.8129859370671
 30
0.0
 10
46.44205580726058
 20
288.9294036279766
 30
0.0
 10
46.42861124889495
 20
289.0511509366676
 30
0.0
 10
46.42715386259889
 20
289.1352543002187
 30
0.0
 10
46.4264253212
 20
289.1772972248
 30
0.0
 11
47.5722679968
 21
288.5691937155
 31
0.0
 11
47.46572337273945
 21
288.509809264313
 31
0.0
 11
47.35543048357078
 21
288.4576389899849
 31
0.0
 11
47.25011247571836
 21
288.4175289656043
 31
0.0
 11
47.1413887471753
 21
288.3876346573352
 31
0.0
 11
47.03992459505417
 21
288.3718152975503
 31
0.0
 11
46.93752505446977
 21
288.3701660684391
 31
0.0
 11
46.88982119825722
 21
288.3752694809986
 31
0.0
 11
46.84277042799577
 21
288.3846062835229
 31
0.0
 11
46.79809086056235
 21
288.3980295458348
 31
0.0
 11
46.75498472396642
 21
288.4158607260629
 31
0.0
 11
46.71416213116956
 21
288.4380049909958
 31
0.0
 11
46.6758748746234
 21
288.4642931842342
 31
0.0
 11
46.63973777761356
 21
288.4951211639773
 31
0.0
 11
46.60688527724669
 21
288.5294390324653
 31
0.0
 11
46.54771288302371
 21
288.6125079360702
 31
0.0
 11
46.50281315944911
 21
288.7045137102439
 31
0.0
 11
46.46717499986902
 21
288.8135322374337
 31
0.0
 11
46.44432343647164
 21
288.9258718837367
 31
0.0
 11
46.43055668013221
 21
289.051267949414
 31
0.0
 11
46.4264253212
 21
289.1772972248
 31
0.0
  0
SPLINE
  5
F4
330
1F
100
AcDbEntity
  8
BEZUGSACHSEN
  6
Continuous
 62
     7
100
AcDbSpline
210
0.0
220
0.0
230
1.0
 70
     8
 71
     3
 72
    27
 73
    23
 74
    21
 42
0.0000000001
 43
0.0000000001
 44
0.00000001
 40
0.0
 40
0.0
 40
0.0
 40
0.0
 40
0.1260969825525568
 40
0.2522464959213342
 40
0.3668867952585336
 40
0.4815825894074167
 40
0.5839596006878838
 40
0.6859489161182907
 40
0.7334568410203269
 40
0.7809568848487882
 40
0.8274002263934056
 40
0.8738421606812412
 40
0.9204907318919396
 40
0.9671431399482949
 40
1.015111401836445
 40
1.063087497136374
 40
1.165500418739223
 40
1.268190478973518
 40
1.380949153916564
 40
1.493646517790528
 40
1.615655563742894
 40
1.737631867591627
 40
1.737631867591627
 40
1.737631867591627
 40
1.737631867591627
 10
46.4264253212
 20
318.4457621971
 30
0.0
 10
46.42715386267627
 20
318.487805125161
 30
0.0
 10
46.42861124913236
 20
318.5719084959712
 30
0.0
 10
46.44205581109522
 20
318.6936558235357
 30
0.0
 10
46.46501124441993
 20
318.8100735399107
 30
0.0
 10
46.49897714477119
 20
318.9156489976962
 30
0.0
 10
46.54520290358446
 20
319.0118070599639
 30
0.0
 10
46.59374607210927
 20
319.0809764256409
 30
0.0
 10
46.63918539766997
 20
319.1285139072318
 30
0.0
 10
46.67509147576433
 20
319.1592091906888
 30
0.0
 10
46.71373890685892
 20
319.1857442263928
 30
0.0
 10
46.75469339407896
 20
319.2079725722877
 30
0.0
 10
46.7978330202797
 20
319.2257657891598
 30
0.0
 10
46.8430136549083
 20
319.239299196218
 30
0.0
 10
46.88972087789445
 20
319.2484963215556
 30
0.0
 10
46.95554486908863
 20
319.2554516419384
 30
0.0
 10
47.04027262109055
 20
319.2535863853004
 30
0.0
 10
47.14510422459843
 20
319.2366717243639
 30
0.0
 10
47.25068346696183
 20
319.2072570915067
 30
0.0
 10
47.35884140505829
 20
319.1655054540562
 30
0.0
 10
47.46649366632373
 20
319.1147096269372
 30
0.0
 10
47.53701304113758
 20
319.0741451987042
 30
0.0
 10
47.5722679968
 20
319.0538657064
 30
0.0
 11
46.4264253212
 21
318.4457621971
 31
0.0
 11
46.43055668076706
 21
318.571791482891
 31
0.0
 11
46.44432343990495
 21
318.6971875596479
 31
0.0
 11
46.46717501601823
 21
318.8095272396424
 31
0.0
 11
46.50281320540169
 21
318.9185457915173
 31
0.0
 11
46.54771297017536
 21
319.010551571564
 31
0.0
 11
46.60688539909866
 21
319.093620483422
 31
0.0
 11
46.63973789925519
 21
319.1279383528483
 31
0.0
 11
46.67587499418129
 21
319.1587663358185
 31
0.0
 11
46.71416225904478
 21
319.1850545332292
 31
0.0
 11
46.75498486699641
 21
319.2071987862178
 31
0.0
 11
46.79809101064605
 21
319.2250299268334
 31
0.0
 11
46.84277058271346
 21
319.2384531536188
 31
0.0
 11
46.88982138845967
 21
319.2477899532419
 31
0.0
 11
46.9375252757128
 21
319.2528933698591
 31
0.0
 11
47.03992491657245
 21
319.251244108495
 31
0.0
 11
47.14138916690758
 21
319.2354246782002
 31
0.0
 11
47.25011288336442
 21
319.205530326648
 31
0.0
 11
47.35543087566172
 21
319.1654202740102
 31
0.0
 11
47.46572356156712
 21
319.113250064791
 31
0.0
 11
47.5722679968
 21
319.0538657064
 31
0.0
  0
SPLINE
  5
F5
330
1F
100
AcDbEntity
  8
BEZUGSACHSEN
  6
Continuous
 62
     7
100
AcDbSpline
210
0.0
220
0.0
230
1.0
 70
     8
 71
     3
 72
    15
 73
    11
 74
     9
 42
0.0000000001
 43
0.0000000001
 44
0.00000001
 40
0.0
 40
0.0
 40
0.0
 40
0.0
 40
0.1110371613646939
 40
0.2222522337209858
 40
0.3333980191658716
 40
0.4445069474681156
 40
0.555620106515885
 40
0.6667525642228892
 40
0.7778876033677993
 40
0.8889820916149815
 40
0.8889820916149815
 40
0.8889820916149815
 40
0.8889820916149815
 10
48.3263508365
 20
288.1349973247
 30
0.0
 10
48.28970910961928
 20
288.140529477512
 30
0.0
 10
48.21636694609005
 20
288.1516026471126
 30
0.0
 10
48.10985039608218
 20
288.1846212106377
 30
0.0
 10
48.00743748833663
 20
288.228211498085
 30
0.0
 10
47.90998752270956
 20
288.2819910058981
 30
0.0
 10
47.81768272697735
 20
288.3440861412621
 30
0.0
 10
47.73068609884974
 20
288.4133728149166
 30
0.0
 10
47.64843334338389
 20
288.4882547665428
 30
0.0
 10
47.59765335700179
 20
288.5422173480864
 30
0.0
 10
47.5722679968
 20
288.5691937155
 30
0.0
 11
48.3263508365
 21
288.1349973247
 31
0.0
 11
48.21700855138977
 21
288.1543238839076
 31
0.0
 11
48.11051659782149
 21
288.1863903172051
 31
0.0
 11
48.00824841721431
 21
288.2299173761163
 31
0.0
 11
47.91084555075977
 21
288.2833764778195
 31
0.0
 11
47.81857378397315
 21
288.3452800735765
 31
0.0
 11
47.73147668056438
 21
288.4143055596944
 31
0.0
 11
47.64943677607783
 21
288.4892752268777
 31
0.0
 11
47.5722679968
 21
288.5691937155
 31
0.0
  0
SPLINE
  5
F6
330
1F
100
AcDbEntity
  8
BEZUGSACHSEN
  6
Continuous
 62
     7
100
AcDbSpline
210
0.0
220
0.0
230
1.0
 70
     8
 71
     3
 72
    15
 73
    11
 74
     9
 42
0.0000000001
 43
0.0000000001
 44
0.00000001
 40
0.0
 40
0.0
 40
0.0
 40
0.0
 40
0.1110944831157322
 40
0.2222295181063859
 40
0.333362040154136
 40
0.4444752609923922
 40
0.55558421779763
 40
0.6667300353884102
 40
0.7779450181579537
 40
0.8889820871696787
 40
0.8889820871696787
 40
0.8889820871696787
 40
0.8889820871696787
 10
47.5722679968
 20
319.0538657064
 30
0.0
 10
47.59765335636887
 20
319.0808420720739
 30
0.0
 10
47.64843334170864
 20
319.1348046503751
 30
0.0
 10
47.73068611092786
 20
319.2096866137936
 30
0.0
 10
47.81768276285952
 20
319.2789733227231
 30
0.0
 10
47.90998760328847
 20
319.3410684858164
 30
0.0
 10
48.00743762529433
 20
319.3948479779191
 30
0.0
 10
48.10985053917413
 20
319.4384382234919
 30
0.0
 10
48.21636703775786
 20
319.4714567793409
 30
0.0
 10
48.2897091404793
 20
319.4825299459533
 30
0.0
 10
48.3263508365
 20
319.4880620972
 30
0.0
 11
47.5722679968
 21
319.0538657064
 31
0.0
 11
47.64943677388627
 21
319.1337841900053
 31
0.0
 11
47.73147667410326
 21
319.2087538557025
 31
0.0
 11
47.81857382269456
 21
319.2777793883985
 31
0.0
 11
47.9108456442786
 21
319.3396830133861
 31
0.0
 11
48.00824855237406
 21
319.3931420984596
 31
0.0
 11
48.11051677577434
 21
319.4366691389112
 31
0.0
 11
48.21700864387901
 21
319.4687355453206
 31
0.0
 11
48.3263508365
 21
319.4880620972
 31
0.0
  0
SPLINE
  5
F7
330
1F
100
AcDbEntity
  8
0
  6
Continuous
 62
     7
100
AcDbSpline
210
0.0
220
0.0
230
1.0
 70
     8
 71
     3
 72
    19
 73
    15
 74
    13
 42
0.0000000001
 43
0.0000000001
 44
0.00000001
 40
0.0
 40
0.0
 40
0.0
 40
0.0
 40
0.1162460235697911
 40
0.2327881717864082
 40
0.3491890045835091
 40
0.4655468550624153
 40
0.581907136986947
 40
0.6982738489125144
 40
0.8146206072741248
 40
0.9309998278236401
 40
1.16327632343443
 40
1.396138921736659
 40
1.6290131780295
 40
1.861351539774149
 40
1.861351539774149
 40
1.861351539774149
 40
1.861351539774149
 10
115.5514253212
 20
270.2891491272
 30
0.0
 10
115.5126412503597
 20
270.2873081803121
 30
0.0
 10
115.4349743102951
 20
270.2836215969158
 30
0.0
 10
115.3213642252279
 20
270.2552161119573
 30
0.0
 10
115.2131765372833
 20
270.2113621977199
 30
0.0
 10
115.112200671328
 20
270.1527655094633
 30
0.0
 10
115.0194322146019
 20
270.0820806481222
 30
0.0
 10
114.9353448356063
 20
270.0013230430329
 30
0.0
 10
114.8600411922084
 20
269.9123554042966
 30
0.0
 10
114.7713899480141
 20
269.7849959565667
 30
0.0
 10
114.681393202282
 20
269.6122105784983
 30
0.0
 10
114.6064996831547
 20
269.3912855883292
 30
0.0
 10
114.5599627578281
 20
269.1622656687282
 30
0.0
 10
114.55426894711
 20
269.007086275868
 30
0.0
 10
114.5514253212
 20
268.9295859577
 30
0.0
 11
115.5514253212
 21
270.2891491272
 31
0.0
 11
115.4355539696496
 21
270.279823469815
 31
0.0
 11
115.3222294449615
 21
270.2526274330601
 31
0.0
 11
115.2143563123524
 21
270.2088948235227
 31
0.0
 11
115.1135675728422
 21
270.1507503538285
 31
0.0
 11
115.0208802677931
 21
270.0804027974225
 31
0.0
 11
114.9368049021567
 21
269.9999506716739
 31
0.0
 11
114.8615061442003
 21
269.9112564484602
 31
0.0
 11
114.7948794148622
 21
269.8158363147702
 31
0.0
 11
114.6869896287587
 21
269.6101371060508
 31
0.0
 11
114.6112314919419
 21
269.3899424321958
 31
0.0
 11
114.5662714781428
 21
269.1614495080097
 31
0.0
 11
114.5514253212
 21
268.9295859577
 31
0.0
  0
SPLINE
  5
F8
330
1F
100
AcDbEntity
  8
0
  6
Continuous
 62
     7
100
AcDbSpline
210
0.0
220
0.0
230
1.0
 70
     8
 71
     3
 72
    19
 73
    15
 74
    13
 42
0.0000000001
 43
0.0000000001
 44
0.00000001
 40
0.0
 40
0.0
 40
0.0
 40
0.0
 40
0.2323383481439976
 40
0.4652125957750592
 40
0.6980761133579294
 40
0.9303535187932024
 40
1.046733461852039
 40
1.163080940920654
 40
1.279447997488026
 40
1.39580862959026
 40
1.512165904568446
 40
1.628566140412681
 40
1.745106920605377
 40
1.861351602868384
 40
1.861351602868384
 40
1.861351602868384
 40
1.861351602868384
 10
118.3014253212
 20
268.9295859577
 30
0.0
 10
118.298581695594
 20
269.0070862713682
 30
0.0
 10
118.2928878854239
 20
269.1622656568763
 30
0.0
 10
118.2463509095894
 20
269.3912858709224
 30
0.0
 10
118.1714571638333
 20
269.6122114328326
 30
0.0
 10
118.0814598595814
 20
269.7849974970425
 30
0.0
 10
117.9928079217696
 20
269.9123574227468
 30
0.0
 10
117.917503657412
 20
270.001325321651
 30
0.0
 10
117.8334156835953
 20
270.08208299161
 30
0.0
 10
117.7406469497666
 20
270.152767557992
 30
0.0
 10
117.6396711375212
 20
270.2113637821651
 30
0.0
 10
117.5314840880082
 20
270.255217033322
 30
0.0
 10
117.4178749786539
 20
270.2836217927724
 30
0.0
 10
117.3402089438618
 20
270.2873082454194
 30
0.0
 10
117.3014253212
 20
270.2891491272
 30
0.0
 11
118.3014253212
 21
268.9295859577
 31
0.0
 11
118.2865791670822
 21
269.1614494945621
 31
0.0
 11
118.2416191654936
 21
269.389942412323
 31
0.0
 11
118.1658606868112
 21
269.6101379407262
 31
0.0
 11
118.0579702756336
 21
269.8158378489704
 31
0.0
 11
117.9913429517894
 21
269.9112584487576
 31
0.0
 11
117.9160434952226
 21
269.9999530242758
 31
0.0
 11
117.8319676288921
 21
270.0804051252735
 31
0.0
 11
117.7392798029228
 21
270.1507525745542
 31
0.0
 11
117.6384913680182
 21
270.2088964205728
 31
0.0
 11
117.5306186392266
 21
270.2526284373071
 31
0.0
 11
117.4172953506727
 21
270.279823762627
 31
0.0
 11
117.3014253212
 21
270.2891491272
 31
0.0
  0
SPLINE
  5
F9
330
1F
100
AcDbEntity
  8
BEZUGSACHSEN
  6
Continuous
 62
     7
100
AcDbSpline
210
0.0
220
0.0
230
1.0
 70
     8
 71
     3
 72
    11
 73
     7
 74
     5
 42
0.0000000001
 43
0.0000000001
 44
0.00000001
 40
0.0
 40
0.0
 40
0.0
 40
0.0
 40
0.5462907431041437
 40
1.093000863589368
 40
1.646070107119415
 40
2.19819704871662
 40
2.19819704871662
 40
2.19819704871662
 40
2.19819704871662
 10
55.9802712681
 20
318.8215297109
 30
0.0
 10
56.04334206996547
 20
318.6505980816747
 30
0.0
 10
56.16953209199387
 20
318.3086036021482
 30
0.0
 10
56.30916940501982
 20
317.7773294729432
 30
0.0
 10
56.40665776903244
 20
317.2339050679823
 30
0.0
 10
56.41983988354747
 20
316.8653204274091
 30
0.0
 10
56.4264253212
 20
316.6811852367
 30
0.0
 11
55.9802712681
 21
318.8215297109
 31
0.0
 11
56.16112260072919
 21
318.3060431722906
 31
0.0
 11
56.3016140854275
 21
317.7776928164014
 31
0.0
 11
56.39368073865793
 21
317.2323403436814
 31
0.0
 11
56.4264253212
 21
316.6811852367
 31
0.0
  0
SPLINE
  5
FA
330
1F
100
AcDbEntity
  8
BEZUGSACHSEN
  6
Continuous
 62
     7
100
AcDbSpline
210
0.0
220
0.0
230
1.0
 70
     8
 71
     3
 72
    19
 73
    15
 74
    13
 42
0.0000000001
 43
0.0000000001
 44
0.00000001
 40
0.0
 40
0.0
 40
0.0
 40
0.0
 40
0.1462385987747072
 40
0.2927479274788275
 40
0.4364790706194036
 40
0.5801659236534781
 40
0.7203799973126572
 40
0.8606059383103695
 40
0.9980411884176104
 40
1.13548402042681
 40
1.405415631051
 40
1.675815514063732
 40
1.943997429541175
 40
2.211934834793789
 40
2.211934834793789
 40
2.211934834793789
 40
2.211934834793789
 10
54.4264253212
 20
320.1701772984
 30
0.0
 10
54.47514012653876
 20
320.1734853757108
 30
0.0
 10
54.57265992240626
 20
320.1801076545402
 30
0.0
 10
54.71799618271672
 20
320.1637483417879
 30
0.0
 10
54.85865311984937
 20
320.1285765757189
 30
0.0
 10
54.99150525331574
 20
320.0757708890926
 30
0.0
 10
55.11595971639242
 20
320.0080991013472
 30
0.0
 10
55.23076227356026
 20
319.9287988999521
 30
0.0
 10
55.33687221133096
 20
319.8397142603854
 30
0.0
 10
55.46597467648875
 20
319.7117667248381
 30
0.0
 10
55.60901452637141
 20
319.5359644359415
 30
0.0
 10
55.75392212806375
 20
319.3082789700455
 30
0.0
 10
55.87855887649418
 20
319.069616350538
 30
0.0
 10
55.94637744766639
 20
318.9042001100827
 30
0.0
 10
55.9802712681
 20
318.8215297109
 30
0.0
 11
54.4264253212
 21
320.1701772984
 31
0.0
 11
54.57255918301905
 21
320.1757110314474
 31
0.0
 11
54.71826854386569
 21
320.1604216377709
 31
0.0
 11
54.85769862542495
 21
320.1255233016375
 31
0.0
 11
54.99133096236896
 21
320.0727188486272
 31
0.0
 11
55.11464475320042
 21
320.0059828355393
 31
0.0
 11
55.23017586453014
 21
319.9265103444268
 31
0.0
 11
55.335588414293
 21
319.8383250717078
 31
0.0
 11
55.43337691796049
 21
319.7417438073695
 31
0.0
 11
55.60462531382177
 21
319.5330884424035
 31
0.0
 11
55.75096773435232
 21
319.3057121184677
 31
0.0
 11
55.8748353601591
 21
319.06785007638
 31
0.0
 11
55.9802712681
 21
318.8215297109
 31
0.0
  0
SPLINE
  5
FB
330
1F
100
AcDbEntity
  8
BEZUGSACHSEN
  6
Continuous
 62
     7
100
AcDbSpline
210
0.0
220
0.0
230
1.0
 70
     8
 71
     3
 72
    11
 73
     7
 74
     5
 42
0.0000000001
 43
0.0000000001
 44
0.00000001
 40
0.0
 40
0.0
 40
0.0
 40
0.0
 40
0.9140556660004054
 40
1.828030949185939
 40
2.279806974871121
 40
2.730944124762563
 40
2.730944124762563
 40
2.730944124762563
 40
2.730944124762563
 10
47.6933782480854
 20
288.801529711085
 30
0.0
 10
47.82603295504879
 20
289.0762463087515
 30
0.0
 10
48.0913307032104
 20
289.6256553452788
 30
0.0
 10
48.30668591652304
 20
290.3583662663838
 30
0.0
 10
48.41038013018537
 20
290.9563114724897
 30
0.0
 10
48.42107944770648
 20
291.2574346879165
 30
0.0
 10
48.4264253212
 20
291.4078897625
 30
0.0
 11
47.6933782480854
 21
288.801529711085
 31
0.0
 11
48.06818577786091
 21
289.6352065526555
 31
0.0
 11
48.32747713825874
 21
290.511630427671
 31
0.0
 11
48.40019411175736
 21
290.9575158604327
 31
0.0
 11
48.4264253212
 21
291.4078897625
 31
0.0
  0
SPLINE
  5
FC
330
1F
100
AcDbEntity
  8
BEZUGSACHSEN
  6
Continuous
 62
     7
100
AcDbSpline
210
0.0
220
0.0
230
1.0
 70
     8
 71
     3
 72
    11
 73
     7
 74
     5
 42
0.0000000001
 43
0.0000000001
 44
0.00000001
 40
0.0
 40
0.0
 40
0.0
 40
0.0
 40
0.8249192366724719
 40
1.650116891930984
 40
2.190492152293431
 40
2.730585915378258
 40
2.730585915378258
 40
2.730585915378258
 40
2.730585915378258
 10
48.4264253212
 20
316.2151696593
 30
0.0
 10
48.40869201686182
 20
316.4903599512769
 30
0.0
 10
48.3732194230159
 20
317.0408334147376
 30
0.0
 10
48.16478460638048
 20
317.7455669998905
 30
0.0
 10
47.9345581754008
 20
318.3377807249709
 30
0.0
 10
47.77375759259883
 20
318.6603080584159
 30
0.0
 10
47.6933782480854
 20
318.821529710715
 30
0.0
 11
48.4264253212
 21
316.2151696593
 31
0.0
 11
48.3428498670843
 21
317.0358443149959
 31
0.0
 11
48.12488842497253
 21
317.8317362548952
 31
0.0
 11
47.92695334641333
 21
318.334555433813
 31
0.0
 11
47.6933782480854
 21
318.821529710715
 31
0.0
  0
DIMENSION
  5
107
330
1F
100
AcDbEntity
  8
1
100
AcDbDimension
  2
*D2
 10
238.204593247017
 20
312.8115297109
 30
0.0
 11
234.454593247017
 21
303.244355652222
 31
0.0
 70
    32
  1
<>
 71
     5
 42
-1.0
 53
90.0
  3
ME10_DIM_10
100
AcDbAlignedDimension
 13
226.4264253212
 23
294.8115297109
 33
0.0
 14
226.4264253212
 24
312.8115297109
 34
0.0
 50
90.0
100
AcDbRotatedDimension
  0
DIMENSION
  5
112
330
1F
100
AcDbEntity
  8
1
100
AcDbDimension
  2
*D3
 10
246.771679179264
 20
320.3115297109466
 30
0.0
 11
243.021679179264
 21
303.649956225372
 31
0.0
 70
    32
  1
<>
 71
     5
 42
-1.0
 53
90.0
  3
ME10_DIM_11
100
AcDbAlignedDimension
 13
226.4264253212
 23
287.3115297108559
 33
0.0
 14
226.4264253212
 24
320.3115297109466
 34
0.0
 50
90.0
100
AcDbRotatedDimension
  0
DIMENSION
  5
11D
330
1F
100
AcDbEntity
  8
1
100
AcDbDimension
  2
*D4
 10
255.169570752804
 20
324.8115297109
 30
0.0
 11
251.419570752804
 21
303.649956225372
 31
0.0
 70
    32
  1
<>
 71
     5
 42
-1.0
 53
90.0
  3
ME10_DIM_12
100
AcDbAlignedDimension
 13
169.2485040084
 23
282.8115297109
 33
0.0
 14
169.2485040084
 24
324.8115297109
 34
0.0
 50
90.0
100
AcDbRotatedDimension
  0
DIMENSION
  5
128
330
1F
100
AcDbEntity
  8
1
100
AcDbDimension
  2
*D5
 10
226.4264253212
 20
361.687807569139
 30
0.0
 11
177.17948467479
 21
365.437807569139
 31
0.0
 70
    32
  1
<>
 71
     5
 42
-1.0
 53
0.00013888888889
  3
ME10_DIM_13
100
AcDbAlignedDimension
 13
125.4264253212
 23
353.8114927898
 33
0.0
 14
226.4264253212
 24
319.3871392193
 34
0.0
100
AcDbRotatedDimension
  0
DIMENSION
  5
133
330
1F
100
AcDbEntity
  8
1
100
AcDbDimension
  2
*D6
 10
226.4264253212
 20
368.783470357609
 30
0.0
 11
162.633375958428
 21
372.533470357609
 31
0.0
 70
    32
  1
<>
 71
     5
 42
-1.0
 53
0.00013888888889
  3
ME10_DIM_14
100
AcDbAlignedDimension
 13
96.4264253212
 23
353.8115297109
 33
0.0
 14
226.4264253212
 24
319.3871392193
 34
0.0
100
AcDbRotatedDimension
  0
DIMENSION
  5
13E
330
1F
100
AcDbEntity
  8
1
100
AcDbDimension
  2
*D7
 10
226.4264253212
 20
376.411307855213
 30
0.0
 11
142.942911720424
 21
380.161307855213
 31
0.0
 70
    32
  1
<>
 71
     5
 42
-1.0
 53
0.00013888888889
  3
ME10_DIM_15
100
AcDbAlignedDimension
 13
46.4264253212
 23
337.4117212735
 33
0.0
 14
226.4264253212
 24
319.3871392193
 34
0.0
100
AcDbRotatedDimension
  0
INSERT
  5
145
330
1F
100
AcDbEntity
  8
1
100
AcDbBlockReference
  2
*D8
 10
0.0
 20
0.0
 30
0.0
  0
DIMENSION
  5
150
330
1F
100
AcDbEntity
  8
1
100
AcDbDimension
  2
*D9
 10
204.6882592162509
 20
323.4190979364654
 30
0.0
 11
207.9848879208638
 21
330.9330834143388
 31
0.0
 70
    37
  1
<>
 71
     5
 42
-1.0
  3
ME10_DIM_16
100
AcDb3PointAngularDimension
 13
204.6062698344272
 23
322.0288131909016
 33
0.0
 14
172.795213913987
 24
324.8115297109
 34
0.0
 15
169.2485040084
 25
324.8115297109
 35
0.0
  0
ENDSEC
  0
SECTION
  2
OBJECTS
  0
DICTIONARY
  5
C
330
0
100
AcDbDictionary
281
     1
  3
ACAD_GROUP
350
D
  3
ACAD_LAYOUT
350
1A
  3
ACAD_MLEADERSTYLE
350
153
  3
ACAD_MLINESTYLE
350
17
  3
ACAD_PLOTSETTINGS
350
19
  3
ACAD_PLOTSTYLENAME
350
E
  3
ACAD_SCALELIST
350
4A
  3
ACAD_VISUALSTYLE
350
2A
  3
AcDbVariableDictionary
350
151
  0
DICTIONARY
  5
D
102
{ACAD_REACTORS
330
C
102
}
330
C
100
AcDbDictionary
281
     1
  0
DICTIONARY
  5
1A
102
{ACAD_REACTORS
330
C
102
}
330
C
100
AcDbDictionary
281
     1
  3
Layout1
350
1E
  3
Layout2
350
26
  3
Model
350
22
  0
DICTIONARY
  5
153
102
{ACAD_REACTORS
330
C
102
}
330
C
100
AcDbDictionary
281
     1
  0
DICTIONARY
  5
17
102
{ACAD_REACTORS
330
C
102
}
330
C
100
AcDbDictionary
281
     1
  3
Standard
350
18
  0
DICTIONARY
  5
19
102
{ACAD_REACTORS
330
C
102
}
330
C
100
AcDbDictionary
281
     1
  0
ACDBDICTIONARYWDFLT
  5
E
102
{ACAD_REACTORS
330
C
102
}
330
C
100
AcDbDictionary
281
     1
  3
Normal
350
F
100
AcDbDictionaryWithDefault
340
F
  0
DICTIONARY
  5
4A
102
{ACAD_REACTORS
330
C
102
}
330
C
100
AcDbDictionary
281
     1
  3
A0
350
4B
  3
A1
350
4C
  3
A2
350
4D
  3
A3
350
4E
  3
A4
350
4F
  3
A5
350
50
  3
A6
350
51
  3
A7
350
52
  3
A8
350
53
  3
A9
350
54
  3
B0
350
55
  3
B1
350
56
  3
B2
350
57
  3
B3
350
58
  3
B4
350
59
  3
B5
350
5A
  3
B6
350
5B
  3
B7
350
5C
  3
B8
350
5D
  3
B9
350
5E
  3
C0
350
5F
  3
C1
350
60
  3
C2
350
61
  3
C3
350
62
  3
C4
350
63
  3
C5
350
64
  3
C6
350
65
  3
C7
350
66
  3
C8
350
67
  3
C9
350
68
  3
D0
350
69
  3
D1
350
6A
  3
D2
350
6B
  0
DICTIONARY
  5
2A
102
{ACAD_REACTORS
330
C
102
}
330
C
100
AcDbDictionary
281
     1
  3
2dWireframe
350
2F
  3
3D Hidden
350
31
  3
3dWireframe
350
30
  3
Basic
350
32
  3
Brighten
350
36
  3
ColorChange
350
3A
  3
Conceptual
350
34
  3
Dim
350
35
  3
Facepattern
350
39
  3
Flat
350
2B
  3
FlatWithEdges
350
2C
  3
Gouraud
350
2D
  3
GouraudWithEdges
350
2E
  3
Linepattern
350
38
  3
Realistic
350
33
  3
Thicken
350
37
  0
DICTIONARY
  5
151
102
{ACAD_REACTORS
330
C
102
}
330
C
100
AcDbDictionary
281
     1
  3
CANNOSCALE
350
154
  0
LAYOUT
  5
1E
102
{ACAD_REACTORS
330
1A
102
}
330
1A
100
AcDbPlotSettings
  1

  2
none_device
  4

  6

 40
0.0
 41
0.0
 42
0.0
 43
0.0
 44
0.0
 45
0.0
 46
0.0
 47
0.0
 48
0.0
 49
0.0
140
0.0
141
0.0
142
1.0
143
1.0
 70
   688
 72
     0
 73
     0
 74
     5
  7

 75
    16
147
1.0
148
0.0
149
0.0
100
AcDbLayout
  1
Layout1
 70
     1
 71
     1
 10
0.0
 20
0.0
 11
12.0
 21
9.0
 12
0.0
 22
0.0
 32
0.0
 14
1.00000000000000E+20
 24
1.00000000000000E+20
 34
1.00000000000000E+20
 15
-1.00000000000000E+20
 25
-1.00000000000000E+20
 35
-1.00000000000000E+20
146
0.0
 13
0.0
 23
0.0
 33
0.0
 16
1.0
 26
0.0
 36
0.0
 17
0.0
 27
1.0
 37
0.0
 76
     0
330
1B
  0
LAYOUT
  5
26
102
{ACAD_REACTORS
330
1A
102
}
330
1A
100
AcDbPlotSettings
  1

  2
none_device
  4

  6

 40
0.0
 41
0.0
 42
0.0
 43
0.0
 44
0.0
 45
0.0
 46
0.0
 47
0.0
 48
0.0
 49
0.0
140
0.0
141
0.0
142
1.0
143
1.0
 70
   688
 72
     0
 73
     0
 74
     5
  7

 75
    16
147
1.0
148
0.0
149
0.0
100
AcDbLayout
  1
Layout2
 70
     1
 71
     2
 10
0.0
 20
0.0
 11
0.0
 21
0.0
 12
0.0
 22
0.0
 32
0.0
 14
0.0
 24
0.0
 34
0.0
 15
0.0
 25
0.0
 35
0.0
146
0.0
 13
0.0
 23
0.0
 33
0.0
 16
1.0
 26
0.0
 36
0.0
 17
0.0
 27
1.0
 37
0.0
 76
     0
330
23
  0
LAYOUT
  5
22
102
{ACAD_REACTORS
330
1A
102
}
330
1A
100
AcDbPlotSettings
  1

  2
none_device
  4

  6

 40
0.0
 41
0.0
 42
0.0
 43
0.0
 44
0.0
 45
0.0
 46
0.0
 47
0.0
 48
0.0
 49
0.0
140
0.0
141
0.0
142
1.0
143
1.0
 70
  1712
 72
     0
 73
     0
 74
     0
  7

 75
     0
147
1.0
148
0.0
149
0.0
100
AcDbLayout
  1
Model
 70
     1
 71
     0
 10
0.0
 20
0.0
 11
12.0
 21
9.0
 12
0.0
 22
0.0
 32
0.0
 14
23.9271024510741
 24
253.8115297109
 34
0.0
 15
257.169570752804
 25
381.911307855213
 35
0.0
146
0.0
 13
0.0
 23
0.0
 33
0.0
 16
1.0
 26
0.0
 36
0.0
 17
0.0
 27
1.0
 37
0.0
 76
     0
330
1F
331
29
  0
MLINESTYLE
  5
18
102
{ACAD_REACTORS
330
17
102
}
330
17
100
AcDbMlineStyle
  2
Standard
 70
     0
  3

 62
   256
 51
90.0
 52
90.0
 71
     2
 49
0.5
 62
   256
  6
BYLAYER
 49
-0.5
 62
   256
  6
BYLAYER
  0
ACDBPLACEHOLDER
  5
F
102
{ACAD_REACTORS
330
E
102
}
330
E
  0
SCALE
  5
4B
102
{ACAD_REACTORS
330
4A
102
}
330
4A
100
AcDbScale
 70
     0
300
1:1
140
1.0
141
1.0
290
     1
  0
SCALE
  5
4C
102
{ACAD_REACTORS
330
4A
102
}
330
4A
100
AcDbScale
 70
     0
300
1:2
140
1.0
141
2.0
290
     0
  0
SCALE
  5
4D
102
{ACAD_REACTORS
330
4A
102
}
330
4A
100
AcDbScale
 70
     0
300
1:4
140
1.0
141
4.0
290
     0
  0
SCALE
  5
4E
102
{ACAD_REACTORS
330
4A
102
}
330
4A
100
AcDbScale
 70
     0
300
1:5
140
1.0
141
5.0
290
     0
  0
SCALE
  5
4F
102
{ACAD_REACTORS
330
4A
102
}
330
4A
100
AcDbScale
 70
     0
300
1:8
140
1.0
141
8.0
290
     0
  0
SCALE
  5
50
102
{ACAD_REACTORS
330
4A
102
}
330
4A
100
AcDbScale
 70
     0
300
1:10
140
1.0
141
10.0
290
     0
  0
SCALE
  5
51
102
{ACAD_REACTORS
330
4A
102
}
330
4A
100
AcDbScale
 70
     0
300
1:16
140
1.0
141
16.0
290
     0
  0
SCALE
  5
52
102
{ACAD_REACTORS
330
4A
102
}
330
4A
100
AcDbScale
 70
     0
300
1:20
140
1.0
141
20.0
290
     0
  0
SCALE
  5
53
102
{ACAD_REACTORS
330
4A
102
}
330
4A
100
AcDbScale
 70
     0
300
1:30
140
1.0
141
30.0
290
     0
  0
SCALE
  5
54
102
{ACAD_REACTORS
330
4A
102
}
330
4A
100
AcDbScale
 70
     0
300
1:40
140
1.0
141
40.0
290
     0
  0
SCALE
  5
55
102
{ACAD_REACTORS
330
4A
102
}
330
4A
100
AcDbScale
 70
     0
300
1:50
140
1.0
141
50.0
290
     0
  0
SCALE
  5
56
102
{ACAD_REACTORS
330
4A
102
}
330
4A
100
AcDbScale
 70
     0
300
1:100
140
1.0
141
100.0
290
     0
  0
SCALE
  5
57
102
{ACAD_REACTORS
330
4A
102
}
330
4A
100
AcDbScale
 70
     0
300
2:1
140
2.0
141
1.0
290
     0
  0
SCALE
  5
58
102
{ACAD_REACTORS
330
4A
102
}
330
4A
100
AcDbScale
 70
     0
300
4:1
140
4.0
141
1.0
290
     0
  0
SCALE
  5
59
102
{ACAD_REACTORS
330
4A
102
}
330
4A
100
AcDbScale
 70
     0
300
8:1
140
8.0
141
1.0
290
     0
  0
SCALE
  5
5A
102
{ACAD_REACTORS
330
4A
102
}
330
4A
100
AcDbScale
 70
     0
300
10:1
140
10.0
141
1.0
290
     0
  0
SCALE
  5
5B
102
{ACAD_REACTORS
330
4A
102
}
330
4A
100
AcDbScale
 70
     0
300
100:1
140
100.0
141
1.0
290
     0
  0
SCALE
  5
5C
102
{ACAD_REACTORS
330
4A
102
}
330
4A
100
AcDbScale
 70
     0
300
1/128" = 1'-0"
140
0.0078125
141
12.0
290
     0
  0
SCALE
  5
5D
102
{ACAD_REACTORS
330
4A
102
}
330
4A
100
AcDbScale
 70
     0
300
1/64" = 1'-0"
140
0.015625
141
12.0
290
     0
  0
SCALE
  5
5E
102
{ACAD_REACTORS
330
4A
102
}
330
4A
100
AcDbScale
 70
     0
300
1/32" = 1'-0"
140
0.03125
141
12.0
290
     0
  0
SCALE
  5
5F
102
{ACAD_REACTORS
330
4A
102
}
330
4A
100
AcDbScale
 70
     0
300
1/16" = 1'-0"
140
0.0625
141
12.0
290
     0
  0
SCALE
  5
60
102
{ACAD_REACTORS
330
4A
102
}
330
4A
100
AcDbScale
 70
     0
300
3/32" = 1'-0"
140
0.09375
141
12.0
290
     0
  0
SCALE
  5
61
102
{ACAD_REACTORS
330
4A
102
}
330
4A
100
AcDbScale
 70
     0
300
1/8" = 1'-0"
140
0.125
141
12.0
290
     0
  0
SCALE
  5
62
102
{ACAD_REACTORS
330
4A
102
}
330
4A
100
AcDbScale
 70
     0
300
3/16" = 1'-0"
140
0.1875
141
12.0
290
     0
  0
SCALE
  5
63
102
{ACAD_REACTORS
330
4A
102
}
330
4A
100
AcDbScale
 70
     0
300
1/4" = 1'-0"
140
0.25
141
12.0
290
     0
  0
SCALE
  5
64
102
{ACAD_REACTORS
330
4A
102
}
330
4A
100
AcDbScale
 70
     0
300
3/8" = 1'-0"
140
0.375
141
12.0
290
     0
  0
SCALE
  5
65
102
{ACAD_REACTORS
330
4A
102
}
330
4A
100
AcDbScale
 70
     0
300
1/2" = 1'-0"
140
0.5
141
12.0
290
     0
  0
SCALE
  5
66
102
{ACAD_REACTORS
330
4A
102
}
330
4A
100
AcDbScale
 70
     0
300
3/4" = 1'-0"
140
0.75
141
12.0
290
     0
  0
SCALE
  5
67
102
{ACAD_REACTORS
330
4A
102
}
330
4A
100
AcDbScale
 70
     0
300
1" = 1'-0"
140
1.0
141
12.0
290
     0
  0
SCALE
  5
68
102
{ACAD_REACTORS
330
4A
102
}
330
4A
100
AcDbScale
 70
     0
300
1-1/2" = 1'-0"
140
1.5
141
12.0
290
     0
  0
SCALE
  5
69
102
{ACAD_REACTORS
330
4A
102
}
330
4A
100
AcDbScale
 70
     0
300
3" = 1'-0"
140
3.0
141
12.0
290
     0
  0
SCALE
  5
6A
102
{ACAD_REACTORS
330
4A
102
}
330
4A
100
AcDbScale
 70
     0
300
6" = 1'-0"
140
6.0
141
12.0
290
     0
  0
SCALE
  5
6B
102
{ACAD_REACTORS
330
4A
102
}
330
4A
100
AcDbScale
 70
     0
300
1'-0" = 1'-0"
140
12.0
141
12.0
290
     0
  0
VISUALSTYLE
  5
2F
102
{ACAD_REACTORS
330
2A
102
}
330
2A
100
AcDbVisualStyle
  2
2dWireframe
 70
     4
 71
     0
 72
     2
 73
     0
 90
        0
 40
-0.6
 41
-30.0
 62
     5
 63
     7
 74
     1
 91
        4
 64
     7
 65
   257
 75
     1
175
     1
 42
1.0
 92
        0
 66
   257
 43
1.0
 76
     1
 77
     6
 78
     2
 67
     7
 79
     5
170
     0
171
     0
290
     0
174
     0
 93
        1
 44
0.0
173
     0
291
     0
 45
0.0
1001
ACAD
1000
AcDbSavedByObjectVersion
1070
     0
  0
VISUALSTYLE
  5
31
102
{ACAD_REACTORS
330
2A
102
}
330
2A
100
AcDbVisualStyle
  2
3D Hidden
 70
     6
 71
     1
 72
     2
 73
     2
 90
        0
 40
-0.6
 41
-30.0
 62
     5
 63
     7
 74
     2
 91
        2
 64
     7
 65
   257
 75
     2
175
     1
 42
40.0
 92
        0
 66
   257
 43
1.0
 76
     1
 77
     6
 78
     2
 67
     7
 79
     3
170
     0
171
     0
290
     0
174
     0
 93
        1
 44
0.0
173
     0
291
     0
 45
0.0
1001
ACAD
1000
AcDbSavedByObjectVersion
1070
     0
  0
VISUALSTYLE
  5
30
102
{ACAD_REACTORS
330
2A
102
}
330
2A
100
AcDbVisualStyle
  2
3dWireframe
 70
     5
 71
     0
 72
     2
 73
     0
 90
        0
 40
-0.6
 41
-30.0
 62
     5
 63
     7
 74
     1
 91
        4
 64
     7
 65
   257
 75
     1
175
     1
 42
1.0
 92
        0
 66
   257
 43
1.0
 76
     1
 77
     6
 78
     2
 67
     7
 79
     5
170
     0
171
     0
290
     0
174
     0
 93
        1
 44
0.0
173
     0
291
     0
 45
0.0
1001
ACAD
1000
AcDbSavedByObjectVersion
1070
     0
  0
VISUALSTYLE
  5
32
102
{ACAD_REACTORS
330
2A
102
}
330
2A
100
AcDbVisualStyle
  2
Basic
 70
     7
 71
     1
 72
     0
 73
     1
 90
        0
 40
-0.6
 41
-30.0
 62
     5
 63
     7
 74
     0
 91
        4
 64
     7
 65
   257
 75
     1
175
     1
 42
1.0
 92
        8
 66
     7
 43
1.0
 76
     1
 77
     6
 78
     2
 67
     7
 79
     5
170
     0
171
     0
290
     0
174
     0
 93
        1
 44
0.0
173
     0
291
     1
 45
0.0
1001
ACAD
1000
AcDbSavedByObjectVersion
1070
     0
  0
VISUALSTYLE
  5
36
102
{ACAD_REACTORS
330
2A
102
}
330
2A
100
AcDbVisualStyle
  2
Brighten
 70
    12
 71
     2
 72
     2
 73
     0
 90
        0
 40
-0.6
 41
-30.0
 62
     5
 63
     7
 74
     1
 91
        4
 64
     7
 65
   257
 75
     1
175
     1
 42
1.0
 92
        8
 66
     7
 43
1.0
 76
     1
 77
     6
 78
     2
 67
     7
 79
     5
170
     0
171
     0
290
     0
174
     0
 93
        1
 44
50.0
173
     0
291
     1
 45
0.0
1001
ACAD
1000
AcDbSavedByObjectVersion
1070
     0
  0
VISUALSTYLE
  5
3A
102
{ACAD_REACTORS
330
2A
102
}
330
2A
100
AcDbVisualStyle
  2
ColorChange
 70
    16
 71
     2
 72
     2
 73
     3
 90
        0
 40
-0.6
 41
-30.0
 62
     5
 63
     8
 74
     1
 91
        4
 64
     7
 65
   257
 75
     1
175
     1
 42
1.0
 92
        8
 66
     8
 43
1.0
 76
     1
 77
     6
 78
     2
 67
     7
 79
     5
170
     0
171
     0
290
     0
174
     0
 93
        1
 44
0.0
173
     0
291
     1
 45
0.0
1001
ACAD
1000
AcDbSavedByObjectVersion
1070
     0
  0
VISUALSTYLE
  5
34
102
{ACAD_REACTORS
330
2A
102
}
330
2A
100
AcDbVisualStyle
  2
Conceptual
 70
     9
 71
     3
 72
     2
 73
     0
 90
        0
 40
-0.6
 41
-30.0
 62
     5
 63
     7
 74
     2
 91
        2
 64
     7
 65
   257
 75
     1
175
     1
 42
40.0
 92
        8
 66
     7
 43
1.0
 76
     1
 77
     6
 78
     2
 67
     7
 79
     3
170
     0
171
     0
290
     0
174
     0
 93
        1
 44
0.0
173
     0
291
     0
 45
0.0
1001
ACAD
1000
AcDbSavedByObjectVersion
1070
     0
  0
VISUALSTYLE
  5
35
102
{ACAD_REACTORS
330
2A
102
}
330
2A
100
AcDbVisualStyle
  2
Dim
 70
    11
 71
     2
 72
     2
 73
     0
 90
        0
 40
-0.6
 41
-30.0
 62
     5
 63
     7
 74
     1
 91
        4
 64
     7
 65
   257
 75
     1
175
     1
 42
1.0
 92
        8
 66
     7
 43
1.0
 76
     1
 77
     6
 78
     2
 67
     7
 79
     5
170
     0
171
     0
290
     0
174
     0
 93
        1
 44
-50.0
173
     0
291
     1
 45
0.0
1001
ACAD
1000
AcDbSavedByObjectVersion
1070
     0
  0
VISUALSTYLE
  5
39
102
{ACAD_REACTORS
330
2A
102
}
330
2A
100
AcDbVisualStyle
  2
Facepattern
 70
    15
 71
     2
 72
     2
 73
     0
 90
        0
 40
-0.6
 41
-30.0
 62
     5
 63
     7
 74
     1
 91
        4
 64
     7
 65
   257
 75
     1
175
     1
 42
1.0
 92
        8
 66
     7
 43
1.0
 76
     1
 77
     6
 78
     2
 67
     7
 79
     5
170
     0
171
     0
290
     0
174
     0
 93
        1
 44
0.0
173
     0
291
     1
 45
0.0
1001
ACAD
1000
AcDbSavedByObjectVersion
1070
     0
  0
VISUALSTYLE
  5
2B
102
{ACAD_REACTORS
330
2A
102
}
330
2A
100
AcDbVisualStyle
  2
Flat
 70
     0
 71
     2
 72
     1
 73
     1
 90
        2
 40
-0.6
 41
30.0
 62
     5
 63
     7
 74
     0
 91
        4
 64
     7
 65
   257
 75
     1
175
     1
 42
1.0
 92
        8
 66
     7
 43
1.0
 76
     1
 77
     6
 78
     2
 67
     7
 79
     5
170
     0
171
     0
290
     0
174
     0
 93
       13
 44
0.0
173
     0
291
     1
 45
0.0
1001
ACAD
1000
AcDbSavedByObjectVersion
1070
     0
  0
VISUALSTYLE
  5
2C
102
{ACAD_REACTORS
330
2A
102
}
330
2A
100
AcDbVisualStyle
  2
FlatWithEdges
 70
     1
 71
     2
 72
     1
 73
     1
 90
        2
 40
-0.6
 41
30.0
 62
     5
 63
     7
 74
     1
 91
        4
 64
     7
 65
   257
 75
     1
175
     1
 42
1.0
 92
        0
 66
   257
 43
1.0
 76
     1
 77
     6
 78
     2
 67
     7
 79
     5
170
     0
171
     0
290
     0
174
     0
 93
       13
 44
0.0
173
     0
291
     1
 45
0.0
1001
ACAD
1000
AcDbSavedByObjectVersion
1070
     0
  0
VISUALSTYLE
  5
2D
102
{ACAD_REACTORS
330
2A
102
}
330
2A
100
AcDbVisualStyle
  2
Gouraud
 70
     2
 71
     2
 72
     2
 73
     1
 90
        2
 40
-0.6
 41
30.0
 62
     5
 63
     7
 74
     0
 91
        4
 64
     7
 65
   257
 75
     1
175
     1
 42
1.0
 92
        0
 66
     7
 43
1.0
 76
     1
 77
     6
 78
     2
 67
     7
 79
     5
170
     0
171
     0
290
     0
174
     0
 93
       13
 44
0.0
173
     0
291
     1
 45
0.0
1001
ACAD
1000
AcDbSavedByObjectVersion
1070
     0
  0
VISUALSTYLE
  5
2E
102
{ACAD_REACTORS
330
2A
102
}
330
2A
100
AcDbVisualStyle
  2
GouraudWithEdges
 70
     3
 71
     2
 72
     2
 73
     1
 90
        2
 40
-0.6
 41
30.0
 62
     5
 63
     7
 74
     1
 91
        4
 64
     7
 65
   257
 75
     1
175
     1
 42
1.0
 92
        0
 66
   257
 43
1.0
 76
     1
 77
     6
 78
     2
 67
     7
 79
     5
170
     0
171
     0
290
     0
174
     0
 93
       13
 44
0.0
173
     0
291
     1
 45
0.0
1001
ACAD
1000
AcDbSavedByObjectVersion
1070
     0
  0
VISUALSTYLE
  5
38
102
{ACAD_REACTORS
330
2A
102
}
330
2A
100
AcDbVisualStyle
  2
Linepattern
 70
    14
 71
     2
 72
     2
 73
     0
 90
        0
 40
-0.6
 41
-30.0
 62
     5
 63
     7
 74
     1
 91
        4
 64
     7
 65
   257
 75
     7
175
     7
 42
1.0
 92
        8
 66
     7
 43
1.0
 76
     1
 77
     6
 78
     2
 67
     7
 79
     5
170
     0
171
     0
290
     0
174
     0
 93
        1
 44
0.0
173
     0
291
     1
 45
0.0
1001
ACAD
1000
AcDbSavedByObjectVersion
1070
     0
  0
VISUALSTYLE
  5
33
102
{ACAD_REACTORS
330
2A
102
}
330
2A
100
AcDbVisualStyle
  2
Realistic
 70
     8
 71
     2
 72
     2
 73
     0
 90
        0
 40
-0.6
 41
-30.0
 62
     5
 63
     7
 74
     1
 91
        0
 64
     7
 65
   257
 75
     1
175
     1
 42
1.0
 92
        8
 66
     8
 43
1.0
 76
     1
 77
     6
 78
     2
 67
     7
 79
     5
170
     0
171
     0
290
     0
174
     0
 93
       13
 44
0.0
173
     0
291
     0
 45
0.0
1001
ACAD
1000
AcDbSavedByObjectVersion
1070
     0
  0
VISUALSTYLE
  5
37
102
{ACAD_REACTORS
330
2A
102
}
330
2A
100
AcDbVisualStyle
  2
Thicken
 70
    13
 71
     2
 72
     2
 73
     0
 90
        0
 40
-0.6
 41
-30.0
 62
     5
 63
     7
 74
     1
 91
        4
 64
     7
 65
   257
 75
     1
175
     1
 42
1.0
 92
       12
 66
     7
 43
1.0
 76
     1
 77
     6
 78
     2
 67
     7
 79
     5
170
     0
171
     0
290
     0
174
     0
 93
        1
 44
0.0
173
     0
291
     1
 45
0.0
1001
ACAD
1000
AcDbSavedByObjectVersion
1070
     0
  0
DICTIONARYVAR
  5
154
102
{ACAD_REACTORS
330
151
102
}
330
151
100
DictionaryVariables
280
     0
  1
1:1
  0
ENDSEC
  0
EOF
