  0
SECTION
  2
HEADER
  9
$ACADVER
  1
AC1015
  9
$ACADMAINTVER
 70
     6
  9
$DWGCODEPAGE
  3
ANSI_1252
  9
$INSBASE
 10
0.0
 20
0.0
 30
0.0
  9
$EXTMIN
 10
21.5458325532554
 20
240.664748394
 30
0.0
  9
$EXTMAX
 10
254.675473483084
 20
366.697922960605
 30
0.0
  9
$LIMMIN
 10
0.0
 20
0.0
  9
$LIMMAX
 10
12.0
 20
9.0
  9
$ORTHOMODE
 70
     0
  9
$REGENMODE
 70
     1
  9
$FILLMODE
 70
     1
  9
$QTEXTMODE
 70
     0
  9
$MIRRTEXT
 70
     1
  9
$LTSCALE
 40
1.0
  9
$ATTMODE
 70
     1
  9
$TEXTSIZE
 40
0.2
  9
$TRACEWID
 40
0.05
  9
$TEXTSTYLE
  7
Standard
  9
$CLAYER
  8
0
  9
$CELTYPE
  6
ByLayer
  9
$CECOLOR
 62
   256
  9
$CELTSCALE
 40
1.0
  9
$DISPSILH
 70
     0
  9
$DIMSCALE
 40
1.0
  9
$DIMASZ
 40
0.18
  9
$DIMEXO
 40
0.0625
  9
$DIMDLI
 40
0.38
  9
$DIMRND
 40
0.0
  9
$DIMDLE
 40
0.0
  9
$DIMEXE
 40
0.18
  9
$DIMTP
 40
0.0
  9
$DIMTM
 40
0.0
  9
$DIMTXT
 40
0.18
  9
$DIMCEN
 40
0.09
  9
$DIMTSZ
 40
0.0
  9
$DIMTOL
 70
     0
  9
$DIMLIM
 70
     0
  9
$DIMTIH
 70
     1
  9
$DIMTOH
 70
     1
  9
$DIMSE1
 70
     0
  9
$DIMSE2
 70
     0
  9
$DIMTAD
 70
     0
  9
$DIMZIN
 70
     0
  9
$DIMBLK
  1

  9
$DIMASO
 70
     1
  9
$DIMSHO
 70
     1
  9
$DIMPOST
  1

  9
$DIMAPOST
  1

  9
$DIMALT
 70
     0
  9
$DIMALTD
 70
     2
  9
$DIMALTF
 40
25.4
  9
$DIMLFAC
 40
1.0
  9
$DIMTOFL
 70
     0
  9
$DIMTVP
 40
0.0
  9
$DIMTIX
 70
     0
  9
$DIMSOXD
 70
     0
  9
$DIMSAH
 70
     0
  9
$DIMBLK1
  1

  9
$DIMBLK2
  1

  9
$DIMSTYLE
  2
Standard
  9
$DIMCLRD
 70
     0
  9
$DIMCLRE
 70
     0
  9
$DIMCLRT
 70
     0
  9
$DIMTFAC
 40
1.0
  9
$DIMGAP
 40
0.09
  9
$DIMJUST
 70
     0
  9
$DIMSD1
 70
     0
  9
$DIMSD2
 70
     0
  9
$DIMTOLJ
 70
     1
  9
$DIMTZIN
 70
     0
  9
$DIMALTZ
 70
     0
  9
$DIMALTTZ
 70
     0
  9
$DIMUPT
 70
     0
  9
$DIMDEC
 70
     4
  9
$DIMTDEC
 70
     4
  9
$DIMALTU
 70
     2
  9
$DIMALTTD
 70
     2
  9
$DIMTXSTY
  7
Standard
  9
$DIMAUNIT
 70
     0
  9
$DIMADEC
 70
     0
  9
$DIMALTRND
 40
0.0
  9
$DIMAZIN
 70
     0
  9
$DIMDSEP
 70
    46
  9
$DIMATFIT
 70
     3
  9
$DIMFRAC
 70
     0
  9
$DIMLDRBLK
  1

  9
$DIMLUNIT
 70
     2
  9
$DIMLWD
 70
    -2
  9
$DIMLWE
 70
    -2
  9
$DIMTMOVE
 70
     0
  9
$LUNITS
 70
     2
  9
$LUPREC
 70
     4
  9
$SKETCHINC
 40
0.1
  9
$FILLETRAD
 40
0.5
  9
$AUNITS
 70
     0
  9
$AUPREC
 70
     0
  9
$MENU
  1
.
  9
$ELEVATION
 40
0.0
  9
$PELEVATION
 40
0.0
  9
$THICKNESS
 40
0.0
  9
$LIMCHECK
 70
     0
  9
$CHAMFERA
 40
0.5
  9
$CHAMFERB
 40
0.5
  9
$CHAMFERC
 40
1.0
  9
$CHAMFERD
 40
0.0
  9
$SKPOLY
 70
     0
  9
$TDCREATE
 40
2456748.730084595
  9
$TDUCREATE
 40
2456748.646751262
  9
$TDUPDATE
 40
2456748.730084606
  9
$TDUUPDATE
 40
2456748.646751273
  9
$TDINDWG
 40
0.0000000116
  9
$TDUSRTIMER
 40
0.0000000116
  9
$USRTIMER
 70
     1
  9
$ANGBASE
 50
0.0
  9
$ANGDIR
 70
     0
  9
$PDMODE
 70
     0
  9
$PDSIZE
 40
0.0
  9
$PLINEWID
 40
0.0
  9
$SPLFRAME
 70
     0
  9
$SPLINETYPE
 70
     6
  9
$SPLINESEGS
 70
     8
  9
$HANDSEED
  5
155
  9
$SURFTAB1
 70
     6
  9
$SURFTAB2
 70
     6
  9
$SURFTYPE
 70
     6
  9
$SURFU
 70
     6
  9
$SURFV
 70
     6
  9
$UCSBASE
  2

  9
$UCSNAME
  2

  9
$UCSORG
 10
0.0
 20
0.0
 30
0.0
  9
$UCSXDIR
 10
1.0
 20
0.0
 30
0.0
  9
$UCSYDIR
 10
0.0
 20
1.0
 30
0.0
  9
$UCSORTHOREF
  2

  9
$UCSORTHOVIEW
 70
     0
  9
$UCSORGTOP
 10
0.0
 20
0.0
 30
0.0
  9
$UCSORGBOTTOM
 10
0.0
 20
0.0
 30
0.0
  9
$UCSORGLEFT
 10
0.0
 20
0.0
 30
0.0
  9
$UCSORGRIGHT
 10
0.0
 20
0.0
 30
0.0
  9
$UCSORGFRONT
 10
0.0
 20
0.0
 30
0.0
  9
$UCSORGBACK
 10
0.0
 20
0.0
 30
0.0
  9
$PUCSBASE
  2

  9
$PUCSNAME
  2

  9
$PUCSORG
 10
0.0
 20
0.0
 30
0.0
  9
$PUCSXDIR
 10
1.0
 20
0.0
 30
0.0
  9
$PUCSYDIR
 10
0.0
 20
1.0
 30
0.0
  9
$PUCSORTHOREF
  2

  9
$PUCSORTHOVIEW
 70
     0
  9
$PUCSORGTOP
 10
0.0
 20
0.0
 30
0.0
  9
$PUCSORGBOTTOM
 10
0.0
 20
0.0
 30
0.0
  9
$PUCSORGLEFT
 10
0.0
 20
0.0
 30
0.0
  9
$PUCSORGRIGHT
 10
0.0
 20
0.0
 30
0.0
  9
$PUCSORGFRONT
 10
0.0
 20
0.0
 30
0.0
  9
$PUCSORGBACK
 10
0.0
 20
0.0
 30
0.0
  9
$USERI1
 70
     0
  9
$USERI2
 70
     0
  9
$USERI3
 70
     0
  9
$USERI4
 70
     0
  9
$USERI5
 70
     0
  9
$USERR1
 40
16.5
  9
$USERR2
 40
0.0
  9
$USERR3
 40
0.0
  9
$USERR4
 40
0.0
  9
$USERR5
 40
0.0
  9
$WORLDVIEW
 70
     1
  9
$SHADEDGE
 70
     3
  9
$SHADEDIF
 70
    70
  9
$TILEMODE
 70
     1
  9
$MAXACTVP
 70
    64
  9
$PINSBASE
 10
0.0
 20
0.0
 30
0.0
  9
$PLIMCHECK
 70
     0
  9
$PEXTMIN
 10
1.00000000000000E+20
 20
1.00000000000000E+20
 30
1.00000000000000E+20
  9
$PEXTMAX
 10
-1.00000000000000E+20
 20
-1.00000000000000E+20
 30
-1.00000000000000E+20
  9
$PLIMMIN
 10
0.0
 20
0.0
  9
$PLIMMAX
 10
12.0
 20
9.0
  9
$UNITMODE
 70
     0
  9
$VISRETAIN
 70
     1
  9
$PLINEGEN
 70
     0
  9
$PSLTSCALE
 70
     1
  9
$TREEDEPTH
 70
  3020
  9
$CMLSTYLE
  2
Standard
  9
$CMLJUST
 70
     0
  9
$CMLSCALE
 40
1.0
  9
$PROXYGRAPHICS
 70
     1
  9
$MEASUREMENT
 70
     1
  9
$CELWEIGHT
370
    -1
  9
$ENDCAPS
280
     0
  9
$JOINSTYLE
280
     0
  9
$LWDISPLAY
290
     0
  9
$INSUNITS
 70
     1
  9
$HYPERLINKBASE
  1

  9
$STYLESHEET
  1

  9
$XEDIT
290
     1
  9
$CEPSNTYPE
380
     0
  9
$PSTYLEMODE
290
     1
  9
$FINGERPRINTGUID
  2
{95E52A87-6A34-487E-B34D-DDE6A6426551}
  9
$VERSIONGUID
  2
{FAEB1C32-E019-11D5-929B-00C0DF256EC4}
  9
$EXTNAMES
290
     1
  9
$PSVPSCALE
 40
0.0
  9
$OLESTARTUP
290
     0
  0
ENDSEC
  0
SECTION
  2
CLASSES
  0
CLASS
  1
ACDBDICTIONARYWDFLT
  2
AcDbDictionaryWithDefault
  3
ObjectDBX Classes
 90
        0
280
     0
281
     0
  0
CLASS
  1
VISUALSTYLE
  2
AcDbVisualStyle
  3
ObjectDBX Classes
 90
     4095
280
     0
281
     0
  0
CLASS
  1
SCALE
  2
AcDbScale
  3
ObjectDBX Classes
 90
     1153
280
     0
281
     0
  0
CLASS
  1

  2
exOdDbPolyline
  3

 90
        0
280
     0
281
     1
  0
CLASS
  1

  2
exOdDbCircle
  3

 90
        0
280
     0
281
     1
  0
CLASS
  1

  2
exOdDbSpline
  3

 90
        0
280
     0
281
     1
  0
CLASS
  1
DICTIONARYVAR
  2
AcDbDictionaryVar
  3
ObjectDBX Classes
 90
        0
280
     0
281
     0
  0
CLASS
  1
ACDBPLACEHOLDER
  2
AcDbPlaceHolder
  3
ObjectDBX Classes
 90
        0
280
     0
281
     0
  0
CLASS
  1
LAYOUT
  2
AcDbLayout
  3
ObjectDBX Classes
 90
        0
280
     0
281
     0
  0
ENDSEC
  0
SECTION
  2
TABLES
  0
TABLE
  2
VPORT
  5
8
330
0
100
AcDbSymbolTable
 70
     1
  0
VPORT
  5
29
330
8
100
AcDbSymbolTableRecord
100
AcDbViewportTableRecord
  2
*Active
 70
     0
 10
0.0
 20
0.0
 11
1.0
 21
1.0
 12
138.1106530181697
 22
303.6813356773025
 13
0.0
 23
0.0
 14
0.5
 24
0.5
 15
0.5
 25
0.5
 16
0.0
 26
0.0
 36
1.0
 17
0.0
 27
0.0
 37
0.0
 40
160.0087563373532
 41
1.60267857142857
 42
50.0
 43
0.0
 44
0.0
 50
0.0
 51
0.0
 71
     0
 72
   100
 73
     1
 74
     3
 75
     0
 76
     0
 77
     0
 78
     0
281
     0
 65
     1
110
0.0
120
0.0
130
0.0
111
1.0
121
0.0
131
0.0
112
0.0
122
1.0
132
0.0
 79
     0
146
0.0
  0
ENDTAB
  0
TABLE
  2
LTYPE
  5
5
330
0
100
AcDbSymbolTable
 70
     8
  0
LTYPE
  5
14
330
5
100
AcDbSymbolTableRecord
100
AcDbLinetypeTableRecord
  2
ByBlock
 70
     0
  3

 72
    65
 73
     0
 40
0.0
  0
LTYPE
  5
15
330
5
100
AcDbSymbolTableRecord
100
AcDbLinetypeTableRecord
  2
ByLayer
 70
     0
  3

 72
    65
 73
     0
 40
0.0
  0
LTYPE
  5
16
330
5
100
AcDbSymbolTableRecord
100
AcDbLinetypeTableRecord
  2
Continuous
 70
     0
  3
Solid line
 72
    65
 73
     0
 40
0.0
  0
LTYPE
  5
3B
330
5
100
AcDbSymbolTableRecord
100
AcDbLinetypeTableRecord
  2
DASHED
 70
     0
  3
Dashed
 72
    65
 73
     2
 40
15.0
 49
7.0
 74
     0
 49
-8.0
 74
     0
  0
LTYPE
  5
3C
330
5
100
AcDbSymbolTableRecord
100
AcDbLinetypeTableRecord
  2
DOTTED
 70
     0
  3
Dotted
 72
    65
 73
     2
 40
1.0
 49
0.0
 74
     0
 49
-1.0
 74
     0
  0
LTYPE
  5
3D
330
5
100
AcDbSymbolTableRecord
100
AcDbLinetypeTableRecord
  2
DOT_CENTER
 70
     0
  3
Dot_Center
 72
    65
 73
     4
 40
14.0
 49
12.0
 74
     0
 49
-1.0
 74
     0
 49
0.0
 74
     0
 49
-1.0
 74
     0
  0
LTYPE
  5
3E
330
5
100
AcDbSymbolTableRecord
100
AcDbLinetypeTableRecord
  2
LONG_DASHED
 70
     0
  3
Long_Dashed
 72
    65
 73
     2
 40
15.0
 49
10.0
 74
     0
 49
-5.0
 74
     0
  0
LTYPE
  5
3F
330
5
100
AcDbSymbolTableRecord
100
AcDbLinetypeTableRecord
  2
DASH_CENTER
 70
     0
  3
Dash_Center
 72
    65
 73
     4
 40
14.0
 49
11.0
 74
     0
 49
-1.0
 74
     0
 49
1.0
 74
     0
 49
-1.0
 74
     0
  0
LTYPE
  5
40
330
5
100
AcDbSymbolTableRecord
100
AcDbLinetypeTableRecord
  2
PHANTOM
 70
     0
  3
Phantom
 72
    65
 73
     6
 40
13.0
 49
10.0
 74
     0
 49
-1.0
 74
     0
 49
0.0
 74
     0
 49
-1.0
 74
     0
 49
0.0
 74
     0
 49
-1.0
 74
     0
  0
LTYPE
  5
41
330
5
100
AcDbSymbolTableRecord
100
AcDbLinetypeTableRecord
  2
CENTER_DASH_DASH
 70
     0
  3
Center_Dash_Dash
 72
    65
 73
     6
 40
14.0
 49
9.0
 74
     0
 49
-1.0
 74
     0
 49
1.0
 74
     0
 49
-1.0
 74
     0
 49
1.0
 74
     0
 49
-1.0
 74
     0
  0
ENDTAB
  0
TABLE
  2
LAYER
  5
2
330
0
100
AcDbSymbolTable
 70
     6
  0
LAYER
  5
10
330
2
100
AcDbSymbolTableRecord
100
AcDbLayerTableRecord
  2
0
 70
     0
 62
     7
  6
Continuous
370
    -3
390
F
  0
LAYER
  5
42
330
2
100
AcDbSymbolTableRecord
100
AcDbLayerTableRecord
  2
1
 70
     0
 62
     7
  6
Continuous
370
    -3
390
F
  0
LAYER
  5
43
330
2
100
AcDbSymbolTableRecord
100
AcDbLayerTableRecord
  2
BEZUGSACHSEN
 70
     0
 62
     7
  6
Continuous
370
    -3
390
F
  0
LAYER
  5
44
330
2
100
AcDbSymbolTableRecord
100
AcDbLayerTableRecord
  2
DEFAULT_2
 70
     0
 62
     7
  6
Continuous
370
    -3
390
F
  0
LAYER
  5
45
330
2
100
AcDbSymbolTableRecord
100
AcDbLayerTableRecord
  2
FASEN
 70
     0
 62
     7
  6
Continuous
370
    -3
390
F
  0
LAYER
  5
46
330
2
100
AcDbSymbolTableRecord
100
AcDbLayerTableRecord
  2
RUNDUNGEN
 70
     0
 62
     7
  6
Continuous
370
    -3
390
F
  0
ENDTAB
  0
TABLE
  2
STYLE
  5
3
330
0
100
AcDbSymbolTable
 70
     2
  0
STYLE
  5
11
330
3
100
AcDbSymbolTableRecord
100
AcDbTextStyleTableRecord
  2
Standard
 70
     0
 40
0.0
 41
1.0
 50
0.0
 71
     0
 42
0.2
  3
txt
  4

  0
STYLE
  5
6D
330
3
100
AcDbSymbolTableRecord
100
AcDbTextStyleTableRecord
  2
CONVERTER_11
 70
     0
 40
0.0
 41
0.72
 50
0.0
 71
     0
 42
0.2
  3
txt.shx
  4

  0
ENDTAB
  0
TABLE
  2
VIEW
  5
6
330
0
100
AcDbSymbolTable
 70
     0
  0
ENDTAB
  0
TABLE
  2
UCS
  5
7
330
0
100
AcDbSymbolTable
 70
     0
  0
ENDTAB
  0
TABLE
  2
APPID
  5
9
330
0
100
AcDbSymbolTable
 70
     1
  0
APPID
  5
12
330
9
100
AcDbSymbolTableRecord
100
AcDbRegAppTableRecord
  2
ACAD
 70
     0
  0
ENDTAB
  0
TABLE
  2
DIMSTYLE
  5
A
330
0
100
AcDbSymbolTable
 70
     8
100
AcDbDimStyleTable
  0
DIMSTYLE
105
27
330
A
100
AcDbSymbolTableRecord
100
AcDbDimStyleTableRecord
  2
Standard
 70
     0
340
11
  0
DIMSTYLE
105
106
102
{ACAD_REACTORS
330
107
102
}
330
A
100
AcDbSymbolTableRecord
100
AcDbDimStyleTableRecord
  2
ME10_DIM_10
 70
     0
  3
\U+2300<>
 41
3.5
 42
2.0
 44
2.0
 71
     1
 73
     0
 74
     0
 77
     1
 78
     8
140
3.5
146
0.7
147
2.0
172
     1
173
     1
176
     2
177
     2
178
     3
271
     2
272
     0
340
6D
  0
DIMSTYLE
105
111
102
{ACAD_REACTORS
330
112
102
}
330
A
100
AcDbSymbolTableRecord
100
AcDbDimStyleTableRecord
  2
ME10_DIM_11
 70
     0
  3
\U+2300<>
 41
3.5
 42
2.0
 44
2.0
 71
     1
 73
     0
 74
     0
 77
     1
 78
     8
140
3.5
146
0.7
147
2.0
172
     1
173
     1
176
     2
177
     2
178
     3
271
     2
272
     0
340
6D
  0
DIMSTYLE
105
11C
102
{ACAD_REACTORS
330
11D
102
}
330
A
100
AcDbSymbolTableRecord
100
AcDbDimStyleTableRecord
  2
ME10_DIM_12
 70
     0
  3
\U+2300<>
 41
3.5
 42
2.0
 44
2.0
 71
     1
 73
     0
 74
     0
 77
     1
 78
     8
140
3.5
146
0.7
147
2.0
172
     1
173
     1
176
     2
177
     2
178
     3
271
     2
272
     0
340
6D
  0
DIMSTYLE
105
127
102
{ACAD_REACTORS
330
128
102
}
330
A
100
AcDbSymbolTableRecord
100
AcDbDimStyleTableRecord
  2
ME10_DIM_13
 70
     0
  3
<>
 41
3.5
 42
2.0
 44
2.0
 71
     1
 73
     0
 74
     0
 77
     1
 78
     8
140
3.5
146
0.7
147
2.0
172
     1
173
     1
176
     2
177
     2
178
     3
271
     2
272
     0
340
6D
  0
DIMSTYLE
105
132
102
{ACAD_REACTORS
330
133
102
}
330
A
100
AcDbSymbolTableRecord
100
AcDbDimStyleTableRecord
  2
ME10_DIM_14
 70
     0
  3
<>
 41
3.5
 42
2.0
 44
2.0
 71
     1
 73
     0
 74
     0
 77
     1
 78
     8
140
3.5
146
0.7
147
2.0
172
     1
173
     1
176
     2
177
     2
178
     3
271
     2
272
     0
340
6D
  0
DIMSTYLE
105
13D
102
{ACAD_REACTORS
330
13E
102
}
330
A
100
AcDbSymbolTableRecord
100
AcDbDimStyleTableRecord
  2
ME10_DIM_15
 70
     0
  3
<>
 41
3.5
 42
2.0
 44
2.0
 71
     1
 73
     0
 74
     0
 77
     1
 78
     8
140
3.5
146
0.7
147
2.0
172
     1
173
     1
176
     2
177
     2
178
     3
271
     2
272
     0
340
6D
  0
DIMSTYLE
105
14F
102
{ACAD_REACTORS
330
150
102
}
330
A
100
AcDbSymbolTableRecord
100
AcDbDimStyleTableRecord
  2
ME10_DIM_16
 70
     0
  3
<>
 41
3.5
 42
2.0
 44
2.0
 71
     1
 73
     0
 74
     0
 77
     1
 78
     8
140
3.5
146
0.7
147
2.0
172
     1
173
     1
176
     2
177
     2
178
     3
271
     2
272
     0
340
6D
  0
ENDTAB
  0
TABLE
  2
BLOCK_RECORD
  5
1
330
0
100
AcDbSymbolTable
 70
    10
  0
BLOCK_RECORD
  5
1F
330
1
100
AcDbSymbolTableRecord
100
AcDbBlockTableRecord
  2
*Model_Space
340
22
  0
BLOCK_RECORD
  5
1B
330
1
100
AcDbSymbolTableRecord
100
AcDbBlockTableRecord
  2
*Paper_Space
340
1E
  0
BLOCK_RECORD
  5
23
330
1
100
AcDbSymbolTableRecord
100
AcDbBlockTableRecord
  2
*Paper_Space0
340
26
  0
BLOCK_RECORD
  5
47
330
1
100
AcDbSymbolTableRecord
100
AcDbBlockTableRecord
  2
Urheberrecht_DE-EN
340
0
102
{BLKREFS
331
6C
102
}
  0
BLOCK_RECORD
  5
FD
330
1
100
AcDbSymbolTableRecord
100
AcDbBlockTableRecord
  2
*D2
340
0
  0
BLOCK_RECORD
  5
108
330
1
100
AcDbSymbolTableRecord
100
AcDbBlockTableRecord
  2
*D3
340
0
  0
BLOCK_RECORD
  5
113
330
1
100
AcDbSymbolTableRecord
100
AcDbBlockTableRecord
  2
*D4
340
0
  0
BLOCK_RECORD
  5
11E
330
1
100
AcDbSymbolTableRecord
100
AcDbBlockTableRecord
  2
*D5
340
0
  0
BLOCK_RECORD
  5
129
330
1
100
AcDbSymbolTableRecord
100
AcDbBlockTableRecord
  2
*D6
340
0
  0
BLOCK_RECORD
  5
134
330
1
100
AcDbSymbolTableRecord
100
AcDbBlockTableRecord
  2
*D7
340
0
  0
BLOCK_RECORD
  5
13F
330
1
100
AcDbSymbolTableRecord
100
AcDbBlockTableRecord
  2
*D8
340
0
102
{BLKREFS
331
145
102
}
  0
BLOCK_RECORD
  5
146
330
1
100
AcDbSymbolTableRecord
100
AcDbBlockTableRecord
  2
*D9
340
0
  0
ENDTAB
  0
ENDSEC
  0
SECTION
  2
BLOCKS
  0
BLOCK
  5
20
330
1F
100
AcDbEntity
  8
0
100
AcDbBlockBegin
  2
*Model_Space
 70
     0
 10
0.0
 20
0.0
 30
0.0
  3
*Model_Space
  1

  0
ENDBLK
  5
21
330
1F
100
AcDbEntity
  8
0
100
AcDbBlockEnd
  0
BLOCK
  5
1C
330
1B
100
AcDbEntity
 67
     1
  8
0
100
AcDbBlockBegin
  2
*Paper_Space
 70
     0
 10
0.0
 20
0.0
 30
0.0
  3
*Paper_Space
  1

  0
ENDBLK
  5
1D
330
1B
100
AcDbEntity
 67
     1
  8
0
100
AcDbBlockEnd
  0
BLOCK
  5
24
330
23
100
AcDbEntity
  8
0
100
AcDbBlockBegin
  2
*Paper_Space0
 70
     0
 10
0.0
 20
0.0
 30
0.0
  3
*Paper_Space0
  1

  0
ENDBLK
  5
25
330
23
100
AcDbEntity
  8
0
100
AcDbBlockEnd
  0
BLOCK
  5
48
330
47
100
AcDbEntity
  8
0
100
AcDbBlockBegin
  2
Urheberrecht_DE-EN
 70
     0
 10
35.5458325532554
 20
304.496240962913
 30
0.0
  3
Urheberrecht_DE-EN
  1

  0
MTEXT
  5
6E
330
47
100
AcDbEntity
  8
1
 62
     1
100
AcDbMText
 10
35.5458325532554
 20
304.496240962913
 30
0.0
 40
2.0
 41
0.0
 71
     7
 72
     1
  1
We own the copyright of this document. It \Pdetermined and may neither be copied or \Pmade accessible to outsiders without our\Ppermission.
  7
CONVERTER_11
 11
0.0
 21
1.0
 31
0.0
 73
     1
 44
0.90036014405762
  0
MTEXT
  5
6F
330
47
100
AcDbEntity
  8
1
 62
     1
100
AcDbMText
 10
35.5458325532554
 20
248.2068540456068
 30
0.0
 40
2.0
 41
0.0
 71
     7
 72
     1
  1
F\U+00fcr diese Unterlage behalten wir das Ur-\Pheberrecht. Sie darf nur f\U+00fcr den von uns \Pbestimmten Zweck benutzt und ohne unsere \PZustimmung weder vervielf\U+00e4ltigt noch\PDritten zug\U+00e4nglich gemacht werden.
  7
CONVERTER_11
 11
0.0
 21
1.0
 31
0.0
 73
     1
 44
0.90036014405762
  0
ENDBLK
  5
49
330
47
100
AcDbEntity
  8
0
100
AcDbBlockEnd
  0
BLOCK
  5
104
330
FD
100
AcDbEntity
  8
0
100
AcDbBlockBegin
  2
*D2
 70
     1
 10
0.0
 20
0.0
 30
0.0
  3
*D2
  1

  0
LINE
  5
FE
330
FD
100
AcDbEntity
  8
1
  6
Continuous
 62
     2
100
AcDbLine
 10
235.891775611767
 20
297.664748394
 30
0.0
 11
235.891775611767
 21
283.664748394
 31
0.0
  0
LINE
  5
FF
330
FD
100
AcDbEntity
  8
1
  6
Continuous
 62
     2
100
AcDbLine
 10
227.0849170236
 20
297.664748394
 30
0.0
 11
237.891775611767
 21
297.664748394
 31
0.0
  0
LINE
  5
100
330
FD
100
AcDbEntity
  8
1
  6
Continuous
 62
     2
100
AcDbLine
 10
227.0849170236
 20
283.664748394
 30
0.0
 11
237.891775611767
 21
283.664748394
 31
0.0
  0
SOLID
  5
101
330
FD
100
AcDbEntity
  8
1
 62
     2
100
AcDbTrace
 10
236.3525593533229
 20
294.164748394
 30
0.0
 11
235.4309918702111
 21
294.164748394
 31
0.0
 12
235.891775611767
 22
297.664748394
 32
0.0
 13
235.891775611767
 23
297.664748394
 33
0.0
  0
SOLID
  5
102
330
FD
100
AcDbEntity
  8
1
 62
     2
100
AcDbTrace
 10
235.4309918702111
 20
287.164748394
 30
0.0
 11
236.3525593533229
 21
287.164748394
 31
0.0
 12
235.891775611767
 22
283.664748394
 32
0.0
 13
235.891775611767
 23
283.664748394
 33
0.0
  0
MTEXT
  5
103
330
FD
100
AcDbEntity
  8
1
 62
     3
100
AcDbMText
 10
233.891775611767
 20
281.999223827485
 30
0.0
 40
3.5
 41
0.0
 71
     7
 72
     1
  1
\C3;%%c\C3;\C3;14\C2;\H2.45;\S^ ;\C3;
  7
CONVERTER_11
 11
0.0
 21
1.0
 31
0.0
 73
     1
 44
0.60024009603842
  0
ENDBLK
  5
105
330
FD
100
AcDbEntity
  8
0
100
AcDbBlockEnd
  0
BLOCK
  5
10F
330
108
100
AcDbEntity
  8
0
100
AcDbBlockBegin
  2
*D3
 70
     1
 10
0.0
 20
0.0
 30
0.0
  3
*D3
  1

  0
LINE
  5
109
330
108
100
AcDbEntity
  8
1
  6
Continuous
 62
     2
100
AcDbLine
 10
244.812840246071
 20
304.1647483940528
 30
0.0
 11
244.812840246071
 21
277.1647483939559
 31
0.0
  0
LINE
  5
10A
330
108
100
AcDbEntity
  8
1
  6
Continuous
 62
     2
100
AcDbLine
 10
227.0849170236094
 20
304.1647483940528
 30
0.0
 11
246.812840246071
 21
304.1647483940528
 31
0.0
  0
LINE
  5
10B
330
108
100
AcDbEntity
  8
1
  6
Continuous
 62
     2
100
AcDbLine
 10
227.0849170236
 20
277.1647483939559
 30
0.0
 11
246.812840246071
 21
277.1647483939559
 31
0.0
  0
SOLID
  5
10C
330
108
100
AcDbEntity
  8
1
 62
     2
100
AcDbTrace
 10
245.2736239876269
 20
300.6647483940528
 30
0.0
 11
244.3520565045151
 21
300.6647483940528
 31
0.0
 12
244.812840246071
 22
304.1647483940528
 32
0.0
 13
244.812840246071
 23
304.1647483940528
 33
0.0
  0
SOLID
  5
10D
330
108
100
AcDbEntity
  8
1
 62
     2
100
AcDbTrace
 10
244.3520565045151
 20
280.6647483939559
 30
0.0
 11
245.2736239876269
 21
280.6647483939559
 31
0.0
 12
244.812840246071
 22
277.1647483939559
 32
0.0
 13
244.812840246071
 23
277.1647483939559
 33
0.0
  0
MTEXT
  5
10E
330
108
100
AcDbEntity
  8
1
 62
     3
100
AcDbMText
 10
242.812840246071
 20
282.184041768794
 30
0.0
 40
3.5
 41
0.0
 71
     7
 72
     1
  1
\C3;%%c\C3;\C3;27\C2;\H2.45;\S^ ;\C3;
  7
CONVERTER_11
 11
0.0
 21
1.0
 31
0.0
 73
     1
 44
0.60024009603842
  0
ENDBLK
  5
110
330
108
100
AcDbEntity
  8
0
100
AcDbBlockEnd
  0
BLOCK
  5
11A
330
113
100
AcDbEntity
  8
0
100
AcDbBlockBegin
  2
*D4
 70
     1
 10
0.0
 20
0.0
 30
0.0
  3
*D4
  1

  0
LINE
  5
114
330
113
100
AcDbEntity
  8
1
  6
Continuous
 62
     2
100
AcDbLine
 10
252.675473483084
 20
307.664748394
 30
0.0
 11
252.675473483084
 21
273.664748394
 31
0.0
  0
LINE
  5
115
330
113
100
AcDbEntity
  8
1
  6
Continuous
 62
     2
100
AcDbLine
 10
182.6132004469
 20
307.664748394
 30
0.0
 11
254.675473483084
 21
307.664748394
 31
0.0
  0
LINE
  5
116
330
113
100
AcDbEntity
  8
1
  6
Continuous
 62
     2
100
AcDbLine
 10
182.6132004469
 20
273.664748394
 30
0.0
 11
254.675473483084
 21
273.664748394
 31
0.0
  0
SOLID
  5
117
330
113
100
AcDbEntity
  8
1
 62
     2
100
AcDbTrace
 10
253.1362572246399
 20
304.164748394
 30
0.0
 11
252.2146897415281
 21
304.164748394
 31
0.0
 12
252.675473483084
 22
307.664748394
 32
0.0
 13
252.675473483084
 23
307.664748394
 33
0.0
  0
SOLID
  5
118
330
113
100
AcDbEntity
  8
1
 62
     2
100
AcDbTrace
 10
252.2146897415281
 20
277.164748394
 30
0.0
 11
253.1362572246399
 21
277.164748394
 31
0.0
 12
252.675473483084
 22
273.664748394
 32
0.0
 13
252.675473483084
 23
273.664748394
 33
0.0
  0
MTEXT
  5
119
330
113
100
AcDbEntity
  8
1
 62
     3
100
AcDbMText
 10
250.675473483084
 20
282.184041768794
 30
0.0
 40
3.5
 41
0.0
 71
     7
 72
     1
  1
\C3;%%c\C3;\C3;34\C2;\H2.45;\S^ ;\C3;
  7
CONVERTER_11
 11
0.0
 21
1.0
 31
0.0
 73
     1
 44
0.60024009603842
  0
ENDBLK
  5
11B
330
113
100
AcDbEntity
  8
0
100
AcDbBlockEnd
  0
BLOCK
  5
125
330
11E
100
AcDbEntity
  8
0
100
AcDbBlockBegin
  2
*D5
 70
     1
 10
0.0
 20
0.0
 30
0.0
  3
*D5
  1

  0
LINE
  5
11F
330
11E
100
AcDbEntity
  8
1
  6
Continuous
 62
     2
100
AcDbLine
 10
225.0849170236
 20
347.287110310505
 30
0.0
 11
124.0849170236
 21
347.287110310505
 31
0.0
  0
LINE
  5
120
330
11E
100
AcDbEntity
  8
1
  6
Continuous
 62
     2
100
AcDbLine
 10
225.0849170236
 20
305.2403579023
 30
0.0
 11
225.0849170236
 21
349.287110310505
 31
0.0
  0
LINE
  5
121
330
11E
100
AcDbEntity
  8
1
  6
Continuous
 62
     2
100
AcDbLine
 10
124.0849170236
 20
342.6647114729
 30
0.0
 11
124.0849170236
 21
349.287110310505
 31
0.0
  0
SOLID
  5
122
330
11E
100
AcDbEntity
  8
1
 62
     2
100
AcDbTrace
 10
221.5849170236
 20
346.8263265689491
 30
0.0
 11
221.5849170236
 21
347.7478940520609
 31
0.0
 12
225.0849170236
 22
347.287110310505
 32
0.0
 13
225.0849170236
 23
347.287110310505
 33
0.0
  0
SOLID
  5
123
330
11E
100
AcDbEntity
  8
1
 62
     2
100
AcDbTrace
 10
127.5849170236
 20
347.7478940520609
 30
0.0
 11
127.5849170236
 21
346.8263265689491
 31
0.0
 12
124.0849170236
 22
347.287110310505
 32
0.0
 13
124.0849170236
 23
347.287110310505
 33
0.0
  0
MTEXT
  5
124
330
11E
100
AcDbEntity
  8
1
 62
     3
100
AcDbMText
 10
173.494799422204
 20
349.287110310505
 30
0.0
 40
3.5
 41
0.0
 71
     7
 72
     1
  1
\C3;\C3;\C3;101\C2;\H2.45;\S^ ;\C3;
  7
CONVERTER_11
 11
0.9999999999970619
 21
2.424068405545306E-6
 31
0.0
 73
     1
 44
0.60024009603842
  0
ENDBLK
  5
126
330
11E
100
AcDbEntity
  8
0
100
AcDbBlockEnd
  0
BLOCK
  5
130
330
129
100
AcDbEntity
  8
0
100
AcDbBlockBegin
  2
*D6
 70
     1
 10
0.0
 20
0.0
 30
0.0
  3
*D6
  1

  0
LINE
  5
12A
330
129
100
AcDbEntity
  8
1
  6
Continuous
 62
     2
100
AcDbLine
 10
225.0849170236
 20
354.393721120882
 30
0.0
 11
95.0849170236
 21
354.393721120882
 31
0.0
  0
LINE
  5
12B
330
129
100
AcDbEntity
  8
1
  6
Continuous
 62
     2
100
AcDbLine
 10
225.0849170236
 20
305.2403579023
 30
0.0
 11
225.0849170236
 21
356.393721120882
 31
0.0
  0
LINE
  5
12C
330
129
100
AcDbEntity
  8
1
  6
Continuous
 62
     2
100
AcDbLine
 10
95.0849170236
 20
342.664748394
 30
0.0
 11
95.0849170236
 21
356.393721120882
 31
0.0
  0
SOLID
  5
12D
330
129
100
AcDbEntity
  8
1
 62
     2
100
AcDbTrace
 10
221.5849170236
 20
353.9329373793261
 30
0.0
 11
221.5849170236
 21
354.8545048624379
 31
0.0
 12
225.0849170236
 22
354.393721120882
 32
0.0
 13
225.0849170236
 23
354.393721120882
 33
0.0
  0
SOLID
  5
12E
330
129
100
AcDbEntity
  8
1
 62
     2
100
AcDbTrace
 10
98.5849170236
 20
354.8545048624379
 30
0.0
 11
98.5849170236
 21
353.9329373793261
 31
0.0
 12
95.0849170236
 22
354.393721120882
 32
0.0
 13
95.0849170236
 23
354.393721120882
 33
0.0
  0
MTEXT
  5
12F
330
129
100
AcDbEntity
  8
1
 62
     3
100
AcDbMText
 10
156.744715006869
 20
356.393721120882
 30
0.0
 40
3.5
 41
0.0
 71
     7
 72
     1
  1
\C3;\C3;\C3;130\C2;\H2.45;\S^ ;\C3;
  7
CONVERTER_11
 11
0.9999999999970619
 21
2.424068405545306E-6
 31
0.0
 73
     1
 44
0.60024009603842
  0
ENDBLK
  5
131
330
129
100
AcDbEntity
  8
0
100
AcDbBlockEnd
  0
BLOCK
  5
13B
330
134
100
AcDbEntity
  8
0
100
AcDbBlockBegin
  2
*D7
 70
     1
 10
0.0
 20
0.0
 30
0.0
  3
*D7
  1

  0
LINE
  5
135
330
134
100
AcDbEntity
  8
1
  6
Continuous
 62
     2
100
AcDbLine
 10
225.0849170236
 20
361.197922960605
 30
0.0
 11
45.0849170236
 21
361.197922960605
 31
0.0
  0
LINE
  5
136
330
134
100
AcDbEntity
  8
1
  6
Continuous
 62
     2
100
AcDbLine
 10
225.0849170236
 20
305.2403579023
 30
0.0
 11
225.0849170236
 21
363.197922960605
 31
0.0
  0
LINE
  5
137
330
134
100
AcDbEntity
  8
1
  6
Continuous
 62
     2
100
AcDbLine
 10
45.0849170236
 20
326.2649399566
 30
0.0
 11
45.0849170236
 21
363.197922960605
 31
0.0
  0
SOLID
  5
138
330
134
100
AcDbEntity
  8
1
 62
     2
100
AcDbTrace
 10
221.5849170236
 20
360.7371392190491
 30
0.0
 11
221.5849170236
 21
361.6587067021609
 31
0.0
 12
225.0849170236
 22
361.197922960605
 32
0.0
 13
225.0849170236
 23
361.197922960605
 33
0.0
  0
SOLID
  5
139
330
134
100
AcDbEntity
  8
1
 62
     2
100
AcDbTrace
 10
48.5849170236
 20
361.6587067021609
 30
0.0
 11
48.5849170236
 21
360.7371392190491
 31
0.0
 12
45.0849170236
 22
361.197922960605
 32
0.0
 13
45.0849170236
 23
361.197922960605
 33
0.0
  0
MTEXT
  5
13A
330
134
100
AcDbEntity
  8
1
 62
     3
100
AcDbMText
 10
137.39054088499
 20
363.197922960605
 30
0.0
 40
3.5
 41
0.0
 71
     7
 72
     1
  1
\C3;\C3;\C3;180\C2;\H2.45;\S^ ;\C3;
  7
CONVERTER_11
 11
0.9999999999970619
 21
2.424068405545306E-6
 31
0.0
 73
     1
 44
0.60024009603842
  0
ENDBLK
  5
13C
330
134
100
AcDbEntity
  8
0
100
AcDbBlockEnd
  0
BLOCK
  5
143
330
13F
100
AcDbEntity
  8
0
100
AcDbBlockBegin
  2
*D8
 70
     1
 10
0.0
 20
0.0
 30
0.0
  3
*D8
  1

  0
LINE
  5
140
330
13F
100
AcDbEntity
  8
1
  6
Continuous
 62
     2
100
AcDbLine
 10
140.6551015292528
 20
322.726517492573
 30
0.0
 11
132.6759046302018
 21
311.2381103871745
 31
0.0
  0
SOLID
  5
141
330
13F
100
AcDbEntity
  8
1
 62
     2
100
AcDbTrace
 10
134.294025412948
 20
314.3756264092733
 30
0.0
 11
135.050938185145
 21
313.8499176674645
 31
0.0
 12
132.6759046302018
 22
311.2381103871745
 32
0.0
 13
132.6759046302018
 23
311.2381103871745
 33
0.0
  0
MTEXT
  5
142
330
13F
100
AcDbEntity
  8
1
 62
     3
100
AcDbMText
 10
133.3421585690513
 20
315.7033796425206
 30
0.0
 40
3.5
 41
0.0
 71
     7
 72
     1
  1
\C3; R\C3;\C3;20\C2;\H2.45;\S^ ;\C3;
  7
CONVERTER_11
 11
0.5704506196699111
 21
0.8213319003412777
 31
0.0
 73
     1
 44
0.60024009603842
  0
ENDBLK
  5
144
330
13F
100
AcDbEntity
  8
0
100
AcDbBlockEnd
  0
BLOCK
  5
14D
330
146
100
AcDbEntity
  8
0
100
AcDbBlockBegin
  2
*D9
 70
     1
 10
0.0
 20
0.0
 30
0.0
  3
*D9
  1

  0
LINE
  5
147
330
146
100
AcDbEntity
  8
1
  6
Continuous
 62
     2
100
AcDbLine
 10
207.1430240625881
 20
307.664748394
 30
0.0
 11
209.1430240625881
 21
307.664748394
 31
0.0
  0
LINE
  5
148
330
146
100
AcDbEntity
  8
1
  6
Continuous
 62
     2
100
AcDbLine
 10
182.6132004469
 20
307.664748394
 30
0.0
 11
207.1430240625881
 21
307.664748394
 31
0.0
  0
ARC
  5
149
330
146
100
AcDbEntity
  8
1
  6
Continuous
 62
     2
100
AcDbCircle
 10
180.6132004469
 20
307.664748394
 30
0.0
 40
26.52982361568804
100
AcDbArc
 50
344.1617096743616
 51
20.59192574939636
  0
SOLID
  5
14A
330
146
100
AcDbEntity
  8
1
 62
     2
100
AcDbTrace
 10
207.0132194276499
 20
302.0533677031688
 30
0.0
 11
206.1012569346729
 21
302.1860742867738
 31
0.0
 12
207.0612414702633
 22
305.5832424233119
 32
0.0
 13
207.0612414702633
 23
305.5832424233119
 33
0.0
  0
SOLID
  5
14B
330
146
100
AcDbEntity
  8
1
 62
     2
100
AcDbTrace
 10
206.4525375789682
 20
311.1267637134953
 30
0.0
 11
207.3721008344782
 21
311.1875094544557
 31
0.0
 12
207.1430240625881
 22
307.664748394
 32
0.0
 13
207.1430240625881
 23
307.664748394
 33
0.0
  0
MTEXT
  5
14C
330
146
100
AcDbEntity
  8
1
 62
     3
100
AcDbMText
 10
207.5244578855707
 20
317.7756970938927
 30
0.0
 40
3.5
 41
0.0
 71
     7
 72
     1
  1
\C3;\C3;\C3;4.5%%d\C2;\H2.45;\S^ ;\C3;
  7
CONVERTER_11
 11
0.2339318477612511
 21
-0.9722529972198629
 31
0.0
 73
     1
 44
0.60024009603842
  0
ENDBLK
  5
14E
330
146
100
AcDbEntity
  8
0
100
AcDbBlockEnd
  0
ENDSEC
  0
SECTION
  2
ENTITIES
  0
INSERT
  5
6C
330
1F
100
AcDbEntity
  8
0
100
AcDbBlockReference
  2
Urheberrecht_DE-EN
 10
35.5458325532554
 20
304.496240962913
 30
0.0
  0
LINE
  5
70
330
1F
100
AcDbEntity
  8
BEZUGSACHSEN
  6
Continuous
 62
     7
100
AcDbLine
 10
45.0849170236
 20
257.0645568311
 30
0.0
 11
45.0849170236
 21
278.654748394
 31
0.0
  0
LINE
  5
71
330
1F
100
AcDbEntity
  8
BEZUGSACHSEN
  6
Continuous
 62
     7
100
AcDbLine
 10
45.0849170236
 20
302.674748394
 30
0.0
 11
45.0849170236
 21
324.2649399566
 31
0.0
  0
LINE
  5
72
330
1F
100
AcDbEntity
  8
BEZUGSACHSEN
  6
Continuous
 62
     9
100
AcDbLine
 10
46.9848425388
 20
326.2624346623
 30
0.0
 11
46.9848425388
 21
306.3412807803
 31
0.0
  0
LINE
  5
73
330
1F
100
AcDbEntity
  8
BEZUGSACHSEN
  6
Continuous
 62
     9
100
AcDbLine
 10
46.9848425388
 20
274.9882160077
 30
0.0
 11
46.9848425388
 21
255.0670621257
 31
0.0
  0
LINE
  5
74
330
1F
100
AcDbEntity
  8
BEZUGSACHSEN
  6
Continuous
 62
     7
100
AcDbLine
 10
47.0849170236
 20
278.2611084456
 30
0.0
 11
47.0849170236
 21
280.654748394
 31
0.0
  0
LINE
  5
75
330
1F
100
AcDbEntity
  8
BEZUGSACHSEN
  6
Continuous
 62
     7
100
AcDbLine
 10
47.0849170236
 20
300.674748394
 30
0.0
 11
47.0849170236
 21
303.0683883424
 31
0.0
  0
LINE
  5
76
330
1F
100
AcDbEntity
  8
BEZUGSACHSEN
  6
Continuous
 62
     9
100
AcDbLine
 10
53.0849170236
 20
274.3061008066
 30
0.0
 11
53.0849170236
 21
280.654748394
 31
0.0
  0
LINE
  5
77
330
1F
100
AcDbEntity
  8
BEZUGSACHSEN
  6
Continuous
 62
     9
100
AcDbLine
 10
53.0849170236
 20
300.674748394
 30
0.0
 11
53.0849170236
 21
307.0233959814
 31
0.0
  0
LINE
  5
78
330
1F
100
AcDbEntity
  8
BEZUGSACHSEN
  6
Continuous
 62
     7
100
AcDbLine
 10
55.0849170236
 20
303.5344039198
 30
0.0
 11
55.0849170236
 21
277.7950928682
 31
0.0
  0
LINE
  5
79
330
1F
100
AcDbEntity
  8
BEZUGSACHSEN
  6
Continuous
 62
     7
100
AcDbLine
 10
46.3518699506
 20
275.654748394
 30
0.0
 11
46.2307596991
 21
275.4224123986
 31
0.0
  0
LINE
  5
7A
330
1F
100
AcDbEntity
  8
BEZUGSACHSEN
  6
Continuous
 62
     7
100
AcDbLine
 10
46.2307596991
 20
305.9070843895
 30
0.0
 11
46.3518699506
 21
305.674748394
 31
0.0
  0
LWPOLYLINE
  5
7B
330
1F
100
AcDbEntity
  8
BEZUGSACHSEN
  6
DOT_CENTER
 62
     7
100
AcDbPolyline
 90
        2
 70
     0
 43
0.25
 10
80.0849170236
 20
290.664748394
 10
80.0849170236
 20
281.664748394
  0
LWPOLYLINE
  5
7C
330
1F
100
AcDbEntity
  8
BEZUGSACHSEN
  6
DOT_CENTER
 62
     7
100
AcDbPolyline
 90
        2
 70
     0
 43
0.25
 10
80.0849170236
 20
290.664748394
 10
80.0849170236
 20
299.664748394
  0
LINE
  5
7D
330
1F
100
AcDbEntity
  8
BEZUGSACHSEN
  6
Continuous
 62
     7
100
AcDbLine
 10
45.0849170236
 20
278.654748394
 30
0.0
 11
47.0849170236
 21
280.654748394
 31
0.0
  0
LINE
  5
7E
330
1F
100
AcDbEntity
  8
BEZUGSACHSEN
  6
Continuous
 62
     7
100
AcDbLine
 10
47.0849170236
 20
300.674748394
 30
0.0
 11
45.0849170236
 21
302.674748394
 31
0.0
  0
LINE
  5
7F
330
1F
100
AcDbEntity
  8
BEZUGSACHSEN
  6
Continuous
 62
     7
100
AcDbLine
 10
111.8373217594
 20
240.664748394
 30
0.0
 11
95.0849170236
 21
240.664748394
 31
0.0
  0
LINE
  5
80
330
1F
100
AcDbEntity
  8
BEZUGSACHSEN
  6
Continuous
 62
     7
100
AcDbLine
 10
118.3325122877
 20
240.664748394
 30
0.0
 11
124.0849170236
 21
240.664748394
 31
0.0
  0
LINE
  5
81
330
1F
100
AcDbEntity
  8
BEZUGSACHSEN
  6
Continuous
 62
     7
100
AcDbLine
 10
92.5849170236
 20
328.546998394
 30
0.0
 11
92.5849170236
 21
252.782498394
 31
0.0
  0
LINE
  5
82
330
1F
100
AcDbEntity
  8
BEZUGSACHSEN
  6
Continuous
 62
     9
100
AcDbLine
 10
93.2041606376
 20
252.9484242203
 30
0.0
 11
93.2041606376
 21
328.3810725677
 31
0.0
  0
LINE
  5
83
330
1F
100
AcDbEntity
  8
BEZUGSACHSEN
  6
Continuous
 62
     9
100
AcDbLine
 10
93.4629796827
 20
252.982498394
 30
0.0
 11
93.4629796827
 21
328.346998394
 31
0.0
  0
LINE
  5
84
330
1F
100
AcDbEntity
  8
BEZUGSACHSEN
  6
Continuous
 62
     9
100
AcDbLine
 10
94.3843457349
 20
252.982498394
 30
0.0
 11
94.3843457349
 21
328.346998394
 31
0.0
  0
LINE
  5
85
330
1F
100
AcDbEntity
  8
BEZUGSACHSEN
  6
Continuous
 62
     7
100
AcDbLine
 10
114.2099170236
 20
244.664748394
 30
0.0
 11
115.9599170236
 21
244.664748394
 31
0.0
  0
LINE
  5
86
330
1F
100
AcDbEntity
  8
BEZUGSACHSEN
  6
Continuous
 62
     7
100
AcDbLine
 10
95.0849170236
 20
340.664748394
 30
0.0
 11
95.0849170236
 21
240.664748394
 31
0.0
  0
LINE
  5
87
330
1F
100
AcDbEntity
  8
BEZUGSACHSEN
  6
Continuous
 62
     7
100
AcDbLine
 10
116.9599170236
 20
338.2873436582
 30
0.0
 11
118.3325122877
 21
340.664748394
 31
0.0
  0
LINE
  5
88
330
1F
100
AcDbEntity
  8
FASEN
  6
Continuous
 62
     7
100
AcDbLine
 10
100.486402988
 20
251.8349917633
 30
0.0
 11
111.8373217594
 21
251.8349917633
 31
0.0
  0
LINE
  5
89
330
1F
100
AcDbEntity
  8
0
  6
Continuous
 62
     7
100
AcDbLine
 10
118.3325122877
 20
251.8349917633
 30
0.0
 11
124.0849170236
 21
251.8349917633
 31
0.0
  0
LINE
  5
8A
330
1F
100
AcDbEntity
  8
BEZUGSACHSEN
  6
Continuous
 62
     7
100
AcDbLine
 10
94.3843457349
 20
252.982498394
 30
0.0
 11
93.4629796827
 21
252.982498394
 31
0.0
  0
LINE
  5
8B
330
1F
100
AcDbEntity
  8
0
  6
Continuous
 62
     7
100
AcDbLine
 10
114.2099170236
 20
257.1423678103
 30
0.0
 11
115.9599170236
 21
257.1423678103
 31
0.0
  0
LINE
  5
8C
330
1F
100
AcDbEntity
  8
BEZUGSACHSEN
  6
Continuous
 62
     7
100
AcDbLine
 10
92.5849170236
 20
252.782498394
 30
0.0
 11
46.9848425388
 21
255.0670621257
 31
0.0
  0
LINE
  5
8D
330
1F
100
AcDbEntity
  8
BEZUGSACHSEN
  6
Continuous
 62
     7
100
AcDbLine
 10
116.9599170236
 20
243.0421531298
 30
0.0
 11
118.3325122877
 21
240.664748394
 31
0.0
  0
LWPOLYLINE
  5
8E
330
1F
100
AcDbEntity
  8
BEZUGSACHSEN
  6
DOT_CENTER
 62
     7
100
AcDbPolyline
 90
        2
 70
     0
 43
0.25
 10
102.0849170236
 20
332.8141202493
 10
102.0849170236
 20
343.664748394
  0
LINE
  5
8F
330
1F
100
AcDbEntity
  8
FASEN
  6
Continuous
 62
     9
100
AcDbLine
 10
108.0567909454
 20
258.764748394
 30
0.0
 11
108.0567909454
 21
259.164748394
 31
0.0
  0
LINE
  5
90
330
1F
100
AcDbEntity
  8
BEZUGSACHSEN
  6
Continuous
 62
     9
100
AcDbLine
 10
45.0849170236
 20
277.218564425
 30
0.0
 11
47.0849170236
 21
278.2611084456
 31
0.0
  0
LINE
  5
91
330
1F
100
AcDbEntity
  8
FASEN
  6
Continuous
 62
     7
100
AcDbLine
 10
108.0567909454
 20
258.764748394
 30
0.0
 11
124.0849170236
 21
258.764748394
 31
0.0
  0
LINE
  5
92
330
1F
100
AcDbEntity
  8
0
  6
Continuous
 62
     7
100
AcDbLine
 10
108.0567909454
 20
259.164748394
 30
0.0
 11
124.0849170236
 21
259.164748394
 31
0.0
  0
LINE
  5
93
330
1F
100
AcDbEntity
  8
BEZUGSACHSEN
  6
Continuous
 62
     9
100
AcDbLine
 10
47.0849170236
 20
303.0683883424
 30
0.0
 11
45.0849170236
 21
304.110932363
 31
0.0
  0
LINE
  5
94
330
1F
100
AcDbEntity
  8
FASEN
  6
Continuous
 62
     9
100
AcDbLine
 10
110.0849170236
 20
281.064748394
 30
0.0
 11
110.0849170236
 21
280.664748394
 31
0.0
  0
LINE
  5
95
330
1F
100
AcDbEntity
  8
FASEN
  6
Continuous
 62
     9
100
AcDbLine
 10
110.0849170236
 20
300.264748394
 30
0.0
 11
110.0849170236
 21
300.664748394
 31
0.0
  0
LINE
  5
96
330
1F
100
AcDbEntity
  8
0
  6
Continuous
 62
     7
100
AcDbLine
 10
111.8373217594
 20
340.664748394
 30
0.0
 11
111.8373217594
 21
300.664748394
 31
0.0
  0
LINE
  5
97
330
1F
100
AcDbEntity
  8
0
  6
Continuous
 62
     7
100
AcDbLine
 10
111.8373217594
 20
280.664748394
 30
0.0
 11
111.8373217594
 21
259.164748394
 31
0.0
  0
LINE
  5
98
330
1F
100
AcDbEntity
  8
0
  6
Continuous
 62
     7
100
AcDbLine
 10
111.8373217594
 20
251.8349917633
 30
0.0
 11
111.8373217594
 21
240.664748394
 31
0.0
  0
LINE
  5
99
330
1F
100
AcDbEntity
  8
0
  6
Continuous
 62
     7
100
AcDbLine
 10
113.2099170236
 20
338.2873102317
 30
0.0
 11
113.2099170236
 21
300.664748394
 31
0.0
  0
LINE
  5
9A
330
1F
100
AcDbEntity
  8
0
  6
Continuous
 62
     7
100
AcDbLine
 10
113.2099170236
 20
280.664748394
 30
0.0
 11
113.2099170236
 21
259.164748394
 31
0.0
  0
LINE
  5
9B
330
1F
100
AcDbEntity
  8
0
  6
Continuous
 62
     7
100
AcDbLine
 10
113.2099170236
 20
243.0421906638
 30
0.0
 11
113.2099170236
 21
255.7828046408
 31
0.0
  0
LINE
  5
9C
330
1F
100
AcDbEntity
  8
0
  6
Continuous
 62
     9
100
AcDbLine
 10
114.2099170236
 20
244.664748394
 30
0.0
 11
114.2099170236
 21
257.1423678103
 31
0.0
  0
LINE
  5
9D
330
1F
100
AcDbEntity
  8
0
  6
Continuous
 62
     9
100
AcDbLine
 10
114.2099170236
 20
259.164748394
 30
0.0
 11
114.2099170236
 21
280.664748394
 31
0.0
  0
LINE
  5
9E
330
1F
100
AcDbEntity
  8
0
  6
Continuous
 62
     9
100
AcDbLine
 10
114.2099170236
 20
300.664748394
 30
0.0
 11
114.2099170236
 21
336.664748394
 31
0.0
  0
LINE
  5
9F
330
1F
100
AcDbEntity
  8
BEZUGSACHSEN
  6
Continuous
 62
     7
100
AcDbLine
 10
93.2041606376
 20
252.9484242203
 30
0.0
 11
92.5849170236
 21
252.782498394
 31
0.0
  0
LINE
  5
A0
330
1F
100
AcDbEntity
  8
RUNDUNGEN
  6
Continuous
 62
     7
100
AcDbLine
 10
224.1633761193
 20
277.0922215519
 30
0.0
 11
180.6132004469
 21
273.664748394
 31
0.0
  0
LINE
  5
A1
330
1F
100
AcDbEntity
  8
0
  6
Continuous
 62
     7
100
AcDbLine
 10
180.6132004469
 20
273.664748394
 30
0.0
 11
224.1633761193
 21
277.0922215519
 31
0.0
  0
LINE
  5
A2
330
1F
100
AcDbEntity
  8
0
  6
Continuous
 62
     9
100
AcDbLine
 10
115.9599170236
 20
244.664748394
 30
0.0
 11
115.9599170236
 21
257.1423678103
 31
0.0
  0
LINE
  5
A3
330
1F
100
AcDbEntity
  8
0
  6
Continuous
 62
     9
100
AcDbLine
 10
115.9599170236
 20
259.164748394
 30
0.0
 11
115.9599170236
 21
280.664748394
 31
0.0
  0
LINE
  5
A4
330
1F
100
AcDbEntity
  8
0
  6
Continuous
 62
     9
100
AcDbLine
 10
115.9599170236
 20
300.664748394
 30
0.0
 11
115.9599170236
 21
336.664748394
 31
0.0
  0
LINE
  5
A5
330
1F
100
AcDbEntity
  8
0
  6
Continuous
 62
     7
100
AcDbLine
 10
116.9599170236
 20
243.0421906638
 30
0.0
 11
116.9599170236
 21
255.7828046408
 31
0.0
  0
LINE
  5
A6
330
1F
100
AcDbEntity
  8
0
  6
Continuous
 62
     7
100
AcDbLine
 10
116.9599170236
 20
259.164748394
 30
0.0
 11
116.9599170236
 21
280.664748394
 31
0.0
  0
LINE
  5
A7
330
1F
100
AcDbEntity
  8
0
  6
Continuous
 62
     7
100
AcDbLine
 10
116.9599170236
 20
300.664748394
 30
0.0
 11
116.9599170236
 21
338.2873102317
 31
0.0
  0
LINE
  5
A8
330
1F
100
AcDbEntity
  8
0
  6
Continuous
 62
     7
100
AcDbLine
 10
118.3325122877
 20
340.664748394
 30
0.0
 11
118.3325122877
 21
300.664748394
 31
0.0
  0
LINE
  5
A9
330
1F
100
AcDbEntity
  8
0
  6
Continuous
 62
     7
100
AcDbLine
 10
118.3325122877
 20
280.664748394
 30
0.0
 11
118.3325122877
 21
259.164748394
 31
0.0
  0
LINE
  5
AA
330
1F
100
AcDbEntity
  8
0
  6
Continuous
 62
     7
100
AcDbLine
 10
118.3325122877
 20
251.8349917633
 30
0.0
 11
118.3325122877
 21
240.664748394
 31
0.0
  0
LINE
  5
AB
330
1F
100
AcDbEntity
  8
RUNDUNGEN
  6
Continuous
 62
     7
100
AcDbLine
 10
180.6132004469
 20
273.664748394
 30
0.0
 11
144.0849170236
 21
273.664748394
 31
0.0
  0
LINE
  5
AC
330
1F
100
AcDbEntity
  8
0
  6
Continuous
 62
     7
100
AcDbLine
 10
144.0849170236
 20
273.664748394
 30
0.0
 11
180.6132004469
 21
273.664748394
 31
0.0
  0
LINE
  5
AD
330
1F
100
AcDbEntity
  8
BEZUGSACHSEN
  6
Continuous
 62
     9
100
AcDbLine
 10
54.6387629705
 20
275.654748394
 30
0.0
 11
46.3518699506
 21
275.654748394
 31
0.0
  0
LINE
  5
AE
330
1F
100
AcDbEntity
  8
0
  6
Continuous
 62
     7
100
AcDbLine
 10
124.0849170236
 20
340.6647114729
 30
0.0
 11
124.0849170236
 21
300.664748394
 31
0.0
  0
LINE
  5
AF
330
1F
100
AcDbEntity
  8
0
  6
Continuous
 62
     7
100
AcDbLine
 10
124.0849170236
 20
280.664748394
 30
0.0
 11
124.0849170236
 21
259.164748394
 31
0.0
  0
LINE
  5
B0
330
1F
100
AcDbEntity
  8
0
  6
Continuous
 62
     7
100
AcDbLine
 10
124.0849170236
 20
251.8349917633
 30
0.0
 11
124.0849170236
 21
240.6647502618
 31
0.0
  0
LINE
  5
B1
330
1F
100
AcDbEntity
  8
FASEN
  6
Continuous
 62
     7
100
AcDbLine
 10
124.0849170236
 20
251.8349917633
 30
0.0
 11
124.0849170236
 21
259.164748394
 31
0.0
  0
LINE
  5
B2
330
1F
100
AcDbEntity
  8
FASEN
  6
Continuous
 62
     7
100
AcDbLine
 10
124.0849170236
 20
280.664748394
 30
0.0
 11
124.0849170236
 21
300.664748394
 31
0.0
  0
LINE
  5
B3
330
1F
100
AcDbEntity
  8
BEZUGSACHSEN
  6
Continuous
 62
     7
100
AcDbLine
 10
53.0849170236
 20
280.654748394
 30
0.0
 11
47.0849170236
 21
280.654748394
 31
0.0
  0
LINE
  5
B4
330
1F
100
AcDbEntity
  8
0
  6
Continuous
 62
     7
100
AcDbLine
 10
110.0849170236
 20
280.664748394
 30
0.0
 11
124.0849170236
 21
280.664748394
 31
0.0
  0
LINE
  5
B5
330
1F
100
AcDbEntity
  8
FASEN
  6
Continuous
 62
     7
100
AcDbLine
 10
124.0849170236
 20
281.064748394
 30
0.0
 11
110.0849170236
 21
281.064748394
 31
0.0
  0
LWPOLYLINE
  5
B6
330
1F
100
AcDbEntity
  8
DEFAULT_2
  6
DASHED
 62
     8
100
AcDbPolyline
 90
        2
 70
     0
 43
0.35
 10
225.0849170236
 20
283.664748394
 10
178.0849170236
 20
283.664748394
  0
LWPOLYLINE
  5
B7
330
1F
100
AcDbEntity
  8
BEZUGSACHSEN
  6
DOT_CENTER
 62
     7
100
AcDbPolyline
 90
        2
 70
     0
 43
0.25
 10
228.0849170236
 20
290.664748394
 10
42.0849170236
 20
290.664748394
  0
LINE
  5
B8
330
1F
100
AcDbEntity
  8
BEZUGSACHSEN
  6
Continuous
 62
     7
100
AcDbLine
 10
111.8373217594
 20
240.664748394
 30
0.0
 11
113.2099170236
 21
243.0421531298
 31
0.0
  0
LWPOLYLINE
  5
B9
330
1F
100
AcDbEntity
  8
DEFAULT_2
  6
DASHED
 62
     8
100
AcDbPolyline
 90
        2
 70
     0
 43
0.35
 10
225.0849170236
 20
297.664748394
 10
178.0849170236
 20
297.664748394
  0
LINE
  5
BA
330
1F
100
AcDbEntity
  8
BEZUGSACHSEN
  6
Continuous
 62
     7
100
AcDbLine
 10
111.8373217594
 20
340.664748394
 30
0.0
 11
113.2099170236
 21
338.2873436582
 31
0.0
  0
LINE
  5
BB
330
1F
100
AcDbEntity
  8
RUNDUNGEN
  6
Continuous
 62
     9
100
AcDbLine
 10
144.0849170236
 20
307.664748394
 30
0.0
 11
144.0849170236
 21
273.664748394
 31
0.0
  0
LINE
  5
BC
330
1F
100
AcDbEntity
  8
FASEN
  6
Continuous
 62
     7
100
AcDbLine
 10
110.0849170236
 20
300.264748394
 30
0.0
 11
124.0849170236
 21
300.264748394
 31
0.0
  0
LINE
  5
BD
330
1F
100
AcDbEntity
  8
0
  6
Continuous
 62
     7
100
AcDbLine
 10
110.0849170236
 20
300.664748394
 30
0.0
 11
124.0849170236
 21
300.664748394
 31
0.0
  0
LINE
  5
BE
330
1F
100
AcDbEntity
  8
BEZUGSACHSEN
  6
Continuous
 62
     7
100
AcDbLine
 10
53.0849170236
 20
300.674748394
 30
0.0
 11
47.0849170236
 21
300.674748394
 31
0.0
  0
LINE
  5
BF
330
1F
100
AcDbEntity
  8
BEZUGSACHSEN
  6
Continuous
 62
     9
100
AcDbLine
 10
46.3518699506
 20
305.674748394
 30
0.0
 11
54.6387629705
 21
305.674748394
 31
0.0
  0
LINE
  5
C0
330
1F
100
AcDbEntity
  8
RUNDUNGEN
  6
Continuous
 62
     7
100
AcDbLine
 10
180.6132004469
 20
307.664748394
 30
0.0
 11
144.0849170236
 21
307.664748394
 31
0.0
  0
LINE
  5
C1
330
1F
100
AcDbEntity
  8
0
  6
Continuous
 62
     7
100
AcDbLine
 10
144.0849170236
 20
307.664748394
 30
0.0
 11
180.6132004469
 21
307.664748394
 31
0.0
  0
LINE
  5
C2
330
1F
100
AcDbEntity
  8
RUNDUNGEN
  6
Continuous
 62
     7
100
AcDbLine
 10
224.1633761193
 20
304.2372752361
 30
0.0
 11
180.6132004469
 21
307.664748394
 31
0.0
  0
LINE
  5
C3
330
1F
100
AcDbEntity
  8
0
  6
Continuous
 62
     7
100
AcDbLine
 10
180.6132004469
 20
307.664748394
 30
0.0
 11
224.1633761193
 21
304.2372752361
 31
0.0
  0
LINE
  5
C4
330
1F
100
AcDbEntity
  8
BEZUGSACHSEN
  6
Continuous
 62
     7
100
AcDbLine
 10
93.2041606376
 20
328.3810725677
 30
0.0
 11
92.5849170236
 21
328.546998394
 31
0.0
  0
LINE
  5
C5
330
1F
100
AcDbEntity
  8
BEZUGSACHSEN
  6
Continuous
 62
     7
100
AcDbLine
 10
92.5849170236
 20
328.546998394
 30
0.0
 11
46.9848425388
 21
326.2624346623
 31
0.0
  0
LINE
  5
C6
330
1F
100
AcDbEntity
  8
BEZUGSACHSEN
  6
Continuous
 62
     7
100
AcDbLine
 10
94.3843457349
 20
328.346998394
 30
0.0
 11
93.4629796827
 21
328.346998394
 31
0.0
  0
LWPOLYLINE
  5
C7
330
1F
100
AcDbEntity
  8
DEFAULT_2
  6
DASHED
 62
     8
100
AcDbPolyline
 90
        2
 70
     0
 43
0.35
 10
178.0849170236
 20
297.664748394
 10
178.0849170236
 20
283.664748394
  0
LINE
  5
C8
330
1F
100
AcDbEntity
  8
0
  6
Continuous
 62
     7
100
AcDbLine
 10
180.6132004469
 20
307.664748394
 30
0.0
 11
180.6132004469
 21
273.664748394
 31
0.0
  0
LINE
  5
C9
330
1F
100
AcDbEntity
  8
BEZUGSACHSEN
  6
Continuous
 62
     7
100
AcDbLine
 10
114.2099170236
 20
336.664748394
 30
0.0
 11
115.9599170236
 21
336.664748394
 31
0.0
  0
LINE
  5
CA
330
1F
100
AcDbEntity
  8
BEZUGSACHSEN
  6
Continuous
 62
     7
100
AcDbLine
 10
111.8373217594
 20
340.664748394
 30
0.0
 11
107.0849170236
 21
340.664748394
 31
0.0
  0
LINE
  5
CB
330
1F
100
AcDbEntity
  8
BEZUGSACHSEN
  6
Continuous
 62
     7
100
AcDbLine
 10
97.0849170236
 20
340.664748394
 30
0.0
 11
95.0849170236
 21
340.664748394
 31
0.0
  0
LINE
  5
CC
330
1F
100
AcDbEntity
  8
BEZUGSACHSEN
  6
Continuous
 62
     7
100
AcDbLine
 10
118.3325122877
 20
340.664748394
 30
0.0
 11
124.0849170236
 21
340.664748394
 31
0.0
  0
LINE
  5
CD
330
1F
100
AcDbEntity
  8
RUNDUNGEN
  6
Continuous
 62
     9
100
AcDbLine
 10
224.1633761193
 20
277.0922215519
 30
0.0
 11
224.1633761193
 21
304.2372752361
 31
0.0
  0
LINE
  5
CE
330
1F
100
AcDbEntity
  8
RUNDUNGEN
  6
Continuous
 62
     7
100
AcDbLine
 10
225.0849170236
 20
303.2403579023
 30
0.0
 11
225.0849170236
 21
278.0891388857
 31
0.0
  0
LWPOLYLINE
  5
CF
330
1F
100
AcDbEntity
  8
1
  6
Continuous
 62
     7
100
AcDbPolyline
 90
        2
 70
     0
 43
0.25
 10
225.0849170236
 20
303.2403579023
 10
225.0849170236
 20
304.1647483940528
  0
LWPOLYLINE
  5
D0
330
1F
100
AcDbEntity
  8
1
  6
Continuous
 62
     7
100
AcDbPolyline
 90
        2
 70
     0
 43
0.25
 10
224.1633761193
 20
304.2372752361
 10
225.0849170236094
 20
304.1647483940528
  0
LWPOLYLINE
  5
D1
330
1F
100
AcDbEntity
  8
1
  6
Continuous
 62
     7
100
AcDbPolyline
 90
        2
 70
     0
 43
0.25
 10
224.1633761193
 20
277.0922215519
 10
225.0849170236
 20
277.1647483939559
  0
LWPOLYLINE
  5
D2
330
1F
100
AcDbEntity
  8
1
  6
Continuous
 62
     7
100
AcDbPolyline
 90
        2
 70
     0
 43
0.25
 10
225.0849170236
 20
278.0891388857
 10
225.0849170236
 20
277.1647483939559
  0
ARC
  5
D3
330
1F
100
AcDbEntity
  8
FASEN
  6
Continuous
 62
     7
100
AcDbCircle
 10
112.9855710464
 20
266.196011664
 30
0.0
 40
19.03859487300018
100
AcDbArc
 50
227.4837701983004
 51
228.965195337529
  0
ARC
  5
D4
330
1F
100
AcDbEntity
  8
FASEN
  6
Continuous
 62
     7
100
AcDbCircle
 10
108.0567909454
 20
251.164748394
 30
0.0
 40
8.000000000000028
100
AcDbArc
 50
90.0
 51
172.8323734889969
  0
ARC
  5
D5
330
1F
100
AcDbEntity
  8
FASEN
  6
Continuous
 62
     7
100
AcDbCircle
 10
108.0567909454
 20
251.164748394
 30
0.0
 40
7.599982194900036
100
AcDbArc
 50
90.0
 51
174.9405171273012
  0
ARC
  5
D6
330
1F
100
AcDbEntity
  8
BEZUGSACHSEN
  6
Continuous
 62
     7
100
AcDbCircle
 10
53.0849170236
 20
282.654748394
 30
0.0
 40
2.0
100
AcDbArc
 50
270.0
 51
355.235536186493
  0
ARC
  5
D7
330
1F
100
AcDbEntity
  8
BEZUGSACHSEN
  6
Continuous
 62
     7
100
AcDbCircle
 10
47.0849170236
 20
257.0645568309
 30
0.0
 40
2.0
100
AcDbArc
 50
179.9999999942711
 51
267.1318795106974
  0
ARC
  5
D8
330
1F
100
AcDbEntity
  8
BEZUGSACHSEN
  6
Continuous
 62
     7
100
AcDbCircle
 10
114.2099170236
 20
243.664748394
 30
0.0
 40
1.0
100
AcDbArc
 50
90.0
 51
180.0
  0
ARC
  5
D9
330
1F
100
AcDbEntity
  8
BEZUGSACHSEN
  6
Continuous
 62
     7
100
AcDbCircle
 10
93.4629796827
 20
251.982498394
 30
0.0
 40
1.0
100
AcDbArc
 50
90.0
 51
104.9999999996981
  0
ARC
  5
DA
330
1F
100
AcDbEntity
  8
BEZUGSACHSEN
  6
Continuous
 62
     7
100
AcDbCircle
 10
94.3843457349
 20
251.982498394
 30
0.0
 40
0.9999999999998127
100
AcDbArc
 50
45.49026120128689
 51
90.0
  0
ARC
  5
DB
330
1F
100
AcDbEntity
  8
0
  6
Continuous
 62
     7
100
AcDbCircle
 10
-129.512862859
 20
360.0992159844
 30
0.0
 40
264.5204223902805
100
AcDbArc
 50
335.8400764706079
 51
336.5770705490999
  0
ARC
  5
DC
330
1F
100
AcDbEntity
  8
BEZUGSACHSEN
  6
Continuous
 62
     7
100
AcDbCircle
 10
102.1001250347
 20
390.7175181609
 30
0.0
 40
50.30340021045197
100
AcDbArc
 50
264.2781515102013
 51
269.9826780126003
  0
ARC
  5
DD
330
1F
100
AcDbEntity
  8
BEZUGSACHSEN
  6
Continuous
 62
     7
100
AcDbCircle
 10
102.0697090225
 20
390.7175179601
 30
0.0
 40
50.30340000959742
100
AcDbArc
 50
270.0173219760583
 51
275.7218485012678
  0
ARC
  5
DE
330
1F
100
AcDbEntity
  8
0
  6
Continuous
 62
     7
100
AcDbCircle
 10
110.0849170236
 20
290.664748394
 30
0.0
 40
10.0
100
AcDbArc
 50
90.0
 51
270.0
  0
ARC
  5
DF
330
1F
100
AcDbEntity
  8
FASEN
  6
Continuous
 62
     7
100
AcDbCircle
 10
110.0849170236
 20
290.664748394
 30
0.0
 40
9.599999195900011
100
AcDbArc
 50
90.0
 51
270.0
  0
ARC
  5
E0
330
1F
100
AcDbEntity
  8
BEZUGSACHSEN
  6
Continuous
 62
     7
100
AcDbCircle
 10
53.0849170236
 20
298.674748394
 30
0.0
 40
1.999999999999992
100
AcDbArc
 50
4.76446378498877
 51
90.0
  0
ARC
  5
E1
330
1F
100
AcDbEntity
  8
BEZUGSACHSEN
  6
Continuous
 62
     7
100
AcDbCircle
 10
47.0849170236
 20
324.2649399571
 30
0.0
 40
1.999999999952488
100
AcDbArc
 50
92.86812048930264
 51
180.0000000143238
  0
ARC
  5
E2
330
1F
100
AcDbEntity
  8
BEZUGSACHSEN
  6
Continuous
 62
     7
100
AcDbCircle
 10
114.2099170236
 20
337.664748394
 30
0.0
 40
1.0
100
AcDbArc
 50
180.0
 51
270.0
  0
ARC
  5
E3
330
1F
100
AcDbEntity
  8
BEZUGSACHSEN
  6
Continuous
 62
     7
100
AcDbCircle
 10
93.4629796827
 20
329.346998394
 30
0.0
 40
1.000000000009914
100
AcDbArc
 50
255.0000000003019
 51
270.0
  0
ARC
  5
E4
330
1F
100
AcDbEntity
  8
BEZUGSACHSEN
  6
Continuous
 62
     7
100
AcDbCircle
 10
94.3843457349
 20
329.346998394
 30
0.0
 40
1.0
100
AcDbArc
 50
270.0
 51
314.5097387987108
  0
ARC
  5
E5
330
1F
100
AcDbEntity
  8
BEZUGSACHSEN
  6
Continuous
 62
     7
100
AcDbCircle
 10
231.4149636218
 20
-1315.378010896
 30
0.0
 40
1632.172763698
100
AcDbArc
 50
96.2726189838
 51
96.48809068979999
  0
ARC
  5
E6
330
1F
100
AcDbEntity
  8
RUNDUNGEN
  6
Continuous
 62
     7
100
AcDbCircle
 10
144.0849170236
 20
253.664748394
 30
0.0
 40
20.00000000000003
100
AcDbArc
 50
90.0
 51
180.0
  0
ARC
  5
E7
330
1F
100
AcDbEntity
  8
RUNDUNGEN
  6
Continuous
 62
     7
100
AcDbCircle
 10
224.0849170236
 20
278.0891388857
 30
0.0
 40
1.000000000064438
100
AcDbArc
 50
274.499999998109
 51
0.0
  0
ARC
  5
E8
330
1F
100
AcDbEntity
  8
BEZUGSACHSEN
  6
Continuous
 62
     7
100
AcDbCircle
 10
115.9599170236
 20
243.664748394
 30
0.0
 40
1.0
100
AcDbArc
 50
0.0
 51
90.0
  0
ARC
  5
E9
330
1F
100
AcDbEntity
  8
BEZUGSACHSEN
  6
Continuous
 62
     7
100
AcDbCircle
 10
231.414963627
 20
1896.7075077309
 30
0.0
 40
1632.1727637452
100
AcDbArc
 50
263.5119093102
 51
263.7273810162
  0
ARC
  5
EA
330
1F
100
AcDbEntity
  8
0
  6
Continuous
 62
     7
100
AcDbCircle
 10
359.6826969061
 20
360.0992159844
 30
0.0
 40
264.5204223902
100
AcDbArc
 50
203.4229294508999
 51
204.1599235293921
  0
ARC
  5
EB
330
1F
100
AcDbEntity
  8
RUNDUNGEN
  6
Continuous
 62
     7
100
AcDbCircle
 10
144.0849170236
 20
327.664748394
 30
0.0
 40
20.00000000000001
100
AcDbArc
 50
180.0
 51
270.0
  0
ARC
  5
EC
330
1F
100
AcDbEntity
  8
BEZUGSACHSEN
  6
Continuous
 62
     7
100
AcDbCircle
 10
115.9599170236
 20
337.664748394
 30
0.0
 40
1.0
100
AcDbArc
 50
270.0
 51
0.0
  0
ARC
  5
ED
330
1F
100
AcDbEntity
  8
RUNDUNGEN
  6
Continuous
 62
     7
100
AcDbCircle
 10
224.0849170236
 20
303.2403579023
 30
0.0
 40
1.0
100
AcDbArc
 50
0.0
 51
85.50000000189128
  0
CIRCLE
  5
EE
330
1F
100
AcDbEntity
  8
BEZUGSACHSEN
  6
Continuous
 62
     7
100
AcDbCircle
 10
80.0849170236
 20
290.664748394
 30
0.0
 40
6.0
  0
SPLINE
  5
EF
330
1F
100
AcDbEntity
  8
BEZUGSACHSEN
  6
Continuous
 62
     7
100
AcDbSpline
210
0.0
220
0.0
230
1.0
 70
     8
 71
     3
 72
    11
 73
     7
 74
     5
 42
0.0000000001
 43
0.0000000001
 44
0.00000001
 40
0.0
 40
0.0
 40
0.0
 40
0.0
 40
0.5521269407038848
 40
1.105196183343578
 40
1.651906304711336
 40
2.198197048713005
 40
2.198197048713005
 40
2.198197048713005
 40
2.198197048713005
 10
55.0849170236
 20
277.7950928682
 30
0.0
 10
55.07833158597205
 20
277.6109576777891
 30
0.0
 10
55.06514947150617
 20
277.2423730378113
 30
0.0
 10
54.96766110769196
 20
276.6989486331221
 30
0.0
 10
54.82802379459714
 20
276.1676745036266
 30
0.0
 10
54.7018337724338
 20
275.8256800235185
 30
0.0
 10
54.6387629705
 20
275.654748394
 30
0.0
 11
55.0849170236
 21
277.7950928682
 31
0.0
 11
55.05217244117003
 21
277.2439377621069
 31
0.0
 11
54.96010578820456
 21
276.6985852902451
 31
0.0
 11
54.81961430333689
 21
276.1702349334877
 31
0.0
 11
54.6387629705
 21
275.654748394
 31
0.0
  0
SPLINE
  5
F0
330
1F
100
AcDbEntity
  8
BEZUGSACHSEN
  6
Continuous
 62
     7
100
AcDbSpline
210
0.0
220
0.0
230
1.0
 70
     8
 71
     3
 72
    19
 73
    15
 74
    13
 42
0.0000000001
 43
0.0000000001
 44
0.00000001
 40
0.0
 40
0.0
 40
0.0
 40
0.0
 40
0.2679411643354413
 40
0.536126793693101
 40
0.8065304773716396
 40
1.076465993222732
 40
1.213913376120674
 40
1.351353104837354
 40
1.491586367024398
 40
1.631807897530175
 40
1.775491562752902
 40
1.919219204734194
 40
2.065713007363157
 40
2.211936409287805
 40
2.211936409287805
 40
2.211936409287805
 40
2.211936409287805
 10
54.6387629705
 20
275.654748394
 30
0.0
 10
54.60486872670091
 20
275.5720768142961
 30
0.0
 10
54.53704931456345
 20
275.4066582267262
 30
0.0
 10
54.4124108082744
 20
275.1679922530581
 30
0.0
 10
54.26750000893793
 20
274.9403042570551
 30
0.0
 10
54.12445637741582
 20
274.7644997657471
 30
0.0
 10
53.9953499905121
 20
274.636550046637
 30
0.0
 10
53.8892348914482
 20
274.5474630258337
 30
0.0
 10
53.77442546380756
 20
274.4681613854939
 30
0.0
 10
53.64996585157768
 20
274.40049091803
 30
0.0
 10
53.51711229643961
 20
274.3476882313337
 30
0.0
 10
53.37646149756156
 20
274.3125219673454
 30
0.0
 10
53.23113611446868
 20
274.2961697654616
 30
0.0
 10
53.13362669542712
 20
274.302792498828
 30
0.0
 10
53.0849170236
 20
274.3061008066
 30
0.0
 11
54.6387629705
 21
275.654748394
 31
0.0
 11
54.53332571078106
 21
275.4084245181609
 31
0.0
 11
54.40945619520443
 21
275.1705592728964
 31
0.0
 11
54.26311070889116
 21
274.9431804023242
 31
0.0
 11
54.09185851776266
 21
274.734523100148
 31
0.0
 11
53.99406607908335
 21
274.637939343736
 31
0.0
 11
53.88864908982865
 21
274.5497523979549
 31
0.0
 11
53.77311044611523
 21
274.4702779389604
 31
0.0
 11
53.64978843622186
 21
274.4035414459955
 31
0.0
 11
53.516157748022
 21
274.3507414950195
 31
0.0
 11
53.37673004681422
 21
274.3158480686269
 31
0.0
 11
53.23103560829605
 21
274.3005652418737
 31
0.0
 11
53.0849170236
 21
274.3061008066
 31
0.0
  0
SPLINE
  5
F1
330
1F
100
AcDbEntity
  8
BEZUGSACHSEN
  6
Continuous
 62
     7
100
AcDbSpline
210
0.0
220
0.0
230
1.0
 70
     8
 71
     3
 72
    47
 73
    43
 74
    41
 42
0.0000000001
 43
0.0000000001
 44
0.00000001
 40
0.0
 40
0.0
 40
0.0
 40
0.0
 40
0.6302393213974415
 40
1.260854867292894
 40
1.577476088395259
 40
1.893930800237567
 40
2.210999113887689
 40
2.528183472224098
 40
3.16488703824791
 40
3.801951183372351
 40
4.442851001575163
 40
5.083381259731594
 40
5.404527292251249
 40
5.725573838700567
 40
6.046670709987035
 40
6.367871027125559
 40
7.009090242521458
 40
7.650619763916739
 40
8.290330346437244
 40
8.929958764419926
 40
9.568647011304673
 40
10.20735923010824
 40
10.84445705812422
 40
11.48152626490509
 40
12.11643462216036
 40
12.75141965572685
 40
13.38691908731403
 40
14.02211738526153
 40
14.34050449138891
 40
14.65879153789173
 40
14.97761586867293
 40
15.29653774945387
 40
15.93537694102323
 40
16.57458694066824
 40
17.2138627498942
 40
17.85277859072363
 40
18.172198600818
 40
18.49150024076109
 40
18.8106715663444
 40
19.130014524193
 40
19.76719627022318
 40
20.40398968281179
 40
20.40398968281179
 40
20.40398968281179
 40
20.40398968281179
 10
86.5843306614
 20
290.6647484127
 30
0.0
 10
86.57846145962841
 20
290.4545923908324
 30
0.0
 10
86.56671955243607
 20
290.0341548934147
 30
0.0
 10
86.48727280992682
 20
289.5129914511564
 30
0.0
 10
86.39654130483369
 20
289.1015999837119
 30
0.0
 10
86.31293592251393
 20
288.7959621434074
 30
0.0
 10
86.2145839811382
 20
288.4945782972115
 30
0.0
 10
86.06356517028352
 20
288.0986051176218
 30
0.0
 10
85.8382825826792
 20
287.6174983089559
 30
0.0
 10
85.51190454792831
 20
287.0678640839799
 30
0.0
 10
85.13203748589838
 20
286.5521362213335
 30
0.0
 10
84.77378304662317
 20
286.1546108191338
 30
0.0
 10
84.46460230895549
 20
285.8590574641974
 30
0.0
 10
84.22167735292469
 20
285.6488725557535
 30
0.0
 10
83.96862844960133
 20
285.4509630914129
 30
0.0
 10
83.61884594114454
 20
285.2043397399169
 30
0.0
 10
83.15936070339355
 20
284.9291331306222
 30
0.0
 10
82.57896499643256
 20
284.6550930239197
 30
0.0
 10
81.97481068859784
 20
284.4399045465984
 30
0.0
 10
81.35339554119062
 20
284.2852427075957
 30
0.0
 10
80.72012632975006
 20
284.1924323345773
 30
0.0
 10
80.0816668653114
 20
284.1619215847567
 30
0.0
 10
79.44383385175718
 20
284.1940233271008
 30
0.0
 10
78.81340386476131
 20
284.28783638944
 30
0.0
 10
78.19583019526351
 20
284.4425502057173
 30
0.0
 10
77.59668678383184
 20
284.6563467777904
 30
0.0
 10
77.02122956236593
 20
284.9276681462468
 30
0.0
 10
76.56554416941051
 20
285.1995130298956
 30
0.0
 10
76.21828827165788
 20
285.4429735824888
 30
0.0
 10
75.96666869035128
 20
285.6384561088194
 30
0.0
 10
75.7247936400801
 20
285.846149167534
 30
0.0
 10
75.41585735640481
 20
286.1389867156914
 30
0.0
 10
75.05701459951378
 20
286.5334443646318
 30
0.0
 10
74.67478769426431
 20
287.0469290305699
 30
0.0
 10
74.34516324900068
 20
287.5956968092731
 30
0.0
 10
74.11667580308044
 20
288.0777602257629
 30
0.0
 10
73.96317430312087
 20
288.4751697849384
 30
0.0
 10
73.86291750020698
 20
288.7784521482302
 30
0.0
 10
73.77760100730923
 20
289.0862760199362
 30
0.0
 10
73.68483855197992
 20
289.5013168870468
 30
0.0
 10
73.60354618505168
 20
290.0275896861345
 30
0.0
 10
73.5915063854923
 20
290.4524053358508
 30
0.0
 10
73.5854883207
 20
290.6647484145
 30
0.0
 11
86.5843306614
 21
290.6647484127
 31
0.0
 11
86.55379108262316
 21
290.0352494560975
 31
0.0
 11
86.46245980710759
 21
289.4112826582327
 31
0.0
 11
86.39396506840217
 21
289.1021589476862
 31
0.0
 11
86.31054624354122
 21
288.7968969547915
 31
0.0
 11
86.21215949969118
 21
288.4954796955718
 31
0.0
 11
86.09912886858706
 21
288.1991184403351
 31
0.0
 11
85.82914873207474
 21
287.6224884403557
 31
0.0
 11
85.50381211022139
 21
287.0747596685314
 31
0.0
 11
85.12377561542944
 21
286.558692967805
 31
0.0
 11
84.69492511776872
 21
286.0829133315551
 31
0.0
 11
84.4627879833987
 21
285.8609963987861
 31
0.0
 11
84.22000549006236
 21
285.6509308235092
 31
0.0
 11
83.96707588176402
 21
285.4531182506125
 31
0.0
 11
83.70456148592969
 21
285.2680349296199
 31
0.0
 11
83.15450330433086
 21
284.9384927031161
 31
0.0
 11
82.57436247267988
 21
284.6646373721967
 31
0.0
 11
81.97175716238833
 21
284.4499364886467
 31
0.0
 11
81.35105789206703
 21
284.2954796049748
 31
0.0
 11
80.71912907814463
 21
284.2028046307728
 31
0.0
 11
80.08114295096347
 21
284.1723579565152
 31
0.0
 11
79.44484796283861
 21
284.2043318607163
 31
0.0
 11
78.81472468873095
 21
284.2981499488244
 31
0.0
 11
78.19884078048949
 21
284.4524082830621
 31
0.0
 11
77.60080831067052
 21
284.6658635661911
 31
0.0
 11
77.0259725621238
 21
284.9368310729892
 31
0.0
 11
76.48050587458243
 21
285.2623198907664
 31
0.0
 11
76.21980358180551
 21
285.4450893189787
 31
0.0
 11
75.96845432999719
 21
285.6403588700789
 31
0.0
 11
75.72657103164761
 21
285.8480640069379
 31
0.0
 11
75.49511520034743
 21
286.0674708532258
 31
0.0
 11
75.06519216946721
 21
286.5399977838908
 31
0.0
 11
74.6835710300094
 21
287.0527889007845
 31
0.0
 11
74.35433955583036
 21
287.6007671819887
 31
0.0
 11
74.08072524868632
 21
288.1781307265504
 31
0.0
 11
73.96563299622792
 21
288.4760953490691
 31
0.0
 11
73.86539330781201
 21
288.7792546176667
 31
0.0
 11
73.78022622761894
 21
289.0868532254756
 31
0.0
 11
73.71026320016415
 21
289.398438044613
 31
0.0
 11
73.61677430320024
 21
290.0287240143272
 31
0.0
 11
73.5854883207
 21
290.6647484145
 31
0.0
  0
SPLINE
  5
F2
330
1F
100
AcDbEntity
  8
BEZUGSACHSEN
  6
Continuous
 62
     7
100
AcDbSpline
210
0.0
220
0.0
230
1.0
 70
     8
 71
     3
 72
    27
 73
    23
 74
    21
 42
0.0000000001
 43
0.0000000001
 44
0.00000001
 40
0.0
 40
0.0
 40
0.0
 40
0.0
 40
0.1219765139941971
 40
0.2439857715228467
 40
0.3566831398776872
 40
0.4694418149831202
 40
0.5721317672713152
 40
0.6745445880591531
 40
0.7225206520582375
 40
0.7704888797015014
 40
0.8171412935328831
 40
0.863789873360062
 40
0.9102318000309454
 40
0.9566751323749518
 40
1.004175175704537
 40
1.05168310007921
 40
1.153672388673975
 40
1.256049376624595
 40
1.370745138055067
 40
1.485385401838827
 40
1.611534903871132
 40
1.737631875915118
 40
1.737631875915118
 40
1.737631875915118
 40
1.737631875915118
 10
46.2307596991
 20
275.4224123986
 30
0.0
 10
46.19550468149951
 20
275.402132873301
 30
0.0
 10
46.12498518239567
 20
275.3615683788407
 30
0.0
 10
46.01733277919227
 20
275.3107725179474
 30
0.0
 10
45.90917476332913
 20
275.2690208820795
 30
0.0
 10
45.80359554238001
 20
275.2396062969539
 30
0.0
 10
45.6987639972609
 20
275.2226917096078
 30
0.0
 10
45.61403632744259
 20
275.2208264863913
 30
0.0
 10
45.54821239105091
 20
275.2277817943741
 30
0.0
 10
45.50150518783641
 20
275.2369789215008
 30
0.0
 10
45.45632457053023
 20
275.2505123664799
 30
0.0
 10
45.41318495987688
 20
275.2683056252998
 30
0.0
 10
45.37223048330456
 20
275.2905339830381
 30
0.0
 10
45.33358305684152
 20
275.3170690147626
 30
0.0
 10
45.29767697820435
 20
275.3477642922813
 30
0.0
 10
45.25223765665623
 20
275.3953017653697
 30
0.0
 10
45.20369451656835
 20
275.4644711324573
 30
0.0
 10
45.15746880759577
 20
275.560629187172
 30
0.0
 10
45.12350293377978
 20
275.6662046201628
 30
0.0
 10
45.10054750957842
 20
275.7826223110718
 30
0.0
 10
45.0871029512747
 20
275.9043696197326
 30
0.0
 10
45.08564556499199
 20
275.9884729832482
 30
0.0
 10
45.0849170236
 20
276.0305159078
 30
0.0
 11
46.2307596991
 21
275.4224123986
 31
0.0
 11
46.12421507503947
 21
275.3630279473524
 31
0.0
 11
46.01392218587078
 21
275.310857673043
 31
0.0
 11
45.90860417802116
 21
275.2707476486514
 31
0.0
 11
45.79988044949775
 21
275.2408533403721
 31
0.0
 11
45.69841629741547
 21
275.2250339806134
 31
0.0
 11
45.59601675686395
 21
275.2233847515333
 31
0.0
 11
45.54831290065648
 21
275.2284881640957
 31
0.0
 11
45.50126213039577
 21
275.2378249666056
 31
0.0
 11
45.45658256296235
 21
275.2512482288863
 31
0.0
 11
45.41347642636642
 21
275.2690794090959
 31
0.0
 11
45.37265383356956
 21
275.2912236740474
 31
0.0
 11
45.3343665770234
 21
275.3175118673171
 31
0.0
 11
45.29822948001285
 21
275.3483398470752
 31
0.0
 11
45.26537697964097
 21
275.3826577155653
 31
0.0
 11
45.20620458538539
 21
275.4657266191703
 31
0.0
 11
45.16130486177207
 21
275.5577323933439
 31
0.0
 11
45.12566670217474
 21
275.6667509205337
 31
0.0
 11
45.1028151387943
 21
275.7790905668367
 31
0.0
 11
45.08904838250289
 21
275.9044866325015
 31
0.0
 11
45.0849170236
 21
276.0305159078
 31
0.0
  0
SPLINE
  5
F3
330
1F
100
AcDbEntity
  8
BEZUGSACHSEN
  6
Continuous
 62
     7
100
AcDbSpline
210
0.0
220
0.0
230
1.0
 70
     8
 71
     3
 72
    15
 73
    11
 74
     9
 42
0.0000000001
 43
0.0000000001
 44
0.00000001
 40
0.0
 40
0.0
 40
0.0
 40
0.0
 40
0.1110371613194067
 40
0.2222522336982729
 40
0.3333980191345287
 40
0.4445069474230417
 40
0.5556201064837865
 40
0.6667525641981413
 40
0.7778876033284381
 40
0.8889820916183541
 40
0.8889820916183541
 40
0.8889820916183541
 40
0.8889820916183541
 10
46.9848425388
 20
274.9882160077
 30
0.0
 10
46.94820081194123
 20
274.9937481605497
 30
0.0
 10
46.8748586484335
 20
275.0048213302291
 30
0.0
 10
46.76834209843297
 20
275.0378398937291
 30
0.0
 10
46.6659291906883
 20
275.0814301811839
 30
0.0
 10
46.5684792250708
 20
275.1352096890062
 30
0.0
 10
46.47617442933062
 20
275.197304824361
 30
0.0
 10
46.38917780119063
 20
275.2665914980052
 30
0.0
 10
46.30692504574338
 20
275.3414734496677
 30
0.0
 10
46.25614505932597
 20
275.3954360311901
 30
0.0
 10
46.2307596991
 20
275.4224123986
 30
0.0
 11
46.9848425388
 21
274.9882160077
 31
0.0
 11
46.87550025375124
 21
275.0075425669951
 31
0.0
 11
46.76900830016314
 21
275.0396090003051
 31
0.0
 11
46.66674011956535
 21
275.0831360592163
 31
0.0
 11
46.56933725312644
 21
275.1365951609195
 31
0.0
 11
46.47706548632419
 21
275.1984987566765
 31
0.0
 11
46.38996838290605
 21
275.2675242427943
 31
0.0
 11
46.30792847843929
 21
275.3424939099776
 31
0.0
 11
46.2307596991
 21
275.4224123986
 31
0.0
  0
SPLINE
  5
F4
330
1F
100
AcDbEntity
  8
BEZUGSACHSEN
  6
Continuous
 62
     7
100
AcDbSpline
210
0.0
220
0.0
230
1.0
 70
     8
 71
     3
 72
    27
 73
    23
 74
    21
 42
0.0000000001
 43
0.0000000001
 44
0.00000001
 40
0.0
 40
0.0
 40
0.0
 40
0.0
 40
0.1260969825524776
 40
0.2522464959194707
 40
0.3668867952504051
 40
0.4815825893953241
 40
0.5839596006874471
 40
0.6859489161357496
 40
0.733456841041199
 40
0.7809568848702432
 40
0.8274002264131297
 40
0.87384216068837
 40
0.9204907318698635
 40
0.9671431399041367
 40
1.015111401801036
 40
1.063087497121787
 40
1.165500418722723
 40
1.268190478923012
 40
1.380949153847868
 40
1.493646517726392
 40
1.615655563693858
 40
1.737631867514163
 40
1.737631867514163
 40
1.737631867514163
 40
1.737631867514163
 10
45.0849170236
 20
305.2989808802
 30
0.0
 10
45.08564556507628
 20
305.341023808261
 30
0.0
 10
45.08710295153234
 20
305.4251271790705
 30
0.0
 10
45.10054751348081
 20
305.546874506633
 30
0.0
 10
45.12350294676632
 20
305.6632922230114
 30
0.0
 10
45.15746884710195
 20
305.7688676808045
 30
0.0
 10
45.20369460594941
 20
305.8650257430671
 30
0.0
 10
45.25223777450047
 20
305.9341951087375
 30
0.0
 10
45.29767710006888
 20
305.9817325903307
 30
0.0
 10
45.33358317816371
 20
306.0124278737884
 30
0.0
 10
45.37223060925445
 20
306.0389629094899
 30
0.0
 10
45.41318509645802
 20
306.0611912553837
 30
0.0
 10
45.45632472263336
 20
306.0789844722614
 30
0.0
 10
45.50150535724679
 20
306.0925178793223
 30
0.0
 10
45.54821258023641
 20
306.101715004656
 30
0.0
 10
45.61403657143988
 20
306.1086703250368
 30
0.0
 10
45.69876432343688
 20
306.106805068403
 30
0.0
 10
45.80359592692609
 20
306.0898904074617
 30
0.0
 10
45.90917516927207
 20
306.0604757746025
 30
0.0
 10
46.01733310736505
 20
306.0187241371375
 30
0.0
 10
46.12498536860018
 20
305.9679283099654
 30
0.0
 10
46.19550474343391
 20
305.9273638817778
 30
0.0
 10
46.2307596991
 20
305.9070843895
 30
0.0
 11
45.0849170236
 21
305.2989808802
 31
0.0
 11
45.08904838316464
 21
305.425010165991
 31
0.0
 11
45.10281514228566
 21
305.550406242748
 31
0.0
 11
45.1256667183678
 21
305.6627459227424
 31
0.0
 11
45.16130490773867
 21
305.7717644746173
 31
0.0
 11
45.2062046725388
 21
305.863770254664
 31
0.0
 11
45.26537710149294
 21
305.946839166522
 31
0.0
 11
45.29822960165447
 21
305.9811570359483
 31
0.0
 11
45.33436669658128
 21
306.0119850189185
 31
0.0
 11
45.37265396144272
 21
306.0382732163291
 31
0.0
 11
45.41347656937999
 21
306.0604174693178
 31
0.0
 11
45.45658271299803
 21
306.0782486099334
 31
0.0
 11
45.50126228504237
 21
306.0916718367188
 31
0.0
 11
45.54831309079752
 21
306.1010086363418
 31
0.0
 11
45.59601697807159
 21
306.106112052959
 31
0.0
 11
45.69841661892932
 21
306.104462791595
 31
0.0
 11
45.79988086923003
 21
306.0886433613001
 31
0.0
 11
45.90860458566722
 21
306.0587490097451
 31
0.0
 11
46.01392257796172
 21
306.0186389570871
 31
0.0
 11
46.12421526386713
 21
305.9664687478326
 31
0.0
 11
46.2307596991
 21
305.9070843895
 31
0.0
  0
SPLINE
  5
F5
330
1F
100
AcDbEntity
  8
BEZUGSACHSEN
  6
Continuous
 62
     7
100
AcDbSpline
210
0.0
220
0.0
230
1.0
 70
     8
 71
     3
 72
    15
 73
    11
 74
     9
 42
0.0000000001
 43
0.0000000001
 44
0.00000001
 40
0.0
 40
0.0
 40
0.0
 40
0.0
 40
0.1110944831337592
 40
0.2222295181491661
 40
0.3333620401930364
 40
0.4444752610113243
 40
0.555584217799117
 40
0.6667300353915926
 40
0.7779450181843032
 40
0.8889820871358677
 40
0.8889820871358677
 40
0.8889820871358677
 40
0.8889820871358677
 10
46.2307596991
 20
305.9070843895
 30
0.0
 10
46.25614505867699
 20
305.9340607551746
 30
0.0
 10
46.30692504403454
 20
305.9880233334788
 30
0.0
 10
46.38917781329718
 20
306.0629052968699
 30
0.0
 10
46.47617446525291
 20
306.1321920057686
 30
0.0
 10
46.5684793056772
 20
306.1942871688423
 30
0.0
 10
46.66592932765223
 20
306.2480666609736
 30
0.0
 10
46.76834224151996
 20
306.2916569065841
 30
0.0
 10
46.87485874009295
 20
306.3246754624295
 30
0.0
 10
46.94820084280016
 20
306.335748629051
 30
0.0
 10
46.9848425388
 20
306.3412807803
 30
0.0
 11
46.2307596991
 21
305.9070843895
 31
0.0
 11
46.3079284762144
 21
305.9870028731032
 31
0.0
 11
46.38996837647827
 21
306.0619725387858
 31
0.0
 11
46.47706552508935
 21
306.1309980714506
 31
0.0
 11
46.56933734666192
 21
306.1929016964195
 31
0.0
 11
46.66674025472717
 21
306.2463607815118
 31
0.0
 11
46.76900847811601
 21
306.2898878219946
 31
0.0
 11
46.87550034624046
 21
306.3219542284185
 31
0.0
 11
46.9848425388
 21
306.3412807803
 31
0.0
  0
SPLINE
  5
F6
330
1F
100
AcDbEntity
  8
BEZUGSACHSEN
  6
Continuous
 62
     7
100
AcDbSpline
210
0.0
220
0.0
230
1.0
 70
     8
 71
     3
 72
    47
 73
    43
 74
    41
 42
0.0000000001
 43
0.0000000001
 44
0.00000001
 40
0.0
 40
0.0
 40
0.0
 40
0.0
 40
0.6366022431434513
 40
1.273595002081912
 40
1.592921746297434
 40
1.912076344785659
 40
2.231392290335412
 40
2.550826842660379
 40
3.189774321099612
 40
3.82908169693088
 40
4.468337152429525
 40
5.107221744686162
 40
5.426176341172992
 40
5.745033356719174
 40
6.063356731497993
 40
6.381780214811059
 40
7.017059195604129
 40
7.652639340920225
 40
8.287532214159862
 40
8.922347946421814
 40
9.559226748506127
 40
10.19613435930489
 40
10.83451785496734
 40
11.47287689967786
 40
12.11234487359932
 40
12.75189588944772
 40
13.3935430051776
 40
14.03487957354472
 40
14.35615205770127
 40
14.67732107709977
 40
14.99840882470104
 40
15.31959604119158
 40
15.9601112102464
 40
16.60099592087028
 40
17.23809108076588
 40
17.87482555197789
 40
18.19205670329093
 40
18.50917199095353
 40
18.8257108462332
 40
19.14241581822545
 40
19.77338974992715
 40
20.40398930740189
 40
20.40398930740189
 40
20.40398930740189
 40
20.40398930740189
 10
73.5855014293
 20
290.6647483746
 30
0.0
 10
73.59150707316036
 20
290.8770281842839
 30
0.0
 10
73.60352204496928
 20
291.3017180240831
 30
0.0
 10
73.68478739022797
 20
291.827860785158
 30
0.0
 10
73.77750698679657
 20
292.2428351612679
 30
0.0
 10
73.86279995091395
 20
292.5506591369693
 30
0.0
 10
73.96303856434213
 20
292.8539518137646
 30
0.0
 10
74.11652411349748
 20
293.2513891763209
 30
0.0
 10
74.3449960603032
 20
293.7334887532004
 30
0.0
 10
74.67461102088687
 20
294.2823046260208
 30
0.0
 10
75.05683823795295
 20
294.7958401653721
 30
0.0
 10
75.41569293505222
 20
295.1903429274639
 30
0.0
 10
75.72464628860973
 20
295.4832162255076
 30
0.0
 10
75.96654139758368
 20
295.6909380466216
 30
0.0
 10
76.21818465106918
 20
295.8864474437542
 30
0.0
 10
76.56547875822602
 20
296.1299426464288
 30
0.0
 10
77.02121909298646
 20
296.4018247164737
 30
0.0
 10
77.59669851767622
 20
296.6731538289891
 30
0.0
 10
78.19580928283888
 20
296.8869374598031
 30
0.0
 10
78.81325968530173
 20
297.0416271911752
 30
0.0
 10
79.44353024700116
 20
297.1354341748263
 30
0.0
 10
80.08112418173155
 20
297.1675608996323
 30
0.0
 10
80.71930282596426
 20
297.1371313266829
 30
0.0
 10
81.35231524715817
 20
297.0444600715186
 30
0.0
 10
81.97354893159743
 20
296.8899681102906
 30
0.0
 10
82.57768468357816
 20
296.6749309777497
 30
0.0
 10
83.15816375715809
 20
296.4010076120197
 30
0.0
 10
83.61779278138386
 20
296.12584073396
 30
0.0
 10
83.96769177004724
 20
295.8792310351025
 30
0.0
 10
84.22082339919652
 20
295.6813268427318
 30
0.0
 10
84.4638220385506
 20
295.4711483133298
 30
0.0
 10
84.77306638205535
 20
295.1756289731748
 30
0.0
 10
85.13138657285003
 20
294.7781579904113
 30
0.0
 10
85.51133699117788
 20
294.2624912288579
 30
0.0
 10
85.83781002074632
 20
293.7128950723853
 30
0.0
 10
86.06318116072906
 20
293.2317895306963
 30
0.0
 10
86.2142721439262
 20
292.8357993431097
 30
0.0
 10
86.3126850615053
 20
292.5343729923381
 30
0.0
 10
86.39635183968363
 20
292.2286776244104
 30
0.0
 10
86.48717119711417
 20
291.817125606669
 30
0.0
 10
86.56668617272135
 20
291.2957003901215
 30
0.0
 10
86.57845845738942
 20
290.8750241009559
 30
0.0
 10
86.584342853
 20
290.6647483746
 30
0.0
 11
73.5855014293
 21
290.6647483746
 31
0.0
 11
73.61675010028424
 21
291.3005832089218
 31
0.0
 11
73.71019130266902
 21
291.9306851979973
 31
0.0
 11
73.78013180968453
 21
292.2422584559154
 31
0.0
 11
73.86527314863652
 21
292.5498468336829
 31
0.0
 11
73.96549768676434
 21
292.8530261783609
 31
0.0
 11
74.08057757652065
 21
293.1510111648832
 31
0.0
 11
74.35417347079664
 21
293.7284184447466
 31
0.0
 11
74.68339298449644
 21
294.2764407368037
 31
0.0
 11
75.06501723982214
 21
294.7892861961108
 31
0.0
 11
75.49495187591928
 21
295.2618639472872
 31
0.0
 11
75.72642413697459
 21
295.4813010156736
 31
0.0
 11
75.96832653800102
 21
295.6890340769341
 31
0.0
 11
76.21970034515552
 21
295.8843312351501
 31
0.0
 11
76.48042962344744
 21
296.0671255407687
 31
0.0
 11
77.02596326765726
 21
296.3926596042285
 31
0.0
 11
77.60087308777597
 21
296.6636592718502
 31
0.0
 11
78.19881927552285
 21
296.8770821315665
 31
0.0
 11
78.81461180774633
 21
297.0313240557799
 31
0.0
 11
79.44454408972396
 21
297.1251319907684
 31
0.0
 11
80.08064721146164
 21
297.1571339158506
 31
0.0
 11
80.71830817048036
 21
297.1267696460991
 31
0.0
 11
81.34992570339094
 21
297.0342409365886
 31
0.0
 11
81.97049857551582
 21
296.8799405799659
 31
0.0
 11
82.57299938266964
 21
296.6654218645779
 31
0.0
 11
83.15330657905079
 21
296.3916435254919
 31
0.0
 11
83.7035315670988
 21
296.0621514065384
 31
0.0
 11
83.96613887124626
 21
295.8770746308896
 31
0.0
 11
84.21915932863811
 21
295.6792611147624
 31
0.0
 11
84.46200763000243
 21
295.4692086351671
 31
0.0
 11
84.69421006540945
 21
295.2473004175906
 31
0.0
 11
85.12312612314118
 21
294.7716001997967
 31
0.0
 11
85.50323678179663
 21
294.2556068863827
 31
0.0
 11
85.82867592748684
 21
293.7079029470004
 31
0.0
 11
86.0987567856117
 21
293.1312859884359
 31
0.0
 11
86.21184723081873
 21
292.8348974688096
 31
0.0
 11
86.31029133418255
 21
292.5334495227522
 31
0.0
 11
86.39377413956767
 21
292.2281177882293
 31
0.0
 11
86.4623235630035
 21
291.9189204146453
 31
0.0
 11
86.55375064088777
 21
291.294605436516
 31
0.0
 11
86.584342853
 21
290.6647483746
 31
0.0
  0
SPLINE
  5
F7
330
1F
100
AcDbEntity
  8
0
  6
Continuous
 62
     7
100
AcDbSpline
210
0.0
220
0.0
230
1.0
 70
     8
 71
     3
 72
    19
 73
    15
 74
    13
 42
0.0000000001
 43
0.0000000001
 44
0.00000001
 40
0.0
 40
0.0
 40
0.0
 40
0.0
 40
0.1162460235977954
 40
0.2327881718600274
 40
0.3491890046774097
 40
0.4655468551589994
 40
0.5819071370823085
 40
0.6982738489999598
 40
0.8146206073455579
 40
0.9309998278820235
 40
1.163276323493692
 40
1.396138921800201
 40
1.629013178087369
 40
1.861351539830381
 40
1.861351539830381
 40
1.861351539830381
 40
1.861351539830381
 10
114.2099170236
 20
257.1423678103
 30
0.0
 10
114.1711329527505
 20
257.1405268634115
 30
0.0
 10
114.0934660126616
 20
257.1368402800138
 30
0.0
 10
113.9798559275609
 20
257.1084347950615
 30
0.0
 10
113.8716682395909
 20
257.0645808808241
 30
0.0
 10
113.770692373629
 20
257.0059841925641
 30
0.0
 10
113.6779239169045
 20
256.9352993312243
 30
0.0
 10
113.5938365379187
 20
256.8545417261363
 30
0.0
 10
113.5185328945448
 20
256.7655740873954
 30
0.0
 10
113.4298816503803
 20
256.6382146396568
 30
0.0
 10
113.3398849046427
 20
256.4654292615976
 30
0.0
 10
113.2649913854889
 20
256.2445042714351
 30
0.0
 10
113.2184544602059
 20
256.0154843518253
 30
0.0
 10
113.2127606495027
 20
255.8603049589674
 30
0.0
 10
113.2099170236
 20
255.7828046408
 30
0.0
 11
114.2099170236
 21
257.1423678103
 31
0.0
 11
114.0940456720215
 21
257.133042152915
 31
0.0
 11
113.9807211472865
 21
257.1058461161601
 31
0.0
 11
113.8728480146555
 21
257.0621135066227
 31
0.0
 11
113.7720592751422
 21
257.0039690369285
 31
0.0
 11
113.6793719700946
 21
256.9336214805225
 31
0.0
 11
113.5952966044692
 21
256.8531693547739
 31
0.0
 11
113.5199978465375
 21
256.7644751315602
 31
0.0
 11
113.4533711172222
 21
256.6690549978702
 31
0.0
 11
113.3454813311168
 21
256.4633557891509
 31
0.0
 11
113.2697231942869
 21
256.2431611152958
 31
0.0
 11
113.2247631805172
 21
256.0146681911097
 31
0.0
 11
113.2099170236
 21
255.7828046408
 31
0.0
  0
SPLINE
  5
F8
330
1F
100
AcDbEntity
  8
0
  6
Continuous
 62
     7
100
AcDbSpline
210
0.0
220
0.0
230
1.0
 70
     8
 71
     3
 72
    19
 73
    15
 74
    13
 42
0.0000000001
 43
0.0000000001
 44
0.00000001
 40
0.0
 40
0.0
 40
0.0
 40
0.0
 40
0.2323383481441583
 40
0.4652125957785974
 40
0.6980761133729039
 40
0.9303535188104765
 40
1.046733461857381
 40
1.1630809409195
 40
1.279447997503013
 40
1.39580862963057
 40
1.51216590461867
 40
1.628566140444559
 40
1.745106920591668
 40
1.861351602826656
 40
1.861351602826656
 40
1.861351602826656
 40
1.861351602826656
 10
116.9599170236
 20
255.7828046408
 30
0.0
 10
116.957073397994
 20
255.8603049544683
 30
0.0
 10
116.9513795878239
 20
256.0154843399777
 30
0.0
 10
116.9048426119731
 20
256.2445045540271
 30
0.0
 10
116.8299488661742
 20
256.4654301159291
 30
0.0
 10
116.7399515619153
 20
256.6382161801325
 30
0.0
 10
116.6512996241308
 20
256.7655761058489
 30
0.0
 10
116.5759953597815
 20
256.8545440047603
 30
0.0
 10
116.4919073859413
 20
256.9353016747129
 30
0.0
 10
116.3991386520858
 20
257.0059862410872
 30
0.0
 10
116.2981628398339
 20
257.0645824652587
 30
0.0
 10
116.1899757903418
 20
257.1084357164177
 30
0.0
 10
116.0763666810204
 20
257.1368404758745
 30
0.0
 10
115.9987006462526
 20
257.14052692852
 30
0.0
 10
115.9599170236
 20
257.1423678103
 30
0.0
 11
116.9599170236
 21
255.7828046408
 31
0.0
 11
116.9450708694797
 21
256.0146681776621
 31
0.0
 11
116.9001108678736
 21
256.243161095423
 31
0.0
 11
116.8243523891562
 21
256.4633566238263
 31
0.0
 11
116.7164619779736
 21
256.6690565320704
 31
0.0
 11
116.6498346541501
 21
256.7644771318575
 31
0.0
 11
116.5745351975934
 21
256.8531717073759
 31
0.0
 11
116.4904593312406
 21
256.9336238083735
 31
0.0
 11
116.3977715052394
 21
257.0039712576542
 31
0.0
 11
116.2969830703234
 21
257.0621151036728
 31
0.0
 11
116.1891103415516
 21
257.1058471204071
 31
0.0
 11
116.0757870530446
 21
257.133042445727
 31
0.0
 11
115.9599170236
 21
257.1423678103
 31
0.0
  0
SPLINE
  5
F9
330
1F
100
AcDbEntity
  8
BEZUGSACHSEN
  6
Continuous
 62
     7
100
AcDbSpline
210
0.0
220
0.0
230
1.0
 70
     8
 71
     3
 72
    11
 73
     7
 74
     5
 42
0.0000000001
 43
0.0000000001
 44
0.00000001
 40
0.0
 40
0.0
 40
0.0
 40
0.0
 40
0.5462907430997506
 40
1.093000863611549
 40
1.646070107124872
 40
2.198197048698671
 40
2.198197048698671
 40
2.198197048698671
 40
2.198197048698671
 10
54.6387629705
 20
305.674748394
 30
0.0
 10
54.70183377233084
 20
305.5038167647639
 30
0.0
 10
54.82802379429354
 20
305.1618222852061
 30
0.0
 10
54.96766110733279
 20
304.6305481560069
 30
0.0
 10
55.06514947141079
 20
304.0871237510612
 30
0.0
 10
55.0783315859403
 20
303.7185391105014
 30
0.0
 10
55.0849170236
 20
303.5344039198
 30
0.0
 11
54.6387629705
 21
305.674748394
 31
0.0
 11
54.81961430304479
 21
305.1592618553656
 31
0.0
 11
54.96010578775224
 21
304.6309114994514
 31
0.0
 11
55.05217244102968
 21
304.0855590267562
 31
0.0
 11
55.0849170236
 21
303.5344039198
 31
0.0
  0
SPLINE
  5
FA
330
1F
100
AcDbEntity
  8
BEZUGSACHSEN
  6
Continuous
 62
     7
100
AcDbSpline
210
0.0
220
0.0
230
1.0
 70
     8
 71
     3
 72
    19
 73
    15
 74
    13
 42
0.0000000001
 43
0.0000000001
 44
0.00000001
 40
0.0
 40
0.0
 40
0.0
 40
0.0
 40
0.1462385987758705
 40
0.2927479274637681
 40
0.4364790705718653
 40
0.5801659235750056
 40
0.7203799972232261
 40
0.8606059382286277
 40
0.9980411883561077
 40
1.135484020389965
 40
1.405415631054407
 40
1.675815514071772
 40
1.943997429507157
 40
2.211934834759655
 40
2.211934834759655
 40
2.211934834759655
 40
2.211934834759655
 10
53.0849170236
 20
307.0233959814
 30
0.0
 10
53.13363182893758
 20
307.0267040587465
 30
0.0
 10
53.23115162479693
 20
307.0333263376469
 30
0.0
 10
53.37648788509514
 20
307.0169670248881
 30
0.0
 10
53.51714482219944
 20
306.9817952588194
 30
0.0
 10
53.64999695563756
 20
306.9289895721884
 30
0.0
 10
53.7744514187003
 20
306.8613177844422
 30
0.0
 10
53.88925397587509
 20
306.7820175830481
 30
0.0
 10
53.99536391367057
 20
306.692932943484
 30
0.0
 10
54.12446637886595
 20
306.5649854079337
 30
0.0
 10
54.2675062287602
 20
306.3891831190146
 30
0.0
 10
54.41241383043359
 20
306.1614976531042
 30
0.0
 10
54.53705057882104
 20
305.9228350335912
 30
0.0
 10
54.60486915004024
 20
305.7574187931713
 30
0.0
 10
54.6387629705
 20
305.674748394
 30
0.0
 11
53.0849170236
 21
307.0233959814
 31
0.0
 11
53.2310508854169
 21
307.028929714535
 31
0.0
 11
53.37676024624854
 21
307.0136403208709
 31
0.0
 11
53.5161903277743
 21
306.9787419847376
 31
0.0
 11
53.64982266468508
 21
306.9259375317273
 31
0.0
 11
53.77313645550404
 21
306.8592015186393
 31
0.0
 11
53.88866756684305
 21
306.7797290275268
 31
0.0
 11
53.99408011663164
 21
306.691543754807
 31
0.0
 11
54.09186862032784
 21
306.5949624904626
 31
0.0
 11
54.26311701621454
 21
306.3863071254654
 31
0.0
 11
54.40945943672715
 21
306.1589308015126
 31
0.0
 11
54.53332706249963
 21
305.9210687594544
 31
0.0
 11
54.6387629705
 21
305.674748394
 31
0.0
  0
SPLINE
  5
FB
330
1F
100
AcDbEntity
  8
BEZUGSACHSEN
  6
Continuous
 62
     7
100
AcDbSpline
210
0.0
220
0.0
230
1.0
 70
     8
 71
     3
 72
    11
 73
     7
 74
     5
 42
0.0000000001
 43
0.0000000001
 44
0.00000001
 40
0.0
 40
0.0
 40
0.0
 40
0.0
 40
0.9140556660003448
 40
1.828030949185892
 40
2.279806974871073
 40
2.730944124762514
 40
2.730944124762514
 40
2.730944124762514
 40
2.730944124762514
 10
46.3518699504854
 20
275.654748394185
 30
0.0
 10
46.48452465744878
 20
275.9294649918515
 30
0.0
 10
46.74982240561039
 20
276.4788740283788
 30
0.0
 10
46.96517761892304
 20
277.2115849494836
 30
0.0
 10
47.06887183258539
 20
277.8095301555896
 30
0.0
 10
47.07957115010649
 20
278.1106533710165
 30
0.0
 10
47.0849170236
 20
278.2611084456
 30
0.0
 11
46.3518699504854
 21
275.654748394185
 31
0.0
 11
46.72667748026089
 21
276.4884252357555
 31
0.0
 11
46.98596884065877
 21
277.3648491107709
 31
0.0
 11
47.05868581415738
 21
277.8107345435326
 31
0.0
 11
47.0849170236
 21
278.2611084456
 31
0.0
  0
SPLINE
  5
FC
330
1F
100
AcDbEntity
  8
BEZUGSACHSEN
  6
Continuous
 62
     7
100
AcDbSpline
210
0.0
220
0.0
230
1.0
 70
     8
 71
     3
 72
    11
 73
     7
 74
     5
 42
0.0000000001
 43
0.0000000001
 44
0.00000001
 40
0.0
 40
0.0
 40
0.0
 40
0.0
 40
0.8249192366724755
 40
1.65011689193099
 40
2.190492152293428
 40
2.730585915378195
 40
2.730585915378195
 40
2.730585915378195
 40
2.730585915378195
 10
47.0849170236
 20
303.0683883424
 30
0.0
 10
47.06718371926181
 20
303.3435786343769
 30
0.0
 10
47.03171112541586
 20
303.8940520978377
 30
0.0
 10
46.82327630878044
 20
304.5987856829905
 30
0.0
 10
46.59304987780078
 20
305.1909994080708
 30
0.0
 10
46.43224929499882
 20
305.5135267415159
 30
0.0
 10
46.3518699504854
 20
305.674748393815
 30
0.0
 11
47.0849170236
 21
303.0683883424
 31
0.0
 11
47.00134156948426
 21
303.8890629980959
 31
0.0
 11
46.78338012737248
 21
304.6849549379953
 31
0.0
 11
46.58544504881331
 21
305.187774116913
 31
0.0
 11
46.3518699504854
 21
305.674748393815
 31
0.0
  0
DIMENSION
  5
107
330
1F
100
AcDbEntity
  8
1
100
AcDbDimension
  2
*D2
 10
235.891775611767
 20
297.664748394
 30
0.0
 11
232.141775611767
 21
290.434223827485
 31
0.0
 70
    32
  1
<>
 71
     5
 42
-1.0
 53
90.0
  3
ME10_DIM_10
100
AcDbAlignedDimension
 13
225.0849170236
 23
283.664748394
 33
0.0
 14
225.0849170236
 24
297.664748394
 34
0.0
 50
90.0
100
AcDbRotatedDimension
  0
DIMENSION
  5
112
330
1F
100
AcDbEntity
  8
1
100
AcDbDimension
  2
*D3
 10
244.812840246071
 20
304.1647483940528
 30
0.0
 11
241.062840246071
 21
291.039041768794
 31
0.0
 70
    32
  1
<>
 71
     5
 42
-1.0
 53
90.0
  3
ME10_DIM_11
100
AcDbAlignedDimension
 13
225.0849170236
 23
277.1647483939559
 33
0.0
 14
225.0849170236094
 24
304.1647483940528
 34
0.0
 50
90.0
100
AcDbRotatedDimension
  0
DIMENSION
  5
11D
330
1F
100
AcDbEntity
  8
1
100
AcDbDimension
  2
*D4
 10
252.675473483084
 20
307.664748394
 30
0.0
 11
248.925473483084
 21
291.039041768794
 31
0.0
 70
    32
  1
<>
 71
     5
 42
-1.0
 53
90.0
  3
ME10_DIM_12
100
AcDbAlignedDimension
 13
180.6132004469
 23
273.664748394
 33
0.0
 14
180.6132004469
 24
307.664748394
 34
0.0
 50
90.0
100
AcDbRotatedDimension
  0
DIMENSION
  5
128
330
1F
100
AcDbEntity
  8
1
100
AcDbDimension
  2
*D5
 10
225.0849170236
 20
347.287110310505
 30
0.0
 11
176.014799422204
 21
351.037110310505
 31
0.0
 70
    32
  1
<>
 71
     5
 42
-1.0
 53
0.00013888888889
  3
ME10_DIM_13
100
AcDbAlignedDimension
 13
124.0849170236
 23
340.6647114729
 33
0.0
 14
225.0849170236
 24
303.2403579023
 34
0.0
100
AcDbRotatedDimension
  0
DIMENSION
  5
133
330
1F
100
AcDbEntity
  8
1
100
AcDbDimension
  2
*D6
 10
225.0849170236
 20
354.393721120882
 30
0.0
 11
159.684715006869
 21
358.143721120882
 31
0.0
 70
    32
  1
<>
 71
     5
 42
-1.0
 53
0.00013888888889
  3
ME10_DIM_14
100
AcDbAlignedDimension
 13
95.0849170236
 23
340.664748394
 33
0.0
 14
225.0849170236
 24
303.2403579023
 34
0.0
100
AcDbRotatedDimension
  0
DIMENSION
  5
13E
330
1F
100
AcDbEntity
  8
1
100
AcDbDimension
  2
*D7
 10
225.0849170236
 20
361.197922960605
 30
0.0
 11
140.33054088499
 21
364.947922960605
 31
0.0
 70
    32
  1
<>
 71
     5
 42
-1.0
 53
0.00013888888889
  3
ME10_DIM_15
100
AcDbAlignedDimension
 13
45.0849170236
 23
324.2649399566
 33
0.0
 14
225.0849170236
 24
303.2403579023
 34
0.0
100
AcDbRotatedDimension
  0
INSERT
  5
145
330
1F
100
AcDbEntity
  8
1
100
AcDbBlockReference
  2
*D8
 10
0.0
 20
0.0
 30
0.0
  0
DIMENSION
  5
150
330
1F
100
AcDbEntity
  8
1
100
AcDbDimension
  2
*D9
 10
207.1225705300407
 20
306.6231924067366
 30
0.0
 11
210.0528497125415
 21
314.7481634823027
 31
0.0
 70
    37
  1
<>
 71
     5
 42
-1.0
  3
ME10_DIM_16
100
AcDb3PointAngularDimension
 13
207.0612414702633
 23
305.5832424233119
 33
0.0
 14
183.2661828084688
 24
307.664748394
 34
0.0
 15
180.6132004469
 25
307.664748394
 35
0.0
  0
ENDSEC
  0
SECTION
  2
OBJECTS
  0
DICTIONARY
  5
C
330
0
100
AcDbDictionary
281
     1
  3
ACAD_GROUP
350
D
  3
ACAD_LAYOUT
350
1A
  3
ACAD_MLEADERSTYLE
350
153
  3
ACAD_MLINESTYLE
350
17
  3
ACAD_PLOTSETTINGS
350
19
  3
ACAD_PLOTSTYLENAME
350
E
  3
ACAD_SCALELIST
350
4A
  3
ACAD_VISUALSTYLE
350
2A
  3
AcDbVariableDictionary
350
151
  0
DICTIONARY
  5
D
102
{ACAD_REACTORS
330
C
102
}
330
C
100
AcDbDictionary
281
     1
  0
DICTIONARY
  5
1A
102
{ACAD_REACTORS
330
C
102
}
330
C
100
AcDbDictionary
281
     1
  3
Layout1
350
1E
  3
Layout2
350
26
  3
Model
350
22
  0
DICTIONARY
  5
153
102
{ACAD_REACTORS
330
C
102
}
330
C
100
AcDbDictionary
281
     1
  0
DICTIONARY
  5
17
102
{ACAD_REACTORS
330
C
102
}
330
C
100
AcDbDictionary
281
     1
  3
Standard
350
18
  0
DICTIONARY
  5
19
102
{ACAD_REACTORS
330
C
102
}
330
C
100
AcDbDictionary
281
     1
  0
ACDBDICTIONARYWDFLT
  5
E
102
{ACAD_REACTORS
330
C
102
}
330
C
100
AcDbDictionary
281
     1
  3
Normal
350
F
100
AcDbDictionaryWithDefault
340
F
  0
DICTIONARY
  5
4A
102
{ACAD_REACTORS
330
C
102
}
330
C
100
AcDbDictionary
281
     1
  3
A0
350
4B
  3
A1
350
4C
  3
A2
350
4D
  3
A3
350
4E
  3
A4
350
4F
  3
A5
350
50
  3
A6
350
51
  3
A7
350
52
  3
A8
350
53
  3
A9
350
54
  3
B0
350
55
  3
B1
350
56
  3
B2
350
57
  3
B3
350
58
  3
B4
350
59
  3
B5
350
5A
  3
B6
350
5B
  3
B7
350
5C
  3
B8
350
5D
  3
B9
350
5E
  3
C0
350
5F
  3
C1
350
60
  3
C2
350
61
  3
C3
350
62
  3
C4
350
63
  3
C5
350
64
  3
C6
350
65
  3
C7
350
66
  3
C8
350
67
  3
C9
350
68
  3
D0
350
69
  3
D1
350
6A
  3
D2
350
6B
  0
DICTIONARY
  5
2A
102
{ACAD_REACTORS
330
C
102
}
330
C
100
AcDbDictionary
281
     1
  3
2dWireframe
350
2F
  3
3D Hidden
350
31
  3
3dWireframe
350
30
  3
Basic
350
32
  3
Brighten
350
36
  3
ColorChange
350
3A
  3
Conceptual
350
34
  3
Dim
350
35
  3
Facepattern
350
39
  3
Flat
350
2B
  3
FlatWithEdges
350
2C
  3
Gouraud
350
2D
  3
GouraudWithEdges
350
2E
  3
Linepattern
350
38
  3
Realistic
350
33
  3
Thicken
350
37
  0
DICTIONARY
  5
151
102
{ACAD_REACTORS
330
C
102
}
330
C
100
AcDbDictionary
281
     1
  3
CANNOSCALE
350
154
  0
LAYOUT
  5
1E
102
{ACAD_REACTORS
330
1A
102
}
330
1A
100
AcDbPlotSettings
  1

  2
none_device
  4

  6

 40
0.0
 41
0.0
 42
0.0
 43
0.0
 44
0.0
 45
0.0
 46
0.0
 47
0.0
 48
0.0
 49
0.0
140
0.0
141
0.0
142
1.0
143
1.0
 70
   688
 72
     0
 73
     0
 74
     5
  7

 75
    16
147
1.0
148
0.0
149
0.0
100
AcDbLayout
  1
Layout1
 70
     1
 71
     1
 10
0.0
 20
0.0
 11
12.0
 21
9.0
 12
0.0
 22
0.0
 32
0.0
 14
1.00000000000000E+20
 24
1.00000000000000E+20
 34
1.00000000000000E+20
 15
-1.00000000000000E+20
 25
-1.00000000000000E+20
 35
-1.00000000000000E+20
146
0.0
 13
0.0
 23
0.0
 33
0.0
 16
1.0
 26
0.0
 36
0.0
 17
0.0
 27
1.0
 37
0.0
 76
     0
330
1B
  0
LAYOUT
  5
26
102
{ACAD_REACTORS
330
1A
102
}
330
1A
100
AcDbPlotSettings
  1

  2
none_device
  4

  6

 40
0.0
 41
0.0
 42
0.0
 43
0.0
 44
0.0
 45
0.0
 46
0.0
 47
0.0
 48
0.0
 49
0.0
140
0.0
141
0.0
142
1.0
143
1.0
 70
   688
 72
     0
 73
     0
 74
     5
  7

 75
    16
147
1.0
148
0.0
149
0.0
100
AcDbLayout
  1
Layout2
 70
     1
 71
     2
 10
0.0
 20
0.0
 11
0.0
 21
0.0
 12
0.0
 22
0.0
 32
0.0
 14
0.0
 24
0.0
 34
0.0
 15
0.0
 25
0.0
 35
0.0
146
0.0
 13
0.0
 23
0.0
 33
0.0
 16
1.0
 26
0.0
 36
0.0
 17
0.0
 27
1.0
 37
0.0
 76
     0
330
23
  0
LAYOUT
  5
22
102
{ACAD_REACTORS
330
1A
102
}
330
1A
100
AcDbPlotSettings
  1

  2
none_device
  4

  6

 40
0.0
 41
0.0
 42
0.0
 43
0.0
 44
0.0
 45
0.0
 46
0.0
 47
0.0
 48
0.0
 49
0.0
140
0.0
141
0.0
142
1.0
143
1.0
 70
  1712
 72
     0
 73
     0
 74
     0
  7

 75
     0
147
1.0
148
0.0
149
0.0
100
AcDbLayout
  1
Model
 70
     1
 71
     0
 10
0.0
 20
0.0
 11
12.0
 21
9.0
 12
0.0
 22
0.0
 32
0.0
 14
21.5458325532554
 24
240.664748394
 34
0.0
 15
254.675473483084
 25
366.697922960605
 35
0.0
146
0.0
 13
0.0
 23
0.0
 33
0.0
 16
1.0
 26
0.0
 36
0.0
 17
0.0
 27
1.0
 37
0.0
 76
     0
330
1F
331
29
  0
MLINESTYLE
  5
18
102
{ACAD_REACTORS
330
17
102
}
330
17
100
AcDbMlineStyle
  2
Standard
 70
     0
  3

 62
   256
 51
90.0
 52
90.0
 71
     2
 49
0.5
 62
   256
  6
BYLAYER
 49
-0.5
 62
   256
  6
BYLAYER
  0
ACDBPLACEHOLDER
  5
F
102
{ACAD_REACTORS
330
E
102
}
330
E
  0
SCALE
  5
4B
102
{ACAD_REACTORS
330
4A
102
}
330
4A
100
AcDbScale
 70
     0
300
1:1
140
1.0
141
1.0
290
     1
  0
SCALE
  5
4C
102
{ACAD_REACTORS
330
4A
102
}
330
4A
100
AcDbScale
 70
     0
300
1:2
140
1.0
141
2.0
290
     0
  0
SCALE
  5
4D
102
{ACAD_REACTORS
330
4A
102
}
330
4A
100
AcDbScale
 70
     0
300
1:4
140
1.0
141
4.0
290
     0
  0
SCALE
  5
4E
102
{ACAD_REACTORS
330
4A
102
}
330
4A
100
AcDbScale
 70
     0
300
1:5
140
1.0
141
5.0
290
     0
  0
SCALE
  5
4F
102
{ACAD_REACTORS
330
4A
102
}
330
4A
100
AcDbScale
 70
     0
300
1:8
140
1.0
141
8.0
290
     0
  0
SCALE
  5
50
102
{ACAD_REACTORS
330
4A
102
}
330
4A
100
AcDbScale
 70
     0
300
1:10
140
1.0
141
10.0
290
     0
  0
SCALE
  5
51
102
{ACAD_REACTORS
330
4A
102
}
330
4A
100
AcDbScale
 70
     0
300
1:16
140
1.0
141
16.0
290
     0
  0
SCALE
  5
52
102
{ACAD_REACTORS
330
4A
102
}
330
4A
100
AcDbScale
 70
     0
300
1:20
140
1.0
141
20.0
290
     0
  0
SCALE
  5
53
102
{ACAD_REACTORS
330
4A
102
}
330
4A
100
AcDbScale
 70
     0
300
1:30
140
1.0
141
30.0
290
     0
  0
SCALE
  5
54
102
{ACAD_REACTORS
330
4A
102
}
330
4A
100
AcDbScale
 70
     0
300
1:40
140
1.0
141
40.0
290
     0
  0
SCALE
  5
55
102
{ACAD_REACTORS
330
4A
102
}
330
4A
100
AcDbScale
 70
     0
300
1:50
140
1.0
141
50.0
290
     0
  0
SCALE
  5
56
102
{ACAD_REACTORS
330
4A
102
}
330
4A
100
AcDbScale
 70
     0
300
1:100
140
1.0
141
100.0
290
     0
  0
SCALE
  5
57
102
{ACAD_REACTORS
330
4A
102
}
330
4A
100
AcDbScale
 70
     0
300
2:1
140
2.0
141
1.0
290
     0
  0
SCALE
  5
58
102
{ACAD_REACTORS
330
4A
102
}
330
4A
100
AcDbScale
 70
     0
300
4:1
140
4.0
141
1.0
290
     0
  0
SCALE
  5
59
102
{ACAD_REACTORS
330
4A
102
}
330
4A
100
AcDbScale
 70
     0
300
8:1
140
8.0
141
1.0
290
     0
  0
SCALE
  5
5A
102
{ACAD_REACTORS
330
4A
102
}
330
4A
100
AcDbScale
 70
     0
300
10:1
140
10.0
141
1.0
290
     0
  0
SCALE
  5
5B
102
{ACAD_REACTORS
330
4A
102
}
330
4A
100
AcDbScale
 70
     0
300
100:1
140
100.0
141
1.0
290
     0
  0
SCALE
  5
5C
102
{ACAD_REACTORS
330
4A
102
}
330
4A
100
AcDbScale
 70
     0
300
1/128" = 1'-0"
140
0.0078125
141
12.0
290
     0
  0
SCALE
  5
5D
102
{ACAD_REACTORS
330
4A
102
}
330
4A
100
AcDbScale
 70
     0
300
1/64" = 1'-0"
140
0.015625
141
12.0
290
     0
  0
SCALE
  5
5E
102
{ACAD_REACTORS
330
4A
102
}
330
4A
100
AcDbScale
 70
     0
300
1/32" = 1'-0"
140
0.03125
141
12.0
290
     0
  0
SCALE
  5
5F
102
{ACAD_REACTORS
330
4A
102
}
330
4A
100
AcDbScale
 70
     0
300
1/16" = 1'-0"
140
0.0625
141
12.0
290
     0
  0
SCALE
  5
60
102
{ACAD_REACTORS
330
4A
102
}
330
4A
100
AcDbScale
 70
     0
300
3/32" = 1'-0"
140
0.09375
141
12.0
290
     0
  0
SCALE
  5
61
102
{ACAD_REACTORS
330
4A
102
}
330
4A
100
AcDbScale
 70
     0
300
1/8" = 1'-0"
140
0.125
141
12.0
290
     0
  0
SCALE
  5
62
102
{ACAD_REACTORS
330
4A
102
}
330
4A
100
AcDbScale
 70
     0
300
3/16" = 1'-0"
140
0.1875
141
12.0
290
     0
  0
SCALE
  5
63
102
{ACAD_REACTORS
330
4A
102
}
330
4A
100
AcDbScale
 70
     0
300
1/4" = 1'-0"
140
0.25
141
12.0
290
     0
  0
SCALE
  5
64
102
{ACAD_REACTORS
330
4A
102
}
330
4A
100
AcDbScale
 70
     0
300
3/8" = 1'-0"
140
0.375
141
12.0
290
     0
  0
SCALE
  5
65
102
{ACAD_REACTORS
330
4A
102
}
330
4A
100
AcDbScale
 70
     0
300
1/2" = 1'-0"
140
0.5
141
12.0
290
     0
  0
SCALE
  5
66
102
{ACAD_REACTORS
330
4A
102
}
330
4A
100
AcDbScale
 70
     0
300
3/4" = 1'-0"
140
0.75
141
12.0
290
     0
  0
SCALE
  5
67
102
{ACAD_REACTORS
330
4A
102
}
330
4A
100
AcDbScale
 70
     0
300
1" = 1'-0"
140
1.0
141
12.0
290
     0
  0
SCALE
  5
68
102
{ACAD_REACTORS
330
4A
102
}
330
4A
100
AcDbScale
 70
     0
300
1-1/2" = 1'-0"
140
1.5
141
12.0
290
     0
  0
SCALE
  5
69
102
{ACAD_REACTORS
330
4A
102
}
330
4A
100
AcDbScale
 70
     0
300
3" = 1'-0"
140
3.0
141
12.0
290
     0
  0
SCALE
  5
6A
102
{ACAD_REACTORS
330
4A
102
}
330
4A
100
AcDbScale
 70
     0
300
6" = 1'-0"
140
6.0
141
12.0
290
     0
  0
SCALE
  5
6B
102
{ACAD_REACTORS
330
4A
102
}
330
4A
100
AcDbScale
 70
     0
300
1'-0" = 1'-0"
140
12.0
141
12.0
290
     0
  0
VISUALSTYLE
  5
2F
102
{ACAD_REACTORS
330
2A
102
}
330
2A
100
AcDbVisualStyle
  2
2dWireframe
 70
     4
 71
     0
 72
     2
 73
     0
 90
        0
 40
-0.6
 41
-30.0
 62
     5
 63
     7
 74
     1
 91
        4
 64
     7
 65
   257
 75
     1
175
     1
 42
1.0
 92
        0
 66
   257
 43
1.0
 76
     1
 77
     6
 78
     2
 67
     7
 79
     5
170
     0
171
     0
290
     0
174
     0
 93
        1
 44
0.0
173
     0
291
     0
 45
0.0
1001
ACAD
1000
AcDbSavedByObjectVersion
1070
     0
  0
VISUALSTYLE
  5
31
102
{ACAD_REACTORS
330
2A
102
}
330
2A
100
AcDbVisualStyle
  2
3D Hidden
 70
     6
 71
     1
 72
     2
 73
     2
 90
        0
 40
-0.6
 41
-30.0
 62
     5
 63
     7
 74
     2
 91
        2
 64
     7
 65
   257
 75
     2
175
     1
 42
40.0
 92
        0
 66
   257
 43
1.0
 76
     1
 77
     6
 78
     2
 67
     7
 79
     3
170
     0
171
     0
290
     0
174
     0
 93
        1
 44
0.0
173
     0
291
     0
 45
0.0
1001
ACAD
1000
AcDbSavedByObjectVersion
1070
     0
  0
VISUALSTYLE
  5
30
102
{ACAD_REACTORS
330
2A
102
}
330
2A
100
AcDbVisualStyle
  2
3dWireframe
 70
     5
 71
     0
 72
     2
 73
     0
 90
        0
 40
-0.6
 41
-30.0
 62
     5
 63
     7
 74
     1
 91
        4
 64
     7
 65
   257
 75
     1
175
     1
 42
1.0
 92
        0
 66
   257
 43
1.0
 76
     1
 77
     6
 78
     2
 67
     7
 79
     5
170
     0
171
     0
290
     0
174
     0
 93
        1
 44
0.0
173
     0
291
     0
 45
0.0
1001
ACAD
1000
AcDbSavedByObjectVersion
1070
     0
  0
VISUALSTYLE
  5
32
102
{ACAD_REACTORS
330
2A
102
}
330
2A
100
AcDbVisualStyle
  2
Basic
 70
     7
 71
     1
 72
     0
 73
     1
 90
        0
 40
-0.6
 41
-30.0
 62
     5
 63
     7
 74
     0
 91
        4
 64
     7
 65
   257
 75
     1
175
     1
 42
1.0
 92
        8
 66
     7
 43
1.0
 76
     1
 77
     6
 78
     2
 67
     7
 79
     5
170
     0
171
     0
290
     0
174
     0
 93
        1
 44
0.0
173
     0
291
     1
 45
0.0
1001
ACAD
1000
AcDbSavedByObjectVersion
1070
     0
  0
VISUALSTYLE
  5
36
102
{ACAD_REACTORS
330
2A
102
}
330
2A
100
AcDbVisualStyle
  2
Brighten
 70
    12
 71
     2
 72
     2
 73
     0
 90
        0
 40
-0.6
 41
-30.0
 62
     5
 63
     7
 74
     1
 91
        4
 64
     7
 65
   257
 75
     1
175
     1
 42
1.0
 92
        8
 66
     7
 43
1.0
 76
     1
 77
     6
 78
     2
 67
     7
 79
     5
170
     0
171
     0
290
     0
174
     0
 93
        1
 44
50.0
173
     0
291
     1
 45
0.0
1001
ACAD
1000
AcDbSavedByObjectVersion
1070
     0
  0
VISUALSTYLE
  5
3A
102
{ACAD_REACTORS
330
2A
102
}
330
2A
100
AcDbVisualStyle
  2
ColorChange
 70
    16
 71
     2
 72
     2
 73
     3
 90
        0
 40
-0.6
 41
-30.0
 62
     5
 63
     8
 74
     1
 91
        4
 64
     7
 65
   257
 75
     1
175
     1
 42
1.0
 92
        8
 66
     8
 43
1.0
 76
     1
 77
     6
 78
     2
 67
     7
 79
     5
170
     0
171
     0
290
     0
174
     0
 93
        1
 44
0.0
173
     0
291
     1
 45
0.0
1001
ACAD
1000
AcDbSavedByObjectVersion
1070
     0
  0
VISUALSTYLE
  5
34
102
{ACAD_REACTORS
330
2A
102
}
330
2A
100
AcDbVisualStyle
  2
Conceptual
 70
     9
 71
     3
 72
     2
 73
     0
 90
        0
 40
-0.6
 41
-30.0
 62
     5
 63
     7
 74
     2
 91
        2
 64
     7
 65
   257
 75
     1
175
     1
 42
40.0
 92
        8
 66
     7
 43
1.0
 76
     1
 77
     6
 78
     2
 67
     7
 79
     3
170
     0
171
     0
290
     0
174
     0
 93
        1
 44
0.0
173
     0
291
     0
 45
0.0
1001
ACAD
1000
AcDbSavedByObjectVersion
1070
     0
  0
VISUALSTYLE
  5
35
102
{ACAD_REACTORS
330
2A
102
}
330
2A
100
AcDbVisualStyle
  2
Dim
 70
    11
 71
     2
 72
     2
 73
     0
 90
        0
 40
-0.6
 41
-30.0
 62
     5
 63
     7
 74
     1
 91
        4
 64
     7
 65
   257
 75
     1
175
     1
 42
1.0
 92
        8
 66
     7
 43
1.0
 76
     1
 77
     6
 78
     2
 67
     7
 79
     5
170
     0
171
     0
290
     0
174
     0
 93
        1
 44
-50.0
173
     0
291
     1
 45
0.0
1001
ACAD
1000
AcDbSavedByObjectVersion
1070
     0
  0
VISUALSTYLE
  5
39
102
{ACAD_REACTORS
330
2A
102
}
330
2A
100
AcDbVisualStyle
  2
Facepattern
 70
    15
 71
     2
 72
     2
 73
     0
 90
        0
 40
-0.6
 41
-30.0
 62
     5
 63
     7
 74
     1
 91
        4
 64
     7
 65
   257
 75
     1
175
     1
 42
1.0
 92
        8
 66
     7
 43
1.0
 76
     1
 77
     6
 78
     2
 67
     7
 79
     5
170
     0
171
     0
290
     0
174
     0
 93
        1
 44
0.0
173
     0
291
     1
 45
0.0
1001
ACAD
1000
AcDbSavedByObjectVersion
1070
     0
  0
VISUALSTYLE
  5
2B
102
{ACAD_REACTORS
330
2A
102
}
330
2A
100
AcDbVisualStyle
  2
Flat
 70
     0
 71
     2
 72
     1
 73
     1
 90
        2
 40
-0.6
 41
30.0
 62
     5
 63
     7
 74
     0
 91
        4
 64
     7
 65
   257
 75
     1
175
     1
 42
1.0
 92
        8
 66
     7
 43
1.0
 76
     1
 77
     6
 78
     2
 67
     7
 79
     5
170
     0
171
     0
290
     0
174
     0
 93
       13
 44
0.0
173
     0
291
     1
 45
0.0
1001
ACAD
1000
AcDbSavedByObjectVersion
1070
     0
  0
VISUALSTYLE
  5
2C
102
{ACAD_REACTORS
330
2A
102
}
330
2A
100
AcDbVisualStyle
  2
FlatWithEdges
 70
     1
 71
     2
 72
     1
 73
     1
 90
        2
 40
-0.6
 41
30.0
 62
     5
 63
     7
 74
     1
 91
        4
 64
     7
 65
   257
 75
     1
175
     1
 42
1.0
 92
        0
 66
   257
 43
1.0
 76
     1
 77
     6
 78
     2
 67
     7
 79
     5
170
     0
171
     0
290
     0
174
     0
 93
       13
 44
0.0
173
     0
291
     1
 45
0.0
1001
ACAD
1000
AcDbSavedByObjectVersion
1070
     0
  0
VISUALSTYLE
  5
2D
102
{ACAD_REACTORS
330
2A
102
}
330
2A
100
AcDbVisualStyle
  2
Gouraud
 70
     2
 71
     2
 72
     2
 73
     1
 90
        2
 40
-0.6
 41
30.0
 62
     5
 63
     7
 74
     0
 91
        4
 64
     7
 65
   257
 75
     1
175
     1
 42
1.0
 92
        0
 66
     7
 43
1.0
 76
     1
 77
     6
 78
     2
 67
     7
 79
     5
170
     0
171
     0
290
     0
174
     0
 93
       13
 44
0.0
173
     0
291
     1
 45
0.0
1001
ACAD
1000
AcDbSavedByObjectVersion
1070
     0
  0
VISUALSTYLE
  5
2E
102
{ACAD_REACTORS
330
2A
102
}
330
2A
100
AcDbVisualStyle
  2
GouraudWithEdges
 70
     3
 71
     2
 72
     2
 73
     1
 90
        2
 40
-0.6
 41
30.0
 62
     5
 63
     7
 74
     1
 91
        4
 64
     7
 65
   257
 75
     1
175
     1
 42
1.0
 92
        0
 66
   257
 43
1.0
 76
     1
 77
     6
 78
     2
 67
     7
 79
     5
170
     0
171
     0
290
     0
174
     0
 93
       13
 44
0.0
173
     0
291
     1
 45
0.0
1001
ACAD
1000
AcDbSavedByObjectVersion
1070
     0
  0
VISUALSTYLE
  5
38
102
{ACAD_REACTORS
330
2A
102
}
330
2A
100
AcDbVisualStyle
  2
Linepattern
 70
    14
 71
     2
 72
     2
 73
     0
 90
        0
 40
-0.6
 41
-30.0
 62
     5
 63
     7
 74
     1
 91
        4
 64
     7
 65
   257
 75
     7
175
     7
 42
1.0
 92
        8
 66
     7
 43
1.0
 76
     1
 77
     6
 78
     2
 67
     7
 79
     5
170
     0
171
     0
290
     0
174
     0
 93
        1
 44
0.0
173
     0
291
     1
 45
0.0
1001
ACAD
1000
AcDbSavedByObjectVersion
1070
     0
  0
VISUALSTYLE
  5
33
102
{ACAD_REACTORS
330
2A
102
}
330
2A
100
AcDbVisualStyle
  2
Realistic
 70
     8
 71
     2
 72
     2
 73
     0
 90
        0
 40
-0.6
 41
-30.0
 62
     5
 63
     7
 74
     1
 91
        0
 64
     7
 65
   257
 75
     1
175
     1
 42
1.0
 92
        8
 66
     8
 43
1.0
 76
     1
 77
     6
 78
     2
 67
     7
 79
     5
170
     0
171
     0
290
     0
174
     0
 93
       13
 44
0.0
173
     0
291
     0
 45
0.0
1001
ACAD
1000
AcDbSavedByObjectVersion
1070
     0
  0
VISUALSTYLE
  5
37
102
{ACAD_REACTORS
330
2A
102
}
330
2A
100
AcDbVisualStyle
  2
Thicken
 70
    13
 71
     2
 72
     2
 73
     0
 90
        0
 40
-0.6
 41
-30.0
 62
     5
 63
     7
 74
     1
 91
        4
 64
     7
 65
   257
 75
     1
175
     1
 42
1.0
 92
       12
 66
     7
 43
1.0
 76
     1
 77
     6
 78
     2
 67
     7
 79
     5
170
     0
171
     0
290
     0
174
     0
 93
        1
 44
0.0
173
     0
291
     1
 45
0.0
1001
ACAD
1000
AcDbSavedByObjectVersion
1070
     0
  0
DICTIONARYVAR
  5
154
102
{ACAD_REACTORS
330
151
102
}
330
151
100
DictionaryVariables
280
     0
  1
1:1
  0
ENDSEC
  0
EOF
