  0
SECTION
  2
HEADER
  9
$ACADVER
  1
AC1015
  9
$ACADMAINTVER
 70
     6
  9
$DWGCODEPAGE
  3
ANSI_1252
  9
$INSBASE
 10
0.0
 20
0.0
 30
0.0
  9
$EXTMIN
 10
28.3725810726504
 20
247.3052144673
 30
0.0
  9
$EXTMAX
 10
261.261556163356
 20
374.400682816039
 30
0.0
  9
$LIMMIN
 10
0.0
 20
0.0
  9
$LIMMAX
 10
12.0
 20
9.0
  9
$ORTHOMODE
 70
     0
  9
$REGENMODE
 70
     1
  9
$FILLMODE
 70
     1
  9
$QTEXTMODE
 70
     0
  9
$MIRRTEXT
 70
     1
  9
$LTSCALE
 40
1.0
  9
$ATTMODE
 70
     1
  9
$TEXTSIZE
 40
0.2
  9
$TRACEWID
 40
0.05
  9
$TEXTSTYLE
  7
Standard
  9
$CLAYER
  8
0
  9
$CELTYPE
  6
ByLayer
  9
$CECOLOR
 62
   256
  9
$CELTSCALE
 40
1.0
  9
$DISPSILH
 70
     0
  9
$DIMSCALE
 40
1.0
  9
$DIMASZ
 40
0.18
  9
$DIMEXO
 40
0.0625
  9
$DIMDLI
 40
0.38
  9
$DIMRND
 40
0.0
  9
$DIMDLE
 40
0.0
  9
$DIMEXE
 40
0.18
  9
$DIMTP
 40
0.0
  9
$DIMTM
 40
0.0
  9
$DIMTXT
 40
0.18
  9
$DIMCEN
 40
0.09
  9
$DIMTSZ
 40
0.0
  9
$DIMTOL
 70
     0
  9
$DIMLIM
 70
     0
  9
$DIMTIH
 70
     1
  9
$DIMTOH
 70
     1
  9
$DIMSE1
 70
     0
  9
$DIMSE2
 70
     0
  9
$DIMTAD
 70
     0
  9
$DIMZIN
 70
     0
  9
$DIMBLK
  1

  9
$DIMASO
 70
     1
  9
$DIMSHO
 70
     1
  9
$DIMPOST
  1

  9
$DIMAPOST
  1

  9
$DIMALT
 70
     0
  9
$DIMALTD
 70
     2
  9
$DIMALTF
 40
25.4
  9
$DIMLFAC
 40
1.0
  9
$DIMTOFL
 70
     0
  9
$DIMTVP
 40
0.0
  9
$DIMTIX
 70
     0
  9
$DIMSOXD
 70
     0
  9
$DIMSAH
 70
     0
  9
$DIMBLK1
  1

  9
$DIMBLK2
  1

  9
$DIMSTYLE
  2
Standard
  9
$DIMCLRD
 70
     0
  9
$DIMCLRE
 70
     0
  9
$DIMCLRT
 70
     0
  9
$DIMTFAC
 40
1.0
  9
$DIMGAP
 40
0.09
  9
$DIMJUST
 70
     0
  9
$DIMSD1
 70
     0
  9
$DIMSD2
 70
     0
  9
$DIMTOLJ
 70
     1
  9
$DIMTZIN
 70
     0
  9
$DIMALTZ
 70
     0
  9
$DIMALTTZ
 70
     0
  9
$DIMUPT
 70
     0
  9
$DIMDEC
 70
     4
  9
$DIMTDEC
 70
     4
  9
$DIMALTU
 70
     2
  9
$DIMALTTD
 70
     2
  9
$DIMTXSTY
  7
Standard
  9
$DIMAUNIT
 70
     0
  9
$DIMADEC
 70
     0
  9
$DIMALTRND
 40
0.0
  9
$DIMAZIN
 70
     0
  9
$DIMDSEP
 70
    46
  9
$DIMATFIT
 70
     3
  9
$DIMFRAC
 70
     0
  9
$DIMLDRBLK
  1

  9
$DIMLUNIT
 70
     2
  9
$DIMLWD
 70
    -2
  9
$DIMLWE
 70
    -2
  9
$DIMTMOVE
 70
     0
  9
$LUNITS
 70
     2
  9
$LUPREC
 70
     4
  9
$SKETCHINC
 40
0.1
  9
$FILLETRAD
 40
0.5
  9
$AUNITS
 70
     0
  9
$AUPREC
 70
     0
  9
$MENU
  1
.
  9
$ELEVATION
 40
0.0
  9
$PELEVATION
 40
0.0
  9
$THICKNESS
 40
0.0
  9
$LIMCHECK
 70
     0
  9
$CHAMFERA
 40
0.5
  9
$CHAMFERB
 40
0.5
  9
$CHAMFERC
 40
1.0
  9
$CHAMFERD
 40
0.0
  9
$SKPOLY
 70
     0
  9
$TDCREATE
 40
2456748.730313727
  9
$TDUCREATE
 40
2456748.646980394
  9
$TDUPDATE
 40
2456748.730313738
  9
$TDUUPDATE
 40
2456748.646980405
  9
$TDINDWG
 40
0.0000000116
  9
$TDUSRTIMER
 40
0.0000000116
  9
$USRTIMER
 70
     1
  9
$ANGBASE
 50
0.0
  9
$ANGDIR
 70
     0
  9
$PDMODE
 70
     0
  9
$PDSIZE
 40
0.0
  9
$PLINEWID
 40
0.0
  9
$SPLFRAME
 70
     0
  9
$SPLINETYPE
 70
     6
  9
$SPLINESEGS
 70
     8
  9
$HANDSEED
  5
157
  9
$SURFTAB1
 70
     6
  9
$SURFTAB2
 70
     6
  9
$SURFTYPE
 70
     6
  9
$SURFU
 70
     6
  9
$SURFV
 70
     6
  9
$UCSBASE
  2

  9
$UCSNAME
  2

  9
$UCSORG
 10
0.0
 20
0.0
 30
0.0
  9
$UCSXDIR
 10
1.0
 20
0.0
 30
0.0
  9
$UCSYDIR
 10
0.0
 20
1.0
 30
0.0
  9
$UCSORTHOREF
  2

  9
$UCSORTHOVIEW
 70
     0
  9
$UCSORGTOP
 10
0.0
 20
0.0
 30
0.0
  9
$UCSORGBOTTOM
 10
0.0
 20
0.0
 30
0.0
  9
$UCSORGLEFT
 10
0.0
 20
0.0
 30
0.0
  9
$UCSORGRIGHT
 10
0.0
 20
0.0
 30
0.0
  9
$UCSORGFRONT
 10
0.0
 20
0.0
 30
0.0
  9
$UCSORGBACK
 10
0.0
 20
0.0
 30
0.0
  9
$PUCSBASE
  2

  9
$PUCSNAME
  2

  9
$PUCSORG
 10
0.0
 20
0.0
 30
0.0
  9
$PUCSXDIR
 10
1.0
 20
0.0
 30
0.0
  9
$PUCSYDIR
 10
0.0
 20
1.0
 30
0.0
  9
$PUCSORTHOREF
  2

  9
$PUCSORTHOVIEW
 70
     0
  9
$PUCSORGTOP
 10
0.0
 20
0.0
 30
0.0
  9
$PUCSORGBOTTOM
 10
0.0
 20
0.0
 30
0.0
  9
$PUCSORGLEFT
 10
0.0
 20
0.0
 30
0.0
  9
$PUCSORGRIGHT
 10
0.0
 20
0.0
 30
0.0
  9
$PUCSORGFRONT
 10
0.0
 20
0.0
 30
0.0
  9
$PUCSORGBACK
 10
0.0
 20
0.0
 30
0.0
  9
$USERI1
 70
     0
  9
$USERI2
 70
     0
  9
$USERI3
 70
     0
  9
$USERI4
 70
     0
  9
$USERI5
 70
     0
  9
$USERR1
 40
16.5
  9
$USERR2
 40
0.0
  9
$USERR3
 40
0.0
  9
$USERR4
 40
0.0
  9
$USERR5
 40
0.0
  9
$WORLDVIEW
 70
     1
  9
$SHADEDGE
 70
     3
  9
$SHADEDIF
 70
    70
  9
$TILEMODE
 70
     1
  9
$MAXACTVP
 70
    64
  9
$PINSBASE
 10
0.0
 20
0.0
 30
0.0
  9
$PLIMCHECK
 70
     0
  9
$PEXTMIN
 10
1.00000000000000E+20
 20
1.00000000000000E+20
 30
1.00000000000000E+20
  9
$PEXTMAX
 10
-1.00000000000000E+20
 20
-1.00000000000000E+20
 30
-1.00000000000000E+20
  9
$PLIMMIN
 10
0.0
 20
0.0
  9
$PLIMMAX
 10
12.0
 20
9.0
  9
$UNITMODE
 70
     0
  9
$VISRETAIN
 70
     1
  9
$PLINEGEN
 70
     0
  9
$PSLTSCALE
 70
     1
  9
$TREEDEPTH
 70
  3020
  9
$CMLSTYLE
  2
Standard
  9
$CMLJUST
 70
     0
  9
$CMLSCALE
 40
1.0
  9
$PROXYGRAPHICS
 70
     1
  9
$MEASUREMENT
 70
     1
  9
$CELWEIGHT
370
    -1
  9
$ENDCAPS
280
     0
  9
$JOINSTYLE
280
     0
  9
$LWDISPLAY
290
     0
  9
$INSUNITS
 70
     1
  9
$HYPERLINKBASE
  1

  9
$STYLESHEET
  1

  9
$XEDIT
290
     1
  9
$CEPSNTYPE
380
     0
  9
$PSTYLEMODE
290
     1
  9
$FINGERPRINTGUID
  2
{51A9E416-54CF-48C7-A774-F15C80B47C2E}
  9
$VERSIONGUID
  2
{FAEB1C32-E019-11D5-929B-00C0DF256EC4}
  9
$EXTNAMES
290
     1
  9
$PSVPSCALE
 40
0.0
  9
$OLESTARTUP
290
     0
  0
ENDSEC
  0
SECTION
  2
CLASSES
  0
CLASS
  1
ACDBDICTIONARYWDFLT
  2
AcDbDictionaryWithDefault
  3
ObjectDBX Classes
 90
        0
280
     0
281
     0
  0
CLASS
  1
VISUALSTYLE
  2
AcDbVisualStyle
  3
ObjectDBX Classes
 90
     4095
280
     0
281
     0
  0
CLASS
  1
SCALE
  2
AcDbScale
  3
ObjectDBX Classes
 90
     1153
280
     0
281
     0
  0
CLASS
  1

  2
exOdDbPolyline
  3

 90
        0
280
     0
281
     1
  0
CLASS
  1

  2
exOdDbCircle
  3

 90
        0
280
     0
281
     1
  0
CLASS
  1

  2
exOdDbSpline
  3

 90
        0
280
     0
281
     1
  0
CLASS
  1
DICTIONARYVAR
  2
AcDbDictionaryVar
  3
ObjectDBX Classes
 90
        0
280
     0
281
     0
  0
CLASS
  1
ACDBPLACEHOLDER
  2
AcDbPlaceHolder
  3
ObjectDBX Classes
 90
        0
280
     0
281
     0
  0
CLASS
  1
LAYOUT
  2
AcDbLayout
  3
ObjectDBX Classes
 90
        0
280
     0
281
     0
  0
ENDSEC
  0
SECTION
  2
TABLES
  0
TABLE
  2
VPORT
  5
8
330
0
100
AcDbSymbolTable
 70
     1
  0
VPORT
  5
29
330
8
100
AcDbSymbolTableRecord
100
AcDbViewportTableRecord
  2
*Active
 70
     0
 10
0.0
 20
0.0
 11
1.0
 21
1.0
 12
144.8170686180032
 22
310.8529486416695
 13
0.0
 23
0.0
 14
0.5
 24
0.5
 15
0.5
 25
0.5
 16
0.0
 26
0.0
 36
1.0
 17
0.0
 27
0.0
 37
0.0
 40
159.8435751040386
 41
1.60267857142857
 42
50.0
 43
0.0
 44
0.0
 50
0.0
 51
0.0
 71
     0
 72
   100
 73
     1
 74
     3
 75
     0
 76
     0
 77
     0
 78
     0
281
     0
 65
     1
110
0.0
120
0.0
130
0.0
111
1.0
121
0.0
131
0.0
112
0.0
122
1.0
132
0.0
 79
     0
146
0.0
  0
ENDTAB
  0
TABLE
  2
LTYPE
  5
5
330
0
100
AcDbSymbolTable
 70
     8
  0
LTYPE
  5
14
330
5
100
AcDbSymbolTableRecord
100
AcDbLinetypeTableRecord
  2
ByBlock
 70
     0
  3

 72
    65
 73
     0
 40
0.0
  0
LTYPE
  5
15
330
5
100
AcDbSymbolTableRecord
100
AcDbLinetypeTableRecord
  2
ByLayer
 70
     0
  3

 72
    65
 73
     0
 40
0.0
  0
LTYPE
  5
16
330
5
100
AcDbSymbolTableRecord
100
AcDbLinetypeTableRecord
  2
Continuous
 70
     0
  3
Solid line
 72
    65
 73
     0
 40
0.0
  0
LTYPE
  5
3B
330
5
100
AcDbSymbolTableRecord
100
AcDbLinetypeTableRecord
  2
DASHED
 70
     0
  3
Dashed
 72
    65
 73
     2
 40
15.0
 49
7.0
 74
     0
 49
-8.0
 74
     0
  0
LTYPE
  5
3C
330
5
100
AcDbSymbolTableRecord
100
AcDbLinetypeTableRecord
  2
DOTTED
 70
     0
  3
Dotted
 72
    65
 73
     2
 40
1.0
 49
0.0
 74
     0
 49
-1.0
 74
     0
  0
LTYPE
  5
3D
330
5
100
AcDbSymbolTableRecord
100
AcDbLinetypeTableRecord
  2
DOT_CENTER
 70
     0
  3
Dot_Center
 72
    65
 73
     4
 40
14.0
 49
12.0
 74
     0
 49
-1.0
 74
     0
 49
0.0
 74
     0
 49
-1.0
 74
     0
  0
LTYPE
  5
3E
330
5
100
AcDbSymbolTableRecord
100
AcDbLinetypeTableRecord
  2
LONG_DASHED
 70
     0
  3
Long_Dashed
 72
    65
 73
     2
 40
15.0
 49
10.0
 74
     0
 49
-5.0
 74
     0
  0
LTYPE
  5
3F
330
5
100
AcDbSymbolTableRecord
100
AcDbLinetypeTableRecord
  2
DASH_CENTER
 70
     0
  3
Dash_Center
 72
    65
 73
     4
 40
14.0
 49
11.0
 74
     0
 49
-1.0
 74
     0
 49
1.0
 74
     0
 49
-1.0
 74
     0
  0
LTYPE
  5
40
330
5
100
AcDbSymbolTableRecord
100
AcDbLinetypeTableRecord
  2
PHANTOM
 70
     0
  3
Phantom
 72
    65
 73
     6
 40
13.0
 49
10.0
 74
     0
 49
-1.0
 74
     0
 49
0.0
 74
     0
 49
-1.0
 74
     0
 49
0.0
 74
     0
 49
-1.0
 74
     0
  0
LTYPE
  5
41
330
5
100
AcDbSymbolTableRecord
100
AcDbLinetypeTableRecord
  2
CENTER_DASH_DASH
 70
     0
  3
Center_Dash_Dash
 72
    65
 73
     6
 40
14.0
 49
9.0
 74
     0
 49
-1.0
 74
     0
 49
1.0
 74
     0
 49
-1.0
 74
     0
 49
1.0
 74
     0
 49
-1.0
 74
     0
  0
ENDTAB
  0
TABLE
  2
LAYER
  5
2
330
0
100
AcDbSymbolTable
 70
     6
  0
LAYER
  5
10
330
2
100
AcDbSymbolTableRecord
100
AcDbLayerTableRecord
  2
0
 70
     0
 62
     7
  6
Continuous
370
    -3
390
F
  0
LAYER
  5
42
330
2
100
AcDbSymbolTableRecord
100
AcDbLayerTableRecord
  2
1
 70
     0
 62
     7
  6
Continuous
370
    -3
390
F
  0
LAYER
  5
43
330
2
100
AcDbSymbolTableRecord
100
AcDbLayerTableRecord
  2
BEZUGSACHSEN
 70
     0
 62
     7
  6
Continuous
370
    -3
390
F
  0
LAYER
  5
44
330
2
100
AcDbSymbolTableRecord
100
AcDbLayerTableRecord
  2
DEFAULT_2
 70
     0
 62
     7
  6
Continuous
370
    -3
390
F
  0
LAYER
  5
45
330
2
100
AcDbSymbolTableRecord
100
AcDbLayerTableRecord
  2
FASEN
 70
     0
 62
     7
  6
Continuous
370
    -3
390
F
  0
LAYER
  5
46
330
2
100
AcDbSymbolTableRecord
100
AcDbLayerTableRecord
  2
RUNDUNGEN
 70
     0
 62
     7
  6
Continuous
370
    -3
390
F
  0
ENDTAB
  0
TABLE
  2
STYLE
  5
3
330
0
100
AcDbSymbolTable
 70
     2
  0
STYLE
  5
11
330
3
100
AcDbSymbolTableRecord
100
AcDbTextStyleTableRecord
  2
Standard
 70
     0
 40
0.0
 41
1.0
 50
0.0
 71
     0
 42
0.2
  3
txt
  4

  0
STYLE
  5
6D
330
3
100
AcDbSymbolTableRecord
100
AcDbTextStyleTableRecord
  2
CONVERTER_11
 70
     0
 40
0.0
 41
0.72
 50
0.0
 71
     0
 42
0.2
  3
txt.shx
  4

  0
ENDTAB
  0
TABLE
  2
VIEW
  5
6
330
0
100
AcDbSymbolTable
 70
     0
  0
ENDTAB
  0
TABLE
  2
UCS
  5
7
330
0
100
AcDbSymbolTable
 70
     0
  0
ENDTAB
  0
TABLE
  2
APPID
  5
9
330
0
100
AcDbSymbolTable
 70
     1
  0
APPID
  5
12
330
9
100
AcDbSymbolTableRecord
100
AcDbRegAppTableRecord
  2
ACAD
 70
     0
  0
ENDTAB
  0
TABLE
  2
DIMSTYLE
  5
A
330
0
100
AcDbSymbolTable
 70
     8
100
AcDbDimStyleTable
  0
DIMSTYLE
105
27
330
A
100
AcDbSymbolTableRecord
100
AcDbDimStyleTableRecord
  2
Standard
 70
     0
340
11
  0
DIMSTYLE
105
108
102
{ACAD_REACTORS
330
109
102
}
330
A
100
AcDbSymbolTableRecord
100
AcDbDimStyleTableRecord
  2
ME10_DIM_10
 70
     0
  3
\U+2300<>
 41
3.5
 42
2.0
 44
2.0
 71
     1
 73
     0
 74
     0
 77
     1
 78
     8
140
3.5
146
0.7
147
2.0
172
     1
173
     1
176
     2
177
     2
178
     3
271
     2
272
     0
340
6D
  0
DIMSTYLE
105
113
102
{ACAD_REACTORS
330
114
102
}
330
A
100
AcDbSymbolTableRecord
100
AcDbDimStyleTableRecord
  2
ME10_DIM_11
 70
     0
  3
\U+2300<>
 41
3.5
 42
2.0
 44
2.0
 71
     1
 73
     0
 74
     0
 77
     1
 78
     8
140
3.5
146
0.7
147
2.0
172
     1
173
     1
176
     2
177
     2
178
     3
271
     2
272
     0
340
6D
  0
DIMSTYLE
105
11E
102
{ACAD_REACTORS
330
11F
102
}
330
A
100
AcDbSymbolTableRecord
100
AcDbDimStyleTableRecord
  2
ME10_DIM_12
 70
     0
  3
\U+2300<>
 41
3.5
 42
2.0
 44
2.0
 71
     1
 73
     0
 74
     0
 77
     1
 78
     8
140
3.5
146
0.7
147
2.0
172
     1
173
     1
176
     2
177
     2
178
     3
271
     2
272
     0
340
6D
  0
DIMSTYLE
105
129
102
{ACAD_REACTORS
330
12A
102
}
330
A
100
AcDbSymbolTableRecord
100
AcDbDimStyleTableRecord
  2
ME10_DIM_13
 70
     0
  3
<>
 41
3.5
 42
2.0
 44
2.0
 71
     1
 73
     0
 74
     0
 77
     1
 78
     8
140
3.5
146
0.7
147
2.0
172
     1
173
     1
176
     2
177
     2
178
     3
271
     2
272
     0
340
6D
  0
DIMSTYLE
105
134
102
{ACAD_REACTORS
330
135
102
}
330
A
100
AcDbSymbolTableRecord
100
AcDbDimStyleTableRecord
  2
ME10_DIM_14
 70
     0
  3
<>
 41
3.5
 42
2.0
 44
2.0
 71
     1
 73
     0
 74
     0
 77
     1
 78
     8
140
3.5
146
0.7
147
2.0
172
     1
173
     1
176
     2
177
     2
178
     3
271
     2
272
     0
340
6D
  0
DIMSTYLE
105
13F
102
{ACAD_REACTORS
330
140
102
}
330
A
100
AcDbSymbolTableRecord
100
AcDbDimStyleTableRecord
  2
ME10_DIM_15
 70
     0
  3
<>
 41
3.5
 42
2.0
 44
2.0
 71
     1
 73
     0
 74
     0
 77
     1
 78
     8
140
3.5
146
0.7
147
2.0
172
     1
173
     1
176
     2
177
     2
178
     3
271
     2
272
     0
340
6D
  0
DIMSTYLE
105
151
102
{ACAD_REACTORS
330
152
102
}
330
A
100
AcDbSymbolTableRecord
100
AcDbDimStyleTableRecord
  2
ME10_DIM_16
 70
     0
  3
<>
 41
3.5
 42
2.0
 44
2.0
 71
     1
 73
     0
 74
     0
 77
     1
 78
     8
140
3.5
146
0.7
147
2.0
172
     1
173
     1
176
     2
177
     2
178
     3
271
     2
272
     0
340
6D
  0
ENDTAB
  0
TABLE
  2
BLOCK_RECORD
  5
1
330
0
100
AcDbSymbolTable
 70
    10
  0
BLOCK_RECORD
  5
1F
330
1
100
AcDbSymbolTableRecord
100
AcDbBlockTableRecord
  2
*Model_Space
340
22
  0
BLOCK_RECORD
  5
1B
330
1
100
AcDbSymbolTableRecord
100
AcDbBlockTableRecord
  2
*Paper_Space
340
1E
  0
BLOCK_RECORD
  5
23
330
1
100
AcDbSymbolTableRecord
100
AcDbBlockTableRecord
  2
*Paper_Space0
340
26
  0
BLOCK_RECORD
  5
47
330
1
100
AcDbSymbolTableRecord
100
AcDbBlockTableRecord
  2
Urheberrecht_DE-EN
340
0
102
{BLKREFS
331
6C
102
}
  0
BLOCK_RECORD
  5
FD
330
1
100
AcDbSymbolTableRecord
100
AcDbBlockTableRecord
  2
*D2
340
0
  0
BLOCK_RECORD
  5
10A
330
1
100
AcDbSymbolTableRecord
100
AcDbBlockTableRecord
  2
*D3
340
0
  0
BLOCK_RECORD
  5
115
330
1
100
AcDbSymbolTableRecord
100
AcDbBlockTableRecord
  2
*D4
340
0
  0
BLOCK_RECORD
  5
120
330
1
100
AcDbSymbolTableRecord
100
AcDbBlockTableRecord
  2
*D5
340
0
  0
BLOCK_RECORD
  5
12B
330
1
100
AcDbSymbolTableRecord
100
AcDbBlockTableRecord
  2
*D6
340
0
  0
BLOCK_RECORD
  5
136
330
1
100
AcDbSymbolTableRecord
100
AcDbBlockTableRecord
  2
*D7
340
0
  0
BLOCK_RECORD
  5
141
330
1
100
AcDbSymbolTableRecord
100
AcDbBlockTableRecord
  2
*D8
340
0
102
{BLKREFS
331
147
102
}
  0
BLOCK_RECORD
  5
148
330
1
100
AcDbSymbolTableRecord
100
AcDbBlockTableRecord
  2
*D9
340
0
  0
ENDTAB
  0
ENDSEC
  0
SECTION
  2
BLOCKS
  0
BLOCK
  5
20
330
1F
100
AcDbEntity
  8
0
100
AcDbBlockBegin
  2
*Model_Space
 70
     0
 10
0.0
 20
0.0
 30
0.0
  3
*Model_Space
  1

  0
ENDBLK
  5
21
330
1F
100
AcDbEntity
  8
0
100
AcDbBlockEnd
  0
BLOCK
  5
1C
330
1B
100
AcDbEntity
 67
     1
  8
0
100
AcDbBlockBegin
  2
*Paper_Space
 70
     0
 10
0.0
 20
0.0
 30
0.0
  3
*Paper_Space
  1

  0
ENDBLK
  5
1D
330
1B
100
AcDbEntity
 67
     1
  8
0
100
AcDbBlockEnd
  0
BLOCK
  5
24
330
23
100
AcDbEntity
  8
0
100
AcDbBlockBegin
  2
*Paper_Space0
 70
     0
 10
0.0
 20
0.0
 30
0.0
  3
*Paper_Space0
  1

  0
ENDBLK
  5
25
330
23
100
AcDbEntity
  8
0
100
AcDbBlockEnd
  0
BLOCK
  5
48
330
47
100
AcDbEntity
  8
0
100
AcDbBlockBegin
  2
Urheberrecht_DE-EN
 70
     0
 10
42.3725810726504
 20
309.870320851053
 30
0.0
  3
Urheberrecht_DE-EN
  1

  0
MTEXT
  5
6E
330
47
100
AcDbEntity
  8
1
 62
     1
100
AcDbMText
 10
42.3725810726504
 20
309.870320851053
 30
0.0
 40
2.0
 41
0.0
 71
     7
 72
     1
  1
We own the copyright of this document. It \Pdetermined and may neither be copied or \Pmade accessible to outsiders without our\Ppermission.
  7
CONVERTER_11
 11
0.0
 21
1.0
 31
0.0
 73
     1
 44
0.90036014405762
  0
MTEXT
  5
6F
330
47
100
AcDbEntity
  8
1
 62
     1
100
AcDbMText
 10
42.3725810726504
 20
253.5809339337468
 30
0.0
 40
2.0
 41
0.0
 71
     7
 72
     1
  1
F\U+00fcr diese Unterlage behalten wir das Ur-\Pheberrecht. Sie darf nur f\U+00fcr den von uns \Pbestimmten Zweck benutzt und ohne unsere \PZustimmung weder vervielf\U+00e4ltigt noch\PDritten zug\U+00e4nglich gemacht werden.
  7
CONVERTER_11
 11
0.0
 21
1.0
 31
0.0
 73
     1
 44
0.90036014405762
  0
ENDBLK
  5
49
330
47
100
AcDbEntity
  8
0
100
AcDbBlockEnd
  0
BLOCK
  5
106
330
FD
100
AcDbEntity
  8
0
100
AcDbBlockBegin
  2
*D2
 70
     1
 10
0.0
 20
0.0
 30
0.0
  3
*D2
  1

  0
LINE
  5
FE
330
FD
100
AcDbEntity
  8
1
  6
Continuous
 62
     2
100
AcDbLine
 10
240.600344961522
 20
308.3052144673
 30
0.0
 11
240.600344961522
 21
301.3052144673
 31
0.0
  0
LINE
  5
FF
330
FD
100
AcDbEntity
  8
1
  6
Continuous
 62
     2
100
AcDbLine
 10
240.600344961522
 20
301.3052144673
 30
0.0
 11
240.600344961522
 21
293.3052144673
 31
0.0
  0
LINE
  5
100
330
FD
100
AcDbEntity
  8
1
  6
Continuous
 62
     2
100
AcDbLine
 10
240.600344961522
 20
293.3052144673
 30
0.0
 11
240.600344961522
 21
286.3052144673
 31
0.0
  0
LINE
  5
101
330
FD
100
AcDbEntity
  8
1
  6
Continuous
 62
     2
100
AcDbLine
 10
230.7740648421
 20
301.3052144673
 30
0.0
 11
242.600344961522
 21
301.3052144673
 31
0.0
  0
LINE
  5
102
330
FD
100
AcDbEntity
  8
1
  6
Continuous
 62
     2
100
AcDbLine
 10
230.7740648421
 20
293.3052144673
 30
0.0
 11
242.600344961522
 21
293.3052144673
 31
0.0
  0
SOLID
  5
103
330
FD
100
AcDbEntity
  8
1
 62
     2
100
AcDbTrace
 10
240.1395612199661
 20
304.8052144673
 30
0.0
 11
241.0611287030779
 21
304.8052144673
 31
0.0
 12
240.600344961522
 22
301.3052144673
 32
0.0
 13
240.600344961522
 23
301.3052144673
 33
0.0
  0
SOLID
  5
104
330
FD
100
AcDbEntity
  8
1
 62
     2
100
AcDbTrace
 10
241.0611287030779
 20
289.8052144673
 30
0.0
 11
240.1395612199661
 21
289.8052144673
 31
0.0
 12
240.600344961522
 22
293.3052144673
 32
0.0
 13
240.600344961522
 23
293.3052144673
 33
0.0
  0
MTEXT
  5
105
330
FD
100
AcDbEntity
  8
1
 62
     3
100
AcDbMText
 10
238.600344961522
 20
289.897986890653
 30
0.0
 40
3.5
 41
0.0
 71
     7
 72
     1
  1
\C3;%%c\C3;\C3;8\C2;\H2.45;\S^ ;\C3;
  7
CONVERTER_11
 11
0.0
 21
1.0
 31
0.0
 73
     1
 44
0.60024009603842
  0
ENDBLK
  5
107
330
FD
100
AcDbEntity
  8
0
100
AcDbBlockEnd
  0
BLOCK
  5
111
330
10A
100
AcDbEntity
  8
0
100
AcDbBlockBegin
  2
*D3
 70
     1
 10
0.0
 20
0.0
 30
0.0
  3
*D3
  1

  0
LINE
  5
10B
330
10A
100
AcDbEntity
  8
1
  6
Continuous
 62
     2
100
AcDbLine
 10
250.883053174777
 20
307.8052144673466
 30
0.0
 11
250.883053174777
 21
286.8052144673487
 31
0.0
  0
LINE
  5
10C
330
10A
100
AcDbEntity
  8
1
  6
Continuous
 62
     2
100
AcDbLine
 10
230.7740648421
 20
307.8052144673466
 30
0.0
 11
252.883053174777
 21
307.8052144673466
 31
0.0
  0
LINE
  5
10D
330
10A
100
AcDbEntity
  8
1
  6
Continuous
 62
     2
100
AcDbLine
 10
230.7740648421
 20
286.8052144673487
 30
0.0
 11
252.883053174777
 21
286.8052144673487
 31
0.0
  0
SOLID
  5
10E
330
10A
100
AcDbEntity
  8
1
 62
     2
100
AcDbTrace
 10
251.3438369163329
 20
304.3052144673466
 30
0.0
 11
250.4222694332211
 21
304.3052144673466
 31
0.0
 12
250.883053174777
 22
307.8052144673466
 32
0.0
 13
250.883053174777
 23
307.8052144673466
 33
0.0
  0
SOLID
  5
10F
330
10A
100
AcDbEntity
  8
1
 62
     2
100
AcDbTrace
 10
250.4222694332211
 20
290.3052144673487
 30
0.0
 11
251.3438369163329
 21
290.3052144673487
 31
0.0
 12
250.883053174777
 22
286.8052144673487
 32
0.0
 13
250.883053174777
 23
286.8052144673487
 33
0.0
  0
MTEXT
  5
110
330
10A
100
AcDbEntity
  8
1
 62
     3
100
AcDbMText
 10
248.883053174777
 20
288.677145845717
 30
0.0
 40
3.5
 41
0.0
 71
     7
 72
     1
  1
\C3;%%c\C3;\C3;21\C2;\H2.45;\S^ ;\C3;
  7
CONVERTER_11
 11
0.0
 21
1.0
 31
0.0
 73
     1
 44
0.60024009603842
  0
ENDBLK
  5
112
330
10A
100
AcDbEntity
  8
0
100
AcDbBlockEnd
  0
BLOCK
  5
11C
330
115
100
AcDbEntity
  8
0
100
AcDbBlockBegin
  2
*D4
 70
     1
 10
0.0
 20
0.0
 30
0.0
  3
*D4
  1

  0
LINE
  5
116
330
115
100
AcDbEntity
  8
1
  6
Continuous
 62
     2
100
AcDbLine
 10
259.261556163356
 20
310.8052144673
 30
0.0
 11
259.261556163356
 21
283.8052144673
 31
0.0
  0
LINE
  5
117
330
115
100
AcDbEntity
  8
1
  6
Continuous
 62
     2
100
AcDbLine
 10
192.6554506336
 20
310.8052144673
 30
0.0
 11
261.261556163356
 21
310.8052144673
 31
0.0
  0
LINE
  5
118
330
115
100
AcDbEntity
  8
1
  6
Continuous
 62
     2
100
AcDbLine
 10
192.6554506336
 20
283.8052144673
 30
0.0
 11
261.261556163356
 21
283.8052144673
 31
0.0
  0
SOLID
  5
119
330
115
100
AcDbEntity
  8
1
 62
     2
100
AcDbTrace
 10
259.7223399049118
 20
307.3052144673
 30
0.0
 11
258.8007724218001
 21
307.3052144673
 31
0.0
 12
259.261556163356
 22
310.8052144673
 32
0.0
 13
259.261556163356
 23
310.8052144673
 33
0.0
  0
SOLID
  5
11A
330
115
100
AcDbEntity
  8
1
 62
     2
100
AcDbTrace
 10
258.8007724218001
 20
287.3052144673
 30
0.0
 11
259.7223399049118
 21
287.3052144673
 31
0.0
 12
259.261556163356
 22
283.8052144673
 32
0.0
 13
259.261556163356
 23
283.8052144673
 33
0.0
  0
MTEXT
  5
11B
330
115
100
AcDbEntity
  8
1
 62
     3
100
AcDbMText
 10
257.261556163356
 20
288.257145845717
 30
0.0
 40
3.5
 41
0.0
 71
     7
 72
     1
  1
\C3;%%c\C3;\C3;27\C2;\H2.45;\S^ ;\C3;
  7
CONVERTER_11
 11
0.0
 21
1.0
 31
0.0
 73
     1
 44
0.60024009603842
  0
ENDBLK
  5
11D
330
115
100
AcDbEntity
  8
0
100
AcDbBlockEnd
  0
BLOCK
  5
127
330
120
100
AcDbEntity
  8
0
100
AcDbBlockBegin
  2
*D5
 70
     1
 10
0.0
 20
0.0
 30
0.0
  3
*D5
  1

  0
LINE
  5
121
330
120
100
AcDbEntity
  8
1
  6
Continuous
 62
     2
100
AcDbLine
 10
228.7740648421
 20
354.619143630962
 30
0.0
 11
127.7740648421
 21
354.619143630962
 31
0.0
  0
LINE
  5
122
330
120
100
AcDbEntity
  8
1
  6
Continuous
 62
     2
100
AcDbLine
 10
228.7740648421
 20
308.8808239757
 30
0.0
 11
228.7740648421
 21
356.619143630962
 31
0.0
  0
LINE
  5
123
330
120
100
AcDbEntity
  8
1
  6
Continuous
 62
     2
100
AcDbLine
 10
127.7740648421
 20
349.3051775462
 30
0.0
 11
127.7740648421
 21
356.619143630962
 31
0.0
  0
SOLID
  5
124
330
120
100
AcDbEntity
  8
1
 62
     2
100
AcDbTrace
 10
225.2740648421
 20
354.1583598894061
 30
0.0
 11
225.2740648421
 21
355.0799273725179
 31
0.0
 12
228.7740648421
 22
354.619143630962
 32
0.0
 13
228.7740648421
 23
354.619143630962
 33
0.0
  0
SOLID
  5
125
330
120
100
AcDbEntity
  8
1
 62
     2
100
AcDbTrace
 10
131.2740648421
 20
355.0799273725179
 30
0.0
 11
131.2740648421
 21
354.1583598894061
 31
0.0
 12
127.7740648421
 22
354.619143630962
 32
0.0
 13
127.7740648421
 23
354.619143630962
 33
0.0
  0
MTEXT
  5
126
330
120
100
AcDbEntity
  8
1
 62
     3
100
AcDbMText
 10
175.241572547182
 20
356.619143630962
 30
0.0
 40
3.5
 41
0.0
 71
     7
 72
     1
  1
\C3;\C3;\C3;101\C2;\H2.45;\S^ ;\C3;
  7
CONVERTER_11
 11
0.9999999999970619
 21
2.424068405545306E-6
 31
0.0
 73
     1
 44
0.60024009603842
  0
ENDBLK
  5
128
330
120
100
AcDbEntity
  8
0
100
AcDbBlockEnd
  0
BLOCK
  5
132
330
12B
100
AcDbEntity
  8
0
100
AcDbBlockBegin
  2
*D6
 70
     1
 10
0.0
 20
0.0
 30
0.0
  3
*D6
  1

  0
LINE
  5
12C
330
12B
100
AcDbEntity
  8
1
  6
Continuous
 62
     2
100
AcDbLine
 10
228.7740648421
 20
361.474282439799
 30
0.0
 11
98.7740648421
 21
361.474282439799
 31
0.0
  0
LINE
  5
12D
330
12B
100
AcDbEntity
  8
1
  6
Continuous
 62
     2
100
AcDbLine
 10
228.7740648421
 20
308.8808239757
 30
0.0
 11
228.7740648421
 21
363.474282439799
 31
0.0
  0
LINE
  5
12E
330
12B
100
AcDbEntity
  8
1
  6
Continuous
 62
     2
100
AcDbLine
 10
98.7740648421
 20
349.3052144673
 30
0.0
 11
98.7740648421
 21
363.474282439799
 31
0.0
  0
SOLID
  5
12F
330
12B
100
AcDbEntity
  8
1
 62
     2
100
AcDbTrace
 10
225.2740648421
 20
361.0134986982432
 30
0.0
 11
225.2740648421
 21
361.9350661813549
 31
0.0
 12
228.7740648421
 22
361.474282439799
 32
0.0
 13
228.7740648421
 23
361.474282439799
 33
0.0
  0
SOLID
  5
130
330
12B
100
AcDbEntity
  8
1
 62
     2
100
AcDbTrace
 10
102.2740648421
 20
361.9350661813549
 30
0.0
 11
102.2740648421
 21
361.0134986982432
 31
0.0
 12
98.7740648421
 22
361.474282439799
 32
0.0
 13
98.7740648421
 23
361.474282439799
 33
0.0
  0
MTEXT
  5
131
330
12B
100
AcDbEntity
  8
1
 62
     3
100
AcDbMText
 10
162.63465910925
 20
363.474282439799
 30
0.0
 40
3.5
 41
0.0
 71
     7
 72
     1
  1
\C3;\C3;\C3;130\C2;\H2.45;\S^ ;\C3;
  7
CONVERTER_11
 11
0.9999999999970619
 21
2.424068405545306E-6
 31
0.0
 73
     1
 44
0.60024009603842
  0
ENDBLK
  5
133
330
12B
100
AcDbEntity
  8
0
100
AcDbBlockEnd
  0
BLOCK
  5
13D
330
136
100
AcDbEntity
  8
0
100
AcDbBlockBegin
  2
*D7
 70
     1
 10
0.0
 20
0.0
 30
0.0
  3
*D7
  1

  0
LINE
  5
137
330
136
100
AcDbEntity
  8
1
  6
Continuous
 62
     2
100
AcDbLine
 10
228.7740648421
 20
368.900682816039
 30
0.0
 11
48.7740648421
 21
368.900682816039
 31
0.0
  0
LINE
  5
138
330
136
100
AcDbEntity
  8
1
  6
Continuous
 62
     2
100
AcDbLine
 10
228.7740648421
 20
308.8808239757
 30
0.0
 11
228.7740648421
 21
370.900682816039
 31
0.0
  0
LINE
  5
139
330
136
100
AcDbEntity
  8
1
  6
Continuous
 62
     2
100
AcDbLine
 10
48.7740648421
 20
332.9054060299
 30
0.0
 11
48.7740648421
 21
370.900682816039
 31
0.0
  0
SOLID
  5
13A
330
136
100
AcDbEntity
  8
1
 62
     2
100
AcDbTrace
 10
225.2740648421
 20
368.4398990744832
 30
0.0
 11
225.2740648421
 21
369.3614665575949
 31
0.0
 12
228.7740648421
 22
368.900682816039
 32
0.0
 13
228.7740648421
 23
368.900682816039
 33
0.0
  0
SOLID
  5
13B
330
136
100
AcDbEntity
  8
1
 62
     2
100
AcDbTrace
 10
52.2740648421
 20
369.3614665575949
 30
0.0
 11
52.2740648421
 21
368.4398990744832
 31
0.0
 12
48.7740648421
 22
368.900682816039
 32
0.0
 13
48.7740648421
 23
368.900682816039
 33
0.0
  0
MTEXT
  5
13C
330
136
100
AcDbEntity
  8
1
 62
     3
100
AcDbMText
 10
144.354288952351
 20
370.900682816039
 30
0.0
 40
3.5
 41
0.0
 71
     7
 72
     1
  1
\C3;\C3;\C3;180\C2;\H2.45;\S^ ;\C3;
  7
CONVERTER_11
 11
0.9999999999970619
 21
2.424068405545306E-6
 31
0.0
 73
     1
 44
0.60024009603842
  0
ENDBLK
  5
13E
330
136
100
AcDbEntity
  8
0
100
AcDbBlockEnd
  0
BLOCK
  5
145
330
141
100
AcDbEntity
  8
0
100
AcDbBlockBegin
  2
*D8
 70
     1
 10
0.0
 20
0.0
 30
0.0
  3
*D8
  1

  0
LINE
  5
142
330
141
100
AcDbEntity
  8
1
  6
Continuous
 62
     2
100
AcDbLine
 10
144.107867082776
 20
326.4944365056364
 30
0.0
 11
134.8169184605156
 21
315.5699803815962
 31
0.0
  0
SOLID
  5
143
330
141
100
AcDbEntity
  8
1
 62
     2
100
AcDbTrace
 10
136.7334116690182
 20
318.5346684660741
 30
0.0
 11
137.4354264855673
 21
317.9376242271147
 31
0.0
 12
134.8169184605156
 22
315.5699803815962
 32
0.0
 13
134.8169184605156
 23
315.5699803815962
 33
0.0
  0
MTEXT
  5
144
330
141
100
AcDbEntity
  8
1
 62
     3
100
AcDbMText
 10
136.1446419225582
 20
320.2182398032
 30
0.0
 40
3.5
 41
0.0
 71
     7
 72
     1
  1
\C3; R\C3;\C3;20\C2;\H2.45;\S^ ;\C3;
  7
CONVERTER_11
 11
0.6478573190792214
 21
0.7617617042851944
 31
0.0
 73
     1
 44
0.60024009603842
  0
ENDBLK
  5
146
330
141
100
AcDbEntity
  8
0
100
AcDbBlockEnd
  0
BLOCK
  5
14F
330
148
100
AcDbEntity
  8
0
100
AcDbBlockBegin
  2
*D9
 70
     1
 10
0.0
 20
0.0
 30
0.0
  3
*D9
  1

  0
LINE
  5
149
330
148
100
AcDbEntity
  8
1
  6
Continuous
 62
     2
100
AcDbLine
 10
214.7765682162327
 20
310.8052144673
 30
0.0
 11
216.7765682162327
 21
310.8052144673
 31
0.0
  0
LINE
  5
14A
330
148
100
AcDbEntity
  8
1
  6
Continuous
 62
     2
100
AcDbLine
 10
192.6554506336001
 20
310.8052144673
 30
0.0
 11
214.7765682162327
 21
310.8052144673
 31
0.0
  0
ARC
  5
14B
330
148
100
AcDbEntity
  8
1
  6
Continuous
 62
     2
100
AcDbCircle
 10
190.6554506336001
 20
310.8052144673
 30
0.0
 40
24.12111758263263
100
AcDbArc
 50
343.0294815253714
 51
20.98351997477635
  0
SOLID
  5
14C
330
148
100
AcDbEntity
  8
1
 62
     2
100
AcDbTrace
 10
214.6309386149508
 20
305.3832115730203
 30
0.0
 11
213.7198700432646
 21
305.5219223642905
 31
0.0
 12
214.7022108607425
 22
308.9126933938351
 32
0.0
 13
214.7022108607425
 23
308.9126933938351
 33
0.0
  0
SOLID
  5
14D
330
148
100
AcDbEntity
  8
1
 62
     2
100
AcDbTrace
 10
214.0632924564518
 20
314.2626064536087
 30
0.0
 11
214.9824356310359
 21
314.3294080295216
 31
0.0
 12
214.7765682162327
 22
310.8052144673
 32
0.0
 13
214.7765682162327
 23
310.8052144673
 33
0.0
  0
MTEXT
  5
14E
330
148
100
AcDbEntity
  8
1
 62
     3
100
AcDbMText
 10
215.2666278935334
 20
320.2444391518733
 30
0.0
 40
3.5
 41
0.0
 71
     7
 72
     1
  1
\C3;\C3;\C3;4.5%%d\C2;\H2.45;\S^ ;\C3;
  7
CONVERTER_11
 11
0.229649564481348
 21
-0.9732733827314539
 31
0.0
 73
     1
 44
0.60024009603842
  0
ENDBLK
  5
150
330
148
100
AcDbEntity
  8
0
100
AcDbBlockEnd
  0
ENDSEC
  0
SECTION
  2
ENTITIES
  0
INSERT
  5
6C
330
1F
100
AcDbEntity
  8
0
100
AcDbBlockReference
  2
Urheberrecht_DE-EN
 10
42.3725810726504
 20
309.870320851053
 30
0.0
  0
LINE
  5
70
330
1F
100
AcDbEntity
  8
BEZUGSACHSEN
  6
Continuous
 62
     7
100
AcDbLine
 10
48.7740648421
 20
263.7050229044
 30
0.0
 11
48.7740648421
 21
285.2952144673
 31
0.0
  0
LINE
  5
71
330
1F
100
AcDbEntity
  8
BEZUGSACHSEN
  6
Continuous
 62
     7
100
AcDbLine
 10
48.7740648421
 20
309.3152144673
 30
0.0
 11
48.7740648421
 21
330.9054060299
 31
0.0
  0
LINE
  5
72
330
1F
100
AcDbEntity
  8
BEZUGSACHSEN
  6
Continuous
 62
     9
100
AcDbLine
 10
50.6739903573
 20
332.9029007357
 30
0.0
 11
50.6739903573
 21
312.9817468536
 31
0.0
  0
LINE
  5
73
330
1F
100
AcDbEntity
  8
BEZUGSACHSEN
  6
Continuous
 62
     9
100
AcDbLine
 10
50.6739903573
 20
281.6286820811
 30
0.0
 11
50.6739903573
 21
261.707528199
 31
0.0
  0
LINE
  5
74
330
1F
100
AcDbEntity
  8
BEZUGSACHSEN
  6
Continuous
 62
     7
100
AcDbLine
 10
50.7740648421
 20
284.901574519
 30
0.0
 11
50.7740648421
 21
287.2952144673
 31
0.0
  0
LINE
  5
75
330
1F
100
AcDbEntity
  8
BEZUGSACHSEN
  6
Continuous
 62
     7
100
AcDbLine
 10
50.7740648421
 20
307.3152144673
 30
0.0
 11
50.7740648421
 21
309.7088544157
 31
0.0
  0
LINE
  5
76
330
1F
100
AcDbEntity
  8
BEZUGSACHSEN
  6
Continuous
 62
     9
100
AcDbLine
 10
56.7740648421
 20
280.9465668799
 30
0.0
 11
56.7740648421
 21
287.2952144673
 31
0.0
  0
LINE
  5
77
330
1F
100
AcDbEntity
  8
BEZUGSACHSEN
  6
Continuous
 62
     9
100
AcDbLine
 10
56.7740648421
 20
307.3152144673
 30
0.0
 11
56.7740648421
 21
313.6638620548
 31
0.0
  0
LINE
  5
78
330
1F
100
AcDbEntity
  8
BEZUGSACHSEN
  6
Continuous
 62
     7
100
AcDbLine
 10
58.7740648421
 20
310.1748699931
 30
0.0
 11
58.7740648421
 21
284.4355589416
 31
0.0
  0
LINE
  5
79
330
1F
100
AcDbEntity
  8
BEZUGSACHSEN
  6
Continuous
 62
     7
100
AcDbLine
 10
50.0410177691
 20
282.2952144673
 30
0.0
 11
49.9199075177
 21
282.0628784719
 31
0.0
  0
LINE
  5
7A
330
1F
100
AcDbEntity
  8
BEZUGSACHSEN
  6
Continuous
 62
     7
100
AcDbLine
 10
49.9199075177
 20
312.5475504628
 30
0.0
 11
50.0410177691
 21
312.3152144673
 31
0.0
  0
LWPOLYLINE
  5
7B
330
1F
100
AcDbEntity
  8
BEZUGSACHSEN
  6
DOT_CENTER
 62
     7
100
AcDbPolyline
 90
        2
 70
     0
 43
0.25
 10
83.7740648421
 20
297.3052144673
 10
83.7740648421
 20
288.3052144673
  0
LWPOLYLINE
  5
7C
330
1F
100
AcDbEntity
  8
BEZUGSACHSEN
  6
DOT_CENTER
 62
     7
100
AcDbPolyline
 90
        2
 70
     0
 43
0.25
 10
83.7740648421
 20
297.3052144673
 10
83.7740648421
 20
306.3052144673
  0
LINE
  5
7D
330
1F
100
AcDbEntity
  8
BEZUGSACHSEN
  6
Continuous
 62
     7
100
AcDbLine
 10
48.7740648421
 20
285.2952144673
 30
0.0
 11
50.7740648421
 21
287.2952144673
 31
0.0
  0
LINE
  5
7E
330
1F
100
AcDbEntity
  8
BEZUGSACHSEN
  6
Continuous
 62
     7
100
AcDbLine
 10
50.7740648421
 20
307.3152144673
 30
0.0
 11
48.7740648421
 21
309.3152144673
 31
0.0
  0
LINE
  5
7F
330
1F
100
AcDbEntity
  8
BEZUGSACHSEN
  6
Continuous
 62
     7
100
AcDbLine
 10
115.5264695779
 20
247.3052144673
 30
0.0
 11
98.7740648421
 21
247.3052144673
 31
0.0
  0
LINE
  5
80
330
1F
100
AcDbEntity
  8
BEZUGSACHSEN
  6
Continuous
 62
     7
100
AcDbLine
 10
122.0216601063
 20
247.3052144673
 30
0.0
 11
127.7740648421
 21
247.3052144673
 31
0.0
  0
LINE
  5
81
330
1F
100
AcDbEntity
  8
BEZUGSACHSEN
  6
Continuous
 62
     7
100
AcDbLine
 10
96.2740648421
 20
335.1874644673
 30
0.0
 11
96.2740648421
 21
259.4229644673
 31
0.0
  0
LINE
  5
82
330
1F
100
AcDbEntity
  8
BEZUGSACHSEN
  6
Continuous
 62
     9
100
AcDbLine
 10
96.8933084561
 20
259.5888902936
 30
0.0
 11
96.8933084561
 21
335.0215386411
 31
0.0
  0
LINE
  5
83
330
1F
100
AcDbEntity
  8
BEZUGSACHSEN
  6
Continuous
 62
     9
100
AcDbLine
 10
97.1521275012
 20
259.6229644673
 30
0.0
 11
97.1521275012
 21
334.9874644673
 31
0.0
  0
LINE
  5
84
330
1F
100
AcDbEntity
  8
BEZUGSACHSEN
  6
Continuous
 62
     9
100
AcDbLine
 10
98.0734935534
 20
259.6229644673
 30
0.0
 11
98.0734935534
 21
334.9874644673
 31
0.0
  0
LINE
  5
85
330
1F
100
AcDbEntity
  8
BEZUGSACHSEN
  6
Continuous
 62
     7
100
AcDbLine
 10
117.8990648421
 20
251.3052144673
 30
0.0
 11
119.6490648421
 21
251.3052144673
 31
0.0
  0
LINE
  5
86
330
1F
100
AcDbEntity
  8
BEZUGSACHSEN
  6
Continuous
 62
     7
100
AcDbLine
 10
98.7740648421
 20
347.3052144673
 30
0.0
 11
98.7740648421
 21
247.3052144673
 31
0.0
  0
LINE
  5
87
330
1F
100
AcDbEntity
  8
BEZUGSACHSEN
  6
Continuous
 62
     7
100
AcDbLine
 10
120.6490648421
 20
344.9278097315
 30
0.0
 11
122.0216601063
 21
347.3052144673
 31
0.0
  0
LINE
  5
88
330
1F
100
AcDbEntity
  8
FASEN
  6
Continuous
 62
     7
100
AcDbLine
 10
104.1755508065
 20
258.4754578366
 30
0.0
 11
115.5264695779
 21
258.4754578366
 31
0.0
  0
LINE
  5
89
330
1F
100
AcDbEntity
  8
0
  6
Continuous
 62
     7
100
AcDbLine
 10
122.0216601063
 20
258.4754578366
 30
0.0
 11
127.7740648421
 21
258.4754578366
 31
0.0
  0
LINE
  5
8A
330
1F
100
AcDbEntity
  8
BEZUGSACHSEN
  6
Continuous
 62
     7
100
AcDbLine
 10
98.0734935534
 20
259.6229644673
 30
0.0
 11
97.1521275012
 21
259.6229644673
 31
0.0
  0
LINE
  5
8B
330
1F
100
AcDbEntity
  8
0
  6
Continuous
 62
     7
100
AcDbLine
 10
117.8990648421
 20
263.7828338836
 30
0.0
 11
119.6490648421
 21
263.7828338836
 31
0.0
  0
LINE
  5
8C
330
1F
100
AcDbEntity
  8
BEZUGSACHSEN
  6
Continuous
 62
     7
100
AcDbLine
 10
96.2740648421
 20
259.4229644673
 30
0.0
 11
50.6739903573
 21
261.707528199
 31
0.0
  0
LINE
  5
8D
330
1F
100
AcDbEntity
  8
BEZUGSACHSEN
  6
Continuous
 62
     7
100
AcDbLine
 10
120.6490648421
 20
249.6826192032
 30
0.0
 11
122.0216601063
 21
247.3052144673
 31
0.0
  0
LWPOLYLINE
  5
8E
330
1F
100
AcDbEntity
  8
BEZUGSACHSEN
  6
DOT_CENTER
 62
     7
100
AcDbPolyline
 90
        2
 70
     0
 43
0.25
 10
105.7740648421
 20
339.4545863227
 10
105.7740648421
 20
350.3052144673
  0
LINE
  5
8F
330
1F
100
AcDbEntity
  8
FASEN
  6
Continuous
 62
     9
100
AcDbLine
 10
111.7459387639
 20
265.4052144673
 30
0.0
 11
111.7459387639
 21
265.8052144673
 31
0.0
  0
LINE
  5
90
330
1F
100
AcDbEntity
  8
BEZUGSACHSEN
  6
Continuous
 62
     9
100
AcDbLine
 10
48.7740648421
 20
283.8590304983
 30
0.0
 11
50.7740648421
 21
284.901574519
 31
0.0
  0
LINE
  5
91
330
1F
100
AcDbEntity
  8
FASEN
  6
Continuous
 62
     7
100
AcDbLine
 10
111.7459387639
 20
265.4052144673
 30
0.0
 11
127.7740648421
 21
265.4052144673
 31
0.0
  0
LINE
  5
92
330
1F
100
AcDbEntity
  8
0
  6
Continuous
 62
     7
100
AcDbLine
 10
111.7459387639
 20
265.8052144673
 30
0.0
 11
127.7740648421
 21
265.8052144673
 31
0.0
  0
LINE
  5
93
330
1F
100
AcDbEntity
  8
BEZUGSACHSEN
  6
Continuous
 62
     9
100
AcDbLine
 10
50.7740648421
 20
309.7088544157
 30
0.0
 11
48.7740648421
 21
310.7513984364
 31
0.0
  0
LINE
  5
94
330
1F
100
AcDbEntity
  8
FASEN
  6
Continuous
 62
     9
100
AcDbLine
 10
113.7740648421
 20
287.7052144673
 30
0.0
 11
113.7740648421
 21
287.3052144673
 31
0.0
  0
LINE
  5
95
330
1F
100
AcDbEntity
  8
FASEN
  6
Continuous
 62
     9
100
AcDbLine
 10
113.7740648421
 20
306.9052144673
 30
0.0
 11
113.7740648421
 21
307.3052144673
 31
0.0
  0
LINE
  5
96
330
1F
100
AcDbEntity
  8
0
  6
Continuous
 62
     7
100
AcDbLine
 10
115.5264695779
 20
347.3052144673
 30
0.0
 11
115.5264695779
 21
307.3052144673
 31
0.0
  0
LINE
  5
97
330
1F
100
AcDbEntity
  8
0
  6
Continuous
 62
     7
100
AcDbLine
 10
115.5264695779
 20
287.3052144673
 30
0.0
 11
115.5264695779
 21
265.8052144673
 31
0.0
  0
LINE
  5
98
330
1F
100
AcDbEntity
  8
0
  6
Continuous
 62
     7
100
AcDbLine
 10
115.5264695779
 20
258.4754578366
 30
0.0
 11
115.5264695779
 21
247.3052144673
 31
0.0
  0
LINE
  5
99
330
1F
100
AcDbEntity
  8
0
  6
Continuous
 62
     7
100
AcDbLine
 10
116.8990648421
 20
344.927776305
 30
0.0
 11
116.8990648421
 21
307.3052144673
 31
0.0
  0
LINE
  5
9A
330
1F
100
AcDbEntity
  8
0
  6
Continuous
 62
     7
100
AcDbLine
 10
116.8990648421
 20
287.3052144673
 30
0.0
 11
116.8990648421
 21
265.8052144673
 31
0.0
  0
LINE
  5
9B
330
1F
100
AcDbEntity
  8
0
  6
Continuous
 62
     7
100
AcDbLine
 10
116.8990648421
 20
249.6826567371
 30
0.0
 11
116.8990648421
 21
262.4232707142
 31
0.0
  0
LINE
  5
9C
330
1F
100
AcDbEntity
  8
0
  6
Continuous
 62
     9
100
AcDbLine
 10
117.8990648421
 20
251.3052144673
 30
0.0
 11
117.8990648421
 21
263.7828338836
 31
0.0
  0
LINE
  5
9D
330
1F
100
AcDbEntity
  8
0
  6
Continuous
 62
     9
100
AcDbLine
 10
117.8990648421
 20
265.8052144673
 30
0.0
 11
117.8990648421
 21
287.3052144673
 31
0.0
  0
LINE
  5
9E
330
1F
100
AcDbEntity
  8
0
  6
Continuous
 62
     9
100
AcDbLine
 10
117.8990648421
 20
307.3052144673
 30
0.0
 11
117.8990648421
 21
343.3052144673
 31
0.0
  0
LINE
  5
9F
330
1F
100
AcDbEntity
  8
BEZUGSACHSEN
  6
Continuous
 62
     7
100
AcDbLine
 10
96.8933084561
 20
259.5888902936
 30
0.0
 11
96.2740648421
 21
259.4229644673
 31
0.0
  0
LINE
  5
A0
330
1F
100
AcDbEntity
  8
0
  6
Continuous
 62
     9
100
AcDbLine
 10
119.6490648421
 20
251.3052144673
 30
0.0
 11
119.6490648421
 21
263.7828338836
 31
0.0
  0
LINE
  5
A1
330
1F
100
AcDbEntity
  8
0
  6
Continuous
 62
     9
100
AcDbLine
 10
119.6490648421
 20
265.8052144673
 30
0.0
 11
119.6490648421
 21
287.3052144673
 31
0.0
  0
LINE
  5
A2
330
1F
100
AcDbEntity
  8
0
  6
Continuous
 62
     9
100
AcDbLine
 10
119.6490648421
 20
307.3052144673
 30
0.0
 11
119.6490648421
 21
343.3052144673
 31
0.0
  0
LINE
  5
A3
330
1F
100
AcDbEntity
  8
0
  6
Continuous
 62
     7
100
AcDbLine
 10
120.6490648421
 20
249.6826567371
 30
0.0
 11
120.6490648421
 21
262.4232707142
 31
0.0
  0
LINE
  5
A4
330
1F
100
AcDbEntity
  8
0
  6
Continuous
 62
     7
100
AcDbLine
 10
120.6490648421
 20
265.8052144673
 30
0.0
 11
120.6490648421
 21
287.3052144673
 31
0.0
  0
LINE
  5
A5
330
1F
100
AcDbEntity
  8
0
  6
Continuous
 62
     7
100
AcDbLine
 10
120.6490648421
 20
307.3052144673
 30
0.0
 11
120.6490648421
 21
344.927776305
 31
0.0
  0
LINE
  5
A6
330
1F
100
AcDbEntity
  8
0
  6
Continuous
 62
     7
100
AcDbLine
 10
122.0216601063
 20
347.3052144673
 30
0.0
 11
122.0216601063
 21
307.3052144673
 31
0.0
  0
LINE
  5
A7
330
1F
100
AcDbEntity
  8
0
  6
Continuous
 62
     7
100
AcDbLine
 10
122.0216601063
 20
287.3052144673
 30
0.0
 11
122.0216601063
 21
265.8052144673
 31
0.0
  0
LINE
  5
A8
330
1F
100
AcDbEntity
  8
0
  6
Continuous
 62
     7
100
AcDbLine
 10
122.0216601063
 20
258.4754578366
 30
0.0
 11
122.0216601063
 21
247.3052144673
 31
0.0
  0
LINE
  5
A9
330
1F
100
AcDbEntity
  8
RUNDUNGEN
  6
Continuous
 62
     7
100
AcDbLine
 10
227.8525239378
 20
286.7326876253
 30
0.0
 11
190.6554506336
 21
283.8052144673
 31
0.0
  0
LINE
  5
AA
330
1F
100
AcDbEntity
  8
0
  6
Continuous
 62
     7
100
AcDbLine
 10
190.6554506336
 20
283.8052144673
 30
0.0
 11
227.8525239378
 21
286.7326876253
 31
0.0
  0
LINE
  5
AB
330
1F
100
AcDbEntity
  8
BEZUGSACHSEN
  6
Continuous
 62
     9
100
AcDbLine
 10
58.327910789
 20
282.2952144673
 30
0.0
 11
50.0410177691
 21
282.2952144673
 31
0.0
  0
LINE
  5
AC
330
1F
100
AcDbEntity
  8
RUNDUNGEN
  6
Continuous
 62
     7
100
AcDbLine
 10
190.6554506336
 20
283.8052144673
 30
0.0
 11
147.7740648421
 21
283.8052144673
 31
0.0
  0
LINE
  5
AD
330
1F
100
AcDbEntity
  8
0
  6
Continuous
 62
     7
100
AcDbLine
 10
147.7740648421
 20
283.8052144673
 30
0.0
 11
190.6554506336
 21
283.8052144673
 31
0.0
  0
LINE
  5
AE
330
1F
100
AcDbEntity
  8
0
  6
Continuous
 62
     7
100
AcDbLine
 10
127.7740648421
 20
347.3051775462
 30
0.0
 11
127.7740648421
 21
307.3052144673
 31
0.0
  0
LINE
  5
AF
330
1F
100
AcDbEntity
  8
0
  6
Continuous
 62
     7
100
AcDbLine
 10
127.7740648421
 20
287.3052144673
 30
0.0
 11
127.7740648421
 21
265.8052144673
 31
0.0
  0
LINE
  5
B0
330
1F
100
AcDbEntity
  8
0
  6
Continuous
 62
     7
100
AcDbLine
 10
127.7740648421
 20
258.4754578366
 30
0.0
 11
127.7740648421
 21
247.3052163351
 31
0.0
  0
LINE
  5
B1
330
1F
100
AcDbEntity
  8
FASEN
  6
Continuous
 62
     7
100
AcDbLine
 10
127.7740648421
 20
258.4754578366
 30
0.0
 11
127.7740648421
 21
265.8052144673
 31
0.0
  0
LINE
  5
B2
330
1F
100
AcDbEntity
  8
FASEN
  6
Continuous
 62
     7
100
AcDbLine
 10
127.7740648421
 20
287.3052144673
 30
0.0
 11
127.7740648421
 21
307.3052144673
 31
0.0
  0
LINE
  5
B3
330
1F
100
AcDbEntity
  8
BEZUGSACHSEN
  6
Continuous
 62
     7
100
AcDbLine
 10
56.7740648421
 20
287.2952144673
 30
0.0
 11
50.7740648421
 21
287.2952144673
 31
0.0
  0
LINE
  5
B4
330
1F
100
AcDbEntity
  8
0
  6
Continuous
 62
     7
100
AcDbLine
 10
113.7740648421
 20
287.3052144673
 30
0.0
 11
127.7740648421
 21
287.3052144673
 31
0.0
  0
LINE
  5
B5
330
1F
100
AcDbEntity
  8
FASEN
  6
Continuous
 62
     7
100
AcDbLine
 10
127.7740648421
 20
287.7052144673
 30
0.0
 11
113.7740648421
 21
287.7052144673
 31
0.0
  0
LWPOLYLINE
  5
B6
330
1F
100
AcDbEntity
  8
DEFAULT_2
  6
DASHED
 62
     8
100
AcDbPolyline
 90
        2
 70
     0
 43
0.35
 10
228.7740648421
 20
293.3052144673
 10
192.7740648421
 20
293.3052144673
  0
LWPOLYLINE
  5
B7
330
1F
100
AcDbEntity
  8
BEZUGSACHSEN
  6
DOT_CENTER
 62
     7
100
AcDbPolyline
 90
        2
 70
     0
 43
0.25
 10
231.7740648421
 20
297.3052144673
 10
45.7740648421
 20
297.3052144673
  0
LINE
  5
B8
330
1F
100
AcDbEntity
  8
BEZUGSACHSEN
  6
Continuous
 62
     7
100
AcDbLine
 10
115.5264695779
 20
247.3052144673
 30
0.0
 11
116.8990648421
 21
249.6826192032
 31
0.0
  0
LWPOLYLINE
  5
B9
330
1F
100
AcDbEntity
  8
DEFAULT_2
  6
DASHED
 62
     8
100
AcDbPolyline
 90
        2
 70
     0
 43
0.35
 10
228.7740648421
 20
301.3052144673
 10
192.7740648421
 20
301.3052144673
  0
LINE
  5
BA
330
1F
100
AcDbEntity
  8
BEZUGSACHSEN
  6
Continuous
 62
     7
100
AcDbLine
 10
115.5264695779
 20
347.3052144673
 30
0.0
 11
116.8990648421
 21
344.9278097315
 31
0.0
  0
LINE
  5
BB
330
1F
100
AcDbEntity
  8
RUNDUNGEN
  6
Continuous
 62
     9
100
AcDbLine
 10
147.7740648421
 20
310.8052144673
 30
0.0
 11
147.7740648421
 21
283.8052144673
 31
0.0
  0
LINE
  5
BC
330
1F
100
AcDbEntity
  8
FASEN
  6
Continuous
 62
     7
100
AcDbLine
 10
113.7740648421
 20
306.9052144673
 30
0.0
 11
127.7740648421
 21
306.9052144673
 31
0.0
  0
LINE
  5
BD
330
1F
100
AcDbEntity
  8
0
  6
Continuous
 62
     7
100
AcDbLine
 10
113.7740648421
 20
307.3052144673
 30
0.0
 11
127.7740648421
 21
307.3052144673
 31
0.0
  0
LINE
  5
BE
330
1F
100
AcDbEntity
  8
BEZUGSACHSEN
  6
Continuous
 62
     7
100
AcDbLine
 10
56.7740648421
 20
307.3152144673
 30
0.0
 11
50.7740648421
 21
307.3152144673
 31
0.0
  0
LINE
  5
BF
330
1F
100
AcDbEntity
  8
RUNDUNGEN
  6
Continuous
 62
     7
100
AcDbLine
 10
190.6554506336
 20
310.8052144673
 30
0.0
 11
147.7740648421
 21
310.8052144673
 31
0.0
  0
LINE
  5
C0
330
1F
100
AcDbEntity
  8
0
  6
Continuous
 62
     7
100
AcDbLine
 10
147.7740648421
 20
310.8052144673
 30
0.0
 11
190.6554506336
 21
310.8052144673
 31
0.0
  0
LINE
  5
C1
330
1F
100
AcDbEntity
  8
BEZUGSACHSEN
  6
Continuous
 62
     9
100
AcDbLine
 10
50.0410177691
 20
312.3152144673
 30
0.0
 11
58.327910789
 21
312.3152144673
 31
0.0
  0
LINE
  5
C2
330
1F
100
AcDbEntity
  8
RUNDUNGEN
  6
Continuous
 62
     7
100
AcDbLine
 10
227.8525239378
 20
307.8777413094
 30
0.0
 11
190.6554506336
 21
310.8052144673
 31
0.0
  0
LINE
  5
C3
330
1F
100
AcDbEntity
  8
0
  6
Continuous
 62
     7
100
AcDbLine
 10
190.6554506336
 20
310.8052144673
 30
0.0
 11
227.8525239378
 21
307.8777413094
 31
0.0
  0
LINE
  5
C4
330
1F
100
AcDbEntity
  8
BEZUGSACHSEN
  6
Continuous
 62
     7
100
AcDbLine
 10
96.8933084561
 20
335.0215386411
 30
0.0
 11
96.2740648421
 21
335.1874644673
 31
0.0
  0
LINE
  5
C5
330
1F
100
AcDbEntity
  8
BEZUGSACHSEN
  6
Continuous
 62
     7
100
AcDbLine
 10
96.2740648421
 20
335.1874644673
 30
0.0
 11
50.6739903573
 21
332.9029007357
 31
0.0
  0
LINE
  5
C6
330
1F
100
AcDbEntity
  8
BEZUGSACHSEN
  6
Continuous
 62
     7
100
AcDbLine
 10
98.0734935534
 20
334.9874644673
 30
0.0
 11
97.1521275012
 21
334.9874644673
 31
0.0
  0
LINE
  5
C7
330
1F
100
AcDbEntity
  8
BEZUGSACHSEN
  6
Continuous
 62
     7
100
AcDbLine
 10
117.8990648421
 20
343.3052144673
 30
0.0
 11
119.6490648421
 21
343.3052144673
 31
0.0
  0
LINE
  5
C8
330
1F
100
AcDbEntity
  8
0
  6
Continuous
 62
     7
100
AcDbLine
 10
190.6554506336
 20
310.8052144673
 30
0.0
 11
190.6554506336
 21
283.8052144673
 31
0.0
  0
LWPOLYLINE
  5
C9
330
1F
100
AcDbEntity
  8
DEFAULT_2
  6
DASHED
 62
     8
100
AcDbPolyline
 90
        2
 70
     0
 43
0.35
 10
192.7740648421
 20
301.3052144673
 10
192.7740648421
 20
293.3052144673
  0
LINE
  5
CA
330
1F
100
AcDbEntity
  8
BEZUGSACHSEN
  6
Continuous
 62
     7
100
AcDbLine
 10
115.5264695779
 20
347.3052144673
 30
0.0
 11
110.7740648421
 21
347.3052144673
 31
0.0
  0
LINE
  5
CB
330
1F
100
AcDbEntity
  8
BEZUGSACHSEN
  6
Continuous
 62
     7
100
AcDbLine
 10
100.7740648421
 20
347.3052144673
 30
0.0
 11
98.7740648421
 21
347.3052144673
 31
0.0
  0
LINE
  5
CC
330
1F
100
AcDbEntity
  8
BEZUGSACHSEN
  6
Continuous
 62
     7
100
AcDbLine
 10
122.0216601063
 20
347.3052144673
 30
0.0
 11
127.7740648421
 21
347.3052144673
 31
0.0
  0
LINE
  5
CD
330
1F
100
AcDbEntity
  8
RUNDUNGEN
  6
Continuous
 62
     9
100
AcDbLine
 10
227.8525239378
 20
286.7326876253
 30
0.0
 11
227.8525239378
 21
307.8777413094
 31
0.0
  0
LINE
  5
CE
330
1F
100
AcDbEntity
  8
RUNDUNGEN
  6
Continuous
 62
     7
100
AcDbLine
 10
228.7740648421
 20
287.729604959
 30
0.0
 11
228.7740648421
 21
306.8808239757
 31
0.0
  0
LWPOLYLINE
  5
CF
330
1F
100
AcDbEntity
  8
1
  6
Continuous
 62
     7
100
AcDbPolyline
 90
        2
 70
     0
 43
0.25
 10
228.7740648421
 20
306.8808239757
 10
228.7740648421
 20
307.8052144673466
  0
LWPOLYLINE
  5
D0
330
1F
100
AcDbEntity
  8
1
  6
Continuous
 62
     7
100
AcDbPolyline
 90
        2
 70
     0
 43
0.25
 10
227.8525239378
 20
307.8777413094
 10
228.7740648420949
 20
307.8052144673466
  0
LWPOLYLINE
  5
D1
330
1F
100
AcDbEntity
  8
1
  6
Continuous
 62
     7
100
AcDbPolyline
 90
        2
 70
     0
 43
0.25
 10
227.8525239378
 20
286.7326876253
 10
228.7740648421
 20
286.8052144673487
  0
LWPOLYLINE
  5
D2
330
1F
100
AcDbEntity
  8
1
  6
Continuous
 62
     7
100
AcDbPolyline
 90
        2
 70
     0
 43
0.25
 10
228.7740648421
 20
287.729604959
 10
228.7740648421
 20
286.8052144673487
  0
ARC
  5
D3
330
1F
100
AcDbEntity
  8
FASEN
  6
Continuous
 62
     7
100
AcDbCircle
 10
116.6747188649
 20
272.8364777373
 30
0.0
 40
19.03859487300018
100
AcDbArc
 50
227.4837701983004
 51
228.9651953375289
  0
ARC
  5
D4
330
1F
100
AcDbEntity
  8
FASEN
  6
Continuous
 62
     7
100
AcDbCircle
 10
111.7459387639
 20
257.8052144673
 30
0.0
 40
8.0
100
AcDbArc
 50
90.0
 51
172.8323734889971
  0
ARC
  5
D5
330
1F
100
AcDbEntity
  8
FASEN
  6
Continuous
 62
     7
100
AcDbCircle
 10
111.7459387639
 20
257.8052144673
 30
0.0
 40
7.599982194900008
100
AcDbArc
 50
90.0
 51
174.9405171273014
  0
ARC
  5
D6
330
1F
100
AcDbEntity
  8
BEZUGSACHSEN
  6
Continuous
 62
     7
100
AcDbCircle
 10
56.7740648421
 20
289.2952144673
 30
0.0
 40
2.0
100
AcDbArc
 50
270.0
 51
355.2355361864933
  0
ARC
  5
D7
330
1F
100
AcDbEntity
  8
BEZUGSACHSEN
  6
Continuous
 62
     7
100
AcDbCircle
 10
50.7740648421
 20
263.7050229043
 30
0.0
 40
2.0
100
AcDbArc
 50
179.9999999971356
 51
267.1318795108405
  0
ARC
  5
D8
330
1F
100
AcDbEntity
  8
BEZUGSACHSEN
  6
Continuous
 62
     7
100
AcDbCircle
 10
117.8990648421
 20
250.3052144673
 30
0.0
 40
1.0
100
AcDbArc
 50
90.0
 51
180.0
  0
ARC
  5
D9
330
1F
100
AcDbEntity
  8
BEZUGSACHSEN
  6
Continuous
 62
     7
100
AcDbCircle
 10
97.1521275012
 20
258.6229644673
 30
0.0
 40
1.0
100
AcDbArc
 50
90.0
 51
104.9999999996981
  0
ARC
  5
DA
330
1F
100
AcDbEntity
  8
BEZUGSACHSEN
  6
Continuous
 62
     7
100
AcDbCircle
 10
98.0734935534
 20
258.6229644673
 30
0.0
 40
0.9999999999998127
100
AcDbArc
 50
45.49026120128689
 51
90.0
  0
ARC
  5
DB
330
1F
100
AcDbEntity
  8
0
  6
Continuous
 62
     7
100
AcDbCircle
 10
-125.8237150404
 20
366.7396820577
 30
0.0
 40
264.5204223901892
100
AcDbArc
 50
335.840076470599
 51
336.5770705490999
  0
ARC
  5
DC
330
1F
100
AcDbEntity
  8
BEZUGSACHSEN
  6
Continuous
 62
     7
100
AcDbCircle
 10
105.7892728532
 20
397.3579842342
 30
0.0
 40
50.30340021045197
100
AcDbArc
 50
264.2781515102013
 51
269.9826780126002
  0
ARC
  5
DD
330
1F
100
AcDbEntity
  8
BEZUGSACHSEN
  6
Continuous
 62
     7
100
AcDbCircle
 10
105.758856841
 20
397.3579840334
 30
0.0
 40
50.30340000959737
100
AcDbArc
 50
270.0173219760583
 51
275.7218485012679
  0
ARC
  5
DE
330
1F
100
AcDbEntity
  8
0
  6
Continuous
 62
     7
100
AcDbCircle
 10
113.7740648421
 20
297.3052144673
 30
0.0
 40
10.0
100
AcDbArc
 50
90.0
 51
270.0
  0
ARC
  5
DF
330
1F
100
AcDbEntity
  8
FASEN
  6
Continuous
 62
     7
100
AcDbCircle
 10
113.7740648421
 20
297.3052144673
 30
0.0
 40
9.599999195900011
100
AcDbArc
 50
90.0
 51
270.0
  0
ARC
  5
E0
330
1F
100
AcDbEntity
  8
BEZUGSACHSEN
  6
Continuous
 62
     7
100
AcDbCircle
 10
56.7740648421
 20
305.3152144673
 30
0.0
 40
1.999999999999984
100
AcDbArc
 50
4.76446378498879
 51
90.0
  0
ARC
  5
E1
330
1F
100
AcDbEntity
  8
BEZUGSACHSEN
  6
Continuous
 62
     7
100
AcDbCircle
 10
50.7740648421
 20
330.9054060304
 30
0.0
 40
2.000000000052351
100
AcDbArc
 50
92.86812048915951
 51
180.0000000143238
  0
ARC
  5
E2
330
1F
100
AcDbEntity
  8
BEZUGSACHSEN
  6
Continuous
 62
     7
100
AcDbCircle
 10
117.8990648421
 20
344.3052144673
 30
0.0
 40
1.0
100
AcDbArc
 50
180.0
 51
270.0
  0
ARC
  5
E3
330
1F
100
AcDbEntity
  8
BEZUGSACHSEN
  6
Continuous
 62
     7
100
AcDbCircle
 10
97.1521275012
 20
335.9874644673
 30
0.0
 40
0.9999999999133335
100
AcDbArc
 50
254.9999999988192
 51
270.0
  0
ARC
  5
E4
330
1F
100
AcDbEntity
  8
BEZUGSACHSEN
  6
Continuous
 62
     7
100
AcDbCircle
 10
98.0734935534
 20
335.9874644673
 30
0.0
 40
1.0
100
AcDbArc
 50
270.0
 51
314.5097387987131
  0
ARC
  5
E5
330
1F
100
AcDbEntity
  8
BEZUGSACHSEN
  6
Continuous
 62
     7
100
AcDbCircle
 10
235.1041114403
 20
-1308.7375448226
 30
0.0
 40
1632.172763697999
100
AcDbArc
 50
96.2726189838
 51
96.48809068979999
  0
ARC
  5
E6
330
1F
100
AcDbEntity
  8
RUNDUNGEN
  6
Continuous
 62
     7
100
AcDbCircle
 10
147.7740648421
 20
263.8052144673
 30
0.0
 40
20.0
100
AcDbArc
 50
90.0
 51
180.0
  0
ARC
  5
E7
330
1F
100
AcDbEntity
  8
RUNDUNGEN
  6
Continuous
 62
     7
100
AcDbCircle
 10
227.7740648421
 20
287.729604959
 30
0.0
 40
0.9999999999648148
100
AcDbArc
 50
274.4999999985582
 51
0.0
  0
ARC
  5
E8
330
1F
100
AcDbEntity
  8
BEZUGSACHSEN
  6
Continuous
 62
     7
100
AcDbCircle
 10
119.6490648421
 20
250.3052144673
 30
0.0
 40
1.0
100
AcDbArc
 50
0.0
 51
90.0
  0
ARC
  5
E9
330
1F
100
AcDbEntity
  8
BEZUGSACHSEN
  6
Continuous
 62
     7
100
AcDbCircle
 10
235.1041114455
 20
1903.3479738043
 30
0.0
 40
1632.1727637452
100
AcDbArc
 50
263.5119093102
 51
263.7273810162
  0
ARC
  5
EA
330
1F
100
AcDbEntity
  8
0
  6
Continuous
 62
     7
100
AcDbCircle
 10
363.3718447246
 20
366.7396820577
 30
0.0
 40
264.5204223902001
100
AcDbArc
 50
203.4229294508999
 51
204.1599235294009
  0
ARC
  5
EB
330
1F
100
AcDbEntity
  8
RUNDUNGEN
  6
Continuous
 62
     7
100
AcDbCircle
 10
147.7740648421
 20
330.8052144673
 30
0.0
 40
19.99999999999999
100
AcDbArc
 50
180.0
 51
270.0
  0
ARC
  5
EC
330
1F
100
AcDbEntity
  8
BEZUGSACHSEN
  6
Continuous
 62
     7
100
AcDbCircle
 10
119.6490648421
 20
344.3052144673
 30
0.0
 40
1.0
100
AcDbArc
 50
270.0
 51
0.0
  0
ARC
  5
ED
330
1F
100
AcDbEntity
  8
RUNDUNGEN
  6
Continuous
 62
     7
100
AcDbCircle
 10
227.7740648421
 20
306.8808239757
 30
0.0
 40
1.0
100
AcDbArc
 50
0.0
 51
85.50000000144155
  0
CIRCLE
  5
EE
330
1F
100
AcDbEntity
  8
BEZUGSACHSEN
  6
Continuous
 62
     7
100
AcDbCircle
 10
83.7740648421
 20
297.3052144673
 30
0.0
 40
6.0
  0
SPLINE
  5
EF
330
1F
100
AcDbEntity
  8
BEZUGSACHSEN
  6
Continuous
 62
     7
100
AcDbSpline
210
0.0
220
0.0
230
1.0
 70
     8
 71
     3
 72
    19
 73
    15
 74
    13
 42
0.0000000001
 43
0.0000000001
 44
0.00000001
 40
0.0
 40
0.0
 40
0.0
 40
0.0
 40
0.1462385987747001
 40
0.2927479274788215
 40
0.4364790706168054
 40
0.5801659236312873
 40
0.7203799972473534
 40
0.8606059382146758
 40
0.998041188338204
 40
1.13548402038512
 40
1.405415631047117
 40
1.67581551404701
 40
1.943997429494002
 40
2.21193483480128
 40
2.21193483480128
 40
2.21193483480128
 40
2.21193483480128
 10
56.7740648421
 20
313.6638620548
 30
0.0
 10
56.82277964743876
 20
313.6671701321109
 30
0.0
 10
56.92029944330623
 20
313.6737924109402
 30
0.0
 10
57.06563570361589
 20
313.657433098188
 30
0.0
 10
57.20629264074122
 20
313.6222613321211
 30
0.0
 10
57.33914477419031
 20
313.5694556455118
 30
0.0
 10
57.46359923724741
 20
313.5017838577951
 30
0.0
 10
57.57840179440258
 20
313.4224836564146
 30
0.0
 10
57.68451173217674
 20
313.3333990168398
 30
0.0
 10
57.81361419735616
 20
313.205451481271
 30
0.0
 10
57.95665404725709
 20
313.0296491923622
 30
0.0
 10
58.10156164895764
 20
312.8019637264745
 30
0.0
 10
58.22619839741595
 20
312.5633011069763
 30
0.0
 10
58.29401696857005
 20
312.3978848665041
 30
0.0
 10
58.327910789
 20
312.3152144673
 30
0.0
 11
56.7740648421
 21
313.6638620548
 31
0.0
 11
56.92019870391905
 21
313.6693957878474
 31
0.0
 11
57.06590806476569
 21
313.6541063941709
 31
0.0
 11
57.20533814632281
 21
313.6192080580397
 31
0.0
 11
57.33897048325173
 21
313.5664036050445
 31
0.0
 11
57.46228427405136
 21
313.4996675919883
 31
0.0
 11
57.57781538535921
 21
313.4201951008977
 31
0.0
 11
57.68322793513365
 21
313.3320098281671
 31
0.0
 11
57.78101643882783
 21
313.2354285638022
 31
0.0
 11
57.95226483471767
 21
313.0267731988107
 31
0.0
 11
58.09860725525232
 21
312.7993968748928
 31
0.0
 11
58.22247488105909
 21
312.5615348328394
 31
0.0
 11
58.327910789
 21
312.3152144673
 31
0.0
  0
SPLINE
  5
F0
330
1F
100
AcDbEntity
  8
BEZUGSACHSEN
  6
Continuous
 62
     7
100
AcDbSpline
210
0.0
220
0.0
230
1.0
 70
     8
 71
     3
 72
    11
 73
     7
 74
     5
 42
0.0000000001
 43
0.0000000001
 44
0.00000001
 40
0.0
 40
0.0
 40
0.0
 40
0.0
 40
0.5521269407068178
 40
1.105196183364636
 40
1.651906304768753
 40
2.198197048816563
 40
2.198197048816563
 40
2.198197048816563
 40
2.198197048816563
 10
58.7740648421
 20
284.4355589416
 30
0.0
 10
58.76747940447213
 20
284.251423751188
 30
0.0
 10
58.75429729000623
 20
283.8828391112031
 30
0.0
 10
58.6568089262059
 20
283.3394147064947
 30
0.0
 10
58.51717161318074
 20
282.8081405769436
 30
0.0
 10
58.39098159096203
 20
282.4661460968251
 30
0.0
 10
58.327910789
 20
282.2952144673
 30
0.0
 11
58.7740648421
 21
284.4355589416
 31
0.0
 11
58.7413202596732
 21
283.8844038355037
 31
0.0
 11
58.64925360672983
 21
283.3390513636198
 31
0.0
 11
58.5087621218964
 21
282.8107010068157
 31
0.0
 11
58.327910789
 21
282.2952144673
 31
0.0
  0
SPLINE
  5
F1
330
1F
100
AcDbEntity
  8
BEZUGSACHSEN
  6
Continuous
 62
     7
100
AcDbSpline
210
0.0
220
0.0
230
1.0
 70
     8
 71
     3
 72
    19
 73
    15
 74
    13
 42
0.0000000001
 43
0.0000000001
 44
0.00000001
 40
0.0
 40
0.0
 40
0.0
 40
0.0
 40
0.2679411643345233
 40
0.5361267936841381
 40
0.8065304773437336
 40
1.07646599319122
 40
1.213913376103895
 40
1.351353104830569
 40
1.491586367008118
 40
1.631807897499428
 40
1.775491562717712
 40
1.91921920470369
 40
2.065713007337568
 40
2.211936409261142
 40
2.211936409261142
 40
2.211936409261142
 40
2.211936409261142
 10
58.327910789
 20
282.2952144673
 30
0.0
 10
58.29401654520106
 20
282.2125428875964
 30
0.0
 10
58.22619713306479
 20
282.0471243000293
 30
0.0
 10
58.10155862679261
 20
281.8084583263637
 30
0.0
 10
57.95664782749394
 20
281.580770330349
 30
0.0
 10
57.81360419597834
 20
281.4049658390363
 30
0.0
 10
57.68449780905181
 20
281.2770161199388
 30
0.0
 10
57.57838270996661
 20
281.1879290991526
 30
0.0
 10
57.46357328230967
 20
281.1086274588442
 30
0.0
 10
57.33911367007251
 20
281.0409569914145
 30
0.0
 10
57.20626011493503
 20
280.9881543047322
 30
0.0
 10
57.06560931606153
 20
280.9529880407279
 30
0.0
 10
56.92028393297218
 20
280.9366358387837
 30
0.0
 10
56.82277451392761
 20
280.9432585721353
 30
0.0
 10
56.7740648421
 20
280.9465668799
 30
0.0
 11
58.327910789
 21
282.2952144673
 31
0.0
 11
58.22247352928353
 21
282.0488905914609
 31
0.0
 11
58.09860401372421
 21
281.8110253461963
 31
0.0
 11
57.95225852744594
 21
281.5836464756242
 31
0.0
 11
57.78100633632312
 21
281.3749891734479
 31
0.0
 11
57.68321389762114
 21
281.278405417038
 31
0.0
 11
57.57779690834158
 21
281.1902184712711
 31
0.0
 11
57.46225826461684
 21
281.1107440123097
 31
0.0
 11
57.33893625472187
 21
281.0440075193782
 31
0.0
 11
57.205305566522
 21
280.9912075684143
 31
0.0
 11
57.06587786531423
 21
280.9563141420024
 31
0.0
 11
56.92018342679606
 21
280.9410313152021
 31
0.0
 11
56.7740648421
 21
280.9465668799
 31
0.0
  0
SPLINE
  5
F2
330
1F
100
AcDbEntity
  8
BEZUGSACHSEN
  6
Continuous
 62
     7
100
AcDbSpline
210
0.0
220
0.0
230
1.0
 70
     8
 71
     3
 72
    47
 73
    43
 74
    41
 42
0.0000000001
 43
0.0000000001
 44
0.00000001
 40
0.0
 40
0.0
 40
0.0
 40
0.0
 40
0.6366022431821747
 40
1.273595002171231
 40
1.59292174639854
 40
1.912076344881087
 40
2.231392290402796
 40
2.550826842696741
 40
3.189774321128008
 40
3.829081696987099
 40
4.468337152499844
 40
5.107221744758322
 40
5.426176341244057
 40
5.745033356783119
 40
6.063356731546255
 40
6.381780214842843
 40
7.017059195622752
 40
7.652639340950316
 40
8.28753221421935
 40
8.922347946499526
 40
9.559226748565393
 40
10.19613435933292
 40
10.83451785498075
 40
11.47287689968918
 40
12.11234487361003
 40
12.7518958894526
 40
13.39354300516574
 40
14.03487957351531
 40
14.35615205766942
 40
14.67732107707415
 40
14.99840882469154
 40
15.31959604119785
 40
15.96011121025047
 40
16.60099592085666
 40
17.23809108075879
 40
17.87482555199704
 40
18.19205670332871
 40
18.50917199100786
 40
18.82571084629525
 40
19.14241581828865
 40
19.77338974997792
 40
20.40398930736528
 40
20.40398930736528
 40
20.40398930736528
 40
20.40398930736528
 10
77.2746492478
 20
297.3052144479
 30
0.0
 10
77.28065489168672
 20
297.5174942575952
 30
0.0
 10
77.29266986354844
 20
297.9421840974208
 30
0.0
 10
77.37393520875644
 20
298.4683268585364
 30
0.0
 10
77.46665480535725
 20
298.8833012346597
 30
0.0
 10
77.55194776949152
 20
299.1911252103482
 30
0.0
 10
77.65218638290395
 20
299.4944178871257
 30
0.0
 10
77.80567193202715
 20
299.8918552496702
 30
0.0
 10
78.03414387881239
 20
300.3739548265558
 30
0.0
 10
78.36375883938203
 20
300.9227706993981
 30
0.0
 10
78.74598605644898
 20
301.4363062387676
 30
0.0
 10
79.10484075355149
 20
301.8308090008632
 30
0.0
 10
79.41379410710755
 20
302.1236822989056
 30
0.0
 10
79.65568921607999
 20
302.3314041200093
 30
0.0
 10
79.9073324695689
 20
302.5269135171165
 30
0.0
 10
80.25462657673296
 20
302.7704087197543
 30
0.0
 10
80.71036691149712
 20
303.0422907897791
 30
0.0
 10
81.28584633619798
 20
303.3136199022929
 30
0.0
 10
81.88495710138376
 20
303.5274035331011
 30
0.0
 10
82.50240750385665
 20
303.682093264471
 30
0.0
 10
83.13267806554482
 20
303.7759002481263
 30
0.0
 10
83.7702720002539
 20
303.8080269729325
 30
0.0
 10
84.40845064447049
 20
303.7775973999822
 30
0.0
 10
85.04146306565869
 20
303.6849261448184
 30
0.0
 10
85.66269675009507
 20
303.5304341835913
 30
0.0
 10
86.26683250207252
 20
303.3153970510669
 30
0.0
 10
86.84731157565754
 20
303.0414736853801
 30
0.0
 10
87.30694059988794
 20
302.7663068073507
 30
0.0
 10
87.65683958855074
 20
302.5196971084998
 30
0.0
 10
87.90997121770064
 20
302.3217929161187
 30
0.0
 10
88.15296985705046
 20
302.1116143866923
 30
0.0
 10
88.46221420054495
 20
301.8160950465126
 30
0.0
 10
88.82053439134543
 20
301.4186240637582
 30
0.0
 10
89.20048480970094
 20
300.9029573022313
 30
0.0
 10
89.52695783931068
 20
300.3533611457769
 30
0.0
 10
89.75232897930331
 20
299.8722556040711
 30
0.0
 10
89.9034199624633
 20
299.4762654164481
 30
0.0
 10
90.00183288001321
 20
299.1748390656521
 30
0.0
 10
90.08549965818297
 20
298.8691436977136
 30
0.0
 10
90.17631901561295
 20
298.4575916799735
 30
0.0
 10
90.25583399121768
 20
297.936166463459
 30
0.0
 10
90.26760627588843
 20
297.5154901743267
 30
0.0
 10
90.2734906715
 20
297.305214448
 30
0.0
 11
77.2746492478
 21
297.3052144479
 31
0.0
 11
77.30589791883982
 21
297.9410492822578
 31
0.0
 11
77.39933912121342
 21
298.5711512713862
 31
0.0
 11
77.46927962824628
 21
298.8827245293124
 31
0.0
 11
77.55442096721148
 21
299.1903129070704
 31
0.0
 11
77.65464550532475
 21
299.4934922517237
 31
0.0
 11
77.76972539505398
 21
299.7914772382233
 31
0.0
 11
78.0433212893008
 21
300.3688845180916
 31
0.0
 11
78.37254080299644
 21
300.9169068101837
 31
0.0
 11
78.75416505832216
 21
301.4297522695083
 31
0.0
 11
79.18409969441929
 21
301.9023300206872
 31
0.0
 11
79.41557195547459
 21
302.121767089072
 31
0.0
 11
79.65747435650101
 21
302.3295001503216
 31
0.0
 11
79.90884816365552
 21
302.524797308512
 31
0.0
 11
80.16957744194744
 21
302.7075916141019
 31
0.0
 11
80.71511108615934
 21
303.0331256775326
 31
0.0
 11
81.29002090629263
 21
303.3041253451503
 31
0.0
 11
81.88796709407075
 21
303.5175482048664
 31
0.0
 11
82.50375962631301
 21
303.6717901290799
 31
0.0
 11
83.13369190827198
 21
303.7655980640685
 31
0.0
 11
83.76979502997838
 21
303.7975999891507
 31
0.0
 11
84.40745598898246
 21
303.7672357193991
 31
0.0
 11
85.03907352189093
 21
303.6747070098886
 31
0.0
 11
85.65964639401581
 21
303.5204066532684
 31
0.0
 11
86.26214720116963
 21
303.3058879378978
 31
0.0
 11
86.84245439755078
 21
303.032109598851
 31
0.0
 11
87.3926793855988
 21
302.7026174799316
 31
0.0
 11
87.65528668974626
 21
302.5175407042872
 31
0.0
 11
87.90830714713812
 21
302.3197271881498
 31
0.0
 11
88.15115544850241
 21
302.1096747085299
 31
0.0
 11
88.38335788390945
 21
301.8877664909306
 31
0.0
 11
88.8122739416437
 21
301.4120662731419
 31
0.0
 11
89.19238460031679
 21
300.8960729597628
 31
0.0
 11
89.51782374604197
 21
300.3483690203938
 31
0.0
 11
89.78790460417164
 21
299.7717520618025
 31
0.0
 11
89.90099504935586
 21
299.4753635421476
 31
0.0
 11
89.999439152695
 21
299.1739155960647
 31
0.0
 11
90.08292195806925
 21
298.8685838615308
 31
0.0
 11
90.15147138150348
 21
298.5593864879453
 31
0.0
 11
90.24289845938777
 21
297.9350715098285
 31
0.0
 11
90.2734906715
 21
297.305214448
 31
0.0
  0
SPLINE
  5
F3
330
1F
100
AcDbEntity
  8
BEZUGSACHSEN
  6
Continuous
 62
     7
100
AcDbSpline
210
0.0
220
0.0
230
1.0
 70
     8
 71
     3
 72
    47
 73
    43
 74
    41
 42
0.0000000001
 43
0.0000000001
 44
0.00000001
 40
0.0
 40
0.0
 40
0.0
 40
0.0
 40
0.6302393214779823
 40
1.260854867358752
 40
1.577476088429281
 40
1.893930800243463
 40
2.210999113888051
 40
2.528183472236072
 40
3.16488703828983
 40
3.801951183438861
 40
4.442851001668646
 40
5.083381259848264
 40
5.404527292369933
 40
5.725573838804432
 40
6.046670710055629
 40
6.367871027159069
 40
7.009090242545426
 40
7.650619763976812
 40
8.290330346522987
 40
8.929958764501949
 40
9.568647011357555
 40
10.20735923014188
 40
10.84445705817832
 40
11.48152626499504
 40
12.11643462226727
 40
12.75141965583054
 40
13.38691908739727
 40
14.0221173853023
 40
14.34050449140281
 40
14.65879153788497
 40
14.97761586865846
 40
15.29653774944249
 40
15.93537694103497
 40
16.57458694070701
 40
17.21386274995183
 40
17.85277859077222
 40
18.17219860084522
 40
18.49150024077849
 40
18.81067156638127
 40
19.13001452425313
 40
19.76719627026235
 40
20.40398968281496
 40
20.40398968281496
 40
20.40398968281496
 40
20.40398968281496
 10
90.2734784799
 20
297.3052144861
 30
0.0
 10
90.26760927815552
 20
297.095058464204
 30
0.0
 10
90.25586737101824
 20
296.674620966761
 30
0.0
 10
90.17642062846166
 20
296.153457524497
 30
0.0
 10
90.08568912339604
 20
295.7420660570726
 30
0.0
 10
90.00208374109167
 20
295.4364282167861
 30
0.0
 10
89.90373179969775
 20
295.1350443706034
 30
0.0
 10
89.75271298881044
 20
294.739071191014
 30
0.0
 10
89.52743040122073
 20
294.2579643823189
 30
0.0
 10
89.20105236649741
 20
293.7083301572936
 30
0.0
 10
88.82118530443925
 20
293.1926022946348
 30
0.0
 10
88.4629308651347
 20
292.7950768924388
 30
0.0
 10
88.15375012746173
 20
292.4995235375031
 30
0.0
 10
87.91082517144275
 20
292.2893386290699
 30
0.0
 10
87.65777626813892
 20
292.0914291647504
 30
0.0
 10
87.30799375969553
 20
291.8448058132811
 30
0.0
 10
86.8485085219327
 20
291.5695992040121
 30
0.0
 10
86.26811281495361
 20
291.2955590973102
 30
0.0
 10
85.6639585071122
 20
291.0803706199529
 30
0.0
 10
85.0425433597169
 20
290.9257087809106
 30
0.0
 10
84.40927414829531
 20
290.8328984078762
 30
0.0
 10
83.7708146838643
 20
290.8023876580694
 30
0.0
 10
83.13298167029924
 20
290.8344894004522
 30
0.0
 10
82.50255168328442
 20
290.9283024628258
 30
0.0
 10
81.8849780137731
 20
291.0830162791142
 30
0.0
 10
81.28583460233946
 20
291.2968128511724
 30
0.0
 10
80.71037738087608
 20
291.5681342195813
 30
0.0
 10
80.25469198793547
 20
291.8399791031995
 30
0.0
 10
79.90743609021769
 20
292.0834396557905
 30
0.0
 10
79.65581650893654
 20
292.2789221821237
 30
0.0
 10
79.4139414586761
 20
292.4866152408376
 30
0.0
 10
79.10500517499356
 20
292.779452788996
 30
0.0
 10
78.746162418073
 20
293.1739104379329
 30
0.0
 10
78.36393551279653
 20
293.6873951038819
 30
0.0
 10
78.03431106756723
 20
294.2361628826216
 30
0.0
 10
77.80582362167965
 20
294.7182262991211
 30
0.0
 10
77.6523221217187
 20
295.1156358582812
 30
0.0
 10
77.55206531879284
 20
295.4189182215649
 30
0.0
 10
77.46674882587125
 20
295.7267420932755
 30
0.0
 10
77.37398637050761
 20
296.1417829603856
 30
0.0
 10
77.29269400354428
 20
296.6680557594604
 30
0.0
 10
77.28065420405642
 20
297.092871409161
 30
0.0
 10
77.2746361393
 20
297.3052144878
 30
0.0
 11
90.2734784799
 21
297.3052144861
 31
0.0
 11
90.24293890117876
 21
296.6757155294142
 31
0.0
 11
90.15160762565195
 21
296.0517487315658
 31
0.0
 11
90.08311288696387
 21
295.7426250210481
 31
0.0
 11
89.99969406211623
 21
295.4373630281789
 31
0.0
 11
89.9013073182525
 21
295.1359457689695
 31
0.0
 11
89.78827668712712
 21
294.8395845137285
 31
0.0
 11
89.51829655061715
 21
294.2629545137149
 31
0.0
 11
89.19295992878139
 21
293.7152257418516
 31
0.0
 11
88.81292343396788
 21
293.1991590411075
 31
0.0
 11
88.38407293627543
 21
292.723379404855
 31
0.0
 11
88.1519358019011
 21
292.5014624720876
 31
0.0
 11
87.90915330857487
 21
292.2913968968217
 31
0.0
 11
87.65622370030125
 21
292.0935843239506
 31
0.0
 11
87.39370930448973
 21
291.9085010029866
 31
0.0
 11
86.84365112288582
 21
291.5789587765098
 31
0.0
 11
86.26351029119982
 21
291.30510344558
 31
0.0
 11
85.66090498089291
 21
291.0904025619967
 31
0.0
 11
85.04020571058375
 21
290.9359456782914
 31
0.0
 11
84.40827689669263
 21
290.8432707040769
 31
0.0
 11
83.77029076953012
 21
290.8128240298319
 31
0.0
 11
83.13399578138645
 21
290.8447979340664
 31
0.0
 11
82.50387250724752
 21
290.9386160222078
 31
0.0
 11
81.88798859899157
 21
291.0928743564576
 31
0.0
 11
81.28995612917052
 21
291.3063296395711
 31
0.0
 11
80.71512038062795
 21
291.57729714633
 31
0.0
 11
80.16965369311565
 21
291.9027859640731
 31
0.0
 11
79.9089514003674
 21
292.0855553922794
 31
0.0
 11
79.65760214858463
 21
292.2808249433789
 31
0.0
 11
79.41571885024521
 21
292.4885300802379
 31
0.0
 11
79.18426301894077
 21
292.7079369265257
 31
0.0
 11
78.75433998802889
 21
293.1804638571933
 31
0.0
 11
78.37271884854941
 21
293.6932549741045
 31
0.0
 11
78.04348737439203
 21
294.2412332553437
 31
0.0
 11
77.76987306727965
 21
294.8185967999104
 31
0.0
 11
77.65478081482551
 21
295.1165614224079
 31
0.0
 11
77.55454112639947
 21
295.4197206909918
 31
0.0
 11
77.46937404618083
 21
295.7273192988138
 31
0.0
 11
77.39941101869738
 21
296.0389041179686
 31
0.0
 11
77.3059221217169
 21
296.6691900876591
 31
0.0
 11
77.2746361393
 21
297.3052144878
 31
0.0
  0
SPLINE
  5
F4
330
1F
100
AcDbEntity
  8
BEZUGSACHSEN
  6
Continuous
 62
     7
100
AcDbSpline
210
0.0
220
0.0
230
1.0
 70
     8
 71
     3
 72
    27
 73
    23
 74
    21
 42
0.0000000001
 43
0.0000000001
 44
0.00000001
 40
0.0
 40
0.0
 40
0.0
 40
0.0
 40
0.1219765139516063
 40
0.2439857714748844
 40
0.3566831398333593
 40
0.4694418149629431
 40
0.5721317672948317
 40
0.6745445881155733
 40
0.7225206521221843
 40
0.7704888797708352
 40
0.8171412936045818
 40
0.8637898734267414
 40
0.9102318000825217
 40
0.9566751324135295
 40
1.004175175748943
 40
1.051683100138773
 40
1.15367238873127
 40
1.256049376645761
 40
1.370745138047836
 40
1.485385401825924
 40
1.611534903874057
 40
1.737631876006361
 40
1.737631876006361
 40
1.737631876006361
 40
1.737631876006361
 10
49.9199075177
 20
282.0628784719
 30
0.0
 10
49.88465250009661
 20
282.0425989466352
 30
0.0
 10
49.81413300097618
 20
282.0020344522371
 30
0.0
 10
49.70648059779035
 20
281.9512385913452
 30
0.0
 10
49.59832258191908
 20
281.9094869554762
 30
0.0
 10
49.49274336095066
 20
281.8800723703349
 30
0.0
 10
49.38791181580493
 20
281.8631577829468
 30
0.0
 10
49.30318414595554
 20
281.8612925597184
 30
0.0
 10
49.23736020955181
 20
281.8682478677383
 30
0.0
 10
49.19065300633771
 20
281.8774449948916
 30
0.0
 10
49.14547238903369
 20
281.8909784398788
 30
0.0
 10
49.10233277838196
 20
281.908771698685
 30
0.0
 10
49.0613783018038
 20
281.9310000563887
 30
0.0
 10
49.02273087533304
 20
281.9575350880906
 30
0.0
 10
48.98682479670097
 20
281.9882303656207
 30
0.0
 10
48.94138547516676
 20
282.0357678387303
 30
0.0
 10
48.89284233507652
 20
282.1049372058039
 30
0.0
 10
48.84661662610337
 20
282.2010952604957
 30
0.0
 10
48.81265075232331
 20
282.3066706934745
 30
0.0
 10
48.7896953281461
 20
282.4230883843802
 30
0.0
 10
48.77625076979494
 20
282.5448356930683
 30
0.0
 10
48.77479338349887
 20
282.6289390566187
 30
0.0
 10
48.7740648421
 20
282.6709819812
 30
0.0
 11
49.9199075177
 21
282.0628784719
 31
0.0
 11
49.81336289363946
 21
282.0034940207399
 31
0.0
 11
49.70307000447078
 21
281.9513237464431
 31
0.0
 11
49.59775199661836
 21
281.9112137220486
 31
0.0
 11
49.4890282680753
 21
281.8813194137496
 31
0.0
 11
49.38756411595416
 21
281.8655000539565
 31
0.0
 11
49.28516457536976
 21
281.8638508248745
 31
0.0
 11
49.23746071915721
 21
281.86895423746
 31
0.0
 11
49.19040994889576
 21
281.8782910399939
 31
0.0
 11
49.14573038146234
 21
281.8917143022829
 31
0.0
 11
49.10262424486641
 21
281.9095454824793
 31
0.0
 11
49.06180165206956
 21
281.9316897473992
 31
0.0
 11
49.02351439552341
 21
281.9579779406459
 31
0.0
 11
48.98737729851285
 21
281.988805920413
 31
0.0
 11
48.95452479814097
 21
282.0231237889241
 31
0.0
 11
48.89535240388714
 21
282.1061926925275
 31
0.0
 11
48.85045268028608
 21
282.1981984666669
 31
0.0
 11
48.81481452071858
 21
282.3072169938366
 31
0.0
 11
48.79196295735235
 21
282.4195566401366
 31
0.0
 11
48.7781962010298
 21
282.544952705814
 31
0.0
 11
48.7740648421
 21
282.6709819812
 31
0.0
  0
SPLINE
  5
F5
330
1F
100
AcDbEntity
  8
BEZUGSACHSEN
  6
Continuous
 62
     7
100
AcDbSpline
210
0.0
220
0.0
230
1.0
 70
     8
 71
     3
 72
    27
 73
    23
 74
    21
 42
0.0000000001
 43
0.0000000001
 44
0.00000001
 40
0.0
 40
0.0
 40
0.0
 40
0.0
 40
0.1260969825525345
 40
0.2522464959194702
 40
0.3668867952504618
 40
0.4815825893953268
 40
0.5839596006874436
 40
0.6859489161357543
 40
0.7334568410428051
 40
0.7809568848814725
 40
0.8274002264431609
 40
0.8738421607341902
 40
0.9204907319212092
 40
0.9671431399561039
 40
1.015111401852853
 40
1.063087497173058
 40
1.165500418776343
 40
1.268190478995118
 40
1.380949153953261
 40
1.493646517838457
 40
1.615655563773769
 40
1.737631867675555
 40
1.737631867675555
 40
1.737631867675555
 40
1.737631867675555
 10
48.7740648421
 20
311.9394469535
 30
0.0
 10
48.77479338357628
 20
311.981489881561
 30
0.0
 10
48.77625077003236
 20
312.0655932523706
 30
0.0
 10
48.78969533198079
 20
312.187340579933
 30
0.0
 10
48.81265076526629
 20
312.3037582963113
 30
0.0
 10
48.846616665602
 20
312.4093337541045
 30
0.0
 10
48.89284242444937
 20
312.5054918163671
 30
0.0
 10
48.94138559300083
 20
312.574661182038
 30
0.0
 10
48.9868249185718
 20
312.6221986636338
 30
0.0
 10
49.02273099666805
 20
312.6528939471042
 30
0.0
 10
49.06137842775307
 20
312.679428982839
 30
0.0
 10
49.10233291495287
 20
312.7016573287689
 30
0.0
 10
49.14547254113114
 20
312.7194505456604
 30
0.0
 10
49.19065317574655
 20
312.7329839527223
 30
0.0
 10
49.23736039873616
 20
312.742181078056
 30
0.0
 10
49.30318438994112
 20
312.7491363984308
 30
0.0
 10
49.38791214194551
 20
312.7472711417647
 30
0.0
 10
49.49274374544441
 20
312.7303564807762
 30
0.0
 10
49.59832298780621
 20
312.7009418479064
 30
0.0
 10
49.7064809259103
 20
312.6591902104651
 30
0.0
 10
49.81413318717867
 20
312.608394383317
 30
0.0
 10
49.8846525620158
 20
312.5678299551013
 30
0.0
 10
49.9199075177
 20
312.5475504628
 30
0.0
 11
48.7740648421
 21
311.9394469535
 31
0.0
 11
48.77819620166465
 21
312.0654762392911
 31
0.0
 11
48.79196296078566
 21
312.1908723160479
 31
0.0
 11
48.8148145368678
 21
312.3032119960424
 31
0.0
 11
48.85045272623867
 21
312.4122305479173
 31
0.0
 11
48.89535249103879
 21
312.504236327964
 31
0.0
 11
48.95452491999295
 21
312.587305239822
 31
0.0
 11
48.98737742015447
 21
312.6216231092505
 31
0.0
 11
49.02351451508128
 21
312.6524510922355
 31
0.0
 11
49.06180177994273
 21
312.6787392896794
 31
0.0
 11
49.10262438787998
 21
312.7008835427011
 31
0.0
 11
49.14573053149803
 21
312.7187146833313
 31
0.0
 11
49.19041010354238
 21
312.7321379101188
 31
0.0
 11
49.23746090929752
 21
312.7414747097411
 31
0.0
 11
49.28516479657158
 21
312.7465781263532
 31
0.0
 11
49.38756443743113
 21
312.7449288649563
 31
0.0
 11
49.48902868774449
 21
312.7291094346226
 31
0.0
 11
49.5977524042116
 21
312.6992150830508
 31
0.0
 11
49.70307039651985
 21
312.6591050304102
 31
0.0
 11
49.81336308240638
 21
312.606934821191
 31
0.0
 11
49.9199075177
 21
312.5475504628
 31
0.0
  0
SPLINE
  5
F6
330
1F
100
AcDbEntity
  8
BEZUGSACHSEN
  6
Continuous
 62
     7
100
AcDbSpline
210
0.0
220
0.0
230
1.0
 70
     8
 71
     3
 72
    15
 73
    11
 74
     9
 42
0.0000000001
 43
0.0000000001
 44
0.00000001
 40
0.0
 40
0.0
 40
0.0
 40
0.0
 40
0.1110371613045391
 40
0.2222522336839722
 40
0.3333980191313705
 40
0.4445069474231622
 40
0.5556201064652149
 40
0.6667525641583307
 40
0.7778876032716057
 40
0.8889820914985465
 40
0.8889820914985465
 40
0.8889820914985465
 40
0.8889820914985465
 10
50.6739903573
 20
281.6286820811
 30
0.0
 10
50.63734863044017
 20
281.6342142339145
 30
0.0
 10
50.56400646692518
 20
281.6452874035243
 30
0.0
 10
50.45748991692775
 20
281.6783059670454
 30
0.0
 10
50.35507700919181
 20
281.7218962545318
 30
0.0
 10
50.25762704359405
 20
281.7756757623874
 30
0.0
 10
50.1653222478807
 20
281.8377708977596
 30
0.0
 10
50.07832561975803
 20
281.9070575713915
 30
0.0
 10
49.99607286427819
 20
281.9819395229699
 30
0.0
 10
49.94529287790074
 20
282.0359021044945
 30
0.0
 10
49.9199075177
 20
282.0628784719
 30
0.0
 11
50.6739903573
 21
281.6286820811
 31
0.0
 11
50.56464807225125
 21
281.6480086403097
 31
0.0
 11
50.45815611866315
 21
281.6800750736218
 31
0.0
 11
50.35588793806743
 21
281.7236021325663
 31
0.0
 11
50.25848507164309
 21
281.7770612343028
 31
0.0
 11
50.16621330487106
 21
281.8389648300713
 31
0.0
 11
50.07911620146438
 21
281.9079903161694
 31
0.0
 11
49.99707629697783
 21
281.9829599833058
 31
0.0
 11
49.9199075177
 21
282.0628784719
 31
0.0
  0
SPLINE
  5
F7
330
1F
100
AcDbEntity
  8
BEZUGSACHSEN
  6
Continuous
 62
     7
100
AcDbSpline
210
0.0
220
0.0
230
1.0
 70
     8
 71
     3
 72
    15
 73
    11
 74
     9
 42
0.0000000001
 43
0.0000000001
 44
0.00000001
 40
0.0
 40
0.0
 40
0.0
 40
0.0
 40
0.1110944830744953
 40
0.2222295180904871
 40
0.333362040155372
 40
0.444475260996262
 40
0.5555842178015272
 40
0.6667300353922787
 40
0.777945018149864
 40
0.8889820870754256
 40
0.8889820870754256
 40
0.8889820870754256
 40
0.8889820870754256
 10
49.9199075177
 20
312.5475504628
 30
0.0
 10
49.94529287724502
 20
312.5745268284779
 30
0.0
 10
49.99607286255232
 20
312.6284894068033
 30
0.0
 10
50.0783256318056
 20
312.7033713701874
 30
0.0
 10
50.16532228375301
 20
312.7726580791191
 30
0.0
 10
50.25762712418781
 20
312.834753242216
 30
0.0
 10
50.35507714619424
 20
312.8885327343194
 30
0.0
 10
50.4574900600707
 20
312.93212297989
 30
0.0
 10
50.56400655862183
 20
312.9651415357314
 30
0.0
 10
50.63734866130879
 20
312.9762147023514
 30
0.0
 10
50.6739903573
 20
312.9817468536
 30
0.0
 11
49.9199075177
 21
312.5475504628
 31
0.0
 11
49.9970762947269
 21
312.6274689464053
 31
0.0
 11
50.07911619497827
 21
312.7024386121025
 31
0.0
 11
50.16621334359143
 21
312.7714641447984
 31
0.0
 11
50.2584851651786
 21
312.8333677697862
 31
0.0
 11
50.35588807327407
 21
312.8868268548597
 31
0.0
 11
50.45815629667434
 21
312.9303538953112
 31
0.0
 11
50.5646481647665
 21
312.9624203017206
 31
0.0
 11
50.6739903573
 21
312.9817468536
 31
0.0
  0
SPLINE
  5
F8
330
1F
100
AcDbEntity
  8
0
  6
Continuous
 62
     7
100
AcDbSpline
210
0.0
220
0.0
230
1.0
 70
     8
 71
     3
 72
    19
 73
    15
 74
    13
 42
0.0000000001
 43
0.0000000001
 44
0.00000001
 40
0.0
 40
0.0
 40
0.0
 40
0.0
 40
0.1162460235696269
 40
0.232788171782835
 40
0.3491890045693569
 40
0.4655468550442066
 40
0.5819071369852171
 40
0.6982738489255409
 40
0.8146206072806577
 40
0.9309998278197679
 40
1.163276323447223
 40
1.396138921785195
 40
1.629013178082888
 40
1.861351539742787
 40
1.861351539742787
 40
1.861351539742787
 40
1.861351539742787
 10
117.8990648421
 20
263.7828338836
 30
0.0
 10
117.8602807712598
 20
263.7809929367121
 30
0.0
 10
117.7826138311965
 20
263.7773063533159
 30
0.0
 10
117.6690037461321
 20
263.7489008683712
 30
0.0
 10
117.5608160581804
 20
263.7050469541688
 30
0.0
 10
117.4598401922056
 20
263.6464502659442
 30
0.0
 10
117.3670717354529
 20
263.5757654046224
 30
0.0
 10
117.2829843564365
 20
263.4950077995418
 30
0.0
 10
117.2076807130467
 20
263.4060401607982
 30
0.0
 10
117.1190294688842
 20
263.278680713046
 30
0.0
 10
117.0290327231791
 20
263.1058953349494
 30
0.0
 10
116.9541392040598
 20
262.8849703447585
 30
0.0
 10
116.9076022787335
 20
262.6559504251729
 30
0.0
 10
116.9019084680115
 20
262.5007710323396
 30
0.0
 10
116.8990648421
 20
262.4232707142
 30
0.0
 11
117.8990648421
 21
263.7828338836
 31
0.0
 11
117.7831934905496
 21
263.773508226217
 31
0.0
 11
117.6698689658615
 21
263.7463121894767
 31
0.0
 11
117.5619958332503
 21
263.7025795799726
 31
0.0
 11
117.4612070937255
 21
263.6444351103118
 31
0.0
 11
117.3685197886447
 21
263.5740875539204
 31
0.0
 11
117.2844444229859
 21
263.4936354281739
 31
0.0
 11
117.2091456650404
 21
263.4049412049594
 31
0.0
 11
117.1425189357289
 21
263.3095210712635
 31
0.0
 11
117.0346291496545
 21
263.1038218625101
 31
0.0
 11
116.9588710128419
 21
262.8836271886158
 31
0.0
 11
116.9139109990428
 21
262.6551342644248
 31
0.0
 11
116.8990648421
 21
262.4232707142
 31
0.0
  0
SPLINE
  5
F9
330
1F
100
AcDbEntity
  8
0
  6
Continuous
 62
     7
100
AcDbSpline
210
0.0
220
0.0
230
1.0
 70
     8
 71
     3
 72
    19
 73
    15
 74
    13
 42
0.0000000001
 43
0.0000000001
 44
0.00000001
 40
0.0
 40
0.0
 40
0.0
 40
0.0
 40
0.2323383481160783
 40
0.4652125957045093
 40
0.6980761132820946
 40
0.9303535187426657
 40
1.046733461810194
 40
1.163080940871178
 40
1.27944799741516
 40
1.395808629496961
 40
1.512165904467892
 40
1.628566140311311
 40
1.745106920504034
 40
1.861351602767026
 40
1.861351602767026
 40
1.861351602767026
 40
1.861351602767026
 10
120.6490648421
 20
262.4232707142
 30
0.0
 10
120.6462212164945
 20
262.500771027859
 30
0.0
 10
120.6405274063255
 20
262.6559504133438
 30
0.0
 10
120.5939904304695
 20
262.8849706273616
 30
0.0
 10
120.5190966846662
 20
263.1058961892476
 30
0.0
 10
120.4290993804099
 20
263.2786822534609
 30
0.0
 10
120.3404474426372
 20
263.4060421792025
 30
0.0
 10
120.2651431783086
 20
263.4950100781228
 30
0.0
 10
120.1810552044941
 20
263.5757677480615
 30
0.0
 10
120.0882864706605
 20
263.6464523144085
 30
0.0
 10
119.9873106584184
 20
263.7050485385664
 30
0.0
 10
119.879123608908
 20
263.7489017897221
 30
0.0
 10
119.7655144995539
 20
263.7773065491724
 30
0.0
 10
119.6878484647618
 20
263.7809930018194
 30
0.0
 10
119.6490648421
 20
263.7828338836
 30
0.0
 11
120.6490648421
 21
262.4232707142
 31
0.0
 11
120.6342186879797
 21
262.6551342510339
 31
0.0
 11
120.5892586863736
 21
262.8836271687479
 31
0.0
 11
120.5135002076562
 21
263.1038226971336
 31
0.0
 11
120.4056097964736
 21
263.3095226054037
 31
0.0
 11
120.3389824726522
 21
263.4049432052174
 31
0.0
 11
120.2636830161101
 21
263.4936377807466
 31
0.0
 11
120.1796071497906
 21
263.5740898817219
 31
0.0
 11
120.0869193238228
 21
263.6444373309708
 31
0.0
 11
119.9861308889182
 21
263.7025811769749
 31
0.0
 11
119.8782581601266
 21
263.7463131937071
 31
0.0
 11
119.7649348715727
 21
263.773508519027
 31
0.0
 11
119.6490648421
 21
263.7828338836
 31
0.0
  0
SPLINE
  5
FA
330
1F
100
AcDbEntity
  8
BEZUGSACHSEN
  6
Continuous
 62
     7
100
AcDbSpline
210
0.0
220
0.0
230
1.0
 70
     8
 71
     3
 72
    11
 73
     7
 74
     5
 42
0.0000000001
 43
0.0000000001
 44
0.00000001
 40
0.0
 40
0.0
 40
0.0
 40
0.0
 40
0.546290743095899
 40
1.093000863574729
 40
1.646070107108866
 40
2.198197048707559
 40
2.198197048707559
 40
2.198197048707559
 40
2.198197048707559
 10
58.327910789
 20
312.3152144673
 30
0.0
 10
58.39098159085835
 20
312.1442828380748
 30
0.0
 10
58.51717161287274
 20
311.8022883585479
 30
0.0
 10
58.65680892585689
 20
311.2710142293367
 30
0.0
 10
58.75429728991055
 20
310.7275898243847
 30
0.0
 10
58.76747940444019
 20
310.3590051838096
 30
0.0
 10
58.7740648421
 20
310.1748699931
 30
0.0
 11
58.327910789
 21
312.3152144673
 31
0.0
 11
58.50876212160428
 21
311.7997279286906
 31
0.0
 11
58.6492536062775
 21
311.2713775728013
 31
0.0
 11
58.74132025953283
 21
310.7260251000814
 31
0.0
 11
58.7740648421
 21
310.1748699931
 31
0.0
  0
SPLINE
  5
FB
330
1F
100
AcDbEntity
  8
BEZUGSACHSEN
  6
Continuous
 62
     7
100
AcDbSpline
210
0.0
220
0.0
230
1.0
 70
     8
 71
     3
 72
    11
 73
     7
 74
     5
 42
0.0000000001
 43
0.0000000001
 44
0.00000001
 40
0.0
 40
0.0
 40
0.0
 40
0.0
 40
0.9140556660003477
 40
1.82803094918595
 40
2.279806974883474
 40
2.730944124862249
 40
2.730944124862249
 40
2.730944124862249
 40
2.730944124862249
 10
50.0410177689854
 20
282.295214467485
 30
0.0
 10
50.17367247594865
 20
282.5699310651515
 30
0.0
 10
50.43897022411004
 20
283.1193401016788
 30
0.0
 10
50.65432543742532
 20
283.8520510227875
 30
0.0
 10
50.75801965108977
 20
284.449996228927
 30
0.0
 10
50.76871896860765
 20
284.7511194443873
 30
0.0
 10
50.7740648421
 20
284.901574519
 30
0.0
 11
50.0410177689854
 21
282.295214467485
 31
0.0
 11
50.41582529876089
 21
283.1288913090555
 31
0.0
 11
50.67511665915877
 21
284.005315184071
 31
0.0
 11
50.74783363265738
 21
284.4512006168452
 31
0.0
 11
50.7740648421
 21
284.901574519
 31
0.0
  0
SPLINE
  5
FC
330
1F
100
AcDbEntity
  8
BEZUGSACHSEN
  6
Continuous
 62
     7
100
AcDbSpline
210
0.0
220
0.0
230
1.0
 70
     8
 71
     3
 72
    11
 73
     7
 74
     5
 42
0.0000000001
 43
0.0000000001
 44
0.00000001
 40
0.0
 40
0.0
 40
0.0
 40
0.0
 40
0.824919236672416
 40
1.650116891930981
 40
2.19049215229343
 40
2.730585915378257
 40
2.730585915378257
 40
2.730585915378257
 40
2.730585915378257
 10
50.7740648421
 20
309.7088544157
 30
0.0
 10
50.75633153776181
 20
309.9840447076768
 30
0.0
 10
50.72085894391587
 20
310.5345181711375
 30
0.0
 10
50.51242412728052
 20
311.2392517562906
 30
0.0
 10
50.28219769630077
 20
311.8314654813707
 30
0.0
 10
50.12139711349882
 20
312.153992814816
 30
0.0
 10
50.0410177689854
 20
312.315214467115
 30
0.0
 11
50.7740648421
 21
309.7088544157
 31
0.0
 11
50.69048938798429
 21
310.5295290713959
 31
0.0
 11
50.47252794587253
 21
311.3254210112952
 31
0.0
 11
50.27459286731332
 21
311.828240190213
 31
0.0
 11
50.0410177689854
 21
312.315214467115
 31
0.0
  0
DIMENSION
  5
109
330
1F
100
AcDbEntity
  8
1
100
AcDbDimension
  2
*D2
 10
240.600344961522
 20
301.3052144673
 30
0.0
 11
236.850344961522
 21
297.492986890653
 31
0.0
 70
    32
  1
<>
 71
     5
 42
-1.0
 53
90.0
  3
ME10_DIM_10
100
AcDbAlignedDimension
 13
228.7740648421
 23
293.3052144673
 33
0.0
 14
228.7740648421
 24
301.3052144673
 34
0.0
 50
90.0
100
AcDbRotatedDimension
  0
DIMENSION
  5
114
330
1F
100
AcDbEntity
  8
1
100
AcDbDimension
  2
*D3
 10
250.883053174777
 20
307.8052144673466
 30
0.0
 11
247.133053174777
 21
297.112145845717
 31
0.0
 70
    32
  1
<>
 71
     5
 42
-1.0
 53
90.0
  3
ME10_DIM_11
100
AcDbAlignedDimension
 13
228.7740648421
 23
286.8052144673487
 33
0.0
 14
228.7740648421
 24
307.8052144673466
 34
0.0
 50
90.0
100
AcDbRotatedDimension
  0
DIMENSION
  5
11F
330
1F
100
AcDbEntity
  8
1
100
AcDbDimension
  2
*D4
 10
259.261556163356
 20
310.8052144673
 30
0.0
 11
255.511556163356
 21
297.112145845717
 31
0.0
 70
    32
  1
<>
 71
     5
 42
-1.0
 53
90.0
  3
ME10_DIM_12
100
AcDbAlignedDimension
 13
190.6554506336
 23
283.8052144673
 33
0.0
 14
190.6554506336
 24
310.8052144673
 34
0.0
 50
90.0
100
AcDbRotatedDimension
  0
DIMENSION
  5
12A
330
1F
100
AcDbEntity
  8
1
100
AcDbDimension
  2
*D5
 10
228.7740648421
 20
354.619143630962
 30
0.0
 11
177.761572547182
 21
358.369143630962
 31
0.0
 70
    32
  1
<>
 71
     5
 42
-1.0
 53
0.00013888888889
  3
ME10_DIM_13
100
AcDbAlignedDimension
 13
127.7740648421
 23
347.3051775462
 33
0.0
 14
228.7740648421
 24
306.8808239757
 34
0.0
100
AcDbRotatedDimension
  0
DIMENSION
  5
135
330
1F
100
AcDbEntity
  8
1
100
AcDbDimension
  2
*D6
 10
228.7740648421
 20
361.474282439799
 30
0.0
 11
165.57465910925
 21
365.224282439799
 31
0.0
 70
    32
  1
<>
 71
     5
 42
-1.0
 53
0.00013888888889
  3
ME10_DIM_14
100
AcDbAlignedDimension
 13
98.7740648421
 23
347.3052144673
 33
0.0
 14
228.7740648421
 24
306.8808239757
 34
0.0
100
AcDbRotatedDimension
  0
DIMENSION
  5
140
330
1F
100
AcDbEntity
  8
1
100
AcDbDimension
  2
*D7
 10
228.7740648421
 20
368.900682816039
 30
0.0
 11
147.294288952351
 21
372.650682816039
 31
0.0
 70
    32
  1
<>
 71
     5
 42
-1.0
 53
0.00013888888889
  3
ME10_DIM_15
100
AcDbAlignedDimension
 13
48.7740648421
 23
330.9054060299
 33
0.0
 14
228.7740648421
 24
306.8808239757
 34
0.0
100
AcDbRotatedDimension
  0
INSERT
  5
147
330
1F
100
AcDbEntity
  8
1
100
AcDbBlockReference
  2
*D8
 10
0.0
 20
0.0
 30
0.0
  0
DIMENSION
  5
152
330
1F
100
AcDbEntity
  8
1
100
AcDbDimension
  2
*D9
 10
214.7579717087435
 20
309.8582238351098
 30
0.0
 11
217.781667523755
 21
317.20580448176
 31
0.0
 70
    37
  1
<>
 71
     5
 42
-1.0
  3
ME10_DIM_16
100
AcDb3PointAngularDimension
 13
214.7022108607425
 23
308.9126933938351
 33
0.0
 14
193.0675623918633
 24
310.8052144673
 34
0.0
 15
190.6554506336001
 25
310.8052144673
 35
0.0
  0
ENDSEC
  0
SECTION
  2
OBJECTS
  0
DICTIONARY
  5
C
330
0
100
AcDbDictionary
281
     1
  3
ACAD_GROUP
350
D
  3
ACAD_LAYOUT
350
1A
  3
ACAD_MLEADERSTYLE
350
155
  3
ACAD_MLINESTYLE
350
17
  3
ACAD_PLOTSETTINGS
350
19
  3
ACAD_PLOTSTYLENAME
350
E
  3
ACAD_SCALELIST
350
4A
  3
ACAD_VISUALSTYLE
350
2A
  3
AcDbVariableDictionary
350
153
  0
DICTIONARY
  5
D
102
{ACAD_REACTORS
330
C
102
}
330
C
100
AcDbDictionary
281
     1
  0
DICTIONARY
  5
1A
102
{ACAD_REACTORS
330
C
102
}
330
C
100
AcDbDictionary
281
     1
  3
Layout1
350
1E
  3
Layout2
350
26
  3
Model
350
22
  0
DICTIONARY
  5
155
102
{ACAD_REACTORS
330
C
102
}
330
C
100
AcDbDictionary
281
     1
  0
DICTIONARY
  5
17
102
{ACAD_REACTORS
330
C
102
}
330
C
100
AcDbDictionary
281
     1
  3
Standard
350
18
  0
DICTIONARY
  5
19
102
{ACAD_REACTORS
330
C
102
}
330
C
100
AcDbDictionary
281
     1
  0
ACDBDICTIONARYWDFLT
  5
E
102
{ACAD_REACTORS
330
C
102
}
330
C
100
AcDbDictionary
281
     1
  3
Normal
350
F
100
AcDbDictionaryWithDefault
340
F
  0
DICTIONARY
  5
4A
102
{ACAD_REACTORS
330
C
102
}
330
C
100
AcDbDictionary
281
     1
  3
A0
350
4B
  3
A1
350
4C
  3
A2
350
4D
  3
A3
350
4E
  3
A4
350
4F
  3
A5
350
50
  3
A6
350
51
  3
A7
350
52
  3
A8
350
53
  3
A9
350
54
  3
B0
350
55
  3
B1
350
56
  3
B2
350
57
  3
B3
350
58
  3
B4
350
59
  3
B5
350
5A
  3
B6
350
5B
  3
B7
350
5C
  3
B8
350
5D
  3
B9
350
5E
  3
C0
350
5F
  3
C1
350
60
  3
C2
350
61
  3
C3
350
62
  3
C4
350
63
  3
C5
350
64
  3
C6
350
65
  3
C7
350
66
  3
C8
350
67
  3
C9
350
68
  3
D0
350
69
  3
D1
350
6A
  3
D2
350
6B
  0
DICTIONARY
  5
2A
102
{ACAD_REACTORS
330
C
102
}
330
C
100
AcDbDictionary
281
     1
  3
2dWireframe
350
2F
  3
3D Hidden
350
31
  3
3dWireframe
350
30
  3
Basic
350
32
  3
Brighten
350
36
  3
ColorChange
350
3A
  3
Conceptual
350
34
  3
Dim
350
35
  3
Facepattern
350
39
  3
Flat
350
2B
  3
FlatWithEdges
350
2C
  3
Gouraud
350
2D
  3
GouraudWithEdges
350
2E
  3
Linepattern
350
38
  3
Realistic
350
33
  3
Thicken
350
37
  0
DICTIONARY
  5
153
102
{ACAD_REACTORS
330
C
102
}
330
C
100
AcDbDictionary
281
     1
  3
CANNOSCALE
350
156
  0
LAYOUT
  5
1E
102
{ACAD_REACTORS
330
1A
102
}
330
1A
100
AcDbPlotSettings
  1

  2
none_device
  4

  6

 40
0.0
 41
0.0
 42
0.0
 43
0.0
 44
0.0
 45
0.0
 46
0.0
 47
0.0
 48
0.0
 49
0.0
140
0.0
141
0.0
142
1.0
143
1.0
 70
   688
 72
     0
 73
     0
 74
     5
  7

 75
    16
147
1.0
148
0.0
149
0.0
100
AcDbLayout
  1
Layout1
 70
     1
 71
     1
 10
0.0
 20
0.0
 11
12.0
 21
9.0
 12
0.0
 22
0.0
 32
0.0
 14
1.00000000000000E+20
 24
1.00000000000000E+20
 34
1.00000000000000E+20
 15
-1.00000000000000E+20
 25
-1.00000000000000E+20
 35
-1.00000000000000E+20
146
0.0
 13
0.0
 23
0.0
 33
0.0
 16
1.0
 26
0.0
 36
0.0
 17
0.0
 27
1.0
 37
0.0
 76
     0
330
1B
  0
LAYOUT
  5
26
102
{ACAD_REACTORS
330
1A
102
}
330
1A
100
AcDbPlotSettings
  1

  2
none_device
  4

  6

 40
0.0
 41
0.0
 42
0.0
 43
0.0
 44
0.0
 45
0.0
 46
0.0
 47
0.0
 48
0.0
 49
0.0
140
0.0
141
0.0
142
1.0
143
1.0
 70
   688
 72
     0
 73
     0
 74
     5
  7

 75
    16
147
1.0
148
0.0
149
0.0
100
AcDbLayout
  1
Layout2
 70
     1
 71
     2
 10
0.0
 20
0.0
 11
0.0
 21
0.0
 12
0.0
 22
0.0
 32
0.0
 14
0.0
 24
0.0
 34
0.0
 15
0.0
 25
0.0
 35
0.0
146
0.0
 13
0.0
 23
0.0
 33
0.0
 16
1.0
 26
0.0
 36
0.0
 17
0.0
 27
1.0
 37
0.0
 76
     0
330
23
  0
LAYOUT
  5
22
102
{ACAD_REACTORS
330
1A
102
}
330
1A
100
AcDbPlotSettings
  1

  2
none_device
  4

  6

 40
0.0
 41
0.0
 42
0.0
 43
0.0
 44
0.0
 45
0.0
 46
0.0
 47
0.0
 48
0.0
 49
0.0
140
0.0
141
0.0
142
1.0
143
1.0
 70
  1712
 72
     0
 73
     0
 74
     0
  7

 75
     0
147
1.0
148
0.0
149
0.0
100
AcDbLayout
  1
Model
 70
     1
 71
     0
 10
0.0
 20
0.0
 11
12.0
 21
9.0
 12
0.0
 22
0.0
 32
0.0
 14
28.3725810726504
 24
247.3052144673
 34
0.0
 15
261.261556163356
 25
374.400682816039
 35
0.0
146
0.0
 13
0.0
 23
0.0
 33
0.0
 16
1.0
 26
0.0
 36
0.0
 17
0.0
 27
1.0
 37
0.0
 76
     0
330
1F
331
29
  0
MLINESTYLE
  5
18
102
{ACAD_REACTORS
330
17
102
}
330
17
100
AcDbMlineStyle
  2
Standard
 70
     0
  3

 62
   256
 51
90.0
 52
90.0
 71
     2
 49
0.5
 62
   256
  6
BYLAYER
 49
-0.5
 62
   256
  6
BYLAYER
  0
ACDBPLACEHOLDER
  5
F
102
{ACAD_REACTORS
330
E
102
}
330
E
  0
SCALE
  5
4B
102
{ACAD_REACTORS
330
4A
102
}
330
4A
100
AcDbScale
 70
     0
300
1:1
140
1.0
141
1.0
290
     1
  0
SCALE
  5
4C
102
{ACAD_REACTORS
330
4A
102
}
330
4A
100
AcDbScale
 70
     0
300
1:2
140
1.0
141
2.0
290
     0
  0
SCALE
  5
4D
102
{ACAD_REACTORS
330
4A
102
}
330
4A
100
AcDbScale
 70
     0
300
1:4
140
1.0
141
4.0
290
     0
  0
SCALE
  5
4E
102
{ACAD_REACTORS
330
4A
102
}
330
4A
100
AcDbScale
 70
     0
300
1:5
140
1.0
141
5.0
290
     0
  0
SCALE
  5
4F
102
{ACAD_REACTORS
330
4A
102
}
330
4A
100
AcDbScale
 70
     0
300
1:8
140
1.0
141
8.0
290
     0
  0
SCALE
  5
50
102
{ACAD_REACTORS
330
4A
102
}
330
4A
100
AcDbScale
 70
     0
300
1:10
140
1.0
141
10.0
290
     0
  0
SCALE
  5
51
102
{ACAD_REACTORS
330
4A
102
}
330
4A
100
AcDbScale
 70
     0
300
1:16
140
1.0
141
16.0
290
     0
  0
SCALE
  5
52
102
{ACAD_REACTORS
330
4A
102
}
330
4A
100
AcDbScale
 70
     0
300
1:20
140
1.0
141
20.0
290
     0
  0
SCALE
  5
53
102
{ACAD_REACTORS
330
4A
102
}
330
4A
100
AcDbScale
 70
     0
300
1:30
140
1.0
141
30.0
290
     0
  0
SCALE
  5
54
102
{ACAD_REACTORS
330
4A
102
}
330
4A
100
AcDbScale
 70
     0
300
1:40
140
1.0
141
40.0
290
     0
  0
SCALE
  5
55
102
{ACAD_REACTORS
330
4A
102
}
330
4A
100
AcDbScale
 70
     0
300
1:50
140
1.0
141
50.0
290
     0
  0
SCALE
  5
56
102
{ACAD_REACTORS
330
4A
102
}
330
4A
100
AcDbScale
 70
     0
300
1:100
140
1.0
141
100.0
290
     0
  0
SCALE
  5
57
102
{ACAD_REACTORS
330
4A
102
}
330
4A
100
AcDbScale
 70
     0
300
2:1
140
2.0
141
1.0
290
     0
  0
SCALE
  5
58
102
{ACAD_REACTORS
330
4A
102
}
330
4A
100
AcDbScale
 70
     0
300
4:1
140
4.0
141
1.0
290
     0
  0
SCALE
  5
59
102
{ACAD_REACTORS
330
4A
102
}
330
4A
100
AcDbScale
 70
     0
300
8:1
140
8.0
141
1.0
290
     0
  0
SCALE
  5
5A
102
{ACAD_REACTORS
330
4A
102
}
330
4A
100
AcDbScale
 70
     0
300
10:1
140
10.0
141
1.0
290
     0
  0
SCALE
  5
5B
102
{ACAD_REACTORS
330
4A
102
}
330
4A
100
AcDbScale
 70
     0
300
100:1
140
100.0
141
1.0
290
     0
  0
SCALE
  5
5C
102
{ACAD_REACTORS
330
4A
102
}
330
4A
100
AcDbScale
 70
     0
300
1/128" = 1'-0"
140
0.0078125
141
12.0
290
     0
  0
SCALE
  5
5D
102
{ACAD_REACTORS
330
4A
102
}
330
4A
100
AcDbScale
 70
     0
300
1/64" = 1'-0"
140
0.015625
141
12.0
290
     0
  0
SCALE
  5
5E
102
{ACAD_REACTORS
330
4A
102
}
330
4A
100
AcDbScale
 70
     0
300
1/32" = 1'-0"
140
0.03125
141
12.0
290
     0
  0
SCALE
  5
5F
102
{ACAD_REACTORS
330
4A
102
}
330
4A
100
AcDbScale
 70
     0
300
1/16" = 1'-0"
140
0.0625
141
12.0
290
     0
  0
SCALE
  5
60
102
{ACAD_REACTORS
330
4A
102
}
330
4A
100
AcDbScale
 70
     0
300
3/32" = 1'-0"
140
0.09375
141
12.0
290
     0
  0
SCALE
  5
61
102
{ACAD_REACTORS
330
4A
102
}
330
4A
100
AcDbScale
 70
     0
300
1/8" = 1'-0"
140
0.125
141
12.0
290
     0
  0
SCALE
  5
62
102
{ACAD_REACTORS
330
4A
102
}
330
4A
100
AcDbScale
 70
     0
300
3/16" = 1'-0"
140
0.1875
141
12.0
290
     0
  0
SCALE
  5
63
102
{ACAD_REACTORS
330
4A
102
}
330
4A
100
AcDbScale
 70
     0
300
1/4" = 1'-0"
140
0.25
141
12.0
290
     0
  0
SCALE
  5
64
102
{ACAD_REACTORS
330
4A
102
}
330
4A
100
AcDbScale
 70
     0
300
3/8" = 1'-0"
140
0.375
141
12.0
290
     0
  0
SCALE
  5
65
102
{ACAD_REACTORS
330
4A
102
}
330
4A
100
AcDbScale
 70
     0
300
1/2" = 1'-0"
140
0.5
141
12.0
290
     0
  0
SCALE
  5
66
102
{ACAD_REACTORS
330
4A
102
}
330
4A
100
AcDbScale
 70
     0
300
3/4" = 1'-0"
140
0.75
141
12.0
290
     0
  0
SCALE
  5
67
102
{ACAD_REACTORS
330
4A
102
}
330
4A
100
AcDbScale
 70
     0
300
1" = 1'-0"
140
1.0
141
12.0
290
     0
  0
SCALE
  5
68
102
{ACAD_REACTORS
330
4A
102
}
330
4A
100
AcDbScale
 70
     0
300
1-1/2" = 1'-0"
140
1.5
141
12.0
290
     0
  0
SCALE
  5
69
102
{ACAD_REACTORS
330
4A
102
}
330
4A
100
AcDbScale
 70
     0
300
3" = 1'-0"
140
3.0
141
12.0
290
     0
  0
SCALE
  5
6A
102
{ACAD_REACTORS
330
4A
102
}
330
4A
100
AcDbScale
 70
     0
300
6" = 1'-0"
140
6.0
141
12.0
290
     0
  0
SCALE
  5
6B
102
{ACAD_REACTORS
330
4A
102
}
330
4A
100
AcDbScale
 70
     0
300
1'-0" = 1'-0"
140
12.0
141
12.0
290
     0
  0
VISUALSTYLE
  5
2F
102
{ACAD_REACTORS
330
2A
102
}
330
2A
100
AcDbVisualStyle
  2
2dWireframe
 70
     4
 71
     0
 72
     2
 73
     0
 90
        0
 40
-0.6
 41
-30.0
 62
     5
 63
     7
 74
     1
 91
        4
 64
     7
 65
   257
 75
     1
175
     1
 42
1.0
 92
        0
 66
   257
 43
1.0
 76
     1
 77
     6
 78
     2
 67
     7
 79
     5
170
     0
171
     0
290
     0
174
     0
 93
        1
 44
0.0
173
     0
291
     0
 45
0.0
1001
ACAD
1000
AcDbSavedByObjectVersion
1070
     0
  0
VISUALSTYLE
  5
31
102
{ACAD_REACTORS
330
2A
102
}
330
2A
100
AcDbVisualStyle
  2
3D Hidden
 70
     6
 71
     1
 72
     2
 73
     2
 90
        0
 40
-0.6
 41
-30.0
 62
     5
 63
     7
 74
     2
 91
        2
 64
     7
 65
   257
 75
     2
175
     1
 42
40.0
 92
        0
 66
   257
 43
1.0
 76
     1
 77
     6
 78
     2
 67
     7
 79
     3
170
     0
171
     0
290
     0
174
     0
 93
        1
 44
0.0
173
     0
291
     0
 45
0.0
1001
ACAD
1000
AcDbSavedByObjectVersion
1070
     0
  0
VISUALSTYLE
  5
30
102
{ACAD_REACTORS
330
2A
102
}
330
2A
100
AcDbVisualStyle
  2
3dWireframe
 70
     5
 71
     0
 72
     2
 73
     0
 90
        0
 40
-0.6
 41
-30.0
 62
     5
 63
     7
 74
     1
 91
        4
 64
     7
 65
   257
 75
     1
175
     1
 42
1.0
 92
        0
 66
   257
 43
1.0
 76
     1
 77
     6
 78
     2
 67
     7
 79
     5
170
     0
171
     0
290
     0
174
     0
 93
        1
 44
0.0
173
     0
291
     0
 45
0.0
1001
ACAD
1000
AcDbSavedByObjectVersion
1070
     0
  0
VISUALSTYLE
  5
32
102
{ACAD_REACTORS
330
2A
102
}
330
2A
100
AcDbVisualStyle
  2
Basic
 70
     7
 71
     1
 72
     0
 73
     1
 90
        0
 40
-0.6
 41
-30.0
 62
     5
 63
     7
 74
     0
 91
        4
 64
     7
 65
   257
 75
     1
175
     1
 42
1.0
 92
        8
 66
     7
 43
1.0
 76
     1
 77
     6
 78
     2
 67
     7
 79
     5
170
     0
171
     0
290
     0
174
     0
 93
        1
 44
0.0
173
     0
291
     1
 45
0.0
1001
ACAD
1000
AcDbSavedByObjectVersion
1070
     0
  0
VISUALSTYLE
  5
36
102
{ACAD_REACTORS
330
2A
102
}
330
2A
100
AcDbVisualStyle
  2
Brighten
 70
    12
 71
     2
 72
     2
 73
     0
 90
        0
 40
-0.6
 41
-30.0
 62
     5
 63
     7
 74
     1
 91
        4
 64
     7
 65
   257
 75
     1
175
     1
 42
1.0
 92
        8
 66
     7
 43
1.0
 76
     1
 77
     6
 78
     2
 67
     7
 79
     5
170
     0
171
     0
290
     0
174
     0
 93
        1
 44
50.0
173
     0
291
     1
 45
0.0
1001
ACAD
1000
AcDbSavedByObjectVersion
1070
     0
  0
VISUALSTYLE
  5
3A
102
{ACAD_REACTORS
330
2A
102
}
330
2A
100
AcDbVisualStyle
  2
ColorChange
 70
    16
 71
     2
 72
     2
 73
     3
 90
        0
 40
-0.6
 41
-30.0
 62
     5
 63
     8
 74
     1
 91
        4
 64
     7
 65
   257
 75
     1
175
     1
 42
1.0
 92
        8
 66
     8
 43
1.0
 76
     1
 77
     6
 78
     2
 67
     7
 79
     5
170
     0
171
     0
290
     0
174
     0
 93
        1
 44
0.0
173
     0
291
     1
 45
0.0
1001
ACAD
1000
AcDbSavedByObjectVersion
1070
     0
  0
VISUALSTYLE
  5
34
102
{ACAD_REACTORS
330
2A
102
}
330
2A
100
AcDbVisualStyle
  2
Conceptual
 70
     9
 71
     3
 72
     2
 73
     0
 90
        0
 40
-0.6
 41
-30.0
 62
     5
 63
     7
 74
     2
 91
        2
 64
     7
 65
   257
 75
     1
175
     1
 42
40.0
 92
        8
 66
     7
 43
1.0
 76
     1
 77
     6
 78
     2
 67
     7
 79
     3
170
     0
171
     0
290
     0
174
     0
 93
        1
 44
0.0
173
     0
291
     0
 45
0.0
1001
ACAD
1000
AcDbSavedByObjectVersion
1070
     0
  0
VISUALSTYLE
  5
35
102
{ACAD_REACTORS
330
2A
102
}
330
2A
100
AcDbVisualStyle
  2
Dim
 70
    11
 71
     2
 72
     2
 73
     0
 90
        0
 40
-0.6
 41
-30.0
 62
     5
 63
     7
 74
     1
 91
        4
 64
     7
 65
   257
 75
     1
175
     1
 42
1.0
 92
        8
 66
     7
 43
1.0
 76
     1
 77
     6
 78
     2
 67
     7
 79
     5
170
     0
171
     0
290
     0
174
     0
 93
        1
 44
-50.0
173
     0
291
     1
 45
0.0
1001
ACAD
1000
AcDbSavedByObjectVersion
1070
     0
  0
VISUALSTYLE
  5
39
102
{ACAD_REACTORS
330
2A
102
}
330
2A
100
AcDbVisualStyle
  2
Facepattern
 70
    15
 71
     2
 72
     2
 73
     0
 90
        0
 40
-0.6
 41
-30.0
 62
     5
 63
     7
 74
     1
 91
        4
 64
     7
 65
   257
 75
     1
175
     1
 42
1.0
 92
        8
 66
     7
 43
1.0
 76
     1
 77
     6
 78
     2
 67
     7
 79
     5
170
     0
171
     0
290
     0
174
     0
 93
        1
 44
0.0
173
     0
291
     1
 45
0.0
1001
ACAD
1000
AcDbSavedByObjectVersion
1070
     0
  0
VISUALSTYLE
  5
2B
102
{ACAD_REACTORS
330
2A
102
}
330
2A
100
AcDbVisualStyle
  2
Flat
 70
     0
 71
     2
 72
     1
 73
     1
 90
        2
 40
-0.6
 41
30.0
 62
     5
 63
     7
 74
     0
 91
        4
 64
     7
 65
   257
 75
     1
175
     1
 42
1.0
 92
        8
 66
     7
 43
1.0
 76
     1
 77
     6
 78
     2
 67
     7
 79
     5
170
     0
171
     0
290
     0
174
     0
 93
       13
 44
0.0
173
     0
291
     1
 45
0.0
1001
ACAD
1000
AcDbSavedByObjectVersion
1070
     0
  0
VISUALSTYLE
  5
2C
102
{ACAD_REACTORS
330
2A
102
}
330
2A
100
AcDbVisualStyle
  2
FlatWithEdges
 70
     1
 71
     2
 72
     1
 73
     1
 90
        2
 40
-0.6
 41
30.0
 62
     5
 63
     7
 74
     1
 91
        4
 64
     7
 65
   257
 75
     1
175
     1
 42
1.0
 92
        0
 66
   257
 43
1.0
 76
     1
 77
     6
 78
     2
 67
     7
 79
     5
170
     0
171
     0
290
     0
174
     0
 93
       13
 44
0.0
173
     0
291
     1
 45
0.0
1001
ACAD
1000
AcDbSavedByObjectVersion
1070
     0
  0
VISUALSTYLE
  5
2D
102
{ACAD_REACTORS
330
2A
102
}
330
2A
100
AcDbVisualStyle
  2
Gouraud
 70
     2
 71
     2
 72
     2
 73
     1
 90
        2
 40
-0.6
 41
30.0
 62
     5
 63
     7
 74
     0
 91
        4
 64
     7
 65
   257
 75
     1
175
     1
 42
1.0
 92
        0
 66
     7
 43
1.0
 76
     1
 77
     6
 78
     2
 67
     7
 79
     5
170
     0
171
     0
290
     0
174
     0
 93
       13
 44
0.0
173
     0
291
     1
 45
0.0
1001
ACAD
1000
AcDbSavedByObjectVersion
1070
     0
  0
VISUALSTYLE
  5
2E
102
{ACAD_REACTORS
330
2A
102
}
330
2A
100
AcDbVisualStyle
  2
GouraudWithEdges
 70
     3
 71
     2
 72
     2
 73
     1
 90
        2
 40
-0.6
 41
30.0
 62
     5
 63
     7
 74
     1
 91
        4
 64
     7
 65
   257
 75
     1
175
     1
 42
1.0
 92
        0
 66
   257
 43
1.0
 76
     1
 77
     6
 78
     2
 67
     7
 79
     5
170
     0
171
     0
290
     0
174
     0
 93
       13
 44
0.0
173
     0
291
     1
 45
0.0
1001
ACAD
1000
AcDbSavedByObjectVersion
1070
     0
  0
VISUALSTYLE
  5
38
102
{ACAD_REACTORS
330
2A
102
}
330
2A
100
AcDbVisualStyle
  2
Linepattern
 70
    14
 71
     2
 72
     2
 73
     0
 90
        0
 40
-0.6
 41
-30.0
 62
     5
 63
     7
 74
     1
 91
        4
 64
     7
 65
   257
 75
     7
175
     7
 42
1.0
 92
        8
 66
     7
 43
1.0
 76
     1
 77
     6
 78
     2
 67
     7
 79
     5
170
     0
171
     0
290
     0
174
     0
 93
        1
 44
0.0
173
     0
291
     1
 45
0.0
1001
ACAD
1000
AcDbSavedByObjectVersion
1070
     0
  0
VISUALSTYLE
  5
33
102
{ACAD_REACTORS
330
2A
102
}
330
2A
100
AcDbVisualStyle
  2
Realistic
 70
     8
 71
     2
 72
     2
 73
     0
 90
        0
 40
-0.6
 41
-30.0
 62
     5
 63
     7
 74
     1
 91
        0
 64
     7
 65
   257
 75
     1
175
     1
 42
1.0
 92
        8
 66
     8
 43
1.0
 76
     1
 77
     6
 78
     2
 67
     7
 79
     5
170
     0
171
     0
290
     0
174
     0
 93
       13
 44
0.0
173
     0
291
     0
 45
0.0
1001
ACAD
1000
AcDbSavedByObjectVersion
1070
     0
  0
VISUALSTYLE
  5
37
102
{ACAD_REACTORS
330
2A
102
}
330
2A
100
AcDbVisualStyle
  2
Thicken
 70
    13
 71
     2
 72
     2
 73
     0
 90
        0
 40
-0.6
 41
-30.0
 62
     5
 63
     7
 74
     1
 91
        4
 64
     7
 65
   257
 75
     1
175
     1
 42
1.0
 92
       12
 66
     7
 43
1.0
 76
     1
 77
     6
 78
     2
 67
     7
 79
     5
170
     0
171
     0
290
     0
174
     0
 93
        1
 44
0.0
173
     0
291
     1
 45
0.0
1001
ACAD
1000
AcDbSavedByObjectVersion
1070
     0
  0
DICTIONARYVAR
  5
156
102
{ACAD_REACTORS
330
153
102
}
330
153
100
DictionaryVariables
280
     0
  1
1:1
  0
ENDSEC
  0
EOF
