  0
SECTION
  2
HEADER
  9
$ACADVER
  1
AC1015
  9
$ACADMAINTVER
 70
     6
  9
$DWGCODEPAGE
  3
ANSI_1252
  9
$INSBASE
 10
0.0
 20
0.0
 30
0.0
  9
$EXTMIN
 10
30.1973135300828
 20
71.2544298715
 30
0.0
  9
$EXTMAX
 10
239.681362334975
 20
181.70669328752
 30
0.0
  9
$LIMMIN
 10
0.0
 20
0.0
  9
$LIMMAX
 10
12.0
 20
9.0
  9
$ORTHOMODE
 70
     0
  9
$REGENMODE
 70
     1
  9
$FILLMODE
 70
     1
  9
$QTEXTMODE
 70
     0
  9
$MIRRTEXT
 70
     1
  9
$LTSCALE
 40
1.0
  9
$ATTMODE
 70
     1
  9
$TEXTSIZE
 40
0.2
  9
$TRACEWID
 40
0.05
  9
$TEXTSTYLE
  7
Standard
  9
$CLAYER
  8
0
  9
$CELTYPE
  6
ByLayer
  9
$CECOLOR
 62
   256
  9
$CELTSCALE
 40
1.0
  9
$DISPSILH
 70
     0
  9
$DIMSCALE
 40
1.0
  9
$DIMASZ
 40
0.18
  9
$DIMEXO
 40
0.0625
  9
$DIMDLI
 40
0.38
  9
$DIMRND
 40
0.0
  9
$DIMDLE
 40
0.0
  9
$DIMEXE
 40
0.18
  9
$DIMTP
 40
0.0
  9
$DIMTM
 40
0.0
  9
$DIMTXT
 40
0.18
  9
$DIMCEN
 40
0.09
  9
$DIMTSZ
 40
0.0
  9
$DIMTOL
 70
     0
  9
$DIMLIM
 70
     0
  9
$DIMTIH
 70
     1
  9
$DIMTOH
 70
     1
  9
$DIMSE1
 70
     0
  9
$DIMSE2
 70
     0
  9
$DIMTAD
 70
     0
  9
$DIMZIN
 70
     0
  9
$DIMBLK
  1

  9
$DIMASO
 70
     1
  9
$DIMSHO
 70
     1
  9
$DIMPOST
  1

  9
$DIMAPOST
  1

  9
$DIMALT
 70
     0
  9
$DIMALTD
 70
     2
  9
$DIMALTF
 40
25.4
  9
$DIMLFAC
 40
1.0
  9
$DIMTOFL
 70
     0
  9
$DIMTVP
 40
0.0
  9
$DIMTIX
 70
     0
  9
$DIMSOXD
 70
     0
  9
$DIMSAH
 70
     0
  9
$DIMBLK1
  1

  9
$DIMBLK2
  1

  9
$DIMSTYLE
  2
Standard
  9
$DIMCLRD
 70
     0
  9
$DIMCLRE
 70
     0
  9
$DIMCLRT
 70
     0
  9
$DIMTFAC
 40
1.0
  9
$DIMGAP
 40
0.09
  9
$DIMJUST
 70
     0
  9
$DIMSD1
 70
     0
  9
$DIMSD2
 70
     0
  9
$DIMTOLJ
 70
     1
  9
$DIMTZIN
 70
     0
  9
$DIMALTZ
 70
     0
  9
$DIMALTTZ
 70
     0
  9
$DIMUPT
 70
     0
  9
$DIMDEC
 70
     4
  9
$DIMTDEC
 70
     4
  9
$DIMALTU
 70
     2
  9
$DIMALTTD
 70
     2
  9
$DIMTXSTY
  7
Standard
  9
$DIMAUNIT
 70
     0
  9
$DIMADEC
 70
     0
  9
$DIMALTRND
 40
0.0
  9
$DIMAZIN
 70
     0
  9
$DIMDSEP
 70
    46
  9
$DIMATFIT
 70
     3
  9
$DIMFRAC
 70
     0
  9
$DIMLDRBLK
  1

  9
$DIMLUNIT
 70
     2
  9
$DIMLWD
 70
    -2
  9
$DIMLWE
 70
    -2
  9
$DIMTMOVE
 70
     0
  9
$LUNITS
 70
     2
  9
$LUPREC
 70
     4
  9
$SKETCHINC
 40
0.1
  9
$FILLETRAD
 40
0.5
  9
$AUNITS
 70
     0
  9
$AUPREC
 70
     0
  9
$MENU
  1
.
  9
$ELEVATION
 40
0.0
  9
$PELEVATION
 40
0.0
  9
$THICKNESS
 40
0.0
  9
$LIMCHECK
 70
     0
  9
$CHAMFERA
 40
0.5
  9
$CHAMFERB
 40
0.5
  9
$CHAMFERC
 40
1.0
  9
$CHAMFERD
 40
0.0
  9
$SKPOLY
 70
     0
  9
$TDCREATE
 40
2456644.724451621
  9
$TDUCREATE
 40
2456644.682784954
  9
$TDUPDATE
 40
2456644.724451632
  9
$TDUUPDATE
 40
2456644.682784965
  9
$TDINDWG
 40
0.0000000116
  9
$TDUSRTIMER
 40
0.0000000116
  9
$USRTIMER
 70
     1
  9
$ANGBASE
 50
0.0
  9
$ANGDIR
 70
     0
  9
$PDMODE
 70
     0
  9
$PDSIZE
 40
0.0
  9
$PLINEWID
 40
0.0
  9
$SPLFRAME
 70
     0
  9
$SPLINETYPE
 70
     6
  9
$SPLINESEGS
 70
     8
  9
$HANDSEED
  5
167
  9
$SURFTAB1
 70
     6
  9
$SURFTAB2
 70
     6
  9
$SURFTYPE
 70
     6
  9
$SURFU
 70
     6
  9
$SURFV
 70
     6
  9
$UCSBASE
  2

  9
$UCSNAME
  2

  9
$UCSORG
 10
0.0
 20
0.0
 30
0.0
  9
$UCSXDIR
 10
1.0
 20
0.0
 30
0.0
  9
$UCSYDIR
 10
0.0
 20
1.0
 30
0.0
  9
$UCSORTHOREF
  2

  9
$UCSORTHOVIEW
 70
     0
  9
$UCSORGTOP
 10
0.0
 20
0.0
 30
0.0
  9
$UCSORGBOTTOM
 10
0.0
 20
0.0
 30
0.0
  9
$UCSORGLEFT
 10
0.0
 20
0.0
 30
0.0
  9
$UCSORGRIGHT
 10
0.0
 20
0.0
 30
0.0
  9
$UCSORGFRONT
 10
0.0
 20
0.0
 30
0.0
  9
$UCSORGBACK
 10
0.0
 20
0.0
 30
0.0
  9
$PUCSBASE
  2

  9
$PUCSNAME
  2

  9
$PUCSORG
 10
0.0
 20
0.0
 30
0.0
  9
$PUCSXDIR
 10
1.0
 20
0.0
 30
0.0
  9
$PUCSYDIR
 10
0.0
 20
1.0
 30
0.0
  9
$PUCSORTHOREF
  2

  9
$PUCSORTHOVIEW
 70
     0
  9
$PUCSORGTOP
 10
0.0
 20
0.0
 30
0.0
  9
$PUCSORGBOTTOM
 10
0.0
 20
0.0
 30
0.0
  9
$PUCSORGLEFT
 10
0.0
 20
0.0
 30
0.0
  9
$PUCSORGRIGHT
 10
0.0
 20
0.0
 30
0.0
  9
$PUCSORGFRONT
 10
0.0
 20
0.0
 30
0.0
  9
$PUCSORGBACK
 10
0.0
 20
0.0
 30
0.0
  9
$USERI1
 70
     0
  9
$USERI2
 70
     0
  9
$USERI3
 70
     0
  9
$USERI4
 70
     0
  9
$USERI5
 70
     0
  9
$USERR1
 40
16.5
  9
$USERR2
 40
0.0
  9
$USERR3
 40
0.0
  9
$USERR4
 40
0.0
  9
$USERR5
 40
0.0
  9
$WORLDVIEW
 70
     1
  9
$SHADEDGE
 70
     3
  9
$SHADEDIF
 70
    70
  9
$TILEMODE
 70
     1
  9
$MAXACTVP
 70
    64
  9
$PINSBASE
 10
0.0
 20
0.0
 30
0.0
  9
$PLIMCHECK
 70
     0
  9
$PEXTMIN
 10
1.00000000000000E+20
 20
1.00000000000000E+20
 30
1.00000000000000E+20
  9
$PEXTMAX
 10
-1.00000000000000E+20
 20
-1.00000000000000E+20
 30
-1.00000000000000E+20
  9
$PLIMMIN
 10
0.0
 20
0.0
  9
$PLIMMAX
 10
12.0
 20
9.0
  9
$UNITMODE
 70
     0
  9
$VISRETAIN
 70
     1
  9
$PLINEGEN
 70
     0
  9
$PSLTSCALE
 70
     1
  9
$TREEDEPTH
 70
  3020
  9
$CMLSTYLE
  2
Standard
  9
$CMLJUST
 70
     0
  9
$CMLSCALE
 40
1.0
  9
$PROXYGRAPHICS
 70
     1
  9
$MEASUREMENT
 70
     1
  9
$CELWEIGHT
370
    -1
  9
$ENDCAPS
280
     0
  9
$JOINSTYLE
280
     0
  9
$LWDISPLAY
290
     0
  9
$INSUNITS
 70
     1
  9
$HYPERLINKBASE
  1

  9
$STYLESHEET
  1

  9
$XEDIT
290
     1
  9
$CEPSNTYPE
380
     0
  9
$PSTYLEMODE
290
     1
  9
$FINGERPRINTGUID
  2
{1CCD3E96-49F3-4EBF-90C8-49558E1CAFB2}
  9
$VERSIONGUID
  2
{FAEB1C32-E019-11D5-929B-00C0DF256EC4}
  9
$EXTNAMES
290
     1
  9
$PSVPSCALE
 40
0.0
  9
$OLESTARTUP
290
     0
  0
ENDSEC
  0
SECTION
  2
CLASSES
  0
CLASS
  1
ACDBDICTIONARYWDFLT
  2
AcDbDictionaryWithDefault
  3
ObjectDBX Classes
 90
        0
280
     0
281
     0
  0
CLASS
  1
VISUALSTYLE
  2
AcDbVisualStyle
  3
ObjectDBX Classes
 90
     4095
280
     0
281
     0
  0
CLASS
  1
SCALE
  2
AcDbScale
  3
ObjectDBX Classes
 90
     1153
280
     0
281
     0
  0
CLASS
  1

  2
exOdDbPolyline
  3

 90
        0
280
     0
281
     1
  0
CLASS
  1

  2
exOdDbCircle
  3

 90
        0
280
     0
281
     1
  0
CLASS
  1

  2
exOdDbSpline
  3

 90
        0
280
     0
281
     1
  0
CLASS
  1
DICTIONARYVAR
  2
AcDbDictionaryVar
  3
ObjectDBX Classes
 90
        0
280
     0
281
     0
  0
CLASS
  1
ACDBPLACEHOLDER
  2
AcDbPlaceHolder
  3
ObjectDBX Classes
 90
        0
280
     0
281
     0
  0
CLASS
  1
LAYOUT
  2
AcDbLayout
  3
ObjectDBX Classes
 90
        0
280
     0
281
     0
  0
ENDSEC
  0
SECTION
  2
TABLES
  0
TABLE
  2
VPORT
  5
8
330
0
100
AcDbSymbolTable
 70
     1
  0
VPORT
  5
29
330
8
100
AcDbSymbolTableRecord
100
AcDbViewportTableRecord
  2
*Active
 70
     0
 10
0.0
 20
0.0
 11
1.0
 21
1.0
 12
134.9393379325289
 22
126.48056157951
 13
0.0
 23
0.0
 14
0.5
 24
0.5
 15
0.5
 25
0.5
 16
0.0
 26
0.0
 36
1.0
 17
0.0
 27
0.0
 37
0.0
 40
143.7795811295974
 41
1.60267857142857
 42
50.0
 43
0.0
 44
0.0
 50
0.0
 51
0.0
 71
     0
 72
   100
 73
     1
 74
     3
 75
     0
 76
     0
 77
     0
 78
     0
281
     0
 65
     1
110
0.0
120
0.0
130
0.0
111
1.0
121
0.0
131
0.0
112
0.0
122
1.0
132
0.0
 79
     0
146
0.0
  0
ENDTAB
  0
TABLE
  2
LTYPE
  5
5
330
0
100
AcDbSymbolTable
 70
     9
  0
LTYPE
  5
14
330
5
100
AcDbSymbolTableRecord
100
AcDbLinetypeTableRecord
  2
ByBlock
 70
     0
  3

 72
    65
 73
     0
 40
0.0
  0
LTYPE
  5
15
330
5
100
AcDbSymbolTableRecord
100
AcDbLinetypeTableRecord
  2
ByLayer
 70
     0
  3

 72
    65
 73
     0
 40
0.0
  0
LTYPE
  5
16
330
5
100
AcDbSymbolTableRecord
100
AcDbLinetypeTableRecord
  2
Continuous
 70
     0
  3
Solid line
 72
    65
 73
     0
 40
0.0
  0
LTYPE
  5
3B
330
5
100
AcDbSymbolTableRecord
100
AcDbLinetypeTableRecord
  2
DASHED
 70
     0
  3
Dashed
 72
    65
 73
     2
 40
15.0
 49
7.0
 74
     0
 49
-8.0
 74
     0
  0
LTYPE
  5
3C
330
5
100
AcDbSymbolTableRecord
100
AcDbLinetypeTableRecord
  2
DOTTED
 70
     0
  3
Dotted
 72
    65
 73
     2
 40
1.0
 49
0.0
 74
     0
 49
-1.0
 74
     0
  0
LTYPE
  5
3D
330
5
100
AcDbSymbolTableRecord
100
AcDbLinetypeTableRecord
  2
DOT_CENTER
 70
     0
  3
Dot_Center
 72
    65
 73
     4
 40
14.0
 49
12.0
 74
     0
 49
-1.0
 74
     0
 49
0.0
 74
     0
 49
-1.0
 74
     0
  0
LTYPE
  5
3E
330
5
100
AcDbSymbolTableRecord
100
AcDbLinetypeTableRecord
  2
LONG_DASHED
 70
     0
  3
Long_Dashed
 72
    65
 73
     2
 40
15.0
 49
10.0
 74
     0
 49
-5.0
 74
     0
  0
LTYPE
  5
3F
330
5
100
AcDbSymbolTableRecord
100
AcDbLinetypeTableRecord
  2
DASH_CENTER
 70
     0
  3
Dash_Center
 72
    65
 73
     4
 40
14.0
 49
11.0
 74
     0
 49
-1.0
 74
     0
 49
1.0
 74
     0
 49
-1.0
 74
     0
  0
LTYPE
  5
40
330
5
100
AcDbSymbolTableRecord
100
AcDbLinetypeTableRecord
  2
PHANTOM
 70
     0
  3
Phantom
 72
    65
 73
     6
 40
13.0
 49
10.0
 74
     0
 49
-1.0
 74
     0
 49
0.0
 74
     0
 49
-1.0
 74
     0
 49
0.0
 74
     0
 49
-1.0
 74
     0
  0
LTYPE
  5
41
330
5
100
AcDbSymbolTableRecord
100
AcDbLinetypeTableRecord
  2
CENTER_DASH_DASH
 70
     0
  3
Center_Dash_Dash
 72
    65
 73
     6
 40
14.0
 49
9.0
 74
     0
 49
-1.0
 74
     0
 49
1.0
 74
     0
 49
-1.0
 74
     0
 49
1.0
 74
     0
 49
-1.0
 74
     0
  0
LTYPE
  5
42
330
5
100
AcDbSymbolTableRecord
100
AcDbLinetypeTableRecord
  2
HIDDEN
 70
     0
  3
HIDDEN
 72
    65
 73
     2
 40
4.0
 49
2.0
 74
     0
 49
-2.0
 74
     0
  0
ENDTAB
  0
TABLE
  2
LAYER
  5
2
330
0
100
AcDbSymbolTable
 70
     7
  0
LAYER
  5
10
330
2
100
AcDbSymbolTableRecord
100
AcDbLayerTableRecord
  2
0
 70
     0
 62
     7
  6
Continuous
370
    -3
390
F
  0
LAYER
  5
43
330
2
100
AcDbSymbolTableRecord
100
AcDbLayerTableRecord
  2
1
 70
     0
 62
     7
  6
Continuous
370
    -3
390
F
  0
LAYER
  5
44
330
2
100
AcDbSymbolTableRecord
100
AcDbLayerTableRecord
  2
BEZUGSACHSEN
 70
     0
 62
     7
  6
Continuous
370
    -3
390
F
  0
LAYER
  5
45
330
2
100
AcDbSymbolTableRecord
100
AcDbLayerTableRecord
  2
DEFAULT_2
 70
     0
 62
     7
  6
Continuous
370
    -3
390
F
  0
LAYER
  5
46
330
2
100
AcDbSymbolTableRecord
100
AcDbLayerTableRecord
  2
FASEN
 70
     0
 62
     7
  6
Continuous
370
    -3
390
F
  0
LAYER
  5
47
330
2
100
AcDbSymbolTableRecord
100
AcDbLayerTableRecord
  2
RUNDUNGEN
 70
     0
 62
     7
  6
Continuous
370
    -3
390
F
  0
LAYER
  5
48
330
2
100
AcDbSymbolTableRecord
100
AcDbLayerTableRecord
  2
TEIL_STARTBEZUEGE
 70
     0
 62
     7
  6
Continuous
370
    -3
390
F
  0
ENDTAB
  0
TABLE
  2
STYLE
  5
3
330
0
100
AcDbSymbolTable
 70
     2
  0
STYLE
  5
11
330
3
100
AcDbSymbolTableRecord
100
AcDbTextStyleTableRecord
  2
Standard
 70
     0
 40
0.0
 41
1.0
 50
0.0
 71
     0
 42
0.2
  3
txt
  4

  0
STYLE
  5
6F
330
3
100
AcDbSymbolTableRecord
100
AcDbTextStyleTableRecord
  2
CONVERTER_11
 70
     0
 40
0.0
 41
0.72
 50
0.0
 71
     0
 42
0.2
  3
txt.shx
  4

  0
ENDTAB
  0
TABLE
  2
VIEW
  5
6
330
0
100
AcDbSymbolTable
 70
     0
  0
ENDTAB
  0
TABLE
  2
UCS
  5
7
330
0
100
AcDbSymbolTable
 70
     0
  0
ENDTAB
  0
TABLE
  2
APPID
  5
9
330
0
100
AcDbSymbolTable
 70
     1
  0
APPID
  5
12
330
9
100
AcDbSymbolTableRecord
100
AcDbRegAppTableRecord
  2
ACAD
 70
     0
  0
ENDTAB
  0
TABLE
  2
DIMSTYLE
  5
A
330
0
100
AcDbSymbolTable
 70
     8
100
AcDbDimStyleTable
  0
DIMSTYLE
105
27
330
A
100
AcDbSymbolTableRecord
100
AcDbDimStyleTableRecord
  2
Standard
 70
     0
340
11
  0
DIMSTYLE
105
118
102
{ACAD_REACTORS
330
119
102
}
330
A
100
AcDbSymbolTableRecord
100
AcDbDimStyleTableRecord
  2
ME10_DIM_10
 70
     0
  3
\U+2300<>
 41
3.5
 42
2.0
 44
2.0
 71
     1
 73
     0
 74
     0
 77
     1
 78
     8
140
3.5
146
0.7
147
2.0
172
     1
173
     1
176
     2
177
     2
178
     3
271
     2
272
     0
340
6F
  0
DIMSTYLE
105
123
102
{ACAD_REACTORS
330
124
102
}
330
A
100
AcDbSymbolTableRecord
100
AcDbDimStyleTableRecord
  2
ME10_DIM_11
 70
     0
  3
\U+2300<>
 41
3.5
 42
2.0
 44
2.0
 71
     1
 73
     0
 74
     0
 77
     1
 78
     8
140
3.5
146
0.7
147
2.0
172
     1
173
     1
176
     2
177
     2
178
     3
271
     2
272
     0
340
6F
  0
DIMSTYLE
105
12E
102
{ACAD_REACTORS
330
12F
102
}
330
A
100
AcDbSymbolTableRecord
100
AcDbDimStyleTableRecord
  2
ME10_DIM_12
 70
     0
  3
\U+2300<>
 41
3.5
 42
2.0
 44
2.0
 71
     1
 73
     0
 74
     0
 77
     1
 78
     8
140
3.5
146
0.7
147
2.0
172
     1
173
     1
176
     2
177
     2
178
     3
271
     2
272
     0
340
6F
  0
DIMSTYLE
105
139
102
{ACAD_REACTORS
330
13A
102
}
330
A
100
AcDbSymbolTableRecord
100
AcDbDimStyleTableRecord
  2
ME10_DIM_13
 70
     0
  3
<>
 41
3.5
 42
2.0
 44
2.0
 71
     1
 73
     0
 74
     0
 77
     1
 78
     8
140
3.5
146
0.7
147
2.0
172
     1
173
     1
176
     2
177
     2
178
     3
271
     0
272
     0
340
6F
  0
DIMSTYLE
105
144
102
{ACAD_REACTORS
330
145
102
}
330
A
100
AcDbSymbolTableRecord
100
AcDbDimStyleTableRecord
  2
ME10_DIM_14
 70
     0
  3
<>
 41
3.5
 42
2.0
 44
2.0
 71
     1
 73
     0
 74
     0
 77
     1
 78
     8
140
3.5
146
0.7
147
2.0
172
     1
173
     1
176
     2
177
     2
178
     3
271
     2
272
     0
340
6F
  0
DIMSTYLE
105
14F
102
{ACAD_REACTORS
330
150
102
}
330
A
100
AcDbSymbolTableRecord
100
AcDbDimStyleTableRecord
  2
ME10_DIM_15
 70
     0
  3
<>
 41
3.5
 42
2.0
 44
2.0
 71
     1
 73
     0
 74
     0
 77
     1
 78
     8
140
3.5
146
0.7
147
2.0
172
     1
173
     1
176
     2
177
     2
178
     3
271
     0
272
     0
340
6F
  0
DIMSTYLE
105
161
102
{ACAD_REACTORS
330
162
102
}
330
A
100
AcDbSymbolTableRecord
100
AcDbDimStyleTableRecord
  2
ME10_DIM_16
 70
     0
  3
<>
 41
3.5
 42
2.0
 44
2.0
 71
     1
 73
     0
 74
     0
 77
     1
 78
     8
140
3.5
146
0.7
147
2.0
172
     1
173
     1
176
     2
177
     2
178
     3
271
     2
272
     0
340
6F
  0
ENDTAB
  0
TABLE
  2
BLOCK_RECORD
  5
1
330
0
100
AcDbSymbolTable
 70
    10
  0
BLOCK_RECORD
  5
1F
330
1
100
AcDbSymbolTableRecord
100
AcDbBlockTableRecord
  2
*Model_Space
340
22
  0
BLOCK_RECORD
  5
1B
330
1
100
AcDbSymbolTableRecord
100
AcDbBlockTableRecord
  2
*Paper_Space
340
1E
  0
BLOCK_RECORD
  5
23
330
1
100
AcDbSymbolTableRecord
100
AcDbBlockTableRecord
  2
*Paper_Space0
340
26
  0
BLOCK_RECORD
  5
49
330
1
100
AcDbSymbolTableRecord
100
AcDbBlockTableRecord
  2
Urheberrecht_DE-EN
340
0
102
{BLKREFS
331
6E
102
}
  0
BLOCK_RECORD
  5
10F
330
1
100
AcDbSymbolTableRecord
100
AcDbBlockTableRecord
  2
*D2
340
0
  0
BLOCK_RECORD
  5
11A
330
1
100
AcDbSymbolTableRecord
100
AcDbBlockTableRecord
  2
*D3
340
0
  0
BLOCK_RECORD
  5
125
330
1
100
AcDbSymbolTableRecord
100
AcDbBlockTableRecord
  2
*D4
340
0
  0
BLOCK_RECORD
  5
130
330
1
100
AcDbSymbolTableRecord
100
AcDbBlockTableRecord
  2
*D5
340
0
  0
BLOCK_RECORD
  5
13B
330
1
100
AcDbSymbolTableRecord
100
AcDbBlockTableRecord
  2
*D6
340
0
  0
BLOCK_RECORD
  5
146
330
1
100
AcDbSymbolTableRecord
100
AcDbBlockTableRecord
  2
*D7
340
0
  0
BLOCK_RECORD
  5
151
330
1
100
AcDbSymbolTableRecord
100
AcDbBlockTableRecord
  2
*D8
340
0
102
{BLKREFS
331
157
102
}
  0
BLOCK_RECORD
  5
158
330
1
100
AcDbSymbolTableRecord
100
AcDbBlockTableRecord
  2
*D9
340
0
  0
ENDTAB
  0
ENDSEC
  0
SECTION
  2
BLOCKS
  0
BLOCK
  5
20
330
1F
100
AcDbEntity
  8
0
100
AcDbBlockBegin
  2
*Model_Space
 70
     0
 10
0.0
 20
0.0
 30
0.0
  3
*Model_Space
  1

  0
ENDBLK
  5
21
330
1F
100
AcDbEntity
  8
0
100
AcDbBlockEnd
  0
BLOCK
  5
1C
330
1B
100
AcDbEntity
 67
     1
  8
0
100
AcDbBlockBegin
  2
*Paper_Space
 70
     0
 10
0.0
 20
0.0
 30
0.0
  3
*Paper_Space
  1

  0
ENDBLK
  5
1D
330
1B
100
AcDbEntity
 67
     1
  8
0
100
AcDbBlockEnd
  0
BLOCK
  5
24
330
23
100
AcDbEntity
  8
0
100
AcDbBlockBegin
  2
*Paper_Space0
 70
     0
 10
0.0
 20
0.0
 30
0.0
  3
*Paper_Space0
  1

  0
ENDBLK
  5
25
330
23
100
AcDbEntity
  8
0
100
AcDbBlockEnd
  0
BLOCK
  5
4A
330
49
100
AcDbEntity
  8
0
100
AcDbBlockBegin
  2
Urheberrecht_DE-EN
 70
     0
 10
44.1973135300828
 20
128.948350736755
 30
0.0
  3
Urheberrecht_DE-EN
  1

  0
MTEXT
  5
70
330
49
100
AcDbEntity
  8
1
 62
     1
100
AcDbMText
 10
44.1973135300828
 20
128.948350736755
 30
0.0
 40
2.0
 41
0.0
 71
     7
 72
     1
  1
We own the copyright of this document. It \Pdetermined and may neither be copied or \Pmade accessible to outsiders without our\Ppermission.
  7
CONVERTER_11
 11
0.0
 21
1.0
 31
0.0
 73
     1
 44
0.90036014405762
  0
MTEXT
  5
71
330
49
100
AcDbEntity
  8
1
 62
     1
100
AcDbMText
 10
44.1973135300828
 20
72.65896381944881
 30
0.0
 40
2.0
 41
0.0
 71
     7
 72
     1
  1
F\U+00fcr diese Unterlage behalten wir das Ur-\Pheberrecht. Sie darf nur f\U+00fcr den von uns \Pbestimmten Zweck benutzt und ohne unsere \PZustimmung weder vervielf\U+00e4ltigt noch\PDritten zug\U+00e4nglich gemacht werden.
  7
CONVERTER_11
 11
0.0
 21
1.0
 31
0.0
 73
     1
 44
0.90036014405762
  0
ENDBLK
  5
4B
330
49
100
AcDbEntity
  8
0
100
AcDbBlockEnd
  0
BLOCK
  5
116
330
10F
100
AcDbEntity
  8
0
100
AcDbBlockBegin
  2
*D2
 70
     1
 10
0.0
 20
0.0
 30
0.0
  3
*D2
  1

  0
LINE
  5
110
330
10F
100
AcDbEntity
  8
1
  6
Continuous
 62
     2
100
AcDbLine
 10
220.134704361524
 20
123.7544298715
 30
0.0
 11
220.134704361524
 21
98.7544298715
 31
0.0
  0
LINE
  5
111
330
10F
100
AcDbEntity
  8
1
  6
Continuous
 62
     2
100
AcDbLine
 10
210.2420904711
 20
123.7544298715
 30
0.0
 11
222.134704361524
 21
123.7544298715
 31
0.0
  0
LINE
  5
112
330
10F
100
AcDbEntity
  8
1
  6
Continuous
 62
     2
100
AcDbLine
 10
210.2420904711
 20
98.7544298715
 30
0.0
 11
222.134704361524
 21
98.7544298715
 31
0.0
  0
SOLID
  5
113
330
10F
100
AcDbEntity
  8
1
 62
     2
100
AcDbTrace
 10
220.5954881030799
 20
120.2544298715
 30
0.0
 11
219.6739206199681
 21
120.2544298715
 31
0.0
 12
220.134704361524
 22
123.7544298715
 32
0.0
 13
220.134704361524
 23
123.7544298715
 33
0.0
  0
SOLID
  5
114
330
10F
100
AcDbEntity
  8
1
 62
     2
100
AcDbTrace
 10
219.6739206199681
 20
102.2544298715
 30
0.0
 11
220.5954881030799
 21
102.2544298715
 31
0.0
 12
220.134704361524
 22
98.7544298715
 32
0.0
 13
220.134704361524
 23
98.7544298715
 33
0.0
  0
MTEXT
  5
115
330
10F
100
AcDbEntity
  8
1
 62
     3
100
AcDbMText
 10
218.134704361524
 20
102.091504463152
 30
0.0
 40
3.5
 41
0.0
 71
     7
 72
     1
  1
\C3;%%c\C3;\C3;25\C2;\H2.45;\S^ ;\C3;
  7
CONVERTER_11
 11
0.0
 21
1.0
 31
0.0
 73
     1
 44
0.60024009603842
  0
ENDBLK
  5
117
330
10F
100
AcDbEntity
  8
0
100
AcDbBlockEnd
  0
BLOCK
  5
121
330
11A
100
AcDbEntity
  8
0
100
AcDbBlockBegin
  2
*D3
 70
     1
 10
0.0
 20
0.0
 30
0.0
  3
*D3
  1

  0
LINE
  5
11B
330
11A
100
AcDbEntity
  8
1
  6
Continuous
 62
     2
100
AcDbLine
 10
229.166072436094
 20
133.2544298715466
 30
0.0
 11
229.166072436094
 21
89.2544298714559
 31
0.0
  0
LINE
  5
11C
330
11A
100
AcDbEntity
  8
1
  6
Continuous
 62
     2
100
AcDbLine
 10
210.2420904711
 20
133.2544298715466
 30
0.0
 11
231.166072436094
 21
133.2544298715466
 31
0.0
  0
LINE
  5
11D
330
11A
100
AcDbEntity
  8
1
  6
Continuous
 62
     2
100
AcDbLine
 10
210.2420904711
 20
89.2544298714559
 30
0.0
 11
231.166072436094
 21
89.2544298714559
 31
0.0
  0
SOLID
  5
11E
330
11A
100
AcDbEntity
  8
1
 62
     2
100
AcDbTrace
 10
229.6268561776499
 20
129.7544298715466
 30
0.0
 11
228.7052886945381
 21
129.7544298715466
 31
0.0
 12
229.166072436094
 22
133.2544298715466
 32
0.0
 13
229.166072436094
 23
133.2544298715466
 33
0.0
  0
SOLID
  5
11F
330
11A
100
AcDbEntity
  8
1
 62
     2
100
AcDbTrace
 10
228.7052886945381
 20
92.7544298714559
 30
0.0
 11
229.6268561776499
 21
92.7544298714559
 31
0.0
 12
229.166072436094
 22
89.2544298714559
 32
0.0
 13
229.166072436094
 23
89.2544298714559
 33
0.0
  0
MTEXT
  5
120
330
11A
100
AcDbEntity
  8
1
 62
     3
100
AcDbMText
 10
227.166072436094
 20
102.736602182765
 30
0.0
 40
3.5
 41
0.0
 71
     7
 72
     1
  1
\C3;%%c\C3;\C3;44\C2;\H2.45;\S^ ;\C3;
  7
CONVERTER_11
 11
0.0
 21
1.0
 31
0.0
 73
     1
 44
0.60024009603842
  0
ENDBLK
  5
122
330
11A
100
AcDbEntity
  8
0
100
AcDbBlockEnd
  0
BLOCK
  5
12C
330
125
100
AcDbEntity
  8
0
100
AcDbBlockBegin
  2
*D4
 70
     1
 10
0.0
 20
0.0
 30
0.0
  3
*D4
  1

  0
LINE
  5
126
330
125
100
AcDbEntity
  8
1
  6
Continuous
 62
     2
100
AcDbLine
 10
237.681362334975
 20
137.7544298715
 30
0.0
 11
237.681362334975
 21
84.7544298715
 31
0.0
  0
LINE
  5
127
330
125
100
AcDbEntity
  8
1
  6
Continuous
 62
     2
100
AcDbLine
 10
153.0641691583
 20
137.7544298715
 30
0.0
 11
239.681362334975
 21
137.7544298715
 31
0.0
  0
LINE
  5
128
330
125
100
AcDbEntity
  8
1
  6
Continuous
 62
     2
100
AcDbLine
 10
153.0641691583
 20
84.7544298715
 30
0.0
 11
239.681362334975
 21
84.7544298715
 31
0.0
  0
SOLID
  5
129
330
125
100
AcDbEntity
  8
1
 62
     2
100
AcDbTrace
 10
238.1421460765309
 20
134.2544298715
 30
0.0
 11
237.2205785934191
 21
134.2544298715
 31
0.0
 12
237.681362334975
 22
137.7544298715
 32
0.0
 13
237.681362334975
 23
137.7544298715
 33
0.0
  0
SOLID
  5
12A
330
125
100
AcDbEntity
  8
1
 62
     2
100
AcDbTrace
 10
237.2205785934191
 20
88.2544298715
 30
0.0
 11
238.1421460765309
 21
88.2544298715
 31
0.0
 12
237.681362334975
 22
84.7544298715
 32
0.0
 13
237.681362334975
 23
84.7544298715
 33
0.0
  0
MTEXT
  5
12B
330
125
100
AcDbEntity
  8
1
 62
     3
100
AcDbMText
 10
235.681362334975
 20
102.99464127061
 30
0.0
 40
3.5
 41
0.0
 71
     7
 72
     1
  1
\C3;%%c\C3;\C3;53\C2;\H2.45;\S^ ;\C3;
  7
CONVERTER_11
 11
0.0
 21
1.0
 31
0.0
 73
     1
 44
0.60024009603842
  0
ENDBLK
  5
12D
330
125
100
AcDbEntity
  8
0
100
AcDbBlockEnd
  0
BLOCK
  5
137
330
130
100
AcDbEntity
  8
0
100
AcDbBlockBegin
  2
*D5
 70
     1
 10
0.0
 20
0.0
 30
0.0
  3
*D5
  1

  0
LINE
  5
131
330
130
100
AcDbEntity
  8
1
  6
Continuous
 62
     2
100
AcDbLine
 10
208.2420904711
 20
160.085118236757
 30
0.0
 11
119.1920904711
 21
160.085118236757
 31
0.0
  0
LINE
  5
132
330
130
100
AcDbEntity
  8
1
  6
Continuous
 62
     2
100
AcDbLine
 10
208.2420904711
 20
134.3300393799
 30
0.0
 11
208.2420904711
 21
162.085118236757
 31
0.0
  0
LINE
  5
133
330
130
100
AcDbEntity
  8
1
  6
Continuous
 62
     2
100
AcDbLine
 10
119.1920904711
 20
153.2543877061
 30
0.0
 11
119.1920904711
 21
162.085118236757
 31
0.0
  0
SOLID
  5
134
330
130
100
AcDbEntity
  8
1
 62
     2
100
AcDbTrace
 10
204.7420904711
 20
159.6243344952011
 30
0.0
 11
204.7420904711
 21
160.5459019783129
 31
0.0
 12
208.2420904711
 22
160.085118236757
 32
0.0
 13
208.2420904711
 23
160.085118236757
 33
0.0
  0
SOLID
  5
135
330
130
100
AcDbEntity
  8
1
 62
     2
100
AcDbTrace
 10
122.6920904711
 20
160.5459019783129
 30
0.0
 11
122.6920904711
 21
159.6243344952011
 31
0.0
 12
119.1920904711
 22
160.085118236757
 32
0.0
 13
119.1920904711
 23
160.085118236757
 33
0.0
  0
MTEXT
  5
136
330
130
100
AcDbEntity
  8
1
 62
     3
100
AcDbMText
 10
159.689978606233
 20
162.085118236757
 30
0.0
 40
3.5
 41
0.0
 71
     7
 72
     1
  1
\C3;\C3;\C3;89\C2;\H2.45;\S^ ;\C3;
  7
CONVERTER_11
 11
0.9999999999970619
 21
2.424068405545306E-6
 31
0.0
 73
     1
 44
0.60024009603842
  0
ENDBLK
  5
138
330
130
100
AcDbEntity
  8
0
100
AcDbBlockEnd
  0
BLOCK
  5
142
330
13B
100
AcDbEntity
  8
0
100
AcDbBlockBegin
  2
*D6
 70
     1
 10
0.0
 20
0.0
 30
0.0
  3
*D6
  1

  0
LINE
  5
13C
330
13B
100
AcDbEntity
  8
1
  6
Continuous
 62
     2
100
AcDbLine
 10
208.2420904711
 20
168.145905762138
 30
0.0
 11
93.2420904711
 21
168.145905762138
 31
0.0
  0
LINE
  5
13D
330
13B
100
AcDbEntity
  8
1
  6
Continuous
 62
     2
100
AcDbLine
 10
208.2420904711
 20
134.3300393799
 30
0.0
 11
208.2420904711
 21
170.145905762138
 31
0.0
  0
LINE
  5
13E
330
13B
100
AcDbEntity
  8
1
  6
Continuous
 62
     2
100
AcDbLine
 10
93.2420904711
 20
153.2544298715
 30
0.0
 11
93.2420904711
 21
170.145905762138
 31
0.0
  0
SOLID
  5
13F
330
13B
100
AcDbEntity
  8
1
 62
     2
100
AcDbTrace
 10
204.7420904711
 20
167.6851220205821
 30
0.0
 11
204.7420904711
 21
168.6066895036939
 31
0.0
 12
208.2420904711
 22
168.145905762138
 32
0.0
 13
208.2420904711
 23
168.145905762138
 33
0.0
  0
SOLID
  5
140
330
13B
100
AcDbEntity
  8
1
 62
     2
100
AcDbTrace
 10
96.7420904711
 20
168.6066895036939
 30
0.0
 11
96.7420904711
 21
167.6851220205821
 31
0.0
 12
93.2420904711
 22
168.145905762138
 32
0.0
 13
93.2420904711
 23
168.145905762138
 33
0.0
  0
MTEXT
  5
141
330
13B
100
AcDbEntity
  8
1
 62
     3
100
AcDbMText
 10
145.045059443795
 20
170.145905762138
 30
0.0
 40
3.5
 41
0.0
 71
     7
 72
     1
  1
\C3;\C3;\C3;115\C2;\H2.45;\S^ ;\C3;
  7
CONVERTER_11
 11
0.9999999999970619
 21
2.424068405545306E-6
 31
0.0
 73
     1
 44
0.60024009603842
  0
ENDBLK
  5
143
330
13B
100
AcDbEntity
  8
0
100
AcDbBlockEnd
  0
BLOCK
  5
14D
330
146
100
AcDbEntity
  8
0
100
AcDbBlockBegin
  2
*D7
 70
     1
 10
0.0
 20
0.0
 30
0.0
  3
*D7
  1

  0
LINE
  5
147
330
146
100
AcDbEntity
  8
1
  6
Continuous
 62
     2
100
AcDbLine
 10
208.2420904711
 20
176.20669328752
 30
0.0
 11
53.34209047109999
 21
176.20669328752
 31
0.0
  0
LINE
  5
148
330
146
100
AcDbEntity
  8
1
  6
Continuous
 62
     2
100
AcDbLine
 10
208.2420904711
 20
134.3300393799
 30
0.0
 11
208.2420904711
 21
178.20669328752
 31
0.0
  0
LINE
  5
149
330
146
100
AcDbEntity
  8
1
  6
Continuous
 62
     2
100
AcDbLine
 10
53.34209047109999
 20
140.1403506716
 30
0.0
 11
53.34209047109999
 21
178.20669328752
 31
0.0
  0
SOLID
  5
14A
330
146
100
AcDbEntity
  8
1
 62
     2
100
AcDbTrace
 10
204.7420904711
 20
175.7459095459641
 30
0.0
 11
204.7420904711
 21
176.6674770290759
 31
0.0
 12
208.2420904711
 22
176.20669328752
 32
0.0
 13
208.2420904711
 23
176.20669328752
 33
0.0
  0
SOLID
  5
14B
330
146
100
AcDbEntity
  8
1
 62
     2
100
AcDbTrace
 10
56.84209047109999
 20
176.6674770290759
 30
0.0
 11
56.84209047109999
 21
175.7459095459641
 31
0.0
 12
53.34209047109999
 22
176.20669328752
 32
0.0
 13
53.34209047109999
 23
176.20669328752
 33
0.0
  0
MTEXT
  5
14C
330
146
100
AcDbEntity
  8
1
 62
     3
100
AcDbMText
 10
132.929014799124
 20
178.20669328752
 30
0.0
 40
3.5
 41
0.0
 71
     7
 72
     1
  1
\C3;\C3;\C3;155\C2;\H2.45;\S^ ;\C3;
  7
CONVERTER_11
 11
0.9999999999970619
 21
2.424068405545306E-6
 31
0.0
 73
     1
 44
0.60024009603842
  0
ENDBLK
  5
14E
330
146
100
AcDbEntity
  8
0
100
AcDbBlockEnd
  0
BLOCK
  5
155
330
151
100
AcDbEntity
  8
0
100
AcDbBlockBegin
  2
*D8
 70
     1
 10
0.0
 20
0.0
 30
0.0
  3
*D8
  1

  0
LINE
  5
152
330
151
100
AcDbEntity
  8
1
  6
Continuous
 62
     2
100
AcDbLine
 10
129.8072319596606
 20
150.07729961936
 30
0.0
 11
121.6546981798575
 21
138.9081059267087
 31
0.0
  0
SOLID
  5
153
330
151
100
AcDbEntity
  8
1
 62
     2
100
AcDbTrace
 10
123.3459924697368
 20
142.0067903703886
 30
0.0
 11
124.0903615630945
 21
141.4634660852853
 31
0.0
 12
121.6546981798575
 22
138.9081059267087
 32
0.0
 13
121.6546981798575
 23
138.9081059267087
 33
0.0
  0
MTEXT
  5
154
330
151
100
AcDbEntity
  8
1
 62
     3
100
AcDbMText
 10
123.8172155112268
 20
145.2631431047156
 30
0.0
 40
3.5
 41
0.0
 71
     7
 72
     1
  1
\C3; R\C3;\C3;6\C2;\H2.45;\S^ ;\C3;
  7
CONVERTER_11
 11
0.589565381873759
 21
0.8077206574652209
 31
0.0
 73
     1
 44
0.60024009603842
  0
ENDBLK
  5
156
330
151
100
AcDbEntity
  8
0
100
AcDbBlockEnd
  0
BLOCK
  5
15F
330
158
100
AcDbEntity
  8
0
100
AcDbBlockBegin
  2
*D9
 70
     1
 10
0.0
 20
0.0
 30
0.0
  3
*D9
  1

  0
LINE
  5
159
330
158
100
AcDbEntity
  8
1
  6
Continuous
 62
     2
100
AcDbLine
 10
188.6750624140046
 20
137.7544298715
 30
0.0
 11
190.6750624140046
 21
137.7544298715
 31
0.0
  0
LINE
  5
15A
330
158
100
AcDbEntity
  8
1
  6
Continuous
 62
     2
100
AcDbLine
 10
153.0641691582999
 20
137.7544298715
 30
0.0
 11
188.6750624140046
 21
137.7544298715
 31
0.0
  0
ARC
  5
15B
330
158
100
AcDbEntity
  8
1
  6
Continuous
 62
     2
100
AcDbCircle
 10
151.0641691582999
 20
137.7544298715
 30
0.0
 40
37.61089325570464
100
AcDbArc
 50
347.5022414677123
 51
14.35805946087697
  0
SOLID
  5
15C
330
158
100
AcDbEntity
  8
1
 62
     2
100
AcDbTrace
 10
188.5797043794658
 20
131.2733718453455
 30
0.0
 11
187.665335189826
 21
131.3883310162124
 31
0.0
 12
188.5591205820995
 22
134.8035131971568
 32
0.0
 13
188.5591205820995
 23
134.8035131971568
 33
0.0
  0
SOLID
  5
15D
330
158
100
AcDbEntity
  8
1
 62
     2
100
AcDbTrace
 10
188.0519843694708
 20
141.2292097791924
 30
0.0
 11
188.972554456646
 21
141.272073989521
 31
0.0
 12
188.6750624140046
 22
137.7544298715
 32
0.0
 13
188.6750624140046
 23
137.7544298715
 33
0.0
  0
MTEXT
  5
15E
330
158
100
AcDbEntity
  8
1
 62
     3
100
AcDbMText
 10
189.5903211390827
 20
147.6162097853116
 30
0.0
 40
3.5
 41
0.0
 71
     7
 72
     1
  1
\C3;\C3;\C3;4.5%%d\C2;\H2.45;\S^ ;\C3;
  7
CONVERTER_11
 11
0.1608858001854601
 21
-0.9869730286581717
 31
0.0
 73
     1
 44
0.60024009603842
  0
ENDBLK
  5
160
330
158
100
AcDbEntity
  8
0
100
AcDbBlockEnd
  0
ENDSEC
  0
SECTION
  2
ENTITIES
  0
INSERT
  5
6E
330
1F
100
AcDbEntity
  8
0
100
AcDbBlockReference
  2
Urheberrecht_DE-EN
 10
44.1973135300828
 20
128.948350736755
 30
0.0
  0
LINE
  5
72
330
1F
100
AcDbEntity
  8
0
  6
Continuous
 62
     7
100
AcDbLine
 10
53.3420904711
 20
84.3685089666
 30
0.0
 11
53.3420904711
 21
101.5844298715
 31
0.0
  0
LINE
  5
73
330
1F
100
AcDbEntity
  8
0
  6
Continuous
 62
     7
100
AcDbLine
 10
53.3420904711
 20
120.9244298715
 30
0.0
 11
53.3420904711
 21
138.1403506716
 31
0.0
  0
LINE
  5
74
330
1F
100
AcDbEntity
  8
0
  6
Continuous
 62
     9
100
AcDbLine
 10
54.8620308833
 20
139.7383888862
 30
0.0
 11
54.8620308833
 21
123.2820448117
 31
0.0
  0
LINE
  5
75
330
1F
100
AcDbEntity
  8
0
  6
Continuous
 62
     9
100
AcDbLine
 10
54.8620308833
 20
99.2268149314
 30
0.0
 11
54.8620308833
 21
82.7704708569
 31
0.0
  0
LINE
  5
76
330
1F
100
AcDbEntity
  8
0
  6
Continuous
 62
     7
100
AcDbLine
 10
54.9920904711
 20
101.6103742947
 30
0.0
 11
54.9920904711
 21
103.2344298715
 31
0.0
  0
LINE
  5
77
330
1F
100
AcDbEntity
  8
0
  6
Continuous
 62
     7
100
AcDbLine
 10
54.9920904711
 20
119.2744298715
 30
0.0
 11
54.9920904711
 21
120.8984854483
 31
0.0
  0
LINE
  5
78
330
1F
100
AcDbEntity
  8
RUNDUNGEN
  6
Continuous
 62
     9
100
AcDbLine
 10
59.5420904711
 20
98.6816091194
 30
0.0
 11
59.5420904711
 21
103.2344298715
 31
0.0
  0
LINE
  5
79
330
1F
100
AcDbEntity
  8
RUNDUNGEN
  6
Continuous
 62
     9
100
AcDbLine
 10
59.5420904711
 20
119.2744298715
 30
0.0
 11
59.5420904711
 21
123.8272506236
 31
0.0
  0
LINE
  5
7A
330
1F
100
AcDbEntity
  8
RUNDUNGEN
  6
Continuous
 62
     7
100
AcDbLine
 10
61.4420904711
 20
120.7597720979
 30
0.0
 11
61.4420904711
 21
101.7490876451
 31
0.0
  0
LWPOLYLINE
  5
7B
330
1F
100
AcDbEntity
  8
BEZUGSACHSEN
  6
DOT_CENTER
 62
     7
100
AcDbPolyline
 90
        2
 70
     0
 43
0.25
 10
81.2420904711
 20
104.0044298715
 10
81.2420904711
 20
118.5044298715
  0
LINE
  5
7C
330
1F
100
AcDbEntity
  8
0
  6
Continuous
 62
     7
100
AcDbLine
 10
53.3420904711
 20
101.5844298715
 30
0.0
 11
54.9920904711
 21
103.2344298715
 31
0.0
  0
LINE
  5
7D
330
1F
100
AcDbEntity
  8
0
  6
Continuous
 62
     7
100
AcDbLine
 10
54.9920904711
 20
119.2744298715
 30
0.0
 11
53.3420904711
 21
120.9244298715
 31
0.0
  0
LINE
  5
7E
330
1F
100
AcDbEntity
  8
0
  6
Continuous
 62
     7
100
AcDbLine
 10
90.7420904711
 20
141.5359798715
 30
0.0
 11
90.7420904711
 21
80.9728798715
 31
0.0
  0
LINE
  5
7F
330
1F
100
AcDbEntity
  8
0
  6
Continuous
 62
     9
100
AcDbLine
 10
91.3613340851
 20
81.1388056978
 30
0.0
 11
91.3613340851
 21
141.3700540452
 31
0.0
  0
LINE
  5
80
330
1F
100
AcDbEntity
  8
0
  6
Continuous
 62
     9
100
AcDbLine
 10
91.6201531302
 20
81.1728798715
 30
0.0
 11
91.6201531302
 21
141.3359798715
 31
0.0
  0
LINE
  5
81
330
1F
100
AcDbEntity
  8
0
  6
Continuous
 62
     9
100
AcDbLine
 10
92.5415191824
 20
81.1728798715
 30
0.0
 11
92.5415191824
 21
141.3359798715
 31
0.0
  0
LINE
  5
82
330
1F
100
AcDbEntity
  8
0
  6
Continuous
 62
     7
100
AcDbLine
 10
93.2420904711
 20
151.2544298715
 30
0.0
 11
93.2420904711
 21
71.2544298715
 31
0.0
  0
LINE
  5
83
330
1F
100
AcDbEntity
  8
0
  6
Continuous
 62
     7
100
AcDbLine
 10
113.1545904711
 20
148.441977041
 30
0.0
 11
114.7783608699
 21
151.2544298715
 31
0.0
  0
LINE
  5
84
330
1F
100
AcDbEntity
  8
0
  6
Continuous
 62
     7
100
AcDbLine
 10
107.7058200723
 20
71.2544298715
 30
0.0
 11
93.2420904711
 21
71.2544298715
 31
0.0
  0
LINE
  5
85
330
1F
100
AcDbEntity
  8
0
  6
Continuous
 62
     7
100
AcDbLine
 10
114.7783608699
 20
71.2544298715
 30
0.0
 11
119.1920904711
 21
71.2544298715
 31
0.0
  0
LWPOLYLINE
  5
86
330
1F
100
AcDbEntity
  8
BEZUGSACHSEN
  6
DOT_CENTER
 62
     7
100
AcDbPolyline
 90
        2
 70
     0
 43
0.25
 10
100.2420904711
 20
157.3406995375
 10
100.2420904711
 20
143.3406995375
  0
LINE
  5
87
330
1F
100
AcDbEntity
  8
0
  6
Continuous
 62
     9
100
AcDbLine
 10
53.3420904711
 20
100.6510164859
 30
0.0
 11
54.9920904711
 21
101.6103742947
 31
0.0
  0
LINE
  5
88
330
1F
100
AcDbEntity
  8
0
  6
Continuous
 62
     7
100
AcDbLine
 10
110.0795904711
 20
76.2794298715
 30
0.0
 11
112.4045904711
 21
76.2794298715
 31
0.0
  0
LINE
  5
89
330
1F
100
AcDbEntity
  8
0
  6
Continuous
 62
     7
100
AcDbLine
 10
97.5738328842
 20
79.9099327468
 30
0.0
 11
107.7058200723
 21
79.9099327468
 31
0.0
  0
LINE
  5
8A
330
1F
100
AcDbEntity
  8
0
  6
Continuous
 62
     7
100
AcDbLine
 10
114.7783608699
 20
79.9099327468
 30
0.0
 11
119.1920904711
 21
79.9099327468
 31
0.0
  0
LINE
  5
8B
330
1F
100
AcDbEntity
  8
0
  6
Continuous
 62
     7
100
AcDbLine
 10
92.5415191824
 20
81.1728798715
 30
0.0
 11
91.6201531302
 21
81.1728798715
 31
0.0
  0
LINE
  5
8C
330
1F
100
AcDbEntity
  8
0
  6
Continuous
 62
     7
100
AcDbLine
 10
90.7420904711
 20
80.9728798715
 30
0.0
 11
54.8620308833
 21
82.7704708569
 31
0.0
  0
LINE
  5
8D
330
1F
100
AcDbEntity
  8
0
  6
Continuous
 62
     9
100
AcDbLine
 10
54.9920904711
 20
120.8984854483
 30
0.0
 11
53.3420904711
 21
121.8578432572
 31
0.0
  0
LINE
  5
8E
330
1F
100
AcDbEntity
  8
0
  6
Continuous
 62
     7
100
AcDbLine
 10
113.1545904711
 20
74.066882702
 30
0.0
 11
114.7783608699
 21
71.2544298715
 31
0.0
  0
LINE
  5
8F
330
1F
100
AcDbEntity
  8
FASEN
  6
Continuous
 62
     9
100
AcDbLine
 10
105.8007676318
 20
86.0044298715
 30
0.0
 11
105.8007676318
 21
86.4044298715
 31
0.0
  0
LINE
  5
90
330
1F
100
AcDbEntity
  8
FASEN
  6
Continuous
 62
     9
100
AcDbLine
 10
106.2095904711
 20
102.6369298715
 30
0.0
 11
106.2095904711
 21
102.2369298715
 31
0.0
  0
LINE
  5
91
330
1F
100
AcDbEntity
  8
FASEN
  6
Continuous
 62
     9
100
AcDbLine
 10
106.2095904711
 20
119.8719298715
 30
0.0
 11
106.2095904711
 21
120.2719298715
 31
0.0
  0
LINE
  5
92
330
1F
100
AcDbEntity
  8
0
  6
Continuous
 62
     7
100
AcDbLine
 10
107.7058200723
 20
151.2544298715
 30
0.0
 11
107.7058200723
 21
120.2719298715
 31
0.0
  0
LINE
  5
93
330
1F
100
AcDbEntity
  8
0
  6
Continuous
 62
     7
100
AcDbLine
 10
107.7058200723
 20
102.2369298715
 30
0.0
 11
107.7058200723
 21
86.4044298715
 31
0.0
  0
LINE
  5
94
330
1F
100
AcDbEntity
  8
0
  6
Continuous
 62
     7
100
AcDbLine
 10
107.7058200723
 20
79.9099327468
 30
0.0
 11
107.7058200723
 21
71.2544298715
 31
0.0
  0
LINE
  5
95
330
1F
100
AcDbEntity
  8
RUNDUNGEN
  6
Continuous
 62
     7
100
AcDbLine
 10
207.3205495668
 20
89.1819030294
 30
0.0
 11
151.0641691583
 21
84.7544298715
 31
0.0
  0
LINE
  5
96
330
1F
100
AcDbEntity
  8
0
  6
Continuous
 62
     7
100
AcDbLine
 10
151.0641691583
 20
84.7544298715
 30
0.0
 11
207.3205495668
 21
89.1819030294
 31
0.0
  0
LINE
  5
97
330
1F
100
AcDbEntity
  8
RUNDUNGEN
  6
Continuous
 62
     7
100
AcDbLine
 10
151.0641691583
 20
84.7544298715
 30
0.0
 11
125.1920904711
 21
84.7544298715
 31
0.0
  0
LINE
  5
98
330
1F
100
AcDbEntity
  8
0
  6
Continuous
 62
     7
100
AcDbLine
 10
125.1920904711
 20
84.7544298715
 30
0.0
 11
151.0641691583
 21
84.7544298715
 31
0.0
  0
LINE
  5
99
330
1F
100
AcDbEntity
  8
0
  6
Continuous
 62
     7
100
AcDbLine
 10
105.8007676318
 20
86.0044298715
 30
0.0
 11
109.3912573018
 21
86.0044298715
 31
0.0
  0
LINE
  5
9A
330
1F
100
AcDbEntity
  8
0
  6
Continuous
 62
     7
100
AcDbLine
 10
113.0929236404
 20
86.0044298715
 30
0.0
 11
119.1920904711
 21
86.0044298715
 31
0.0
  0
LINE
  5
9B
330
1F
100
AcDbEntity
  8
0
  6
Continuous
 62
     7
100
AcDbLine
 10
105.8007676318
 20
86.4044298715
 30
0.0
 11
109.3912573018
 21
86.4044298715
 31
0.0
  0
LINE
  5
9C
330
1F
100
AcDbEntity
  8
0
  6
Continuous
 62
     7
100
AcDbLine
 10
113.0929236404
 20
86.4044298715
 30
0.0
 11
119.1920904711
 21
86.4044298715
 31
0.0
  0
LINE
  5
9D
330
1F
100
AcDbEntity
  8
0
  6
Continuous
 62
     7
100
AcDbLine
 10
109.3295904711
 20
148.4419626591
 30
0.0
 11
109.3295904711
 21
120.2719298715
 31
0.0
  0
LINE
  5
9E
330
1F
100
AcDbEntity
  8
0
  6
Continuous
 62
     7
100
AcDbLine
 10
109.3295904711
 20
102.2369298715
 30
0.0
 11
109.3295904711
 21
86.4044298715
 31
0.0
  0
LINE
  5
9F
330
1F
100
AcDbEntity
  8
0
  6
Continuous
 62
     7
100
AcDbLine
 10
109.3295904711
 20
74.0669195476
 30
0.0
 11
109.3295904711
 21
85.5882434583
 31
0.0
  0
LINE
  5
A0
330
1F
100
AcDbEntity
  8
0
  6
Continuous
 62
     9
100
AcDbLine
 10
110.0795904711
 20
76.2794298715
 30
0.0
 11
110.0795904711
 21
102.6497436483
 31
0.0
  0
LINE
  5
A1
330
1F
100
AcDbEntity
  8
0
  6
Continuous
 62
     9
100
AcDbLine
 10
110.0795904711
 20
119.8591160947
 30
0.0
 11
110.0795904711
 21
146.2294298715
 31
0.0
  0
LINE
  5
A2
330
1F
100
AcDbEntity
  8
0
  6
Continuous
 62
     9
100
AcDbLine
 10
112.4045904711
 20
76.2794298715
 30
0.0
 11
112.4045904711
 21
102.6497436483
 31
0.0
  0
LINE
  5
A3
330
1F
100
AcDbEntity
  8
0
  6
Continuous
 62
     9
100
AcDbLine
 10
112.4045904711
 20
119.8591160947
 30
0.0
 11
112.4045904711
 21
146.2294298715
 31
0.0
  0
LINE
  5
A4
330
1F
100
AcDbEntity
  8
0
  6
Continuous
 62
     7
100
AcDbLine
 10
113.1545904711
 20
102.2369298715
 30
0.0
 11
113.1545904711
 21
86.4044298715
 31
0.0
  0
LINE
  5
A5
330
1F
100
AcDbEntity
  8
0
  6
Continuous
 62
     7
100
AcDbLine
 10
113.1545904711
 20
74.0669195476
 30
0.0
 11
113.1545904711
 21
85.5882434583
 31
0.0
  0
LINE
  5
A6
330
1F
100
AcDbEntity
  8
0
  6
Continuous
 62
     7
100
AcDbLine
 10
113.1545904711
 20
120.2719298715
 30
0.0
 11
113.1545904711
 21
148.4419626591
 31
0.0
  0
LINE
  5
A7
330
1F
100
AcDbEntity
  8
0
  6
Continuous
 62
     7
100
AcDbLine
 10
91.3613340851
 20
81.1388056978
 30
0.0
 11
90.7420904711
 21
80.9728798715
 31
0.0
  0
LINE
  5
A8
330
1F
100
AcDbEntity
  8
0
  6
Continuous
 62
     7
100
AcDbLine
 10
114.7783608699
 20
102.2369298715
 30
0.0
 11
114.7783608699
 21
86.4044298715
 31
0.0
  0
LINE
  5
A9
330
1F
100
AcDbEntity
  8
0
  6
Continuous
 62
     7
100
AcDbLine
 10
114.7783608699
 20
71.2544298715
 30
0.0
 11
114.7783608699
 21
79.9099327468
 31
0.0
  0
LINE
  5
AA
330
1F
100
AcDbEntity
  8
0
  6
Continuous
 62
     7
100
AcDbLine
 10
114.7783608699
 20
120.2719298715
 30
0.0
 11
114.7783608699
 21
151.2544298715
 31
0.0
  0
LINE
  5
AB
330
1F
100
AcDbEntity
  8
0
  6
Continuous
 62
     7
100
AcDbLine
 10
119.1920904711
 20
151.2543877061
 30
0.0
 11
119.1920904711
 21
120.2719298715
 31
0.0
  0
LINE
  5
AC
330
1F
100
AcDbEntity
  8
0
  6
Continuous
 62
     7
100
AcDbLine
 10
119.1920904711
 20
102.2369298715
 30
0.0
 11
119.1920904711
 21
86.4044298715
 31
0.0
  0
LINE
  5
AD
330
1F
100
AcDbEntity
  8
0
  6
Continuous
 62
     7
100
AcDbLine
 10
119.1920904711
 20
79.9099327468
 30
0.0
 11
119.1920904711
 21
71.2544585018
 31
0.0
  0
LINE
  5
AE
330
1F
100
AcDbEntity
  8
FASEN
  6
Continuous
 62
     7
100
AcDbLine
 10
119.1920904711
 20
79.9099327468
 30
0.0
 11
119.1920904711
 21
86.4044298715
 31
0.0
  0
LINE
  5
AF
330
1F
100
AcDbEntity
  8
FASEN
  6
Continuous
 62
     7
100
AcDbLine
 10
119.1920904711
 20
102.2369298715
 30
0.0
 11
119.1920904711
 21
120.2719298715
 31
0.0
  0
LINE
  5
B0
330
1F
100
AcDbEntity
  8
DEFAULT_2
  6
HIDDEN
 62
     8
100
AcDbLine
 10
208.2420904711
 20
98.7544298715
 30
0.0
 11
150.2420904711
 21
98.7544298715
 31
0.0
  0
LINE
  5
B1
330
1F
100
AcDbEntity
  8
RUNDUNGEN
  6
Continuous
 62
     9
100
AcDbLine
 10
125.1920904711
 20
137.7544298715
 30
0.0
 11
125.1920904711
 21
84.7544298715
 31
0.0
  0
LINE
  5
B2
330
1F
100
AcDbEntity
  8
RUNDUNGEN
  6
Continuous
 62
     9
100
AcDbLine
 10
60.6815941527
 20
99.3544298715
 30
0.0
 11
54.5237604586
 21
99.3544298715
 31
0.0
  0
LINE
  5
B3
330
1F
100
AcDbEntity
  8
0
  6
Continuous
 62
     7
100
AcDbLine
 10
106.2095904711
 20
102.2369298715
 30
0.0
 11
109.375895789
 21
102.2369298715
 31
0.0
  0
LINE
  5
B4
330
1F
100
AcDbEntity
  8
0
  6
Continuous
 62
     7
100
AcDbLine
 10
113.1082851531
 20
102.2369298715
 30
0.0
 11
119.1920904711
 21
102.2369298715
 31
0.0
  0
LINE
  5
B5
330
1F
100
AcDbEntity
  8
0
  6
Continuous
 62
     7
100
AcDbLine
 10
119.1920904711
 20
102.6369298715
 30
0.0
 11
112.4733079985
 21
102.6369298715
 31
0.0
  0
LINE
  5
B6
330
1F
100
AcDbEntity
  8
0
  6
Continuous
 62
     7
100
AcDbLine
 10
110.0108729437
 20
102.6369298715
 30
0.0
 11
106.2095904711
 21
102.6369298715
 31
0.0
  0
LINE
  5
B7
330
1F
100
AcDbEntity
  8
0
  6
Continuous
 62
     7
100
AcDbLine
 10
110.0795904711
 20
102.6497436483
 30
0.0
 11
112.4045904711
 21
102.6497436483
 31
0.0
  0
LINE
  5
B8
330
1F
100
AcDbEntity
  8
0
  6
Continuous
 62
     7
100
AcDbLine
 10
59.5420904711
 20
103.2344298715
 30
0.0
 11
54.9920904711
 21
103.2344298715
 31
0.0
  0
LINE
  5
B9
330
1F
100
AcDbEntity
  8
0
  6
Continuous
 62
     7
100
AcDbLine
 10
107.7058200723
 20
71.2544298715
 30
0.0
 11
109.3295904711
 21
74.066882702
 31
0.0
  0
LINE
  5
BA
330
1F
100
AcDbEntity
  8
0
  6
Continuous
 62
     7
100
AcDbLine
 10
107.7058200723
 20
151.2544298715
 30
0.0
 11
109.3295904711
 21
148.441977041
 31
0.0
  0
LWPOLYLINE
  5
BB
330
1F
100
AcDbEntity
  8
TEIL_STARTBEZUEGE
  6
DOT_CENTER
 62
     7
100
AcDbPolyline
 90
        2
 70
     0
 43
0.25
 10
211.2420904711
 20
111.2544298715
 10
50.3420904711
 20
111.2544298715
  0
LINE
  5
BC
330
1F
100
AcDbEntity
  8
0
  6
Continuous
 62
     7
100
AcDbLine
 10
59.5420904711
 20
119.2744298715
 30
0.0
 11
54.9920904711
 21
119.2744298715
 31
0.0
  0
LINE
  5
BD
330
1F
100
AcDbEntity
  8
0
  6
Continuous
 62
     7
100
AcDbLine
 10
112.4045904711
 20
119.8591160947
 30
0.0
 11
110.0795904711
 21
119.8591160947
 31
0.0
  0
LINE
  5
BE
330
1F
100
AcDbEntity
  8
0
  6
Continuous
 62
     7
100
AcDbLine
 10
106.2095904711
 20
119.8719298715
 30
0.0
 11
110.0108729437
 21
119.8719298715
 31
0.0
  0
LINE
  5
BF
330
1F
100
AcDbEntity
  8
0
  6
Continuous
 62
     7
100
AcDbLine
 10
112.4733079985
 20
119.8719298715
 30
0.0
 11
119.1920904711
 21
119.8719298715
 31
0.0
  0
LINE
  5
C0
330
1F
100
AcDbEntity
  8
0
  6
Continuous
 62
     7
100
AcDbLine
 10
106.2095904711
 20
120.2719298715
 30
0.0
 11
109.375895789
 21
120.2719298715
 31
0.0
  0
LINE
  5
C1
330
1F
100
AcDbEntity
  8
0
  6
Continuous
 62
     7
100
AcDbLine
 10
113.1082851531
 20
120.2719298715
 30
0.0
 11
119.1920904711
 21
120.2719298715
 31
0.0
  0
LINE
  5
C2
330
1F
100
AcDbEntity
  8
RUNDUNGEN
  6
Continuous
 62
     9
100
AcDbLine
 10
54.5237604586
 20
123.1544298715
 30
0.0
 11
60.6815941527
 21
123.1544298715
 31
0.0
  0
LINE
  5
C3
330
1F
100
AcDbEntity
  8
DEFAULT_2
  6
HIDDEN
 62
     8
100
AcDbLine
 10
208.2420904711
 20
123.7544298715
 30
0.0
 11
150.2420904711
 21
123.7544298715
 31
0.0
  0
LINE
  5
C4
330
1F
100
AcDbEntity
  8
DEFAULT_2
  6
HIDDEN
 62
     8
100
AcDbLine
 10
150.2420904711
 20
123.7544298715
 30
0.0
 11
150.2420904711
 21
98.7544298715
 31
0.0
  0
LINE
  5
C5
330
1F
100
AcDbEntity
  8
0
  6
Continuous
 62
     7
100
AcDbLine
 10
151.0641691583
 20
137.7544298715
 30
0.0
 11
151.0641691583
 21
84.7544298715
 31
0.0
  0
LINE
  5
C6
330
1F
100
AcDbEntity
  8
0
  6
Continuous
 62
     7
100
AcDbLine
 10
91.3613340851
 20
141.3700540452
 30
0.0
 11
90.7420904711
 21
141.5359798715
 31
0.0
  0
LINE
  5
C7
330
1F
100
AcDbEntity
  8
RUNDUNGEN
  6
Continuous
 62
     7
100
AcDbLine
 10
151.0641691583
 20
137.7544298715
 30
0.0
 11
125.1920904711
 21
137.7544298715
 31
0.0
  0
LINE
  5
C8
330
1F
100
AcDbEntity
  8
0
  6
Continuous
 62
     7
100
AcDbLine
 10
125.1920904711
 20
137.7544298715
 30
0.0
 11
151.0641691583
 21
137.7544298715
 31
0.0
  0
LINE
  5
C9
330
1F
100
AcDbEntity
  8
RUNDUNGEN
  6
Continuous
 62
     7
100
AcDbLine
 10
207.3205495668
 20
133.3269567136
 30
0.0
 11
151.0641691583
 21
137.7544298715
 31
0.0
  0
LINE
  5
CA
330
1F
100
AcDbEntity
  8
0
  6
Continuous
 62
     7
100
AcDbLine
 10
151.0641691583
 20
137.7544298715
 30
0.0
 11
207.3205495668
 21
133.3269567136
 31
0.0
  0
LINE
  5
CB
330
1F
100
AcDbEntity
  8
0
  6
Continuous
 62
     7
100
AcDbLine
 10
90.7420904711
 20
141.5359798715
 30
0.0
 11
54.8620308833
 21
139.7383888862
 31
0.0
  0
LINE
  5
CC
330
1F
100
AcDbEntity
  8
0
  6
Continuous
 62
     7
100
AcDbLine
 10
92.5415191824
 20
141.3359798715
 30
0.0
 11
91.6201531302
 21
141.3359798715
 31
0.0
  0
LINE
  5
CD
330
1F
100
AcDbEntity
  8
0
  6
Continuous
 62
     7
100
AcDbLine
 10
110.0795904711
 20
146.2294298715
 30
0.0
 11
112.4045904711
 21
146.2294298715
 31
0.0
  0
LINE
  5
CE
330
1F
100
AcDbEntity
  8
BEZUGSACHSEN
  6
Continuous
 62
     7
100
AcDbLine
 10
107.7058200723
 20
151.2544298715
 30
0.0
 11
105.2420904711
 21
151.2544298715
 31
0.0
  0
LINE
  5
CF
330
1F
100
AcDbEntity
  8
BEZUGSACHSEN
  6
Continuous
 62
     7
100
AcDbLine
 10
95.2420904711
 20
151.2544298715
 30
0.0
 11
93.2420904711
 21
151.2544298715
 31
0.0
  0
LINE
  5
D0
330
1F
100
AcDbEntity
  8
0
  6
Continuous
 62
     7
100
AcDbLine
 10
93.2420904711
 20
151.2544298715
 30
0.0
 11
95.2420904711
 21
151.2544298715
 31
0.0
  0
LINE
  5
D1
330
1F
100
AcDbEntity
  8
0
  6
Continuous
 62
     7
100
AcDbLine
 10
105.2420904711
 20
151.2544298715
 30
0.0
 11
107.7058200723
 21
151.2544298715
 31
0.0
  0
LINE
  5
D2
330
1F
100
AcDbEntity
  8
0
  6
Continuous
 62
     7
100
AcDbLine
 10
114.7783608699
 20
151.2544298715
 30
0.0
 11
119.1920904711
 21
151.2544298715
 31
0.0
  0
LINE
  5
D3
330
1F
100
AcDbEntity
  8
RUNDUNGEN
  6
Continuous
 62
     9
100
AcDbLine
 10
207.3205495668
 20
89.1819030294
 30
0.0
 11
207.3205495668
 21
133.3269567136
 31
0.0
  0
LINE
  5
D4
330
1F
100
AcDbEntity
  8
RUNDUNGEN
  6
Continuous
 62
     7
100
AcDbLine
 10
208.2420904711
 20
90.1788203632
 30
0.0
 11
208.2420904711
 21
132.3300393799
 31
0.0
  0
LWPOLYLINE
  5
D5
330
1F
100
AcDbEntity
  8
1
  6
Continuous
 62
     7
100
AcDbPolyline
 90
        2
 70
     0
 43
0.25
 10
208.2420904711
 20
132.3300393799
 10
208.2420904711
 20
133.2544298715466
  0
LWPOLYLINE
  5
D6
330
1F
100
AcDbEntity
  8
1
  6
Continuous
 62
     7
100
AcDbPolyline
 90
        2
 70
     0
 43
0.25
 10
207.3205495668
 20
133.3269567136
 10
208.2420904710949
 20
133.2544298715466
  0
LWPOLYLINE
  5
D7
330
1F
100
AcDbEntity
  8
1
  6
Continuous
 62
     7
100
AcDbPolyline
 90
        2
 70
     0
 43
0.25
 10
207.3205495668
 20
89.1819030294
 10
208.2420904711
 20
89.2544298714559
  0
LWPOLYLINE
  5
D8
330
1F
100
AcDbEntity
  8
1
  6
Continuous
 62
     7
100
AcDbPolyline
 90
        2
 70
     0
 43
0.25
 10
208.2420904711
 20
90.1788203632
 10
208.2420904711
 20
89.2544298714559
  0
ARC
  5
D9
330
1F
100
AcDbEntity
  8
0
  6
Continuous
 62
     7
100
AcDbCircle
 10
68.45083667
 20
86.2044298715
 30
0.0
 40
40.94090914365135
100
AcDbArc
 50
359.7201038833806
 51
0.27989611661941
  0
ARC
  5
DA
330
1F
100
AcDbEntity
  8
FASEN
  6
Continuous
 62
     7
100
AcDbCircle
 10
109.9462619081
 20
92.4567255716
 30
0.0
 40
17.6209820992
100
AcDbArc
 50
223.9318240225001
 51
225.4009012365698
  0
ARC
  5
DB
330
1F
100
AcDbEntity
  8
FASEN
  6
Continuous
 62
     7
100
AcDbCircle
 10
105.8007676318
 20
77.4044298715
 30
0.0
 40
9.0
100
AcDbArc
 50
90.0
 51
161.6940322393002
  0
ARC
  5
DC
330
1F
100
AcDbEntity
  8
FASEN
  6
Continuous
 62
     7
100
AcDbCircle
 10
105.8007676318
 20
77.4044298715
 30
0.0
 40
8.599979606199994
100
AcDbArc
 50
90.0
 51
163.0619502147001
  0
ARC
  5
DD
330
1F
100
AcDbEntity
  8
RUNDUNGEN
  6
Continuous
 62
     7
100
AcDbCircle
 10
59.5420904711
 20
105.1344298715
 30
0.0
 40
1.900000000000006
100
AcDbArc
 50
270.0
 51
355.2355361864926
  0
ARC
  5
DE
330
1F
100
AcDbEntity
  8
0
  6
Continuous
 62
     7
100
AcDbCircle
 10
54.9420904711
 20
84.3684666211
 30
0.0
 40
1.600000000000001
100
AcDbArc
 50
180.0
 51
267.1318795121995
  0
ARC
  5
DF
330
1F
100
AcDbEntity
  8
0
  6
Continuous
 62
     7
100
AcDbCircle
 10
91.6201531302
 20
80.1728798715
 30
0.0
 40
1.0
100
AcDbArc
 50
90.0
 51
104.9999999996983
  0
ARC
  5
E0
330
1F
100
AcDbEntity
  8
0
  6
Continuous
 62
     7
100
AcDbCircle
 10
92.5415191824
 20
80.1728798715
 30
0.0
 40
1.000000000000006
100
AcDbArc
 50
45.52164291269916
 51
90.0
  0
ARC
  5
E1
330
1F
100
AcDbEntity
  8
0
  6
Continuous
 62
     7
100
AcDbCircle
 10
110.0795904711
 20
75.5294298715
 30
0.0
 40
0.75
100
AcDbArc
 50
90.0
 51
180.0
  0
ARC
  5
E2
330
1F
100
AcDbEntity
  8
0
  6
Continuous
 62
     7
100
AcDbCircle
 10
-83.3786380545
 20
166.4498197687
 30
0.0
 40
209.7675432076
100
AcDbArc
 50
335.6347911335
 51
336.7331595278001
  0
ARC
  5
E3
330
1F
100
AcDbEntity
  8
BEZUGSACHSEN
  6
Continuous
 62
     7
100
AcDbCircle
 10
100.2182040134
 20
191.3213840796
 30
0.0
 40
40.38069160689966
100
AcDbArc
 50
270.0338922697995
 51
277.1468635116501
  0
ARC
  5
E4
330
1F
100
AcDbEntity
  8
BEZUGSACHSEN
  6
Continuous
 62
     7
100
AcDbCircle
 10
100.2659769252
 20
191.3213840222
 30
0.0
 40
40.38069154952629
100
AcDbArc
 50
262.8531364832856
 51
269.9661077353143
  0
ARC
  5
E5
330
1F
100
AcDbEntity
  8
0
  6
Continuous
 62
     7
100
AcDbCircle
 10
106.2095904711
 20
111.2544298715
 30
0.0
 40
9.017500000000013
100
AcDbArc
 50
90.0
 51
270.0
  0
ARC
  5
E6
330
1F
100
AcDbEntity
  8
FASEN
  6
Continuous
 62
     7
100
AcDbCircle
 10
106.2095904711
 20
111.2544298715
 30
0.0
 40
8.617497877200009
100
AcDbArc
 50
90.0
 51
270.0
  0
ARC
  5
E7
330
1F
100
AcDbEntity
  8
RUNDUNGEN
  6
Continuous
 62
     7
100
AcDbCircle
 10
59.5420904711
 20
117.3744298715
 30
0.0
 40
1.899999999999976
100
AcDbArc
 50
4.76446375489308
 51
90.0
  0
ARC
  5
E8
330
1F
100
AcDbEntity
  8
0
  6
Continuous
 62
     7
100
AcDbCircle
 10
54.9420904711
 20
138.140393122
 30
0.0
 40
1.599999999999946
100
AcDbArc
 50
92.86812048780048
 51
180.0
  0
ARC
  5
E9
330
1F
100
AcDbEntity
  8
0
  6
Continuous
 62
     7
100
AcDbCircle
 10
91.6201531302
 20
142.3359798715
 30
0.0
 40
1.000000000009914
100
AcDbArc
 50
255.0000000003019
 51
270.0
  0
ARC
  5
EA
330
1F
100
AcDbEntity
  8
0
  6
Continuous
 62
     7
100
AcDbCircle
 10
92.5415191824
 20
142.3359798715
 30
0.0
 40
1.0
100
AcDbArc
 50
270.0
 51
314.4783570872974
  0
ARC
  5
EB
330
1F
100
AcDbEntity
  8
0
  6
Continuous
 62
     7
100
AcDbCircle
 10
110.0795904711
 20
146.9794298715
 30
0.0
 40
0.75
100
AcDbArc
 50
180.0
 51
270.0
  0
ARC
  5
EC
330
1F
100
AcDbEntity
  8
RUNDUNGEN
  6
Continuous
 62
     7
100
AcDbCircle
 10
188.442029501
 20
-1003.0123493763
 30
0.0
 40
1134.1881142076
100
AcDbArc
 50
96.52573778010002
 51
96.7637593779
  0
ARC
  5
ED
330
1F
100
AcDbEntity
  8
0
  6
Continuous
 62
     7
100
AcDbCircle
 10
154.0333442722
 20
86.2044298715
 30
0.0
 40
40.94090914365135
100
AcDbArc
 50
179.7201038833806
 51
180.2798961166194
  0
ARC
  5
EE
330
1F
100
AcDbEntity
  8
RUNDUNGEN
  6
Continuous
 62
     7
100
AcDbCircle
 10
125.1920904711
 20
78.7544298715
 30
0.0
 40
6.0
100
AcDbArc
 50
90.0
 51
180.0
  0
ARC
  5
EF
330
1F
100
AcDbEntity
  8
RUNDUNGEN
  6
Continuous
 62
     7
100
AcDbCircle
 10
207.2420904711
 20
90.1788203632
 30
0.0
 40
1.00000000006448
100
AcDbArc
 50
274.4999999981088
 51
0.0
  0
ARC
  5
F0
330
1F
100
AcDbEntity
  8
0
  6
Continuous
 62
     7
100
AcDbCircle
 10
112.4045904711
 20
75.5294298715
 30
0.0
 40
0.75
100
AcDbArc
 50
0.0
 51
90.0
  0
ARC
  5
F1
330
1F
100
AcDbEntity
  8
RUNDUNGEN
  6
Continuous
 62
     7
100
AcDbCircle
 10
188.442029501
 20
1225.5212091198
 30
0.0
 40
1134.1881142081
100
AcDbArc
 50
263.2362406221
 51
263.4742622199
  0
ARC
  5
F2
330
1F
100
AcDbEntity
  8
0
  6
Continuous
 62
     7
100
AcDbCircle
 10
305.8628189968
 20
166.4498197687
 30
0.0
 40
209.7675432078004
100
AcDbArc
 50
203.2668404721999
 51
204.3652088665347
  0
ARC
  5
F3
330
1F
100
AcDbEntity
  8
RUNDUNGEN
  6
Continuous
 62
     7
100
AcDbCircle
 10
125.1920904711
 20
143.7544298715
 30
0.0
 40
6.0
100
AcDbArc
 50
180.0
 51
270.0
  0
ARC
  5
F4
330
1F
100
AcDbEntity
  8
RUNDUNGEN
  6
Continuous
 62
     7
100
AcDbCircle
 10
207.2420904711
 20
132.3300393799
 30
0.0
 40
1.0
100
AcDbArc
 50
0.0
 51
85.50000000144168
  0
ARC
  5
F5
330
1F
100
AcDbEntity
  8
0
  6
Continuous
 62
     7
100
AcDbCircle
 10
112.4045904711
 20
146.9794298715
 30
0.0
 40
0.75
100
AcDbArc
 50
270.0
 51
0.0
  0
CIRCLE
  5
F6
330
1F
100
AcDbEntity
  8
FASEN
  6
Continuous
 62
     7
100
AcDbCircle
 10
81.2420904711
 20
111.2544298715
 30
0.0
 40
4.25
  0
SPLINE
  5
F7
330
1F
100
AcDbEntity
  8
0
  6
Continuous
 62
     7
100
AcDbSpline
210
0.0
220
0.0
230
1.0
 70
     8
 71
     3
 72
    11
 73
     7
 74
     5
 42
0.0000000001
 43
0.0000000001
 44
0.00000001
 40
0.0
 40
0.0
 40
0.0
 40
0.0
 40
0.091082880820594
 40
0.1822704385530159
 40
0.2734873447169139
 40
0.364523778964057
 40
0.364523778964057
 40
0.364523778964057
 40
0.364523778964057
 10
54.5237604586
 20
123.1544298715
 30
0.0
 10
54.54969237823645
 20
123.1702755528531
 30
0.0
 10
54.60158601974268
 20
123.2019851261931
 30
0.0
 10
54.68505181743265
 20
123.2391485927481
 30
0.0
 10
54.77192144269524
 20
123.2677857931313
 30
0.0
 10
54.83201423823919
 20
123.2772949442453
 30
0.0
 10
54.8620308833
 20
123.2820448117
 30
0.0
 11
54.5237604586
 21
123.1544298715
 31
0.0
 11
54.60248854661507
 21
123.2002335758924
 31
0.0
 11
54.68561268966837
 21
123.2377242084139
 31
0.0
 11
54.77252801497588
 21
123.26540543304
 31
0.0
 11
54.8620308833
 21
123.2820448117
 31
0.0
  0
SPLINE
  5
F8
330
1F
100
AcDbEntity
  8
RUNDUNGEN
  6
Continuous
 62
     7
100
AcDbSpline
210
0.0
220
0.0
230
1.0
 70
     8
 71
     3
 72
    15
 73
    11
 74
     9
 42
0.0000000001
 43
0.0000000001
 44
0.00000001
 40
0.0
 40
0.0
 40
0.0
 40
0.0
 40
0.3162936728269716
 40
0.6327491898544395
 40
0.9497778541323391
 40
1.266736320409523
 40
1.585306002290823
 40
1.903962908435557
 40
2.225342078512818
 40
2.546438904730684
 40
2.546438904730684
 40
2.546438904730684
 40
2.546438904730684
 10
60.6815941527
 20
123.1544298715
 30
0.0
 10
60.73764111130531
 20
123.0650862922894
 30
0.0
 10
60.8497637071649
 20
122.8863534176828
 30
0.0
 10
60.99574228212752
 20
122.6050601285571
 30
0.0
 10
61.12514267608546
 20
122.3156902500765
 30
0.0
 10
61.23501675486705
 20
122.0175206152051
 30
0.0
 10
61.32429518837614
 20
121.7119334489116
 30
0.0
 10
61.3903782494048
 20
121.3990765427142
 30
0.0
 10
61.43365593734806
 20
121.0810554023211
 30
0.0
 10
61.43927978367182
 20
120.8668351521457
 30
0.0
 10
61.4420904711
 20
120.7597720979
 30
0.0
 11
60.6815941527
 21
123.1544298715
 31
0.0
 11
60.84601928877893
 21
122.8842335315992
 31
0.0
 11
60.99287979109929
 21
122.6039192666833
 31
0.0
 11
61.12185460846417
 21
122.3143114793924
 31
0.0
 11
61.23138776345385
 21
122.0168805507673
 31
0.0
 11
61.32036462178272
 21
121.7109888037458
 31
0.0
 11
61.38639742734718
 21
121.3992486997761
 31
0.0
 11
61.42783717206292
 21
121.0805524203541
 31
0.0
 11
61.4420904711
 21
120.7597720979
 31
0.0
  0
SPLINE
  5
F9
330
1F
100
AcDbEntity
  8
RUNDUNGEN
  6
Continuous
 62
     7
100
AcDbSpline
210
0.0
220
0.0
230
1.0
 70
     8
 71
     3
 72
    19
 73
    15
 74
    13
 42
0.0000000001
 43
0.0000000001
 44
0.00000001
 40
0.0
 40
0.0
 40
0.0
 40
0.0
 40
0.0908658953593944
 40
0.1818155842979279
 40
0.2719578267124977
 40
0.3620796283856415
 40
0.4508848980054267
 40
0.5396930491177364
 40
0.6271215589095706
 40
0.7145608604718512
 40
0.8859439487444332
 40
1.057581272656018
 40
1.226597310396249
 40
1.395465809443145
 40
1.395465809443145
 40
1.395465809443145
 40
1.395465809443145
 10
59.5420904711
 20
123.8272506236
 30
0.0
 10
59.57229153377801
 20
123.829846890477
 30
0.0
 10
59.63272150957367
 20
123.835041818424
 30
0.0
 10
59.72353183130289
 20
123.8315799331224
 30
0.0
 10
59.813277992704
 20
123.8198006085685
 30
0.0
 10
59.90078769202693
 20
123.7994880960946
 30
0.0
 10
59.98560151794005
 20
123.7713474606973
 30
0.0
 10
60.06682662875674
 20
123.7363288398428
 30
0.0
 10
60.14453091336613
 20
123.695061809024
 30
0.0
 10
60.24221159798655
 20
123.6334210997247
 30
0.0
 10
60.3554669617165
 20
123.5446176885398
 30
0.0
 10
60.47685461338462
 20
123.424264321804
 30
0.0
 10
60.58631624293722
 20
123.2940100739581
 30
0.0
 10
60.64984409601316
 20
123.2009430596193
 30
0.0
 10
60.6815941527
 20
123.1544298715
 30
0.0
 11
59.5420904711
 21
123.8272506236
 31
0.0
 11
59.63276375868149
 21
123.8331638172066
 31
0.0
 11
59.72366406924201
 21
123.8301672428261
 31
0.0
 11
59.81302896693381
 21
123.8183545831738
 31
0.0
 11
59.90083236684195
 21
123.7980444354297
 31
0.0
 11
59.98514232800443
 21
123.7701480851125
 31
0.0
 11
60.06672292139237
 21
123.7350554293785
 31
0.0
 11
60.1439775541369
 21
123.6941229722824
 31
0.0
 11
60.21796880791015
 21
123.6475297772561
 31
0.0
 11
60.35317075399769
 21
123.5422083799999
 31
0.0
 11
60.47555306191842
 21
123.4218674407169
 31
0.0
 11
60.58408081610739
 21
123.2922983565027
 31
0.0
 11
60.6815941527
 21
123.1544298715
 31
0.0
  0
SPLINE
  5
FA
330
1F
100
AcDbEntity
  8
0
  6
Continuous
 62
     7
100
AcDbSpline
210
0.0
220
0.0
230
1.0
 70
     8
 71
     3
 72
     9
 73
     5
 74
     3
 42
0.0000000001
 43
0.0000000001
 44
0.00000001
 40
0.0
 40
0.0
 40
0.0
 40
0.0
 40
0.1121178550902385
 40
0.2241876568903581
 40
0.2241876568903581
 40
0.2241876568903581
 40
0.2241876568903581
 10
54.3465696151
 20
123.0173668627
 30
0.0
 10
54.37476323337629
 20
123.0419537768897
 30
0.0
 10
54.43113838625032
 20
123.0911170674103
 30
0.0
 10
54.49289084657423
 20
123.1333286194017
 30
0.0
 10
54.5237604586
 20
123.1544298715
 30
0.0
 11
54.3465696151
 21
123.0173668627
 31
0.0
 11
54.43249537315
 21
123.089388925525
 31
0.0
 11
54.5237604586
 21
123.1544298715
 31
0.0
  0
SPLINE
  5
FB
330
1F
100
AcDbEntity
  8
RUNDUNGEN
  6
Continuous
 62
     7
100
AcDbSpline
210
0.0
220
0.0
230
1.0
 70
     8
 71
     3
 72
    15
 73
    11
 74
     9
 42
0.0000000001
 43
0.0000000001
 44
0.00000001
 40
0.0
 40
0.0
 40
0.0
 40
0.0
 40
0.3210967670360728
 40
0.6424758765889205
 40
0.9611327417200306
 40
1.279702385362717
 40
1.596661045048565
 40
1.91368989971949
 40
2.23014532380342
 40
2.546438905826701
 40
2.546438905826701
 40
2.546438905826701
 40
2.546438905826701
 10
61.4420904711
 20
101.7490876451
 30
0.0
 10
61.43927978564349
 20
101.6420246105865
 30
0.0
 10
61.43365594327612
 20
101.4278044003232
 30
0.0
 10
61.39037827067099
 20
101.1097833117911
 30
0.0
 10
61.32429520941547
 20
100.7969264530293
 30
0.0
 10
61.23501676929199
 20
100.4913392499933
 30
0.0
 10
61.12514268952019
 20
100.1931694930181
 30
0.0
 10
60.99574227807251
 20
99.9037995147467
 30
0.0
 10
60.84976367148391
 20
99.62250623927265
 30
0.0
 10
60.7376410995373
 20
99.44377342223109
 30
0.0
 10
60.6815941527
 20
99.3544298715
 30
0.0
 11
61.4420904711
 21
101.7490876451
 31
0.0
 11
61.42783717966532
 21
101.4283073815483
 31
0.0
 11
61.3863974473355
 21
101.1096111615497
 31
0.0
 11
61.3203646458532
 21
100.797871098639
 31
0.0
 11
61.23138780707955
 21
100.4919793857527
 31
0.0
 11
61.12185461674115
 21
100.1945482640386
 31
0.0
 11
60.99287973676273
 21
99.9049402962122
 31
0.0
 11
60.84601925746339
 21
99.62462612416215
 31
0.0
 11
60.6815941527
 21
99.3544298715
 31
0.0
  0
SPLINE
  5
FC
330
1F
100
AcDbEntity
  8
RUNDUNGEN
  6
Continuous
 62
     7
100
AcDbSpline
210
0.0
220
0.0
230
1.0
 70
     8
 71
     3
 72
    19
 73
    15
 74
    13
 42
0.0000000001
 43
0.0000000001
 44
0.00000001
 40
0.0
 40
0.0
 40
0.0
 40
0.0
 40
0.1688722591479479
 40
0.3378923302139461
 40
0.509543066794266
 40
0.6809387932401514
 40
0.7683828001259146
 40
0.8558164160406835
 40
0.944625926632933
 40
1.03343206626579
 40
1.123538983617333
 40
1.213666714863874
 40
1.304608728468838
 40
1.395466840273072
 40
1.395466840273072
 40
1.395466840273072
 40
1.395466840273072
 10
60.6815941527
 20
99.3544298715
 30
0.0
 10
60.64984328182438
 20
99.30791571633385
 30
0.0
 10
60.58631374890631
 20
99.21484669270423
 30
0.0
 10
60.47684712365651
 20
99.08458744400083
 30
0.0
 10
60.35545302086713
 20
98.96422631680312
 30
0.0
 10
60.24218759316647
 20
98.87541855260035
 30
0.0
 10
60.14449661562532
 20
98.81378003392847
 30
0.0
 10
60.06678703708958
 20
98.77251524458808
 30
0.0
 10
59.98556003299624
 20
98.73749510553543
 30
0.0
 10
59.90075020794887
 20
98.70935540081021
 30
0.0
 10
59.81324856905105
 20
98.6890498089154
 30
0.0
 10
59.72351403241727
 20
98.67727747204104
 30
0.0
 10
59.63271373951412
 20
98.67381830140945
 30
0.0
 10
59.5722889317729
 20
98.67901297919434
 30
0.0
 10
59.5420904711
 20
98.6816091194
 30
0.0
 11
60.6815941527
 21
99.3544298715
 31
0.0
 11
60.58407830567528
 21
99.21655855654006
 31
0.0
 11
60.47554777985184
 21
99.08698653260109
 31
0.0
 11
60.35315594259944
 21
98.96663615436093
 31
0.0
 11
60.21794137986865
 21
98.86131038795293
 31
0.0
 11
60.14394350903628
 21
98.81471887099421
 31
0.0
 11
60.06668258253459
 21
98.77378738643732
 31
0.0
 11
59.98510062401992
 21
98.73869446383823
 31
0.0
 11
59.90078965756382
 21
98.71079838218276
 31
0.0
 11
59.81299980458288
 21
98.69049571565388
 31
0.0
 11
59.72364867098783
 21
98.67868966360724
 31
0.0
 11
59.63275595052946
 21
98.67569580218729
 31
0.0
 11
59.5420904711
 21
98.6816091194
 31
0.0
  0
SPLINE
  5
FD
330
1F
100
AcDbEntity
  8
0
  6
Continuous
 62
     7
100
AcDbSpline
210
0.0
220
0.0
230
1.0
 70
     8
 71
     3
 72
    27
 73
    23
 74
    21
 42
0.0000000001
 43
0.0000000001
 44
0.00000001
 40
0.0
 40
0.0
 40
0.0
 40
0.0
 40
0.1005593762906138
 40
0.2012543953766642
 40
0.2905289403437659
 40
0.3794999608252701
 40
0.4198989481475285
 40
0.4602916821399085
 40
0.4986937523878846
 40
0.5370892801632896
 40
0.5745784458396822
 40
0.6120681418031013
 40
0.6498944637625221
 40
0.6877262176194916
 40
0.7680465441259605
 40
0.8487068781892473
 40
0.938708380377034
 40
1.028639130847781
 40
1.127965388939282
 40
1.227310735173544
 40
1.334449143096292
 40
1.441556400092014
 40
1.441556400092014
 40
1.441556400092014
 40
1.441556400092014
 10
53.3420904711
 20
122.6762670671
 30
0.0
 10
53.34275765020112
 20
122.7097991897069
 30
0.0
 10
53.34409290834962
 20
122.7769086658183
 30
0.0
 10
53.35692983086268
 20
122.8731385576905
 30
0.0
 10
53.37902107136016
 20
122.9636461393486
 30
0.0
 10
53.40643217218074
 20
123.0315896451554
 30
0.0
 10
53.43447698143286
 20
123.080814814058
 30
0.0
 10
53.45736461478641
 20
123.113377145405
 30
0.0
 10
53.48306706323647
 20
123.1428868494445
 30
0.0
 10
53.51109392489199
 20
123.1688092119441
 30
0.0
 10
53.5416548893246
 20
123.1911770462896
 30
0.0
 10
53.57435889970279
 20
123.2098936254101
 30
0.0
 10
53.60907214351865
 20
123.224841553503
 30
0.0
 10
53.65882337769827
 20
123.2402342224368
 30
0.0
 10
53.72488702977282
 20
123.2496766932913
 30
0.0
 10
53.80879735972077
 20
123.24739716407
 30
0.0
 10
53.89471904715317
 20
123.2329571681965
 30
0.0
 10
53.98423088923384
 20
123.2068820325584
 30
0.0
 10
54.07393128059489
 20
123.1717883937238
 30
0.0
 10
54.16571913190491
 20
123.1272881288982
 30
0.0
 10
54.25693347622791
 20
123.076057642814
 30
0.0
 10
54.31669379848975
 20
123.036928559639
 30
0.0
 10
54.3465696151
 20
123.0173668627
 30
0.0
 11
53.3420904711
 21
122.6762670671
 31
0.0
 11
53.34597873730151
 21
122.7767512426995
 31
0.0
 11
53.35930319547168
 21
122.8765607897539
 31
0.0
 11
53.38110958369586
 21
122.9631311415592
 31
0.0
 11
53.41495877347624
 21
123.0454116060495
 31
0.0
 11
53.43501981335543
 21
123.080477727244
 31
0.0
 11
53.4583121926578
 21
123.1134783033877
 31
0.0
 11
53.4835660494844
 21
123.1424085939965
 31
0.0
 11
53.51178876039356
 21
123.1684411724722
 31
0.0
 11
53.5420363445629
 21
123.1905888855602
 31
0.0
 11
53.57457630157079
 21
123.209206847354
 31
0.0
 11
53.60930057089994
 21
123.2242087056567
 31
0.0
 11
53.64543258592506
 21
123.2354211581145
 31
0.0
 11
53.72485566080817
 21
123.2473932099945
 31
0.0
 11
53.8054985511106
 21
123.2457157908842
 31
0.0
 11
53.89432899037286
 21
123.2312443204498
 31
0.0
 11
53.98080375810217
 21
123.2065531393037
 31
0.0
 11
54.07339584179778
 21
123.1706030129706
 31
0.0
 11
54.16293668503315
 21
123.1275688961433
 31
0.0
 11
54.2563030009271
 21
123.075020161538
 31
0.0
 11
54.3465696151
 21
123.0173668627
 31
0.0
  0
SPLINE
  5
FE
330
1F
100
AcDbEntity
  8
FASEN
  6
Continuous
 62
     7
100
AcDbSpline
210
0.0
220
0.0
230
1.0
 70
     8
 71
     3
 72
    43
 73
    39
 74
    37
 42
0.0000000001
 43
0.0000000001
 44
0.00000001
 40
0.0
 40
0.0
 40
0.0
 40
0.0
 40
0.4749013796012839
 40
0.950307004438961
 40
1.426516794755691
 40
1.902569884110813
 40
2.378584226355818
 40
2.854695131911749
 40
3.330934150204378
 40
3.806936903933429
 40
4.044851144887247
 40
4.28268903710462
 40
4.520257272345846
 40
4.757901325403179
 40
5.232421588303461
 40
5.707166910072893
 40
6.181844946080759
 40
6.656466720138376
 40
7.131680532958693
 40
7.606912148207754
 40
8.083165911160982
 40
8.559404406981024
 40
9.036790688974927
 40
9.514236751993426
 40
9.992554709948665
 40
10.47064082758607
 40
10.70993136089289
 40
10.94914401732333
 40
11.18825986898406
 40
11.42745308570663
 40
11.90448227704725
 40
12.38174856645518
 40
12.85659710256033
 40
13.33134750745756
 40
13.80459019511712
 40
14.27798080742912
 40
14.74980874355604
 40
15.22115173929113
 40
15.22115173929113
 40
15.22115173929113
 40
15.22115173929113
 10
76.3927757031
 20
111.2544298303
 30
0.0
 10
76.39725725731616
 20
111.4127949827004
 30
0.0
 10
76.40622512421506
 20
111.7296934379365
 30
0.0
 10
76.47889957669179
 20
112.2007903245441
 30
0.0
 10
76.59409331503863
 20
112.663135450061
 30
0.0
 10
76.75503874368803
 20
113.1120878118288
 30
0.0
 10
76.95923095752504
 20
113.5429603698282
 30
0.0
 10
77.20485696412861
 20
113.9517482575244
 30
0.0
 10
77.48959529027857
 20
114.3342753213312
 30
0.0
 10
77.75698636960826
 20
114.628284789042
 30
0.0
 10
77.98728228926412
 20
114.8466415090086
 30
0.0
 10
78.16773408056103
 20
115.0016267442169
 30
0.0
 10
78.35549555021257
 20
115.1475233406489
 30
0.0
 10
78.6147876498175
 20
115.3293357061411
 30
0.0
 10
78.95514564225627
 20
115.5323825613467
 30
0.0
 10
79.38514534688892
 20
115.7350906953915
 30
0.0
 10
79.83295156148934
 20
115.8948224589275
 30
0.0
 10
80.29430183939371
 20
116.010320921213
 30
0.0
 10
80.7648975730242
 20
116.0803331054413
 30
0.0
 10
81.24061244899939
 20
116.104344224164
 30
0.0
 10
81.71674330654243
 20
116.0817313386777
 30
0.0
 10
82.18911687093862
 20
116.0127242187994
 30
0.0
 10
82.6528316993878
 20
115.8976009363396
 30
0.0
 10
83.10368224005487
 20
115.7373112289812
 30
0.0
 10
83.53667558694616
 20
115.5331537544526
 30
0.0
 10
83.8793102315458
 20
115.3281647733294
 30
0.0
 10
84.14008018622586
 20
115.1444746217191
 30
0.0
 10
84.32864746070518
 20
114.9971297394616
 30
0.0
 10
84.50966405570884
 20
114.8406510583722
 30
0.0
 10
84.74002989729993
 20
114.6206313513177
 30
0.0
 10
85.00695316350715
 20
114.3246877432054
 30
0.0
 10
85.29011182281887
 20
113.9406542534503
 30
0.0
 10
85.53360229843543
 20
113.5311786053552
 30
0.0
 10
85.73519848488596
 20
113.1010579897434
 30
0.0
 10
85.8937371986085
 20
112.65370745684
 30
0.0
 10
86.0069133047
 20
112.1940369767887
 30
0.0
 10
86.07818937847496
 20
111.7261202401798
 30
0.0
 10
86.08701028280922
 20
111.4116060672992
 30
0.0
 10
86.0914184673
 20
111.2544298361
 30
0.0
 11
76.3927757031
 21
111.2544298303
 31
0.0
 11
76.41607137646027
 21
111.7287594961969
 31
0.0
 11
76.48592220705714
 21
112.1990055696438
 31
0.0
 11
76.6017261863195
 21
112.6609202833957
 31
0.0
 11
76.76225296172605
 21
113.1090917888065
 31
0.0
 11
76.96611610128832
 21
113.5392423140308
 31
0.0
 11
77.21135301746637
 21
113.9473359911844
 31
0.0
 11
77.49567344665068
 21
114.3293903015812
 31
0.0
 11
77.81596829886844
 21
114.6815121969533
 31
0.0
 11
77.98861005130495
 21
114.8452131785151
 31
0.0
 11
78.16903346561827
 21
115.0001785118704
 31
0.0
 11
78.356626939903
 21
115.1459432360029
 31
0.0
 11
78.55120656809203
 21
115.2823744063685
 31
0.0
 11
78.95869092573865
 21
115.5255327460903
 31
0.0
 11
79.38812891535818
 21
115.7279336690465
 31
0.0
 11
79.83520142456679
 21
115.8874498418259
 31
0.0
 11
80.29561891172271
 21
116.0026955182334
 31
0.0
 11
80.7656544831774
 21
116.0726578614081
 31
0.0
 11
81.24028398148735
 21
116.0965728664525
 31
0.0
 11
81.71600299360128
 21
116.0740103258053
 31
0.0
 11
82.18723321485396
 21
116.0051250336226
 31
0.0
 11
82.65055767994117
 21
115.8901115462066
 31
0.0
 11
83.10040098363051
 21
115.7301248429537
 31
0.0
 11
83.53305627159416
 21
115.526170262962
 31
0.0
 11
83.94329311698641
 21
115.2806665632746
 31
0.0
 11
84.138924400375
 21
115.1428683038879
 31
0.0
 11
84.32741825620876
 21
114.9955836770275
 31
0.0
 11
84.50831228860731
 21
114.8392067619855
 31
0.0
 11
84.68128243124221
 21
114.6739956101738
 31
0.0
 11
85.00081524552529
 21
114.319798447583
 31
0.0
 11
85.28401548762972
 21
113.9356360680125
 31
0.0
 11
85.52674216318442
 21
113.5275124430956
 31
0.0
 11
85.72824449963923
 21
113.0976464693859
 31
0.0
 11
85.88620906288541
 21
112.6515457653048
 31
0.0
 11
86.00005064450514
 21
112.1920473799763
 31
0.0
 11
86.06854486227945
 21
111.7252174929283
 31
0.0
 11
86.0914184673
 21
111.2544298361
 31
0.0
  0
SPLINE
  5
FF
330
1F
100
AcDbEntity
  8
FASEN
  6
Continuous
 62
     7
100
AcDbSpline
210
0.0
220
0.0
230
1.0
 70
     8
 71
     3
 72
    43
 73
    39
 74
    37
 42
0.0000000001
 43
0.0000000001
 44
0.00000001
 40
0.0
 40
0.0
 40
0.0
 40
0.0
 40
0.4709816363536503
 40
0.9424503137185813
 40
1.415748649539061
 40
1.88889749009249
 40
2.363658623738696
 40
2.838518572153384
 40
3.315822292093873
 40
3.79288895783319
 40
4.032098331357226
 40
4.271230229313837
 40
4.51044296568979
 40
4.74973368376052
 40
5.227809816833638
 40
5.706117458431646
 40
6.183577089114681
 40
6.660977225101469
 40
7.137232867646335
 40
7.61350364163868
 40
8.088735822301029
 40
8.563950163639015
 40
9.038574661066814
 40
9.513255581152105
 40
9.988020673974072
 40
10.46256050239721
 40
10.70020938102519
 40
10.93778249098804
 40
11.17561469249859
 40
11.41352320100524
 40
11.88952200037172
 40
12.36575696879709
 40
12.84187173885589
 40
13.31789081554126
 40
13.79401470445108
 40
14.27029322434619
 40
14.74597323799581
 40
15.22115173406507
 40
15.22115173406507
 40
15.22115173406507
 40
15.22115173406507
 10
86.0914007376
 20
111.2544299092
 30
0.0
 10
86.08701137886683
 20
111.0973736010279
 30
0.0
 10
86.0782281223749
 20
110.7830985731219
 30
0.0
 10
86.00702407870978
 20
110.3154462545918
 30
0.0
 10
85.89396463677336
 20
109.8559355713066
 30
0.0
 10
85.73552983783365
 20
109.4086105813241
 30
0.0
 10
85.53402540946658
 20
108.9784732330796
 30
0.0
 10
85.29059953109564
 20
108.5689359349139
 30
0.0
 10
85.00749061325419
 20
108.1848297926992
 30
0.0
 10
84.74059731294605
 20
107.8888182325844
 30
0.0
 10
84.51025267319139
 20
107.6687426999964
 30
0.0
 10
84.329254163568
 20
107.5122265770755
 30
0.0
 10
84.14070578976879
 20
107.3648486346302
 30
0.0
 10
83.87996706434504
 20
107.1811198075248
 30
0.0
 10
83.53737185153014
 20
106.9760782681038
 30
0.0
 10
83.10441472696255
 20
106.7718492099909
 30
0.0
 10
82.65358456646243
 20
106.6114847737395
 30
0.0
 10
82.18987341202623
 20
106.4962849100048
 30
0.0
 10
81.71749482984431
 20
106.4272011897005
 30
0.0
 10
81.24135583626439
 20
106.4045140561676
 30
0.0
 10
80.76563126208691
 20
106.4284530823478
 30
0.0
 10
80.29502368026075
 20
106.4983944467322
 30
0.0
 10
79.83365421475357
 20
106.6138247884977
 30
0.0
 10
79.3858162657841
 20
106.7734926653622
 30
0.0
 10
78.9557733222392
 20
106.9761421856068
 30
0.0
 10
78.61537304076083
 20
107.1791471511259
 30
0.0
 10
78.35604771453859
 20
107.3609291432466
 30
0.0
 10
78.16826493412674
 20
107.5068004716773
 30
0.0
 10
77.98779249530983
 20
107.6617582794287
 30
0.0
 10
77.75746839965144
 20
107.8800778326751
 30
0.0
 10
77.49003855717672
 20
108.1740459221152
 30
0.0
 10
77.20524719283176
 20
108.5565317595051
 30
0.0
 10
76.95956233995514
 20
108.9652860231618
 30
0.0
 10
76.75529574023383
 20
109.3961525231348
 30
0.0
 10
76.59426740053982
 20
109.8451263996443
 30
0.0
 10
76.47898323903465
 20
110.3075925619245
 30
0.0
 10
76.40626165336545
 20
110.7788919997801
 30
0.0
 10
76.39725710421223
 20
111.0959730201052
 30
0.0
 10
76.3927572043
 20
111.2544299102
 30
0.0
 11
86.0914007376
 21
111.2544299092
 31
0.0
 11
86.06858848867755
 21
110.7840010590202
 31
0.0
 11
86.00018903056238
 21
110.3175203757484
 31
0.0
 11
85.88643967321674
 21
109.8580942136789
 31
0.0
 11
85.72858914890367
 21
109.4120526939846
 31
0.0
 11
85.52716403834319
 21
108.9821386806556
 31
0.0
 11
85.28450619660359
 21
108.5739608487603
 31
0.0
 11
85.00135113963911
 21
108.1897186662966
 31
0.0
 11
84.68185389262595
 21
107.8354389565888
 31
0.0
 11
84.50890040664757
 21
107.6701869790827
 31
0.0
 11
84.32802029471223
 21
107.5137694297905
 31
0.0
 11
84.13954973785127
 21
107.3664548601071
 31
0.0
 11
83.94393988926895
 21
107.2286258541163
 31
0.0
 11
83.53375147950065
 21
106.9830606743658
 31
0.0
 11
83.10113943879031
 21
106.7790385622223
 31
0.0
 11
82.65130930543387
 21
106.6189743561783
 31
0.0
 11
82.18798958586335
 21
106.5038842727771
 31
0.0
 11
81.71675321365039
 21
106.4349225547054
 31
0.0
 11
81.24102070067404
 21
106.4122857206407
 31
0.0
 11
80.7663870052144
 21
106.436128553346
 31
0.0
 11
80.29634036682921
 21
106.5060200975848
 31
0.0
 11
79.83590305005818
 21
106.6211977468197
 31
0.0
 11
79.38880398851451
 21
106.7806480684243
 31
0.0
 11
78.95931784767637
 21
106.9829931899128
 31
0.0
 11
78.5517815193078
 21
107.2261026093513
 31
0.0
 11
78.35717892089752
 21
107.3625094207835
 31
0.0
 11
78.1695612571308
 21
107.5082509550836
 31
0.0
 11
77.98911995093499
 21
107.6631867194949
 31
0.0
 11
77.81645856036072
 21
107.8268586554668
 31
0.0
 11
77.49611604490734
 21
108.1789318435845
 31
0.0
 11
77.21174400947888
 21
108.5609426950238
 31
0.0
 11
76.96644684991925
 21
108.9690046728901
 31
0.0
 11
76.76251837796946
 21
109.3991294683816
 31
0.0
 11
76.60190279736153
 21
109.8473443642257
 31
0.0
 11
76.48602885145651
 21
110.3093123903638
 31
0.0
 11
76.41610841813711
 21
110.7798255234325
 31
0.0
 11
76.3927572043
 21
111.2544299102
 31
0.0
  0
SPLINE
  5
100
330
1F
100
AcDbEntity
  8
0
  6
Continuous
 62
     7
100
AcDbSpline
210
0.0
220
0.0
230
1.0
 70
     8
 71
     3
 72
    27
 73
    23
 74
    21
 42
0.0000000001
 43
0.0000000001
 44
0.00000001
 40
0.0
 40
0.0
 40
0.0
 40
0.0
 40
0.107107887401748
 40
0.2142469262830576
 40
0.313592436267262
 40
0.4129188580266117
 40
0.5028493808378667
 40
0.592850653634077
 40
0.6735107911575205
 40
0.7538309172942329
 40
0.7916625684530485
 40
0.8294887980516614
 40
0.8669784898720456
 40
0.9044676327658774
 40
0.9428631026272486
 40
0.9812651393719165
 40
1.021657815395091
 40
1.062056720228986
 40
1.151027619732636
 40
1.240302097085376
 40
1.340997083285352
 40
1.441556404297118
 40
1.441556404297118
 40
1.441556404297118
 40
1.441556404297118
 10
54.3465696151
 20
99.4914928803
 30
0.0
 10
54.3166936199727
 20
99.47193107206135
 30
0.0
 10
54.25693294052185
 20
99.43280176618724
 30
0.0
 10
54.16571814332247
 20
99.3815711125124
 30
0.0
 10
54.07392995789554
 20
99.33707080331507
 30
0.0
 10
53.98422948741252
 20
99.30197727231025
 30
0.0
 10
53.89471769926823
 20
99.27590230142033
 30
0.0
 10
53.80879619932037
 20
99.26146249642696
 30
0.0
 10
53.72488607225993
 20
99.2591831681725
 30
0.0
 10
53.65882260877645
 20
99.26862576098333
 30
0.0
 10
53.60907152925772
 20
99.2840184802866
 30
0.0
 10
53.57435835845095
 20
99.29896640172467
 30
0.0
 10
53.54165435307085
 20
99.31768290637191
 30
0.0
 10
53.51109340512622
 20
99.34005072660648
 30
0.0
 10
53.48306671220831
 20
99.36597322370746
 30
0.0
 10
53.45736445778883
 20
99.39548302225236
 30
0.0
 10
53.43447682682067
 20
99.42804527521206
 30
0.0
 10
53.40643190532394
 20
99.47727028221556
 30
0.0
 10
53.379020876849
 20
99.54521373836495
 30
0.0
 10
53.35692984486518
 20
99.6357212896629
 30
0.0
 10
53.34409293170005
 20
99.73195112501855
 30
0.0
 10
53.34275765793141
 20
99.79906057179437
 30
0.0
 10
53.3420904711
 20
99.832592676
 30
0.0
 11
54.3465696151
 21
99.4914928803
 31
0.0
 11
54.25630245640392
 21
99.43383926285406
 31
0.0
 11
54.16293555386387
 21
99.38129028415335
 31
0.0
 11
54.07339451746311
 21
99.33825619122346
 31
0.0
 11
53.98080223244907
 21
99.30230613120412
 31
0.0
 11
53.89432764460672
 21
99.27761514923495
 31
0.0
 11
53.80549740498014
 21
99.26314388001549
 31
0.0
 11
53.72485470744422
 21
99.26146664436364
 31
0.0
 11
53.64543185630751
 21
99.27343883630718
 31
0.0
 11
53.60929995780909
 21
99.28465131775877
 31
0.0
 11
53.57457577928447
 21
99.29965315336104
 31
0.0
 11
53.54203580681894
 21
99.31827107979579
 31
0.0
 11
53.51178825498907
 21
99.34041879848674
 31
0.0
 11
53.48356570630408
 21
99.36645146741635
 31
0.0
 11
53.45831199663076
 21
99.3953818420056
 31
0.0
 11
53.43501964018887
 21
99.42838236333023
 31
0.0
 11
53.41495855723566
 21
99.46344836484911
 31
0.0
 11
53.38110941502779
 21
99.54572871809508
 31
0.0
 11
53.35930317459051
 21
99.63229903740023
 31
0.0
 11
53.34597875477257
 21
99.73210855639681
 31
0.0
 11
53.3420904711
 21
99.832592676
 31
0.0
  0
SPLINE
  5
101
330
1F
100
AcDbEntity
  8
0
  6
Continuous
 62
     7
100
AcDbSpline
210
0.0
220
0.0
230
1.0
 70
     8
 71
     3
 72
     9
 73
     5
 74
     3
 42
0.0000000001
 43
0.0000000001
 44
0.00000001
 40
0.0
 40
0.0
 40
0.0
 40
0.0
 40
0.0350713346823131
 40
0.0701775724737705
 40
0.0701775724737705
 40
0.0701775724737705
 40
0.0701775724737705
 10
110.0795904711
 20
119.8591160947
 30
0.0
 10
110.0678586849737
 20
119.8597242478897
 30
0.0
 10
110.0443834372083
 20
119.8609411595052
 30
0.0
 10
110.0220468112742
 20
119.868265753196
 30
0.0
 10
110.0108729437
 20
119.8719298715
 30
0.0
 11
110.0795904711
 21
119.8591160947
 31
0.0
 11
110.0446794851
 21
119.862465956325
 31
0.0
 11
110.0108729437
 21
119.8719298715
 31
0.0
  0
SPLINE
  5
102
330
1F
100
AcDbEntity
  8
0
  6
Continuous
 62
     7
100
AcDbSpline
210
0.0
220
0.0
230
1.0
 70
     8
 71
     3
 72
     9
 73
     5
 74
     3
 42
0.0000000001
 43
0.0000000001
 44
0.00000001
 40
0.0
 40
0.0
 40
0.0
 40
0.0
 40
0.0351062378275578
 40
0.070177572472554
 40
0.070177572472554
 40
0.070177572472554
 40
0.070177572472554
 10
112.4733079985
 20
119.8719298715
 30
0.0
 10
112.4621341309132
 20
119.868265753196
 30
0.0
 10
112.4397975049774
 20
119.860941159513
 30
0.0
 10
112.4163222572134
 20
119.8597242478919
 30
0.0
 10
112.4045904711
 20
119.8591160947
 30
0.0
 11
112.4733079985
 21
119.8719298715
 31
0.0
 11
112.4395014570625
 21
119.862465956325
 31
0.0
 11
112.4045904711
 21
119.8591160947
 31
0.0
  0
SPLINE
  5
103
330
1F
100
AcDbEntity
  8
0
  6
Continuous
 62
     7
100
AcDbSpline
210
0.0
220
0.0
230
1.0
 70
     8
 71
     3
 72
     9
 73
     5
 74
     3
 42
0.0000000001
 43
0.0000000001
 44
0.00000001
 40
0.0
 40
0.0
 40
0.0
 40
0.0
 40
0.0350713346414014
 40
0.0701775724790789
 40
0.0701775724790789
 40
0.0701775724790789
 40
0.0701775724790789
 10
112.4045904711
 20
102.6497436483
 30
0.0
 10
112.4163222572145
 20
102.6491354951265
 30
0.0
 10
112.4397975049852
 20
102.6479185835418
 30
0.0
 10
112.4621341309144
 20
102.6405939898227
 30
0.0
 10
112.4733079985
 20
102.6369298715
 30
0.0
 11
112.4045904711
 21
102.6497436483
 31
0.0
 11
112.4395014570625
 21
102.6463937867125
 31
0.0
 11
112.4733079985
 21
102.6369298715
 31
0.0
  0
SPLINE
  5
104
330
1F
100
AcDbEntity
  8
0
  6
Continuous
 62
     7
100
AcDbSpline
210
0.0
220
0.0
230
1.0
 70
     8
 71
     3
 72
     9
 73
     5
 74
     3
 42
0.0000000001
 43
0.0000000001
 44
0.00000001
 40
0.0
 40
0.0
 40
0.0
 40
0.0
 40
0.0351062378015673
 40
0.0701775724802983
 40
0.0701775724802983
 40
0.0701775724802983
 40
0.0701775724802983
 10
110.0108729437
 20
102.6369298715
 30
0.0
 10
110.022046811273
 20
102.6405939898228
 30
0.0
 10
110.0443834372005
 20
102.6479185835496
 30
0.0
 10
110.0678586849726
 20
102.6491354951287
 30
0.0
 10
110.0795904711
 20
102.6497436483
 30
0.0
 11
110.0108729437
 21
102.6369298715
 31
0.0
 11
110.0446794851
 21
102.6463937867125
 31
0.0
 11
110.0795904711
 21
102.6497436483
 31
0.0
  0
SPLINE
  5
105
330
1F
100
AcDbEntity
  8
0
  6
Continuous
 62
     7
100
AcDbSpline
210
0.0
220
0.0
230
1.0
 70
     8
 71
     3
 72
     9
 73
     5
 74
     3
 42
0.0000000001
 43
0.0000000001
 44
0.00000001
 40
0.0
 40
0.0
 40
0.0
 40
0.0
 40
0.1120698018001254
 40
0.2241876568903585
 40
0.2241876568903585
 40
0.2241876568903585
 40
0.2241876568903585
 10
54.5237604586
 20
99.3544298715
 30
0.0
 10
54.49289084657423
 20
99.37553112359825
 30
0.0
 10
54.4311383862503
 20
99.41774267558972
 30
0.0
 10
54.37476323337627
 20
99.46690596611032
 30
0.0
 10
54.3465696151
 20
99.4914928803
 30
0.0
 11
54.5237604586
 21
99.3544298715
 31
0.0
 11
54.43249537315
 21
99.419470817475
 31
0.0
 11
54.3465696151
 21
99.4914928803
 31
0.0
  0
SPLINE
  5
106
330
1F
100
AcDbEntity
  8
0
  6
Continuous
 62
     7
100
AcDbSpline
210
0.0
220
0.0
230
1.0
 70
     8
 71
     3
 72
    11
 73
     7
 74
     5
 42
0.0000000001
 43
0.0000000001
 44
0.00000001
 40
0.0
 40
0.0
 40
0.0
 40
0.0
 40
0.0910518967756578
 40
0.182283948202038
 40
0.2734564443920633
 40
0.3645245916691684
 40
0.3645245916691684
 40
0.3645245916691684
 40
0.3645245916691684
 10
54.8620308833
 20
99.2268149314
 30
0.0
 10
54.83200909999111
 20
99.23156530001359
 30
0.0
 10
54.77190613248138
 20
99.24107543628715
 30
0.0
 10
54.68503128961092
 20
99.26971413780959
 30
0.0
 10
54.60157226175251
 20
99.30688074124737
 30
0.0
 10
54.54968782350507
 20
99.33858621281288
 30
0.0
 10
54.5237604586
 20
99.3544298715
 30
0.0
 11
54.8620308833
 21
99.2268149314
 31
0.0
 11
54.77251266778296
 21
99.24345635553043
 31
0.0
 11
54.68558318455123
 21
99.27114303378063
 31
0.0
 11
54.60247453054577
 21
99.30863137451374
 31
0.0
 11
54.5237604586
 21
99.3544298715
 31
0.0
  0
SPLINE
  5
107
330
1F
100
AcDbEntity
  8
0
  6
Continuous
 62
     7
100
AcDbSpline
210
0.0
220
0.0
230
1.0
 70
     8
 71
     3
 72
    15
 73
    11
 74
     9
 42
0.0000000001
 43
0.0000000001
 44
0.00000001
 40
0.0
 40
0.0
 40
0.0
 40
0.0
 40
0.085983699535986
 40
0.1721999323573847
 40
0.2661861163764674
 40
0.3601417519291447
 40
0.4630205933174145
 40
0.5659790425483555
 40
0.676099809155289
 40
0.7860512515685103
 40
0.7860512515685103
 40
0.7860512515685103
 40
0.7860512515685103
 10
113.1082851531
 20
120.2719298715
 30
0.0
 10
113.0953038748833
 20
120.2463167807631
 30
0.0
 10
113.0693062120368
 20
120.195021331554
 30
0.0
 10
113.0149120466482
 20
120.124336528252
 30
0.0
 10
112.9499915700275
 20
120.0596807854094
 30
0.0
 10
112.87223481016
 20
120.00130083371
 30
0.0
 10
112.7849434101942
 20
119.9520243523407
 30
0.0
 10
112.6870648983117
 20
119.9125650869799
 30
0.0
 10
112.5827798330128
 20
119.884081136219
 30
0.0
 10
112.5097798878813
 20
119.875978214936
 30
0.0
 10
112.4733079985
 20
119.8719298715
 30
0.0
 11
113.1082851531
 21
120.2719298715
 31
0.0
 11
113.0670498278582
 21
120.1964789302329
 31
0.0
 11
113.0151611380732
 21
120.1276254432165
 31
0.0
 11
112.948547491669
 21
120.0613229176296
 31
0.0
 11
112.8735531253989
 21
120.0047233904245
 31
0.0
 11
112.7840096245838
 21
119.9540675174463
 31
0.0
 11
112.6886344373285
 21
119.9152858732825
 31
0.0
 11
112.5822360929042
 21
119.8868961649031
 31
0.0
 11
112.4733079985
 21
119.8719298715
 31
0.0
  0
SPLINE
  5
108
330
1F
100
AcDbEntity
  8
0
  6
Continuous
 62
     7
100
AcDbSpline
210
0.0
220
0.0
230
1.0
 70
     8
 71
     3
 72
    15
 73
    11
 74
     9
 42
0.0000000001
 43
0.0000000001
 44
0.00000001
 40
0.0
 40
0.0
 40
0.0
 40
0.0
 40
0.1099548800981989
 40
0.220079083391067
 40
0.323035613971503
 40
0.4259125292423656
 40
0.5198670387592298
 40
0.6138521143600351
 40
0.7000679720252145
 40
0.7860512885093262
 40
0.7860512885093262
 40
0.7860512885093262
 40
0.7860512885093262
 10
110.0108729437
 20
119.8719298715
 30
0.0
 10
109.9743999145507
 20
119.8759783640019
 30
0.0
 10
109.9013976902155
 20
119.8840815834144
 30
0.0
 10
109.7971111337895
 20
119.9125664901751
 30
0.0
 10
109.6992330363214
 20
119.9520264013636
 30
0.0
 10
109.611943380753
 20
120.0013025801564
 30
0.0
 10
109.5341880198585
 20
120.0596820714653
 30
0.0
 10
109.4692683591586
 20
120.1243373785416
 30
0.0
 10
109.4148745790465
 20
120.1950216819293
 30
0.0
 10
109.3888770164741
 20
120.2463168983357
 30
0.0
 10
109.375895789
 20
120.2719298715
 30
0.0
 11
110.0108729437
 21
119.8719298715
 31
0.0
 11
109.9019414634717
 21
119.8868967774157
 31
0.0
 11
109.7955399420888
 21
119.915287909804
 31
0.0
 11
109.7001668059568
 21
119.9540695045816
 31
0.0
 11
109.6106252789446
 21
120.0047249547916
 31
0.0
 11
109.5356320731851
 21
120.0613241504438
 31
0.0
 11
109.4690193878649
 21
120.1276260704018
 31
0.0
 11
109.4171309475282
 21
120.1964792756458
 31
0.0
 11
109.375895789
 21
120.2719298715
 31
0.0
  0
SPLINE
  5
109
330
1F
100
AcDbEntity
  8
0
  6
Continuous
 62
     7
100
AcDbSpline
210
0.0
220
0.0
230
1.0
 70
     8
 71
     3
 72
    15
 73
    11
 74
     9
 42
0.0000000001
 43
0.0000000001
 44
0.00000001
 40
0.0
 40
0.0
 40
0.0
 40
0.0
 40
0.0859833165062267
 40
0.1721991741977784
 40
0.2661842497936614
 40
0.3601387592998989
 40
0.4630156745773653
 40
0.5659722051619741
 40
0.6760964084467371
 40
0.786051288541311
 40
0.786051288541311
 40
0.786051288541311
 40
0.786051288541311
 10
109.375895789
 20
102.2369298715
 30
0.0
 10
109.3888770164748
 20
102.262542844672
 30
0.0
 10
109.4148745790492
 20
102.313838061095
 30
0.0
 10
109.4692683591459
 20
102.3845223645131
 30
0.0
 10
109.5341880198564
 20
102.4491776715867
 30
0.0
 10
109.6119433807619
 20
102.5075571628746
 30
0.0
 10
109.6992330363198
 20
102.5568333416824
 30
0.0
 10
109.7971111337825
 20
102.5962932528922
 30
0.0
 10
109.9013976902189
 20
102.6247781596087
 30
0.0
 10
109.9743999145513
 20
102.6328813790058
 30
0.0
 10
110.0108729437
 20
102.6369298715
 30
0.0
 11
109.375895789
 21
102.2369298715
 31
0.0
 11
109.4171309475282
 21
102.3123804673794
 31
0.0
 11
109.4690193878649
 21
102.3812336726564
 31
0.0
 11
109.5356320731851
 21
102.4475355926075
 31
0.0
 11
109.6106252789446
 21
102.504134788242
 31
0.0
 11
109.7001668059568
 21
102.5547902384654
 31
0.0
 11
109.7955399420888
 21
102.5935718332542
 31
0.0
 11
109.9019414634717
 21
102.621962965611
 31
0.0
 11
110.0108729437
 21
102.6369298715
 31
0.0
  0
SPLINE
  5
10A
330
1F
100
AcDbEntity
  8
0
  6
Continuous
 62
     7
100
AcDbSpline
210
0.0
220
0.0
230
1.0
 70
     8
 71
     3
 72
    15
 73
    11
 74
     9
 42
0.0000000001
 43
0.0000000001
 44
0.00000001
 40
0.0
 40
0.0
 40
0.0
 40
0.0
 40
0.1099514424092791
 40
0.220072209003921
 40
0.3230306582271539
 40
0.4259094996139963
 40
0.5198651351666737
 40
0.6138513191857764
 40
0.7000675520171366
 40
0.7860512516299075
 40
0.7860512516299075
 40
0.7860512516299075
 40
0.7860512516299075
 10
112.4733079985
 20
102.6369298715
 30
0.0
 10
112.5097798878806
 20
102.6328815280717
 30
0.0
 10
112.5827798330077
 20
102.6247786068044
 30
0.0
 10
112.687064898314
 20
102.5962946561024
 30
0.0
 10
112.7849434101973
 20
102.5568353907576
 30
0.0
 10
112.8722348101604
 20
102.5075589093897
 30
0.0
 10
112.9499915700276
 20
102.4491789576906
 30
0.0
 10
113.0149120466503
 20
102.384523214846
 30
0.0
 10
113.0693062120576
 20
102.3138384115192
 30
0.0
 10
113.0953038748868
 20
102.2625429622679
 30
0.0
 10
113.1082851531
 20
102.2369298715
 30
0.0
 11
112.4733079985
 21
102.6369298715
 31
0.0
 11
112.5822360929042
 21
102.6219635781258
 31
0.0
 11
112.6886344373285
 21
102.5935738697941
 31
0.0
 11
112.7840096245838
 21
102.5547922256508
 31
0.0
 11
112.8735531253989
 21
102.5041363526755
 31
0.0
 11
112.948547491669
 21
102.4475368254705
 31
0.0
 11
113.0151611380732
 21
102.3812342998835
 31
0.0
 11
113.0670498278582
 21
102.3123808128546
 31
0.0
 11
113.1082851531
 21
102.2369298715
 31
0.0
  0
SPLINE
  5
10B
330
1F
100
AcDbEntity
  8
0
  6
Continuous
 62
     7
100
AcDbSpline
210
0.0
220
0.0
230
1.0
 70
     8
 71
     3
 72
    11
 73
     7
 74
     5
 42
0.0000000001
 43
0.0000000001
 44
0.00000001
 40
0.0
 40
0.0
 40
0.0
 40
0.0
 40
0.0527674945790368
 40
0.1055623897742166
 40
0.2638740940446822
 40
0.4221222823900564
 40
0.4221222823900564
 40
0.4221222823900564
 40
0.4221222823900564
 10
113.0929236404
 20
86.0044298715
 30
0.0
 10
113.0979150099454
 20
85.98756026186084
 30
0.0
 10
113.1079003409085
 20
85.95381228268778
 30
0.0
 10
113.1285783520339
 20
85.86831053761726
 30
0.0
 10
113.1496785631581
 20
85.7465908666958
 30
0.0
 10
113.1529533874776
 20
85.64101886696002
 30
0.0
 10
113.1545904711
 20
85.5882434583
 30
0.0
 11
113.0929236404
 21
86.0044298715
 31
0.0
 11
113.1074696895406
 21
85.9537068891493
 31
0.0
 11
113.1200293357251
 21
85.9024276901853
 31
0.0
 11
113.1459783654482
 21
85.74625713097055
 31
0.0
 11
113.1545904711
 21
85.5882434583
 31
0.0
  0
SPLINE
  5
10C
330
1F
100
AcDbEntity
  8
0
  6
Continuous
 62
     7
100
AcDbSpline
210
0.0
220
0.0
230
1.0
 70
     8
 71
     3
 72
     9
 73
     5
 74
     3
 42
0.0000000001
 43
0.0000000001
 44
0.00000001
 40
0.0
 40
0.0
 40
0.0
 40
0.0
 40
0.2109866005159518
 40
0.4218962682835461
 40
0.4218962682835461
 40
0.4218962682835461
 40
0.4218962682835461
 10
109.3295904711
 20
85.5882434583
 30
0.0
 10
109.3321175106375
 20
85.65876933448338
 30
0.0
 10
109.3371706682698
 20
85.79979537076458
 30
0.0
 10
109.3732306157994
 20
85.93622666399972
 30
0.0
 10
109.3912573018
 20
86.0044298715
 30
0.0
 11
109.3295904711
 21
85.5882434583
 31
0.0
 11
109.3449261144875
 21
85.798671982125
 31
0.0
 11
109.3912573018
 21
86.0044298715
 31
0.0
  0
SPLINE
  5
10D
330
1F
100
AcDbEntity
  8
0
  6
Continuous
 62
     7
100
AcDbSpline
210
0.0
220
0.0
230
1.0
 70
     8
 71
     3
 72
    11
 73
     7
 74
     5
 42
0.0000000001
 43
0.0000000001
 44
0.00000001
 40
0.0
 40
0.0
 40
0.0
 40
0.0
 40
0.713211007509619
 40
1.42636131776841
 40
1.831519457909859
 40
2.236026825432805
 40
2.236026825432805
 40
2.236026825432805
 40
2.236026825432805
 10
54.346569615235
 20
99.4914928801921
 30
0.0
 10
54.45578207770109
 20
99.70297248337425
 30
0.0
 10
54.67419770819424
 20
100.1259136919365
 30
0.0
 10
54.86859044437409
 20
100.7072630675221
 30
0.0
 10
54.97390864065638
 20
101.2054020329096
 30
0.0
 10
54.98603310931915
 20
101.4754558931409
 30
0.0
 10
54.9920904711
 20
101.6103742947
 30
0.0
 11
54.346569615235
 21
99.4914928801921
 31
0.0
 11
54.65744924376912
 21
100.1333836791567
 31
0.0
 11
54.88446345615542
 21
100.8094368667069
 31
0.0
 11
54.96296797662687
 21
101.2069166256739
 31
0.0
 11
54.9920904711
 21
101.6103742947
 31
0.0
  0
SPLINE
  5
10E
330
1F
100
AcDbEntity
  8
0
  6
Continuous
 62
     7
100
AcDbSpline
210
0.0
220
0.0
230
1.0
 70
     8
 71
     3
 72
    11
 73
     7
 74
     5
 42
0.0000000001
 43
0.0000000001
 44
0.00000001
 40
0.0
 40
0.0
 40
0.0
 40
0.0
 40
0.6210757380669046
 40
1.242411211129393
 40
1.73918073556072
 40
2.235731818863776
 40
2.235731818863776
 40
2.235731818863776
 40
2.235731818863776
 10
54.9920904711
 20
120.8984854483
 30
0.0
 10
54.97789379181247
 20
121.1056520506613
 30
0.0
 10
54.94949449616048
 20
121.5200718928314
 30
0.0
 10
54.77952151682955
 20
122.0782170887291
 30
0.0
 10
54.5784636372869
 20
122.5777719050459
 30
0.0
 10
54.42385628935202
 20
122.870856694312
 30
0.0
 10
54.346569615235
 20
123.017366862808
 30
0.0
 11
54.9920904711
 21
120.8984854483
 31
0.0
 11
54.92625425956349
 21
121.5160618935
 31
0.0
 11
54.75809783976339
 21
122.1142100261275
 31
0.0
 11
54.57070340948052
 21
122.5742788121831
 31
0.0
 11
54.346569615235
 21
123.017366862808
 31
0.0
  0
DIMENSION
  5
119
330
1F
100
AcDbEntity
  8
1
100
AcDbDimension
  2
*D2
 10
220.134704361524
 20
123.7544298715
 30
0.0
 11
216.384704361524
 21
110.946504463152
 31
0.0
 70
    32
  1
<>
 71
     5
 42
-1.0
 53
90.0
  3
ME10_DIM_10
100
AcDbAlignedDimension
 13
208.2420904711
 23
98.7544298715
 33
0.0
 14
208.2420904711
 24
123.7544298715
 34
0.0
 50
90.0
100
AcDbRotatedDimension
  0
DIMENSION
  5
124
330
1F
100
AcDbEntity
  8
1
100
AcDbDimension
  2
*D3
 10
229.166072436094
 20
133.2544298715466
 30
0.0
 11
225.416072436094
 21
111.591602182765
 31
0.0
 70
    32
  1
<>
 71
     5
 42
-1.0
 53
90.0
  3
ME10_DIM_11
100
AcDbAlignedDimension
 13
208.2420904711
 23
89.2544298714559
 33
0.0
 14
208.2420904711
 24
133.2544298715466
 34
0.0
 50
90.0
100
AcDbRotatedDimension
  0
DIMENSION
  5
12F
330
1F
100
AcDbEntity
  8
1
100
AcDbDimension
  2
*D4
 10
237.681362334975
 20
137.7544298715
 30
0.0
 11
233.931362334975
 21
111.84964127061
 31
0.0
 70
    32
  1
<>
 71
     5
 42
-1.0
 53
90.0
  3
ME10_DIM_12
100
AcDbAlignedDimension
 13
151.0641691583
 23
84.7544298715
 33
0.0
 14
151.0641691583
 24
137.7544298715
 34
0.0
 50
90.0
100
AcDbRotatedDimension
  0
DIMENSION
  5
13A
330
1F
100
AcDbEntity
  8
1
100
AcDbDimension
  2
*D5
 10
208.2420904711
 20
160.085118236757
 30
0.0
 11
161.789978606233
 21
163.835118236757
 31
0.0
 70
    32
  1
<>
 71
     5
 42
-1.0
 53
0.00013888888889
  3
ME10_DIM_13
100
AcDbAlignedDimension
 13
119.1920904711
 23
151.2543877061
 33
0.0
 14
208.2420904711
 24
132.3300393799
 34
0.0
100
AcDbRotatedDimension
  0
DIMENSION
  5
145
330
1F
100
AcDbEntity
  8
1
100
AcDbDimension
  2
*D6
 10
208.2420904711
 20
168.145905762138
 30
0.0
 11
147.565059443795
 21
171.895905762138
 31
0.0
 70
    32
  1
<>
 71
     5
 42
-1.0
 53
0.00013888888889
  3
ME10_DIM_14
100
AcDbAlignedDimension
 13
93.2420904711
 23
151.2544298715
 33
0.0
 14
208.2420904711
 24
132.3300393799
 34
0.0
100
AcDbRotatedDimension
  0
DIMENSION
  5
150
330
1F
100
AcDbEntity
  8
1
100
AcDbDimension
  2
*D7
 10
208.2420904711
 20
176.20669328752
 30
0.0
 11
135.869014799124
 21
179.95669328752
 31
0.0
 70
    32
  1
<>
 71
     5
 42
-1.0
 53
0.00013888888889
  3
ME10_DIM_15
100
AcDbAlignedDimension
 13
53.3420904711
 23
138.1403506716
 33
0.0
 14
208.2420904711
 24
132.3300393799
 34
0.0
100
AcDbRotatedDimension
  0
INSERT
  5
157
330
1F
100
AcDbEntity
  8
1
100
AcDbBlockReference
  2
*D8
 10
0.0
 20
0.0
 30
0.0
  0
DIMENSION
  5
162
330
1F
100
AcDbEntity
  8
1
100
AcDbDimension
  2
*D9
 10
188.6460657783507
 20
136.277833131755
 30
0.0
 11
191.8862552428901
 21
144.4088102793295
 31
0.0
 70
    37
  1
<>
 71
     5
 42
-1.0
  3
ME10_DIM_16
100
AcDb3PointAngularDimension
 13
188.5591205820995
 23
134.8035131971568
 33
0.0
 14
154.8252584838704
 24
137.7544298715
 34
0.0
 15
151.0641691582999
 25
137.7544298715
 35
0.0
  0
ENDSEC
  0
SECTION
  2
OBJECTS
  0
DICTIONARY
  5
C
330
0
100
AcDbDictionary
281
     1
  3
ACAD_GROUP
350
D
  3
ACAD_LAYOUT
350
1A
  3
ACAD_MLEADERSTYLE
350
165
  3
ACAD_MLINESTYLE
350
17
  3
ACAD_PLOTSETTINGS
350
19
  3
ACAD_PLOTSTYLENAME
350
E
  3
ACAD_SCALELIST
350
4C
  3
ACAD_VISUALSTYLE
350
2A
  3
AcDbVariableDictionary
350
163
  0
DICTIONARY
  5
D
102
{ACAD_REACTORS
330
C
102
}
330
C
100
AcDbDictionary
281
     1
  0
DICTIONARY
  5
1A
102
{ACAD_REACTORS
330
C
102
}
330
C
100
AcDbDictionary
281
     1
  3
Layout1
350
1E
  3
Layout2
350
26
  3
Model
350
22
  0
DICTIONARY
  5
165
102
{ACAD_REACTORS
330
C
102
}
330
C
100
AcDbDictionary
281
     1
  0
DICTIONARY
  5
17
102
{ACAD_REACTORS
330
C
102
}
330
C
100
AcDbDictionary
281
     1
  3
Standard
350
18
  0
DICTIONARY
  5
19
102
{ACAD_REACTORS
330
C
102
}
330
C
100
AcDbDictionary
281
     1
  0
ACDBDICTIONARYWDFLT
  5
E
102
{ACAD_REACTORS
330
C
102
}
330
C
100
AcDbDictionary
281
     1
  3
Normal
350
F
100
AcDbDictionaryWithDefault
340
F
  0
DICTIONARY
  5
4C
102
{ACAD_REACTORS
330
C
102
}
330
C
100
AcDbDictionary
281
     1
  3
A0
350
4D
  3
A1
350
4E
  3
A2
350
4F
  3
A3
350
50
  3
A4
350
51
  3
A5
350
52
  3
A6
350
53
  3
A7
350
54
  3
A8
350
55
  3
A9
350
56
  3
B0
350
57
  3
B1
350
58
  3
B2
350
59
  3
B3
350
5A
  3
B4
350
5B
  3
B5
350
5C
  3
B6
350
5D
  3
B7
350
5E
  3
B8
350
5F
  3
B9
350
60
  3
C0
350
61
  3
C1
350
62
  3
C2
350
63
  3
C3
350
64
  3
C4
350
65
  3
C5
350
66
  3
C6
350
67
  3
C7
350
68
  3
C8
350
69
  3
C9
350
6A
  3
D0
350
6B
  3
D1
350
6C
  3
D2
350
6D
  0
DICTIONARY
  5
2A
102
{ACAD_REACTORS
330
C
102
}
330
C
100
AcDbDictionary
281
     1
  3
2dWireframe
350
2F
  3
3D Hidden
350
31
  3
3dWireframe
350
30
  3
Basic
350
32
  3
Brighten
350
36
  3
ColorChange
350
3A
  3
Conceptual
350
34
  3
Dim
350
35
  3
Facepattern
350
39
  3
Flat
350
2B
  3
FlatWithEdges
350
2C
  3
Gouraud
350
2D
  3
GouraudWithEdges
350
2E
  3
Linepattern
350
38
  3
Realistic
350
33
  3
Thicken
350
37
  0
DICTIONARY
  5
163
102
{ACAD_REACTORS
330
C
102
}
330
C
100
AcDbDictionary
281
     1
  3
CANNOSCALE
350
166
  0
LAYOUT
  5
1E
102
{ACAD_REACTORS
330
1A
102
}
330
1A
100
AcDbPlotSettings
  1

  2
none_device
  4

  6

 40
0.0
 41
0.0
 42
0.0
 43
0.0
 44
0.0
 45
0.0
 46
0.0
 47
0.0
 48
0.0
 49
0.0
140
0.0
141
0.0
142
1.0
143
1.0
 70
   688
 72
     0
 73
     0
 74
     5
  7

 75
    16
147
1.0
148
0.0
149
0.0
100
AcDbLayout
  1
Layout1
 70
     1
 71
     1
 10
0.0
 20
0.0
 11
12.0
 21
9.0
 12
0.0
 22
0.0
 32
0.0
 14
1.00000000000000E+20
 24
1.00000000000000E+20
 34
1.00000000000000E+20
 15
-1.00000000000000E+20
 25
-1.00000000000000E+20
 35
-1.00000000000000E+20
146
0.0
 13
0.0
 23
0.0
 33
0.0
 16
1.0
 26
0.0
 36
0.0
 17
0.0
 27
1.0
 37
0.0
 76
     0
330
1B
  0
LAYOUT
  5
26
102
{ACAD_REACTORS
330
1A
102
}
330
1A
100
AcDbPlotSettings
  1

  2
none_device
  4

  6

 40
0.0
 41
0.0
 42
0.0
 43
0.0
 44
0.0
 45
0.0
 46
0.0
 47
0.0
 48
0.0
 49
0.0
140
0.0
141
0.0
142
1.0
143
1.0
 70
   688
 72
     0
 73
     0
 74
     5
  7

 75
    16
147
1.0
148
0.0
149
0.0
100
AcDbLayout
  1
Layout2
 70
     1
 71
     2
 10
0.0
 20
0.0
 11
0.0
 21
0.0
 12
0.0
 22
0.0
 32
0.0
 14
0.0
 24
0.0
 34
0.0
 15
0.0
 25
0.0
 35
0.0
146
0.0
 13
0.0
 23
0.0
 33
0.0
 16
1.0
 26
0.0
 36
0.0
 17
0.0
 27
1.0
 37
0.0
 76
     0
330
23
  0
LAYOUT
  5
22
102
{ACAD_REACTORS
330
1A
102
}
330
1A
100
AcDbPlotSettings
  1

  2
none_device
  4

  6

 40
0.0
 41
0.0
 42
0.0
 43
0.0
 44
0.0
 45
0.0
 46
0.0
 47
0.0
 48
0.0
 49
0.0
140
0.0
141
0.0
142
1.0
143
1.0
 70
  1712
 72
     0
 73
     0
 74
     0
  7

 75
     0
147
1.0
148
0.0
149
0.0
100
AcDbLayout
  1
Model
 70
     1
 71
     0
 10
0.0
 20
0.0
 11
12.0
 21
9.0
 12
0.0
 22
0.0
 32
0.0
 14
30.1973135300828
 24
71.2544298715
 34
0.0
 15
239.681362334975
 25
181.70669328752
 35
0.0
146
0.0
 13
0.0
 23
0.0
 33
0.0
 16
1.0
 26
0.0
 36
0.0
 17
0.0
 27
1.0
 37
0.0
 76
     0
330
1F
331
29
  0
MLINESTYLE
  5
18
102
{ACAD_REACTORS
330
17
102
}
330
17
100
AcDbMlineStyle
  2
Standard
 70
     0
  3

 62
   256
 51
90.0
 52
90.0
 71
     2
 49
0.5
 62
   256
  6
BYLAYER
 49
-0.5
 62
   256
  6
BYLAYER
  0
ACDBPLACEHOLDER
  5
F
102
{ACAD_REACTORS
330
E
102
}
330
E
  0
SCALE
  5
4D
102
{ACAD_REACTORS
330
4C
102
}
330
4C
100
AcDbScale
 70
     0
300
1:1
140
1.0
141
1.0
290
     1
  0
SCALE
  5
4E
102
{ACAD_REACTORS
330
4C
102
}
330
4C
100
AcDbScale
 70
     0
300
1:2
140
1.0
141
2.0
290
     0
  0
SCALE
  5
4F
102
{ACAD_REACTORS
330
4C
102
}
330
4C
100
AcDbScale
 70
     0
300
1:4
140
1.0
141
4.0
290
     0
  0
SCALE
  5
50
102
{ACAD_REACTORS
330
4C
102
}
330
4C
100
AcDbScale
 70
     0
300
1:5
140
1.0
141
5.0
290
     0
  0
SCALE
  5
51
102
{ACAD_REACTORS
330
4C
102
}
330
4C
100
AcDbScale
 70
     0
300
1:8
140
1.0
141
8.0
290
     0
  0
SCALE
  5
52
102
{ACAD_REACTORS
330
4C
102
}
330
4C
100
AcDbScale
 70
     0
300
1:10
140
1.0
141
10.0
290
     0
  0
SCALE
  5
53
102
{ACAD_REACTORS
330
4C
102
}
330
4C
100
AcDbScale
 70
     0
300
1:16
140
1.0
141
16.0
290
     0
  0
SCALE
  5
54
102
{ACAD_REACTORS
330
4C
102
}
330
4C
100
AcDbScale
 70
     0
300
1:20
140
1.0
141
20.0
290
     0
  0
SCALE
  5
55
102
{ACAD_REACTORS
330
4C
102
}
330
4C
100
AcDbScale
 70
     0
300
1:30
140
1.0
141
30.0
290
     0
  0
SCALE
  5
56
102
{ACAD_REACTORS
330
4C
102
}
330
4C
100
AcDbScale
 70
     0
300
1:40
140
1.0
141
40.0
290
     0
  0
SCALE
  5
57
102
{ACAD_REACTORS
330
4C
102
}
330
4C
100
AcDbScale
 70
     0
300
1:50
140
1.0
141
50.0
290
     0
  0
SCALE
  5
58
102
{ACAD_REACTORS
330
4C
102
}
330
4C
100
AcDbScale
 70
     0
300
1:100
140
1.0
141
100.0
290
     0
  0
SCALE
  5
59
102
{ACAD_REACTORS
330
4C
102
}
330
4C
100
AcDbScale
 70
     0
300
2:1
140
2.0
141
1.0
290
     0
  0
SCALE
  5
5A
102
{ACAD_REACTORS
330
4C
102
}
330
4C
100
AcDbScale
 70
     0
300
4:1
140
4.0
141
1.0
290
     0
  0
SCALE
  5
5B
102
{ACAD_REACTORS
330
4C
102
}
330
4C
100
AcDbScale
 70
     0
300
8:1
140
8.0
141
1.0
290
     0
  0
SCALE
  5
5C
102
{ACAD_REACTORS
330
4C
102
}
330
4C
100
AcDbScale
 70
     0
300
10:1
140
10.0
141
1.0
290
     0
  0
SCALE
  5
5D
102
{ACAD_REACTORS
330
4C
102
}
330
4C
100
AcDbScale
 70
     0
300
100:1
140
100.0
141
1.0
290
     0
  0
SCALE
  5
5E
102
{ACAD_REACTORS
330
4C
102
}
330
4C
100
AcDbScale
 70
     0
300
1/128" = 1'-0"
140
0.0078125
141
12.0
290
     0
  0
SCALE
  5
5F
102
{ACAD_REACTORS
330
4C
102
}
330
4C
100
AcDbScale
 70
     0
300
1/64" = 1'-0"
140
0.015625
141
12.0
290
     0
  0
SCALE
  5
60
102
{ACAD_REACTORS
330
4C
102
}
330
4C
100
AcDbScale
 70
     0
300
1/32" = 1'-0"
140
0.03125
141
12.0
290
     0
  0
SCALE
  5
61
102
{ACAD_REACTORS
330
4C
102
}
330
4C
100
AcDbScale
 70
     0
300
1/16" = 1'-0"
140
0.0625
141
12.0
290
     0
  0
SCALE
  5
62
102
{ACAD_REACTORS
330
4C
102
}
330
4C
100
AcDbScale
 70
     0
300
3/32" = 1'-0"
140
0.09375
141
12.0
290
     0
  0
SCALE
  5
63
102
{ACAD_REACTORS
330
4C
102
}
330
4C
100
AcDbScale
 70
     0
300
1/8" = 1'-0"
140
0.125
141
12.0
290
     0
  0
SCALE
  5
64
102
{ACAD_REACTORS
330
4C
102
}
330
4C
100
AcDbScale
 70
     0
300
3/16" = 1'-0"
140
0.1875
141
12.0
290
     0
  0
SCALE
  5
65
102
{ACAD_REACTORS
330
4C
102
}
330
4C
100
AcDbScale
 70
     0
300
1/4" = 1'-0"
140
0.25
141
12.0
290
     0
  0
SCALE
  5
66
102
{ACAD_REACTORS
330
4C
102
}
330
4C
100
AcDbScale
 70
     0
300
3/8" = 1'-0"
140
0.375
141
12.0
290
     0
  0
SCALE
  5
67
102
{ACAD_REACTORS
330
4C
102
}
330
4C
100
AcDbScale
 70
     0
300
1/2" = 1'-0"
140
0.5
141
12.0
290
     0
  0
SCALE
  5
68
102
{ACAD_REACTORS
330
4C
102
}
330
4C
100
AcDbScale
 70
     0
300
3/4" = 1'-0"
140
0.75
141
12.0
290
     0
  0
SCALE
  5
69
102
{ACAD_REACTORS
330
4C
102
}
330
4C
100
AcDbScale
 70
     0
300
1" = 1'-0"
140
1.0
141
12.0
290
     0
  0
SCALE
  5
6A
102
{ACAD_REACTORS
330
4C
102
}
330
4C
100
AcDbScale
 70
     0
300
1-1/2" = 1'-0"
140
1.5
141
12.0
290
     0
  0
SCALE
  5
6B
102
{ACAD_REACTORS
330
4C
102
}
330
4C
100
AcDbScale
 70
     0
300
3" = 1'-0"
140
3.0
141
12.0
290
     0
  0
SCALE
  5
6C
102
{ACAD_REACTORS
330
4C
102
}
330
4C
100
AcDbScale
 70
     0
300
6" = 1'-0"
140
6.0
141
12.0
290
     0
  0
SCALE
  5
6D
102
{ACAD_REACTORS
330
4C
102
}
330
4C
100
AcDbScale
 70
     0
300
1'-0" = 1'-0"
140
12.0
141
12.0
290
     0
  0
VISUALSTYLE
  5
2F
102
{ACAD_REACTORS
330
2A
102
}
330
2A
100
AcDbVisualStyle
  2
2dWireframe
 70
     4
 71
     0
 72
     2
 73
     0
 90
        0
 40
-0.6
 41
-30.0
 62
     5
 63
     7
 74
     1
 91
        4
 64
     7
 65
   257
 75
     1
175
     1
 42
1.0
 92
        0
 66
   257
 43
1.0
 76
     1
 77
     6
 78
     2
 67
     7
 79
     5
170
     0
171
     0
290
     0
174
     0
 93
        1
 44
0.0
173
     0
291
     0
 45
0.0
1001
ACAD
1000
AcDbSavedByObjectVersion
1070
     0
  0
VISUALSTYLE
  5
31
102
{ACAD_REACTORS
330
2A
102
}
330
2A
100
AcDbVisualStyle
  2
3D Hidden
 70
     6
 71
     1
 72
     2
 73
     2
 90
        0
 40
-0.6
 41
-30.0
 62
     5
 63
     7
 74
     2
 91
        2
 64
     7
 65
   257
 75
     2
175
     1
 42
40.0
 92
        0
 66
   257
 43
1.0
 76
     1
 77
     6
 78
     2
 67
     7
 79
     3
170
     0
171
     0
290
     0
174
     0
 93
        1
 44
0.0
173
     0
291
     0
 45
0.0
1001
ACAD
1000
AcDbSavedByObjectVersion
1070
     0
  0
VISUALSTYLE
  5
30
102
{ACAD_REACTORS
330
2A
102
}
330
2A
100
AcDbVisualStyle
  2
3dWireframe
 70
     5
 71
     0
 72
     2
 73
     0
 90
        0
 40
-0.6
 41
-30.0
 62
     5
 63
     7
 74
     1
 91
        4
 64
     7
 65
   257
 75
     1
175
     1
 42
1.0
 92
        0
 66
   257
 43
1.0
 76
     1
 77
     6
 78
     2
 67
     7
 79
     5
170
     0
171
     0
290
     0
174
     0
 93
        1
 44
0.0
173
     0
291
     0
 45
0.0
1001
ACAD
1000
AcDbSavedByObjectVersion
1070
     0
  0
VISUALSTYLE
  5
32
102
{ACAD_REACTORS
330
2A
102
}
330
2A
100
AcDbVisualStyle
  2
Basic
 70
     7
 71
     1
 72
     0
 73
     1
 90
        0
 40
-0.6
 41
-30.0
 62
     5
 63
     7
 74
     0
 91
        4
 64
     7
 65
   257
 75
     1
175
     1
 42
1.0
 92
        8
 66
     7
 43
1.0
 76
     1
 77
     6
 78
     2
 67
     7
 79
     5
170
     0
171
     0
290
     0
174
     0
 93
        1
 44
0.0
173
     0
291
     1
 45
0.0
1001
ACAD
1000
AcDbSavedByObjectVersion
1070
     0
  0
VISUALSTYLE
  5
36
102
{ACAD_REACTORS
330
2A
102
}
330
2A
100
AcDbVisualStyle
  2
Brighten
 70
    12
 71
     2
 72
     2
 73
     0
 90
        0
 40
-0.6
 41
-30.0
 62
     5
 63
     7
 74
     1
 91
        4
 64
     7
 65
   257
 75
     1
175
     1
 42
1.0
 92
        8
 66
     7
 43
1.0
 76
     1
 77
     6
 78
     2
 67
     7
 79
     5
170
     0
171
     0
290
     0
174
     0
 93
        1
 44
50.0
173
     0
291
     1
 45
0.0
1001
ACAD
1000
AcDbSavedByObjectVersion
1070
     0
  0
VISUALSTYLE
  5
3A
102
{ACAD_REACTORS
330
2A
102
}
330
2A
100
AcDbVisualStyle
  2
ColorChange
 70
    16
 71
     2
 72
     2
 73
     3
 90
        0
 40
-0.6
 41
-30.0
 62
     5
 63
     8
 74
     1
 91
        4
 64
     7
 65
   257
 75
     1
175
     1
 42
1.0
 92
        8
 66
     8
 43
1.0
 76
     1
 77
     6
 78
     2
 67
     7
 79
     5
170
     0
171
     0
290
     0
174
     0
 93
        1
 44
0.0
173
     0
291
     1
 45
0.0
1001
ACAD
1000
AcDbSavedByObjectVersion
1070
     0
  0
VISUALSTYLE
  5
34
102
{ACAD_REACTORS
330
2A
102
}
330
2A
100
AcDbVisualStyle
  2
Conceptual
 70
     9
 71
     3
 72
     2
 73
     0
 90
        0
 40
-0.6
 41
-30.0
 62
     5
 63
     7
 74
     2
 91
        2
 64
     7
 65
   257
 75
     1
175
     1
 42
40.0
 92
        8
 66
     7
 43
1.0
 76
     1
 77
     6
 78
     2
 67
     7
 79
     3
170
     0
171
     0
290
     0
174
     0
 93
        1
 44
0.0
173
     0
291
     0
 45
0.0
1001
ACAD
1000
AcDbSavedByObjectVersion
1070
     0
  0
VISUALSTYLE
  5
35
102
{ACAD_REACTORS
330
2A
102
}
330
2A
100
AcDbVisualStyle
  2
Dim
 70
    11
 71
     2
 72
     2
 73
     0
 90
        0
 40
-0.6
 41
-30.0
 62
     5
 63
     7
 74
     1
 91
        4
 64
     7
 65
   257
 75
     1
175
     1
 42
1.0
 92
        8
 66
     7
 43
1.0
 76
     1
 77
     6
 78
     2
 67
     7
 79
     5
170
     0
171
     0
290
     0
174
     0
 93
        1
 44
-50.0
173
     0
291
     1
 45
0.0
1001
ACAD
1000
AcDbSavedByObjectVersion
1070
     0
  0
VISUALSTYLE
  5
39
102
{ACAD_REACTORS
330
2A
102
}
330
2A
100
AcDbVisualStyle
  2
Facepattern
 70
    15
 71
     2
 72
     2
 73
     0
 90
        0
 40
-0.6
 41
-30.0
 62
     5
 63
     7
 74
     1
 91
        4
 64
     7
 65
   257
 75
     1
175
     1
 42
1.0
 92
        8
 66
     7
 43
1.0
 76
     1
 77
     6
 78
     2
 67
     7
 79
     5
170
     0
171
     0
290
     0
174
     0
 93
        1
 44
0.0
173
     0
291
     1
 45
0.0
1001
ACAD
1000
AcDbSavedByObjectVersion
1070
     0
  0
VISUALSTYLE
  5
2B
102
{ACAD_REACTORS
330
2A
102
}
330
2A
100
AcDbVisualStyle
  2
Flat
 70
     0
 71
     2
 72
     1
 73
     1
 90
        2
 40
-0.6
 41
30.0
 62
     5
 63
     7
 74
     0
 91
        4
 64
     7
 65
   257
 75
     1
175
     1
 42
1.0
 92
        8
 66
     7
 43
1.0
 76
     1
 77
     6
 78
     2
 67
     7
 79
     5
170
     0
171
     0
290
     0
174
     0
 93
       13
 44
0.0
173
     0
291
     1
 45
0.0
1001
ACAD
1000
AcDbSavedByObjectVersion
1070
     0
  0
VISUALSTYLE
  5
2C
102
{ACAD_REACTORS
330
2A
102
}
330
2A
100
AcDbVisualStyle
  2
FlatWithEdges
 70
     1
 71
     2
 72
     1
 73
     1
 90
        2
 40
-0.6
 41
30.0
 62
     5
 63
     7
 74
     1
 91
        4
 64
     7
 65
   257
 75
     1
175
     1
 42
1.0
 92
        0
 66
   257
 43
1.0
 76
     1
 77
     6
 78
     2
 67
     7
 79
     5
170
     0
171
     0
290
     0
174
     0
 93
       13
 44
0.0
173
     0
291
     1
 45
0.0
1001
ACAD
1000
AcDbSavedByObjectVersion
1070
     0
  0
VISUALSTYLE
  5
2D
102
{ACAD_REACTORS
330
2A
102
}
330
2A
100
AcDbVisualStyle
  2
Gouraud
 70
     2
 71
     2
 72
     2
 73
     1
 90
        2
 40
-0.6
 41
30.0
 62
     5
 63
     7
 74
     0
 91
        4
 64
     7
 65
   257
 75
     1
175
     1
 42
1.0
 92
        0
 66
     7
 43
1.0
 76
     1
 77
     6
 78
     2
 67
     7
 79
     5
170
     0
171
     0
290
     0
174
     0
 93
       13
 44
0.0
173
     0
291
     1
 45
0.0
1001
ACAD
1000
AcDbSavedByObjectVersion
1070
     0
  0
VISUALSTYLE
  5
2E
102
{ACAD_REACTORS
330
2A
102
}
330
2A
100
AcDbVisualStyle
  2
GouraudWithEdges
 70
     3
 71
     2
 72
     2
 73
     1
 90
        2
 40
-0.6
 41
30.0
 62
     5
 63
     7
 74
     1
 91
        4
 64
     7
 65
   257
 75
     1
175
     1
 42
1.0
 92
        0
 66
   257
 43
1.0
 76
     1
 77
     6
 78
     2
 67
     7
 79
     5
170
     0
171
     0
290
     0
174
     0
 93
       13
 44
0.0
173
     0
291
     1
 45
0.0
1001
ACAD
1000
AcDbSavedByObjectVersion
1070
     0
  0
VISUALSTYLE
  5
38
102
{ACAD_REACTORS
330
2A
102
}
330
2A
100
AcDbVisualStyle
  2
Linepattern
 70
    14
 71
     2
 72
     2
 73
     0
 90
        0
 40
-0.6
 41
-30.0
 62
     5
 63
     7
 74
     1
 91
        4
 64
     7
 65
   257
 75
     7
175
     7
 42
1.0
 92
        8
 66
     7
 43
1.0
 76
     1
 77
     6
 78
     2
 67
     7
 79
     5
170
     0
171
     0
290
     0
174
     0
 93
        1
 44
0.0
173
     0
291
     1
 45
0.0
1001
ACAD
1000
AcDbSavedByObjectVersion
1070
     0
  0
VISUALSTYLE
  5
33
102
{ACAD_REACTORS
330
2A
102
}
330
2A
100
AcDbVisualStyle
  2
Realistic
 70
     8
 71
     2
 72
     2
 73
     0
 90
        0
 40
-0.6
 41
-30.0
 62
     5
 63
     7
 74
     1
 91
        0
 64
     7
 65
   257
 75
     1
175
     1
 42
1.0
 92
        8
 66
     8
 43
1.0
 76
     1
 77
     6
 78
     2
 67
     7
 79
     5
170
     0
171
     0
290
     0
174
     0
 93
       13
 44
0.0
173
     0
291
     0
 45
0.0
1001
ACAD
1000
AcDbSavedByObjectVersion
1070
     0
  0
VISUALSTYLE
  5
37
102
{ACAD_REACTORS
330
2A
102
}
330
2A
100
AcDbVisualStyle
  2
Thicken
 70
    13
 71
     2
 72
     2
 73
     0
 90
        0
 40
-0.6
 41
-30.0
 62
     5
 63
     7
 74
     1
 91
        4
 64
     7
 65
   257
 75
     1
175
     1
 42
1.0
 92
       12
 66
     7
 43
1.0
 76
     1
 77
     6
 78
     2
 67
     7
 79
     5
170
     0
171
     0
290
     0
174
     0
 93
        1
 44
0.0
173
     0
291
     1
 45
0.0
1001
ACAD
1000
AcDbSavedByObjectVersion
1070
     0
  0
DICTIONARYVAR
  5
166
102
{ACAD_REACTORS
330
163
102
}
330
163
100
DictionaryVariables
280
     0
  1
1:1
  0
ENDSEC
  0
EOF
