  0
SECTION
  2
HEADER
  9
$ACADVER
  1
AC1015
  9
$ACADMAINTVER
 70
     6
  9
$DWGCODEPAGE
  3
ANSI_1252
  9
$INSBASE
 10
0.0
 20
0.0
 30
0.0
  9
$EXTMIN
 10
39.0129337143318
 20
71.2544298715
 30
0.0
  9
$EXTMAX
 10
240.869701452452
 20
181.033357956698
 30
0.0
  9
$LIMMIN
 10
0.0
 20
0.0
  9
$LIMMAX
 10
12.0
 20
9.0
  9
$ORTHOMODE
 70
     0
  9
$REGENMODE
 70
     1
  9
$FILLMODE
 70
     1
  9
$QTEXTMODE
 70
     0
  9
$MIRRTEXT
 70
     1
  9
$LTSCALE
 40
1.0
  9
$ATTMODE
 70
     1
  9
$TEXTSIZE
 40
0.2
  9
$TRACEWID
 40
0.05
  9
$TEXTSTYLE
  7
Standard
  9
$CLAYER
  8
0
  9
$CELTYPE
  6
ByLayer
  9
$CECOLOR
 62
   256
  9
$CELTSCALE
 40
1.0
  9
$DISPSILH
 70
     0
  9
$DIMSCALE
 40
1.0
  9
$DIMASZ
 40
0.18
  9
$DIMEXO
 40
0.0625
  9
$DIMDLI
 40
0.38
  9
$DIMRND
 40
0.0
  9
$DIMDLE
 40
0.0
  9
$DIMEXE
 40
0.18
  9
$DIMTP
 40
0.0
  9
$DIMTM
 40
0.0
  9
$DIMTXT
 40
0.18
  9
$DIMCEN
 40
0.09
  9
$DIMTSZ
 40
0.0
  9
$DIMTOL
 70
     0
  9
$DIMLIM
 70
     0
  9
$DIMTIH
 70
     1
  9
$DIMTOH
 70
     1
  9
$DIMSE1
 70
     0
  9
$DIMSE2
 70
     0
  9
$DIMTAD
 70
     0
  9
$DIMZIN
 70
     0
  9
$DIMBLK
  1

  9
$DIMASO
 70
     1
  9
$DIMSHO
 70
     1
  9
$DIMPOST
  1

  9
$DIMAPOST
  1

  9
$DIMALT
 70
     0
  9
$DIMALTD
 70
     2
  9
$DIMALTF
 40
25.4
  9
$DIMLFAC
 40
1.0
  9
$DIMTOFL
 70
     0
  9
$DIMTVP
 40
0.0
  9
$DIMTIX
 70
     0
  9
$DIMSOXD
 70
     0
  9
$DIMSAH
 70
     0
  9
$DIMBLK1
  1

  9
$DIMBLK2
  1

  9
$DIMSTYLE
  2
Standard
  9
$DIMCLRD
 70
     0
  9
$DIMCLRE
 70
     0
  9
$DIMCLRT
 70
     0
  9
$DIMTFAC
 40
1.0
  9
$DIMGAP
 40
0.09
  9
$DIMJUST
 70
     0
  9
$DIMSD1
 70
     0
  9
$DIMSD2
 70
     0
  9
$DIMTOLJ
 70
     1
  9
$DIMTZIN
 70
     0
  9
$DIMALTZ
 70
     0
  9
$DIMALTTZ
 70
     0
  9
$DIMUPT
 70
     0
  9
$DIMDEC
 70
     4
  9
$DIMTDEC
 70
     4
  9
$DIMALTU
 70
     2
  9
$DIMALTTD
 70
     2
  9
$DIMTXSTY
  7
Standard
  9
$DIMAUNIT
 70
     0
  9
$DIMADEC
 70
     0
  9
$DIMALTRND
 40
0.0
  9
$DIMAZIN
 70
     0
  9
$DIMDSEP
 70
    46
  9
$DIMATFIT
 70
     3
  9
$DIMFRAC
 70
     0
  9
$DIMLDRBLK
  1

  9
$DIMLUNIT
 70
     2
  9
$DIMLWD
 70
    -2
  9
$DIMLWE
 70
    -2
  9
$DIMTMOVE
 70
     0
  9
$LUNITS
 70
     2
  9
$LUPREC
 70
     4
  9
$SKETCHINC
 40
0.1
  9
$FILLETRAD
 40
0.5
  9
$AUNITS
 70
     0
  9
$AUPREC
 70
     0
  9
$MENU
  1
.
  9
$ELEVATION
 40
0.0
  9
$PELEVATION
 40
0.0
  9
$THICKNESS
 40
0.0
  9
$LIMCHECK
 70
     0
  9
$CHAMFERA
 40
0.5
  9
$CHAMFERB
 40
0.5
  9
$CHAMFERC
 40
1.0
  9
$CHAMFERD
 40
0.0
  9
$SKPOLY
 70
     0
  9
$TDCREATE
 40
2456644.724377292
  9
$TDUCREATE
 40
2456644.682710625
  9
$TDUPDATE
 40
2456644.724377303
  9
$TDUUPDATE
 40
2456644.682710636
  9
$TDINDWG
 40
0.0000000116
  9
$TDUSRTIMER
 40
0.0000000116
  9
$USRTIMER
 70
     1
  9
$ANGBASE
 50
0.0
  9
$ANGDIR
 70
     0
  9
$PDMODE
 70
     0
  9
$PDSIZE
 40
0.0
  9
$PLINEWID
 40
0.0
  9
$SPLFRAME
 70
     0
  9
$SPLINETYPE
 70
     6
  9
$SPLINESEGS
 70
     8
  9
$HANDSEED
  5
166
  9
$SURFTAB1
 70
     6
  9
$SURFTAB2
 70
     6
  9
$SURFTYPE
 70
     6
  9
$SURFU
 70
     6
  9
$SURFV
 70
     6
  9
$UCSBASE
  2

  9
$UCSNAME
  2

  9
$UCSORG
 10
0.0
 20
0.0
 30
0.0
  9
$UCSXDIR
 10
1.0
 20
0.0
 30
0.0
  9
$UCSYDIR
 10
0.0
 20
1.0
 30
0.0
  9
$UCSORTHOREF
  2

  9
$UCSORTHOVIEW
 70
     0
  9
$UCSORGTOP
 10
0.0
 20
0.0
 30
0.0
  9
$UCSORGBOTTOM
 10
0.0
 20
0.0
 30
0.0
  9
$UCSORGLEFT
 10
0.0
 20
0.0
 30
0.0
  9
$UCSORGRIGHT
 10
0.0
 20
0.0
 30
0.0
  9
$UCSORGFRONT
 10
0.0
 20
0.0
 30
0.0
  9
$UCSORGBACK
 10
0.0
 20
0.0
 30
0.0
  9
$PUCSBASE
  2

  9
$PUCSNAME
  2

  9
$PUCSORG
 10
0.0
 20
0.0
 30
0.0
  9
$PUCSXDIR
 10
1.0
 20
0.0
 30
0.0
  9
$PUCSYDIR
 10
0.0
 20
1.0
 30
0.0
  9
$PUCSORTHOREF
  2

  9
$PUCSORTHOVIEW
 70
     0
  9
$PUCSORGTOP
 10
0.0
 20
0.0
 30
0.0
  9
$PUCSORGBOTTOM
 10
0.0
 20
0.0
 30
0.0
  9
$PUCSORGLEFT
 10
0.0
 20
0.0
 30
0.0
  9
$PUCSORGRIGHT
 10
0.0
 20
0.0
 30
0.0
  9
$PUCSORGFRONT
 10
0.0
 20
0.0
 30
0.0
  9
$PUCSORGBACK
 10
0.0
 20
0.0
 30
0.0
  9
$USERI1
 70
     0
  9
$USERI2
 70
     0
  9
$USERI3
 70
     0
  9
$USERI4
 70
     0
  9
$USERI5
 70
     0
  9
$USERR1
 40
16.5
  9
$USERR2
 40
0.0
  9
$USERR3
 40
0.0
  9
$USERR4
 40
0.0
  9
$USERR5
 40
0.0
  9
$WORLDVIEW
 70
     1
  9
$SHADEDGE
 70
     3
  9
$SHADEDIF
 70
    70
  9
$TILEMODE
 70
     1
  9
$MAXACTVP
 70
    64
  9
$PINSBASE
 10
0.0
 20
0.0
 30
0.0
  9
$PLIMCHECK
 70
     0
  9
$PEXTMIN
 10
1.00000000000000E+20
 20
1.00000000000000E+20
 30
1.00000000000000E+20
  9
$PEXTMAX
 10
-1.00000000000000E+20
 20
-1.00000000000000E+20
 30
-1.00000000000000E+20
  9
$PLIMMIN
 10
0.0
 20
0.0
  9
$PLIMMAX
 10
12.0
 20
9.0
  9
$UNITMODE
 70
     0
  9
$VISRETAIN
 70
     1
  9
$PLINEGEN
 70
     0
  9
$PSLTSCALE
 70
     1
  9
$TREEDEPTH
 70
  3020
  9
$CMLSTYLE
  2
Standard
  9
$CMLJUST
 70
     0
  9
$CMLSCALE
 40
1.0
  9
$PROXYGRAPHICS
 70
     1
  9
$MEASUREMENT
 70
     1
  9
$CELWEIGHT
370
    -1
  9
$ENDCAPS
280
     0
  9
$JOINSTYLE
280
     0
  9
$LWDISPLAY
290
     0
  9
$INSUNITS
 70
     1
  9
$HYPERLINKBASE
  1

  9
$STYLESHEET
  1

  9
$XEDIT
290
     1
  9
$CEPSNTYPE
380
     0
  9
$PSTYLEMODE
290
     1
  9
$FINGERPRINTGUID
  2
{9DD661C7-BD29-4836-A7CD-F91234666412}
  9
$VERSIONGUID
  2
{FAEB1C32-E019-11D5-929B-00C0DF256EC4}
  9
$EXTNAMES
290
     1
  9
$PSVPSCALE
 40
0.0
  9
$OLESTARTUP
290
     0
  0
ENDSEC
  0
SECTION
  2
CLASSES
  0
CLASS
  1
ACDBDICTIONARYWDFLT
  2
AcDbDictionaryWithDefault
  3
ObjectDBX Classes
 90
        0
280
     0
281
     0
  0
CLASS
  1
VISUALSTYLE
  2
AcDbVisualStyle
  3
ObjectDBX Classes
 90
     4095
280
     0
281
     0
  0
CLASS
  1
SCALE
  2
AcDbScale
  3
ObjectDBX Classes
 90
     1153
280
     0
281
     0
  0
CLASS
  1

  2
exOdDbPolyline
  3

 90
        0
280
     0
281
     1
  0
CLASS
  1

  2
exOdDbCircle
  3

 90
        0
280
     0
281
     1
  0
CLASS
  1

  2
exOdDbSpline
  3

 90
        0
280
     0
281
     1
  0
CLASS
  1
DICTIONARYVAR
  2
AcDbDictionaryVar
  3
ObjectDBX Classes
 90
        0
280
     0
281
     0
  0
CLASS
  1
ACDBPLACEHOLDER
  2
AcDbPlaceHolder
  3
ObjectDBX Classes
 90
        0
280
     0
281
     0
  0
CLASS
  1
LAYOUT
  2
AcDbLayout
  3
ObjectDBX Classes
 90
        0
280
     0
281
     0
  0
ENDSEC
  0
SECTION
  2
TABLES
  0
TABLE
  2
VPORT
  5
8
330
0
100
AcDbSymbolTable
 70
     1
  0
VPORT
  5
29
330
8
100
AcDbSymbolTableRecord
100
AcDbViewportTableRecord
  2
*Active
 70
     0
 10
0.0
 20
0.0
 11
1.0
 21
1.0
 12
139.9413175833919
 22
126.143893914099
 13
0.0
 23
0.0
 14
0.5
 24
0.5
 15
0.5
 25
0.5
 16
0.0
 26
0.0
 36
1.0
 17
0.0
 27
0.0
 37
0.0
 40
138.5445893333505
 41
1.60267857142857
 42
50.0
 43
0.0
 44
0.0
 50
0.0
 51
0.0
 71
     0
 72
   100
 73
     1
 74
     3
 75
     0
 76
     0
 77
     0
 78
     0
281
     0
 65
     1
110
0.0
120
0.0
130
0.0
111
1.0
121
0.0
131
0.0
112
0.0
122
1.0
132
0.0
 79
     0
146
0.0
  0
ENDTAB
  0
TABLE
  2
LTYPE
  5
5
330
0
100
AcDbSymbolTable
 70
     9
  0
LTYPE
  5
14
330
5
100
AcDbSymbolTableRecord
100
AcDbLinetypeTableRecord
  2
ByBlock
 70
     0
  3

 72
    65
 73
     0
 40
0.0
  0
LTYPE
  5
15
330
5
100
AcDbSymbolTableRecord
100
AcDbLinetypeTableRecord
  2
ByLayer
 70
     0
  3

 72
    65
 73
     0
 40
0.0
  0
LTYPE
  5
16
330
5
100
AcDbSymbolTableRecord
100
AcDbLinetypeTableRecord
  2
Continuous
 70
     0
  3
Solid line
 72
    65
 73
     0
 40
0.0
  0
LTYPE
  5
3B
330
5
100
AcDbSymbolTableRecord
100
AcDbLinetypeTableRecord
  2
DASHED
 70
     0
  3
Dashed
 72
    65
 73
     2
 40
15.0
 49
7.0
 74
     0
 49
-8.0
 74
     0
  0
LTYPE
  5
3C
330
5
100
AcDbSymbolTableRecord
100
AcDbLinetypeTableRecord
  2
DOTTED
 70
     0
  3
Dotted
 72
    65
 73
     2
 40
1.0
 49
0.0
 74
     0
 49
-1.0
 74
     0
  0
LTYPE
  5
3D
330
5
100
AcDbSymbolTableRecord
100
AcDbLinetypeTableRecord
  2
DOT_CENTER
 70
     0
  3
Dot_Center
 72
    65
 73
     4
 40
14.0
 49
12.0
 74
     0
 49
-1.0
 74
     0
 49
0.0
 74
     0
 49
-1.0
 74
     0
  0
LTYPE
  5
3E
330
5
100
AcDbSymbolTableRecord
100
AcDbLinetypeTableRecord
  2
LONG_DASHED
 70
     0
  3
Long_Dashed
 72
    65
 73
     2
 40
15.0
 49
10.0
 74
     0
 49
-5.0
 74
     0
  0
LTYPE
  5
3F
330
5
100
AcDbSymbolTableRecord
100
AcDbLinetypeTableRecord
  2
DASH_CENTER
 70
     0
  3
Dash_Center
 72
    65
 73
     4
 40
14.0
 49
11.0
 74
     0
 49
-1.0
 74
     0
 49
1.0
 74
     0
 49
-1.0
 74
     0
  0
LTYPE
  5
40
330
5
100
AcDbSymbolTableRecord
100
AcDbLinetypeTableRecord
  2
PHANTOM
 70
     0
  3
Phantom
 72
    65
 73
     6
 40
13.0
 49
10.0
 74
     0
 49
-1.0
 74
     0
 49
0.0
 74
     0
 49
-1.0
 74
     0
 49
0.0
 74
     0
 49
-1.0
 74
     0
  0
LTYPE
  5
41
330
5
100
AcDbSymbolTableRecord
100
AcDbLinetypeTableRecord
  2
CENTER_DASH_DASH
 70
     0
  3
Center_Dash_Dash
 72
    65
 73
     6
 40
14.0
 49
9.0
 74
     0
 49
-1.0
 74
     0
 49
1.0
 74
     0
 49
-1.0
 74
     0
 49
1.0
 74
     0
 49
-1.0
 74
     0
  0
LTYPE
  5
42
330
5
100
AcDbSymbolTableRecord
100
AcDbLinetypeTableRecord
  2
HIDDEN
 70
     0
  3
HIDDEN
 72
    65
 73
     2
 40
4.0
 49
2.0
 74
     0
 49
-2.0
 74
     0
  0
ENDTAB
  0
TABLE
  2
LAYER
  5
2
330
0
100
AcDbSymbolTable
 70
     7
  0
LAYER
  5
10
330
2
100
AcDbSymbolTableRecord
100
AcDbLayerTableRecord
  2
0
 70
     0
 62
     7
  6
Continuous
370
    -3
390
F
  0
LAYER
  5
43
330
2
100
AcDbSymbolTableRecord
100
AcDbLayerTableRecord
  2
1
 70
     0
 62
     7
  6
Continuous
370
    -3
390
F
  0
LAYER
  5
44
330
2
100
AcDbSymbolTableRecord
100
AcDbLayerTableRecord
  2
BEZUGSACHSEN
 70
     0
 62
     7
  6
Continuous
370
    -3
390
F
  0
LAYER
  5
45
330
2
100
AcDbSymbolTableRecord
100
AcDbLayerTableRecord
  2
DEFAULT_2
 70
     0
 62
     7
  6
Continuous
370
    -3
390
F
  0
LAYER
  5
46
330
2
100
AcDbSymbolTableRecord
100
AcDbLayerTableRecord
  2
FASEN
 70
     0
 62
     7
  6
Continuous
370
    -3
390
F
  0
LAYER
  5
47
330
2
100
AcDbSymbolTableRecord
100
AcDbLayerTableRecord
  2
RUNDUNGEN
 70
     0
 62
     7
  6
Continuous
370
    -3
390
F
  0
LAYER
  5
48
330
2
100
AcDbSymbolTableRecord
100
AcDbLayerTableRecord
  2
TEIL_STARTBEZUEGE
 70
     0
 62
     7
  6
Continuous
370
    -3
390
F
  0
ENDTAB
  0
TABLE
  2
STYLE
  5
3
330
0
100
AcDbSymbolTable
 70
     2
  0
STYLE
  5
11
330
3
100
AcDbSymbolTableRecord
100
AcDbTextStyleTableRecord
  2
Standard
 70
     0
 40
0.0
 41
1.0
 50
0.0
 71
     0
 42
0.2
  3
txt
  4

  0
STYLE
  5
6F
330
3
100
AcDbSymbolTableRecord
100
AcDbTextStyleTableRecord
  2
CONVERTER_11
 70
     0
 40
0.0
 41
0.72
 50
0.0
 71
     0
 42
0.2
  3
txt.shx
  4

  0
ENDTAB
  0
TABLE
  2
VIEW
  5
6
330
0
100
AcDbSymbolTable
 70
     0
  0
ENDTAB
  0
TABLE
  2
UCS
  5
7
330
0
100
AcDbSymbolTable
 70
     0
  0
ENDTAB
  0
TABLE
  2
APPID
  5
9
330
0
100
AcDbSymbolTable
 70
     1
  0
APPID
  5
12
330
9
100
AcDbSymbolTableRecord
100
AcDbRegAppTableRecord
  2
ACAD
 70
     0
  0
ENDTAB
  0
TABLE
  2
DIMSTYLE
  5
A
330
0
100
AcDbSymbolTable
 70
     8
100
AcDbDimStyleTable
  0
DIMSTYLE
105
27
330
A
100
AcDbSymbolTableRecord
100
AcDbDimStyleTableRecord
  2
Standard
 70
     0
340
11
  0
DIMSTYLE
105
117
102
{ACAD_REACTORS
330
118
102
}
330
A
100
AcDbSymbolTableRecord
100
AcDbDimStyleTableRecord
  2
ME10_DIM_10
 70
     0
  3
\U+2300<>
 41
3.5
 42
2.0
 44
2.0
 71
     1
 73
     0
 74
     0
 77
     1
 78
     8
140
3.5
146
0.7
147
2.0
172
     1
173
     1
176
     2
177
     2
178
     3
271
     2
272
     0
340
6F
  0
DIMSTYLE
105
122
102
{ACAD_REACTORS
330
123
102
}
330
A
100
AcDbSymbolTableRecord
100
AcDbDimStyleTableRecord
  2
ME10_DIM_11
 70
     0
  3
\U+2300<>
 41
3.5
 42
2.0
 44
2.0
 71
     1
 73
     0
 74
     0
 77
     1
 78
     8
140
3.5
146
0.7
147
2.0
172
     1
173
     1
176
     2
177
     2
178
     3
271
     2
272
     0
340
6F
  0
DIMSTYLE
105
12D
102
{ACAD_REACTORS
330
12E
102
}
330
A
100
AcDbSymbolTableRecord
100
AcDbDimStyleTableRecord
  2
ME10_DIM_12
 70
     0
  3
\U+2300<>
 41
3.5
 42
2.0
 44
2.0
 71
     1
 73
     0
 74
     0
 77
     1
 78
     8
140
3.5
146
0.7
147
2.0
172
     1
173
     1
176
     2
177
     2
178
     3
271
     2
272
     0
340
6F
  0
DIMSTYLE
105
138
102
{ACAD_REACTORS
330
139
102
}
330
A
100
AcDbSymbolTableRecord
100
AcDbDimStyleTableRecord
  2
ME10_DIM_13
 70
     0
  3
<>
 41
3.5
 42
2.0
 44
2.0
 71
     1
 73
     0
 74
     0
 77
     1
 78
     8
140
3.5
146
0.7
147
2.0
172
     1
173
     1
176
     2
177
     2
178
     3
271
     0
272
     0
340
6F
  0
DIMSTYLE
105
143
102
{ACAD_REACTORS
330
144
102
}
330
A
100
AcDbSymbolTableRecord
100
AcDbDimStyleTableRecord
  2
ME10_DIM_14
 70
     0
  3
<>
 41
3.5
 42
2.0
 44
2.0
 71
     1
 73
     0
 74
     0
 77
     1
 78
     8
140
3.5
146
0.7
147
2.0
172
     1
173
     1
176
     2
177
     2
178
     3
271
     2
272
     0
340
6F
  0
DIMSTYLE
105
14E
102
{ACAD_REACTORS
330
14F
102
}
330
A
100
AcDbSymbolTableRecord
100
AcDbDimStyleTableRecord
  2
ME10_DIM_15
 70
     0
  3
<>
 41
3.5
 42
2.0
 44
2.0
 71
     1
 73
     0
 74
     0
 77
     1
 78
     8
140
3.5
146
0.7
147
2.0
172
     1
173
     1
176
     2
177
     2
178
     3
271
     0
272
     0
340
6F
  0
DIMSTYLE
105
160
102
{ACAD_REACTORS
330
161
102
}
330
A
100
AcDbSymbolTableRecord
100
AcDbDimStyleTableRecord
  2
ME10_DIM_16
 70
     0
  3
<>
 41
3.5
 42
2.0
 44
2.0
 71
     1
 73
     0
 74
     0
 77
     1
 78
     8
140
3.5
146
0.7
147
2.0
172
     1
173
     1
176
     2
177
     2
178
     3
271
     2
272
     0
340
6F
  0
ENDTAB
  0
TABLE
  2
BLOCK_RECORD
  5
1
330
0
100
AcDbSymbolTable
 70
    10
  0
BLOCK_RECORD
  5
1F
330
1
100
AcDbSymbolTableRecord
100
AcDbBlockTableRecord
  2
*Model_Space
340
22
  0
BLOCK_RECORD
  5
1B
330
1
100
AcDbSymbolTableRecord
100
AcDbBlockTableRecord
  2
*Paper_Space
340
1E
  0
BLOCK_RECORD
  5
23
330
1
100
AcDbSymbolTableRecord
100
AcDbBlockTableRecord
  2
*Paper_Space0
340
26
  0
BLOCK_RECORD
  5
49
330
1
100
AcDbSymbolTableRecord
100
AcDbBlockTableRecord
  2
Urheberrecht_DE-EN
340
0
102
{BLKREFS
331
6E
102
}
  0
BLOCK_RECORD
  5
10E
330
1
100
AcDbSymbolTableRecord
100
AcDbBlockTableRecord
  2
*D2
340
0
  0
BLOCK_RECORD
  5
119
330
1
100
AcDbSymbolTableRecord
100
AcDbBlockTableRecord
  2
*D3
340
0
  0
BLOCK_RECORD
  5
124
330
1
100
AcDbSymbolTableRecord
100
AcDbBlockTableRecord
  2
*D4
340
0
  0
BLOCK_RECORD
  5
12F
330
1
100
AcDbSymbolTableRecord
100
AcDbBlockTableRecord
  2
*D5
340
0
  0
BLOCK_RECORD
  5
13A
330
1
100
AcDbSymbolTableRecord
100
AcDbBlockTableRecord
  2
*D6
340
0
  0
BLOCK_RECORD
  5
145
330
1
100
AcDbSymbolTableRecord
100
AcDbBlockTableRecord
  2
*D7
340
0
  0
BLOCK_RECORD
  5
150
330
1
100
AcDbSymbolTableRecord
100
AcDbBlockTableRecord
  2
*D8
340
0
102
{BLKREFS
331
156
102
}
  0
BLOCK_RECORD
  5
157
330
1
100
AcDbSymbolTableRecord
100
AcDbBlockTableRecord
  2
*D9
340
0
  0
ENDTAB
  0
ENDSEC
  0
SECTION
  2
BLOCKS
  0
BLOCK
  5
20
330
1F
100
AcDbEntity
  8
0
100
AcDbBlockBegin
  2
*Model_Space
 70
     0
 10
0.0
 20
0.0
 30
0.0
  3
*Model_Space
  1

  0
ENDBLK
  5
21
330
1F
100
AcDbEntity
  8
0
100
AcDbBlockEnd
  0
BLOCK
  5
1C
330
1B
100
AcDbEntity
 67
     1
  8
0
100
AcDbBlockBegin
  2
*Paper_Space
 70
     0
 10
0.0
 20
0.0
 30
0.0
  3
*Paper_Space
  1

  0
ENDBLK
  5
1D
330
1B
100
AcDbEntity
 67
     1
  8
0
100
AcDbBlockEnd
  0
BLOCK
  5
24
330
23
100
AcDbEntity
  8
0
100
AcDbBlockBegin
  2
*Paper_Space0
 70
     0
 10
0.0
 20
0.0
 30
0.0
  3
*Paper_Space0
  1

  0
ENDBLK
  5
25
330
23
100
AcDbEntity
  8
0
100
AcDbBlockEnd
  0
BLOCK
  5
4A
330
49
100
AcDbEntity
  8
0
100
AcDbBlockBegin
  2
Urheberrecht_DE-EN
 70
     0
 10
53.0129337143318
 20
128.236971539758
 30
0.0
  3
Urheberrecht_DE-EN
  1

  0
MTEXT
  5
70
330
49
100
AcDbEntity
  8
1
 62
     1
100
AcDbMText
 10
53.0129337143318
 20
128.236971539758
 30
0.0
 40
2.0
 41
0.0
 71
     7
 72
     1
  1
We own the copyright of this document. It \Pdetermined and may neither be copied or \Pmade accessible to outsiders without our\Ppermission.
  7
CONVERTER_11
 11
0.0
 21
1.0
 31
0.0
 73
     1
 44
0.90036014405762
  0
MTEXT
  5
71
330
49
100
AcDbEntity
  8
1
 62
     1
100
AcDbMText
 10
53.0129337143318
 20
71.94758462245181
 30
0.0
 40
2.0
 41
0.0
 71
     7
 72
     1
  1
F\U+00fcr diese Unterlage behalten wir das Ur-\Pheberrecht. Sie darf nur f\U+00fcr den von uns \Pbestimmten Zweck benutzt und ohne unsere \PZustimmung weder vervielf\U+00e4ltigt noch\PDritten zug\U+00e4nglich gemacht werden.
  7
CONVERTER_11
 11
0.0
 21
1.0
 31
0.0
 73
     1
 44
0.90036014405762
  0
ENDBLK
  5
4B
330
49
100
AcDbEntity
  8
0
100
AcDbBlockEnd
  0
BLOCK
  5
115
330
10E
100
AcDbEntity
  8
0
100
AcDbBlockBegin
  2
*D2
 70
     1
 10
0.0
 20
0.0
 30
0.0
  3
*D2
  1

  0
LINE
  5
10F
330
10E
100
AcDbEntity
  8
1
  6
Continuous
 62
     2
100
AcDbLine
 10
220.006626517837
 20
121.2544298715
 30
0.0
 11
220.006626517837
 21
101.2544298715
 31
0.0
  0
LINE
  5
110
330
10E
100
AcDbEntity
  8
1
  6
Continuous
 62
     2
100
AcDbLine
 10
209.5349170236
 20
121.2544298715
 30
0.0
 11
222.006626517837
 21
121.2544298715
 31
0.0
  0
LINE
  5
111
330
10E
100
AcDbEntity
  8
1
  6
Continuous
 62
     2
100
AcDbLine
 10
209.5349170236
 20
101.2544298715
 30
0.0
 11
222.006626517837
 21
101.2544298715
 31
0.0
  0
SOLID
  5
112
330
10E
100
AcDbEntity
  8
1
 62
     2
100
AcDbTrace
 10
220.4674102593929
 20
117.7544298715
 30
0.0
 11
219.5458427762811
 21
117.7544298715
 31
0.0
 12
220.006626517837
 22
121.2544298715
 32
0.0
 13
220.006626517837
 23
121.2544298715
 33
0.0
  0
SOLID
  5
113
330
10E
100
AcDbEntity
  8
1
 62
     2
100
AcDbTrace
 10
219.5458427762811
 20
104.7544298715
 30
0.0
 11
220.4674102593929
 21
104.7544298715
 31
0.0
 12
220.006626517837
 22
101.2544298715
 32
0.0
 13
220.006626517837
 23
101.2544298715
 33
0.0
  0
MTEXT
  5
114
330
10E
100
AcDbEntity
  8
1
 62
     3
100
AcDbMText
 10
218.006626517837
 20
102.599382811167
 30
0.0
 40
3.5
 41
0.0
 71
     7
 72
     1
  1
\C3;%%c\C3;\C3;20\C2;\H2.45;\S^ ;\C3;
  7
CONVERTER_11
 11
0.0
 21
1.0
 31
0.0
 73
     1
 44
0.60024009603842
  0
ENDBLK
  5
116
330
10E
100
AcDbEntity
  8
0
100
AcDbBlockEnd
  0
BLOCK
  5
120
330
119
100
AcDbEntity
  8
0
100
AcDbBlockBegin
  2
*D3
 70
     1
 10
0.0
 20
0.0
 30
0.0
  3
*D3
  1

  0
LINE
  5
11A
330
119
100
AcDbEntity
  8
1
  6
Continuous
 62
     2
100
AcDbLine
 10
229.299464904743
 20
127.7544298715466
 30
0.0
 11
229.299464904743
 21
94.7544298714559
 31
0.0
  0
LINE
  5
11B
330
119
100
AcDbEntity
  8
1
  6
Continuous
 62
     2
100
AcDbLine
 10
209.5349170236
 20
127.7544298715466
 30
0.0
 11
231.299464904743
 21
127.7544298715466
 31
0.0
  0
LINE
  5
11C
330
119
100
AcDbEntity
  8
1
  6
Continuous
 62
     2
100
AcDbLine
 10
209.5349170236
 20
94.7544298714559
 30
0.0
 11
231.299464904743
 21
94.7544298714559
 31
0.0
  0
SOLID
  5
11D
330
119
100
AcDbEntity
  8
1
 62
     2
100
AcDbTrace
 10
229.7602486462989
 20
124.2544298715466
 30
0.0
 11
228.8386811631871
 21
124.2544298715466
 31
0.0
 12
229.299464904743
 22
127.7544298715466
 32
0.0
 13
229.299464904743
 23
127.7544298715466
 33
0.0
  0
SOLID
  5
11E
330
119
100
AcDbEntity
  8
1
 62
     2
100
AcDbTrace
 10
228.8386811631871
 20
98.2544298714559
 30
0.0
 11
229.7602486462989
 21
98.2544298714559
 31
0.0
 12
229.299464904743
 22
94.7544298714559
 32
0.0
 13
229.299464904743
 23
94.7544298714559
 33
0.0
  0
MTEXT
  5
11F
330
119
100
AcDbEntity
  8
1
 62
     3
100
AcDbMText
 10
227.299464904743
 20
102.599382811167
 30
0.0
 40
3.5
 41
0.0
 71
     7
 72
     1
  1
\C3;%%c\C3;\C3;33\C2;\H2.45;\S^ ;\C3;
  7
CONVERTER_11
 11
0.0
 21
1.0
 31
0.0
 73
     1
 44
0.60024009603842
  0
ENDBLK
  5
121
330
119
100
AcDbEntity
  8
0
100
AcDbBlockEnd
  0
BLOCK
  5
12B
330
124
100
AcDbEntity
  8
0
100
AcDbBlockBegin
  2
*D4
 70
     1
 10
0.0
 20
0.0
 30
0.0
  3
*D4
  1

  0
LINE
  5
125
330
124
100
AcDbEntity
  8
1
  6
Continuous
 62
     2
100
AcDbLine
 10
238.869701452452
 20
132.2544298715
 30
0.0
 11
238.869701452452
 21
90.2544298715
 31
0.0
  0
LINE
  5
126
330
124
100
AcDbEntity
  8
1
  6
Continuous
 62
     2
100
AcDbLine
 10
152.3569957108
 20
132.2544298715
 30
0.0
 11
240.869701452452
 21
132.2544298715
 31
0.0
  0
LINE
  5
127
330
124
100
AcDbEntity
  8
1
  6
Continuous
 62
     2
100
AcDbLine
 10
152.3569957108
 20
90.2544298715
 30
0.0
 11
240.869701452452
 21
90.2544298715
 31
0.0
  0
SOLID
  5
128
330
124
100
AcDbEntity
  8
1
 62
     2
100
AcDbTrace
 10
239.3304851940079
 20
128.7544298715
 30
0.0
 11
238.4089177108961
 21
128.7544298715
 31
0.0
 12
238.869701452452
 22
132.2544298715
 32
0.0
 13
238.869701452452
 23
132.2544298715
 33
0.0
  0
SOLID
  5
129
330
124
100
AcDbEntity
  8
1
 62
     2
100
AcDbTrace
 10
238.4089177108961
 20
93.7544298715
 30
0.0
 11
239.3304851940079
 21
93.7544298715
 31
0.0
 12
238.869701452452
 22
90.2544298715
 32
0.0
 13
238.869701452452
 23
90.2544298715
 33
0.0
  0
MTEXT
  5
12A
330
124
100
AcDbEntity
  8
1
 62
     3
100
AcDbMText
 10
236.869701452452
 20
103.015480052371
 30
0.0
 40
3.5
 41
0.0
 71
     7
 72
     1
  1
\C3;%%c\C3;\C3;42\C2;\H2.45;\S^ ;\C3;
  7
CONVERTER_11
 11
0.0
 21
1.0
 31
0.0
 73
     1
 44
0.60024009603842
  0
ENDBLK
  5
12C
330
124
100
AcDbEntity
  8
0
100
AcDbBlockEnd
  0
BLOCK
  5
136
330
12F
100
AcDbEntity
  8
0
100
AcDbBlockBegin
  2
*D5
 70
     1
 10
0.0
 20
0.0
 30
0.0
  3
*D5
  1

  0
LINE
  5
130
330
12F
100
AcDbEntity
  8
1
  6
Continuous
 62
     2
100
AcDbLine
 10
207.5349170236
 20
160.137760032122
 30
0.0
 11
128.4849170236
 21
160.137760032122
 31
0.0
  0
LINE
  5
131
330
12F
100
AcDbEntity
  8
1
  6
Continuous
 62
     2
100
AcDbLine
 10
207.5349170236
 20
128.8300393799
 30
0.0
 11
207.5349170236
 21
162.137760032122
 31
0.0
  0
LINE
  5
132
330
12F
100
AcDbEntity
  8
1
  6
Continuous
 62
     2
100
AcDbLine
 10
128.4849170236
 20
153.2543877061
 30
0.0
 11
128.4849170236
 21
162.137760032122
 31
0.0
  0
SOLID
  5
133
330
12F
100
AcDbEntity
  8
1
 62
     2
100
AcDbTrace
 10
204.0349170236
 20
159.6769762905661
 30
0.0
 11
204.0349170236
 21
160.5985437736779
 31
0.0
 12
207.5349170236
 22
160.137760032122
 32
0.0
 13
207.5349170236
 23
160.137760032122
 33
0.0
  0
SOLID
  5
134
330
12F
100
AcDbEntity
  8
1
 62
     2
100
AcDbTrace
 10
131.9849170236
 20
160.5985437736779
 30
0.0
 11
131.9849170236
 21
159.6769762905661
 31
0.0
 12
128.4849170236
 22
160.137760032122
 32
0.0
 13
128.4849170236
 23
160.137760032122
 33
0.0
  0
MTEXT
  5
135
330
12F
100
AcDbEntity
  8
1
 62
     3
100
AcDbMText
 10
162.98179067881
 20
162.137760032122
 30
0.0
 40
3.5
 41
0.0
 71
     7
 72
     1
  1
\C3;\C3;\C3;79\C2;\H2.45;\S^ ;\C3;
  7
CONVERTER_11
 11
0.9999999999970619
 21
2.424068405545306E-6
 31
0.0
 73
     1
 44
0.60024009603842
  0
ENDBLK
  5
137
330
12F
100
AcDbEntity
  8
0
100
AcDbBlockEnd
  0
BLOCK
  5
141
330
13A
100
AcDbEntity
  8
0
100
AcDbBlockBegin
  2
*D6
 70
     1
 10
0.0
 20
0.0
 30
0.0
  3
*D6
  1

  0
LINE
  5
13B
330
13A
100
AcDbEntity
  8
1
  6
Continuous
 62
     2
100
AcDbLine
 10
207.5349170236
 20
167.904908534611
 30
0.0
 11
102.5349170236
 21
167.904908534611
 31
0.0
  0
LINE
  5
13C
330
13A
100
AcDbEntity
  8
1
  6
Continuous
 62
     2
100
AcDbLine
 10
207.5349170236
 20
128.8300393799
 30
0.0
 11
207.5349170236
 21
169.904908534611
 31
0.0
  0
LINE
  5
13D
330
13A
100
AcDbEntity
  8
1
  6
Continuous
 62
     2
100
AcDbLine
 10
102.5349170236
 20
153.2544298715
 30
0.0
 11
102.5349170236
 21
169.904908534611
 31
0.0
  0
SOLID
  5
13E
330
13A
100
AcDbEntity
  8
1
 62
     2
100
AcDbTrace
 10
204.0349170236
 20
167.4441247930551
 30
0.0
 11
204.0349170236
 21
168.3656922761669
 31
0.0
 12
207.5349170236
 22
167.904908534611
 32
0.0
 13
207.5349170236
 23
167.904908534611
 33
0.0
  0
SOLID
  5
13F
330
13A
100
AcDbEntity
  8
1
 62
     2
100
AcDbTrace
 10
106.0349170236
 20
168.3656922761669
 30
0.0
 11
106.0349170236
 21
167.4441247930551
 31
0.0
 12
102.5349170236
 22
167.904908534611
 32
0.0
 13
102.5349170236
 23
167.904908534611
 33
0.0
  0
MTEXT
  5
140
330
13A
100
AcDbEntity
  8
1
 62
     3
100
AcDbMText
 10
149.104077121062
 20
169.904908534611
 30
0.0
 40
3.5
 41
0.0
 71
     7
 72
     1
  1
\C3;\C3;\C3;105\C2;\H2.45;\S^ ;\C3;
  7
CONVERTER_11
 11
0.9999999999970619
 21
2.424068405545306E-6
 31
0.0
 73
     1
 44
0.60024009603842
  0
ENDBLK
  5
142
330
13A
100
AcDbEntity
  8
0
100
AcDbBlockEnd
  0
BLOCK
  5
14C
330
145
100
AcDbEntity
  8
0
100
AcDbBlockBegin
  2
*D7
 70
     1
 10
0.0
 20
0.0
 30
0.0
  3
*D7
  1

  0
LINE
  5
146
330
145
100
AcDbEntity
  8
1
  6
Continuous
 62
     2
100
AcDbLine
 10
207.5349170236
 20
175.533357956698
 30
0.0
 11
62.6349170236
 21
175.533357956698
 31
0.0
  0
LINE
  5
147
330
145
100
AcDbEntity
  8
1
  6
Continuous
 62
     2
100
AcDbLine
 10
207.5349170236
 20
128.8300393799
 30
0.0
 11
207.5349170236
 21
177.533357956698
 31
0.0
  0
LINE
  5
148
330
145
100
AcDbEntity
  8
1
  6
Continuous
 62
     2
100
AcDbLine
 10
62.6349170236
 20
140.1403506716
 30
0.0
 11
62.6349170236
 21
177.533357956698
 31
0.0
  0
SOLID
  5
149
330
145
100
AcDbEntity
  8
1
 62
     2
100
AcDbTrace
 10
204.0349170236
 20
175.0725742151421
 30
0.0
 11
204.0349170236
 21
175.9941416982539
 31
0.0
 12
207.5349170236
 22
175.533357956698
 32
0.0
 13
207.5349170236
 23
175.533357956698
 33
0.0
  0
SOLID
  5
14A
330
145
100
AcDbEntity
  8
1
 62
     2
100
AcDbTrace
 10
66.1349170236
 20
175.9941416982539
 30
0.0
 11
66.1349170236
 21
175.0725742151421
 31
0.0
 12
62.6349170236
 22
175.533357956698
 32
0.0
 13
62.6349170236
 23
175.533357956698
 33
0.0
  0
MTEXT
  5
14B
330
145
100
AcDbEntity
  8
1
 62
     3
100
AcDbMText
 10
137.730752528132
 20
177.533357956698
 30
0.0
 40
3.5
 41
0.0
 71
     7
 72
     1
  1
\C3;\C3;\C3;145\C2;\H2.45;\S^ ;\C3;
  7
CONVERTER_11
 11
0.9999999999970619
 21
2.424068405545306E-6
 31
0.0
 73
     1
 44
0.60024009603842
  0
ENDBLK
  5
14D
330
145
100
AcDbEntity
  8
0
100
AcDbBlockEnd
  0
BLOCK
  5
154
330
150
100
AcDbEntity
  8
0
100
AcDbBlockBegin
  2
*D8
 70
     1
 10
0.0
 20
0.0
 30
0.0
  3
*D8
  1

  0
LINE
  5
151
330
150
100
AcDbEntity
  8
1
  6
Continuous
 62
     2
100
AcDbLine
 10
139.9300023706104
 20
142.5165723934678
 30
0.0
 11
129.7602118912466
 21
134.5561652227339
 31
0.0
  0
SOLID
  5
152
330
150
100
AcDbEntity
  8
1
 62
     2
100
AcDbTrace
 10
132.2322731814323
 20
137.0763308192865
 30
0.0
 11
132.8003065888064
 21
136.3506417164085
 31
0.0
 12
129.7602118912466
 22
134.5561652227339
 32
0.0
 13
129.7602118912466
 23
134.5561652227339
 33
0.0
  0
MTEXT
  5
153
330
150
100
AcDbEntity
  8
1
 62
     3
100
AcDbMText
 10
132.854362140678
 20
139.5179534886115
 30
0.0
 40
3.5
 41
0.0
 71
     7
 72
     1
  1
\C3; R\C3;\C3;6\C2;\H2.45;\S^ ;\C3;
  7
CONVERTER_11
 11
0.7874508553922367
 21
0.6163774414610212
 31
0.0
 73
     1
 44
0.60024009603842
  0
ENDBLK
  5
155
330
150
100
AcDbEntity
  8
0
100
AcDbBlockEnd
  0
BLOCK
  5
15E
330
157
100
AcDbEntity
  8
0
100
AcDbBlockBegin
  2
*D9
 70
     1
 10
0.0
 20
0.0
 30
0.0
  3
*D9
  1

  0
LINE
  5
158
330
157
100
AcDbEntity
  8
1
  6
Continuous
 62
     2
100
AcDbLine
 10
184.9062354278506
 20
132.2544298715
 30
0.0
 11
186.9062354278506
 21
132.2544298715
 31
0.0
  0
LINE
  5
159
330
157
100
AcDbEntity
  8
1
  6
Continuous
 62
     2
100
AcDbLine
 10
152.3569957108
 20
132.2544298715
 30
0.0
 11
184.9062354278506
 21
132.2544298715
 31
0.0
  0
ARC
  5
15A
330
157
100
AcDbEntity
  8
1
  6
Continuous
 62
     2
100
AcDbCircle
 10
150.3569957108
 20
132.2544298715
 30
0.0
 40
34.54923971705057
100
AcDbArc
 50
346.7935032751417
 51
18.05283691228625
  0
SOLID
  5
15B
330
157
100
AcDbEntity
  8
1
 62
     2
100
AcDbTrace
 10
184.8057595838551
 20
126.0135315496467
 30
0.0
 11
183.8918721735172
 21
126.1322599251712
 31
0.0
 12
184.7997316520299
 22
129.5437277652302
 32
0.0
 13
184.7997316520299
 23
129.5437277652302
 33
0.0
  0
SOLID
  5
15C
330
157
100
AcDbEntity
  8
1
 62
     2
100
AcDbTrace
 10
184.2688352589615
 20
135.7266111284597
 30
0.0
 11
185.1892207803888
 21
135.7732707242143
 31
0.0
 12
184.9062354278506
 22
132.2544298715
 32
0.0
 13
184.9062354278506
 23
132.2544298715
 33
0.0
  0
MTEXT
  5
15D
330
157
100
AcDbEntity
  8
1
 62
     3
100
AcDbMText
 10
185.2691146456924
 20
143.6336697569384
 30
0.0
 40
3.5
 41
0.0
 71
     7
 72
     1
  1
\C3;\C3;\C3;4.5%%d\C2;\H2.45;\S^ ;\C3;
  7
CONVERTER_11
 11
0.216924175552561
 21
-0.9761884562218721
 31
0.0
 73
     1
 44
0.60024009603842
  0
ENDBLK
  5
15F
330
157
100
AcDbEntity
  8
0
100
AcDbBlockEnd
  0
ENDSEC
  0
SECTION
  2
ENTITIES
  0
INSERT
  5
6E
330
1F
100
AcDbEntity
  8
0
100
AcDbBlockReference
  2
Urheberrecht_DE-EN
 10
53.0129337143318
 20
128.236971539758
 30
0.0
  0
LINE
  5
72
330
1F
100
AcDbEntity
  8
0
  6
Continuous
 62
     7
100
AcDbLine
 10
62.6349170236
 20
84.3688189431
 30
0.0
 11
62.6349170236
 21
101.5844298715
 31
0.0
  0
LINE
  5
73
330
1F
100
AcDbEntity
  8
0
  6
Continuous
 62
     7
100
AcDbLine
 10
62.6349170236
 20
120.9244298715
 30
0.0
 11
62.6349170236
 21
138.1403506716
 31
0.0
  0
LINE
  5
74
330
1F
100
AcDbEntity
  8
0
  6
Continuous
 62
     9
100
AcDbLine
 10
64.1548574358
 20
139.7383888862
 30
0.0
 11
64.1548574358
 21
123.2820448117
 31
0.0
  0
LINE
  5
75
330
1F
100
AcDbEntity
  8
0
  6
Continuous
 62
     9
100
AcDbLine
 10
64.1548574358
 20
99.2268149314
 30
0.0
 11
64.1548574358
 21
82.7704708569
 31
0.0
  0
LINE
  5
76
330
1F
100
AcDbEntity
  8
0
  6
Continuous
 62
     7
100
AcDbLine
 10
64.2849170236
 20
101.6103742947
 30
0.0
 11
64.2849170236
 21
103.2344298715
 31
0.0
  0
LINE
  5
77
330
1F
100
AcDbEntity
  8
0
  6
Continuous
 62
     7
100
AcDbLine
 10
64.2849170236
 20
119.2744298715
 30
0.0
 11
64.2849170236
 21
120.8984854483
 31
0.0
  0
LINE
  5
78
330
1F
100
AcDbEntity
  8
RUNDUNGEN
  6
Continuous
 62
     9
100
AcDbLine
 10
68.8349170236
 20
98.6816091194
 30
0.0
 11
68.8349170236
 21
103.2344298715
 31
0.0
  0
LINE
  5
79
330
1F
100
AcDbEntity
  8
RUNDUNGEN
  6
Continuous
 62
     9
100
AcDbLine
 10
68.8349170236
 20
119.2744298715
 30
0.0
 11
68.8349170236
 21
123.8272506236
 31
0.0
  0
LINE
  5
7A
330
1F
100
AcDbEntity
  8
RUNDUNGEN
  6
Continuous
 62
     7
100
AcDbLine
 10
70.7349170236
 20
120.7597720979
 30
0.0
 11
70.7349170236
 21
101.7490876451
 31
0.0
  0
LWPOLYLINE
  5
7B
330
1F
100
AcDbEntity
  8
BEZUGSACHSEN
  6
DOT_CENTER
 62
     7
100
AcDbPolyline
 90
        2
 70
     0
 43
0.25
 10
90.5349170236
 20
104.0044298715
 10
90.5349170236
 20
118.5044298715
  0
LINE
  5
7C
330
1F
100
AcDbEntity
  8
0
  6
Continuous
 62
     7
100
AcDbLine
 10
62.6349170236
 20
101.5844298715
 30
0.0
 11
64.2849170236
 21
103.2344298715
 31
0.0
  0
LINE
  5
7D
330
1F
100
AcDbEntity
  8
0
  6
Continuous
 62
     7
100
AcDbLine
 10
116.9986466248
 20
71.2544298715
 30
0.0
 11
102.5349170236
 21
71.2544298715
 31
0.0
  0
LINE
  5
7E
330
1F
100
AcDbEntity
  8
0
  6
Continuous
 62
     7
100
AcDbLine
 10
124.0711874223
 20
71.2544298715
 30
0.0
 11
128.4849170236
 21
71.2544298715
 31
0.0
  0
LINE
  5
7F
330
1F
100
AcDbEntity
  8
0
  6
Continuous
 62
     7
100
AcDbLine
 10
64.2849170236
 20
119.2744298715
 30
0.0
 11
62.6349170236
 21
120.9244298715
 31
0.0
  0
LINE
  5
80
330
1F
100
AcDbEntity
  8
0
  6
Continuous
 62
     7
100
AcDbLine
 10
100.0349170236
 20
141.5359798715
 30
0.0
 11
100.0349170236
 21
80.9728798715
 31
0.0
  0
LINE
  5
81
330
1F
100
AcDbEntity
  8
0
  6
Continuous
 62
     9
100
AcDbLine
 10
100.6541606376
 20
81.1388056978
 30
0.0
 11
100.6541606376
 21
141.3700540452
 31
0.0
  0
LINE
  5
82
330
1F
100
AcDbEntity
  8
0
  6
Continuous
 62
     9
100
AcDbLine
 10
100.9129796827
 20
81.1728798715
 30
0.0
 11
100.9129796827
 21
141.3359798715
 31
0.0
  0
LINE
  5
83
330
1F
100
AcDbEntity
  8
0
  6
Continuous
 62
     9
100
AcDbLine
 10
101.8343457349
 20
81.1728798715
 30
0.0
 11
101.8343457349
 21
141.3359798715
 31
0.0
  0
LINE
  5
84
330
1F
100
AcDbEntity
  8
0
  6
Continuous
 62
     7
100
AcDbLine
 10
119.3724170236
 20
76.2794298715
 30
0.0
 11
121.6974170236
 21
76.2794298715
 31
0.0
  0
LINE
  5
85
330
1F
100
AcDbEntity
  8
0
  6
Continuous
 62
     7
100
AcDbLine
 10
102.5349170236
 20
151.2544298715
 30
0.0
 11
102.5349170236
 21
71.2544298715
 31
0.0
  0
LINE
  5
86
330
1F
100
AcDbEntity
  8
0
  6
Continuous
 62
     7
100
AcDbLine
 10
122.4474170236
 20
148.441977041
 30
0.0
 11
124.0711874223
 21
151.2544298715
 31
0.0
  0
LINE
  5
87
330
1F
100
AcDbEntity
  8
0
  6
Continuous
 62
     9
100
AcDbLine
 10
62.6349170236
 20
100.6510164859
 30
0.0
 11
64.2849170236
 21
101.6103742947
 31
0.0
  0
LINE
  5
88
330
1F
100
AcDbEntity
  8
0
  6
Continuous
 62
     7
100
AcDbLine
 10
106.8666594367
 20
79.9099327468
 30
0.0
 11
116.9986466248
 21
79.9099327468
 31
0.0
  0
LINE
  5
89
330
1F
100
AcDbEntity
  8
0
  6
Continuous
 62
     7
100
AcDbLine
 10
124.0711874223
 20
79.9099327468
 30
0.0
 11
128.4849170236
 21
79.9099327468
 31
0.0
  0
LINE
  5
8A
330
1F
100
AcDbEntity
  8
0
  6
Continuous
 62
     7
100
AcDbLine
 10
101.8343457349
 20
81.1728798715
 30
0.0
 11
100.9129796827
 21
81.1728798715
 31
0.0
  0
LINE
  5
8B
330
1F
100
AcDbEntity
  8
0
  6
Continuous
 62
     7
100
AcDbLine
 10
100.0349170236
 20
80.9728798715
 30
0.0
 11
64.1548574358
 21
82.7704708569
 31
0.0
  0
LINE
  5
8C
330
1F
100
AcDbEntity
  8
0
  6
Continuous
 62
     7
100
AcDbLine
 10
122.4474170236
 20
74.066882702
 30
0.0
 11
124.0711874223
 21
71.2544298715
 31
0.0
  0
LWPOLYLINE
  5
8D
330
1F
100
AcDbEntity
  8
BEZUGSACHSEN
  6
DOT_CENTER
 62
     7
100
AcDbPolyline
 90
        2
 70
     0
 43
0.25
 10
109.5349170236
 20
157.3406995375
 10
109.5349170236
 20
143.3406995375
  0
LINE
  5
8E
330
1F
100
AcDbEntity
  8
0
  6
Continuous
 62
     7
100
AcDbLine
 10
115.0935941843
 20
86.0044298715
 30
0.0
 11
118.6840838543
 21
86.0044298715
 31
0.0
  0
LINE
  5
8F
330
1F
100
AcDbEntity
  8
0
  6
Continuous
 62
     7
100
AcDbLine
 10
122.3857501928
 20
86.0044298715
 30
0.0
 11
128.4849170236
 21
86.0044298715
 31
0.0
  0
LINE
  5
90
330
1F
100
AcDbEntity
  8
0
  6
Continuous
 62
     7
100
AcDbLine
 10
115.0935941843
 20
86.4044298715
 30
0.0
 11
118.6840838543
 21
86.4044298715
 31
0.0
  0
LINE
  5
91
330
1F
100
AcDbEntity
  8
0
  6
Continuous
 62
     7
100
AcDbLine
 10
122.3857501928
 20
86.4044298715
 30
0.0
 11
128.4849170236
 21
86.4044298715
 31
0.0
  0
LINE
  5
92
330
1F
100
AcDbEntity
  8
0
  6
Continuous
 62
     9
100
AcDbLine
 10
64.2849170236
 20
120.8984854483
 30
0.0
 11
62.6349170236
 21
121.8578432572
 31
0.0
  0
LINE
  5
93
330
1F
100
AcDbEntity
  8
FASEN
  6
Continuous
 62
     9
100
AcDbLine
 10
115.0935941843
 20
86.0044298715
 30
0.0
 11
115.0935941843
 21
86.4044298715
 31
0.0
  0
LINE
  5
94
330
1F
100
AcDbEntity
  8
FASEN
  6
Continuous
 62
     9
100
AcDbLine
 10
115.5024170236
 20
102.6369298715
 30
0.0
 11
115.5024170236
 21
102.2369298715
 31
0.0
  0
LINE
  5
95
330
1F
100
AcDbEntity
  8
FASEN
  6
Continuous
 62
     9
100
AcDbLine
 10
115.5024170236
 20
119.8719298715
 30
0.0
 11
115.5024170236
 21
120.2719298715
 31
0.0
  0
LINE
  5
96
330
1F
100
AcDbEntity
  8
0
  6
Continuous
 62
     7
100
AcDbLine
 10
116.9986466248
 20
151.2544298715
 30
0.0
 11
116.9986466248
 21
120.2719298715
 31
0.0
  0
LINE
  5
97
330
1F
100
AcDbEntity
  8
0
  6
Continuous
 62
     7
100
AcDbLine
 10
116.9986466248
 20
102.2369298715
 30
0.0
 11
116.9986466248
 21
86.4044298715
 31
0.0
  0
LINE
  5
98
330
1F
100
AcDbEntity
  8
0
  6
Continuous
 62
     7
100
AcDbLine
 10
116.9986466248
 20
79.9099327468
 30
0.0
 11
116.9986466248
 21
71.2544298715
 31
0.0
  0
LINE
  5
99
330
1F
100
AcDbEntity
  8
0
  6
Continuous
 62
     7
100
AcDbLine
 10
118.6224170236
 20
148.4419626591
 30
0.0
 11
118.6224170236
 21
120.2719298715
 31
0.0
  0
LINE
  5
9A
330
1F
100
AcDbEntity
  8
0
  6
Continuous
 62
     7
100
AcDbLine
 10
118.6224170236
 20
102.2369298715
 30
0.0
 11
118.6224170236
 21
86.4044298715
 31
0.0
  0
LINE
  5
9B
330
1F
100
AcDbEntity
  8
0
  6
Continuous
 62
     7
100
AcDbLine
 10
118.6224170236
 20
74.0669195476
 30
0.0
 11
118.6224170236
 21
85.5882434583
 31
0.0
  0
LINE
  5
9C
330
1F
100
AcDbEntity
  8
0
  6
Continuous
 62
     7
100
AcDbLine
 10
100.6541606376
 20
81.1388056978
 30
0.0
 11
100.0349170236
 21
80.9728798715
 31
0.0
  0
LINE
  5
9D
330
1F
100
AcDbEntity
  8
RUNDUNGEN
  6
Continuous
 62
     7
100
AcDbLine
 10
206.6133761193
 20
94.6819030294
 30
0.0
 11
150.3569957108
 21
90.2544298715
 31
0.0
  0
LINE
  5
9E
330
1F
100
AcDbEntity
  8
0
  6
Continuous
 62
     7
100
AcDbLine
 10
150.3569957108
 20
90.2544298715
 30
0.0
 11
206.6133761193
 21
94.6819030294
 31
0.0
  0
LINE
  5
9F
330
1F
100
AcDbEntity
  8
RUNDUNGEN
  6
Continuous
 62
     7
100
AcDbLine
 10
150.3569957108
 20
90.2544298715
 30
0.0
 11
134.4849170236
 21
90.2544298715
 31
0.0
  0
LINE
  5
A0
330
1F
100
AcDbEntity
  8
0
  6
Continuous
 62
     7
100
AcDbLine
 10
134.4849170236
 20
90.2544298715
 30
0.0
 11
150.3569957108
 21
90.2544298715
 31
0.0
  0
LINE
  5
A1
330
1F
100
AcDbEntity
  8
0
  6
Continuous
 62
     9
100
AcDbLine
 10
119.3724170236
 20
76.2794298715
 30
0.0
 11
119.3724170236
 21
102.6497436483
 31
0.0
  0
LINE
  5
A2
330
1F
100
AcDbEntity
  8
0
  6
Continuous
 62
     9
100
AcDbLine
 10
119.3724170236
 20
119.8591160947
 30
0.0
 11
119.3724170236
 21
146.2294298715
 31
0.0
  0
LINE
  5
A3
330
1F
100
AcDbEntity
  8
0
  6
Continuous
 62
     9
100
AcDbLine
 10
121.6974170236
 20
76.2794298715
 30
0.0
 11
121.6974170236
 21
102.6497436483
 31
0.0
  0
LINE
  5
A4
330
1F
100
AcDbEntity
  8
0
  6
Continuous
 62
     9
100
AcDbLine
 10
121.6974170236
 20
119.8591160947
 30
0.0
 11
121.6974170236
 21
146.2294298715
 31
0.0
  0
LINE
  5
A5
330
1F
100
AcDbEntity
  8
0
  6
Continuous
 62
     7
100
AcDbLine
 10
122.4474170236
 20
102.2369298715
 30
0.0
 11
122.4474170236
 21
86.4044298715
 31
0.0
  0
LINE
  5
A6
330
1F
100
AcDbEntity
  8
0
  6
Continuous
 62
     7
100
AcDbLine
 10
122.4474170236
 20
74.0669195476
 30
0.0
 11
122.4474170236
 21
85.5882434583
 31
0.0
  0
LINE
  5
A7
330
1F
100
AcDbEntity
  8
0
  6
Continuous
 62
     7
100
AcDbLine
 10
122.4474170236
 20
120.2719298715
 30
0.0
 11
122.4474170236
 21
148.4419626591
 31
0.0
  0
LINE
  5
A8
330
1F
100
AcDbEntity
  8
0
  6
Continuous
 62
     7
100
AcDbLine
 10
124.0711874223
 20
102.2369298715
 30
0.0
 11
124.0711874223
 21
86.4044298715
 31
0.0
  0
LINE
  5
A9
330
1F
100
AcDbEntity
  8
0
  6
Continuous
 62
     7
100
AcDbLine
 10
124.0711874223
 20
71.2544298715
 30
0.0
 11
124.0711874223
 21
79.9099327468
 31
0.0
  0
LINE
  5
AA
330
1F
100
AcDbEntity
  8
0
  6
Continuous
 62
     7
100
AcDbLine
 10
124.0711874223
 20
120.2719298715
 30
0.0
 11
124.0711874223
 21
151.2544298715
 31
0.0
  0
LINE
  5
AB
330
1F
100
AcDbEntity
  8
RUNDUNGEN
  6
Continuous
 62
     9
100
AcDbLine
 10
69.9744207051
 20
99.3544298715
 30
0.0
 11
63.8165870111
 21
99.3544298715
 31
0.0
  0
LINE
  5
AC
330
1F
100
AcDbEntity
  8
0
  6
Continuous
 62
     7
100
AcDbLine
 10
128.4849170236
 20
151.2543877061
 30
0.0
 11
128.4849170236
 21
120.2719298715
 31
0.0
  0
LINE
  5
AD
330
1F
100
AcDbEntity
  8
0
  6
Continuous
 62
     7
100
AcDbLine
 10
128.4849170236
 20
102.2369298715
 30
0.0
 11
128.4849170236
 21
86.4044298715
 31
0.0
  0
LINE
  5
AE
330
1F
100
AcDbEntity
  8
0
  6
Continuous
 62
     7
100
AcDbLine
 10
128.4849170236
 20
79.9099327468
 30
0.0
 11
128.4849170236
 21
71.2544585018
 31
0.0
  0
LINE
  5
AF
330
1F
100
AcDbEntity
  8
FASEN
  6
Continuous
 62
     7
100
AcDbLine
 10
128.4849170236
 20
79.9099327468
 30
0.0
 11
128.4849170236
 21
86.4044298715
 31
0.0
  0
LINE
  5
B0
330
1F
100
AcDbEntity
  8
FASEN
  6
Continuous
 62
     7
100
AcDbLine
 10
128.4849170236
 20
102.2369298715
 30
0.0
 11
128.4849170236
 21
120.2719298715
 31
0.0
  0
LINE
  5
B1
330
1F
100
AcDbEntity
  8
DEFAULT_2
  6
HIDDEN
 62
     8
100
AcDbLine
 10
207.5349170236
 20
101.2544298715
 30
0.0
 11
155.5349170236
 21
101.2544298715
 31
0.0
  0
LINE
  5
B2
330
1F
100
AcDbEntity
  8
0
  6
Continuous
 62
     7
100
AcDbLine
 10
115.5024170236
 20
102.2369298715
 30
0.0
 11
118.6687223415
 21
102.2369298715
 31
0.0
  0
LINE
  5
B3
330
1F
100
AcDbEntity
  8
0
  6
Continuous
 62
     7
100
AcDbLine
 10
122.4011117056
 20
102.2369298715
 30
0.0
 11
128.4849170236
 21
102.2369298715
 31
0.0
  0
LINE
  5
B4
330
1F
100
AcDbEntity
  8
0
  6
Continuous
 62
     7
100
AcDbLine
 10
128.4849170236
 20
102.6369298715
 30
0.0
 11
121.7661345509
 21
102.6369298715
 31
0.0
  0
LINE
  5
B5
330
1F
100
AcDbEntity
  8
0
  6
Continuous
 62
     7
100
AcDbLine
 10
119.3036994962
 20
102.6369298715
 30
0.0
 11
115.5024170236
 21
102.6369298715
 31
0.0
  0
LINE
  5
B6
330
1F
100
AcDbEntity
  8
0
  6
Continuous
 62
     7
100
AcDbLine
 10
119.3724170236
 20
102.6497436483
 30
0.0
 11
121.6974170236
 21
102.6497436483
 31
0.0
  0
LINE
  5
B7
330
1F
100
AcDbEntity
  8
0
  6
Continuous
 62
     7
100
AcDbLine
 10
68.8349170236
 20
103.2344298715
 30
0.0
 11
64.2849170236
 21
103.2344298715
 31
0.0
  0
LINE
  5
B8
330
1F
100
AcDbEntity
  8
RUNDUNGEN
  6
Continuous
 62
     9
100
AcDbLine
 10
134.4849170236
 20
132.2544298715
 30
0.0
 11
134.4849170236
 21
90.2544298715
 31
0.0
  0
LINE
  5
B9
330
1F
100
AcDbEntity
  8
0
  6
Continuous
 62
     7
100
AcDbLine
 10
116.9986466248
 20
71.2544298715
 30
0.0
 11
118.6224170236
 21
74.066882702
 31
0.0
  0
LWPOLYLINE
  5
BA
330
1F
100
AcDbEntity
  8
TEIL_STARTBEZUEGE
  6
DOT_CENTER
 62
     7
100
AcDbPolyline
 90
        2
 70
     0
 43
0.25
 10
210.5349170236
 20
111.2544298715
 10
59.6349170236
 20
111.2544298715
  0
LINE
  5
BB
330
1F
100
AcDbEntity
  8
0
  6
Continuous
 62
     7
100
AcDbLine
 10
116.9986466248
 20
151.2544298715
 30
0.0
 11
118.6224170236
 21
148.441977041
 31
0.0
  0
LINE
  5
BC
330
1F
100
AcDbEntity
  8
0
  6
Continuous
 62
     7
100
AcDbLine
 10
68.8349170236
 20
119.2744298715
 30
0.0
 11
64.2849170236
 21
119.2744298715
 31
0.0
  0
LINE
  5
BD
330
1F
100
AcDbEntity
  8
0
  6
Continuous
 62
     7
100
AcDbLine
 10
121.6974170236
 20
119.8591160947
 30
0.0
 11
119.3724170236
 21
119.8591160947
 31
0.0
  0
LINE
  5
BE
330
1F
100
AcDbEntity
  8
0
  6
Continuous
 62
     7
100
AcDbLine
 10
115.5024170236
 20
119.8719298715
 30
0.0
 11
119.3036994962
 21
119.8719298715
 31
0.0
  0
LINE
  5
BF
330
1F
100
AcDbEntity
  8
0
  6
Continuous
 62
     7
100
AcDbLine
 10
121.7661345509
 20
119.8719298715
 30
0.0
 11
128.4849170236
 21
119.8719298715
 31
0.0
  0
LINE
  5
C0
330
1F
100
AcDbEntity
  8
0
  6
Continuous
 62
     7
100
AcDbLine
 10
115.5024170236
 20
120.2719298715
 30
0.0
 11
118.6687223415
 21
120.2719298715
 31
0.0
  0
LINE
  5
C1
330
1F
100
AcDbEntity
  8
0
  6
Continuous
 62
     7
100
AcDbLine
 10
122.4011117056
 20
120.2719298715
 30
0.0
 11
128.4849170236
 21
120.2719298715
 31
0.0
  0
LINE
  5
C2
330
1F
100
AcDbEntity
  8
DEFAULT_2
  6
HIDDEN
 62
     8
100
AcDbLine
 10
207.5349170236
 20
121.2544298715
 30
0.0
 11
155.5349170236
 21
121.2544298715
 31
0.0
  0
LINE
  5
C3
330
1F
100
AcDbEntity
  8
0
  6
Continuous
 62
     7
100
AcDbLine
 10
150.3569957108
 20
132.2544298715
 30
0.0
 11
150.3569957108
 21
90.2544298715
 31
0.0
  0
LINE
  5
C4
330
1F
100
AcDbEntity
  8
RUNDUNGEN
  6
Continuous
 62
     9
100
AcDbLine
 10
63.8165870111
 20
123.1544298715
 30
0.0
 11
69.9744207051
 21
123.1544298715
 31
0.0
  0
LINE
  5
C5
330
1F
100
AcDbEntity
  8
DEFAULT_2
  6
HIDDEN
 62
     8
100
AcDbLine
 10
155.5349170236
 20
121.2544298715
 30
0.0
 11
155.5349170236
 21
101.2544298715
 31
0.0
  0
LINE
  5
C6
330
1F
100
AcDbEntity
  8
RUNDUNGEN
  6
Continuous
 62
     7
100
AcDbLine
 10
150.3569957108
 20
132.2544298715
 30
0.0
 11
134.4849170236
 21
132.2544298715
 31
0.0
  0
LINE
  5
C7
330
1F
100
AcDbEntity
  8
0
  6
Continuous
 62
     7
100
AcDbLine
 10
100.6541606376
 20
141.3700540452
 30
0.0
 11
100.0349170236
 21
141.5359798715
 31
0.0
  0
LINE
  5
C8
330
1F
100
AcDbEntity
  8
RUNDUNGEN
  6
Continuous
 62
     7
100
AcDbLine
 10
206.6133761193
 20
127.8269567136
 30
0.0
 11
150.3569957108
 21
132.2544298715
 31
0.0
  0
LINE
  5
C9
330
1F
100
AcDbEntity
  8
0
  6
Continuous
 62
     7
100
AcDbLine
 10
150.3569957108
 20
132.2544298715
 30
0.0
 11
206.6133761193
 21
127.8269567136
 31
0.0
  0
LINE
  5
CA
330
1F
100
AcDbEntity
  8
0
  6
Continuous
 62
     7
100
AcDbLine
 10
100.0349170236
 20
141.5359798715
 30
0.0
 11
64.1548574358
 21
139.7383888862
 31
0.0
  0
LINE
  5
CB
330
1F
100
AcDbEntity
  8
0
  6
Continuous
 62
     7
100
AcDbLine
 10
101.8343457349
 20
141.3359798715
 30
0.0
 11
100.9129796827
 21
141.3359798715
 31
0.0
  0
LINE
  5
CC
330
1F
100
AcDbEntity
  8
0
  6
Continuous
 62
     7
100
AcDbLine
 10
119.3724170236
 20
146.2294298715
 30
0.0
 11
121.6974170236
 21
146.2294298715
 31
0.0
  0
LINE
  5
CD
330
1F
100
AcDbEntity
  8
BEZUGSACHSEN
  6
Continuous
 62
     7
100
AcDbLine
 10
116.9986466248
 20
151.2544298715
 30
0.0
 11
114.5349170236
 21
151.2544298715
 31
0.0
  0
LINE
  5
CE
330
1F
100
AcDbEntity
  8
BEZUGSACHSEN
  6
Continuous
 62
     7
100
AcDbLine
 10
104.5349170236
 20
151.2544298715
 30
0.0
 11
102.5349170236
 21
151.2544298715
 31
0.0
  0
LINE
  5
CF
330
1F
100
AcDbEntity
  8
0
  6
Continuous
 62
     7
100
AcDbLine
 10
102.5349170236
 20
151.2544298715
 30
0.0
 11
104.5349170236
 21
151.2544298715
 31
0.0
  0
LINE
  5
D0
330
1F
100
AcDbEntity
  8
0
  6
Continuous
 62
     7
100
AcDbLine
 10
114.5349170236
 20
151.2544298715
 30
0.0
 11
116.9986466248
 21
151.2544298715
 31
0.0
  0
LINE
  5
D1
330
1F
100
AcDbEntity
  8
0
  6
Continuous
 62
     7
100
AcDbLine
 10
124.0711874223
 20
151.2544298715
 30
0.0
 11
128.4849170236
 21
151.2544298715
 31
0.0
  0
LINE
  5
D2
330
1F
100
AcDbEntity
  8
RUNDUNGEN
  6
Continuous
 62
     9
100
AcDbLine
 10
206.6133761193
 20
94.6819030294
 30
0.0
 11
206.6133761193
 21
127.8269567136
 31
0.0
  0
LINE
  5
D3
330
1F
100
AcDbEntity
  8
RUNDUNGEN
  6
Continuous
 62
     7
100
AcDbLine
 10
207.5349170236
 20
126.8300393799
 30
0.0
 11
207.5349170236
 21
95.6788203632
 31
0.0
  0
LWPOLYLINE
  5
D4
330
1F
100
AcDbEntity
  8
1
  6
Continuous
 62
     7
100
AcDbPolyline
 90
        2
 70
     0
 43
0.25
 10
207.5349170236
 20
126.8300393799
 10
207.5349170236
 20
127.7544298715466
  0
LWPOLYLINE
  5
D5
330
1F
100
AcDbEntity
  8
1
  6
Continuous
 62
     7
100
AcDbPolyline
 90
        2
 70
     0
 43
0.25
 10
206.6133761193
 20
127.8269567136
 10
207.5349170235949
 20
127.7544298715466
  0
LWPOLYLINE
  5
D6
330
1F
100
AcDbEntity
  8
1
  6
Continuous
 62
     7
100
AcDbPolyline
 90
        2
 70
     0
 43
0.25
 10
206.6133761193
 20
94.6819030294
 10
207.5349170236
 20
94.7544298714559
  0
LWPOLYLINE
  5
D7
330
1F
100
AcDbEntity
  8
1
  6
Continuous
 62
     7
100
AcDbPolyline
 90
        2
 70
     0
 43
0.25
 10
207.5349170236
 20
95.6788203632
 10
207.5349170236
 20
94.7544298714559
  0
ARC
  5
D8
330
1F
100
AcDbEntity
  8
0
  6
Continuous
 62
     7
100
AcDbCircle
 10
77.7436632224
 20
86.2044298715
 30
0.0
 40
40.94090914375135
100
AcDbArc
 50
359.7201038833813
 51
0.27989611661873
  0
ARC
  5
D9
330
1F
100
AcDbEntity
  8
FASEN
  6
Continuous
 62
     7
100
AcDbCircle
 10
119.2390884606
 20
92.4567255716
 30
0.0
 40
17.62098209919971
100
AcDbArc
 50
223.931824022501
 51
225.4009012365698
  0
ARC
  5
DA
330
1F
100
AcDbEntity
  8
FASEN
  6
Continuous
 62
     7
100
AcDbCircle
 10
115.0935941843
 20
77.4044298715
 30
0.0
 40
9.0
100
AcDbArc
 50
90.0
 51
161.694032239301
  0
ARC
  5
DB
330
1F
100
AcDbEntity
  8
FASEN
  6
Continuous
 62
     7
100
AcDbCircle
 10
115.0935941843
 20
77.4044298715
 30
0.0
 40
8.599979606199994
100
AcDbArc
 50
90.0
 51
163.0619502147009
  0
ARC
  5
DC
330
1F
100
AcDbEntity
  8
RUNDUNGEN
  6
Continuous
 62
     7
100
AcDbCircle
 10
68.8349170236
 20
105.1344298715
 30
0.0
 40
1.900000000000006
100
AcDbArc
 50
270.0
 51
355.2355361864927
  0
ARC
  5
DD
330
1F
100
AcDbEntity
  8
0
  6
Continuous
 62
     7
100
AcDbCircle
 10
64.2349170236
 20
84.3684666211
 30
0.0
 40
1.600000000000001
100
AcDbArc
 50
180.0
 51
267.1318795121992
  0
ARC
  5
DE
330
1F
100
AcDbEntity
  8
0
  6
Continuous
 62
     7
100
AcDbCircle
 10
100.9129796827
 20
80.1728798715
 30
0.0
 40
1.0
100
AcDbArc
 50
90.0
 51
104.9999999996983
  0
ARC
  5
DF
330
1F
100
AcDbEntity
  8
0
  6
Continuous
 62
     7
100
AcDbCircle
 10
101.8343457349
 20
80.1728798715
 30
0.0
 40
0.9999999999996478
100
AcDbArc
 50
45.52164291272007
 51
90.0
  0
ARC
  5
E0
330
1F
100
AcDbEntity
  8
0
  6
Continuous
 62
     7
100
AcDbCircle
 10
119.3724170236
 20
75.5294298715
 30
0.0
 40
0.75
100
AcDbArc
 50
90.0
 51
180.0
  0
ARC
  5
E1
330
1F
100
AcDbEntity
  8
0
  6
Continuous
 62
     7
100
AcDbCircle
 10
-74.085811502
 20
166.4498197687
 30
0.0
 40
209.7675432076
100
AcDbArc
 50
335.6347911335
 51
336.7331595278001
  0
ARC
  5
E2
330
1F
100
AcDbEntity
  8
BEZUGSACHSEN
  6
Continuous
 62
     7
100
AcDbCircle
 10
109.5110305658
 20
191.3213840796
 30
0.0
 40
40.38069160689966
100
AcDbArc
 50
270.0338922697995
 51
277.1468635117908
  0
ARC
  5
E3
330
1F
100
AcDbEntity
  8
BEZUGSACHSEN
  6
Continuous
 62
     7
100
AcDbCircle
 10
109.5588034777
 20
191.3213840222
 30
0.0
 40
40.38069154952629
100
AcDbArc
 50
262.8531364832856
 51
269.9661077351724
  0
ARC
  5
E4
330
1F
100
AcDbEntity
  8
0
  6
Continuous
 62
     7
100
AcDbCircle
 10
115.5024170236
 20
111.2544298715
 30
0.0
 40
9.017500000000013
100
AcDbArc
 50
90.0
 51
270.0
  0
ARC
  5
E5
330
1F
100
AcDbEntity
  8
FASEN
  6
Continuous
 62
     7
100
AcDbCircle
 10
115.5024170236
 20
111.2544298715
 30
0.0
 40
8.617497877200009
100
AcDbArc
 50
90.0
 51
270.0
  0
ARC
  5
E6
330
1F
100
AcDbEntity
  8
RUNDUNGEN
  6
Continuous
 62
     7
100
AcDbCircle
 10
68.8349170236
 20
117.3744298715
 30
0.0
 40
1.899999999999976
100
AcDbArc
 50
4.76446375489308
 51
90.0
  0
ARC
  5
E7
330
1F
100
AcDbEntity
  8
0
  6
Continuous
 62
     7
100
AcDbCircle
 10
64.2349170236
 20
138.140393122
 30
0.0
 40
1.599999999999946
100
AcDbArc
 50
92.86812048780074
 51
180.0
  0
ARC
  5
E8
330
1F
100
AcDbEntity
  8
0
  6
Continuous
 62
     7
100
AcDbCircle
 10
100.9129796827
 20
142.3359798715
 30
0.0
 40
1.000000000009914
100
AcDbArc
 50
255.0000000003019
 51
270.0
  0
ARC
  5
E9
330
1F
100
AcDbEntity
  8
0
  6
Continuous
 62
     7
100
AcDbCircle
 10
101.8343457349
 20
142.3359798715
 30
0.0
 40
1.0
100
AcDbArc
 50
270.0
 51
314.4783570872765
  0
ARC
  5
EA
330
1F
100
AcDbEntity
  8
0
  6
Continuous
 62
     7
100
AcDbCircle
 10
119.3724170236
 20
146.9794298715
 30
0.0
 40
0.75
100
AcDbArc
 50
180.0
 51
270.0
  0
ARC
  5
EB
330
1F
100
AcDbEntity
  8
RUNDUNGEN
  6
Continuous
 62
     7
100
AcDbCircle
 10
197.7348560534
 20
-1003.0123493763
 30
0.0
 40
1134.1881142076
100
AcDbArc
 50
96.52573778010002
 51
96.7637593779
  0
ARC
  5
EC
330
1F
100
AcDbEntity
  8
0
  6
Continuous
 62
     7
100
AcDbCircle
 10
163.3261708247
 20
86.2044298715
 30
0.0
 40
40.94090914375135
100
AcDbArc
 50
179.7201038833813
 51
180.2798961166187
  0
ARC
  5
ED
330
1F
100
AcDbEntity
  8
RUNDUNGEN
  6
Continuous
 62
     7
100
AcDbCircle
 10
134.4849170236
 20
84.2544298715
 30
0.0
 40
6.0
100
AcDbArc
 50
90.0
 51
180.0
  0
ARC
  5
EE
330
1F
100
AcDbEntity
  8
RUNDUNGEN
  6
Continuous
 62
     7
100
AcDbCircle
 10
206.5349170236
 20
95.6788203632
 30
0.0
 40
1.00000000006448
100
AcDbArc
 50
274.4999999981088
 51
0.0
  0
ARC
  5
EF
330
1F
100
AcDbEntity
  8
0
  6
Continuous
 62
     7
100
AcDbCircle
 10
121.6974170236
 20
75.5294298715
 30
0.0
 40
0.75
100
AcDbArc
 50
0.0
 51
90.0
  0
ARC
  5
F0
330
1F
100
AcDbEntity
  8
RUNDUNGEN
  6
Continuous
 62
     7
100
AcDbCircle
 10
197.7348560535
 20
1225.5212091198
 30
0.0
 40
1134.1881142081
100
AcDbArc
 50
263.2362406221
 51
263.4742622199
  0
ARC
  5
F1
330
1F
100
AcDbEntity
  8
0
  6
Continuous
 62
     7
100
AcDbCircle
 10
315.1556455493
 20
166.4498197687
 30
0.0
 40
209.7675432078004
100
AcDbArc
 50
203.2668404721999
 51
204.3652088665233
  0
ARC
  5
F2
330
1F
100
AcDbEntity
  8
RUNDUNGEN
  6
Continuous
 62
     7
100
AcDbCircle
 10
134.4849170236
 20
138.2544298715
 30
0.0
 40
6.0
100
AcDbArc
 50
180.0
 51
270.0
  0
ARC
  5
F3
330
1F
100
AcDbEntity
  8
RUNDUNGEN
  6
Continuous
 62
     7
100
AcDbCircle
 10
206.5349170236
 20
126.8300393799
 30
0.0
 40
1.0
100
AcDbArc
 50
0.0
 51
85.50000000144168
  0
ARC
  5
F4
330
1F
100
AcDbEntity
  8
0
  6
Continuous
 62
     7
100
AcDbCircle
 10
121.6974170236
 20
146.9794298715
 30
0.0
 40
0.75
100
AcDbArc
 50
270.0
 51
0.0
  0
CIRCLE
  5
F5
330
1F
100
AcDbEntity
  8
FASEN
  6
Continuous
 62
     7
100
AcDbCircle
 10
90.5349170236
 20
111.2544298715
 30
0.0
 40
4.25
  0
SPLINE
  5
F6
330
1F
100
AcDbEntity
  8
0
  6
Continuous
 62
     7
100
AcDbSpline
210
0.0
220
0.0
230
1.0
 70
     8
 71
     3
 72
    11
 73
     7
 74
     5
 42
0.0000000001
 43
0.0000000001
 44
0.00000001
 40
0.0
 40
0.0
 40
0.0
 40
0.0
 40
0.0910828807962854
 40
0.1822704384859714
 40
0.273487344640946
 40
0.3645237789710376
 40
0.3645237789710376
 40
0.3645237789710376
 40
0.3645237789710376
 10
63.8165870111
 20
123.1544298715
 30
0.0
 10
63.84251893072735
 20
123.1702755528522
 30
0.0
 10
63.8944125722101
 20
123.2019851261873
 30
0.0
 10
63.97787836986642
 20
123.2391485927556
 30
0.0
 10
64.06474799513995
 20
123.2677857931429
 30
0.0
 10
64.12484079071065
 20
123.2772949442475
 30
0.0
 10
64.1548574358
 20
123.2820448117
 30
0.0
 11
63.8165870111
 21
123.1544298715
 31
0.0
 11
63.89531509908694
 21
123.2002335758924
 31
0.0
 11
63.97843924209337
 21
123.2377242084139
 31
0.0
 11
64.06535456739151
 21
123.26540543304
 31
0.0
 11
64.1548574358
 21
123.2820448117
 31
0.0
  0
SPLINE
  5
F7
330
1F
100
AcDbEntity
  8
0
  6
Continuous
 62
     7
100
AcDbSpline
210
0.0
220
0.0
230
1.0
 70
     8
 71
     3
 72
     9
 73
     5
 74
     3
 42
0.0000000001
 43
0.0000000001
 44
0.00000001
 40
0.0
 40
0.0
 40
0.0
 40
0.0
 40
0.1121178550327611
 40
0.2241876568939559
 40
0.2241876568939559
 40
0.2241876568939559
 40
0.2241876568939559
 10
63.6393961676
 20
123.0173668627
 30
0.0
 10
63.66758978584706
 20
123.0419537768951
 30
0.0
 10
63.72396493869246
 20
123.0911170674525
 30
0.0
 10
63.78571739904407
 20
123.1333286194084
 30
0.0
 10
63.8165870111
 20
123.1544298715
 30
0.0
 11
63.6393961676
 21
123.0173668627
 31
0.0
 11
63.725321925575
 21
123.089388925525
 31
0.0
 11
63.8165870111
 21
123.1544298715
 31
0.0
  0
SPLINE
  5
F8
330
1F
100
AcDbEntity
  8
RUNDUNGEN
  6
Continuous
 62
     7
100
AcDbSpline
210
0.0
220
0.0
230
1.0
 70
     8
 71
     3
 72
    15
 73
    11
 74
     9
 42
0.0000000001
 43
0.0000000001
 44
0.00000001
 40
0.0
 40
0.0
 40
0.0
 40
0.0
 40
0.3162936728578514
 40
0.632749189869376
 40
0.9497778541383666
 40
1.266736320414465
 40
1.585306002296628
 40
1.903962908445862
 40
2.22534207852918
 40
2.546438904748298
 40
2.546438904748298
 40
2.546438904748298
 40
2.546438904748298
 10
69.9744207051
 20
123.1544298715
 30
0.0
 10
70.03046766373173
 20
123.0650862922932
 30
0.0
 10
70.14259025963581
 20
122.8863534177075
 30
0.0
 10
70.28856883454712
 20
122.6050601285509
 30
0.0
 10
70.4179692284873
 20
122.3156902500733
 30
0.0
 10
70.52784330726706
 20
122.0175206152044
 30
0.0
 10
70.6171217407769
 20
121.7119334489097
 30
0.0
 10
70.68320480182267
 20
121.3990765427132
 30
0.0
 10
70.72648248982608
 20
121.0810554023241
 30
0.0
 10
70.73210633616452
 20
120.8668351521462
 30
0.0
 10
70.7349170236
 20
120.7597720979
 30
0.0
 11
69.9744207051
 21
123.1544298715
 31
0.0
 11
70.13884584123834
 21
122.8842335315992
 31
0.0
 11
70.28570634352434
 21
122.6039192666833
 31
0.0
 11
70.41468116086732
 21
122.3143114793924
 31
0.0
 11
70.52421431585385
 21
122.0168805507673
 31
0.0
 11
70.61319117418581
 21
121.7109888037458
 31
0.0
 11
70.67922397977199
 21
121.3992486997761
 31
0.0
 11
70.7206637245347
 21
121.0805524203541
 31
0.0
 11
70.7349170236
 21
120.7597720979
 31
0.0
  0
SPLINE
  5
F9
330
1F
100
AcDbEntity
  8
RUNDUNGEN
  6
Continuous
 62
     7
100
AcDbSpline
210
0.0
220
0.0
230
1.0
 70
     8
 71
     3
 72
    19
 73
    15
 74
    13
 42
0.0000000001
 43
0.0000000001
 44
0.00000001
 40
0.0
 40
0.0
 40
0.0
 40
0.0
 40
0.0908658953593874
 40
0.1818155842979208
 40
0.2719578267125117
 40
0.3620796283856417
 40
0.4508848980054201
 40
0.5396930491177298
 40
0.6271215589095764
 40
0.7145608604718511
 40
0.8859439487444443
 40
1.057581272656024
 40
1.226597310388225
 40
1.395465809384596
 40
1.395465809384596
 40
1.395465809384596
 40
1.395465809384596
 10
68.8349170236
 20
123.8272506236
 30
0.0
 10
68.865118086278
 20
123.829846890477
 30
0.0
 10
68.92554806207367
 20
123.835041818424
 30
0.0
 10
69.01635838380287
 20
123.8315799331224
 30
0.0
 10
69.106104545204
 20
123.8198006085685
 30
0.0
 10
69.19361424452691
 20
123.7994880960946
 30
0.0
 10
69.27842807044004
 20
123.7713474606973
 30
0.0
 10
69.3596531812567
 20
123.7363288398427
 30
0.0
 10
69.43735746586616
 20
123.695061809024
 30
0.0
 10
69.53503815048646
 20
123.6334210997246
 30
0.0
 10
69.64829351421699
 20
123.5446176885401
 30
0.0
 10
69.76968116588108
 20
123.4242643218051
 30
0.0
 10
69.87914279542893
 20
123.2940100739781
 30
0.0
 10
69.9426706484464
 20
123.200943059622
 30
0.0
 10
69.9744207051
 20
123.1544298715
 30
0.0
 11
68.8349170236
 21
123.8272506236
 31
0.0
 11
68.92559031118148
 21
123.8331638172066
 31
0.0
 11
69.016490621742
 21
123.8301672428261
 31
0.0
 11
69.10585551943382
 21
123.8183545831738
 31
0.0
 11
69.19365891934194
 21
123.7980444354297
 31
0.0
 11
69.27796888050442
 21
123.7701480851125
 31
0.0
 11
69.35954947389236
 21
123.7350554293785
 31
0.0
 11
69.4368041066369
 21
123.6941229722824
 31
0.0
 11
69.51079536041014
 21
123.6475297772561
 31
0.0
 11
69.6459973064977
 21
123.5422083799999
 31
0.0
 11
69.76837961441842
 21
123.4218674407169
 31
0.0
 11
69.87690736859489
 21
123.2922983565027
 31
0.0
 11
69.9744207051
 21
123.1544298715
 31
0.0
  0
SPLINE
  5
FA
330
1F
100
AcDbEntity
  8
0
  6
Continuous
 62
     7
100
AcDbSpline
210
0.0
220
0.0
230
1.0
 70
     8
 71
     3
 72
    27
 73
    23
 74
    21
 42
0.0000000001
 43
0.0000000001
 44
0.00000001
 40
0.0
 40
0.0
 40
0.0
 40
0.0
 40
0.1005593762894674
 40
0.2012543953691223
 40
0.2905289403326313
 40
0.3794999608252325
 40
0.4198989481613962
 40
0.4602916821678341
 40
0.4986937524208147
 40
0.5370892801862543
 40
0.5745784458358971
 40
0.6120681417706321
 40
0.6498944637166291
 40
0.6877262175716035
 40
0.7680465440798078
 40
0.8487068781553772
 40
0.9387083803753815
 40
1.028639130878794
 40
1.127965388986073
 40
1.227310735222519
 40
1.334449143145273
 40
1.441556400140982
 40
1.441556400140982
 40
1.441556400140982
 40
1.441556400140982
 10
62.6349170236
 20
122.6762670671
 30
0.0
 10
62.63558420269339
 20
122.7097991897065
 30
0.0
 10
62.63691946082642
 20
122.7769086658152
 30
0.0
 10
62.64975638327907
 20
122.8731385576915
 30
0.0
 10
62.6718476237622
 20
122.9636461393554
 30
0.0
 10
62.69925872460686
 20
123.0315896451626
 30
0.0
 10
62.72730353389814
 20
123.0808148140581
 30
0.0
 10
62.75019116727529
 20
123.1133771454015
 30
0.0
 10
62.77589361573133
 20
123.1428868494391
 30
0.0
 10
62.80392047737203
 20
123.1688092119382
 30
0.0
 10
62.83448144177322
 20
123.1911770462893
 30
0.0
 10
62.86718545212301
 20
123.2098936254141
 30
0.0
 10
62.90189869592413
 20
123.2248415535048
 30
0.0
 10
62.95164993009951
 20
123.240234222437
 30
0.0
 10
63.01771358217812
 20
123.2496766932919
 30
0.0
 10
63.10162391214138
 20
123.2473971640689
 30
0.0
 10
63.18754559959972
 20
123.2329571681962
 30
0.0
 10
63.27705744170954
 20
123.2068820325619
 30
0.0
 10
63.36675783308876
 20
123.1717883937266
 30
0.0
 10
63.4585456844043
 20
123.1272881288986
 30
0.0
 10
63.54976002872792
 20
123.0760576428141
 30
0.0
 10
63.60952035098974
 20
123.036928559639
 30
0.0
 10
63.6393961676
 20
123.0173668627
 30
0.0
 11
62.6349170236
 21
122.6762670671
 31
0.0
 11
62.63880528977186
 21
122.7767512426995
 31
0.0
 11
62.6521297478937
 21
122.8765607897539
 31
0.0
 11
62.67393613610317
 21
122.9631311415592
 31
0.0
 11
62.70778532591272
 21
123.0454116060495
 31
0.0
 11
62.72784636581991
 21
123.080477727244
 31
0.0
 11
62.75113874514666
 21
123.1134783033877
 31
0.0
 11
62.77639260198087
 21
123.1424085939965
 31
0.0
 11
62.80461531287647
 21
123.1684411724722
 31
0.0
 11
62.83486289701266
 21
123.1905888855602
 31
0.0
 11
62.8674028539875
 21
123.209206847354
 31
0.0
 11
62.90212712330203
 21
123.2242087056567
 31
0.0
 11
62.93825913832506
 21
123.2354211581145
 31
0.0
 11
63.01768221320993
 21
123.2473932099945
 31
0.0
 11
63.09832510352464
 21
123.2457157908842
 31
0.0
 11
63.18715554281955
 21
123.2312443204498
 31
0.0
 11
63.27363031058282
 21
123.2065531393037
 31
0.0
 11
63.36622239429536
 21
123.1706030129706
 31
0.0
 11
63.45576323753315
 21
123.1275688961433
 31
0.0
 11
63.54912955342711
 21
123.075020161538
 31
0.0
 11
63.6393961676
 21
123.0173668627
 31
0.0
  0
SPLINE
  5
FB
330
1F
100
AcDbEntity
  8
RUNDUNGEN
  6
Continuous
 62
     7
100
AcDbSpline
210
0.0
220
0.0
230
1.0
 70
     8
 71
     3
 72
    15
 73
    11
 74
     9
 42
0.0000000001
 43
0.0000000001
 44
0.00000001
 40
0.0
 40
0.0
 40
0.0
 40
0.0
 40
0.3210967670361665
 40
0.6424758765909162
 40
0.9611327417285005
 40
1.279702385376381
 40
1.596661045055705
 40
1.913689899713928
 40
2.230145323796918
 40
2.546438905864608
 40
2.546438905864608
 40
2.546438905864608
 40
2.546438905864608
 10
70.7349170236
 20
101.7490876451
 30
0.0
 10
70.73210633814347
 20
101.6420246105864
 30
0.0
 10
70.72648249577608
 20
101.4278044003224
 30
0.0
 10
70.68320482315795
 20
101.1097833117886
 30
0.0
 10
70.61712176186526
 20
100.7969264530297
 30
0.0
 10
70.52784332171892
 20
100.4913392499996
 30
0.0
 10
70.41796924197195
 20
100.1931694930209
 30
0.0
 10
70.28856883055676
 20
99.90379951474262
 30
0.0
 10
70.14259022397744
 20
99.62250623924986
 30
0.0
 10
70.03046765197116
 20
99.44377342222776
 30
0.0
 10
69.9744207051
 20
99.3544298715
 30
0.0
 11
70.7349170236
 21
101.7490876451
 31
0.0
 11
70.72066373216322
 21
101.4283073815483
 31
0.0
 11
70.67922399981865
 21
101.1096111615497
 31
0.0
 11
70.6131911983051
 21
100.797871098639
 31
0.0
 11
70.52421435951285
 21
100.4919793857527
 31
0.0
 11
70.41468116919333
 21
100.1945482640386
 31
0.0
 11
70.28570628924614
 21
99.9049402962122
 31
0.0
 11
70.13884580994882
 21
99.62462612416215
 31
0.0
 11
69.9744207051
 21
99.3544298715
 31
0.0
  0
SPLINE
  5
FC
330
1F
100
AcDbEntity
  8
RUNDUNGEN
  6
Continuous
 62
     7
100
AcDbSpline
210
0.0
220
0.0
230
1.0
 70
     8
 71
     3
 72
    19
 73
    15
 74
    13
 42
0.0000000001
 43
0.0000000001
 44
0.00000001
 40
0.0
 40
0.0
 40
0.0
 40
0.0
 40
0.1688722591318147
 40
0.3378923301678281
 40
0.5095430667323307
 40
0.680938793175716
 40
0.768382800063193
 40
0.8558164159905569
 40
0.9446259266114672
 40
1.033432066262484
 40
1.123538983596118
 40
1.213666714811615
 40
1.304608728401779
 40
1.395466840203907
 40
1.395466840203907
 40
1.395466840203907
 40
1.395466840203907
 10
69.9744207051
 20
99.3544298715
 30
0.0
 10
69.94266983423252
 20
99.30791571633497
 30
0.0
 10
69.87914030133338
 20
99.21484669271143
 30
0.0
 10
69.76967367613263
 20
99.08458744399397
 30
0.0
 10
69.64827957336168
 20
98.96422631679883
 30
0.0
 10
69.53501414566534
 20
98.87541855259954
 30
0.0
 10
69.43732316812073
 20
98.81378003392564
 30
0.0
 10
69.35961358956902
 20
98.77251524458418
 30
0.0
 10
69.27838658545139
 20
98.73749510553763
 30
0.0
 10
69.19357676039328
 20
98.70935540081575
 30
0.0
 10
69.10607512150729
 20
98.68904980891608
 30
0.0
 10
69.01634058489498
 20
98.67727747204003
 30
0.0
 10
68.92554029200775
 20
98.67381830140982
 30
0.0
 10
68.8651154842722
 20
98.67901297919434
 30
0.0
 10
68.8349170236
 20
98.6816091194
 30
0.0
 11
69.9744207051
 21
99.3544298715
 31
0.0
 11
69.87690485810322
 21
99.21655855654006
 31
0.0
 11
69.76837433232647
 21
99.08698653260109
 31
0.0
 11
69.64598249509626
 21
98.96663615436093
 31
0.0
 11
69.51076793236864
 21
98.86131038795293
 31
0.0
 11
69.43677006153425
 21
98.81471887099421
 31
0.0
 11
69.3595091350183
 21
98.77378738643732
 31
0.0
 11
69.27792717647243
 21
98.73869446383823
 31
0.0
 11
69.1936162099972
 21
98.71079838218276
 31
0.0
 11
69.10582635703464
 21
98.69049571565388
 31
0.0
 11
69.0164752234709
 21
98.67868966360724
 31
0.0
 11
68.92558250302734
 21
98.67569580218729
 31
0.0
 11
68.8349170236
 21
98.6816091194
 31
0.0
  0
SPLINE
  5
FD
330
1F
100
AcDbEntity
  8
FASEN
  6
Continuous
 62
     7
100
AcDbSpline
210
0.0
220
0.0
230
1.0
 70
     8
 71
     3
 72
    43
 73
    39
 74
    37
 42
0.0000000001
 43
0.0000000001
 44
0.00000001
 40
0.0
 40
0.0
 40
0.0
 40
0.0
 40
0.4749013796011822
 40
0.9503070044367191
 40
1.426516794745342
 40
1.902569884089212
 40
2.378584226327967
 40
2.854695131882836
 40
3.330934150177951
 40
3.806936903926633
 40
4.044851144900106
 40
4.282689037128508
 40
4.520257272358861
 40
4.757901325398798
 40
5.232421588301642
 40
5.707166910089533
 40
6.181844946084444
 40
6.656466720126289
 40
7.131680532963053
 40
7.606912148228804
 40
8.083165911165425
 40
8.559404406968959
 40
9.036790688980984
 40
9.51423675202894
 40
9.992554709997407
 40
10.47064082763661
 40
10.70993136094342
 40
10.94914401737385
 40
11.18825986903459
 40
11.42745308575715
 40
11.90448227709779
 40
12.38174856650573
 40
12.85659710261087
 40
13.33134750750811
 40
13.80459019516766
 40
14.27798080747965
 40
14.74980874360658
 40
15.22115173934166
 40
15.22115173934166
 40
15.22115173934166
 40
15.22115173934166
 10
85.6856022556
 20
111.2544298303
 30
0.0
 10
85.69008380981614
 20
111.4127949827003
 30
0.0
 10
85.69905167671504
 20
111.7296934379357
 30
0.0
 10
85.77172612917869
 20
112.200790324541
 30
0.0
 10
85.88691986748806
 20
112.6631354500593
 30
0.0
 10
86.04786529610158
 20
113.1120878118316
 30
0.0
 10
86.25205750992635
 20
113.5429603698306
 30
0.0
 10
86.49768351652924
 20
113.9517482575254
 30
0.0
 10
86.78242184268369
 20
114.3342753213378
 30
0.0
 10
87.0498129220357
 20
114.6282847890484
 30
0.0
 10
87.28010884172356
 20
114.8466415090057
 30
0.0
 10
87.46056063303283
 20
115.0016267442092
 30
0.0
 10
87.64832210267221
 20
115.1475233406471
 30
0.0
 10
87.90761420225897
 20
115.3293357061506
 30
0.0
 10
88.24797219470409
 20
115.53238256135
 30
0.0
 10
88.67797189934396
 20
115.7350906953842
 30
0.0
 10
89.1257781139376
 20
115.8948224589277
 30
0.0
 10
89.58712839183733
 20
116.0103209212168
 30
0.0
 10
90.05772412547437
 20
116.0803331054406
 30
0.0
 10
90.53343900145488
 20
116.104344224164
 30
0.0
 10
91.00956985899265
 20
116.0817313386783
 30
0.0
 10
91.48194342338306
 20
116.0127242187957
 30
0.0
 10
91.94565825184293
 20
115.8976009363375
 30
0.0
 10
92.39650879253354
 20
115.7373112289847
 30
0.0
 10
92.82950213944125
 20
115.5331537544554
 30
0.0
 10
93.17213678404534
 20
115.3281647733298
 30
0.0
 10
93.43290673872589
 20
115.1444746217192
 30
0.0
 10
93.62147401320514
 20
114.9971297394615
 30
0.0
 10
93.80249060820886
 20
114.8406510583722
 30
0.0
 10
94.03285644979991
 20
114.6206313513176
 30
0.0
 10
94.2997797160072
 20
114.3246877432054
 30
0.0
 10
94.58293837531886
 20
113.9406542534503
 30
0.0
 10
94.82642885093544
 20
113.5311786053551
 30
0.0
 10
95.028025037386
 20
113.1010579897435
 30
0.0
 10
95.18656375110848
 20
112.65370745684
 30
0.0
 10
95.29973985720001
 20
112.1940369767887
 30
0.0
 10
95.37101593097492
 20
111.7261202401798
 30
0.0
 10
95.37983683530919
 20
111.4116060672992
 30
0.0
 10
95.3842450198
 20
111.2544298361
 30
0.0
 11
85.6856022556
 21
111.2544298303
 31
0.0
 11
85.7088979289582
 21
111.7287594961969
 31
0.0
 11
85.7787487595405
 21
112.1990055696438
 31
0.0
 11
85.89455273876952
 21
112.6609202833957
 31
0.0
 11
86.0550795141427
 21
113.1090917888065
 31
0.0
 11
86.25894265369038
 21
113.5392423140308
 31
0.0
 11
86.50417956986637
 21
113.9473359911844
 31
0.0
 11
86.78849999905485
 21
114.3293903015812
 31
0.0
 11
87.10879485130178
 21
114.6815121969533
 31
0.0
 11
87.28143660376537
 21
114.8452131785151
 31
0.0
 11
87.46186001809323
 21
115.0001785118704
 31
0.0
 11
87.64945349236419
 21
115.1459432360029
 31
0.0
 11
87.84403312053198
 21
115.2823744063685
 31
0.0
 11
88.25151747818158
 21
115.5255327460903
 31
0.0
 11
88.68095546782152
 21
115.7279336690465
 31
0.0
 11
89.12802797701637
 21
115.8874498418259
 31
0.0
 11
89.58844546415604
 21
116.0026955182334
 31
0.0
 11
90.05848103562735
 21
116.0726578614081
 31
0.0
 11
90.53311053395402
 21
116.0965728664525
 31
0.0
 11
91.00882954605132
 21
116.0740103258053
 31
0.0
 11
91.48005976728732
 21
116.0051250336226
 31
0.0
 11
91.9433842323932
 21
115.8901115462066
 31
0.0
 11
92.3932275361138
 21
115.7301248429537
 31
0.0
 11
92.82588282409208
 21
115.526170262962
 31
0.0
 11
93.23611966948641
 21
115.2806665632746
 31
0.0
 11
93.431750952875
 21
115.1428683038879
 31
0.0
 11
93.62024480870875
 21
114.9955836770275
 31
0.0
 11
93.80113884110732
 21
114.8392067619855
 31
0.0
 11
93.9741089837422
 21
114.6739956101738
 31
0.0
 11
94.2936417980253
 21
114.319798447583
 31
0.0
 11
94.57684204012973
 21
113.9356360680125
 31
0.0
 11
94.81956871568443
 21
113.5275124430956
 31
0.0
 11
95.02107105213925
 21
113.0976464693859
 31
0.0
 11
95.17903561538542
 21
112.6515457653048
 31
0.0
 11
95.29287719700514
 21
112.1920473799763
 31
0.0
 11
95.36137141477944
 21
111.7252174929283
 31
0.0
 11
95.3842450198
 21
111.2544298361
 31
0.0
  0
SPLINE
  5
FE
330
1F
100
AcDbEntity
  8
FASEN
  6
Continuous
 62
     7
100
AcDbSpline
210
0.0
220
0.0
230
1.0
 70
     8
 71
     3
 72
    43
 73
    39
 74
    37
 42
0.0000000001
 43
0.0000000001
 44
0.00000001
 40
0.0
 40
0.0
 40
0.0
 40
0.0
 40
0.4709816363495122
 40
0.942450313714734
 40
1.415748649543219
 40
1.88889749010778
 40
2.363658623759147
 40
2.838518572166022
 40
3.315822292083268
 40
3.792888957799668
 40
4.032098331319439
 40
4.271230229275439
 40
4.51044296565138
 40
4.749733683722098
 40
5.227809816797021
 40
5.706117458408243
 40
6.183577089122713
 40
6.660977225141857
 40
7.137232867699027
 40
7.613503641678838
 40
8.088735822307903
 40
8.563950163612914
 40
9.038574661026594
 40
9.51325558110993
 40
9.988020673931898
 40
10.46256050235504
 40
10.7002093809843
 40
10.93778249095577
 40
11.17561469248568
 40
11.41352320101313
 40
11.88952200039785
 40
12.36575696881699
 40
12.84187173885863
 40
13.31789081552971
 40
13.79401470443461
 40
14.27029322432921
 40
14.74597323797883
 40
15.22115173404809
 40
15.22115173404809
 40
15.22115173404809
 40
15.22115173404809
 10
95.38422729
 20
111.2544299092
 30
0.0
 10
95.37983793130238
 20
111.0973736010277
 30
0.0
 10
95.37105467488152
 20
110.7830985731197
 30
0.0
 10
95.29985063119469
 20
110.3154462545877
 30
0.0
 10
95.18679118922344
 20
109.855935571305
 30
0.0
 10
95.02835639024715
 20
109.408610581327
 30
0.0
 10
94.82685196186961
 20
108.9784732330854
 30
0.0
 10
94.58342608351523
 20
108.5689359349209
 30
0.0
 10
94.30031716571438
 20
108.1848297926991
 30
0.0
 10
94.03342386543503
 20
107.8888182325802
 30
0.0
 10
93.80307922569003
 20
107.6687426999951
 30
0.0
 10
93.62208071606779
 20
107.5122265770753
 30
0.0
 10
93.43353234226882
 20
107.3648486346303
 30
0.0
 10
93.17279361684457
 20
107.1811198075244
 30
0.0
 10
92.8301984040252
 20
106.976078268101
 30
0.0
 10
92.39724127944068
 20
106.7718492099871
 30
0.0
 10
91.94641111891173
 20
106.6114847737396
 30
0.0
 10
91.48269996444917
 20
106.496284910007
 30
0.0
 10
91.01032138225672
 20
106.4272011897017
 30
0.0
 10
90.53418238868804
 20
106.4045140561674
 30
0.0
 10
90.05845781453674
 20
106.4284530823475
 30
0.0
 10
89.58785023273799
 20
106.4983944467342
 30
0.0
 10
89.12648076724784
 20
106.6138247884996
 30
0.0
 10
88.67864281828352
 20
106.7734926653625
 30
0.0
 10
88.24859987473921
 20
106.9761421856068
 30
0.0
 10
87.90819959326043
 20
107.1791471511261
 30
0.0
 10
87.6488742670356
 20
107.3609291432487
 30
0.0
 10
87.4610914866128
 20
107.506800471681
 30
0.0
 10
87.28061904777192
 20
107.6617582794292
 30
0.0
 10
87.05029495207947
 20
107.8800778326681
 30
0.0
 10
86.78286510958431
 20
108.1740459221056
 30
0.0
 10
86.49807374524727
 20
108.5565317595004
 30
0.0
 10
86.25238889240417
 20
108.9652860231632
 30
0.0
 10
86.04812229271937
 20
109.3961525231395
 30
0.0
 10
85.88709395303931
 20
109.8451263996463
 30
0.0
 10
85.77180979153465
 20
110.3075925619246
 30
0.0
 10
85.69908820586544
 20
110.7788919997801
 30
0.0
 10
85.6900836567122
 20
111.0959730201052
 30
0.0
 10
85.6855837568
 20
111.2544299102
 30
0.0
 11
95.38422729
 21
111.2544299092
 31
0.0
 11
95.36141504116299
 21
110.7840010590202
 31
0.0
 11
95.29301558304581
 21
110.3175203757484
 31
0.0
 11
95.17926622566686
 21
109.8580942136789
 31
0.0
 11
95.02141570132042
 21
109.4120526939846
 31
0.0
 11
94.81999059074778
 21
108.9821386806556
 31
0.0
 11
94.57733274902347
 21
108.5739608487603
 31
0.0
 11
94.29417769209817
 21
108.1897186662966
 31
0.0
 11
93.97468044511923
 21
107.8354389565888
 31
0.0
 11
93.80172695914675
 21
107.6701869790827
 31
0.0
 11
93.62084684721222
 21
107.5137694297905
 31
0.0
 11
93.43237629035127
 21
107.3664548601071
 31
0.0
 11
93.23676644176896
 21
107.2286258541163
 31
0.0
 11
92.82657803199857
 21
106.9830606743658
 31
0.0
 11
92.39396599127362
 21
106.7790385622223
 31
0.0
 11
91.94413585788381
 21
106.6189743561783
 31
0.0
 11
91.48081613827995
 21
106.5038842727771
 31
0.0
 11
91.00957976605456
 21
106.4349225547054
 31
0.0
 11
90.53384725309076
 21
106.4122857206407
 31
0.0
 11
90.05921355766444
 21
106.436128553346
 31
0.0
 11
89.58916691931259
 21
106.5060200975848
 31
0.0
 11
89.1287296025561
 21
106.6211977468197
 31
0.0
 11
88.68163054101451
 21
106.7806480684243
 31
0.0
 11
88.25214440017638
 21
106.9829931899128
 31
0.0
 11
87.8446080718078
 21
107.2261026093513
 31
0.0
 11
87.65000547339596
 21
107.3625094207835
 31
0.0
 11
87.46238780961832
 21
107.5082509550836
 31
0.0
 11
87.281946503397
 21
107.6631867194949
 31
0.0
 11
87.10928511279405
 21
107.8268586554668
 31
0.0
 11
86.78894259731358
 21
108.1789318435845
 31
0.0
 11
86.50457056189555
 21
108.5609426950238
 31
0.0
 11
86.25927340236923
 21
108.9690046728901
 31
0.0
 11
86.05534493045279
 21
109.3991294683816
 31
0.0
 11
85.89472934985946
 21
109.8473443642257
 31
0.0
 11
85.77885540395653
 21
110.3093123903638
 31
0.0
 11
85.70893497063712
 21
110.7798255234325
 31
0.0
 11
85.6855837568
 21
111.2544299102
 31
0.0
  0
SPLINE
  5
FF
330
1F
100
AcDbEntity
  8
0
  6
Continuous
 62
     7
100
AcDbSpline
210
0.0
220
0.0
230
1.0
 70
     8
 71
     3
 72
    27
 73
    23
 74
    21
 42
0.0000000001
 43
0.0000000001
 44
0.00000001
 40
0.0
 40
0.0
 40
0.0
 40
0.0
 40
0.1071078874242698
 40
0.2142469263329235
 40
0.3135924363047485
 40
0.4129188580361661
 40
0.5028493808353073
 40
0.5928506536297362
 40
0.6735107911531727
 40
0.753830917289885
 40
0.7916625684487074
 40
0.8294887980473269
 40
0.8669784898694379
 40
0.9044676327745004
 40
0.9428631026600586
 40
0.9812651394266598
 40
1.021657815458435
 40
1.062056720291049
 40
1.151027619782345
 40
1.240302097125602
 40
1.34099708332289
 40
1.441556404334544
 40
1.441556404334544
 40
1.441556404334544
 40
1.441556404334544
 10
63.6393961676
 20
99.4914928803
 30
0.0
 10
63.60952017246404
 20
99.47193107206073
 30
0.0
 10
63.54975949299455
 20
99.43280176618455
 30
0.0
 10
63.45854469577351
 20
99.38157111252332
 30
0.0
 10
63.36675651035594
 20
99.3370708033178
 30
0.0
 10
63.27705603989359
 20
99.30197727230751
 30
0.0
 10
63.18754425176307
 20
99.27590230141926
 30
0.0
 10
63.10162275181981
 20
99.26146249642704
 30
0.0
 10
63.01771262475992
 20
99.25918316817243
 30
0.0
 10
62.95164916127646
 20
99.26862576098338
 30
0.0
 10
62.90189808175771
 20
99.28401848028658
 30
0.0
 10
62.8671849109504
 20
99.2989664017249
 30
0.0
 10
62.83448090556671
 20
99.3176829063745
 30
0.0
 10
62.8039199576088
 20
99.34005072661098
 30
0.0
 10
62.77589326466067
 20
99.3659732237067
 30
0.0
 10
62.75019101020678
 20
99.39548302224625
 30
0.0
 10
62.72730337922317
 20
99.42804527520788
 30
0.0
 10
62.69925845773112
 20
99.47727028221264
 30
0.0
 10
62.67184742928519
 20
99.54521373836677
 30
0.0
 10
62.64975639734769
 20
99.6357212896669
 30
0.0
 10
62.63691948420004
 20
99.73195112501962
 30
0.0
 10
62.63558421043142
 20
99.79906057179443
 30
0.0
 10
62.6349170236
 20
99.832592676
 30
0.0
 11
63.6393961676
 21
99.4914928803
 31
0.0
 11
63.54912900887719
 21
99.43383926285406
 31
0.0
 11
63.45576210630577
 21
99.38129028415335
 31
0.0
 11
63.36622106991874
 21
99.33825619122346
 31
0.0
 11
63.27362878493466
 21
99.30230613120412
 31
0.0
 11
63.18715419710491
 21
99.27761514923495
 31
0.0
 11
63.09832395748013
 21
99.26314388001549
 31
0.0
 11
63.01768125994423
 21
99.26146664436364
 31
0.0
 11
62.93825840880751
 21
99.27343883630718
 31
0.0
 11
62.90212651030909
 21
99.28465131775877
 31
0.0
 11
62.86740233178446
 21
99.29965315336104
 31
0.0
 11
62.83486235931694
 21
99.31827107979579
 31
0.0
 11
62.80461480747315
 21
99.34041879848674
 31
0.0
 11
62.77639225875526
 21
99.36645146741635
 31
0.0
 11
62.75113854904858
 21
99.3953818420056
 31
0.0
 11
62.72784619259178
 21
99.42838236333023
 31
0.0
 11
62.70778510964114
 21
99.46344836484911
 31
0.0
 11
62.67393596746575
 21
99.54572871809508
 31
0.0
 11
62.65212972706729
 21
99.63229903740023
 31
0.0
 11
62.63880530726966
 21
99.73210855639681
 31
0.0
 11
62.6349170236
 21
99.832592676
 31
0.0
  0
SPLINE
  5
100
330
1F
100
AcDbEntity
  8
0
  6
Continuous
 62
     7
100
AcDbSpline
210
0.0
220
0.0
230
1.0
 70
     8
 71
     3
 72
     9
 73
     5
 74
     3
 42
0.0000000001
 43
0.0000000001
 44
0.00000001
 40
0.0
 40
0.0
 40
0.0
 40
0.0
 40
0.1120698018611948
 40
0.2241876568939559
 40
0.2241876568939559
 40
0.2241876568939559
 40
0.2241876568939559
 10
63.8165870111
 20
99.3544298715
 30
0.0
 10
63.78571739904407
 20
99.3755311235916
 30
0.0
 10
63.72396493869248
 20
99.41774267554746
 30
0.0
 10
63.66758978584706
 20
99.46690596610489
 30
0.0
 10
63.6393961676
 20
99.4914928803
 30
0.0
 11
63.8165870111
 21
99.3544298715
 31
0.0
 11
63.725321925575
 21
99.419470817475
 31
0.0
 11
63.6393961676
 21
99.4914928803
 31
0.0
  0
SPLINE
  5
101
330
1F
100
AcDbEntity
  8
0
  6
Continuous
 62
     7
100
AcDbSpline
210
0.0
220
0.0
230
1.0
 70
     8
 71
     3
 72
     9
 73
     5
 74
     3
 42
0.0000000001
 43
0.0000000001
 44
0.00000001
 40
0.0
 40
0.0
 40
0.0
 40
0.0
 40
0.0350713346823131
 40
0.0701775724737568
 40
0.0701775724737568
 40
0.0701775724737568
 40
0.0701775724737568
 10
119.3724170236
 20
119.8591160947
 30
0.0
 10
119.3606852374736
 20
119.8597242478897
 30
0.0
 10
119.3372099897083
 20
119.8609411595051
 30
0.0
 10
119.3148733637742
 20
119.868265753196
 30
0.0
 10
119.3036994962
 20
119.8719298715
 30
0.0
 11
119.3724170236
 21
119.8591160947
 31
0.0
 11
119.3375060376
 21
119.862465956325
 31
0.0
 11
119.3036994962
 21
119.8719298715
 31
0.0
  0
SPLINE
  5
102
330
1F
100
AcDbEntity
  8
0
  6
Continuous
 62
     7
100
AcDbSpline
210
0.0
220
0.0
230
1.0
 70
     8
 71
     3
 72
     9
 73
     5
 74
     3
 42
0.0000000001
 43
0.0000000001
 44
0.00000001
 40
0.0
 40
0.0
 40
0.0
 40
0.0
 40
0.0351062377794149
 40
0.0701775723746317
 40
0.0701775723746317
 40
0.0701775723746317
 40
0.0701775723746317
 10
121.7661345509
 20
119.8719298715
 30
0.0
 10
121.75496068333
 20
119.868265753196
 30
0.0
 10
121.7326240574283
 20
119.8609411595131
 30
0.0
 10
121.7091488096968
 20
119.8597242478919
 30
0.0
 10
121.6974170236
 20
119.8591160947
 30
0.0
 11
121.7661345509
 21
119.8719298715
 31
0.0
 11
121.7323280095125
 21
119.862465956325
 31
0.0
 11
121.6974170236
 21
119.8591160947
 31
0.0
  0
SPLINE
  5
103
330
1F
100
AcDbEntity
  8
0
  6
Continuous
 62
     7
100
AcDbSpline
210
0.0
220
0.0
230
1.0
 70
     8
 71
     3
 72
     9
 73
     5
 74
     3
 42
0.0000000001
 43
0.0000000001
 44
0.00000001
 40
0.0
 40
0.0
 40
0.0
 40
0.0
 40
0.0350713345916362
 40
0.0701775723811571
 40
0.0701775723811571
 40
0.0701775723811571
 40
0.0701775723811571
 10
121.6974170236
 20
102.6497436483
 30
0.0
 10
121.7091488096979
 20
102.6491354951264
 30
0.0
 10
121.7326240574362
 20
102.6479185835417
 30
0.0
 10
121.7549606833312
 20
102.6405939898228
 30
0.0
 10
121.7661345509
 20
102.6369298715
 30
0.0
 11
121.6974170236
 21
102.6497436483
 31
0.0
 11
121.7323280095125
 21
102.6463937867125
 31
0.0
 11
121.7661345509
 21
102.6369298715
 31
0.0
  0
SPLINE
  5
104
330
1F
100
AcDbEntity
  8
0
  6
Continuous
 62
     7
100
AcDbSpline
210
0.0
220
0.0
230
1.0
 70
     8
 71
     3
 72
     9
 73
     5
 74
     3
 42
0.0000000001
 43
0.0000000001
 44
0.00000001
 40
0.0
 40
0.0
 40
0.0
 40
0.0
 40
0.0351062378015536
 40
0.0701775724802846
 40
0.0701775724802846
 40
0.0701775724802846
 40
0.0701775724802846
 10
119.3036994962
 20
102.6369298715
 30
0.0
 10
119.314873363773
 20
102.6405939898228
 30
0.0
 10
119.3372099897005
 20
102.6479185835497
 30
0.0
 10
119.3606852374726
 20
102.6491354951286
 30
0.0
 10
119.3724170236
 20
102.6497436483
 30
0.0
 11
119.3036994962
 21
102.6369298715
 31
0.0
 11
119.3375060376
 21
102.6463937867125
 31
0.0
 11
119.3724170236
 21
102.6497436483
 31
0.0
  0
SPLINE
  5
105
330
1F
100
AcDbEntity
  8
0
  6
Continuous
 62
     7
100
AcDbSpline
210
0.0
220
0.0
230
1.0
 70
     8
 71
     3
 72
    11
 73
     7
 74
     5
 42
0.0000000001
 43
0.0000000001
 44
0.00000001
 40
0.0
 40
0.0
 40
0.0
 40
0.0
 40
0.0910518968371183
 40
0.1822839482515624
 40
0.2734564444529873
 40
0.3645245916760776
 40
0.3645245916760776
 40
0.3645245916760776
 40
0.3645245916760776
 10
64.1548574358
 20
99.2268149314
 30
0.0
 10
64.12483565246959
 20
99.231565300011
 30
0.0
 10
64.064732684941
 20
99.24107543627554
 30
0.0
 10
63.97785784205617
 20
99.26971413781803
 30
0.0
 10
63.89439881420443
 20
99.30688074122835
 30
0.0
 10
63.84251437598283
 20
99.33858621281033
 30
0.0
 10
63.8165870111
 20
99.3544298715
 30
0.0
 11
64.1548574358
 21
99.2268149314
 31
0.0
 11
64.06533922022044
 21
99.24345635553043
 31
0.0
 11
63.97840973700124
 21
99.27114303378063
 31
0.0
 11
63.89530108298327
 21
99.30863137451374
 31
0.0
 11
63.8165870111
 21
99.3544298715
 31
0.0
  0
SPLINE
  5
106
330
1F
100
AcDbEntity
  8
0
  6
Continuous
 62
     7
100
AcDbSpline
210
0.0
220
0.0
230
1.0
 70
     8
 71
     3
 72
    15
 73
    11
 74
     9
 42
0.0000000001
 43
0.0000000001
 44
0.00000001
 40
0.0
 40
0.0
 40
0.0
 40
0.0
 40
0.0859836995368651
 40
0.17219993236591
 40
0.2661861164068591
 40
0.3601417519762899
 40
0.4630205933503727
 40
0.5659790425521024
 40
0.6760998091554247
 40
0.7860512516530471
 40
0.7860512516530471
 40
0.7860512516530471
 40
0.7860512516530471
 10
122.4011117056
 20
120.2719298715
 30
0.0
 10
122.3881304273831
 20
120.2463167807628
 30
0.0
 10
122.3621327645352
 20
120.1950213315512
 30
0.0
 10
122.3077385991321
 20
120.1243365282464
 30
0.0
 10
122.2428181224818
 20
120.0596807854113
 30
0.0
 10
122.1650613625996
 20
120.0013008337197
 30
0.0
 10
122.0777699626489
 20
119.9520243523437
 30
0.0
 10
121.9798914507859
 20
119.9125650869748
 30
0.0
 10
121.8756063854696
 20
119.8840811362101
 30
0.0
 10
121.80260644031
 20
119.8759782149341
 30
0.0
 10
121.7661345509
 20
119.8719298715
 30
0.0
 11
122.4011117056
 21
120.2719298715
 31
0.0
 11
122.3598763803564
 21
120.1964789302329
 31
0.0
 11
122.3079876905587
 21
120.1276254432165
 31
0.0
 11
122.2413740441237
 21
120.0613229176296
 31
0.0
 11
122.1663796778325
 21
120.0047233904245
 31
0.0
 11
122.0768361770337
 21
119.9540675174463
 31
0.0
 11
121.9814609898099
 21
119.9152858732825
 31
0.0
 11
121.8750626453893
 21
119.8868961649031
 31
0.0
 11
121.7661345509
 21
119.8719298715
 31
0.0
  0
SPLINE
  5
107
330
1F
100
AcDbEntity
  8
0
  6
Continuous
 62
     7
100
AcDbSpline
210
0.0
220
0.0
230
1.0
 70
     8
 71
     3
 72
    15
 73
    11
 74
     9
 42
0.0000000001
 43
0.0000000001
 44
0.00000001
 40
0.0
 40
0.0
 40
0.0
 40
0.0
 40
0.109954880098213
 40
0.2200790833910811
 40
0.3230356139715039
 40
0.4259125292423788
 40
0.5198670387592204
 40
0.6138521143600457
 40
0.7000679720252252
 40
0.7860512885093299
 40
0.7860512885093299
 40
0.7860512885093299
 40
0.7860512885093299
 10
119.3036994962
 20
119.8719298715
 30
0.0
 10
119.2672264670507
 20
119.8759783640018
 30
0.0
 10
119.1942242427156
 20
119.8840815834145
 30
0.0
 10
119.0899376862894
 20
119.912566490175
 30
0.0
 10
118.9920595888214
 20
119.9520264013636
 30
0.0
 10
118.904769933253
 20
120.0013025801564
 30
0.0
 10
118.8270145723586
 20
120.0596820714654
 30
0.0
 10
118.7620949116587
 20
120.1243373785416
 30
0.0
 10
118.7077011315465
 20
120.1950216819293
 30
0.0
 10
118.6817035689741
 20
120.2463168983357
 30
0.0
 10
118.6687223415
 20
120.2719298715
 30
0.0
 11
119.3036994962
 21
119.8719298715
 31
0.0
 11
119.1947680159717
 21
119.8868967774157
 31
0.0
 11
119.0883664945888
 21
119.915287909804
 31
0.0
 11
118.9929933584568
 21
119.9540695045816
 31
0.0
 11
118.9034518314446
 21
120.0047249547916
 31
0.0
 11
118.8284586256851
 21
120.0613241504438
 31
0.0
 11
118.7618459403649
 21
120.1276260704018
 31
0.0
 11
118.7099575000282
 21
120.1964792756458
 31
0.0
 11
118.6687223415
 21
120.2719298715
 31
0.0
  0
SPLINE
  5
108
330
1F
100
AcDbEntity
  8
0
  6
Continuous
 62
     7
100
AcDbSpline
210
0.0
220
0.0
230
1.0
 70
     8
 71
     3
 72
    15
 73
    11
 74
     9
 42
0.0000000001
 43
0.0000000001
 44
0.00000001
 40
0.0
 40
0.0
 40
0.0
 40
0.0
 40
0.0859833165062267
 40
0.1721991741977613
 40
0.2661842497936645
 40
0.3601387592999019
 40
0.4630156745773683
 40
0.5659722051619771
 40
0.6760964084467265
 40
0.7860512885413145
 40
0.7860512885413145
 40
0.7860512885413145
 40
0.7860512885413145
 10
118.6687223415
 20
102.2369298715
 30
0.0
 10
118.6817035689748
 20
102.262542844672
 30
0.0
 10
118.7077011315491
 20
102.313838061095
 30
0.0
 10
118.7620949116459
 20
102.3845223645132
 30
0.0
 10
118.8270145723564
 20
102.4491776715867
 30
0.0
 10
118.9047699332618
 20
102.5075571628745
 30
0.0
 10
118.9920595888198
 20
102.5568333416824
 30
0.0
 10
119.0899376862825
 20
102.5962932528922
 30
0.0
 10
119.194224242719
 20
102.6247781596088
 30
0.0
 10
119.2672264670514
 20
102.6328813790058
 30
0.0
 10
119.3036994962
 20
102.6369298715
 30
0.0
 11
118.6687223415
 21
102.2369298715
 31
0.0
 11
118.7099575000282
 21
102.3123804673794
 31
0.0
 11
118.7618459403649
 21
102.3812336726564
 31
0.0
 11
118.8284586256851
 21
102.4475355926075
 31
0.0
 11
118.9034518314446
 21
102.504134788242
 31
0.0
 11
118.9929933584568
 21
102.5547902384654
 31
0.0
 11
119.0883664945888
 21
102.5935718332542
 31
0.0
 11
119.1947680159717
 21
102.621962965611
 31
0.0
 11
119.3036994962
 21
102.6369298715
 31
0.0
  0
SPLINE
  5
109
330
1F
100
AcDbEntity
  8
0
  6
Continuous
 62
     7
100
AcDbSpline
210
0.0
220
0.0
230
1.0
 70
     8
 71
     3
 72
    15
 73
    11
 74
     9
 42
0.0000000001
 43
0.0000000001
 44
0.00000001
 40
0.0
 40
0.0
 40
0.0
 40
0.0
 40
0.1099514424936943
 40
0.2200722090847114
 40
0.323030658278733
 40
0.4259094996513759
 40
0.5198651352208294
 40
0.6138513192617786
 40
0.700067552100802
 40
0.7860512517144453
 40
0.7860512517144453
 40
0.7860512517144453
 40
0.7860512517144453
 10
121.7661345509
 20
102.6369298715
 30
0.0
 10
121.8026064403092
 20
102.6328815280736
 30
0.0
 10
121.8756063854645
 20
102.6247786068133
 30
0.0
 10
121.9798914507884
 20
102.5962946561074
 30
0.0
 10
122.0777699626519
 20
102.5568353907546
 30
0.0
 10
122.1650613626
 20
102.50755890938
 30
0.0
 10
122.2428181224819
 20
102.4491789576887
 30
0.0
 10
122.3077385991341
 20
102.3845232148515
 30
0.0
 10
122.362132764556
 20
102.3138384115221
 30
0.0
 10
122.3881304273866
 20
102.2625429622682
 30
0.0
 10
122.4011117056
 20
102.2369298715
 30
0.0
 11
121.7661345509
 21
102.6369298715
 31
0.0
 11
121.8750626453894
 21
102.6219635781258
 31
0.0
 11
121.9814609898099
 21
102.5935738697941
 31
0.0
 11
122.0768361770337
 21
102.5547922256508
 31
0.0
 11
122.1663796778325
 21
102.5041363526755
 31
0.0
 11
122.2413740441237
 21
102.4475368254705
 31
0.0
 11
122.3079876905587
 21
102.3812342998835
 31
0.0
 11
122.3598763803564
 21
102.3123808128546
 31
0.0
 11
122.4011117056
 21
102.2369298715
 31
0.0
  0
SPLINE
  5
10A
330
1F
100
AcDbEntity
  8
0
  6
Continuous
 62
     7
100
AcDbSpline
210
0.0
220
0.0
230
1.0
 70
     8
 71
     3
 72
    11
 73
     7
 74
     5
 42
0.0000000001
 43
0.0000000001
 44
0.00000001
 40
0.0
 40
0.0
 40
0.0
 40
0.0
 40
0.0527674945792484
 40
0.105562389775733
 40
0.2638740940550384
 40
0.4221222824025797
 40
0.4221222824025797
 40
0.4221222824025797
 40
0.4221222824025797
 10
122.3857501928
 20
86.0044298715
 30
0.0
 10
122.3907415623455
 20
85.98756026186076
 30
0.0
 10
122.4007268933087
 20
85.95381228268721
 30
0.0
 10
122.4214049044418
 20
85.8683105376154
 30
0.0
 10
122.4425051156252
 20
85.74659086670023
 30
0.0
 10
122.4457799399667
 20
85.64101886696079
 30
0.0
 10
122.4474170236
 20
85.5882434583
 30
0.0
 11
122.3857501928
 21
86.0044298715
 31
0.0
 11
122.4002962419413
 21
85.9537068891493
 31
0.0
 11
122.4128558881314
 21
85.9024276901853
 31
0.0
 11
122.4388049179084
 21
85.74625713097055
 31
0.0
 11
122.4474170236
 21
85.5882434583
 31
0.0
  0
SPLINE
  5
10B
330
1F
100
AcDbEntity
  8
0
  6
Continuous
 62
     7
100
AcDbSpline
210
0.0
220
0.0
230
1.0
 70
     8
 71
     3
 72
     9
 73
     5
 74
     3
 42
0.0000000001
 43
0.0000000001
 44
0.00000001
 40
0.0
 40
0.0
 40
0.0
 40
0.0
 40
0.2109866005132259
 40
0.4218962682890616
 40
0.4218962682890616
 40
0.4218962682890616
 40
0.4218962682890616
 10
118.6224170236
 20
85.5882434583
 30
0.0
 10
118.6249440631191
 20
85.65876933448428
 30
0.0
 10
118.6299972207145
 20
85.79979537077088
 30
0.0
 10
118.6660571682806
 20
85.93622666400066
 30
0.0
 10
118.6840838543
 20
86.0044298715
 30
0.0
 11
118.6224170236
 21
85.5882434583
 31
0.0
 11
118.63775266695
 21
85.798671982125
 31
0.0
 11
118.6840838543
 21
86.0044298715
 31
0.0
  0
SPLINE
  5
10C
330
1F
100
AcDbEntity
  8
0
  6
Continuous
 62
     7
100
AcDbSpline
210
0.0
220
0.0
230
1.0
 70
     8
 71
     3
 72
    11
 73
     7
 74
     5
 42
0.0000000001
 43
0.0000000001
 44
0.00000001
 40
0.0
 40
0.0
 40
0.0
 40
0.0
 40
0.7132110075096221
 40
1.426361317768408
 40
1.831519457909859
 40
2.236026825432804
 40
2.236026825432804
 40
2.236026825432804
 40
2.236026825432804
 10
63.639396167735
 20
99.4914928801921
 30
0.0
 10
63.74860863020109
 20
99.70297248337423
 30
0.0
 10
63.96702426069427
 20
100.1259136919365
 30
0.0
 10
64.16141699687407
 20
100.7072630675221
 30
0.0
 10
64.26673519315639
 20
101.2054020329096
 30
0.0
 10
64.27885966181915
 20
101.4754558931409
 30
0.0
 10
64.2849170236
 20
101.6103742947
 30
0.0
 11
63.639396167735
 21
99.4914928801921
 31
0.0
 11
63.95027579626913
 21
100.1333836791567
 31
0.0
 11
64.17729000865542
 21
100.8094368667069
 31
0.0
 11
64.25579452912687
 21
101.2069166256739
 31
0.0
 11
64.2849170236
 21
101.6103742947
 31
0.0
  0
SPLINE
  5
10D
330
1F
100
AcDbEntity
  8
0
  6
Continuous
 62
     7
100
AcDbSpline
210
0.0
220
0.0
230
1.0
 70
     8
 71
     3
 72
    11
 73
     7
 74
     5
 42
0.0000000001
 43
0.0000000001
 44
0.00000001
 40
0.0
 40
0.0
 40
0.0
 40
0.0
 40
0.621075738066904
 40
1.242411211129381
 40
1.739180735560724
 40
2.235731818863783
 40
2.235731818863783
 40
2.235731818863783
 40
2.235731818863783
 10
64.2849170236
 20
120.8984854483
 30
0.0
 10
64.27072034431245
 20
121.1056520506613
 30
0.0
 10
64.24232104866044
 20
121.5200718928313
 30
0.0
 10
64.07234806932968
 20
122.0782170887292
 30
0.0
 10
63.87129018978688
 20
122.5777719050459
 30
0.0
 10
63.716682841852
 20
122.870856694312
 30
0.0
 10
63.639396167735
 20
123.017366862808
 30
0.0
 11
64.2849170236
 21
120.8984854483
 31
0.0
 11
64.2190808120635
 21
121.5160618935
 31
0.0
 11
64.05092439226344
 21
122.1142100261275
 31
0.0
 11
63.86352996198053
 21
122.5742788121831
 31
0.0
 11
63.639396167735
 21
123.017366862808
 31
0.0
  0
DIMENSION
  5
118
330
1F
100
AcDbEntity
  8
1
100
AcDbDimension
  2
*D2
 10
220.006626517837
 20
121.2544298715
 30
0.0
 11
216.256626517837
 21
111.454382811167
 31
0.0
 70
    32
  1
<>
 71
     5
 42
-1.0
 53
90.0
  3
ME10_DIM_10
100
AcDbAlignedDimension
 13
207.5349170236
 23
101.2544298715
 33
0.0
 14
207.5349170236
 24
121.2544298715
 34
0.0
 50
90.0
100
AcDbRotatedDimension
  0
DIMENSION
  5
123
330
1F
100
AcDbEntity
  8
1
100
AcDbDimension
  2
*D3
 10
229.299464904743
 20
127.7544298715466
 30
0.0
 11
225.549464904743
 21
111.454382811167
 31
0.0
 70
    32
  1
<>
 71
     5
 42
-1.0
 53
90.0
  3
ME10_DIM_11
100
AcDbAlignedDimension
 13
207.5349170236
 23
94.7544298714559
 33
0.0
 14
207.5349170236
 24
127.7544298715466
 34
0.0
 50
90.0
100
AcDbRotatedDimension
  0
DIMENSION
  5
12E
330
1F
100
AcDbEntity
  8
1
100
AcDbDimension
  2
*D4
 10
238.869701452452
 20
132.2544298715
 30
0.0
 11
235.119701452452
 21
111.870480052371
 31
0.0
 70
    32
  1
<>
 71
     5
 42
-1.0
 53
90.0
  3
ME10_DIM_12
100
AcDbAlignedDimension
 13
150.3569957108
 23
90.2544298715
 33
0.0
 14
150.3569957108
 24
132.2544298715
 34
0.0
 50
90.0
100
AcDbRotatedDimension
  0
DIMENSION
  5
139
330
1F
100
AcDbEntity
  8
1
100
AcDbDimension
  2
*D5
 10
207.5349170236
 20
160.137760032122
 30
0.0
 11
165.08179067881
 21
163.887760032122
 31
0.0
 70
    32
  1
<>
 71
     5
 42
-1.0
 53
0.00013888888889
  3
ME10_DIM_13
100
AcDbAlignedDimension
 13
128.4849170236
 23
151.2543877061
 33
0.0
 14
207.5349170236
 24
126.8300393799
 34
0.0
100
AcDbRotatedDimension
  0
DIMENSION
  5
144
330
1F
100
AcDbEntity
  8
1
100
AcDbDimension
  2
*D6
 10
207.5349170236
 20
167.904908534611
 30
0.0
 11
152.044077121062
 21
171.654908534611
 31
0.0
 70
    32
  1
<>
 71
     5
 42
-1.0
 53
0.00013888888889
  3
ME10_DIM_14
100
AcDbAlignedDimension
 13
102.5349170236
 23
151.2544298715
 33
0.0
 14
207.5349170236
 24
126.8300393799
 34
0.0
100
AcDbRotatedDimension
  0
DIMENSION
  5
14F
330
1F
100
AcDbEntity
  8
1
100
AcDbDimension
  2
*D7
 10
207.5349170236
 20
175.533357956698
 30
0.0
 11
140.670752528132
 21
179.283357956698
 31
0.0
 70
    32
  1
<>
 71
     5
 42
-1.0
 53
0.00013888888889
  3
ME10_DIM_15
100
AcDbAlignedDimension
 13
62.6349170236
 23
138.1403506716
 33
0.0
 14
207.5349170236
 24
126.8300393799
 34
0.0
100
AcDbRotatedDimension
  0
INSERT
  5
156
330
1F
100
AcDbEntity
  8
1
100
AcDbBlockReference
  2
*D8
 10
0.0
 20
0.0
 30
0.0
  0
DIMENSION
  5
161
330
1F
100
AcDbEntity
  8
1
100
AcDbDimension
  2
*D9
 10
184.8795992161184
 20
130.8980330856
 30
0.0
 11
187.744271404659
 21
140.5624608714111
 31
0.0
 70
    37
  1
<>
 71
     5
 42
-1.0
  3
ME10_DIM_16
100
AcDb3PointAngularDimension
 13
184.7997316520299
 23
129.5437277652302
 33
0.0
 14
153.811919682505
 24
132.2544298715
 34
0.0
 15
150.3569957108
 25
132.2544298715
 35
0.0
  0
ENDSEC
  0
SECTION
  2
OBJECTS
  0
DICTIONARY
  5
C
330
0
100
AcDbDictionary
281
     1
  3
ACAD_GROUP
350
D
  3
ACAD_LAYOUT
350
1A
  3
ACAD_MLEADERSTYLE
350
164
  3
ACAD_MLINESTYLE
350
17
  3
ACAD_PLOTSETTINGS
350
19
  3
ACAD_PLOTSTYLENAME
350
E
  3
ACAD_SCALELIST
350
4C
  3
ACAD_VISUALSTYLE
350
2A
  3
AcDbVariableDictionary
350
162
  0
DICTIONARY
  5
D
102
{ACAD_REACTORS
330
C
102
}
330
C
100
AcDbDictionary
281
     1
  0
DICTIONARY
  5
1A
102
{ACAD_REACTORS
330
C
102
}
330
C
100
AcDbDictionary
281
     1
  3
Layout1
350
1E
  3
Layout2
350
26
  3
Model
350
22
  0
DICTIONARY
  5
164
102
{ACAD_REACTORS
330
C
102
}
330
C
100
AcDbDictionary
281
     1
  0
DICTIONARY
  5
17
102
{ACAD_REACTORS
330
C
102
}
330
C
100
AcDbDictionary
281
     1
  3
Standard
350
18
  0
DICTIONARY
  5
19
102
{ACAD_REACTORS
330
C
102
}
330
C
100
AcDbDictionary
281
     1
  0
ACDBDICTIONARYWDFLT
  5
E
102
{ACAD_REACTORS
330
C
102
}
330
C
100
AcDbDictionary
281
     1
  3
Normal
350
F
100
AcDbDictionaryWithDefault
340
F
  0
DICTIONARY
  5
4C
102
{ACAD_REACTORS
330
C
102
}
330
C
100
AcDbDictionary
281
     1
  3
A0
350
4D
  3
A1
350
4E
  3
A2
350
4F
  3
A3
350
50
  3
A4
350
51
  3
A5
350
52
  3
A6
350
53
  3
A7
350
54
  3
A8
350
55
  3
A9
350
56
  3
B0
350
57
  3
B1
350
58
  3
B2
350
59
  3
B3
350
5A
  3
B4
350
5B
  3
B5
350
5C
  3
B6
350
5D
  3
B7
350
5E
  3
B8
350
5F
  3
B9
350
60
  3
C0
350
61
  3
C1
350
62
  3
C2
350
63
  3
C3
350
64
  3
C4
350
65
  3
C5
350
66
  3
C6
350
67
  3
C7
350
68
  3
C8
350
69
  3
C9
350
6A
  3
D0
350
6B
  3
D1
350
6C
  3
D2
350
6D
  0
DICTIONARY
  5
2A
102
{ACAD_REACTORS
330
C
102
}
330
C
100
AcDbDictionary
281
     1
  3
2dWireframe
350
2F
  3
3D Hidden
350
31
  3
3dWireframe
350
30
  3
Basic
350
32
  3
Brighten
350
36
  3
ColorChange
350
3A
  3
Conceptual
350
34
  3
Dim
350
35
  3
Facepattern
350
39
  3
Flat
350
2B
  3
FlatWithEdges
350
2C
  3
Gouraud
350
2D
  3
GouraudWithEdges
350
2E
  3
Linepattern
350
38
  3
Realistic
350
33
  3
Thicken
350
37
  0
DICTIONARY
  5
162
102
{ACAD_REACTORS
330
C
102
}
330
C
100
AcDbDictionary
281
     1
  3
CANNOSCALE
350
165
  0
LAYOUT
  5
1E
102
{ACAD_REACTORS
330
1A
102
}
330
1A
100
AcDbPlotSettings
  1

  2
none_device
  4

  6

 40
0.0
 41
0.0
 42
0.0
 43
0.0
 44
0.0
 45
0.0
 46
0.0
 47
0.0
 48
0.0
 49
0.0
140
0.0
141
0.0
142
1.0
143
1.0
 70
   688
 72
     0
 73
     0
 74
     5
  7

 75
    16
147
1.0
148
0.0
149
0.0
100
AcDbLayout
  1
Layout1
 70
     1
 71
     1
 10
0.0
 20
0.0
 11
12.0
 21
9.0
 12
0.0
 22
0.0
 32
0.0
 14
1.00000000000000E+20
 24
1.00000000000000E+20
 34
1.00000000000000E+20
 15
-1.00000000000000E+20
 25
-1.00000000000000E+20
 35
-1.00000000000000E+20
146
0.0
 13
0.0
 23
0.0
 33
0.0
 16
1.0
 26
0.0
 36
0.0
 17
0.0
 27
1.0
 37
0.0
 76
     0
330
1B
  0
LAYOUT
  5
26
102
{ACAD_REACTORS
330
1A
102
}
330
1A
100
AcDbPlotSettings
  1

  2
none_device
  4

  6

 40
0.0
 41
0.0
 42
0.0
 43
0.0
 44
0.0
 45
0.0
 46
0.0
 47
0.0
 48
0.0
 49
0.0
140
0.0
141
0.0
142
1.0
143
1.0
 70
   688
 72
     0
 73
     0
 74
     5
  7

 75
    16
147
1.0
148
0.0
149
0.0
100
AcDbLayout
  1
Layout2
 70
     1
 71
     2
 10
0.0
 20
0.0
 11
0.0
 21
0.0
 12
0.0
 22
0.0
 32
0.0
 14
0.0
 24
0.0
 34
0.0
 15
0.0
 25
0.0
 35
0.0
146
0.0
 13
0.0
 23
0.0
 33
0.0
 16
1.0
 26
0.0
 36
0.0
 17
0.0
 27
1.0
 37
0.0
 76
     0
330
23
  0
LAYOUT
  5
22
102
{ACAD_REACTORS
330
1A
102
}
330
1A
100
AcDbPlotSettings
  1

  2
none_device
  4

  6

 40
0.0
 41
0.0
 42
0.0
 43
0.0
 44
0.0
 45
0.0
 46
0.0
 47
0.0
 48
0.0
 49
0.0
140
0.0
141
0.0
142
1.0
143
1.0
 70
  1712
 72
     0
 73
     0
 74
     0
  7

 75
     0
147
1.0
148
0.0
149
0.0
100
AcDbLayout
  1
Model
 70
     1
 71
     0
 10
0.0
 20
0.0
 11
12.0
 21
9.0
 12
0.0
 22
0.0
 32
0.0
 14
39.0129337143318
 24
71.2544298715
 34
0.0
 15
240.869701452452
 25
181.033357956698
 35
0.0
146
0.0
 13
0.0
 23
0.0
 33
0.0
 16
1.0
 26
0.0
 36
0.0
 17
0.0
 27
1.0
 37
0.0
 76
     0
330
1F
331
29
  0
MLINESTYLE
  5
18
102
{ACAD_REACTORS
330
17
102
}
330
17
100
AcDbMlineStyle
  2
Standard
 70
     0
  3

 62
   256
 51
90.0
 52
90.0
 71
     2
 49
0.5
 62
   256
  6
BYLAYER
 49
-0.5
 62
   256
  6
BYLAYER
  0
ACDBPLACEHOLDER
  5
F
102
{ACAD_REACTORS
330
E
102
}
330
E
  0
SCALE
  5
4D
102
{ACAD_REACTORS
330
4C
102
}
330
4C
100
AcDbScale
 70
     0
300
1:1
140
1.0
141
1.0
290
     1
  0
SCALE
  5
4E
102
{ACAD_REACTORS
330
4C
102
}
330
4C
100
AcDbScale
 70
     0
300
1:2
140
1.0
141
2.0
290
     0
  0
SCALE
  5
4F
102
{ACAD_REACTORS
330
4C
102
}
330
4C
100
AcDbScale
 70
     0
300
1:4
140
1.0
141
4.0
290
     0
  0
SCALE
  5
50
102
{ACAD_REACTORS
330
4C
102
}
330
4C
100
AcDbScale
 70
     0
300
1:5
140
1.0
141
5.0
290
     0
  0
SCALE
  5
51
102
{ACAD_REACTORS
330
4C
102
}
330
4C
100
AcDbScale
 70
     0
300
1:8
140
1.0
141
8.0
290
     0
  0
SCALE
  5
52
102
{ACAD_REACTORS
330
4C
102
}
330
4C
100
AcDbScale
 70
     0
300
1:10
140
1.0
141
10.0
290
     0
  0
SCALE
  5
53
102
{ACAD_REACTORS
330
4C
102
}
330
4C
100
AcDbScale
 70
     0
300
1:16
140
1.0
141
16.0
290
     0
  0
SCALE
  5
54
102
{ACAD_REACTORS
330
4C
102
}
330
4C
100
AcDbScale
 70
     0
300
1:20
140
1.0
141
20.0
290
     0
  0
SCALE
  5
55
102
{ACAD_REACTORS
330
4C
102
}
330
4C
100
AcDbScale
 70
     0
300
1:30
140
1.0
141
30.0
290
     0
  0
SCALE
  5
56
102
{ACAD_REACTORS
330
4C
102
}
330
4C
100
AcDbScale
 70
     0
300
1:40
140
1.0
141
40.0
290
     0
  0
SCALE
  5
57
102
{ACAD_REACTORS
330
4C
102
}
330
4C
100
AcDbScale
 70
     0
300
1:50
140
1.0
141
50.0
290
     0
  0
SCALE
  5
58
102
{ACAD_REACTORS
330
4C
102
}
330
4C
100
AcDbScale
 70
     0
300
1:100
140
1.0
141
100.0
290
     0
  0
SCALE
  5
59
102
{ACAD_REACTORS
330
4C
102
}
330
4C
100
AcDbScale
 70
     0
300
2:1
140
2.0
141
1.0
290
     0
  0
SCALE
  5
5A
102
{ACAD_REACTORS
330
4C
102
}
330
4C
100
AcDbScale
 70
     0
300
4:1
140
4.0
141
1.0
290
     0
  0
SCALE
  5
5B
102
{ACAD_REACTORS
330
4C
102
}
330
4C
100
AcDbScale
 70
     0
300
8:1
140
8.0
141
1.0
290
     0
  0
SCALE
  5
5C
102
{ACAD_REACTORS
330
4C
102
}
330
4C
100
AcDbScale
 70
     0
300
10:1
140
10.0
141
1.0
290
     0
  0
SCALE
  5
5D
102
{ACAD_REACTORS
330
4C
102
}
330
4C
100
AcDbScale
 70
     0
300
100:1
140
100.0
141
1.0
290
     0
  0
SCALE
  5
5E
102
{ACAD_REACTORS
330
4C
102
}
330
4C
100
AcDbScale
 70
     0
300
1/128" = 1'-0"
140
0.0078125
141
12.0
290
     0
  0
SCALE
  5
5F
102
{ACAD_REACTORS
330
4C
102
}
330
4C
100
AcDbScale
 70
     0
300
1/64" = 1'-0"
140
0.015625
141
12.0
290
     0
  0
SCALE
  5
60
102
{ACAD_REACTORS
330
4C
102
}
330
4C
100
AcDbScale
 70
     0
300
1/32" = 1'-0"
140
0.03125
141
12.0
290
     0
  0
SCALE
  5
61
102
{ACAD_REACTORS
330
4C
102
}
330
4C
100
AcDbScale
 70
     0
300
1/16" = 1'-0"
140
0.0625
141
12.0
290
     0
  0
SCALE
  5
62
102
{ACAD_REACTORS
330
4C
102
}
330
4C
100
AcDbScale
 70
     0
300
3/32" = 1'-0"
140
0.09375
141
12.0
290
     0
  0
SCALE
  5
63
102
{ACAD_REACTORS
330
4C
102
}
330
4C
100
AcDbScale
 70
     0
300
1/8" = 1'-0"
140
0.125
141
12.0
290
     0
  0
SCALE
  5
64
102
{ACAD_REACTORS
330
4C
102
}
330
4C
100
AcDbScale
 70
     0
300
3/16" = 1'-0"
140
0.1875
141
12.0
290
     0
  0
SCALE
  5
65
102
{ACAD_REACTORS
330
4C
102
}
330
4C
100
AcDbScale
 70
     0
300
1/4" = 1'-0"
140
0.25
141
12.0
290
     0
  0
SCALE
  5
66
102
{ACAD_REACTORS
330
4C
102
}
330
4C
100
AcDbScale
 70
     0
300
3/8" = 1'-0"
140
0.375
141
12.0
290
     0
  0
SCALE
  5
67
102
{ACAD_REACTORS
330
4C
102
}
330
4C
100
AcDbScale
 70
     0
300
1/2" = 1'-0"
140
0.5
141
12.0
290
     0
  0
SCALE
  5
68
102
{ACAD_REACTORS
330
4C
102
}
330
4C
100
AcDbScale
 70
     0
300
3/4" = 1'-0"
140
0.75
141
12.0
290
     0
  0
SCALE
  5
69
102
{ACAD_REACTORS
330
4C
102
}
330
4C
100
AcDbScale
 70
     0
300
1" = 1'-0"
140
1.0
141
12.0
290
     0
  0
SCALE
  5
6A
102
{ACAD_REACTORS
330
4C
102
}
330
4C
100
AcDbScale
 70
     0
300
1-1/2" = 1'-0"
140
1.5
141
12.0
290
     0
  0
SCALE
  5
6B
102
{ACAD_REACTORS
330
4C
102
}
330
4C
100
AcDbScale
 70
     0
300
3" = 1'-0"
140
3.0
141
12.0
290
     0
  0
SCALE
  5
6C
102
{ACAD_REACTORS
330
4C
102
}
330
4C
100
AcDbScale
 70
     0
300
6" = 1'-0"
140
6.0
141
12.0
290
     0
  0
SCALE
  5
6D
102
{ACAD_REACTORS
330
4C
102
}
330
4C
100
AcDbScale
 70
     0
300
1'-0" = 1'-0"
140
12.0
141
12.0
290
     0
  0
VISUALSTYLE
  5
2F
102
{ACAD_REACTORS
330
2A
102
}
330
2A
100
AcDbVisualStyle
  2
2dWireframe
 70
     4
 71
     0
 72
     2
 73
     0
 90
        0
 40
-0.6
 41
-30.0
 62
     5
 63
     7
 74
     1
 91
        4
 64
     7
 65
   257
 75
     1
175
     1
 42
1.0
 92
        0
 66
   257
 43
1.0
 76
     1
 77
     6
 78
     2
 67
     7
 79
     5
170
     0
171
     0
290
     0
174
     0
 93
        1
 44
0.0
173
     0
291
     0
 45
0.0
1001
ACAD
1000
AcDbSavedByObjectVersion
1070
     0
  0
VISUALSTYLE
  5
31
102
{ACAD_REACTORS
330
2A
102
}
330
2A
100
AcDbVisualStyle
  2
3D Hidden
 70
     6
 71
     1
 72
     2
 73
     2
 90
        0
 40
-0.6
 41
-30.0
 62
     5
 63
     7
 74
     2
 91
        2
 64
     7
 65
   257
 75
     2
175
     1
 42
40.0
 92
        0
 66
   257
 43
1.0
 76
     1
 77
     6
 78
     2
 67
     7
 79
     3
170
     0
171
     0
290
     0
174
     0
 93
        1
 44
0.0
173
     0
291
     0
 45
0.0
1001
ACAD
1000
AcDbSavedByObjectVersion
1070
     0
  0
VISUALSTYLE
  5
30
102
{ACAD_REACTORS
330
2A
102
}
330
2A
100
AcDbVisualStyle
  2
3dWireframe
 70
     5
 71
     0
 72
     2
 73
     0
 90
        0
 40
-0.6
 41
-30.0
 62
     5
 63
     7
 74
     1
 91
        4
 64
     7
 65
   257
 75
     1
175
     1
 42
1.0
 92
        0
 66
   257
 43
1.0
 76
     1
 77
     6
 78
     2
 67
     7
 79
     5
170
     0
171
     0
290
     0
174
     0
 93
        1
 44
0.0
173
     0
291
     0
 45
0.0
1001
ACAD
1000
AcDbSavedByObjectVersion
1070
     0
  0
VISUALSTYLE
  5
32
102
{ACAD_REACTORS
330
2A
102
}
330
2A
100
AcDbVisualStyle
  2
Basic
 70
     7
 71
     1
 72
     0
 73
     1
 90
        0
 40
-0.6
 41
-30.0
 62
     5
 63
     7
 74
     0
 91
        4
 64
     7
 65
   257
 75
     1
175
     1
 42
1.0
 92
        8
 66
     7
 43
1.0
 76
     1
 77
     6
 78
     2
 67
     7
 79
     5
170
     0
171
     0
290
     0
174
     0
 93
        1
 44
0.0
173
     0
291
     1
 45
0.0
1001
ACAD
1000
AcDbSavedByObjectVersion
1070
     0
  0
VISUALSTYLE
  5
36
102
{ACAD_REACTORS
330
2A
102
}
330
2A
100
AcDbVisualStyle
  2
Brighten
 70
    12
 71
     2
 72
     2
 73
     0
 90
        0
 40
-0.6
 41
-30.0
 62
     5
 63
     7
 74
     1
 91
        4
 64
     7
 65
   257
 75
     1
175
     1
 42
1.0
 92
        8
 66
     7
 43
1.0
 76
     1
 77
     6
 78
     2
 67
     7
 79
     5
170
     0
171
     0
290
     0
174
     0
 93
        1
 44
50.0
173
     0
291
     1
 45
0.0
1001
ACAD
1000
AcDbSavedByObjectVersion
1070
     0
  0
VISUALSTYLE
  5
3A
102
{ACAD_REACTORS
330
2A
102
}
330
2A
100
AcDbVisualStyle
  2
ColorChange
 70
    16
 71
     2
 72
     2
 73
     3
 90
        0
 40
-0.6
 41
-30.0
 62
     5
 63
     8
 74
     1
 91
        4
 64
     7
 65
   257
 75
     1
175
     1
 42
1.0
 92
        8
 66
     8
 43
1.0
 76
     1
 77
     6
 78
     2
 67
     7
 79
     5
170
     0
171
     0
290
     0
174
     0
 93
        1
 44
0.0
173
     0
291
     1
 45
0.0
1001
ACAD
1000
AcDbSavedByObjectVersion
1070
     0
  0
VISUALSTYLE
  5
34
102
{ACAD_REACTORS
330
2A
102
}
330
2A
100
AcDbVisualStyle
  2
Conceptual
 70
     9
 71
     3
 72
     2
 73
     0
 90
        0
 40
-0.6
 41
-30.0
 62
     5
 63
     7
 74
     2
 91
        2
 64
     7
 65
   257
 75
     1
175
     1
 42
40.0
 92
        8
 66
     7
 43
1.0
 76
     1
 77
     6
 78
     2
 67
     7
 79
     3
170
     0
171
     0
290
     0
174
     0
 93
        1
 44
0.0
173
     0
291
     0
 45
0.0
1001
ACAD
1000
AcDbSavedByObjectVersion
1070
     0
  0
VISUALSTYLE
  5
35
102
{ACAD_REACTORS
330
2A
102
}
330
2A
100
AcDbVisualStyle
  2
Dim
 70
    11
 71
     2
 72
     2
 73
     0
 90
        0
 40
-0.6
 41
-30.0
 62
     5
 63
     7
 74
     1
 91
        4
 64
     7
 65
   257
 75
     1
175
     1
 42
1.0
 92
        8
 66
     7
 43
1.0
 76
     1
 77
     6
 78
     2
 67
     7
 79
     5
170
     0
171
     0
290
     0
174
     0
 93
        1
 44
-50.0
173
     0
291
     1
 45
0.0
1001
ACAD
1000
AcDbSavedByObjectVersion
1070
     0
  0
VISUALSTYLE
  5
39
102
{ACAD_REACTORS
330
2A
102
}
330
2A
100
AcDbVisualStyle
  2
Facepattern
 70
    15
 71
     2
 72
     2
 73
     0
 90
        0
 40
-0.6
 41
-30.0
 62
     5
 63
     7
 74
     1
 91
        4
 64
     7
 65
   257
 75
     1
175
     1
 42
1.0
 92
        8
 66
     7
 43
1.0
 76
     1
 77
     6
 78
     2
 67
     7
 79
     5
170
     0
171
     0
290
     0
174
     0
 93
        1
 44
0.0
173
     0
291
     1
 45
0.0
1001
ACAD
1000
AcDbSavedByObjectVersion
1070
     0
  0
VISUALSTYLE
  5
2B
102
{ACAD_REACTORS
330
2A
102
}
330
2A
100
AcDbVisualStyle
  2
Flat
 70
     0
 71
     2
 72
     1
 73
     1
 90
        2
 40
-0.6
 41
30.0
 62
     5
 63
     7
 74
     0
 91
        4
 64
     7
 65
   257
 75
     1
175
     1
 42
1.0
 92
        8
 66
     7
 43
1.0
 76
     1
 77
     6
 78
     2
 67
     7
 79
     5
170
     0
171
     0
290
     0
174
     0
 93
       13
 44
0.0
173
     0
291
     1
 45
0.0
1001
ACAD
1000
AcDbSavedByObjectVersion
1070
     0
  0
VISUALSTYLE
  5
2C
102
{ACAD_REACTORS
330
2A
102
}
330
2A
100
AcDbVisualStyle
  2
FlatWithEdges
 70
     1
 71
     2
 72
     1
 73
     1
 90
        2
 40
-0.6
 41
30.0
 62
     5
 63
     7
 74
     1
 91
        4
 64
     7
 65
   257
 75
     1
175
     1
 42
1.0
 92
        0
 66
   257
 43
1.0
 76
     1
 77
     6
 78
     2
 67
     7
 79
     5
170
     0
171
     0
290
     0
174
     0
 93
       13
 44
0.0
173
     0
291
     1
 45
0.0
1001
ACAD
1000
AcDbSavedByObjectVersion
1070
     0
  0
VISUALSTYLE
  5
2D
102
{ACAD_REACTORS
330
2A
102
}
330
2A
100
AcDbVisualStyle
  2
Gouraud
 70
     2
 71
     2
 72
     2
 73
     1
 90
        2
 40
-0.6
 41
30.0
 62
     5
 63
     7
 74
     0
 91
        4
 64
     7
 65
   257
 75
     1
175
     1
 42
1.0
 92
        0
 66
     7
 43
1.0
 76
     1
 77
     6
 78
     2
 67
     7
 79
     5
170
     0
171
     0
290
     0
174
     0
 93
       13
 44
0.0
173
     0
291
     1
 45
0.0
1001
ACAD
1000
AcDbSavedByObjectVersion
1070
     0
  0
VISUALSTYLE
  5
2E
102
{ACAD_REACTORS
330
2A
102
}
330
2A
100
AcDbVisualStyle
  2
GouraudWithEdges
 70
     3
 71
     2
 72
     2
 73
     1
 90
        2
 40
-0.6
 41
30.0
 62
     5
 63
     7
 74
     1
 91
        4
 64
     7
 65
   257
 75
     1
175
     1
 42
1.0
 92
        0
 66
   257
 43
1.0
 76
     1
 77
     6
 78
     2
 67
     7
 79
     5
170
     0
171
     0
290
     0
174
     0
 93
       13
 44
0.0
173
     0
291
     1
 45
0.0
1001
ACAD
1000
AcDbSavedByObjectVersion
1070
     0
  0
VISUALSTYLE
  5
38
102
{ACAD_REACTORS
330
2A
102
}
330
2A
100
AcDbVisualStyle
  2
Linepattern
 70
    14
 71
     2
 72
     2
 73
     0
 90
        0
 40
-0.6
 41
-30.0
 62
     5
 63
     7
 74
     1
 91
        4
 64
     7
 65
   257
 75
     7
175
     7
 42
1.0
 92
        8
 66
     7
 43
1.0
 76
     1
 77
     6
 78
     2
 67
     7
 79
     5
170
     0
171
     0
290
     0
174
     0
 93
        1
 44
0.0
173
     0
291
     1
 45
0.0
1001
ACAD
1000
AcDbSavedByObjectVersion
1070
     0
  0
VISUALSTYLE
  5
33
102
{ACAD_REACTORS
330
2A
102
}
330
2A
100
AcDbVisualStyle
  2
Realistic
 70
     8
 71
     2
 72
     2
 73
     0
 90
        0
 40
-0.6
 41
-30.0
 62
     5
 63
     7
 74
     1
 91
        0
 64
     7
 65
   257
 75
     1
175
     1
 42
1.0
 92
        8
 66
     8
 43
1.0
 76
     1
 77
     6
 78
     2
 67
     7
 79
     5
170
     0
171
     0
290
     0
174
     0
 93
       13
 44
0.0
173
     0
291
     0
 45
0.0
1001
ACAD
1000
AcDbSavedByObjectVersion
1070
     0
  0
VISUALSTYLE
  5
37
102
{ACAD_REACTORS
330
2A
102
}
330
2A
100
AcDbVisualStyle
  2
Thicken
 70
    13
 71
     2
 72
     2
 73
     0
 90
        0
 40
-0.6
 41
-30.0
 62
     5
 63
     7
 74
     1
 91
        4
 64
     7
 65
   257
 75
     1
175
     1
 42
1.0
 92
       12
 66
     7
 43
1.0
 76
     1
 77
     6
 78
     2
 67
     7
 79
     5
170
     0
171
     0
290
     0
174
     0
 93
        1
 44
0.0
173
     0
291
     1
 45
0.0
1001
ACAD
1000
AcDbSavedByObjectVersion
1070
     0
  0
DICTIONARYVAR
  5
165
102
{ACAD_REACTORS
330
162
102
}
330
162
100
DictionaryVariables
280
     0
  1
1:1
  0
ENDSEC
  0
EOF
