  0
SECTION
  2
HEADER
  9
$ACADVER
  1
AC1015
  9
$ACADMAINTVER
 70
     6
  9
$DWGCODEPAGE
  3
ANSI_1252
  9
$INSBASE
 10
0.0
 20
0.0
 30
0.0
  9
$EXTMIN
 10
36.8876086881622
 20
65.8883966809
 30
0.0
  9
$EXTMAX
 10
230.541469782426
 20
175.914504111149
 30
0.0
  9
$LIMMIN
 10
0.0
 20
0.0
  9
$LIMMAX
 10
12.0
 20
9.0
  9
$ORTHOMODE
 70
     0
  9
$REGENMODE
 70
     1
  9
$FILLMODE
 70
     1
  9
$QTEXTMODE
 70
     0
  9
$MIRRTEXT
 70
     1
  9
$LTSCALE
 40
1.0
  9
$ATTMODE
 70
     1
  9
$TEXTSIZE
 40
0.2
  9
$TRACEWID
 40
0.05
  9
$TEXTSTYLE
  7
Standard
  9
$CLAYER
  8
0
  9
$CELTYPE
  6
ByLayer
  9
$CECOLOR
 62
   256
  9
$CELTSCALE
 40
1.0
  9
$DISPSILH
 70
     0
  9
$DIMSCALE
 40
1.0
  9
$DIMASZ
 40
0.18
  9
$DIMEXO
 40
0.0625
  9
$DIMDLI
 40
0.38
  9
$DIMRND
 40
0.0
  9
$DIMDLE
 40
0.0
  9
$DIMEXE
 40
0.18
  9
$DIMTP
 40
0.0
  9
$DIMTM
 40
0.0
  9
$DIMTXT
 40
0.18
  9
$DIMCEN
 40
0.09
  9
$DIMTSZ
 40
0.0
  9
$DIMTOL
 70
     0
  9
$DIMLIM
 70
     0
  9
$DIMTIH
 70
     1
  9
$DIMTOH
 70
     1
  9
$DIMSE1
 70
     0
  9
$DIMSE2
 70
     0
  9
$DIMTAD
 70
     0
  9
$DIMZIN
 70
     0
  9
$DIMBLK
  1

  9
$DIMASO
 70
     1
  9
$DIMSHO
 70
     1
  9
$DIMPOST
  1

  9
$DIMAPOST
  1

  9
$DIMALT
 70
     0
  9
$DIMALTD
 70
     2
  9
$DIMALTF
 40
25.4
  9
$DIMLFAC
 40
1.0
  9
$DIMTOFL
 70
     0
  9
$DIMTVP
 40
0.0
  9
$DIMTIX
 70
     0
  9
$DIMSOXD
 70
     0
  9
$DIMSAH
 70
     0
  9
$DIMBLK1
  1

  9
$DIMBLK2
  1

  9
$DIMSTYLE
  2
Standard
  9
$DIMCLRD
 70
     0
  9
$DIMCLRE
 70
     0
  9
$DIMCLRT
 70
     0
  9
$DIMTFAC
 40
1.0
  9
$DIMGAP
 40
0.09
  9
$DIMJUST
 70
     0
  9
$DIMSD1
 70
     0
  9
$DIMSD2
 70
     0
  9
$DIMTOLJ
 70
     1
  9
$DIMTZIN
 70
     0
  9
$DIMALTZ
 70
     0
  9
$DIMALTTZ
 70
     0
  9
$DIMUPT
 70
     0
  9
$DIMDEC
 70
     4
  9
$DIMTDEC
 70
     4
  9
$DIMALTU
 70
     2
  9
$DIMALTTD
 70
     2
  9
$DIMTXSTY
  7
Standard
  9
$DIMAUNIT
 70
     0
  9
$DIMADEC
 70
     0
  9
$DIMALTRND
 40
0.0
  9
$DIMAZIN
 70
     0
  9
$DIMDSEP
 70
    46
  9
$DIMATFIT
 70
     3
  9
$DIMFRAC
 70
     0
  9
$DIMLDRBLK
  1

  9
$DIMLUNIT
 70
     2
  9
$DIMLWD
 70
    -2
  9
$DIMLWE
 70
    -2
  9
$DIMTMOVE
 70
     0
  9
$LUNITS
 70
     2
  9
$LUPREC
 70
     4
  9
$SKETCHINC
 40
0.1
  9
$FILLETRAD
 40
0.5
  9
$AUNITS
 70
     0
  9
$AUPREC
 70
     0
  9
$MENU
  1
.
  9
$ELEVATION
 40
0.0
  9
$PELEVATION
 40
0.0
  9
$THICKNESS
 40
0.0
  9
$LIMCHECK
 70
     0
  9
$CHAMFERA
 40
0.5
  9
$CHAMFERB
 40
0.5
  9
$CHAMFERC
 40
1.0
  9
$CHAMFERD
 40
0.0
  9
$SKPOLY
 70
     0
  9
$TDCREATE
 40
2456644.724305671
  9
$TDUCREATE
 40
2456644.682639005
  9
$TDUPDATE
 40
2456644.724305683
  9
$TDUUPDATE
 40
2456644.682639016
  9
$TDINDWG
 40
0.0000000116
  9
$TDUSRTIMER
 40
0.0000000116
  9
$USRTIMER
 70
     1
  9
$ANGBASE
 50
0.0
  9
$ANGDIR
 70
     0
  9
$PDMODE
 70
     0
  9
$PDSIZE
 40
0.0
  9
$PLINEWID
 40
0.0
  9
$SPLFRAME
 70
     0
  9
$SPLINETYPE
 70
     6
  9
$SPLINESEGS
 70
     8
  9
$HANDSEED
  5
167
  9
$SURFTAB1
 70
     6
  9
$SURFTAB2
 70
     6
  9
$SURFTYPE
 70
     6
  9
$SURFU
 70
     6
  9
$SURFV
 70
     6
  9
$UCSBASE
  2

  9
$UCSNAME
  2

  9
$UCSORG
 10
0.0
 20
0.0
 30
0.0
  9
$UCSXDIR
 10
1.0
 20
0.0
 30
0.0
  9
$UCSYDIR
 10
0.0
 20
1.0
 30
0.0
  9
$UCSORTHOREF
  2

  9
$UCSORTHOVIEW
 70
     0
  9
$UCSORGTOP
 10
0.0
 20
0.0
 30
0.0
  9
$UCSORGBOTTOM
 10
0.0
 20
0.0
 30
0.0
  9
$UCSORGLEFT
 10
0.0
 20
0.0
 30
0.0
  9
$UCSORGRIGHT
 10
0.0
 20
0.0
 30
0.0
  9
$UCSORGFRONT
 10
0.0
 20
0.0
 30
0.0
  9
$UCSORGBACK
 10
0.0
 20
0.0
 30
0.0
  9
$PUCSBASE
  2

  9
$PUCSNAME
  2

  9
$PUCSORG
 10
0.0
 20
0.0
 30
0.0
  9
$PUCSXDIR
 10
1.0
 20
0.0
 30
0.0
  9
$PUCSYDIR
 10
0.0
 20
1.0
 30
0.0
  9
$PUCSORTHOREF
  2

  9
$PUCSORTHOVIEW
 70
     0
  9
$PUCSORGTOP
 10
0.0
 20
0.0
 30
0.0
  9
$PUCSORGBOTTOM
 10
0.0
 20
0.0
 30
0.0
  9
$PUCSORGLEFT
 10
0.0
 20
0.0
 30
0.0
  9
$PUCSORGRIGHT
 10
0.0
 20
0.0
 30
0.0
  9
$PUCSORGFRONT
 10
0.0
 20
0.0
 30
0.0
  9
$PUCSORGBACK
 10
0.0
 20
0.0
 30
0.0
  9
$USERI1
 70
     0
  9
$USERI2
 70
     0
  9
$USERI3
 70
     0
  9
$USERI4
 70
     0
  9
$USERI5
 70
     0
  9
$USERR1
 40
16.5
  9
$USERR2
 40
0.0
  9
$USERR3
 40
0.0
  9
$USERR4
 40
0.0
  9
$USERR5
 40
0.0
  9
$WORLDVIEW
 70
     1
  9
$SHADEDGE
 70
     3
  9
$SHADEDIF
 70
    70
  9
$TILEMODE
 70
     1
  9
$MAXACTVP
 70
    64
  9
$PINSBASE
 10
0.0
 20
0.0
 30
0.0
  9
$PLIMCHECK
 70
     0
  9
$PEXTMIN
 10
1.00000000000000E+20
 20
1.00000000000000E+20
 30
1.00000000000000E+20
  9
$PEXTMAX
 10
-1.00000000000000E+20
 20
-1.00000000000000E+20
 30
-1.00000000000000E+20
  9
$PLIMMIN
 10
0.0
 20
0.0
  9
$PLIMMAX
 10
12.0
 20
9.0
  9
$UNITMODE
 70
     0
  9
$VISRETAIN
 70
     1
  9
$PLINEGEN
 70
     0
  9
$PSLTSCALE
 70
     1
  9
$TREEDEPTH
 70
  3020
  9
$CMLSTYLE
  2
Standard
  9
$CMLJUST
 70
     0
  9
$CMLSCALE
 40
1.0
  9
$PROXYGRAPHICS
 70
     1
  9
$MEASUREMENT
 70
     1
  9
$CELWEIGHT
370
    -1
  9
$ENDCAPS
280
     0
  9
$JOINSTYLE
280
     0
  9
$LWDISPLAY
290
     0
  9
$INSUNITS
 70
     1
  9
$HYPERLINKBASE
  1

  9
$STYLESHEET
  1

  9
$XEDIT
290
     1
  9
$CEPSNTYPE
380
     0
  9
$PSTYLEMODE
290
     1
  9
$FINGERPRINTGUID
  2
{F70CCCC8-C57A-4D36-A7DA-45D415459218}
  9
$VERSIONGUID
  2
{FAEB1C32-E019-11D5-929B-00C0DF256EC4}
  9
$EXTNAMES
290
     1
  9
$PSVPSCALE
 40
0.0
  9
$OLESTARTUP
290
     0
  0
ENDSEC
  0
SECTION
  2
CLASSES
  0
CLASS
  1
ACDBDICTIONARYWDFLT
  2
AcDbDictionaryWithDefault
  3
ObjectDBX Classes
 90
        0
280
     0
281
     0
  0
CLASS
  1
VISUALSTYLE
  2
AcDbVisualStyle
  3
ObjectDBX Classes
 90
     4095
280
     0
281
     0
  0
CLASS
  1
SCALE
  2
AcDbScale
  3
ObjectDBX Classes
 90
     1153
280
     0
281
     0
  0
CLASS
  1

  2
exOdDbPolyline
  3

 90
        0
280
     0
281
     1
  0
CLASS
  1

  2
exOdDbCircle
  3

 90
        0
280
     0
281
     1
  0
CLASS
  1

  2
exOdDbSpline
  3

 90
        0
280
     0
281
     1
  0
CLASS
  1
DICTIONARYVAR
  2
AcDbDictionaryVar
  3
ObjectDBX Classes
 90
        0
280
     0
281
     0
  0
CLASS
  1
ACDBPLACEHOLDER
  2
AcDbPlaceHolder
  3
ObjectDBX Classes
 90
        0
280
     0
281
     0
  0
CLASS
  1
LAYOUT
  2
AcDbLayout
  3
ObjectDBX Classes
 90
        0
280
     0
281
     0
  0
ENDSEC
  0
SECTION
  2
TABLES
  0
TABLE
  2
VPORT
  5
8
330
0
100
AcDbSymbolTable
 70
     1
  0
VPORT
  5
29
330
8
100
AcDbSymbolTableRecord
100
AcDbViewportTableRecord
  2
*Active
 70
     0
 10
0.0
 20
0.0
 11
1.0
 21
1.0
 12
133.7145392352941
 22
120.9014503960245
 13
0.0
 23
0.0
 14
0.5
 24
0.5
 15
0.5
 25
0.5
 16
0.0
 26
0.0
 36
1.0
 17
0.0
 27
0.0
 37
0.0
 40
132.9145163610769
 41
1.60267857142857
 42
50.0
 43
0.0
 44
0.0
 50
0.0
 51
0.0
 71
     0
 72
   100
 73
     1
 74
     3
 75
     0
 76
     0
 77
     0
 78
     0
281
     0
 65
     1
110
0.0
120
0.0
130
0.0
111
1.0
121
0.0
131
0.0
112
0.0
122
1.0
132
0.0
 79
     0
146
0.0
  0
ENDTAB
  0
TABLE
  2
LTYPE
  5
5
330
0
100
AcDbSymbolTable
 70
     9
  0
LTYPE
  5
14
330
5
100
AcDbSymbolTableRecord
100
AcDbLinetypeTableRecord
  2
ByBlock
 70
     0
  3

 72
    65
 73
     0
 40
0.0
  0
LTYPE
  5
15
330
5
100
AcDbSymbolTableRecord
100
AcDbLinetypeTableRecord
  2
ByLayer
 70
     0
  3

 72
    65
 73
     0
 40
0.0
  0
LTYPE
  5
16
330
5
100
AcDbSymbolTableRecord
100
AcDbLinetypeTableRecord
  2
Continuous
 70
     0
  3
Solid line
 72
    65
 73
     0
 40
0.0
  0
LTYPE
  5
3B
330
5
100
AcDbSymbolTableRecord
100
AcDbLinetypeTableRecord
  2
DASHED
 70
     0
  3
Dashed
 72
    65
 73
     2
 40
15.0
 49
7.0
 74
     0
 49
-8.0
 74
     0
  0
LTYPE
  5
3C
330
5
100
AcDbSymbolTableRecord
100
AcDbLinetypeTableRecord
  2
DOTTED
 70
     0
  3
Dotted
 72
    65
 73
     2
 40
1.0
 49
0.0
 74
     0
 49
-1.0
 74
     0
  0
LTYPE
  5
3D
330
5
100
AcDbSymbolTableRecord
100
AcDbLinetypeTableRecord
  2
DOT_CENTER
 70
     0
  3
Dot_Center
 72
    65
 73
     4
 40
14.0
 49
12.0
 74
     0
 49
-1.0
 74
     0
 49
0.0
 74
     0
 49
-1.0
 74
     0
  0
LTYPE
  5
3E
330
5
100
AcDbSymbolTableRecord
100
AcDbLinetypeTableRecord
  2
LONG_DASHED
 70
     0
  3
Long_Dashed
 72
    65
 73
     2
 40
15.0
 49
10.0
 74
     0
 49
-5.0
 74
     0
  0
LTYPE
  5
3F
330
5
100
AcDbSymbolTableRecord
100
AcDbLinetypeTableRecord
  2
DASH_CENTER
 70
     0
  3
Dash_Center
 72
    65
 73
     4
 40
14.0
 49
11.0
 74
     0
 49
-1.0
 74
     0
 49
1.0
 74
     0
 49
-1.0
 74
     0
  0
LTYPE
  5
40
330
5
100
AcDbSymbolTableRecord
100
AcDbLinetypeTableRecord
  2
PHANTOM
 70
     0
  3
Phantom
 72
    65
 73
     6
 40
13.0
 49
10.0
 74
     0
 49
-1.0
 74
     0
 49
0.0
 74
     0
 49
-1.0
 74
     0
 49
0.0
 74
     0
 49
-1.0
 74
     0
  0
LTYPE
  5
41
330
5
100
AcDbSymbolTableRecord
100
AcDbLinetypeTableRecord
  2
CENTER_DASH_DASH
 70
     0
  3
Center_Dash_Dash
 72
    65
 73
     6
 40
14.0
 49
9.0
 74
     0
 49
-1.0
 74
     0
 49
1.0
 74
     0
 49
-1.0
 74
     0
 49
1.0
 74
     0
 49
-1.0
 74
     0
  0
LTYPE
  5
42
330
5
100
AcDbSymbolTableRecord
100
AcDbLinetypeTableRecord
  2
HIDDEN
 70
     0
  3
HIDDEN
 72
    65
 73
     2
 40
4.0
 49
2.0
 74
     0
 49
-2.0
 74
     0
  0
ENDTAB
  0
TABLE
  2
LAYER
  5
2
330
0
100
AcDbSymbolTable
 70
     7
  0
LAYER
  5
10
330
2
100
AcDbSymbolTableRecord
100
AcDbLayerTableRecord
  2
0
 70
     0
 62
     7
  6
Continuous
370
    -3
390
F
  0
LAYER
  5
43
330
2
100
AcDbSymbolTableRecord
100
AcDbLayerTableRecord
  2
1
 70
     0
 62
     7
  6
Continuous
370
    -3
390
F
  0
LAYER
  5
44
330
2
100
AcDbSymbolTableRecord
100
AcDbLayerTableRecord
  2
BEZUGSACHSEN
 70
     0
 62
     7
  6
Continuous
370
    -3
390
F
  0
LAYER
  5
45
330
2
100
AcDbSymbolTableRecord
100
AcDbLayerTableRecord
  2
DEFAULT_2
 70
     0
 62
     7
  6
Continuous
370
    -3
390
F
  0
LAYER
  5
46
330
2
100
AcDbSymbolTableRecord
100
AcDbLayerTableRecord
  2
FASEN
 70
     0
 62
     7
  6
Continuous
370
    -3
390
F
  0
LAYER
  5
47
330
2
100
AcDbSymbolTableRecord
100
AcDbLayerTableRecord
  2
RUNDUNGEN
 70
     0
 62
     7
  6
Continuous
370
    -3
390
F
  0
LAYER
  5
48
330
2
100
AcDbSymbolTableRecord
100
AcDbLayerTableRecord
  2
TEIL_STARTBEZUEGE
 70
     0
 62
     7
  6
Continuous
370
    -3
390
F
  0
ENDTAB
  0
TABLE
  2
STYLE
  5
3
330
0
100
AcDbSymbolTable
 70
     2
  0
STYLE
  5
11
330
3
100
AcDbSymbolTableRecord
100
AcDbTextStyleTableRecord
  2
Standard
 70
     0
 40
0.0
 41
1.0
 50
0.0
 71
     0
 42
0.2
  3
txt
  4

  0
STYLE
  5
6F
330
3
100
AcDbSymbolTableRecord
100
AcDbTextStyleTableRecord
  2
CONVERTER_11
 70
     0
 40
0.0
 41
0.72
 50
0.0
 71
     0
 42
0.2
  3
txt.shx
  4

  0
ENDTAB
  0
TABLE
  2
VIEW
  5
6
330
0
100
AcDbSymbolTable
 70
     0
  0
ENDTAB
  0
TABLE
  2
UCS
  5
7
330
0
100
AcDbSymbolTable
 70
     0
  0
ENDTAB
  0
TABLE
  2
APPID
  5
9
330
0
100
AcDbSymbolTable
 70
     1
  0
APPID
  5
12
330
9
100
AcDbSymbolTableRecord
100
AcDbRegAppTableRecord
  2
ACAD
 70
     0
  0
ENDTAB
  0
TABLE
  2
DIMSTYLE
  5
A
330
0
100
AcDbSymbolTable
 70
     8
100
AcDbDimStyleTable
  0
DIMSTYLE
105
27
330
A
100
AcDbSymbolTableRecord
100
AcDbDimStyleTableRecord
  2
Standard
 70
     0
340
11
  0
DIMSTYLE
105
118
102
{ACAD_REACTORS
330
119
102
}
330
A
100
AcDbSymbolTableRecord
100
AcDbDimStyleTableRecord
  2
ME10_DIM_10
 70
     0
  3
\U+2300<>
 41
3.5
 42
2.0
 44
2.0
 71
     1
 73
     0
 74
     0
 77
     1
 78
     8
140
3.5
146
0.7
147
2.0
172
     1
173
     1
176
     2
177
     2
178
     3
271
     2
272
     0
340
6F
  0
DIMSTYLE
105
123
102
{ACAD_REACTORS
330
124
102
}
330
A
100
AcDbSymbolTableRecord
100
AcDbDimStyleTableRecord
  2
ME10_DIM_11
 70
     0
  3
\U+2300<>
 41
3.5
 42
2.0
 44
2.0
 71
     1
 73
     0
 74
     0
 77
     1
 78
     8
140
3.5
146
0.7
147
2.0
172
     1
173
     1
176
     2
177
     2
178
     3
271
     2
272
     0
340
6F
  0
DIMSTYLE
105
12E
102
{ACAD_REACTORS
330
12F
102
}
330
A
100
AcDbSymbolTableRecord
100
AcDbDimStyleTableRecord
  2
ME10_DIM_12
 70
     0
  3
\U+2300<>
 41
3.5
 42
2.0
 44
2.0
 71
     1
 73
     0
 74
     0
 77
     1
 78
     8
140
3.5
146
0.7
147
2.0
172
     1
173
     1
176
     2
177
     2
178
     3
271
     2
272
     0
340
6F
  0
DIMSTYLE
105
139
102
{ACAD_REACTORS
330
13A
102
}
330
A
100
AcDbSymbolTableRecord
100
AcDbDimStyleTableRecord
  2
ME10_DIM_13
 70
     0
  3
<>
 41
3.5
 42
2.0
 44
2.0
 71
     1
 73
     0
 74
     0
 77
     1
 78
     8
140
3.5
146
0.7
147
2.0
172
     1
173
     1
176
     2
177
     2
178
     3
271
     0
272
     0
340
6F
  0
DIMSTYLE
105
144
102
{ACAD_REACTORS
330
145
102
}
330
A
100
AcDbSymbolTableRecord
100
AcDbDimStyleTableRecord
  2
ME10_DIM_14
 70
     0
  3
<>
 41
3.5
 42
2.0
 44
2.0
 71
     1
 73
     0
 74
     0
 77
     1
 78
     8
140
3.5
146
0.7
147
2.0
172
     1
173
     1
176
     2
177
     2
178
     3
271
     2
272
     0
340
6F
  0
DIMSTYLE
105
14F
102
{ACAD_REACTORS
330
150
102
}
330
A
100
AcDbSymbolTableRecord
100
AcDbDimStyleTableRecord
  2
ME10_DIM_15
 70
     0
  3
<>
 41
3.5
 42
2.0
 44
2.0
 71
     1
 73
     0
 74
     0
 77
     1
 78
     8
140
3.5
146
0.7
147
2.0
172
     1
173
     1
176
     2
177
     2
178
     3
271
     0
272
     0
340
6F
  0
DIMSTYLE
105
161
102
{ACAD_REACTORS
330
162
102
}
330
A
100
AcDbSymbolTableRecord
100
AcDbDimStyleTableRecord
  2
ME10_DIM_16
 70
     0
  3
<>
 41
3.5
 42
2.0
 44
2.0
 71
     1
 73
     0
 74
     0
 77
     1
 78
     8
140
3.5
146
0.7
147
2.0
172
     1
173
     1
176
     2
177
     2
178
     3
271
     2
272
     0
340
6F
  0
ENDTAB
  0
TABLE
  2
BLOCK_RECORD
  5
1
330
0
100
AcDbSymbolTable
 70
    10
  0
BLOCK_RECORD
  5
1F
330
1
100
AcDbSymbolTableRecord
100
AcDbBlockTableRecord
  2
*Model_Space
340
22
  0
BLOCK_RECORD
  5
1B
330
1
100
AcDbSymbolTableRecord
100
AcDbBlockTableRecord
  2
*Paper_Space
340
1E
  0
BLOCK_RECORD
  5
23
330
1
100
AcDbSymbolTableRecord
100
AcDbBlockTableRecord
  2
*Paper_Space0
340
26
  0
BLOCK_RECORD
  5
49
330
1
100
AcDbSymbolTableRecord
100
AcDbBlockTableRecord
  2
Urheberrecht_DE-EN
340
0
102
{BLKREFS
331
6E
102
}
  0
BLOCK_RECORD
  5
10F
330
1
100
AcDbSymbolTableRecord
100
AcDbBlockTableRecord
  2
*D2
340
0
  0
BLOCK_RECORD
  5
11A
330
1
100
AcDbSymbolTableRecord
100
AcDbBlockTableRecord
  2
*D3
340
0
  0
BLOCK_RECORD
  5
125
330
1
100
AcDbSymbolTableRecord
100
AcDbBlockTableRecord
  2
*D4
340
0
  0
BLOCK_RECORD
  5
130
330
1
100
AcDbSymbolTableRecord
100
AcDbBlockTableRecord
  2
*D5
340
0
  0
BLOCK_RECORD
  5
13B
330
1
100
AcDbSymbolTableRecord
100
AcDbBlockTableRecord
  2
*D6
340
0
  0
BLOCK_RECORD
  5
146
330
1
100
AcDbSymbolTableRecord
100
AcDbBlockTableRecord
  2
*D7
340
0
  0
BLOCK_RECORD
  5
151
330
1
100
AcDbSymbolTableRecord
100
AcDbBlockTableRecord
  2
*D8
340
0
102
{BLKREFS
331
157
102
}
  0
BLOCK_RECORD
  5
158
330
1
100
AcDbSymbolTableRecord
100
AcDbBlockTableRecord
  2
*D9
340
0
  0
ENDTAB
  0
ENDSEC
  0
SECTION
  2
BLOCKS
  0
BLOCK
  5
20
330
1F
100
AcDbEntity
  8
0
100
AcDbBlockBegin
  2
*Model_Space
 70
     0
 10
0.0
 20
0.0
 30
0.0
  3
*Model_Space
  1

  0
ENDBLK
  5
21
330
1F
100
AcDbEntity
  8
0
100
AcDbBlockEnd
  0
BLOCK
  5
1C
330
1B
100
AcDbEntity
 67
     1
  8
0
100
AcDbBlockBegin
  2
*Paper_Space
 70
     0
 10
0.0
 20
0.0
 30
0.0
  3
*Paper_Space
  1

  0
ENDBLK
  5
1D
330
1B
100
AcDbEntity
 67
     1
  8
0
100
AcDbBlockEnd
  0
BLOCK
  5
24
330
23
100
AcDbEntity
  8
0
100
AcDbBlockBegin
  2
*Paper_Space0
 70
     0
 10
0.0
 20
0.0
 30
0.0
  3
*Paper_Space0
  1

  0
ENDBLK
  5
25
330
23
100
AcDbEntity
  8
0
100
AcDbBlockEnd
  0
BLOCK
  5
4A
330
49
100
AcDbEntity
  8
0
100
AcDbBlockBegin
  2
Urheberrecht_DE-EN
 70
     0
 10
50.8876086881622
 20
122.945491238153
 30
0.0
  3
Urheberrecht_DE-EN
  1

  0
MTEXT
  5
70
330
49
100
AcDbEntity
  8
1
 62
     1
100
AcDbMText
 10
50.8876086881622
 20
122.945491238153
 30
0.0
 40
2.0
 41
0.0
 71
     7
 72
     1
  1
We own the copyright of this document. It \Pdetermined and may neither be copied or \Pmade accessible to outsiders without our\Ppermission.
  7
CONVERTER_11
 11
0.0
 21
1.0
 31
0.0
 73
     1
 44
0.90036014405762
  0
MTEXT
  5
71
330
49
100
AcDbEntity
  8
1
 62
     1
100
AcDbMText
 10
50.8876086881622
 20
66.65610432084681
 30
0.0
 40
2.0
 41
0.0
 71
     7
 72
     1
  1
F\U+00fcr diese Unterlage behalten wir das Ur-\Pheberrecht. Sie darf nur f\U+00fcr den von uns \Pbestimmten Zweck benutzt und ohne unsere \PZustimmung weder vervielf\U+00e4ltigt noch\PDritten zug\U+00e4nglich gemacht werden.
  7
CONVERTER_11
 11
0.0
 21
1.0
 31
0.0
 73
     1
 44
0.90036014405762
  0
ENDBLK
  5
4B
330
49
100
AcDbEntity
  8
0
100
AcDbBlockEnd
  0
BLOCK
  5
116
330
10F
100
AcDbEntity
  8
0
100
AcDbBlockBegin
  2
*D2
 70
     1
 10
0.0
 20
0.0
 30
0.0
  3
*D2
  1

  0
LINE
  5
110
330
10F
100
AcDbEntity
  8
1
  6
Continuous
 62
     2
100
AcDbLine
 10
212.066617945429
 20
114.8883966809
 30
0.0
 11
212.066617945429
 21
96.8883966809
 31
0.0
  0
LINE
  5
111
330
10F
100
AcDbEntity
  8
1
  6
Continuous
 62
     2
100
AcDbLine
 10
202.4737888116
 20
114.8883966809
 30
0.0
 11
214.066617945429
 21
114.8883966809
 31
0.0
  0
LINE
  5
112
330
10F
100
AcDbEntity
  8
1
  6
Continuous
 62
     2
100
AcDbLine
 10
202.4737888116
 20
96.8883966809
 30
0.0
 11
214.066617945429
 21
96.8883966809
 31
0.0
  0
SOLID
  5
113
330
10F
100
AcDbEntity
  8
1
 62
     2
100
AcDbTrace
 10
212.5274016869849
 20
111.3883966809
 30
0.0
 11
211.6058342038731
 21
111.3883966809
 31
0.0
 12
212.066617945429
 22
114.8883966809
 32
0.0
 13
212.066617945429
 23
114.8883966809
 33
0.0
  0
SOLID
  5
114
330
10F
100
AcDbEntity
  8
1
 62
     2
100
AcDbTrace
 10
211.6058342038731
 20
100.3883966809
 30
0.0
 11
212.5274016869849
 21
100.3883966809
 31
0.0
 12
212.066617945429
 22
96.8883966809
 32
0.0
 13
212.066617945429
 23
96.8883966809
 33
0.0
  0
MTEXT
  5
115
330
10F
100
AcDbEntity
  8
1
 62
     3
100
AcDbMText
 10
210.066617945429
 20
97.30045615849299
 30
0.0
 40
3.5
 41
0.0
 71
     7
 72
     1
  1
\C3;%%c\C3;\C3;18\C2;\H2.45;\S^ ;\C3;
  7
CONVERTER_11
 11
0.0
 21
1.0
 31
0.0
 73
     1
 44
0.60024009603842
  0
ENDBLK
  5
117
330
10F
100
AcDbEntity
  8
0
100
AcDbBlockEnd
  0
BLOCK
  5
121
330
11A
100
AcDbEntity
  8
0
100
AcDbBlockBegin
  2
*D3
 70
     1
 10
0.0
 20
0.0
 30
0.0
  3
*D3
  1

  0
LINE
  5
11B
330
11A
100
AcDbEntity
  8
1
  6
Continuous
 62
     2
100
AcDbLine
 10
220.60913371276
 20
122.3883966809466
 30
0.0
 11
220.60913371276
 21
89.38839668094863
 31
0.0
  0
LINE
  5
11C
330
11A
100
AcDbEntity
  8
1
  6
Continuous
 62
     2
100
AcDbLine
 10
202.4737888116
 20
122.3883966809466
 30
0.0
 11
222.60913371276
 21
122.3883966809466
 31
0.0
  0
LINE
  5
11D
330
11A
100
AcDbEntity
  8
1
  6
Continuous
 62
     2
100
AcDbLine
 10
202.4737888116
 20
89.38839668094863
 30
0.0
 11
222.60913371276
 21
89.38839668094863
 31
0.0
  0
SOLID
  5
11E
330
11A
100
AcDbEntity
  8
1
 62
     2
100
AcDbTrace
 10
221.0699174543159
 20
118.8883966809466
 30
0.0
 11
220.1483499712041
 21
118.8883966809466
 31
0.0
 12
220.60913371276
 22
122.3883966809466
 32
0.0
 13
220.60913371276
 23
122.3883966809466
 33
0.0
  0
SOLID
  5
11F
330
11A
100
AcDbEntity
  8
1
 62
     2
100
AcDbTrace
 10
220.1483499712041
 20
92.88839668094863
 30
0.0
 11
221.0699174543159
 21
92.88839668094863
 31
0.0
 12
220.60913371276
 22
89.38839668094863
 32
0.0
 13
220.60913371276
 23
89.38839668094863
 33
0.0
  0
MTEXT
  5
120
330
11A
100
AcDbEntity
  8
1
 62
     3
100
AcDbMText
 10
218.60913371276
 20
97.24656397709299
 30
0.0
 40
3.5
 41
0.0
 71
     7
 72
     1
  1
\C3;%%c\C3;\C3;33\C2;\H2.45;\S^ ;\C3;
  7
CONVERTER_11
 11
0.0
 21
1.0
 31
0.0
 73
     1
 44
0.60024009603842
  0
ENDBLK
  5
122
330
11A
100
AcDbEntity
  8
0
100
AcDbBlockEnd
  0
BLOCK
  5
12C
330
125
100
AcDbEntity
  8
0
100
AcDbBlockBegin
  2
*D4
 70
     1
 10
0.0
 20
0.0
 30
0.0
  3
*D4
  1

  0
LINE
  5
126
330
125
100
AcDbEntity
  8
1
  6
Continuous
 62
     2
100
AcDbLine
 10
228.541469782426
 20
126.8883966809
 30
0.0
 11
228.541469782426
 21
84.8883966809
 31
0.0
  0
LINE
  5
127
330
125
100
AcDbEntity
  8
1
  6
Continuous
 62
     2
100
AcDbLine
 10
145.2958674988
 20
126.8883966809
 30
0.0
 11
230.541469782426
 21
126.8883966809
 31
0.0
  0
LINE
  5
128
330
125
100
AcDbEntity
  8
1
  6
Continuous
 62
     2
100
AcDbLine
 10
145.2958674988
 20
84.8883966809
 30
0.0
 11
230.541469782426
 21
84.8883966809
 31
0.0
  0
SOLID
  5
129
330
125
100
AcDbEntity
  8
1
 62
     2
100
AcDbTrace
 10
229.0022535239819
 20
123.3883966809
 30
0.0
 11
228.0806860408701
 21
123.3883966809
 31
0.0
 12
228.541469782426
 22
126.8883966809
 32
0.0
 13
228.541469782426
 23
126.8883966809
 33
0.0
  0
SOLID
  5
12A
330
125
100
AcDbEntity
  8
1
 62
     2
100
AcDbTrace
 10
228.0806860408701
 20
88.3883966809
 30
0.0
 11
229.0022535239819
 21
88.3883966809
 31
0.0
 12
228.541469782426
 22
84.8883966809
 32
0.0
 13
228.541469782426
 23
84.8883966809
 33
0.0
  0
MTEXT
  5
12B
330
125
100
AcDbEntity
  8
1
 62
     3
100
AcDbMText
 10
226.541469782426
 20
97.002492098026
 30
0.0
 40
3.5
 41
0.0
 71
     7
 72
     1
  1
\C3;%%c\C3;\C3;42\C2;\H2.45;\S^ ;\C3;
  7
CONVERTER_11
 11
0.0
 21
1.0
 31
0.0
 73
     1
 44
0.60024009603842
  0
ENDBLK
  5
12D
330
125
100
AcDbEntity
  8
0
100
AcDbBlockEnd
  0
BLOCK
  5
137
330
130
100
AcDbEntity
  8
0
100
AcDbBlockBegin
  2
*D5
 70
     1
 10
0.0
 20
0.0
 30
0.0
  3
*D5
  1

  0
LINE
  5
131
330
130
100
AcDbEntity
  8
1
  6
Continuous
 62
     2
100
AcDbLine
 10
200.4737888116
 20
154.427796032285
 30
0.0
 11
126.4237888116
 21
154.427796032285
 31
0.0
  0
LINE
  5
132
330
130
100
AcDbEntity
  8
1
  6
Continuous
 62
     2
100
AcDbLine
 10
200.4737888116
 20
123.4640061893
 30
0.0
 11
200.4737888116
 21
156.427796032285
 31
0.0
  0
LINE
  5
133
330
130
100
AcDbEntity
  8
1
  6
Continuous
 62
     2
100
AcDbLine
 10
126.4237888116
 20
147.8883545156
 30
0.0
 11
126.4237888116
 21
156.427796032285
 31
0.0
  0
SOLID
  5
134
330
130
100
AcDbEntity
  8
1
 62
     2
100
AcDbTrace
 10
196.9737888116
 20
153.9670122907291
 30
0.0
 11
196.9737888116
 21
154.8885797738409
 31
0.0
 12
200.4737888116
 22
154.427796032285
 32
0.0
 13
200.4737888116
 23
154.427796032285
 33
0.0
  0
SOLID
  5
135
330
130
100
AcDbEntity
  8
1
 62
     2
100
AcDbTrace
 10
129.9237888116
 20
154.8885797738409
 30
0.0
 11
129.9237888116
 21
153.9670122907291
 31
0.0
 12
126.4237888116
 22
154.427796032285
 32
0.0
 13
126.4237888116
 23
154.427796032285
 33
0.0
  0
MTEXT
  5
136
330
130
100
AcDbEntity
  8
1
 62
     3
100
AcDbMText
 10
160.542062434436
 20
156.427796032285
 30
0.0
 40
3.5
 41
0.0
 71
     7
 72
     1
  1
\C3;\C3;\C3;74\C2;\H2.45;\S^ ;\C3;
  7
CONVERTER_11
 11
0.9999999999970619
 21
2.424068405545306E-6
 31
0.0
 73
     1
 44
0.60024009603842
  0
ENDBLK
  5
138
330
130
100
AcDbEntity
  8
0
100
AcDbBlockEnd
  0
BLOCK
  5
142
330
13B
100
AcDbEntity
  8
0
100
AcDbBlockBegin
  2
*D6
 70
     1
 10
0.0
 20
0.0
 30
0.0
  3
*D6
  1

  0
LINE
  5
13C
330
13B
100
AcDbEntity
  8
1
  6
Continuous
 62
     2
100
AcDbLine
 10
200.4737888116
 20
162.848275860084
 30
0.0
 11
100.4737888116
 21
162.848275860084
 31
0.0
  0
LINE
  5
13D
330
13B
100
AcDbEntity
  8
1
  6
Continuous
 62
     2
100
AcDbLine
 10
200.4737888116
 20
123.4640061893
 30
0.0
 11
200.4737888116
 21
164.848275860084
 31
0.0
  0
LINE
  5
13E
330
13B
100
AcDbEntity
  8
1
  6
Continuous
 62
     2
100
AcDbLine
 10
100.4737888116
 20
147.8883966809
 30
0.0
 11
100.4737888116
 21
164.848275860084
 31
0.0
  0
SOLID
  5
13F
330
13B
100
AcDbEntity
  8
1
 62
     2
100
AcDbTrace
 10
196.9737888116
 20
162.3874921185281
 30
0.0
 11
196.9737888116
 21
163.3090596016399
 31
0.0
 12
200.4737888116
 22
162.848275860084
 32
0.0
 13
200.4737888116
 23
162.848275860084
 33
0.0
  0
SOLID
  5
140
330
13B
100
AcDbEntity
  8
1
 62
     2
100
AcDbTrace
 10
103.9737888116
 20
163.3090596016399
 30
0.0
 11
103.9737888116
 21
162.3874921185281
 31
0.0
 12
100.4737888116
 22
162.848275860084
 32
0.0
 13
100.4737888116
 23
162.848275860084
 33
0.0
  0
MTEXT
  5
141
330
13B
100
AcDbEntity
  8
1
 62
     3
100
AcDbMText
 10
146.888288783439
 20
164.848275860084
 30
0.0
 40
3.5
 41
0.0
 71
     7
 72
     1
  1
\C3;\C3;\C3;100\C2;\H2.45;\S^ ;\C3;
  7
CONVERTER_11
 11
0.9999999999970619
 21
2.424068405545306E-6
 31
0.0
 73
     1
 44
0.60024009603842
  0
ENDBLK
  5
143
330
13B
100
AcDbEntity
  8
0
100
AcDbBlockEnd
  0
BLOCK
  5
14D
330
146
100
AcDbEntity
  8
0
100
AcDbBlockBegin
  2
*D7
 70
     1
 10
0.0
 20
0.0
 30
0.0
  3
*D7
  1

  0
LINE
  5
147
330
146
100
AcDbEntity
  8
1
  6
Continuous
 62
     2
100
AcDbLine
 10
200.4737888116
 20
170.414504111149
 30
0.0
 11
60.5737888116
 21
170.414504111149
 31
0.0
  0
LINE
  5
148
330
146
100
AcDbEntity
  8
1
  6
Continuous
 62
     2
100
AcDbLine
 10
200.4737888116
 20
123.4640061893
 30
0.0
 11
200.4737888116
 21
172.414504111149
 31
0.0
  0
LINE
  5
149
330
146
100
AcDbEntity
  8
1
  6
Continuous
 62
     2
100
AcDbLine
 10
60.5737888116
 20
134.774317481
 30
0.0
 11
60.5737888116
 21
172.414504111149
 31
0.0
  0
SOLID
  5
14A
330
146
100
AcDbEntity
  8
1
 62
     2
100
AcDbTrace
 10
196.9737888116
 20
169.9537203695931
 30
0.0
 11
196.9737888116
 21
170.8752878527049
 31
0.0
 12
200.4737888116
 22
170.414504111149
 32
0.0
 13
200.4737888116
 23
170.414504111149
 33
0.0
  0
SOLID
  5
14B
330
146
100
AcDbEntity
  8
1
 62
     2
100
AcDbTrace
 10
64.0737888116
 20
170.8752878527049
 30
0.0
 11
64.0737888116
 21
169.9537203695931
 31
0.0
 12
60.5737888116
 22
170.414504111149
 32
0.0
 13
60.5737888116
 23
170.414504111149
 33
0.0
  0
MTEXT
  5
14C
330
146
100
AcDbEntity
  8
1
 62
     3
100
AcDbMText
 10
133.952479192907
 20
172.414504111149
 30
0.0
 40
3.5
 41
0.0
 71
     7
 72
     1
  1
\C3;\C3;\C3;140\C2;\H2.45;\S^ ;\C3;
  7
CONVERTER_11
 11
0.9999999999970619
 21
2.424068405545306E-6
 31
0.0
 73
     1
 44
0.60024009603842
  0
ENDBLK
  5
14E
330
146
100
AcDbEntity
  8
0
100
AcDbBlockEnd
  0
BLOCK
  5
155
330
151
100
AcDbEntity
  8
0
100
AcDbBlockBegin
  2
*D8
 70
     1
 10
0.0
 20
0.0
 30
0.0
  3
*D8
  1

  0
LINE
  5
152
330
151
100
AcDbEntity
  8
1
  6
Continuous
 62
     2
100
AcDbLine
 10
137.6845384007696
 20
136.5653120493977
 30
0.0
 11
127.5059350525722
 21
129.4511427762816
 31
0.0
  0
SOLID
  5
153
330
151
100
AcDbEntity
  8
1
 62
     2
100
AcDbTrace
 10
130.1107112928638
 20
131.8338853965606
 30
0.0
 11
130.6386548644797
 21
131.0785297113908
 31
0.0
 12
127.5059350525722
 22
129.4511427762816
 32
0.0
 13
127.5059350525722
 23
129.4511427762816
 33
0.0
  0
MTEXT
  5
154
330
151
100
AcDbEntity
  8
1
 62
     3
100
AcDbMText
 10
130.457041283899
 20
133.9538593070287
 30
0.0
 40
3.5
 41
0.0
 71
     7
 72
     1
  1
\C3; R\C3;\C3;6\C2;\H2.45;\S^ ;\C3;
  7
CONVERTER_11
 11
0.8196422931713159
 21
0.5728756507697518
 31
0.0
 73
     1
 44
0.60024009603842
  0
ENDBLK
  5
156
330
151
100
AcDbEntity
  8
0
100
AcDbBlockEnd
  0
BLOCK
  5
15F
330
158
100
AcDbEntity
  8
0
100
AcDbBlockBegin
  2
*D9
 70
     1
 10
0.0
 20
0.0
 30
0.0
  3
*D9
  1

  0
LINE
  5
159
330
158
100
AcDbEntity
  8
1
  6
Continuous
 62
     2
100
AcDbLine
 10
182.5537890390155
 20
126.8883966809
 30
0.0
 11
184.5537890390155
 21
126.8883966809
 31
0.0
  0
LINE
  5
15A
330
158
100
AcDbEntity
  8
1
  6
Continuous
 62
     2
100
AcDbLine
 10
145.2958674988
 20
126.8883966809
 30
0.0
 11
182.5537890390155
 21
126.8883966809
 31
0.0
  0
ARC
  5
15B
330
158
100
AcDbEntity
  8
1
  6
Continuous
 62
     2
100
AcDbCircle
 10
143.2958674988
 20
126.8883966809
 30
0.0
 40
39.2579215402155
100
AcDbArc
 50
347.8377797233969
 51
16.13035803536452
  0
SOLID
  5
15C
330
158
100
AcDbEntity
  8
1
 62
     2
100
AcDbTrace
 10
182.4602448493014
 20
120.278161212171
 30
0.0
 11
181.5456529921839
 21
120.3913352410971
 31
0.0
 12
182.4327699685773
 22
123.8082556567166
 32
0.0
 13
182.4327699685773
 23
123.8082556567166
 33
0.0
  0
SOLID
  5
15D
330
158
100
AcDbEntity
  8
1
 62
     2
100
AcDbTrace
 10
181.9374952341822
 20
130.36438626699
 30
0.0
 11
182.8581472418032
 21
130.4054533680857
 31
0.0
 12
182.5537890390155
 22
126.8883966809
 32
0.0
 13
182.5537890390155
 23
126.8883966809
 33
0.0
  0
MTEXT
  5
15E
330
158
100
AcDbEntity
  8
1
 62
     3
100
AcDbMText
 10
183.0747630847365
 20
138.3928210811794
 30
0.0
 40
3.5
 41
0.0
 71
     7
 72
     1
  1
\C3;\C3;\C3;4.5%%d\C2;\H2.45;\S^ ;\C3;
  7
CONVERTER_11
 11
0.1948024986402018
 21
-0.9808424881312667
 31
0.0
 73
     1
 44
0.60024009603842
  0
ENDBLK
  5
160
330
158
100
AcDbEntity
  8
0
100
AcDbBlockEnd
  0
ENDSEC
  0
SECTION
  2
ENTITIES
  0
INSERT
  5
6E
330
1F
100
AcDbEntity
  8
0
100
AcDbBlockReference
  2
Urheberrecht_DE-EN
 10
50.8876086881622
 20
122.945491238153
 30
0.0
  0
LINE
  5
72
330
1F
100
AcDbEntity
  8
0
  6
Continuous
 62
     7
100
AcDbLine
 10
60.5737888116
 20
79.0027857525
 30
0.0
 11
60.5737888116
 21
96.2183966809
 31
0.0
  0
LINE
  5
73
330
1F
100
AcDbEntity
  8
0
  6
Continuous
 62
     7
100
AcDbLine
 10
60.5737888116
 20
115.5583966809
 30
0.0
 11
60.5737888116
 21
132.774317481
 31
0.0
  0
LINE
  5
74
330
1F
100
AcDbEntity
  8
0
  6
Continuous
 62
     9
100
AcDbLine
 10
62.0937292238
 20
134.3723556956
 30
0.0
 11
62.0937292238
 21
117.9160116211
 31
0.0
  0
LINE
  5
75
330
1F
100
AcDbEntity
  8
0
  6
Continuous
 62
     9
100
AcDbLine
 10
62.0937292238
 20
93.8607817408
 30
0.0
 11
62.0937292238
 21
77.4044376663
 31
0.0
  0
LINE
  5
76
330
1F
100
AcDbEntity
  8
0
  6
Continuous
 62
     7
100
AcDbLine
 10
62.2237888116
 20
96.2443411041
 30
0.0
 11
62.2237888116
 21
97.8683966809
 31
0.0
  0
LINE
  5
77
330
1F
100
AcDbEntity
  8
0
  6
Continuous
 62
     7
100
AcDbLine
 10
62.2237888116
 20
113.9083966809
 30
0.0
 11
62.2237888116
 21
115.5324522577
 31
0.0
  0
LINE
  5
78
330
1F
100
AcDbEntity
  8
RUNDUNGEN
  6
Continuous
 62
     9
100
AcDbLine
 10
66.7737888116
 20
93.3155759288
 30
0.0
 11
66.7737888116
 21
97.8683966809
 31
0.0
  0
LINE
  5
79
330
1F
100
AcDbEntity
  8
RUNDUNGEN
  6
Continuous
 62
     9
100
AcDbLine
 10
66.7737888116
 20
113.9083966809
 30
0.0
 11
66.7737888116
 21
118.4612174331
 31
0.0
  0
LINE
  5
7A
330
1F
100
AcDbEntity
  8
RUNDUNGEN
  6
Continuous
 62
     7
100
AcDbLine
 10
68.6737888116
 20
115.3937389073
 30
0.0
 11
68.6737888116
 21
96.3830544546
 31
0.0
  0
LINE
  5
7B
330
1F
100
AcDbEntity
  8
0
  6
Continuous
 62
     7
100
AcDbLine
 10
60.5737888116
 20
96.2183966809
 30
0.0
 11
62.2237888116
 21
97.8683966809
 31
0.0
  0
LWPOLYLINE
  5
7C
330
1F
100
AcDbEntity
  8
BEZUGSACHSEN
  6
DOT_CENTER
 62
     7
100
AcDbPolyline
 90
        2
 70
     0
 43
0.25
 10
88.4737888116
 20
98.6383966809
 10
88.4737888116
 20
113.1383966809
  0
LINE
  5
7D
330
1F
100
AcDbEntity
  8
0
  6
Continuous
 62
     7
100
AcDbLine
 10
114.9375184128
 20
65.8883966809
 30
0.0
 11
100.4737888116
 21
65.8883966809
 31
0.0
  0
LINE
  5
7E
330
1F
100
AcDbEntity
  8
0
  6
Continuous
 62
     7
100
AcDbLine
 10
122.0100592103
 20
65.8883966809
 30
0.0
 11
126.4237888116
 21
65.8883966809
 31
0.0
  0
LINE
  5
7F
330
1F
100
AcDbEntity
  8
0
  6
Continuous
 62
     7
100
AcDbLine
 10
62.2237888116
 20
113.9083966809
 30
0.0
 11
60.5737888116
 21
115.5583966809
 31
0.0
  0
LINE
  5
80
330
1F
100
AcDbEntity
  8
0
  6
Continuous
 62
     7
100
AcDbLine
 10
97.9737888116
 20
136.1699466809
 30
0.0
 11
97.9737888116
 21
75.6068466809
 31
0.0
  0
LINE
  5
81
330
1F
100
AcDbEntity
  8
0
  6
Continuous
 62
     9
100
AcDbLine
 10
98.5930324256
 20
75.7727725072
 30
0.0
 11
98.5930324256
 21
136.0040208547
 31
0.0
  0
LINE
  5
82
330
1F
100
AcDbEntity
  8
0
  6
Continuous
 62
     7
100
AcDbLine
 10
117.3112888116
 20
70.9133966809
 30
0.0
 11
119.6362888116
 21
70.9133966809
 31
0.0
  0
LINE
  5
83
330
1F
100
AcDbEntity
  8
0
  6
Continuous
 62
     9
100
AcDbLine
 10
98.8518514707
 20
75.8068466809
 30
0.0
 11
98.8518514707
 21
135.9699466809
 31
0.0
  0
LINE
  5
84
330
1F
100
AcDbEntity
  8
0
  6
Continuous
 62
     9
100
AcDbLine
 10
99.7732175229
 20
75.8068466809
 30
0.0
 11
99.7732175229
 21
135.9699466809
 31
0.0
  0
LINE
  5
85
330
1F
100
AcDbEntity
  8
0
  6
Continuous
 62
     7
100
AcDbLine
 10
100.4737888116
 20
145.8883966809
 30
0.0
 11
100.4737888116
 21
65.8883966809
 31
0.0
  0
LINE
  5
86
330
1F
100
AcDbEntity
  8
0
  6
Continuous
 62
     7
100
AcDbLine
 10
120.3862888116
 20
143.0759438504
 30
0.0
 11
122.0100592103
 21
145.8883966809
 31
0.0
  0
LINE
  5
87
330
1F
100
AcDbEntity
  8
0
  6
Continuous
 62
     9
100
AcDbLine
 10
60.5737888116
 20
95.2849832953
 30
0.0
 11
62.2237888116
 21
96.2443411041
 31
0.0
  0
LINE
  5
88
330
1F
100
AcDbEntity
  8
0
  6
Continuous
 62
     7
100
AcDbLine
 10
104.8055312247
 20
74.5438995562
 30
0.0
 11
114.9375184128
 21
74.5438995562
 31
0.0
  0
LINE
  5
89
330
1F
100
AcDbEntity
  8
0
  6
Continuous
 62
     7
100
AcDbLine
 10
122.0100592103
 20
74.5438995562
 30
0.0
 11
126.4237888116
 21
74.5438995562
 31
0.0
  0
LINE
  5
8A
330
1F
100
AcDbEntity
  8
0
  6
Continuous
 62
     7
100
AcDbLine
 10
99.7732175229
 20
75.8068466809
 30
0.0
 11
98.8518514707
 21
75.8068466809
 31
0.0
  0
LINE
  5
8B
330
1F
100
AcDbEntity
  8
0
  6
Continuous
 62
     7
100
AcDbLine
 10
97.9737888116
 20
75.6068466809
 30
0.0
 11
62.0937292238
 21
77.4044376663
 31
0.0
  0
LINE
  5
8C
330
1F
100
AcDbEntity
  8
0
  6
Continuous
 62
     7
100
AcDbLine
 10
120.3862888116
 20
68.7008495115
 30
0.0
 11
122.0100592103
 21
65.8883966809
 31
0.0
  0
LWPOLYLINE
  5
8D
330
1F
100
AcDbEntity
  8
BEZUGSACHSEN
  6
DOT_CENTER
 62
     7
100
AcDbPolyline
 90
        2
 70
     0
 43
0.25
 10
107.4737888116
 20
151.9746663469
 10
107.4737888116
 20
137.9746663469
  0
LINE
  5
8E
330
1F
100
AcDbEntity
  8
0
  6
Continuous
 62
     7
100
AcDbLine
 10
113.0324659723
 20
80.6383966809
 30
0.0
 11
116.6229556423
 21
80.6383966809
 31
0.0
  0
LINE
  5
8F
330
1F
100
AcDbEntity
  8
0
  6
Continuous
 62
     7
100
AcDbLine
 10
120.3246219808
 20
80.6383966809
 30
0.0
 11
126.4237888116
 21
80.6383966809
 31
0.0
  0
LINE
  5
90
330
1F
100
AcDbEntity
  8
0
  6
Continuous
 62
     7
100
AcDbLine
 10
113.0324659723
 20
81.0383966809
 30
0.0
 11
116.6229556423
 21
81.0383966809
 31
0.0
  0
LINE
  5
91
330
1F
100
AcDbEntity
  8
0
  6
Continuous
 62
     7
100
AcDbLine
 10
120.3246219808
 20
81.0383966809
 30
0.0
 11
126.4237888116
 21
81.0383966809
 31
0.0
  0
LINE
  5
92
330
1F
100
AcDbEntity
  8
0
  6
Continuous
 62
     9
100
AcDbLine
 10
62.2237888116
 20
115.5324522577
 30
0.0
 11
60.5737888116
 21
116.4918100666
 31
0.0
  0
LINE
  5
93
330
1F
100
AcDbEntity
  8
FASEN
  6
Continuous
 62
     9
100
AcDbLine
 10
113.0324659723
 20
80.6383966809
 30
0.0
 11
113.0324659723
 21
81.0383966809
 31
0.0
  0
LINE
  5
94
330
1F
100
AcDbEntity
  8
FASEN
  6
Continuous
 62
     9
100
AcDbLine
 10
113.4412888116
 20
97.2708966809
 30
0.0
 11
113.4412888116
 21
96.8708966809
 31
0.0
  0
LINE
  5
95
330
1F
100
AcDbEntity
  8
FASEN
  6
Continuous
 62
     9
100
AcDbLine
 10
113.4412888116
 20
114.5058966809
 30
0.0
 11
113.4412888116
 21
114.9058966809
 31
0.0
  0
LINE
  5
96
330
1F
100
AcDbEntity
  8
0
  6
Continuous
 62
     7
100
AcDbLine
 10
114.9375184128
 20
145.8883966809
 30
0.0
 11
114.9375184128
 21
114.9058966809
 31
0.0
  0
LINE
  5
97
330
1F
100
AcDbEntity
  8
0
  6
Continuous
 62
     7
100
AcDbLine
 10
114.9375184128
 20
96.8708966809
 30
0.0
 11
114.9375184128
 21
81.0383966809
 31
0.0
  0
LINE
  5
98
330
1F
100
AcDbEntity
  8
0
  6
Continuous
 62
     7
100
AcDbLine
 10
114.9375184128
 20
74.5438995562
 30
0.0
 11
114.9375184128
 21
65.8883966809
 31
0.0
  0
LINE
  5
99
330
1F
100
AcDbEntity
  8
0
  6
Continuous
 62
     7
100
AcDbLine
 10
98.5930324256
 20
75.7727725072
 30
0.0
 11
97.9737888116
 21
75.6068466809
 31
0.0
  0
LINE
  5
9A
330
1F
100
AcDbEntity
  8
RUNDUNGEN
  6
Continuous
 62
     7
100
AcDbLine
 10
199.5522479073
 20
89.3158698389
 30
0.0
 11
143.2958674988
 21
84.8883966809
 31
0.0
  0
LINE
  5
9B
330
1F
100
AcDbEntity
  8
0
  6
Continuous
 62
     7
100
AcDbLine
 10
143.2958674988
 20
84.8883966809
 30
0.0
 11
199.5522479073
 21
89.3158698389
 31
0.0
  0
LINE
  5
9C
330
1F
100
AcDbEntity
  8
RUNDUNGEN
  6
Continuous
 62
     7
100
AcDbLine
 10
143.2958674988
 20
84.8883966809
 30
0.0
 11
132.4237888116
 21
84.8883966809
 31
0.0
  0
LINE
  5
9D
330
1F
100
AcDbEntity
  8
0
  6
Continuous
 62
     7
100
AcDbLine
 10
132.4237888116
 20
84.8883966809
 30
0.0
 11
143.2958674988
 21
84.8883966809
 31
0.0
  0
LINE
  5
9E
330
1F
100
AcDbEntity
  8
0
  6
Continuous
 62
     7
100
AcDbLine
 10
116.5612888116
 20
143.0759294686
 30
0.0
 11
116.5612888116
 21
114.9058966809
 31
0.0
  0
LINE
  5
9F
330
1F
100
AcDbEntity
  8
0
  6
Continuous
 62
     7
100
AcDbLine
 10
116.5612888116
 20
96.8708966809
 30
0.0
 11
116.5612888116
 21
81.0383966809
 31
0.0
  0
LINE
  5
A0
330
1F
100
AcDbEntity
  8
0
  6
Continuous
 62
     7
100
AcDbLine
 10
116.5612888116
 20
68.7008863571
 30
0.0
 11
116.5612888116
 21
80.2222102677
 31
0.0
  0
LINE
  5
A1
330
1F
100
AcDbEntity
  8
0
  6
Continuous
 62
     9
100
AcDbLine
 10
117.3112888116
 20
70.9133966809
 30
0.0
 11
117.3112888116
 21
97.2837104577
 31
0.0
  0
LINE
  5
A2
330
1F
100
AcDbEntity
  8
0
  6
Continuous
 62
     9
100
AcDbLine
 10
117.3112888116
 20
114.4930829042
 30
0.0
 11
117.3112888116
 21
140.8633966809
 31
0.0
  0
LINE
  5
A3
330
1F
100
AcDbEntity
  8
0
  6
Continuous
 62
     9
100
AcDbLine
 10
119.6362888116
 20
70.9133966809
 30
0.0
 11
119.6362888116
 21
97.2837104577
 31
0.0
  0
LINE
  5
A4
330
1F
100
AcDbEntity
  8
0
  6
Continuous
 62
     9
100
AcDbLine
 10
119.6362888116
 20
114.4930829042
 30
0.0
 11
119.6362888116
 21
140.8633966809
 31
0.0
  0
LINE
  5
A5
330
1F
100
AcDbEntity
  8
0
  6
Continuous
 62
     7
100
AcDbLine
 10
120.3862888116
 20
96.8708966809
 30
0.0
 11
120.3862888116
 21
81.0383966809
 31
0.0
  0
LINE
  5
A6
330
1F
100
AcDbEntity
  8
0
  6
Continuous
 62
     7
100
AcDbLine
 10
120.3862888116
 20
68.7008863571
 30
0.0
 11
120.3862888116
 21
80.2222102677
 31
0.0
  0
LINE
  5
A7
330
1F
100
AcDbEntity
  8
0
  6
Continuous
 62
     7
100
AcDbLine
 10
120.3862888116
 20
114.9058966809
 30
0.0
 11
120.3862888116
 21
143.0759294686
 31
0.0
  0
LINE
  5
A8
330
1F
100
AcDbEntity
  8
RUNDUNGEN
  6
Continuous
 62
     9
100
AcDbLine
 10
67.9132924931
 20
93.9883966809
 30
0.0
 11
61.7554587991
 21
93.9883966809
 31
0.0
  0
LINE
  5
A9
330
1F
100
AcDbEntity
  8
0
  6
Continuous
 62
     7
100
AcDbLine
 10
122.0100592103
 20
96.8708966809
 30
0.0
 11
122.0100592103
 21
81.0383966809
 31
0.0
  0
LINE
  5
AA
330
1F
100
AcDbEntity
  8
0
  6
Continuous
 62
     7
100
AcDbLine
 10
122.0100592103
 20
65.8883966809
 30
0.0
 11
122.0100592103
 21
74.5438995562
 31
0.0
  0
LINE
  5
AB
330
1F
100
AcDbEntity
  8
0
  6
Continuous
 62
     7
100
AcDbLine
 10
122.0100592103
 20
114.9058966809
 30
0.0
 11
122.0100592103
 21
145.8883966809
 31
0.0
  0
LINE
  5
AC
330
1F
100
AcDbEntity
  8
0
  6
Continuous
 62
     7
100
AcDbLine
 10
113.4412888116
 20
96.8708966809
 30
0.0
 11
116.6075941295
 21
96.8708966809
 31
0.0
  0
LINE
  5
AD
330
1F
100
AcDbEntity
  8
0
  6
Continuous
 62
     7
100
AcDbLine
 10
120.3399834936
 20
96.8708966809
 30
0.0
 11
126.4237888116
 21
96.8708966809
 31
0.0
  0
LINE
  5
AE
330
1F
100
AcDbEntity
  8
DEFAULT_2
  6
HIDDEN
 62
     8
100
AcDbLine
 10
200.4737888116
 20
96.8883966809
 30
0.0
 11
150.4737888116
 21
96.8883966809
 31
0.0
  0
LINE
  5
AF
330
1F
100
AcDbEntity
  8
0
  6
Continuous
 62
     7
100
AcDbLine
 10
126.4237888116
 20
97.2708966809
 30
0.0
 11
119.7050063389
 21
97.2708966809
 31
0.0
  0
LINE
  5
B0
330
1F
100
AcDbEntity
  8
0
  6
Continuous
 62
     7
100
AcDbLine
 10
117.2425712842
 20
97.2708966809
 30
0.0
 11
113.4412888116
 21
97.2708966809
 31
0.0
  0
LINE
  5
B1
330
1F
100
AcDbEntity
  8
0
  6
Continuous
 62
     7
100
AcDbLine
 10
117.3112888116
 20
97.2837104577
 30
0.0
 11
119.6362888116
 21
97.2837104577
 31
0.0
  0
LINE
  5
B2
330
1F
100
AcDbEntity
  8
0
  6
Continuous
 62
     7
100
AcDbLine
 10
66.7737888116
 20
97.8683966809
 30
0.0
 11
62.2237888116
 21
97.8683966809
 31
0.0
  0
LINE
  5
B3
330
1F
100
AcDbEntity
  8
0
  6
Continuous
 62
     7
100
AcDbLine
 10
126.4237888116
 20
145.8883545156
 30
0.0
 11
126.4237888116
 21
114.9058966809
 31
0.0
  0
LINE
  5
B4
330
1F
100
AcDbEntity
  8
0
  6
Continuous
 62
     7
100
AcDbLine
 10
126.4237888116
 20
96.8708966809
 30
0.0
 11
126.4237888116
 21
81.0383966809
 31
0.0
  0
LINE
  5
B5
330
1F
100
AcDbEntity
  8
0
  6
Continuous
 62
     7
100
AcDbLine
 10
126.4237888116
 20
74.5438995562
 30
0.0
 11
126.4237888116
 21
65.8884253112
 31
0.0
  0
LINE
  5
B6
330
1F
100
AcDbEntity
  8
FASEN
  6
Continuous
 62
     7
100
AcDbLine
 10
126.4237888116
 20
74.5438995562
 30
0.0
 11
126.4237888116
 21
81.0383966809
 31
0.0
  0
LINE
  5
B7
330
1F
100
AcDbEntity
  8
FASEN
  6
Continuous
 62
     7
100
AcDbLine
 10
126.4237888116
 20
96.8708966809
 30
0.0
 11
126.4237888116
 21
114.9058966809
 31
0.0
  0
LINE
  5
B8
330
1F
100
AcDbEntity
  8
RUNDUNGEN
  6
Continuous
 62
     9
100
AcDbLine
 10
132.4237888116
 20
126.8883966809
 30
0.0
 11
132.4237888116
 21
84.8883966809
 31
0.0
  0
LINE
  5
B9
330
1F
100
AcDbEntity
  8
0
  6
Continuous
 62
     7
100
AcDbLine
 10
114.9375184128
 20
65.8883966809
 30
0.0
 11
116.5612888116
 21
68.7008495115
 31
0.0
  0
LWPOLYLINE
  5
BA
330
1F
100
AcDbEntity
  8
TEIL_STARTBEZUEGE
  6
DOT_CENTER
 62
     7
100
AcDbPolyline
 90
        2
 70
     0
 43
0.25
 10
203.4737888116
 20
105.8883966809
 10
57.5737888116
 20
105.8883966809
  0
LINE
  5
BB
330
1F
100
AcDbEntity
  8
0
  6
Continuous
 62
     7
100
AcDbLine
 10
66.7737888116
 20
113.9083966809
 30
0.0
 11
62.2237888116
 21
113.9083966809
 31
0.0
  0
LINE
  5
BC
330
1F
100
AcDbEntity
  8
0
  6
Continuous
 62
     7
100
AcDbLine
 10
119.6362888116
 20
114.4930829042
 30
0.0
 11
117.3112888116
 21
114.4930829042
 31
0.0
  0
LINE
  5
BD
330
1F
100
AcDbEntity
  8
0
  6
Continuous
 62
     7
100
AcDbLine
 10
113.4412888116
 20
114.5058966809
 30
0.0
 11
117.2425712842
 21
114.5058966809
 31
0.0
  0
LINE
  5
BE
330
1F
100
AcDbEntity
  8
0
  6
Continuous
 62
     7
100
AcDbLine
 10
119.7050063389
 20
114.5058966809
 30
0.0
 11
126.4237888116
 21
114.5058966809
 31
0.0
  0
LINE
  5
BF
330
1F
100
AcDbEntity
  8
DEFAULT_2
  6
HIDDEN
 62
     8
100
AcDbLine
 10
200.4737888116
 20
114.8883966809
 30
0.0
 11
150.4737888116
 21
114.8883966809
 31
0.0
  0
LINE
  5
C0
330
1F
100
AcDbEntity
  8
0
  6
Continuous
 62
     7
100
AcDbLine
 10
113.4412888116
 20
114.9058966809
 30
0.0
 11
116.6075941295
 21
114.9058966809
 31
0.0
  0
LINE
  5
C1
330
1F
100
AcDbEntity
  8
0
  6
Continuous
 62
     7
100
AcDbLine
 10
120.3399834936
 20
114.9058966809
 30
0.0
 11
126.4237888116
 21
114.9058966809
 31
0.0
  0
LINE
  5
C2
330
1F
100
AcDbEntity
  8
0
  6
Continuous
 62
     7
100
AcDbLine
 10
114.9375184128
 20
145.8883966809
 30
0.0
 11
116.5612888116
 21
143.0759438504
 31
0.0
  0
LINE
  5
C3
330
1F
100
AcDbEntity
  8
0
  6
Continuous
 62
     7
100
AcDbLine
 10
143.2958674988
 20
126.8883966809
 30
0.0
 11
143.2958674988
 21
84.8883966809
 31
0.0
  0
LINE
  5
C4
330
1F
100
AcDbEntity
  8
RUNDUNGEN
  6
Continuous
 62
     9
100
AcDbLine
 10
61.7554587991
 20
117.7883966809
 30
0.0
 11
67.9132924931
 21
117.7883966809
 31
0.0
  0
LINE
  5
C5
330
1F
100
AcDbEntity
  8
DEFAULT_2
  6
HIDDEN
 62
     8
100
AcDbLine
 10
150.4737888116
 20
114.8883966809
 30
0.0
 11
150.4737888116
 21
96.8883966809
 31
0.0
  0
LINE
  5
C6
330
1F
100
AcDbEntity
  8
0
  6
Continuous
 62
     7
100
AcDbLine
 10
98.5930324256
 20
136.0040208547
 30
0.0
 11
97.9737888116
 21
136.1699466809
 31
0.0
  0
LINE
  5
C7
330
1F
100
AcDbEntity
  8
RUNDUNGEN
  6
Continuous
 62
     7
100
AcDbLine
 10
143.2958674988
 20
126.8883966809
 30
0.0
 11
132.4237888116
 21
126.8883966809
 31
0.0
  0
LINE
  5
C8
330
1F
100
AcDbEntity
  8
0
  6
Continuous
 62
     7
100
AcDbLine
 10
132.4237888116
 20
126.8883966809
 30
0.0
 11
143.2958674988
 21
126.8883966809
 31
0.0
  0
LINE
  5
C9
330
1F
100
AcDbEntity
  8
RUNDUNGEN
  6
Continuous
 62
     7
100
AcDbLine
 10
199.5522479073
 20
122.460923523
 30
0.0
 11
143.2958674988
 21
126.8883966809
 31
0.0
  0
LINE
  5
CA
330
1F
100
AcDbEntity
  8
0
  6
Continuous
 62
     7
100
AcDbLine
 10
143.2958674988
 20
126.8883966809
 30
0.0
 11
199.5522479073
 21
122.460923523
 31
0.0
  0
LINE
  5
CB
330
1F
100
AcDbEntity
  8
0
  6
Continuous
 62
     7
100
AcDbLine
 10
99.7732175229
 20
135.9699466809
 30
0.0
 11
98.8518514707
 21
135.9699466809
 31
0.0
  0
LINE
  5
CC
330
1F
100
AcDbEntity
  8
0
  6
Continuous
 62
     7
100
AcDbLine
 10
97.9737888116
 20
136.1699466809
 30
0.0
 11
62.0937292238
 21
134.3723556956
 31
0.0
  0
LINE
  5
CD
330
1F
100
AcDbEntity
  8
0
  6
Continuous
 62
     7
100
AcDbLine
 10
117.3112888116
 20
140.8633966809
 30
0.0
 11
119.6362888116
 21
140.8633966809
 31
0.0
  0
LINE
  5
CE
330
1F
100
AcDbEntity
  8
BEZUGSACHSEN
  6
Continuous
 62
     7
100
AcDbLine
 10
114.9375184128
 20
145.8883966809
 30
0.0
 11
112.4737888116
 21
145.8883966809
 31
0.0
  0
LINE
  5
CF
330
1F
100
AcDbEntity
  8
BEZUGSACHSEN
  6
Continuous
 62
     7
100
AcDbLine
 10
102.4737888116
 20
145.8883966809
 30
0.0
 11
100.4737888116
 21
145.8883966809
 31
0.0
  0
LINE
  5
D0
330
1F
100
AcDbEntity
  8
0
  6
Continuous
 62
     7
100
AcDbLine
 10
100.4737888116
 20
145.8883966809
 30
0.0
 11
102.4737888116
 21
145.8883966809
 31
0.0
  0
LINE
  5
D1
330
1F
100
AcDbEntity
  8
0
  6
Continuous
 62
     7
100
AcDbLine
 10
112.4737888116
 20
145.8883966809
 30
0.0
 11
114.9375184128
 21
145.8883966809
 31
0.0
  0
LINE
  5
D2
330
1F
100
AcDbEntity
  8
0
  6
Continuous
 62
     7
100
AcDbLine
 10
122.0100592103
 20
145.8883966809
 30
0.0
 11
126.4237888116
 21
145.8883966809
 31
0.0
  0
LINE
  5
D3
330
1F
100
AcDbEntity
  8
RUNDUNGEN
  6
Continuous
 62
     9
100
AcDbLine
 10
199.5522479073
 20
89.3158698389
 30
0.0
 11
199.5522479073
 21
122.460923523
 31
0.0
  0
LINE
  5
D4
330
1F
100
AcDbEntity
  8
RUNDUNGEN
  6
Continuous
 62
     7
100
AcDbLine
 10
200.4737888116
 20
121.4640061893
 30
0.0
 11
200.4737888116
 21
90.3127871726
 31
0.0
  0
LWPOLYLINE
  5
D5
330
1F
100
AcDbEntity
  8
1
  6
Continuous
 62
     7
100
AcDbPolyline
 90
        2
 70
     0
 43
0.25
 10
200.4737888116
 20
121.4640061893
 10
200.4737888116
 20
122.3883966809466
  0
LWPOLYLINE
  5
D6
330
1F
100
AcDbEntity
  8
1
  6
Continuous
 62
     7
100
AcDbPolyline
 90
        2
 70
     0
 43
0.25
 10
199.5522479073
 20
122.460923523
 10
200.4737888115949
 20
122.3883966809466
  0
LWPOLYLINE
  5
D7
330
1F
100
AcDbEntity
  8
1
  6
Continuous
 62
     7
100
AcDbPolyline
 90
        2
 70
     0
 43
0.25
 10
199.5522479073
 20
89.3158698389
 10
200.4737888116
 20
89.38839668094863
  0
LWPOLYLINE
  5
D8
330
1F
100
AcDbEntity
  8
1
  6
Continuous
 62
     7
100
AcDbPolyline
 90
        2
 70
     0
 43
0.25
 10
200.4737888116
 20
90.3127871726
 10
200.4737888116
 20
89.38839668094863
  0
ARC
  5
D9
330
1F
100
AcDbEntity
  8
0
  6
Continuous
 62
     7
100
AcDbCircle
 10
75.6825350104
 20
80.8383966809
 30
0.0
 40
40.94090914375135
100
AcDbArc
 50
359.7201038833813
 51
0.27989611661871
  0
ARC
  5
DA
330
1F
100
AcDbEntity
  8
FASEN
  6
Continuous
 62
     7
100
AcDbCircle
 10
117.1779602486
 20
87.0906923811
 30
0.0
 40
17.62098209919971
100
AcDbArc
 50
223.931824022501
 51
225.4009012367981
  0
ARC
  5
DB
330
1F
100
AcDbEntity
  8
FASEN
  6
Continuous
 62
     7
100
AcDbCircle
 10
113.0324659723
 20
72.0383966809
 30
0.0
 40
9.0
100
AcDbArc
 50
90.0
 51
161.694032239301
  0
ARC
  5
DC
330
1F
100
AcDbEntity
  8
FASEN
  6
Continuous
 62
     7
100
AcDbCircle
 10
113.0324659723
 20
72.0383966809
 30
0.0
 40
8.599979606200009
100
AcDbArc
 50
90.0
 51
163.0619502147009
  0
ARC
  5
DD
330
1F
100
AcDbEntity
  8
RUNDUNGEN
  6
Continuous
 62
     7
100
AcDbCircle
 10
66.7737888116
 20
99.7683966809
 30
0.0
 40
1.899999999999991
100
AcDbArc
 50
270.0
 51
354.9999999999014
  0
ARC
  5
DE
330
1F
100
AcDbEntity
  8
0
  6
Continuous
 62
     7
100
AcDbCircle
 10
62.1737888116
 20
79.0024334305
 30
0.0
 40
1.600000000000001
100
AcDbArc
 50
180.0
 51
267.1318795121995
  0
ARC
  5
DF
330
1F
100
AcDbEntity
  8
0
  6
Continuous
 62
     7
100
AcDbCircle
 10
98.8518514707
 20
74.8068466809
 30
0.0
 40
1.0
100
AcDbArc
 50
90.0
 51
104.9999999996981
  0
ARC
  5
E0
330
1F
100
AcDbEntity
  8
0
  6
Continuous
 62
     7
100
AcDbCircle
 10
99.7732175229
 20
74.8068466809
 30
0.0
 40
0.9999999999996478
100
AcDbArc
 50
45.52164291272007
 51
90.0
  0
ARC
  5
E1
330
1F
100
AcDbEntity
  8
0
  6
Continuous
 62
     7
100
AcDbCircle
 10
117.3112888116
 20
70.1633966809
 30
0.0
 40
0.75
100
AcDbArc
 50
90.0
 51
180.0
  0
ARC
  5
E2
330
1F
100
AcDbEntity
  8
0
  6
Continuous
 62
     7
100
AcDbCircle
 10
-76.1469397141
 20
161.0837865781
 30
0.0
 40
209.7675432077
100
AcDbArc
 50
335.6347911335
 51
336.7331595278001
  0
ARC
  5
E3
330
1F
100
AcDbEntity
  8
RUNDUNGEN
  6
Continuous
 62
     7
100
AcDbCircle
 10
66.7737888116
 20
112.0083966809
 30
0.0
 40
1.900000000000006
100
AcDbArc
 50
0.0
 51
90.0
  0
ARC
  5
E4
330
1F
100
AcDbEntity
  8
0
  6
Continuous
 62
     7
100
AcDbCircle
 10
62.1737888116
 20
132.7743599314
 30
0.0
 40
1.599999999999946
100
AcDbArc
 50
92.86812048780048
 51
180.0
  0
ARC
  5
E5
330
1F
100
AcDbEntity
  8
0
  6
Continuous
 62
     7
100
AcDbCircle
 10
113.4412888116
 20
105.8883966809
 30
0.0
 40
9.017499999999998
100
AcDbArc
 50
90.0
 51
270.0
  0
ARC
  5
E6
330
1F
100
AcDbEntity
  8
FASEN
  6
Continuous
 62
     7
100
AcDbCircle
 10
113.4412888116
 20
105.8883966809
 30
0.0
 40
8.617497877199995
100
AcDbArc
 50
90.0
 51
270.0
  0
ARC
  5
E7
330
1F
100
AcDbEntity
  8
0
  6
Continuous
 62
     7
100
AcDbCircle
 10
98.8518514707
 20
136.9699466809
 30
0.0
 40
0.9999999999133061
100
AcDbArc
 50
254.9999999988187
 51
270.0
  0
ARC
  5
E8
330
1F
100
AcDbEntity
  8
0
  6
Continuous
 62
     7
100
AcDbCircle
 10
99.7732175229
 20
136.9699466809
 30
0.0
 40
1.0
100
AcDbArc
 50
270.0
 51
314.4783570872765
  0
ARC
  5
E9
330
1F
100
AcDbEntity
  8
0
  6
Continuous
 62
     7
100
AcDbCircle
 10
117.3112888116
 20
141.6133966809
 30
0.0
 40
0.75
100
AcDbArc
 50
180.0
 51
270.0
  0
ARC
  5
EA
330
1F
100
AcDbEntity
  8
BEZUGSACHSEN
  6
Continuous
 62
     7
100
AcDbCircle
 10
107.4499023539
 20
185.955350889
 30
0.0
 40
40.38069160689966
100
AcDbArc
 50
270.0338922697995
 51
277.1468635116501
  0
ARC
  5
EB
330
1F
100
AcDbEntity
  8
BEZUGSACHSEN
  6
Continuous
 62
     7
100
AcDbCircle
 10
107.4976752657
 20
185.9553508316
 30
0.0
 40
40.38069154952629
100
AcDbArc
 50
262.8531364832856
 51
269.9661077353143
  0
ARC
  5
EC
330
1F
100
AcDbEntity
  8
RUNDUNGEN
  6
Continuous
 62
     7
100
AcDbCircle
 10
195.6737278414
 20
-1008.3783825669
 30
0.0
 40
1134.1881142077
100
AcDbArc
 50
96.52573778010002
 51
96.7637593779
  0
ARC
  5
ED
330
1F
100
AcDbEntity
  8
0
  6
Continuous
 62
     7
100
AcDbCircle
 10
161.2650426127
 20
80.8383966809
 30
0.0
 40
40.94090914375135
100
AcDbArc
 50
179.7201038833813
 51
180.2798961166187
  0
ARC
  5
EE
330
1F
100
AcDbEntity
  8
RUNDUNGEN
  6
Continuous
 62
     7
100
AcDbCircle
 10
132.4237888116
 20
78.8883966809
 30
0.0
 40
6.0
100
AcDbArc
 50
90.0
 51
180.0
  0
ARC
  5
EF
330
1F
100
AcDbEntity
  8
RUNDUNGEN
  6
Continuous
 62
     7
100
AcDbCircle
 10
199.4737888116
 20
90.3127871726
 30
0.0
 40
0.9999999999647865
100
AcDbArc
 50
274.4999999985583
 51
0.0
  0
ARC
  5
F0
330
1F
100
AcDbEntity
  8
0
  6
Continuous
 62
     7
100
AcDbCircle
 10
119.6362888116
 20
70.1633966809
 30
0.0
 40
0.75
100
AcDbArc
 50
0.0
 51
90.0
  0
ARC
  5
F1
330
1F
100
AcDbEntity
  8
RUNDUNGEN
  6
Continuous
 62
     7
100
AcDbCircle
 10
195.6737278415
 20
1220.1551759292
 30
0.0
 40
1134.1881142081
100
AcDbArc
 50
263.2362406221
 51
263.4742622199
  0
ARC
  5
F2
330
1F
100
AcDbEntity
  8
0
  6
Continuous
 62
     7
100
AcDbCircle
 10
313.0945173372
 20
161.0837865781
 30
0.0
 40
209.7675432076002
100
AcDbArc
 50
203.2668404721999
 51
204.3652088665
  0
ARC
  5
F3
330
1F
100
AcDbEntity
  8
RUNDUNGEN
  6
Continuous
 62
     7
100
AcDbCircle
 10
132.4237888116
 20
132.8883966809
 30
0.0
 40
5.999999999999986
100
AcDbArc
 50
180.0
 51
270.0
  0
ARC
  5
F4
330
1F
100
AcDbEntity
  8
RUNDUNGEN
  6
Continuous
 62
     7
100
AcDbCircle
 10
199.4737888116
 20
121.4640061893
 30
0.0
 40
1.0
100
AcDbArc
 50
0.0
 51
85.50000000144175
  0
ARC
  5
F5
330
1F
100
AcDbEntity
  8
0
  6
Continuous
 62
     7
100
AcDbCircle
 10
119.6362888116
 20
141.6133966809
 30
0.0
 40
0.75
100
AcDbArc
 50
270.0
 51
0.0
  0
CIRCLE
  5
F6
330
1F
100
AcDbEntity
  8
FASEN
  6
Continuous
 62
     7
100
AcDbCircle
 10
88.4737888116
 20
105.8883966809
 30
0.0
 40
4.25
  0
SPLINE
  5
F7
330
1F
100
AcDbEntity
  8
0
  6
Continuous
 62
     7
100
AcDbSpline
210
0.0
220
0.0
230
1.0
 70
     8
 71
     3
 72
    27
 73
    23
 74
    21
 42
0.0000000001
 43
0.0000000001
 44
0.00000001
 40
0.0
 40
0.0
 40
0.0
 40
0.0
 40
0.1005593763161638
 40
0.2012543954236121
 40
0.2905289403681558
 40
0.379499960833253
 40
0.4198989481652721
 40
0.4602916821711254
 40
0.4986937524255124
 40
0.5370892802019464
 40
0.5745784458771319
 40
0.6120681418314481
 40
0.6498944637687577
 40
0.6877262176037332
 40
0.768046544112406
 40
0.8487068782097279
 40
0.938708380412293
 40
1.028639130879905
 40
1.127965388977167
 40
1.227310735225101
 40
1.334449143155906
 40
1.441556400152884
 40
1.441556400152884
 40
1.441556400152884
 40
1.441556400152884
 10
60.5737888116
 20
117.3102338765
 30
0.0
 10
60.57445599069365
 20
117.3437659991153
 30
0.0
 10
60.57579124882722
 20
117.4108754752421
 30
0.0
 10
60.58862817127423
 20
117.5071053671311
 30
0.0
 10
60.61071941176009
 20
117.5976129487888
 30
0.0
 10
60.63813051261037
 20
117.6655564545751
 30
0.0
 10
60.66617532189917
 20
117.7147816234596
 30
0.0
 10
60.68906295527562
 20
117.7473439548019
 30
0.0
 10
60.71476540373448
 20
117.7768536588426
 30
0.0
 10
60.74279226539145
 20
117.8027760213436
 30
0.0
 10
60.77335322982135
 20
117.8251438556873
 30
0.0
 10
60.80605724018734
 20
117.8438604348069
 30
0.0
 10
60.84077048398227
 20
117.8588083629032
 30
0.0
 10
60.89052171814612
 20
117.8742010318422
 30
0.0
 10
60.95658537022677
 20
117.8836435026908
 30
0.0
 10
61.04049570019041
 20
117.8813639734818
 30
0.0
 10
61.1264173876442
 20
117.8669239776455
 30
0.0
 10
61.21592922973932
 20
117.8408488420315
 30
0.0
 10
61.30562962109871
 20
117.8057552031748
 30
0.0
 10
61.39741747240141
 20
117.7612549383137
 30
0.0
 10
61.48863181672496
 20
117.7100244522159
 30
0.0
 10
61.54839213898938
 20
117.6708953690392
 30
0.0
 10
61.5782679556
 20
117.6513336721
 30
0.0
 11
60.5737888116
 21
117.3102338765
 31
0.0
 11
60.57767707777185
 21
117.4107180521262
 31
0.0
 11
60.59100153589371
 21
117.5105275992087
 31
0.0
 11
60.61280792410317
 21
117.5970979509944
 31
0.0
 11
60.64665711391272
 21
117.6793784154549
 31
0.0
 11
60.66671815381991
 21
117.7144445366447
 31
0.0
 11
60.69001053314665
 21
117.7474451127877
 31
0.0
 11
60.71526438998301
 21
117.7763754033965
 31
0.0
 11
60.74348710089356
 21
117.8024079818721
 31
0.0
 11
60.7737346850614
 21
117.8245556949602
 31
0.0
 11
60.8062746420588
 21
117.843173656754
 31
0.0
 11
60.84099891136387
 21
117.8581755150567
 31
0.0
 11
60.87713092636596
 21
117.8693879675145
 31
0.0
 11
60.95655400125104
 21
117.8813600193962
 31
0.0
 11
61.03719689158776
 21
117.8796826002982
 31
0.0
 11
61.12602733087002
 21
117.8652111298947
 31
0.0
 11
61.21250209860217
 21
117.8405199487699
 31
0.0
 11
61.30509418229777
 21
117.8045698224209
 31
0.0
 11
61.39463502553315
 21
117.761535705562
 31
0.0
 11
61.4880013414271
 21
117.7089869709404
 31
0.0
 11
61.5782679556
 21
117.6513336721
 31
0.0
  0
SPLINE
  5
F8
330
1F
100
AcDbEntity
  8
RUNDUNGEN
  6
Continuous
 62
     7
100
AcDbSpline
210
0.0
220
0.0
230
1.0
 70
     8
 71
     3
 72
    15
 73
    11
 74
     9
 42
0.0000000001
 43
0.0000000001
 44
0.00000001
 40
0.0
 40
0.0
 40
0.0
 40
0.0
 40
0.3162936728578271
 40
0.6327491898693642
 40
0.9497778541364796
 40
1.266736320399021
 40
1.585306002252215
 40
1.903962908390021
 40
2.2253420785053
 40
2.546438904750512
 40
2.546438904750512
 40
2.546438904750512
 40
2.546438904750512
 10
67.9132924931
 20
117.7883966809
 30
0.0
 10
67.96933945173171
 20
117.6990531016932
 30
0.0
 10
68.08146204763582
 20
117.5203202271075
 30
0.0
 10
68.22744062254681
 20
117.2390269379514
 30
0.0
 10
68.35684101648496
 20
116.9496570594787
 30
0.0
 10
68.46671509526429
 20
116.6514874246255
 30
0.0
 10
68.55599352877948
 20
116.3459002583512
 30
0.0
 10
68.62207658982679
 20
116.0330433521575
 30
0.0
 10
68.66535427782526
 20
115.715022211752
 30
0.0
 10
68.67097812416425
 20
115.5008019615548
 30
0.0
 10
68.6737888116
 20
115.3937389073
 30
0.0
 11
67.9132924931
 21
117.7883966809
 31
0.0
 11
68.07771762923834
 21
117.5182003409992
 31
0.0
 11
68.22457813152434
 21
117.2378860760833
 31
0.0
 11
68.3535529488673
 21
116.9482782887945
 31
0.0
 11
68.46308610385385
 21
116.6508473601838
 31
0.0
 11
68.55206296218581
 21
116.3449556131925
 31
0.0
 11
68.61809576777199
 21
116.0332155092345
 31
0.0
 11
68.6595355125347
 21
115.7145192297802
 31
0.0
 11
68.6737888116
 21
115.3937389073
 31
0.0
  0
SPLINE
  5
F9
330
1F
100
AcDbEntity
  8
RUNDUNGEN
  6
Continuous
 62
     7
100
AcDbSpline
210
0.0
220
0.0
230
1.0
 70
     8
 71
     3
 72
    19
 73
    15
 74
    13
 42
0.0000000001
 43
0.0000000001
 44
0.00000001
 40
0.0
 40
0.0
 40
0.0
 40
0.0
 40
0.0908658953554055
 40
0.18181558429329
 40
0.2719578267094107
 40
0.3620796283893398
 40
0.4508848980136091
 40
0.5396930491267349
 40
0.6271215589185698
 40
0.7145608604808564
 40
0.8859439487514996
 40
1.057581272647516
 40
1.226597310353505
 40
1.395465809398502
 40
1.395465809398502
 40
1.395465809398502
 40
1.395465809398502
 10
66.7737888116
 20
118.4612174331
 30
0.0
 10
66.80398987427829
 20
118.4638136999486
 30
0.0
 10
66.86441985007565
 20
118.469008627839
 30
0.0
 10
66.95523017180358
 20
118.4655467425938
 30
0.0
 10
67.04497633320722
 20
118.4537674180167
 30
0.0
 10
67.13248603252548
 20
118.4334549055075
 30
0.0
 10
67.21729985843821
 20
118.405314270098
 30
0.0
 10
67.2985249692565
 20
118.370295649243
 30
0.0
 10
67.37622925386611
 20
118.329028618424
 30
0.0
 10
67.47390993848592
 20
118.267387909125
 30
0.0
 10
67.5871653022121
 20
118.1785844979444
 30
0.0
 10
67.70855295387423
 20
118.0582311312302
 30
0.0
 10
67.81801458345643
 20
117.927976883427
 30
0.0
 10
67.88154243645084
 20
117.8349098690452
 30
0.0
 10
67.9132924931
 20
117.7883966809
 30
0.0
 11
66.7737888116
 21
118.4612174331
 31
0.0
 11
66.8644620991815
 21
118.4671306266452
 31
0.0
 11
66.95536240974201
 21
118.4641340522844
 31
0.0
 11
67.04472730743382
 21
118.4523213926203
 31
0.0
 11
67.13253070734194
 21
118.4320112448461
 31
0.0
 11
67.21684066850442
 21
118.4041148945145
 31
0.0
 11
67.29842126189237
 21
118.3690222387786
 31
0.0
 11
67.37567589463688
 21
118.3280897816824
 31
0.0
 11
67.44966714841014
 21
118.281496586656
 31
0.0
 11
67.58486909449769
 21
118.1761751894031
 31
0.0
 11
67.70725140241842
 21
118.0558342501422
 31
0.0
 11
67.81577915659489
 21
117.9262651659622
 31
0.0
 11
67.9132924931
 21
117.7883966809
 31
0.0
  0
SPLINE
  5
FA
330
1F
100
AcDbEntity
  8
RUNDUNGEN
  6
Continuous
 62
     7
100
AcDbSpline
210
0.0
220
0.0
230
1.0
 70
     8
 71
     3
 72
    15
 73
    11
 74
     9
 42
0.0000000001
 43
0.0000000001
 44
0.00000001
 40
0.0
 40
0.0
 40
0.0
 40
0.0
 40
0.3210967670974968
 40
0.6424758766326565
 40
0.9611327417816437
 40
1.279702385458493
 40
1.596661045151397
 40
1.913689899811497
 40
2.230145323894487
 40
2.546438905962189
 40
2.546438905962189
 40
2.546438905962189
 40
2.546438905962189
 10
68.6737888116
 20
96.3830544546
 30
0.0
 10
68.67097812614466
 20
96.27599142006588
 30
0.0
 10
68.66535428378026
 20
96.06177120978768
 30
0.0
 10
68.62207661115511
 20
95.74375012123684
 30
0.0
 10
68.55599354986258
 20
95.43089326247112
 30
0.0
 10
68.46671510972172
 20
95.1253060594207
 30
0.0
 10
68.35684102997425
 20
94.82713630242631
 30
0.0
 10
68.22744061855704
 20
94.53776632414315
 30
0.0
 10
68.08146201197744
 20
94.25647304864988
 30
0.0
 10
67.96933943997117
 20
94.07774023162777
 30
0.0
 10
67.9132924931
 20
93.9883966809
 30
0.0
 11
68.6737888116
 21
96.3830544546
 31
0.0
 11
68.65953552016322
 21
96.06227419098691
 31
0.0
 11
68.61809578781866
 21
95.74357797100804
 31
0.0
 11
68.5520629863051
 21
95.43183790808565
 31
0.0
 11
68.46308614751285
 21
95.12594619516925
 31
0.0
 11
68.35355295719332
 21
94.82851507344063
 31
0.0
 11
68.22457807724614
 21
94.53890710561221
 31
0.0
 11
68.07771759794882
 21
94.25859293356216
 31
0.0
 11
67.9132924931
 21
93.9883966809
 31
0.0
  0
SPLINE
  5
FB
330
1F
100
AcDbEntity
  8
RUNDUNGEN
  6
Continuous
 62
     7
100
AcDbSpline
210
0.0
220
0.0
230
1.0
 70
     8
 71
     3
 72
    19
 73
    15
 74
    13
 42
0.0000000001
 43
0.0000000001
 44
0.00000001
 40
0.0
 40
0.0
 40
0.0
 40
0.0
 40
0.1688722591318147
 40
0.3378923301678189
 40
0.5095430667323215
 40
0.6809387931757094
 40
0.7683828000631939
 40
0.8558164159905578
 40
0.9446259266114625
 40
1.033432066262479
 40
1.123538983595418
 40
1.213666714808073
 40
1.304608728397116
 40
1.395466840195374
 40
1.395466840195374
 40
1.395466840195374
 40
1.395466840195374
 10
67.9132924931
 20
93.9883966809
 30
0.0
 10
67.88154162223252
 20
93.94188252573495
 30
0.0
 10
67.81801208933337
 20
93.84881350211143
 30
0.0
 10
67.70854546413264
 20
93.71855425339396
 30
0.0
 10
67.5871513613617
 20
93.59819312619881
 30
0.0
 10
67.47388593366531
 20
93.50938536199956
 30
0.0
 10
67.37619495612073
 20
93.44774684332565
 30
0.0
 10
67.29848537756902
 20
93.40648205398413
 30
0.0
 10
67.21725837345139
 20
93.37146191493771
 30
0.0
 10
67.13244854839346
 20
93.34332221021563
 30
0.0
 10
67.04494690950874
 20
93.32301661831704
 30
0.0
 10
66.95521237289358
 20
93.31124428145591
 30
0.0
 10
66.86441208000954
 20
93.30778511089477
 30
0.0
 10
66.80398727227251
 20
93.3129797886227
 30
0.0
 10
66.7737888116
 20
93.3155759288
 30
0.0
 11
67.9132924931
 21
93.9883966809
 31
0.0
 11
67.81577664610322
 21
93.85052536594006
 31
0.0
 11
67.70724612032649
 21
93.72095334200108
 31
0.0
 11
67.58485428309628
 21
93.60060296376092
 31
0.0
 11
67.44963972036864
 21
93.49527719735293
 31
0.0
 11
67.37564184953425
 21
93.4486856803942
 31
0.0
 11
67.2983809230183
 21
93.40775419583731
 31
0.0
 11
67.21679896447243
 21
93.37266127323824
 31
0.0
 11
67.1324879979972
 21
93.34476519158277
 31
0.0
 11
67.04469814503464
 21
93.32446252505697
 31
0.0
 11
66.9553470114709
 21
93.31265647303204
 31
0.0
 11
66.86445429102733
 21
93.30966261164656
 31
0.0
 11
66.7737888116
 21
93.3155759288
 31
0.0
  0
SPLINE
  5
FC
330
1F
100
AcDbEntity
  8
FASEN
  6
Continuous
 62
     7
100
AcDbSpline
210
0.0
220
0.0
230
1.0
 70
     8
 71
     3
 72
    43
 73
    39
 74
    37
 42
0.0000000001
 43
0.0000000001
 44
0.00000001
 40
0.0
 40
0.0
 40
0.0
 40
0.0
 40
0.4749013796011672
 40
0.9503070044366922
 40
1.426516794747863
 40
1.902569884110394
 40
2.378584226390204
 40
2.854695131966796
 40
3.330934150227531
 40
3.806936903930874
 40
4.04485114489608
 40
4.282689037123331
 40
4.520257272353692
 40
4.757901325393618
 40
5.232421588296462
 40
5.707166910084367
 40
6.181844946079259
 40
6.656466720121111
 40
7.131680532957873
 40
7.606912148223624
 40
8.083165911160243
 40
8.559404406963766
 40
9.036790688975803
 40
9.51423675202376
 40
9.992554709992218
 40
10.47064082763142
 40
10.70993136093822
 40
10.94914401736867
 40
11.18825986902887
 40
11.42745308574739
 40
11.90448227706414
 40
12.38174856645234
 40
12.8565971025694
 40
13.33134750748127
 40
13.80459019512601
 40
14.277980807429
 40
14.74980874357556
 40
15.22115173924921
 40
15.22115173924921
 40
15.22115173924921
 40
15.22115173924921
 10
83.6244740436
 20
105.8883966397
 30
0.0
 10
83.62895559781614
 20
106.0467617921003
 30
0.0
 10
83.63792346471502
 20
106.3636602473356
 30
0.0
 10
83.7105979171788
 20
106.8347571339418
 30
0.0
 10
83.82579165549014
 20
107.297102259467
 30
0.0
 10
83.98673708411928
 20
107.7460546212562
 30
0.0
 10
84.19092929797252
 20
108.1769271792718
 30
0.0
 10
84.43655530458415
 20
108.5857150669717
 30
0.0
 10
84.72129363071953
 20
108.9682421307741
 30
0.0
 10
84.98868471005116
 20
109.2622515984638
 30
0.0
 10
85.21898062972623
 20
109.480608318408
 30
0.0
 10
85.39943242103313
 20
109.6355935536094
 30
0.0
 10
85.58719389067224
 20
109.7814901500471
 30
0.0
 10
85.84648599025896
 20
109.9633025155506
 30
0.0
 10
86.18684398270406
 20
110.1663493707499
 30
0.0
 10
86.61684368734396
 20
110.3690575047842
 30
0.0
 10
87.06464990193764
 20
110.5287892683277
 30
0.0
 10
87.52600017983731
 20
110.6442877306168
 30
0.0
 10
87.99659591347437
 20
110.7142999148406
 30
0.0
 10
88.47231078945487
 20
110.738311033564
 30
0.0
 10
88.94844164699263
 20
110.7156981480783
 30
0.0
 10
89.42081521138307
 20
110.6466910281956
 30
0.0
 10
89.88453003984291
 20
110.5315677457375
 30
0.0
 10
90.33538058053354
 20
110.3712780383847
 30
0.0
 10
90.76837392744125
 20
110.1671205638554
 30
0.0
 10
91.11100857204534
 20
109.9621315827298
 30
0.0
 10
91.37177852672588
 20
109.7784414311192
 30
0.0
 10
91.56034580120502
 20
109.6310965488617
 30
0.0
 10
91.74136239620753
 20
109.4746178677733
 30
0.0
 10
91.97172823779518
 20
109.2545981607292
 30
0.0
 10
92.23865150400866
 20
108.9586545526444
 30
0.0
 10
92.52181016332894
 20
108.5746210629077
 30
0.0
 10
92.76530063893568
 20
108.1651454148033
 30
0.0
 10
92.96689682537922
 20
107.7350247991847
 30
0.0
 10
93.1254355391101
 20
107.2876742662877
 30
0.0
 10
93.23861164520315
 20
106.8280037862378
 30
0.0
 10
93.3098877189703
 20
106.360087049645
 30
0.0
 10
93.31870862330791
 20
106.0455728767786
 30
0.0
 10
93.3231168078
 20
105.8883966456
 30
0.0
 11
83.6244740436
 21
105.8883966397
 31
0.0
 11
83.64776971695818
 21
106.3627263055969
 31
0.0
 11
83.7176205475405
 21
106.8329723790438
 31
0.0
 11
83.83342452677161
 21
107.2948870927978
 31
0.0
 11
83.99395130215939
 21
107.7430585982232
 31
0.0
 11
84.19781444173789
 21
108.1732091234783
 31
0.0
 11
84.4430513579297
 21
108.5813028006478
 31
0.0
 11
84.72737178709362
 21
108.96335711102
 31
0.0
 11
85.04766663930846
 21
109.31547900636
 31
0.0
 11
85.2203083917662
 21
109.4791799879159
 31
0.0
 11
85.40073180609325
 21
109.6341453212704
 31
0.0
 11
85.5883252803642
 21
109.7799100454029
 31
0.0
 11
85.78290490853198
 21
109.9163412157685
 31
0.0
 11
86.19038926618158
 21
110.1594995554903
 31
0.0
 11
86.61982725582153
 21
110.3619004784465
 31
0.0
 11
87.06689976501637
 21
110.5214166512259
 31
0.0
 11
87.52731725215604
 21
110.6366623276335
 31
0.0
 11
87.99735282362735
 21
110.7066246708081
 31
0.0
 11
88.47198232195402
 21
110.7305396758525
 31
0.0
 11
88.94770133405132
 21
110.7079771352053
 31
0.0
 11
89.4189315552873
 21
110.6390918430226
 31
0.0
 11
89.8822560203932
 21
110.5240783556066
 31
0.0
 11
90.3320993241138
 21
110.3640916523537
 31
0.0
 11
90.76475461209206
 21
110.160137072362
 31
0.0
 11
91.17499145748641
 21
109.9146333726746
 31
0.0
 11
91.37062274087499
 21
109.776835113288
 31
0.0
 11
91.55911659670875
 21
109.6295504864275
 31
0.0
 11
91.74001062910732
 21
109.4731735713864
 31
0.0
 11
91.91298077174221
 21
109.3079624195805
 31
0.0
 11
92.23251358602528
 21
108.9537652570218
 31
0.0
 11
92.51571382812972
 21
108.5696028774759
 31
0.0
 11
92.75844050368443
 21
108.1614792525451
 31
0.0
 11
92.95994284013923
 21
107.7316132788193
 31
0.0
 11
93.11790740338542
 21
107.2855125747538
 31
0.0
 11
93.23174898500515
 21
106.8260141894347
 31
0.0
 11
93.30024320277946
 21
106.3591843023668
 31
0.0
 11
93.3231168078
 21
105.8883966456
 31
0.0
  0
SPLINE
  5
FD
330
1F
100
AcDbEntity
  8
FASEN
  6
Continuous
 62
     7
100
AcDbSpline
210
0.0
220
0.0
230
1.0
 70
     8
 71
     3
 72
    43
 73
    39
 74
    37
 42
0.0000000001
 43
0.0000000001
 44
0.00000001
 40
0.0
 40
0.0
 40
0.0
 40
0.0
 40
0.4709816363495122
 40
0.942450313714748
 40
1.415748649543222
 40
1.888897490107787
 40
2.363658623756922
 40
2.83851857214882
 40
3.315822292037875
 40
3.792888957750434
 40
4.032098331285972
 40
4.271230229258134
 40
4.510442965640854
 40
4.749733683712453
 40
5.227809816787395
 40
5.706117458398598
 40
6.18357708911306
 40
6.6609772251322
 40
7.137232867689384
 40
7.613503641669196
 40
8.088735822298247
 40
8.563950163603284
 40
9.038574661017575
 40
9.51325558110677
 40
9.98802067394545
 40
10.46256050238607
 40
10.70020938101779
 40
10.93778249098307
 40
11.17561469249637
 40
11.41352320100411
 40
11.88952200036723
 40
12.36575696878306
 40
12.84187173882467
 40
13.31789081549576
 40
13.79401470440067
 40
14.27029322429526
 40
14.74597323794489
 40
15.22115173401414
 40
15.22115173401414
 40
15.22115173401414
 40
15.22115173401414
 10
93.323099078
 20
105.8883967186
 30
0.0
 10
93.31870971930239
 20
105.7313404104277
 30
0.0
 10
93.3099264628815
 20
105.4170653825197
 30
0.0
 10
93.23872241919472
 20
104.9494130639877
 30
0.0
 10
93.12566297722337
 20
104.489902380705
 30
0.0
 10
92.96722817824742
 20
104.0425773907278
 30
0.0
 10
92.76572374987248
 20
103.6124400424912
 30
0.0
 10
92.52229787151998
 20
103.2029027443426
 30
0.0
 10
92.2391889537068
 20
102.8187966021488
 30
0.0
 10
91.97229565342424
 20
102.522785042042
 30
0.0
 10
91.74195101368981
 20
102.3027095094327
 30
0.0
 10
91.56095250407189
 20
102.1461933864881
 30
0.0
 10
91.37240413027115
 20
101.9988154440319
 30
0.0
 10
91.11166540484481
 20
101.8150866169246
 30
0.0
 10
90.76907019202521
 20
101.610045077501
 30
0.0
 10
90.33611306744062
 20
101.4058160193871
 30
0.0
 10
89.88528290691177
 20
101.2454515831396
 30
0.0
 10
89.42157175244915
 20
101.1302517194071
 30
0.0
 10
88.94919317025675
 20
101.0611679991017
 30
0.0
 10
88.47305417668802
 20
101.0384808655674
 30
0.0
 10
87.99732960253672
 20
101.0624198917475
 30
0.0
 10
87.52672202073781
 20
101.1323612561341
 30
0.0
 10
87.06535255524538
 20
101.2477915979003
 30
0.0
 10
86.61751460627796
 20
101.4074594747798
 30
0.0
 10
86.18747166273867
 20
101.6101089950673
 30
0.0
 10
85.84707138126444
 20
101.8131139606167
 30
0.0
 10
85.58774605503912
 20
101.9948959527462
 30
0.0
 10
85.39996327461711
 20
102.1407672811681
 30
0.0
 10
85.21949083577309
 20
102.2957250888906
 30
0.0
 10
84.98916674007378
 20
102.5140446420944
 30
0.0
 10
84.72173689757851
 20
102.808012731513
 30
0.0
 10
84.43694553324676
 20
103.1904985689014
 30
0.0
 10
84.19126068040414
 20
103.5992528325632
 30
0.0
 10
83.98699408071937
 20
104.0301193325395
 30
0.0
 10
83.8259657410393
 20
104.4790932090463
 30
0.0
 10
83.71068157953462
 20
104.9415593713246
 30
0.0
 10
83.63795999386542
 20
105.4128588091801
 30
0.0
 10
83.6289554447122
 20
105.7299398295052
 30
0.0
 10
83.6244555448
 20
105.8883967196
 30
0.0
 11
93.323099078
 21
105.8883967186
 31
0.0
 11
93.30028682916299
 21
105.4179678684202
 31
0.0
 11
93.23188737104581
 21
104.9514871851484
 31
0.0
 11
93.11813801366685
 21
104.4920610230789
 31
0.0
 11
92.96028748932044
 21
104.0460195033846
 31
0.0
 11
92.75886237874778
 21
103.616105490058
 31
0.0
 11
92.51620453702347
 21
103.2079276581802
 31
0.0
 11
92.23304948009816
 21
102.8236854757515
 31
0.0
 11
91.91355223311923
 21
102.4694057660489
 31
0.0
 11
91.74059874714675
 21
102.30415378852
 31
0.0
 11
91.55971863521223
 21
102.147736239203
 31
0.0
 11
91.37124807835126
 21
102.0004216695087
 31
0.0
 11
91.17563822976896
 21
101.8625926635163
 31
0.0
 11
90.76544981999855
 21
101.6170274837658
 31
0.0
 11
90.33283777927362
 21
101.4130053716223
 31
0.0
 11
89.88300764588382
 21
101.2529411655783
 31
0.0
 11
89.41968792627996
 21
101.1378510821771
 31
0.0
 11
88.94845155405456
 21
101.0688893641054
 31
0.0
 11
88.47271904109076
 21
101.0462525300407
 31
0.0
 11
87.99808534566445
 21
101.070095362746
 31
0.0
 11
87.52803870731258
 21
101.1399869069848
 31
0.0
 11
87.06760139055609
 21
101.2551645562222
 31
0.0
 11
86.62050232901451
 21
101.4146148778442
 31
0.0
 11
86.19101618817636
 21
101.616959999372
 31
0.0
 11
85.7834798598078
 21
101.8600694188446
 31
0.0
 11
85.58887726139598
 21
101.9964762302811
 31
0.0
 11
85.40125959761832
 21
102.1422177645711
 31
0.0
 11
85.220818291397
 21
102.2971535289569
 31
0.0
 11
85.04815690079405
 21
102.4608254649002
 31
0.0
 11
84.72781438531358
 21
102.8128986529887
 31
0.0
 11
84.44344234989556
 21
103.1949095044238
 31
0.0
 11
84.19814519036923
 21
103.6029714822901
 31
0.0
 11
83.99421671845278
 21
104.0330962777816
 31
0.0
 11
83.83360113785945
 21
104.4813111736257
 31
0.0
 11
83.71772719195651
 21
104.9432791997638
 31
0.0
 11
83.6478067586371
 21
105.4137923328325
 31
0.0
 11
83.6244555448
 21
105.8883967196
 31
0.0
  0
SPLINE
  5
FE
330
1F
100
AcDbEntity
  8
0
  6
Continuous
 62
     7
100
AcDbSpline
210
0.0
220
0.0
230
1.0
 70
     8
 71
     3
 72
    27
 73
    23
 74
    21
 42
0.0000000001
 43
0.0000000001
 44
0.00000001
 40
0.0
 40
0.0
 40
0.0
 40
0.0
 40
0.1071078874488511
 40
0.2142469263362889
 40
0.3135924363204872
 40
0.4129188580798369
 40
0.5028493808903105
 40
0.5928506536832988
 40
0.6735107912060367
 40
0.7538309173430343
 40
0.7916625684950336
 40
0.8294887980840944
 40
0.866978489900998
 40
0.9044676328051904
 40
0.9428631026897196
 40
0.9812651394499053
 40
1.021657815468569
 40
1.062056720293845
 40
1.151027619812827
 40
1.24030209718343
 40
1.340997083355601
 40
1.441556404340657
 40
1.441556404340657
 40
1.441556404340657
 40
1.441556404340657
 10
61.5782679556
 20
94.1254596898
 30
0.0
 10
61.54839196047575
 20
94.10589788152748
 30
0.0
 10
61.48863128104247
 20
94.06676857559313
 30
0.0
 10
61.39741648382351
 20
94.01553792191424
 30
0.0
 10
61.30562829839573
 20
93.97103761271482
 30
0.0
 10
61.21592782791272
 20
93.93594408171042
 30
0.0
 10
61.12641603976972
 20
93.90986911082067
 30
0.0
 10
61.04049453981929
 20
93.89542930584331
 30
0.0
 10
60.95658441275821
 20
93.89314997763537
 30
0.0
 10
60.89052094928251
 20
93.9025925704542
 30
0.0
 10
60.84076986975915
 20
93.91798528972222
 30
0.0
 10
60.80605669894816
 20
93.9329332111349
 30
0.0
 10
60.77335269356482
 20
93.95164971577577
 30
0.0
 10
60.7427917456089
 20
93.97401753601105
 30
0.0
 10
60.71476505266265
 20
93.99994003310474
 30
0.0
 10
60.68906279821746
 20
94.02944983164339
 30
0.0
 10
60.66617516725628
 20
94.0620120846103
 30
0.0
 10
60.63813024579456
 20
94.11123709163482
 30
0.0
 10
60.61071921734994
 20
94.17918054780316
 30
0.0
 10
60.58862818537001
 20
94.26968809910284
 30
0.0
 10
60.57579127219924
 20
94.36591793444546
 30
0.0
 10
60.57445599843115
 20
94.43302738120323
 30
0.0
 10
60.5737888116
 20
94.4665594854
 30
0.0
 11
61.5782679556
 21
94.1254596898
 31
0.0
 11
61.48800079690391
 21
94.06780607226656
 31
0.0
 11
61.39463389436388
 21
94.01525709355333
 31
0.0
 11
61.30509285796311
 21
93.97222300062346
 31
0.0
 11
61.21250057294907
 21
93.93627294060411
 31
0.0
 11
61.12602598510671
 21
93.91158195863781
 31
0.0
 11
61.03719574548014
 21
93.89711068943835
 31
0.0
 11
60.95655304794422
 21
93.89543345382077
 31
0.0
 11
60.87713019680751
 21
93.90740564576627
 31
0.0
 11
60.84099829830909
 21
93.91861812719485
 31
0.0
 11
60.80627411978446
 21
93.93361996277301
 31
0.0
 11
60.77373414731695
 21
93.95223788919729
 31
0.0
 11
60.74348659547314
 21
93.97438560788675
 31
0.0
 11
60.71526404675665
 21
94.00041827681636
 31
0.0
 11
60.69001033705973
 21
94.02934865140561
 31
0.0
 11
60.66671798062661
 21
94.0623491727309
 31
0.0
 11
60.64665689769917
 21
94.0974151742546
 31
0.0
 11
60.61280775552324
 21
94.17969552753028
 31
0.0
 11
60.59100151509051
 21
94.266265846855
 31
0.0
 11
60.57767709527256
 21
94.36607536582353
 31
0.0
 11
60.5737888116
 21
94.4665594854
 31
0.0
  0
SPLINE
  5
FF
330
1F
100
AcDbEntity
  8
0
  6
Continuous
 62
     7
100
AcDbSpline
210
0.0
220
0.0
230
1.0
 70
     8
 71
     3
 72
     9
 73
     5
 74
     3
 42
0.0000000001
 43
0.0000000001
 44
0.00000001
 40
0.0
 40
0.0
 40
0.0
 40
0.0
 40
0.1120698018379096
 40
0.2241876569556215
 40
0.2241876569556215
 40
0.2241876569556215
 40
0.2241876569556215
 10
61.7554587991
 20
93.9883966809
 30
0.0
 10
61.72458918705613
 20
94.0094979329956
 30
0.0
 10
61.66283672669882
 20
94.0517094849798
 30
0.0
 10
61.60646157385824
 20
94.10087277557443
 30
0.0
 10
61.5782679556
 20
94.1254596898
 30
0.0
 11
61.7554587991
 21
93.9883966809
 31
0.0
 11
61.6641937136125
 21
94.05343762688749
 31
0.0
 11
61.5782679556
 21
94.1254596898
 31
0.0
  0
SPLINE
  5
100
330
1F
100
AcDbEntity
  8
0
  6
Continuous
 62
     7
100
AcDbSpline
210
0.0
220
0.0
230
1.0
 70
     8
 71
     3
 72
    11
 73
     7
 74
     5
 42
0.0000000001
 43
0.0000000001
 44
0.00000001
 40
0.0
 40
0.0
 40
0.0
 40
0.0
 40
0.0910518968371157
 40
0.1822839482515752
 40
0.2734564444529813
 40
0.3645245916760778
 40
0.3645245916760778
 40
0.3645245916760778
 40
0.3645245916760778
 10
62.0937292238
 20
93.8607817408
 30
0.0
 10
62.06370744046959
 20
93.86553210941098
 30
0.0
 10
62.00360447294098
 20
93.87504224567547
 30
0.0
 10
61.91672963005621
 20
93.90368094721809
 30
0.0
 10
61.83327060220441
 20
93.94084755062832
 30
0.0
 10
61.78138616398283
 20
93.9725530222103
 30
0.0
 10
61.7554587991
 20
93.9883966809
 30
0.0
 11
62.0937292238
 21
93.8607817408
 31
0.0
 11
62.00421100822044
 21
93.8774231649304
 31
0.0
 11
61.91728152500123
 21
93.90510984318064
 31
0.0
 11
61.83417287098328
 21
93.94259818391373
 31
0.0
 11
61.7554587991
 21
93.9883966809
 31
0.0
  0
SPLINE
  5
101
330
1F
100
AcDbEntity
  8
0
  6
Continuous
 62
     7
100
AcDbSpline
210
0.0
220
0.0
230
1.0
 70
     8
 71
     3
 72
     9
 73
     5
 74
     3
 42
0.0000000001
 43
0.0000000001
 44
0.00000001
 40
0.0
 40
0.0
 40
0.0
 40
0.0
 40
0.0350713346775237
 40
0.0701775724555001
 40
0.0701775724555001
 40
0.0701775724555001
 40
0.0701775724555001
 10
117.3112888116
 20
114.4930829042
 30
0.0
 10
117.2995570254743
 20
114.4936910573728
 30
0.0
 10
117.2760817777133
 20
114.4949079689542
 30
0.0
 10
117.2537451517749
 20
114.5022325626126
 30
0.0
 10
117.2425712842
 20
114.5058966809
 30
0.0
 11
117.3112888116
 21
114.4930829042
 31
0.0
 11
117.2763778256
 21
114.496432765775
 31
0.0
 11
117.2425712842
 21
114.5058966809
 31
0.0
  0
SPLINE
  5
102
330
1F
100
AcDbEntity
  8
0
  6
Continuous
 62
     7
100
AcDbSpline
210
0.0
220
0.0
230
1.0
 70
     8
 71
     3
 72
     9
 73
     5
 74
     3
 42
0.0000000001
 43
0.0000000001
 44
0.00000001
 40
0.0
 40
0.0
 40
0.0
 40
0.0
 40
0.0351062377659299
 40
0.070177572356373
 40
0.070177572356373
 40
0.070177572356373
 40
0.070177572356373
 10
119.7050063389
 20
114.5058966809
 30
0.0
 10
119.6938324713293
 20
114.5022325626127
 30
0.0
 10
119.6714958454234
 20
114.4949079689622
 30
0.0
 10
119.6480205976962
 20
114.493691057375
 30
0.0
 10
119.6362888116
 20
114.4930829042
 30
0.0
 11
119.7050063389
 21
114.5058966809
 31
0.0
 11
119.6711997975125
 21
114.496432765775
 31
0.0
 11
119.6362888116
 21
114.4930829042
 31
0.0
  0
SPLINE
  5
103
330
1F
100
AcDbEntity
  8
0
  6
Continuous
 62
     7
100
AcDbSpline
210
0.0
220
0.0
230
1.0
 70
     8
 71
     3
 72
     9
 73
     5
 74
     3
 42
0.0000000001
 43
0.0000000001
 44
0.00000001
 40
0.0
 40
0.0
 40
0.0
 40
0.0
 40
0.0350713345916348
 40
0.0701775723811596
 40
0.0701775723811596
 40
0.0701775723811596
 40
0.0701775723811596
 10
119.6362888116
 20
97.2837104577
 30
0.0
 10
119.6480205976979
 20
97.28310230452641
 30
0.0
 10
119.6714958454362
 20
97.28188539294167
 30
0.0
 10
119.6938324713312
 20
97.27456079922274
 30
0.0
 10
119.7050063389
 20
97.2708966809
 30
0.0
 11
119.6362888116
 21
97.2837104577
 31
0.0
 11
119.6711997975125
 21
97.2803605961125
 31
0.0
 11
119.7050063389
 21
97.2708966809
 31
0.0
  0
SPLINE
  5
104
330
1F
100
AcDbEntity
  8
0
  6
Continuous
 62
     7
100
AcDbSpline
210
0.0
220
0.0
230
1.0
 70
     8
 71
     3
 72
     9
 73
     5
 74
     3
 42
0.0000000001
 43
0.0000000001
 44
0.00000001
 40
0.0
 40
0.0
 40
0.0
 40
0.0
 40
0.0351062378015498
 40
0.0701775724802822
 40
0.0701775724802822
 40
0.0701775724802822
 40
0.0701775724802822
 10
117.2425712842
 20
97.2708966809
 30
0.0
 10
117.253745151773
 20
97.2745607992228
 30
0.0
 10
117.2760817777005
 20
97.28188539294962
 30
0.0
 10
117.2995570254726
 20
97.28310230452864
 30
0.0
 10
117.3112888116
 20
97.2837104577
 30
0.0
 11
117.2425712842
 21
97.2708966809
 31
0.0
 11
117.2763778256
 21
97.28036059611249
 31
0.0
 11
117.3112888116
 21
97.2837104577
 31
0.0
  0
SPLINE
  5
105
330
1F
100
AcDbEntity
  8
0
  6
Continuous
 62
     7
100
AcDbSpline
210
0.0
220
0.0
230
1.0
 70
     8
 71
     3
 72
    15
 73
    11
 74
     9
 42
0.0000000001
 43
0.0000000001
 44
0.00000001
 40
0.0
 40
0.0
 40
0.0
 40
0.0
 40
0.085983699535986
 40
0.1721999323573847
 40
0.2661861163764774
 40
0.3601417519291434
 40
0.4630205933174256
 40
0.5659790425483666
 40
0.6760998091673728
 40
0.786051251667274
 40
0.786051251667274
 40
0.786051251667274
 40
0.786051251667274
 10
120.3399834936
 20
114.9058966809
 30
0.0
 10
120.3270022153833
 20
114.8802835901631
 30
0.0
 10
120.3010045525368
 20
114.828988140954
 30
0.0
 10
120.2466103871483
 20
114.758303337652
 30
0.0
 10
120.1816899105275
 20
114.6936475948094
 30
0.0
 10
120.10393315066
 20
114.63526764311
 30
0.0
 10
120.0166417506942
 20
114.5859911617408
 30
0.0
 10
119.918763238808
 20
114.546531896378
 30
0.0
 10
119.8144781734763
 20
114.5180479456111
 30
0.0
 10
119.7414782283107
 20
114.5099450243342
 30
0.0
 10
119.7050063389
 20
114.5058966809
 30
0.0
 11
120.3399834936
 21
114.9058966809
 31
0.0
 11
120.2987481683582
 21
114.8304457396329
 31
0.0
 11
120.2468594785732
 21
114.7615922526165
 31
0.0
 11
120.180245832169
 21
114.6952897270295
 31
0.0
 11
120.1052514658989
 21
114.6386901998245
 31
0.0
 11
120.0157079650838
 21
114.5880343268463
 31
0.0
 11
119.9203327778284
 21
114.5492526826825
 31
0.0
 11
119.8139344333917
 21
114.5208629743031
 31
0.0
 11
119.7050063389
 21
114.5058966809
 31
0.0
  0
SPLINE
  5
106
330
1F
100
AcDbEntity
  8
0
  6
Continuous
 62
     7
100
AcDbSpline
210
0.0
220
0.0
230
1.0
 70
     8
 71
     3
 72
    15
 73
    11
 74
     9
 42
0.0000000001
 43
0.0000000001
 44
0.00000001
 40
0.0
 40
0.0
 40
0.0
 40
0.0
 40
0.1099548800985263
 40
0.220079083395582
 40
0.3230356139878831
 40
0.4259125292667645
 40
0.5198670387730304
 40
0.6138521143689134
 40
0.7000679720504894
 40
0.786051288479913
 40
0.786051288479913
 40
0.786051288479913
 40
0.786051288479913
 10
117.2425712842
 20
114.5058966809
 30
0.0
 10
117.2060982550506
 20
114.5099451734019
 30
0.0
 10
117.1330960307138
 20
114.5180483928146
 30
0.0
 10
117.028809474285
 20
114.5465332995902
 30
0.0
 10
116.9309313768228
 20
114.5859932108159
 30
0.0
 10
116.8436417212622
 20
114.6352693896252
 30
0.0
 10
116.7658863603565
 20
114.6936488809132
 30
0.0
 10
116.7009666996479
 20
114.7583041879848
 30
0.0
 10
116.64657291957
 20
114.8289884913782
 30
0.0
 10
116.6205753569783
 20
114.8802837077591
 30
0.0
 10
116.6075941295
 20
114.9058966809
 30
0.0
 11
117.2425712842
 21
114.5058966809
 31
0.0
 11
117.1336398039717
 21
114.520863586818
 31
0.0
 11
117.0272382825888
 21
114.5492547192225
 31
0.0
 11
116.9318651464568
 21
114.5880363140317
 31
0.0
 11
116.8423236194446
 21
114.638691764258
 31
0.0
 11
116.7673304136851
 21
114.6952909598925
 31
0.0
 11
116.7007177283649
 21
114.7615928798436
 31
0.0
 11
116.6488292880282
 21
114.8304460851081
 31
0.0
 11
116.6075941295
 21
114.9058966809
 31
0.0
  0
SPLINE
  5
107
330
1F
100
AcDbEntity
  8
0
  6
Continuous
 62
     7
100
AcDbSpline
210
0.0
220
0.0
230
1.0
 70
     8
 71
     3
 72
    15
 73
    11
 74
     9
 42
0.0000000001
 43
0.0000000001
 44
0.00000001
 40
0.0
 40
0.0
 40
0.0
 40
0.0
 40
0.0859833165062142
 40
0.1721991741977659
 40
0.2661842497936489
 40
0.3601387592998864
 40
0.4630156745787872
 40
0.5659722051710935
 40
0.6760964084649352
 40
0.7860512885515376
 40
0.7860512885515376
 40
0.7860512885515376
 40
0.7860512885515376
 10
116.6075941295
 20
96.8708966809
 30
0.0
 10
116.6205753569748
 20
96.89650965407198
 30
0.0
 10
116.6465729195492
 20
96.94780487049502
 30
0.0
 10
116.7009666996458
 20
97.0184891739131
 30
0.0
 10
116.7658863603564
 20
97.08314448098676
 30
0.0
 10
116.8436417212622
 20
97.14152397227468
 30
0.0
 10
116.9309313768229
 20
97.1908001510846
 30
0.0
 10
117.0288094742837
 20
97.2302600623076
 30
0.0
 10
117.1330960307089
 20
97.25874496909125
 30
0.0
 10
117.2060982550499
 20
97.26684818843353
 30
0.0
 10
117.2425712842
 20
97.2708966809
 30
0.0
 11
116.6075941295
 21
96.8708966809
 31
0.0
 11
116.6488292880282
 21
96.94634727677943
 31
0.0
 11
116.7007177283649
 21
97.0152004820564
 31
0.0
 11
116.7673304136851
 21
97.08150240200746
 31
0.0
 11
116.8423236194446
 21
97.138101597642
 31
0.0
 11
116.9318651464568
 21
97.1887570478683
 31
0.0
 11
117.0272382825888
 21
97.22753864267752
 31
0.0
 11
117.1336398039717
 21
97.25592977506952
 31
0.0
 11
117.2425712842
 21
97.2708966809
 31
0.0
  0
SPLINE
  5
108
330
1F
100
AcDbEntity
  8
0
  6
Continuous
 62
     7
100
AcDbSpline
210
0.0
220
0.0
230
1.0
 70
     8
 71
     3
 72
    15
 73
    11
 74
     9
 42
0.0000000001
 43
0.0000000001
 44
0.00000001
 40
0.0
 40
0.0
 40
0.0
 40
0.0
 40
0.1099514424959872
 40
0.2200722091026744
 40
0.3230306583259205
 40
0.4259094997127628
 40
0.5198651352654288
 40
0.6138513192845416
 40
0.700067552115899
 40
0.7860512517286632
 40
0.7860512517286632
 40
0.7860512517286632
 40
0.7860512517286632
 10
119.7050063389
 20
97.2708966809
 30
0.0
 10
119.74147822831
 20
97.26684833747342
 30
0.0
 10
119.8144781734711
 20
97.2587454162123
 30
0.0
 10
119.9187632388106
 20
97.23026146550436
 30
0.0
 10
120.0166417506972
 20
97.19080220015745
 30
0.0
 10
120.1039331506604
 20
97.14152571878975
 30
0.0
 10
120.1816899105276
 20
97.08314576709051
 30
0.0
 10
120.2466103871503
 20
97.01849002424595
 30
0.0
 10
120.3010045525576
 20
96.94780522091921
 30
0.0
 10
120.3270022153868
 20
96.89650977166794
 30
0.0
 10
120.3399834936
 20
96.8708966809
 30
0.0
 11
119.7050063389
 21
97.2708966809
 31
0.0
 11
119.8139344333917
 21
97.25593038752584
 31
0.0
 11
119.9203327778284
 21
97.22754067919414
 31
0.0
 11
120.0157079650838
 21
97.18875903505075
 31
0.0
 11
120.1052514658989
 21
97.13810316207554
 31
0.0
 11
120.180245832169
 21
97.08150363487044
 31
0.0
 11
120.2468594785732
 21
97.01520110928348
 31
0.0
 11
120.2987481683582
 21
96.94634762225465
 31
0.0
 11
120.3399834936
 21
96.8708966809
 31
0.0
  0
SPLINE
  5
109
330
1F
100
AcDbEntity
  8
0
  6
Continuous
 62
     7
100
AcDbSpline
210
0.0
220
0.0
230
1.0
 70
     8
 71
     3
 72
    11
 73
     7
 74
     5
 42
0.0000000001
 43
0.0000000001
 44
0.00000001
 40
0.0
 40
0.0
 40
0.0
 40
0.0
 40
0.0910828807962721
 40
0.1822704384859639
 40
0.2734873446409454
 40
0.3645237789710369
 40
0.3645237789710369
 40
0.3645237789710369
 40
0.3645237789710369
 10
61.7554587991
 20
117.7883966809
 30
0.0
 10
61.78139071872734
 20
117.8042423622522
 30
0.0
 10
61.83328436021011
 20
117.8359519355874
 30
0.0
 10
61.91675015786642
 20
117.8731154021556
 30
0.0
 10
62.00361978313997
 20
117.9017526025429
 30
0.0
 10
62.06371257871066
 20
117.9112617536475
 30
0.0
 10
62.0937292238
 20
117.9160116211
 30
0.0
 11
61.7554587991
 21
117.7883966809
 31
0.0
 11
61.83418688708694
 21
117.8342003852924
 31
0.0
 11
61.91731103009336
 21
117.8716910178139
 31
0.0
 11
62.00422635539151
 21
117.89937224244
 31
0.0
 11
62.0937292238
 21
117.9160116211
 31
0.0
  0
SPLINE
  5
10A
330
1F
100
AcDbEntity
  8
0
  6
Continuous
 62
     7
100
AcDbSpline
210
0.0
220
0.0
230
1.0
 70
     8
 71
     3
 72
     9
 73
     5
 74
     3
 42
0.0000000001
 43
0.0000000001
 44
0.00000001
 40
0.0
 40
0.0
 40
0.0
 40
0.0
 40
0.1121178550855933
 40
0.2241876568944826
 40
0.2241876568944826
 40
0.2241876568944826
 40
0.2241876568944826
 10
61.5782679556
 20
117.6513336721
 30
0.0
 10
61.60646157385847
 20
117.675920586309
 30
0.0
 10
61.66283672670026
 20
117.7250838768713
 30
0.0
 10
61.72458918705631
 20
117.7672954288212
 30
0.0
 10
61.7554587991
 20
117.7883966809
 30
0.0
 11
61.5782679556
 21
117.6513336721
 31
0.0
 11
61.66419371361251
 21
117.7233557349625
 31
0.0
 11
61.7554587991
 21
117.7883966809
 31
0.0
  0
SPLINE
  5
10B
330
1F
100
AcDbEntity
  8
0
  6
Continuous
 62
     7
100
AcDbSpline
210
0.0
220
0.0
230
1.0
 70
     8
 71
     3
 72
    11
 73
     7
 74
     5
 42
0.0000000001
 43
0.0000000001
 44
0.00000001
 40
0.0
 40
0.0
 40
0.0
 40
0.0
 40
0.0527674945792484
 40
0.1055623897757502
 40
0.2638740940550393
 40
0.4221222824025805
 40
0.4221222824025805
 40
0.4221222824025805
 40
0.4221222824025805
 10
120.3246219808
 20
80.6383966809
 30
0.0
 10
120.3296133503455
 20
80.62152707126077
 30
0.0
 10
120.3395986813087
 20
80.58777909208723
 30
0.0
 10
120.3602766924417
 20
80.50227734701537
 30
0.0
 10
120.3813769036253
 20
80.38055767610027
 30
0.0
 10
120.3846517279667
 20
80.2749856763608
 30
0.0
 10
120.3862888116
 20
80.2222102677
 30
0.0
 11
120.3246219808
 21
80.6383966809
 31
0.0
 11
120.3391680299413
 21
80.58767369854931
 31
0.0
 11
120.3517276761314
 21
80.5363944995853
 31
0.0
 11
120.3776767059084
 21
80.38022394037056
 31
0.0
 11
120.3862888116
 21
80.2222102677
 31
0.0
  0
SPLINE
  5
10C
330
1F
100
AcDbEntity
  8
0
  6
Continuous
 62
     7
100
AcDbSpline
210
0.0
220
0.0
230
1.0
 70
     8
 71
     3
 72
     9
 73
     5
 74
     3
 42
0.0000000001
 43
0.0000000001
 44
0.00000001
 40
0.0
 40
0.0
 40
0.0
 40
0.0
 40
0.2109866005533409
 40
0.4218962682843658
 40
0.4218962682843658
 40
0.4218962682843658
 40
0.4218962682843658
 10
116.5612888116
 20
80.2222102677
 30
0.0
 10
116.5638158511357
 20
80.2927361438962
 30
0.0
 10
116.5688690087635
 20
80.43376218017825
 30
0.0
 10
116.6049289562994
 20
80.57019347341227
 30
0.0
 10
116.6229556423
 20
80.6383966809
 30
0.0
 11
116.5612888116
 21
80.2222102677
 31
0.0
 11
116.5766244549875
 21
80.4326387915625
 31
0.0
 11
116.6229556423
 21
80.6383966809
 31
0.0
  0
SPLINE
  5
10D
330
1F
100
AcDbEntity
  8
0
  6
Continuous
 62
     7
100
AcDbSpline
210
0.0
220
0.0
230
1.0
 70
     8
 71
     3
 72
    11
 73
     7
 74
     5
 42
0.0000000001
 43
0.0000000001
 44
0.00000001
 40
0.0
 40
0.0
 40
0.0
 40
0.0
 40
0.713211007509571
 40
1.426361317768317
 40
1.831519457881096
 40
2.236026825195467
 40
2.236026825195467
 40
2.236026825195467
 40
2.236026825195467
 10
61.578267955735
 20
94.1254596895921
 30
0.0
 10
61.68748041820125
 20
94.33693929277415
 30
0.0
 10
61.90589604869472
 20
94.75988050133617
 30
0.0
 10
62.10028878486945
 20
95.34122987691383
 30
0.0
 10
62.20560698114156
 20
95.83936884222071
 30
0.0
 10
62.21773144983533
 20
96.1094227023706
 30
0.0
 10
62.2237888116303
 20
96.2443411038589
 30
0.0
 11
61.578267955735
 21
94.1254596895921
 31
0.0
 11
61.88914758426913
 21
94.76735048855662
 31
0.0
 11
62.11616179665542
 21
95.44340367610681
 31
0.0
 11
62.19466631713065
 21
95.84088343504379
 31
0.0
 11
62.2237888116303
 21
96.2443411038589
 31
0.0
  0
SPLINE
  5
10E
330
1F
100
AcDbEntity
  8
0
  6
Continuous
 62
     7
100
AcDbSpline
210
0.0
220
0.0
230
1.0
 70
     8
 71
     3
 72
    11
 73
     7
 74
     5
 42
0.0000000001
 43
0.0000000001
 44
0.00000001
 40
0.0
 40
0.0
 40
0.0
 40
0.0
 40
0.6210757380668913
 40
1.24241121112938
 40
1.73918073556072
 40
2.23573181886376
 40
2.23573181886376
 40
2.23573181886376
 40
2.23573181886376
 10
62.2237888116
 20
115.5324522577
 30
0.0
 10
62.20959213231248
 20
115.7396188600613
 30
0.0
 10
62.18119283666049
 20
116.1540387022314
 30
0.0
 10
62.01121985732955
 20
116.7121838981292
 30
0.0
 10
61.8101619777869
 20
117.2117387144459
 30
0.0
 10
61.65555462985201
 20
117.504823503712
 30
0.0
 10
61.578267955735
 20
117.651333672208
 30
0.0
 11
62.2237888116
 21
115.5324522577
 31
0.0
 11
62.15795260006348
 21
116.1500287029
 31
0.0
 11
61.98979618026338
 21
116.7481768355275
 31
0.0
 11
61.80240174998052
 21
117.2082456215831
 31
0.0
 11
61.578267955735
 21
117.651333672208
 31
0.0
  0
DIMENSION
  5
119
330
1F
100
AcDbEntity
  8
1
100
AcDbDimension
  2
*D2
 10
212.066617945429
 20
114.8883966809
 30
0.0
 11
208.316617945429
 21
105.735456158493
 31
0.0
 70
    32
  1
<>
 71
     5
 42
-1.0
 53
90.0
  3
ME10_DIM_10
100
AcDbAlignedDimension
 13
200.4737888116
 23
96.8883966809
 33
0.0
 14
200.4737888116
 24
114.8883966809
 34
0.0
 50
90.0
100
AcDbRotatedDimension
  0
DIMENSION
  5
124
330
1F
100
AcDbEntity
  8
1
100
AcDbDimension
  2
*D3
 10
220.60913371276
 20
122.3883966809466
 30
0.0
 11
216.85913371276
 21
106.101563977093
 31
0.0
 70
    32
  1
<>
 71
     5
 42
-1.0
 53
90.0
  3
ME10_DIM_11
100
AcDbAlignedDimension
 13
200.4737888116
 23
89.38839668094863
 33
0.0
 14
200.4737888116
 24
122.3883966809466
 34
0.0
 50
90.0
100
AcDbRotatedDimension
  0
DIMENSION
  5
12F
330
1F
100
AcDbEntity
  8
1
100
AcDbDimension
  2
*D4
 10
228.541469782426
 20
126.8883966809
 30
0.0
 11
224.791469782426
 21
105.857492098026
 31
0.0
 70
    32
  1
<>
 71
     5
 42
-1.0
 53
90.0
  3
ME10_DIM_12
100
AcDbAlignedDimension
 13
143.2958674988
 23
84.8883966809
 33
0.0
 14
143.2958674988
 24
126.8883966809
 34
0.0
 50
90.0
100
AcDbRotatedDimension
  0
DIMENSION
  5
13A
330
1F
100
AcDbEntity
  8
1
100
AcDbDimension
  2
*D5
 10
200.4737888116
 20
154.427796032285
 30
0.0
 11
162.642062434436
 21
158.177796032285
 31
0.0
 70
    32
  1
<>
 71
     5
 42
-1.0
 53
0.00013888888889
  3
ME10_DIM_13
100
AcDbAlignedDimension
 13
126.4237888116
 23
145.8883545156
 33
0.0
 14
200.4737888116
 24
121.4640061893
 34
0.0
100
AcDbRotatedDimension
  0
DIMENSION
  5
145
330
1F
100
AcDbEntity
  8
1
100
AcDbDimension
  2
*D6
 10
200.4737888116
 20
162.848275860084
 30
0.0
 11
149.828288783439
 21
166.598275860084
 31
0.0
 70
    32
  1
<>
 71
     5
 42
-1.0
 53
0.00013888888889
  3
ME10_DIM_14
100
AcDbAlignedDimension
 13
100.4737888116
 23
145.8883966809
 33
0.0
 14
200.4737888116
 24
121.4640061893
 34
0.0
100
AcDbRotatedDimension
  0
DIMENSION
  5
150
330
1F
100
AcDbEntity
  8
1
100
AcDbDimension
  2
*D7
 10
200.4737888116
 20
170.414504111149
 30
0.0
 11
136.892479192907
 21
174.164504111149
 31
0.0
 70
    32
  1
<>
 71
     5
 42
-1.0
 53
0.00013888888889
  3
ME10_DIM_15
100
AcDbAlignedDimension
 13
60.5737888116
 23
132.774317481
 33
0.0
 14
200.4737888116
 24
121.4640061893
 34
0.0
100
AcDbRotatedDimension
  0
INSERT
  5
157
330
1F
100
AcDbEntity
  8
1
100
AcDbBlockReference
  2
*D8
 10
0.0
 20
0.0
 30
0.0
  0
DIMENSION
  5
162
330
1F
100
AcDbEntity
  8
1
100
AcDbDimension
  2
*D9
 10
182.5235226042438
 20
125.3471379141554
 30
0.0
 11
185.4798642716593
 21
135.2664472582557
 31
0.0
 70
    37
  1
<>
 71
     5
 42
-1.0
  3
ME10_DIM_16
100
AcDb3PointAngularDimension
 13
182.4327699685773
 23
123.8082556567166
 33
0.0
 14
147.2216596528216
 24
126.8883966809
 34
0.0
 15
143.2958674988
 25
126.8883966809
 35
0.0
  0
ENDSEC
  0
SECTION
  2
OBJECTS
  0
DICTIONARY
  5
C
330
0
100
AcDbDictionary
281
     1
  3
ACAD_GROUP
350
D
  3
ACAD_LAYOUT
350
1A
  3
ACAD_MLEADERSTYLE
350
165
  3
ACAD_MLINESTYLE
350
17
  3
ACAD_PLOTSETTINGS
350
19
  3
ACAD_PLOTSTYLENAME
350
E
  3
ACAD_SCALELIST
350
4C
  3
ACAD_VISUALSTYLE
350
2A
  3
AcDbVariableDictionary
350
163
  0
DICTIONARY
  5
D
102
{ACAD_REACTORS
330
C
102
}
330
C
100
AcDbDictionary
281
     1
  0
DICTIONARY
  5
1A
102
{ACAD_REACTORS
330
C
102
}
330
C
100
AcDbDictionary
281
     1
  3
Layout1
350
1E
  3
Layout2
350
26
  3
Model
350
22
  0
DICTIONARY
  5
165
102
{ACAD_REACTORS
330
C
102
}
330
C
100
AcDbDictionary
281
     1
  0
DICTIONARY
  5
17
102
{ACAD_REACTORS
330
C
102
}
330
C
100
AcDbDictionary
281
     1
  3
Standard
350
18
  0
DICTIONARY
  5
19
102
{ACAD_REACTORS
330
C
102
}
330
C
100
AcDbDictionary
281
     1
  0
ACDBDICTIONARYWDFLT
  5
E
102
{ACAD_REACTORS
330
C
102
}
330
C
100
AcDbDictionary
281
     1
  3
Normal
350
F
100
AcDbDictionaryWithDefault
340
F
  0
DICTIONARY
  5
4C
102
{ACAD_REACTORS
330
C
102
}
330
C
100
AcDbDictionary
281
     1
  3
A0
350
4D
  3
A1
350
4E
  3
A2
350
4F
  3
A3
350
50
  3
A4
350
51
  3
A5
350
52
  3
A6
350
53
  3
A7
350
54
  3
A8
350
55
  3
A9
350
56
  3
B0
350
57
  3
B1
350
58
  3
B2
350
59
  3
B3
350
5A
  3
B4
350
5B
  3
B5
350
5C
  3
B6
350
5D
  3
B7
350
5E
  3
B8
350
5F
  3
B9
350
60
  3
C0
350
61
  3
C1
350
62
  3
C2
350
63
  3
C3
350
64
  3
C4
350
65
  3
C5
350
66
  3
C6
350
67
  3
C7
350
68
  3
C8
350
69
  3
C9
350
6A
  3
D0
350
6B
  3
D1
350
6C
  3
D2
350
6D
  0
DICTIONARY
  5
2A
102
{ACAD_REACTORS
330
C
102
}
330
C
100
AcDbDictionary
281
     1
  3
2dWireframe
350
2F
  3
3D Hidden
350
31
  3
3dWireframe
350
30
  3
Basic
350
32
  3
Brighten
350
36
  3
ColorChange
350
3A
  3
Conceptual
350
34
  3
Dim
350
35
  3
Facepattern
350
39
  3
Flat
350
2B
  3
FlatWithEdges
350
2C
  3
Gouraud
350
2D
  3
GouraudWithEdges
350
2E
  3
Linepattern
350
38
  3
Realistic
350
33
  3
Thicken
350
37
  0
DICTIONARY
  5
163
102
{ACAD_REACTORS
330
C
102
}
330
C
100
AcDbDictionary
281
     1
  3
CANNOSCALE
350
166
  0
LAYOUT
  5
1E
102
{ACAD_REACTORS
330
1A
102
}
330
1A
100
AcDbPlotSettings
  1

  2
none_device
  4

  6

 40
0.0
 41
0.0
 42
0.0
 43
0.0
 44
0.0
 45
0.0
 46
0.0
 47
0.0
 48
0.0
 49
0.0
140
0.0
141
0.0
142
1.0
143
1.0
 70
   688
 72
     0
 73
     0
 74
     5
  7

 75
    16
147
1.0
148
0.0
149
0.0
100
AcDbLayout
  1
Layout1
 70
     1
 71
     1
 10
0.0
 20
0.0
 11
12.0
 21
9.0
 12
0.0
 22
0.0
 32
0.0
 14
1.00000000000000E+20
 24
1.00000000000000E+20
 34
1.00000000000000E+20
 15
-1.00000000000000E+20
 25
-1.00000000000000E+20
 35
-1.00000000000000E+20
146
0.0
 13
0.0
 23
0.0
 33
0.0
 16
1.0
 26
0.0
 36
0.0
 17
0.0
 27
1.0
 37
0.0
 76
     0
330
1B
  0
LAYOUT
  5
26
102
{ACAD_REACTORS
330
1A
102
}
330
1A
100
AcDbPlotSettings
  1

  2
none_device
  4

  6

 40
0.0
 41
0.0
 42
0.0
 43
0.0
 44
0.0
 45
0.0
 46
0.0
 47
0.0
 48
0.0
 49
0.0
140
0.0
141
0.0
142
1.0
143
1.0
 70
   688
 72
     0
 73
     0
 74
     5
  7

 75
    16
147
1.0
148
0.0
149
0.0
100
AcDbLayout
  1
Layout2
 70
     1
 71
     2
 10
0.0
 20
0.0
 11
0.0
 21
0.0
 12
0.0
 22
0.0
 32
0.0
 14
0.0
 24
0.0
 34
0.0
 15
0.0
 25
0.0
 35
0.0
146
0.0
 13
0.0
 23
0.0
 33
0.0
 16
1.0
 26
0.0
 36
0.0
 17
0.0
 27
1.0
 37
0.0
 76
     0
330
23
  0
LAYOUT
  5
22
102
{ACAD_REACTORS
330
1A
102
}
330
1A
100
AcDbPlotSettings
  1

  2
none_device
  4

  6

 40
0.0
 41
0.0
 42
0.0
 43
0.0
 44
0.0
 45
0.0
 46
0.0
 47
0.0
 48
0.0
 49
0.0
140
0.0
141
0.0
142
1.0
143
1.0
 70
  1712
 72
     0
 73
     0
 74
     0
  7

 75
     0
147
1.0
148
0.0
149
0.0
100
AcDbLayout
  1
Model
 70
     1
 71
     0
 10
0.0
 20
0.0
 11
12.0
 21
9.0
 12
0.0
 22
0.0
 32
0.0
 14
36.8876086881622
 24
65.8883966809
 34
0.0
 15
230.541469782426
 25
175.914504111149
 35
0.0
146
0.0
 13
0.0
 23
0.0
 33
0.0
 16
1.0
 26
0.0
 36
0.0
 17
0.0
 27
1.0
 37
0.0
 76
     0
330
1F
331
29
  0
MLINESTYLE
  5
18
102
{ACAD_REACTORS
330
17
102
}
330
17
100
AcDbMlineStyle
  2
Standard
 70
     0
  3

 62
   256
 51
90.0
 52
90.0
 71
     2
 49
0.5
 62
   256
  6
BYLAYER
 49
-0.5
 62
   256
  6
BYLAYER
  0
ACDBPLACEHOLDER
  5
F
102
{ACAD_REACTORS
330
E
102
}
330
E
  0
SCALE
  5
4D
102
{ACAD_REACTORS
330
4C
102
}
330
4C
100
AcDbScale
 70
     0
300
1:1
140
1.0
141
1.0
290
     1
  0
SCALE
  5
4E
102
{ACAD_REACTORS
330
4C
102
}
330
4C
100
AcDbScale
 70
     0
300
1:2
140
1.0
141
2.0
290
     0
  0
SCALE
  5
4F
102
{ACAD_REACTORS
330
4C
102
}
330
4C
100
AcDbScale
 70
     0
300
1:4
140
1.0
141
4.0
290
     0
  0
SCALE
  5
50
102
{ACAD_REACTORS
330
4C
102
}
330
4C
100
AcDbScale
 70
     0
300
1:5
140
1.0
141
5.0
290
     0
  0
SCALE
  5
51
102
{ACAD_REACTORS
330
4C
102
}
330
4C
100
AcDbScale
 70
     0
300
1:8
140
1.0
141
8.0
290
     0
  0
SCALE
  5
52
102
{ACAD_REACTORS
330
4C
102
}
330
4C
100
AcDbScale
 70
     0
300
1:10
140
1.0
141
10.0
290
     0
  0
SCALE
  5
53
102
{ACAD_REACTORS
330
4C
102
}
330
4C
100
AcDbScale
 70
     0
300
1:16
140
1.0
141
16.0
290
     0
  0
SCALE
  5
54
102
{ACAD_REACTORS
330
4C
102
}
330
4C
100
AcDbScale
 70
     0
300
1:20
140
1.0
141
20.0
290
     0
  0
SCALE
  5
55
102
{ACAD_REACTORS
330
4C
102
}
330
4C
100
AcDbScale
 70
     0
300
1:30
140
1.0
141
30.0
290
     0
  0
SCALE
  5
56
102
{ACAD_REACTORS
330
4C
102
}
330
4C
100
AcDbScale
 70
     0
300
1:40
140
1.0
141
40.0
290
     0
  0
SCALE
  5
57
102
{ACAD_REACTORS
330
4C
102
}
330
4C
100
AcDbScale
 70
     0
300
1:50
140
1.0
141
50.0
290
     0
  0
SCALE
  5
58
102
{ACAD_REACTORS
330
4C
102
}
330
4C
100
AcDbScale
 70
     0
300
1:100
140
1.0
141
100.0
290
     0
  0
SCALE
  5
59
102
{ACAD_REACTORS
330
4C
102
}
330
4C
100
AcDbScale
 70
     0
300
2:1
140
2.0
141
1.0
290
     0
  0
SCALE
  5
5A
102
{ACAD_REACTORS
330
4C
102
}
330
4C
100
AcDbScale
 70
     0
300
4:1
140
4.0
141
1.0
290
     0
  0
SCALE
  5
5B
102
{ACAD_REACTORS
330
4C
102
}
330
4C
100
AcDbScale
 70
     0
300
8:1
140
8.0
141
1.0
290
     0
  0
SCALE
  5
5C
102
{ACAD_REACTORS
330
4C
102
}
330
4C
100
AcDbScale
 70
     0
300
10:1
140
10.0
141
1.0
290
     0
  0
SCALE
  5
5D
102
{ACAD_REACTORS
330
4C
102
}
330
4C
100
AcDbScale
 70
     0
300
100:1
140
100.0
141
1.0
290
     0
  0
SCALE
  5
5E
102
{ACAD_REACTORS
330
4C
102
}
330
4C
100
AcDbScale
 70
     0
300
1/128" = 1'-0"
140
0.0078125
141
12.0
290
     0
  0
SCALE
  5
5F
102
{ACAD_REACTORS
330
4C
102
}
330
4C
100
AcDbScale
 70
     0
300
1/64" = 1'-0"
140
0.015625
141
12.0
290
     0
  0
SCALE
  5
60
102
{ACAD_REACTORS
330
4C
102
}
330
4C
100
AcDbScale
 70
     0
300
1/32" = 1'-0"
140
0.03125
141
12.0
290
     0
  0
SCALE
  5
61
102
{ACAD_REACTORS
330
4C
102
}
330
4C
100
AcDbScale
 70
     0
300
1/16" = 1'-0"
140
0.0625
141
12.0
290
     0
  0
SCALE
  5
62
102
{ACAD_REACTORS
330
4C
102
}
330
4C
100
AcDbScale
 70
     0
300
3/32" = 1'-0"
140
0.09375
141
12.0
290
     0
  0
SCALE
  5
63
102
{ACAD_REACTORS
330
4C
102
}
330
4C
100
AcDbScale
 70
     0
300
1/8" = 1'-0"
140
0.125
141
12.0
290
     0
  0
SCALE
  5
64
102
{ACAD_REACTORS
330
4C
102
}
330
4C
100
AcDbScale
 70
     0
300
3/16" = 1'-0"
140
0.1875
141
12.0
290
     0
  0
SCALE
  5
65
102
{ACAD_REACTORS
330
4C
102
}
330
4C
100
AcDbScale
 70
     0
300
1/4" = 1'-0"
140
0.25
141
12.0
290
     0
  0
SCALE
  5
66
102
{ACAD_REACTORS
330
4C
102
}
330
4C
100
AcDbScale
 70
     0
300
3/8" = 1'-0"
140
0.375
141
12.0
290
     0
  0
SCALE
  5
67
102
{ACAD_REACTORS
330
4C
102
}
330
4C
100
AcDbScale
 70
     0
300
1/2" = 1'-0"
140
0.5
141
12.0
290
     0
  0
SCALE
  5
68
102
{ACAD_REACTORS
330
4C
102
}
330
4C
100
AcDbScale
 70
     0
300
3/4" = 1'-0"
140
0.75
141
12.0
290
     0
  0
SCALE
  5
69
102
{ACAD_REACTORS
330
4C
102
}
330
4C
100
AcDbScale
 70
     0
300
1" = 1'-0"
140
1.0
141
12.0
290
     0
  0
SCALE
  5
6A
102
{ACAD_REACTORS
330
4C
102
}
330
4C
100
AcDbScale
 70
     0
300
1-1/2" = 1'-0"
140
1.5
141
12.0
290
     0
  0
SCALE
  5
6B
102
{ACAD_REACTORS
330
4C
102
}
330
4C
100
AcDbScale
 70
     0
300
3" = 1'-0"
140
3.0
141
12.0
290
     0
  0
SCALE
  5
6C
102
{ACAD_REACTORS
330
4C
102
}
330
4C
100
AcDbScale
 70
     0
300
6" = 1'-0"
140
6.0
141
12.0
290
     0
  0
SCALE
  5
6D
102
{ACAD_REACTORS
330
4C
102
}
330
4C
100
AcDbScale
 70
     0
300
1'-0" = 1'-0"
140
12.0
141
12.0
290
     0
  0
VISUALSTYLE
  5
2F
102
{ACAD_REACTORS
330
2A
102
}
330
2A
100
AcDbVisualStyle
  2
2dWireframe
 70
     4
 71
     0
 72
     2
 73
     0
 90
        0
 40
-0.6
 41
-30.0
 62
     5
 63
     7
 74
     1
 91
        4
 64
     7
 65
   257
 75
     1
175
     1
 42
1.0
 92
        0
 66
   257
 43
1.0
 76
     1
 77
     6
 78
     2
 67
     7
 79
     5
170
     0
171
     0
290
     0
174
     0
 93
        1
 44
0.0
173
     0
291
     0
 45
0.0
1001
ACAD
1000
AcDbSavedByObjectVersion
1070
     0
  0
VISUALSTYLE
  5
31
102
{ACAD_REACTORS
330
2A
102
}
330
2A
100
AcDbVisualStyle
  2
3D Hidden
 70
     6
 71
     1
 72
     2
 73
     2
 90
        0
 40
-0.6
 41
-30.0
 62
     5
 63
     7
 74
     2
 91
        2
 64
     7
 65
   257
 75
     2
175
     1
 42
40.0
 92
        0
 66
   257
 43
1.0
 76
     1
 77
     6
 78
     2
 67
     7
 79
     3
170
     0
171
     0
290
     0
174
     0
 93
        1
 44
0.0
173
     0
291
     0
 45
0.0
1001
ACAD
1000
AcDbSavedByObjectVersion
1070
     0
  0
VISUALSTYLE
  5
30
102
{ACAD_REACTORS
330
2A
102
}
330
2A
100
AcDbVisualStyle
  2
3dWireframe
 70
     5
 71
     0
 72
     2
 73
     0
 90
        0
 40
-0.6
 41
-30.0
 62
     5
 63
     7
 74
     1
 91
        4
 64
     7
 65
   257
 75
     1
175
     1
 42
1.0
 92
        0
 66
   257
 43
1.0
 76
     1
 77
     6
 78
     2
 67
     7
 79
     5
170
     0
171
     0
290
     0
174
     0
 93
        1
 44
0.0
173
     0
291
     0
 45
0.0
1001
ACAD
1000
AcDbSavedByObjectVersion
1070
     0
  0
VISUALSTYLE
  5
32
102
{ACAD_REACTORS
330
2A
102
}
330
2A
100
AcDbVisualStyle
  2
Basic
 70
     7
 71
     1
 72
     0
 73
     1
 90
        0
 40
-0.6
 41
-30.0
 62
     5
 63
     7
 74
     0
 91
        4
 64
     7
 65
   257
 75
     1
175
     1
 42
1.0
 92
        8
 66
     7
 43
1.0
 76
     1
 77
     6
 78
     2
 67
     7
 79
     5
170
     0
171
     0
290
     0
174
     0
 93
        1
 44
0.0
173
     0
291
     1
 45
0.0
1001
ACAD
1000
AcDbSavedByObjectVersion
1070
     0
  0
VISUALSTYLE
  5
36
102
{ACAD_REACTORS
330
2A
102
}
330
2A
100
AcDbVisualStyle
  2
Brighten
 70
    12
 71
     2
 72
     2
 73
     0
 90
        0
 40
-0.6
 41
-30.0
 62
     5
 63
     7
 74
     1
 91
        4
 64
     7
 65
   257
 75
     1
175
     1
 42
1.0
 92
        8
 66
     7
 43
1.0
 76
     1
 77
     6
 78
     2
 67
     7
 79
     5
170
     0
171
     0
290
     0
174
     0
 93
        1
 44
50.0
173
     0
291
     1
 45
0.0
1001
ACAD
1000
AcDbSavedByObjectVersion
1070
     0
  0
VISUALSTYLE
  5
3A
102
{ACAD_REACTORS
330
2A
102
}
330
2A
100
AcDbVisualStyle
  2
ColorChange
 70
    16
 71
     2
 72
     2
 73
     3
 90
        0
 40
-0.6
 41
-30.0
 62
     5
 63
     8
 74
     1
 91
        4
 64
     7
 65
   257
 75
     1
175
     1
 42
1.0
 92
        8
 66
     8
 43
1.0
 76
     1
 77
     6
 78
     2
 67
     7
 79
     5
170
     0
171
     0
290
     0
174
     0
 93
        1
 44
0.0
173
     0
291
     1
 45
0.0
1001
ACAD
1000
AcDbSavedByObjectVersion
1070
     0
  0
VISUALSTYLE
  5
34
102
{ACAD_REACTORS
330
2A
102
}
330
2A
100
AcDbVisualStyle
  2
Conceptual
 70
     9
 71
     3
 72
     2
 73
     0
 90
        0
 40
-0.6
 41
-30.0
 62
     5
 63
     7
 74
     2
 91
        2
 64
     7
 65
   257
 75
     1
175
     1
 42
40.0
 92
        8
 66
     7
 43
1.0
 76
     1
 77
     6
 78
     2
 67
     7
 79
     3
170
     0
171
     0
290
     0
174
     0
 93
        1
 44
0.0
173
     0
291
     0
 45
0.0
1001
ACAD
1000
AcDbSavedByObjectVersion
1070
     0
  0
VISUALSTYLE
  5
35
102
{ACAD_REACTORS
330
2A
102
}
330
2A
100
AcDbVisualStyle
  2
Dim
 70
    11
 71
     2
 72
     2
 73
     0
 90
        0
 40
-0.6
 41
-30.0
 62
     5
 63
     7
 74
     1
 91
        4
 64
     7
 65
   257
 75
     1
175
     1
 42
1.0
 92
        8
 66
     7
 43
1.0
 76
     1
 77
     6
 78
     2
 67
     7
 79
     5
170
     0
171
     0
290
     0
174
     0
 93
        1
 44
-50.0
173
     0
291
     1
 45
0.0
1001
ACAD
1000
AcDbSavedByObjectVersion
1070
     0
  0
VISUALSTYLE
  5
39
102
{ACAD_REACTORS
330
2A
102
}
330
2A
100
AcDbVisualStyle
  2
Facepattern
 70
    15
 71
     2
 72
     2
 73
     0
 90
        0
 40
-0.6
 41
-30.0
 62
     5
 63
     7
 74
     1
 91
        4
 64
     7
 65
   257
 75
     1
175
     1
 42
1.0
 92
        8
 66
     7
 43
1.0
 76
     1
 77
     6
 78
     2
 67
     7
 79
     5
170
     0
171
     0
290
     0
174
     0
 93
        1
 44
0.0
173
     0
291
     1
 45
0.0
1001
ACAD
1000
AcDbSavedByObjectVersion
1070
     0
  0
VISUALSTYLE
  5
2B
102
{ACAD_REACTORS
330
2A
102
}
330
2A
100
AcDbVisualStyle
  2
Flat
 70
     0
 71
     2
 72
     1
 73
     1
 90
        2
 40
-0.6
 41
30.0
 62
     5
 63
     7
 74
     0
 91
        4
 64
     7
 65
   257
 75
     1
175
     1
 42
1.0
 92
        8
 66
     7
 43
1.0
 76
     1
 77
     6
 78
     2
 67
     7
 79
     5
170
     0
171
     0
290
     0
174
     0
 93
       13
 44
0.0
173
     0
291
     1
 45
0.0
1001
ACAD
1000
AcDbSavedByObjectVersion
1070
     0
  0
VISUALSTYLE
  5
2C
102
{ACAD_REACTORS
330
2A
102
}
330
2A
100
AcDbVisualStyle
  2
FlatWithEdges
 70
     1
 71
     2
 72
     1
 73
     1
 90
        2
 40
-0.6
 41
30.0
 62
     5
 63
     7
 74
     1
 91
        4
 64
     7
 65
   257
 75
     1
175
     1
 42
1.0
 92
        0
 66
   257
 43
1.0
 76
     1
 77
     6
 78
     2
 67
     7
 79
     5
170
     0
171
     0
290
     0
174
     0
 93
       13
 44
0.0
173
     0
291
     1
 45
0.0
1001
ACAD
1000
AcDbSavedByObjectVersion
1070
     0
  0
VISUALSTYLE
  5
2D
102
{ACAD_REACTORS
330
2A
102
}
330
2A
100
AcDbVisualStyle
  2
Gouraud
 70
     2
 71
     2
 72
     2
 73
     1
 90
        2
 40
-0.6
 41
30.0
 62
     5
 63
     7
 74
     0
 91
        4
 64
     7
 65
   257
 75
     1
175
     1
 42
1.0
 92
        0
 66
     7
 43
1.0
 76
     1
 77
     6
 78
     2
 67
     7
 79
     5
170
     0
171
     0
290
     0
174
     0
 93
       13
 44
0.0
173
     0
291
     1
 45
0.0
1001
ACAD
1000
AcDbSavedByObjectVersion
1070
     0
  0
VISUALSTYLE
  5
2E
102
{ACAD_REACTORS
330
2A
102
}
330
2A
100
AcDbVisualStyle
  2
GouraudWithEdges
 70
     3
 71
     2
 72
     2
 73
     1
 90
        2
 40
-0.6
 41
30.0
 62
     5
 63
     7
 74
     1
 91
        4
 64
     7
 65
   257
 75
     1
175
     1
 42
1.0
 92
        0
 66
   257
 43
1.0
 76
     1
 77
     6
 78
     2
 67
     7
 79
     5
170
     0
171
     0
290
     0
174
     0
 93
       13
 44
0.0
173
     0
291
     1
 45
0.0
1001
ACAD
1000
AcDbSavedByObjectVersion
1070
     0
  0
VISUALSTYLE
  5
38
102
{ACAD_REACTORS
330
2A
102
}
330
2A
100
AcDbVisualStyle
  2
Linepattern
 70
    14
 71
     2
 72
     2
 73
     0
 90
        0
 40
-0.6
 41
-30.0
 62
     5
 63
     7
 74
     1
 91
        4
 64
     7
 65
   257
 75
     7
175
     7
 42
1.0
 92
        8
 66
     7
 43
1.0
 76
     1
 77
     6
 78
     2
 67
     7
 79
     5
170
     0
171
     0
290
     0
174
     0
 93
        1
 44
0.0
173
     0
291
     1
 45
0.0
1001
ACAD
1000
AcDbSavedByObjectVersion
1070
     0
  0
VISUALSTYLE
  5
33
102
{ACAD_REACTORS
330
2A
102
}
330
2A
100
AcDbVisualStyle
  2
Realistic
 70
     8
 71
     2
 72
     2
 73
     0
 90
        0
 40
-0.6
 41
-30.0
 62
     5
 63
     7
 74
     1
 91
        0
 64
     7
 65
   257
 75
     1
175
     1
 42
1.0
 92
        8
 66
     8
 43
1.0
 76
     1
 77
     6
 78
     2
 67
     7
 79
     5
170
     0
171
     0
290
     0
174
     0
 93
       13
 44
0.0
173
     0
291
     0
 45
0.0
1001
ACAD
1000
AcDbSavedByObjectVersion
1070
     0
  0
VISUALSTYLE
  5
37
102
{ACAD_REACTORS
330
2A
102
}
330
2A
100
AcDbVisualStyle
  2
Thicken
 70
    13
 71
     2
 72
     2
 73
     0
 90
        0
 40
-0.6
 41
-30.0
 62
     5
 63
     7
 74
     1
 91
        4
 64
     7
 65
   257
 75
     1
175
     1
 42
1.0
 92
       12
 66
     7
 43
1.0
 76
     1
 77
     6
 78
     2
 67
     7
 79
     5
170
     0
171
     0
290
     0
174
     0
 93
        1
 44
0.0
173
     0
291
     1
 45
0.0
1001
ACAD
1000
AcDbSavedByObjectVersion
1070
     0
  0
DICTIONARYVAR
  5
166
102
{ACAD_REACTORS
330
163
102
}
330
163
100
DictionaryVariables
280
     0
  1
1:1
  0
ENDSEC
  0
EOF
