  0
SECTION
  2
HEADER
  9
$ACADVER
  1
AC1015
  9
$ACADMAINTVER
 70
     6
  9
$DWGCODEPAGE
  3
ANSI_1252
  9
$INSBASE
 10
0.0
 20
0.0
 30
0.0
  9
$EXTMIN
 10
30.5595574175657
 20
77.1570663812
 30
0.0
  9
$EXTMAX
 10
221.572311224592
 20
188.616990391014
 30
0.0
  9
$LIMMIN
 10
0.0
 20
0.0
  9
$LIMMAX
 10
12.0
 20
9.0
  9
$ORTHOMODE
 70
     0
  9
$REGENMODE
 70
     1
  9
$FILLMODE
 70
     1
  9
$QTEXTMODE
 70
     0
  9
$MIRRTEXT
 70
     1
  9
$LTSCALE
 40
1.0
  9
$ATTMODE
 70
     1
  9
$TEXTSIZE
 40
0.2
  9
$TRACEWID
 40
0.05
  9
$TEXTSTYLE
  7
Standard
  9
$CLAYER
  8
0
  9
$CELTYPE
  6
ByLayer
  9
$CECOLOR
 62
   256
  9
$CELTSCALE
 40
1.0
  9
$DISPSILH
 70
     0
  9
$DIMSCALE
 40
1.0
  9
$DIMASZ
 40
0.18
  9
$DIMEXO
 40
0.0625
  9
$DIMDLI
 40
0.38
  9
$DIMRND
 40
0.0
  9
$DIMDLE
 40
0.0
  9
$DIMEXE
 40
0.18
  9
$DIMTP
 40
0.0
  9
$DIMTM
 40
0.0
  9
$DIMTXT
 40
0.18
  9
$DIMCEN
 40
0.09
  9
$DIMTSZ
 40
0.0
  9
$DIMTOL
 70
     0
  9
$DIMLIM
 70
     0
  9
$DIMTIH
 70
     1
  9
$DIMTOH
 70
     1
  9
$DIMSE1
 70
     0
  9
$DIMSE2
 70
     0
  9
$DIMTAD
 70
     0
  9
$DIMZIN
 70
     0
  9
$DIMBLK
  1

  9
$DIMASO
 70
     1
  9
$DIMSHO
 70
     1
  9
$DIMPOST
  1

  9
$DIMAPOST
  1

  9
$DIMALT
 70
     0
  9
$DIMALTD
 70
     2
  9
$DIMALTF
 40
25.4
  9
$DIMLFAC
 40
1.0
  9
$DIMTOFL
 70
     0
  9
$DIMTVP
 40
0.0
  9
$DIMTIX
 70
     0
  9
$DIMSOXD
 70
     0
  9
$DIMSAH
 70
     0
  9
$DIMBLK1
  1

  9
$DIMBLK2
  1

  9
$DIMSTYLE
  2
Standard
  9
$DIMCLRD
 70
     0
  9
$DIMCLRE
 70
     0
  9
$DIMCLRT
 70
     0
  9
$DIMTFAC
 40
1.0
  9
$DIMGAP
 40
0.09
  9
$DIMJUST
 70
     0
  9
$DIMSD1
 70
     0
  9
$DIMSD2
 70
     0
  9
$DIMTOLJ
 70
     1
  9
$DIMTZIN
 70
     0
  9
$DIMALTZ
 70
     0
  9
$DIMALTTZ
 70
     0
  9
$DIMUPT
 70
     0
  9
$DIMDEC
 70
     4
  9
$DIMTDEC
 70
     4
  9
$DIMALTU
 70
     2
  9
$DIMALTTD
 70
     2
  9
$DIMTXSTY
  7
Standard
  9
$DIMAUNIT
 70
     0
  9
$DIMADEC
 70
     0
  9
$DIMALTRND
 40
0.0
  9
$DIMAZIN
 70
     0
  9
$DIMDSEP
 70
    46
  9
$DIMATFIT
 70
     3
  9
$DIMFRAC
 70
     0
  9
$DIMLDRBLK
  1

  9
$DIMLUNIT
 70
     2
  9
$DIMLWD
 70
    -2
  9
$DIMLWE
 70
    -2
  9
$DIMTMOVE
 70
     0
  9
$LUNITS
 70
     2
  9
$LUPREC
 70
     4
  9
$SKETCHINC
 40
0.1
  9
$FILLETRAD
 40
0.5
  9
$AUNITS
 70
     0
  9
$AUPREC
 70
     0
  9
$MENU
  1
.
  9
$ELEVATION
 40
0.0
  9
$PELEVATION
 40
0.0
  9
$THICKNESS
 40
0.0
  9
$LIMCHECK
 70
     0
  9
$CHAMFERA
 40
0.5
  9
$CHAMFERB
 40
0.5
  9
$CHAMFERC
 40
1.0
  9
$CHAMFERD
 40
0.0
  9
$SKPOLY
 70
     0
  9
$TDCREATE
 40
2456644.717505
  9
$TDUCREATE
 40
2456644.675838334
  9
$TDUPDATE
 40
2456644.717505012
  9
$TDUUPDATE
 40
2456644.675838345
  9
$TDINDWG
 40
0.0000000116
  9
$TDUSRTIMER
 40
0.0000000116
  9
$USRTIMER
 70
     1
  9
$ANGBASE
 50
0.0
  9
$ANGDIR
 70
     0
  9
$PDMODE
 70
     0
  9
$PDSIZE
 40
0.0
  9
$PLINEWID
 40
0.0
  9
$SPLFRAME
 70
     0
  9
$SPLINETYPE
 70
     6
  9
$SPLINESEGS
 70
     8
  9
$HANDSEED
  5
167
  9
$SURFTAB1
 70
     6
  9
$SURFTAB2
 70
     6
  9
$SURFTYPE
 70
     6
  9
$SURFU
 70
     6
  9
$SURFV
 70
     6
  9
$UCSBASE
  2

  9
$UCSNAME
  2

  9
$UCSORG
 10
0.0
 20
0.0
 30
0.0
  9
$UCSXDIR
 10
1.0
 20
0.0
 30
0.0
  9
$UCSYDIR
 10
0.0
 20
1.0
 30
0.0
  9
$UCSORTHOREF
  2

  9
$UCSORTHOVIEW
 70
     0
  9
$UCSORGTOP
 10
0.0
 20
0.0
 30
0.0
  9
$UCSORGBOTTOM
 10
0.0
 20
0.0
 30
0.0
  9
$UCSORGLEFT
 10
0.0
 20
0.0
 30
0.0
  9
$UCSORGRIGHT
 10
0.0
 20
0.0
 30
0.0
  9
$UCSORGFRONT
 10
0.0
 20
0.0
 30
0.0
  9
$UCSORGBACK
 10
0.0
 20
0.0
 30
0.0
  9
$PUCSBASE
  2

  9
$PUCSNAME
  2

  9
$PUCSORG
 10
0.0
 20
0.0
 30
0.0
  9
$PUCSXDIR
 10
1.0
 20
0.0
 30
0.0
  9
$PUCSYDIR
 10
0.0
 20
1.0
 30
0.0
  9
$PUCSORTHOREF
  2

  9
$PUCSORTHOVIEW
 70
     0
  9
$PUCSORGTOP
 10
0.0
 20
0.0
 30
0.0
  9
$PUCSORGBOTTOM
 10
0.0
 20
0.0
 30
0.0
  9
$PUCSORGLEFT
 10
0.0
 20
0.0
 30
0.0
  9
$PUCSORGRIGHT
 10
0.0
 20
0.0
 30
0.0
  9
$PUCSORGFRONT
 10
0.0
 20
0.0
 30
0.0
  9
$PUCSORGBACK
 10
0.0
 20
0.0
 30
0.0
  9
$USERI1
 70
     0
  9
$USERI2
 70
     0
  9
$USERI3
 70
     0
  9
$USERI4
 70
     0
  9
$USERI5
 70
     0
  9
$USERR1
 40
16.5
  9
$USERR2
 40
0.0
  9
$USERR3
 40
0.0
  9
$USERR4
 40
0.0
  9
$USERR5
 40
0.0
  9
$WORLDVIEW
 70
     1
  9
$SHADEDGE
 70
     3
  9
$SHADEDIF
 70
    70
  9
$TILEMODE
 70
     1
  9
$MAXACTVP
 70
    64
  9
$PINSBASE
 10
0.0
 20
0.0
 30
0.0
  9
$PLIMCHECK
 70
     0
  9
$PEXTMIN
 10
1.00000000000000E+20
 20
1.00000000000000E+20
 30
1.00000000000000E+20
  9
$PEXTMAX
 10
-1.00000000000000E+20
 20
-1.00000000000000E+20
 30
-1.00000000000000E+20
  9
$PLIMMIN
 10
0.0
 20
0.0
  9
$PLIMMAX
 10
12.0
 20
9.0
  9
$UNITMODE
 70
     0
  9
$VISRETAIN
 70
     1
  9
$PLINEGEN
 70
     0
  9
$PSLTSCALE
 70
     1
  9
$TREEDEPTH
 70
  3020
  9
$CMLSTYLE
  2
Standard
  9
$CMLJUST
 70
     0
  9
$CMLSCALE
 40
1.0
  9
$PROXYGRAPHICS
 70
     1
  9
$MEASUREMENT
 70
     1
  9
$CELWEIGHT
370
    -1
  9
$ENDCAPS
280
     0
  9
$JOINSTYLE
280
     0
  9
$LWDISPLAY
290
     0
  9
$INSUNITS
 70
     1
  9
$HYPERLINKBASE
  1

  9
$STYLESHEET
  1

  9
$XEDIT
290
     1
  9
$CEPSNTYPE
380
     0
  9
$PSTYLEMODE
290
     1
  9
$FINGERPRINTGUID
  2
{E1FC859E-0420-4722-AF5D-64922277875F}
  9
$VERSIONGUID
  2
{FAEB1C32-E019-11D5-929B-00C0DF256EC4}
  9
$EXTNAMES
290
     1
  9
$PSVPSCALE
 40
0.0
  9
$OLESTARTUP
290
     0
  0
ENDSEC
  0
SECTION
  2
CLASSES
  0
CLASS
  1
ACDBDICTIONARYWDFLT
  2
AcDbDictionaryWithDefault
  3
ObjectDBX Classes
 90
        0
280
     0
281
     0
  0
CLASS
  1
VISUALSTYLE
  2
AcDbVisualStyle
  3
ObjectDBX Classes
 90
     4095
280
     0
281
     0
  0
CLASS
  1
SCALE
  2
AcDbScale
  3
ObjectDBX Classes
 90
     1153
280
     0
281
     0
  0
CLASS
  1

  2
exOdDbPolyline
  3

 90
        0
280
     0
281
     1
  0
CLASS
  1

  2
exOdDbCircle
  3

 90
        0
280
     0
281
     1
  0
CLASS
  1

  2
exOdDbSpline
  3

 90
        0
280
     0
281
     1
  0
CLASS
  1
DICTIONARYVAR
  2
AcDbDictionaryVar
  3
ObjectDBX Classes
 90
        0
280
     0
281
     0
  0
CLASS
  1
ACDBPLACEHOLDER
  2
AcDbPlaceHolder
  3
ObjectDBX Classes
 90
        0
280
     0
281
     0
  0
CLASS
  1
LAYOUT
  2
AcDbLayout
  3
ObjectDBX Classes
 90
        0
280
     0
281
     0
  0
ENDSEC
  0
SECTION
  2
TABLES
  0
TABLE
  2
VPORT
  5
8
330
0
100
AcDbSymbolTable
 70
     1
  0
VPORT
  5
29
330
8
100
AcDbSymbolTableRecord
100
AcDbViewportTableRecord
  2
*Active
 70
     0
 10
0.0
 20
0.0
 11
1.0
 21
1.0
 12
126.0659343210789
 22
132.887028386107
 13
0.0
 23
0.0
 14
0.5
 24
0.5
 15
0.5
 25
0.5
 16
0.0
 26
0.0
 36
1.0
 17
0.0
 27
0.0
 37
0.0
 40
131.1017897995858
 41
1.60267857142857
 42
50.0
 43
0.0
 44
0.0
 50
0.0
 51
0.0
 71
     0
 72
   100
 73
     1
 74
     3
 75
     0
 76
     0
 77
     0
 78
     0
281
     0
 65
     1
110
0.0
120
0.0
130
0.0
111
1.0
121
0.0
131
0.0
112
0.0
122
1.0
132
0.0
 79
     0
146
0.0
  0
ENDTAB
  0
TABLE
  2
LTYPE
  5
5
330
0
100
AcDbSymbolTable
 70
     9
  0
LTYPE
  5
14
330
5
100
AcDbSymbolTableRecord
100
AcDbLinetypeTableRecord
  2
ByBlock
 70
     0
  3

 72
    65
 73
     0
 40
0.0
  0
LTYPE
  5
15
330
5
100
AcDbSymbolTableRecord
100
AcDbLinetypeTableRecord
  2
ByLayer
 70
     0
  3

 72
    65
 73
     0
 40
0.0
  0
LTYPE
  5
16
330
5
100
AcDbSymbolTableRecord
100
AcDbLinetypeTableRecord
  2
Continuous
 70
     0
  3
Solid line
 72
    65
 73
     0
 40
0.0
  0
LTYPE
  5
3B
330
5
100
AcDbSymbolTableRecord
100
AcDbLinetypeTableRecord
  2
DASHED
 70
     0
  3
Dashed
 72
    65
 73
     2
 40
15.0
 49
7.0
 74
     0
 49
-8.0
 74
     0
  0
LTYPE
  5
3C
330
5
100
AcDbSymbolTableRecord
100
AcDbLinetypeTableRecord
  2
DOTTED
 70
     0
  3
Dotted
 72
    65
 73
     2
 40
1.0
 49
0.0
 74
     0
 49
-1.0
 74
     0
  0
LTYPE
  5
3D
330
5
100
AcDbSymbolTableRecord
100
AcDbLinetypeTableRecord
  2
DOT_CENTER
 70
     0
  3
Dot_Center
 72
    65
 73
     4
 40
14.0
 49
12.0
 74
     0
 49
-1.0
 74
     0
 49
0.0
 74
     0
 49
-1.0
 74
     0
  0
LTYPE
  5
3E
330
5
100
AcDbSymbolTableRecord
100
AcDbLinetypeTableRecord
  2
LONG_DASHED
 70
     0
  3
Long_Dashed
 72
    65
 73
     2
 40
15.0
 49
10.0
 74
     0
 49
-5.0
 74
     0
  0
LTYPE
  5
3F
330
5
100
AcDbSymbolTableRecord
100
AcDbLinetypeTableRecord
  2
DASH_CENTER
 70
     0
  3
Dash_Center
 72
    65
 73
     4
 40
14.0
 49
11.0
 74
     0
 49
-1.0
 74
     0
 49
1.0
 74
     0
 49
-1.0
 74
     0
  0
LTYPE
  5
40
330
5
100
AcDbSymbolTableRecord
100
AcDbLinetypeTableRecord
  2
PHANTOM
 70
     0
  3
Phantom
 72
    65
 73
     6
 40
13.0
 49
10.0
 74
     0
 49
-1.0
 74
     0
 49
0.0
 74
     0
 49
-1.0
 74
     0
 49
0.0
 74
     0
 49
-1.0
 74
     0
  0
LTYPE
  5
41
330
5
100
AcDbSymbolTableRecord
100
AcDbLinetypeTableRecord
  2
CENTER_DASH_DASH
 70
     0
  3
Center_Dash_Dash
 72
    65
 73
     6
 40
14.0
 49
9.0
 74
     0
 49
-1.0
 74
     0
 49
1.0
 74
     0
 49
-1.0
 74
     0
 49
1.0
 74
     0
 49
-1.0
 74
     0
  0
LTYPE
  5
42
330
5
100
AcDbSymbolTableRecord
100
AcDbLinetypeTableRecord
  2
HIDDEN
 70
     0
  3
HIDDEN
 72
    65
 73
     2
 40
4.0
 49
2.0
 74
     0
 49
-2.0
 74
     0
  0
ENDTAB
  0
TABLE
  2
LAYER
  5
2
330
0
100
AcDbSymbolTable
 70
     7
  0
LAYER
  5
10
330
2
100
AcDbSymbolTableRecord
100
AcDbLayerTableRecord
  2
0
 70
     0
 62
     7
  6
Continuous
370
    -3
390
F
  0
LAYER
  5
43
330
2
100
AcDbSymbolTableRecord
100
AcDbLayerTableRecord
  2
1
 70
     0
 62
     7
  6
Continuous
370
    -3
390
F
  0
LAYER
  5
44
330
2
100
AcDbSymbolTableRecord
100
AcDbLayerTableRecord
  2
BEZUGSACHSEN
 70
     0
 62
     7
  6
Continuous
370
    -3
390
F
  0
LAYER
  5
45
330
2
100
AcDbSymbolTableRecord
100
AcDbLayerTableRecord
  2
DEFAULT_2
 70
     0
 62
     7
  6
Continuous
370
    -3
390
F
  0
LAYER
  5
46
330
2
100
AcDbSymbolTableRecord
100
AcDbLayerTableRecord
  2
FASEN
 70
     0
 62
     7
  6
Continuous
370
    -3
390
F
  0
LAYER
  5
47
330
2
100
AcDbSymbolTableRecord
100
AcDbLayerTableRecord
  2
RUNDUNGEN
 70
     0
 62
     7
  6
Continuous
370
    -3
390
F
  0
LAYER
  5
48
330
2
100
AcDbSymbolTableRecord
100
AcDbLayerTableRecord
  2
TEIL_STARTBEZUEGE
 70
     0
 62
     7
  6
Continuous
370
    -3
390
F
  0
ENDTAB
  0
TABLE
  2
STYLE
  5
3
330
0
100
AcDbSymbolTable
 70
     2
  0
STYLE
  5
11
330
3
100
AcDbSymbolTableRecord
100
AcDbTextStyleTableRecord
  2
Standard
 70
     0
 40
0.0
 41
1.0
 50
0.0
 71
     0
 42
0.2
  3
txt
  4

  0
STYLE
  5
6F
330
3
100
AcDbSymbolTableRecord
100
AcDbTextStyleTableRecord
  2
CONVERTER_11
 70
     0
 40
0.0
 41
0.72
 50
0.0
 71
     0
 42
0.2
  3
txt.shx
  4

  0
ENDTAB
  0
TABLE
  2
VIEW
  5
6
330
0
100
AcDbSymbolTable
 70
     0
  0
ENDTAB
  0
TABLE
  2
UCS
  5
7
330
0
100
AcDbSymbolTable
 70
     0
  0
ENDTAB
  0
TABLE
  2
APPID
  5
9
330
0
100
AcDbSymbolTable
 70
     1
  0
APPID
  5
12
330
9
100
AcDbSymbolTableRecord
100
AcDbRegAppTableRecord
  2
ACAD
 70
     0
  0
ENDTAB
  0
TABLE
  2
DIMSTYLE
  5
A
330
0
100
AcDbSymbolTable
 70
     8
100
AcDbDimStyleTable
  0
DIMSTYLE
105
27
330
A
100
AcDbSymbolTableRecord
100
AcDbDimStyleTableRecord
  2
Standard
 70
     0
340
11
  0
DIMSTYLE
105
118
102
{ACAD_REACTORS
330
119
102
}
330
A
100
AcDbSymbolTableRecord
100
AcDbDimStyleTableRecord
  2
ME10_DIM_10
 70
     0
  3
\U+2300<>
 41
3.5
 42
2.0
 44
2.0
 71
     1
 73
     0
 74
     0
 77
     1
 78
     8
140
3.5
146
0.7
147
2.0
172
     1
173
     1
176
     2
177
     2
178
     3
271
     2
272
     0
340
6F
  0
DIMSTYLE
105
123
102
{ACAD_REACTORS
330
124
102
}
330
A
100
AcDbSymbolTableRecord
100
AcDbDimStyleTableRecord
  2
ME10_DIM_11
 70
     0
  3
\U+2300<>
 41
3.5
 42
2.0
 44
2.0
 71
     1
 73
     0
 74
     0
 77
     1
 78
     8
140
3.5
146
0.7
147
2.0
172
     1
173
     1
176
     2
177
     2
178
     3
271
     2
272
     0
340
6F
  0
DIMSTYLE
105
12E
102
{ACAD_REACTORS
330
12F
102
}
330
A
100
AcDbSymbolTableRecord
100
AcDbDimStyleTableRecord
  2
ME10_DIM_12
 70
     0
  3
\U+2300<>
 41
3.5
 42
2.0
 44
2.0
 71
     1
 73
     0
 74
     0
 77
     1
 78
     8
140
3.5
146
0.7
147
2.0
172
     1
173
     1
176
     2
177
     2
178
     3
271
     2
272
     0
340
6F
  0
DIMSTYLE
105
139
102
{ACAD_REACTORS
330
13A
102
}
330
A
100
AcDbSymbolTableRecord
100
AcDbDimStyleTableRecord
  2
ME10_DIM_13
 70
     0
  3
<>
 41
3.5
 42
2.0
 44
2.0
 71
     1
 73
     0
 74
     0
 77
     1
 78
     8
140
3.5
146
0.7
147
2.0
172
     1
173
     1
176
     2
177
     2
178
     3
271
     0
272
     0
340
6F
  0
DIMSTYLE
105
144
102
{ACAD_REACTORS
330
145
102
}
330
A
100
AcDbSymbolTableRecord
100
AcDbDimStyleTableRecord
  2
ME10_DIM_14
 70
     0
  3
<>
 41
3.5
 42
2.0
 44
2.0
 71
     1
 73
     0
 74
     0
 77
     1
 78
     8
140
3.5
146
0.7
147
2.0
172
     1
173
     1
176
     2
177
     2
178
     3
271
     2
272
     0
340
6F
  0
DIMSTYLE
105
14F
102
{ACAD_REACTORS
330
150
102
}
330
A
100
AcDbSymbolTableRecord
100
AcDbDimStyleTableRecord
  2
ME10_DIM_15
 70
     0
  3
<>
 41
3.5
 42
2.0
 44
2.0
 71
     1
 73
     0
 74
     0
 77
     1
 78
     8
140
3.5
146
0.7
147
2.0
172
     1
173
     1
176
     2
177
     2
178
     3
271
     0
272
     0
340
6F
  0
DIMSTYLE
105
161
102
{ACAD_REACTORS
330
162
102
}
330
A
100
AcDbSymbolTableRecord
100
AcDbDimStyleTableRecord
  2
ME10_DIM_16
 70
     0
  3
<>
 41
3.5
 42
2.0
 44
2.0
 71
     1
 73
     0
 74
     0
 77
     1
 78
     8
140
3.5
146
0.7
147
2.0
172
     1
173
     1
176
     2
177
     2
178
     3
271
     2
272
     0
340
6F
  0
ENDTAB
  0
TABLE
  2
BLOCK_RECORD
  5
1
330
0
100
AcDbSymbolTable
 70
    10
  0
BLOCK_RECORD
  5
1F
330
1
100
AcDbSymbolTableRecord
100
AcDbBlockTableRecord
  2
*Model_Space
340
22
  0
BLOCK_RECORD
  5
1B
330
1
100
AcDbSymbolTableRecord
100
AcDbBlockTableRecord
  2
*Paper_Space
340
1E
  0
BLOCK_RECORD
  5
23
330
1
100
AcDbSymbolTableRecord
100
AcDbBlockTableRecord
  2
*Paper_Space0
340
26
  0
BLOCK_RECORD
  5
49
330
1
100
AcDbSymbolTableRecord
100
AcDbBlockTableRecord
  2
Urheberrecht_DE-EN
340
0
102
{BLKREFS
331
6E
102
}
  0
BLOCK_RECORD
  5
10F
330
1
100
AcDbSymbolTableRecord
100
AcDbBlockTableRecord
  2
*D2
340
0
  0
BLOCK_RECORD
  5
11A
330
1
100
AcDbSymbolTableRecord
100
AcDbBlockTableRecord
  2
*D3
340
0
  0
BLOCK_RECORD
  5
125
330
1
100
AcDbSymbolTableRecord
100
AcDbBlockTableRecord
  2
*D4
340
0
  0
BLOCK_RECORD
  5
130
330
1
100
AcDbSymbolTableRecord
100
AcDbBlockTableRecord
  2
*D5
340
0
  0
BLOCK_RECORD
  5
13B
330
1
100
AcDbSymbolTableRecord
100
AcDbBlockTableRecord
  2
*D6
340
0
  0
BLOCK_RECORD
  5
146
330
1
100
AcDbSymbolTableRecord
100
AcDbBlockTableRecord
  2
*D7
340
0
  0
BLOCK_RECORD
  5
151
330
1
100
AcDbSymbolTableRecord
100
AcDbBlockTableRecord
  2
*D8
340
0
102
{BLKREFS
331
157
102
}
  0
BLOCK_RECORD
  5
158
330
1
100
AcDbSymbolTableRecord
100
AcDbBlockTableRecord
  2
*D9
340
0
  0
ENDTAB
  0
ENDSEC
  0
SECTION
  2
BLOCKS
  0
BLOCK
  5
20
330
1F
100
AcDbEntity
  8
0
100
AcDbBlockBegin
  2
*Model_Space
 70
     0
 10
0.0
 20
0.0
 30
0.0
  3
*Model_Space
  1

  0
ENDBLK
  5
21
330
1F
100
AcDbEntity
  8
0
100
AcDbBlockEnd
  0
BLOCK
  5
1C
330
1B
100
AcDbEntity
 67
     1
  8
0
100
AcDbBlockBegin
  2
*Paper_Space
 70
     0
 10
0.0
 20
0.0
 30
0.0
  3
*Paper_Space
  1

  0
ENDBLK
  5
1D
330
1B
100
AcDbEntity
 67
     1
  8
0
100
AcDbBlockEnd
  0
BLOCK
  5
24
330
23
100
AcDbEntity
  8
0
100
AcDbBlockBegin
  2
*Paper_Space0
 70
     0
 10
0.0
 20
0.0
 30
0.0
  3
*Paper_Space0
  1

  0
ENDBLK
  5
25
330
23
100
AcDbEntity
  8
0
100
AcDbBlockEnd
  0
BLOCK
  5
4A
330
49
100
AcDbEntity
  8
0
100
AcDbBlockBegin
  2
Urheberrecht_DE-EN
 70
     0
 10
44.5595574175657
 20
136.136990391014
 30
0.0
  3
Urheberrecht_DE-EN
  1

  0
MTEXT
  5
70
330
49
100
AcDbEntity
  8
1
 62
     1
100
AcDbMText
 10
44.5595574175657
 20
136.136990391014
 30
0.0
 40
2.0
 41
0.0
 71
     7
 72
     1
  1
We own the copyright of this document. It \Pdetermined and may neither be copied or \Pmade accessible to outsiders without our\Ppermission.
  7
CONVERTER_11
 11
0.0
 21
1.0
 31
0.0
 73
     1
 44
0.90036014405762
  0
MTEXT
  5
71
330
49
100
AcDbEntity
  8
1
 62
     1
100
AcDbMText
 10
44.5595574175657
 20
79.8476034737078
 30
0.0
 40
2.0
 41
0.0
 71
     7
 72
     1
  1
F\U+00fcr diese Unterlage behalten wir das Ur-\Pheberrecht. Sie darf nur f\U+00fcr den von uns \Pbestimmten Zweck benutzt und ohne unsere \PZustimmung weder vervielf\U+00e4ltigt noch\PDritten zug\U+00e4nglich gemacht werden.
  7
CONVERTER_11
 11
0.0
 21
1.0
 31
0.0
 73
     1
 44
0.90036014405762
  0
ENDBLK
  5
4B
330
49
100
AcDbEntity
  8
0
100
AcDbBlockEnd
  0
BLOCK
  5
116
330
10F
100
AcDbEntity
  8
0
100
AcDbBlockBegin
  2
*D2
 70
     1
 10
0.0
 20
0.0
 30
0.0
  3
*D2
  1

  0
LINE
  5
110
330
10F
100
AcDbEntity
  8
1
  6
Continuous
 62
     2
100
AcDbLine
 10
202.873620064219
 20
124.1570663812
 30
0.0
 11
202.873620064219
 21
110.1570663812
 31
0.0
  0
LINE
  5
111
330
10F
100
AcDbEntity
  8
1
  6
Continuous
 62
     2
100
AcDbLine
 10
193.5345489829
 20
124.1570663812
 30
0.0
 11
204.873620064219
 21
124.1570663812
 31
0.0
  0
LINE
  5
112
330
10F
100
AcDbEntity
  8
1
  6
Continuous
 62
     2
100
AcDbLine
 10
193.5345489829
 20
110.1570663812
 30
0.0
 11
204.873620064219
 21
110.1570663812
 31
0.0
  0
SOLID
  5
113
330
10F
100
AcDbEntity
  8
1
 62
     2
100
AcDbTrace
 10
203.3344038057749
 20
120.6570663812
 30
0.0
 11
202.4128363226631
 21
120.6570663812
 31
0.0
 12
202.873620064219
 22
124.1570663812
 32
0.0
 13
202.873620064219
 23
124.1570663812
 33
0.0
  0
SOLID
  5
114
330
10F
100
AcDbEntity
  8
1
 62
     2
100
AcDbTrace
 10
202.4128363226631
 20
113.6570663812
 30
0.0
 11
203.3344038057749
 21
113.6570663812
 31
0.0
 12
202.873620064219
 22
110.1570663812
 32
0.0
 13
202.873620064219
 23
110.1570663812
 33
0.0
  0
MTEXT
  5
115
330
10F
100
AcDbEntity
  8
1
 62
     3
100
AcDbMText
 10
200.873620064219
 20
109.191244338964
 30
0.0
 40
3.5
 41
0.0
 71
     7
 72
     1
  1
\C3;%%c\C3;\C3;14\C2;\H2.45;\S^ ;\C3;
  7
CONVERTER_11
 11
0.0
 21
1.0
 31
0.0
 73
     1
 44
0.60024009603842
  0
ENDBLK
  5
117
330
10F
100
AcDbEntity
  8
0
100
AcDbBlockEnd
  0
BLOCK
  5
121
330
11A
100
AcDbEntity
  8
0
100
AcDbBlockBegin
  2
*D3
 70
     1
 10
0.0
 20
0.0
 30
0.0
  3
*D3
  1

  0
LINE
  5
11B
330
11A
100
AcDbEntity
  8
1
  6
Continuous
 62
     2
100
AcDbLine
 10
210.928282859222
 20
130.6570663811466
 30
0.0
 11
210.928282859222
 21
103.6570663811486
 31
0.0
  0
LINE
  5
11C
330
11A
100
AcDbEntity
  8
1
  6
Continuous
 62
     2
100
AcDbLine
 10
193.5345489829
 20
130.6570663811466
 30
0.0
 11
212.928282859222
 21
130.6570663811466
 31
0.0
  0
LINE
  5
11D
330
11A
100
AcDbEntity
  8
1
  6
Continuous
 62
     2
100
AcDbLine
 10
193.5345489829
 20
103.6570663811486
 30
0.0
 11
212.928282859222
 21
103.6570663811486
 31
0.0
  0
SOLID
  5
11E
330
11A
100
AcDbEntity
  8
1
 62
     2
100
AcDbTrace
 10
211.3890666007779
 20
127.1570663811466
 30
0.0
 11
210.4674991176661
 21
127.1570663811466
 31
0.0
 12
210.928282859222
 22
130.6570663811466
 32
0.0
 13
210.928282859222
 23
130.6570663811466
 33
0.0
  0
SOLID
  5
11F
330
11A
100
AcDbEntity
  8
1
 62
     2
100
AcDbTrace
 10
210.4674991176661
 20
107.1570663811486
 30
0.0
 11
211.3890666007779
 21
107.1570663811486
 31
0.0
 12
210.928282859222
 22
103.6570663811486
 32
0.0
 13
210.928282859222
 23
103.6570663811486
 33
0.0
  0
MTEXT
  5
120
330
11A
100
AcDbEntity
  8
1
 62
     3
100
AcDbMText
 10
208.928282859222
 20
108.869471934025
 30
0.0
 40
3.5
 41
0.0
 71
     7
 72
     1
  1
\C3;%%c\C3;\C3;27\C2;\H2.45;\S^ ;\C3;
  7
CONVERTER_11
 11
0.0
 21
1.0
 31
0.0
 73
     1
 44
0.60024009603842
  0
ENDBLK
  5
122
330
11A
100
AcDbEntity
  8
0
100
AcDbBlockEnd
  0
BLOCK
  5
12C
330
125
100
AcDbEntity
  8
0
100
AcDbBlockBegin
  2
*D4
 70
     1
 10
0.0
 20
0.0
 30
0.0
  3
*D4
  1

  0
LINE
  5
126
330
125
100
AcDbEntity
  8
1
  6
Continuous
 62
     2
100
AcDbLine
 10
219.572311224592
 20
134.1570663812
 30
0.0
 11
219.572311224592
 21
100.1570663812
 31
0.0
  0
LINE
  5
127
330
125
100
AcDbEntity
  8
1
  6
Continuous
 62
     2
100
AcDbLine
 10
149.0628324063
 20
134.1570663812
 30
0.0
 11
221.572311224592
 21
134.1570663812
 31
0.0
  0
LINE
  5
128
330
125
100
AcDbEntity
  8
1
  6
Continuous
 62
     2
100
AcDbLine
 10
149.0628324063
 20
100.1570663812
 30
0.0
 11
221.572311224592
 21
100.1570663812
 31
0.0
  0
SOLID
  5
129
330
125
100
AcDbEntity
  8
1
 62
     2
100
AcDbTrace
 10
220.0330949661479
 20
130.6570663812
 30
0.0
 11
219.1115274830361
 21
130.6570663812
 31
0.0
 12
219.572311224592
 22
134.1570663812
 32
0.0
 13
219.572311224592
 23
134.1570663812
 33
0.0
  0
SOLID
  5
12A
330
125
100
AcDbEntity
  8
1
 62
     2
100
AcDbTrace
 10
219.1115274830361
 20
103.6570663812
 30
0.0
 11
220.0330949661479
 21
103.6570663812
 31
0.0
 12
219.572311224592
 22
100.1570663812
 32
0.0
 13
219.572311224592
 23
100.1570663812
 33
0.0
  0
MTEXT
  5
12B
330
125
100
AcDbEntity
  8
1
 62
     3
100
AcDbMText
 10
217.572311224592
 20
108.967699529086
 30
0.0
 40
3.5
 41
0.0
 71
     7
 72
     1
  1
\C3;%%c\C3;\C3;34\C2;\H2.45;\S^ ;\C3;
  7
CONVERTER_11
 11
0.0
 21
1.0
 31
0.0
 73
     1
 44
0.60024009603842
  0
ENDBLK
  5
12D
330
125
100
AcDbEntity
  8
0
100
AcDbBlockEnd
  0
BLOCK
  5
137
330
130
100
AcDbEntity
  8
0
100
AcDbBlockBegin
  2
*D5
 70
     1
 10
0.0
 20
0.0
 30
0.0
  3
*D5
  1

  0
LINE
  5
131
330
130
100
AcDbEntity
  8
1
  6
Continuous
 62
     2
100
AcDbLine
 10
191.5345489829
 20
165.76428528472
 30
0.0
 11
122.4845489829
 21
165.76428528472
 31
0.0
  0
LINE
  5
132
330
130
100
AcDbEntity
  8
1
  6
Continuous
 62
     2
100
AcDbLine
 10
191.5345489829
 20
131.7326758895
 30
0.0
 11
191.5345489829
 21
167.76428528472
 31
0.0
  0
LINE
  5
133
330
130
100
AcDbEntity
  8
1
  6
Continuous
 62
     2
100
AcDbLine
 10
122.4845489829
 20
159.1570663812
 30
0.0
 11
122.4845489829
 21
167.76428528472
 31
0.0
  0
SOLID
  5
134
330
130
100
AcDbEntity
  8
1
 62
     2
100
AcDbTrace
 10
188.0345489829
 20
165.3035015431641
 30
0.0
 11
188.0345489829
 21
166.2250690262759
 31
0.0
 12
191.5345489829
 22
165.76428528472
 32
0.0
 13
191.5345489829
 23
165.76428528472
 33
0.0
  0
SOLID
  5
135
330
130
100
AcDbEntity
  8
1
 62
     2
100
AcDbTrace
 10
125.9845489829
 20
166.2250690262759
 30
0.0
 11
125.9845489829
 21
165.3035015431641
 31
0.0
 12
122.4845489829
 22
165.76428528472
 32
0.0
 13
122.4845489829
 23
165.76428528472
 33
0.0
  0
MTEXT
  5
136
330
130
100
AcDbEntity
  8
1
 62
     3
100
AcDbMText
 10
153.467459889897
 20
167.76428528472
 30
0.0
 40
3.5
 41
0.0
 71
     7
 72
     1
  1
\C3;\C3;\C3;69\C2;\H2.45;\S^ ;\C3;
  7
CONVERTER_11
 11
0.9999999999970619
 21
2.424068405545306E-6
 31
0.0
 73
     1
 44
0.60024009603842
  0
ENDBLK
  5
138
330
130
100
AcDbEntity
  8
0
100
AcDbBlockEnd
  0
BLOCK
  5
142
330
13B
100
AcDbEntity
  8
0
100
AcDbBlockBegin
  2
*D6
 70
     1
 10
0.0
 20
0.0
 30
0.0
  3
*D6
  1

  0
LINE
  5
13C
330
13B
100
AcDbEntity
  8
1
  6
Continuous
 62
     2
100
AcDbLine
 10
191.5345489829
 20
173.238246788857
 30
0.0
 11
96.5345489829
 21
173.238246788857
 31
0.0
  0
LINE
  5
13D
330
13B
100
AcDbEntity
  8
1
  6
Continuous
 62
     2
100
AcDbLine
 10
191.5345489829
 20
131.7326758895
 30
0.0
 11
191.5345489829
 21
175.238246788857
 31
0.0
  0
LINE
  5
13E
330
13B
100
AcDbEntity
  8
1
  6
Continuous
 62
     2
100
AcDbLine
 10
96.5345489829
 20
159.1570663812
 30
0.0
 11
96.5345489829
 21
175.238246788857
 31
0.0
  0
SOLID
  5
13F
330
13B
100
AcDbEntity
  8
1
 62
     2
100
AcDbTrace
 10
188.0345489829
 20
172.7774630473011
 30
0.0
 11
188.0345489829
 21
173.6990305304129
 31
0.0
 12
191.5345489829
 22
173.238246788857
 32
0.0
 13
191.5345489829
 23
173.238246788857
 33
0.0
  0
SOLID
  5
140
330
13B
100
AcDbEntity
  8
1
 62
     2
100
AcDbTrace
 10
100.0345489829
 20
173.6990305304129
 30
0.0
 11
100.0345489829
 21
172.7774630473011
 31
0.0
 12
96.5345489829
 22
173.238246788857
 32
0.0
 13
96.5345489829
 23
173.238246788857
 33
0.0
  0
MTEXT
  5
141
330
13B
100
AcDbEntity
  8
1
 62
     3
100
AcDbMText
 10
140.724968145139
 20
175.238246788857
 30
0.0
 40
3.5
 41
0.0
 71
     7
 72
     1
  1
\C3;\C3;\C3;95\C2;\H2.45;\S^ ;\C3;
  7
CONVERTER_11
 11
0.9999999999970619
 21
2.424068405545306E-6
 31
0.0
 73
     1
 44
0.60024009603842
  0
ENDBLK
  5
143
330
13B
100
AcDbEntity
  8
0
100
AcDbBlockEnd
  0
BLOCK
  5
14D
330
146
100
AcDbEntity
  8
0
100
AcDbBlockBegin
  2
*D7
 70
     1
 10
0.0
 20
0.0
 30
0.0
  3
*D7
  1

  0
LINE
  5
147
330
146
100
AcDbEntity
  8
1
  6
Continuous
 62
     2
100
AcDbLine
 10
191.5345489829
 20
180.58968433391
 30
0.0
 11
56.63454898290001
 21
180.58968433391
 31
0.0
  0
LINE
  5
148
330
146
100
AcDbEntity
  8
1
  6
Continuous
 62
     2
100
AcDbLine
 10
191.5345489829
 20
131.7326758895
 30
0.0
 11
191.5345489829
 21
182.58968433391
 31
0.0
  0
LINE
  5
149
330
146
100
AcDbEntity
  8
1
  6
Continuous
 62
     2
100
AcDbLine
 10
56.6345489829
 20
146.0429871812
 30
0.0
 11
56.6345489829
 21
182.58968433391
 31
0.0
  0
SOLID
  5
14A
330
146
100
AcDbEntity
  8
1
 62
     2
100
AcDbTrace
 10
188.0345489829
 20
180.1289005923541
 30
0.0
 11
188.0345489829
 21
181.0504680754659
 31
0.0
 12
191.5345489829
 22
180.58968433391
 32
0.0
 13
191.5345489829
 23
180.58968433391
 33
0.0
  0
SOLID
  5
14B
330
146
100
AcDbEntity
  8
1
 62
     2
100
AcDbTrace
 10
60.13454898290001
 20
181.0504680754659
 30
0.0
 11
60.13454898290001
 21
180.1289005923541
 31
0.0
 12
56.63454898290001
 22
180.58968433391
 32
0.0
 13
56.63454898290001
 23
180.58968433391
 33
0.0
  0
MTEXT
  5
14C
330
146
100
AcDbEntity
  8
1
 62
     3
100
AcDbMText
 10
127.019952441296
 20
182.58968433391
 30
0.0
 40
3.5
 41
0.0
 71
     7
 72
     1
  1
\C3;\C3;\C3;135\C2;\H2.45;\S^ ;\C3;
  7
CONVERTER_11
 11
0.9999999999970619
 21
2.424068405545306E-6
 31
0.0
 73
     1
 44
0.60024009603842
  0
ENDBLK
  5
14E
330
146
100
AcDbEntity
  8
0
100
AcDbBlockEnd
  0
BLOCK
  5
155
330
151
100
AcDbEntity
  8
0
100
AcDbBlockBegin
  2
*D8
 70
     1
 10
0.0
 20
0.0
 30
0.0
  3
*D8
  1

  0
LINE
  5
152
330
151
100
AcDbEntity
  8
1
  6
Continuous
 62
     2
100
AcDbLine
 10
134.3492272448352
 20
144.4294967861163
 30
0.0
 11
123.634969984061
 21
136.6241379168776
 31
0.0
  0
SOLID
  5
153
330
151
100
AcDbEntity
  8
1
 62
     2
100
AcDbTrace
 10
126.1925717339771
 20
139.0574473804083
 30
0.0
 11
126.735210399457
 21
138.3125783283897
 31
0.0
 12
123.634969984061
 22
136.6241379168776
 32
0.0
 13
123.634969984061
 23
136.6241379168776
 33
0.0
  0
MTEXT
  5
154
330
151
100
AcDbEntity
  8
1
 62
     3
100
AcDbMText
 10
127.1742717281634
 20
141.6769682515173
 30
0.0
 40
3.5
 41
0.0
 71
     7
 72
     1
  1
\C3; R\C3;\C3;6\C2;\H2.45;\S^ ;\C3;
  7
CONVERTER_11
 11
0.8082631664731695
 21
0.5888214107204029
 31
0.0
 73
     1
 44
0.60024009603842
  0
ENDBLK
  5
156
330
151
100
AcDbEntity
  8
0
100
AcDbBlockEnd
  0
BLOCK
  5
15F
330
158
100
AcDbEntity
  8
0
100
AcDbBlockBegin
  2
*D9
 70
     1
 10
0.0
 20
0.0
 30
0.0
  3
*D9
  1

  0
LINE
  5
159
330
158
100
AcDbEntity
  8
1
  6
Continuous
 62
     2
100
AcDbLine
 10
174.0415366030987
 20
134.1570663812
 30
0.0
 11
176.0415366030987
 21
134.1570663812
 31
0.0
  0
LINE
  5
15A
330
158
100
AcDbEntity
  8
1
  6
Continuous
 62
     2
100
AcDbLine
 10
149.0628324063
 20
134.1570663812
 30
0.0
 11
174.0415366030987
 21
134.1570663812
 31
0.0
  0
ARC
  5
15B
330
158
100
AcDbEntity
  8
1
  6
Continuous
 62
     2
100
AcDbCircle
 10
147.0628324063
 20
134.1570663812
 30
0.0
 40
26.97870419679871
100
AcDbArc
 50
344.3503598893334
 51
21.22682687412696
  0
SOLID
  5
15C
330
158
100
AcDbEntity
  8
1
 62
     2
100
AcDbTrace
 10
173.9142223640625
 20
128.5104163465242
 30
0.0
 11
173.0021147719133
 21
128.642121951085
 31
0.0
 12
173.9583702617435
 22
132.0403416459623
 32
0.0
 13
173.9583702617435
 23
132.0403416459623
 33
0.0
  0
SOLID
  5
15D
330
158
100
AcDbEntity
  8
1
 62
     2
100
AcDbTrace
 10
173.3548501741602
 20
137.6198374398745
 30
0.0
 11
174.2744795456396
 21
137.6795739031228
 31
0.0
 12
174.0415366030987
 22
134.1570663812
 32
0.0
 13
174.0415366030987
 23
134.1570663812
 33
0.0
  0
MTEXT
  5
15E
330
158
100
AcDbEntity
  8
1
 62
     3
100
AcDbMText
 10
174.2756985404236
 20
144.7269026472842
 30
0.0
 40
3.5
 41
0.0
 71
     7
 72
     1
  1
\C3;\C3;\C3;4.5%%d\C2;\H2.45;\S^ ;\C3;
  7
CONVERTER_11
 11
0.2465237152847466
 21
-0.9691367590810933
 31
0.0
 73
     1
 44
0.60024009603842
  0
ENDBLK
  5
160
330
158
100
AcDbEntity
  8
0
100
AcDbBlockEnd
  0
ENDSEC
  0
SECTION
  2
ENTITIES
  0
INSERT
  5
6E
330
1F
100
AcDbEntity
  8
0
100
AcDbBlockReference
  2
Urheberrecht_DE-EN
 10
44.5595574175657
 20
136.136990391014
 30
0.0
  0
LINE
  5
72
330
1F
100
AcDbEntity
  8
0
  6
Continuous
 62
     7
100
AcDbLine
 10
56.6345489829
 20
90.2711454762
 30
0.0
 11
56.6345489829
 21
107.4870663812
 31
0.0
  0
LINE
  5
73
330
1F
100
AcDbEntity
  8
0
  6
Continuous
 62
     7
100
AcDbLine
 10
56.6345489829
 20
126.8270663812
 30
0.0
 11
56.6345489829
 21
144.0429871812
 31
0.0
  0
LINE
  5
74
330
1F
100
AcDbEntity
  8
0
  6
Continuous
 62
     9
100
AcDbLine
 10
58.1544893951
 20
145.6410253958
 30
0.0
 11
58.1544893951
 21
129.1846813213
 31
0.0
  0
LINE
  5
75
330
1F
100
AcDbEntity
  8
0
  6
Continuous
 62
     9
100
AcDbLine
 10
58.1544893951
 20
105.129451441
 30
0.0
 11
58.1544893951
 21
88.6731073665
 31
0.0
  0
LINE
  5
76
330
1F
100
AcDbEntity
  8
0
  6
Continuous
 62
     7
100
AcDbLine
 10
58.2845489829
 20
107.5130108044
 30
0.0
 11
58.2845489829
 21
109.1370663812
 31
0.0
  0
LINE
  5
77
330
1F
100
AcDbEntity
  8
0
  6
Continuous
 62
     7
100
AcDbLine
 10
58.2845489829
 20
125.1770663812
 30
0.0
 11
58.2845489829
 21
126.801121958
 31
0.0
  0
LINE
  5
78
330
1F
100
AcDbEntity
  8
RUNDUNGEN
  6
Continuous
 62
     9
100
AcDbLine
 10
62.8345489829
 20
104.584245629
 30
0.0
 11
62.8345489829
 21
109.1370663812
 31
0.0
  0
LINE
  5
79
330
1F
100
AcDbEntity
  8
RUNDUNGEN
  6
Continuous
 62
     9
100
AcDbLine
 10
62.8345489829
 20
125.1770663812
 30
0.0
 11
62.8345489829
 21
129.7298871333
 31
0.0
  0
LINE
  5
7A
330
1F
100
AcDbEntity
  8
RUNDUNGEN
  6
Continuous
 62
     7
100
AcDbLine
 10
64.7345489829
 20
126.6624086075
 30
0.0
 11
64.7345489829
 21
107.6517241548
 31
0.0
  0
LINE
  5
7B
330
1F
100
AcDbEntity
  8
0
  6
Continuous
 62
     7
100
AcDbLine
 10
56.6345489829
 20
107.4870663812
 30
0.0
 11
58.2845489829
 21
109.1370663812
 31
0.0
  0
LWPOLYLINE
  5
7C
330
1F
100
AcDbEntity
  8
BEZUGSACHSEN
  6
DOT_CENTER
 62
     7
100
AcDbPolyline
 90
        2
 70
     0
 43
0.25
 10
84.5345489829
 20
109.9070663812
 10
84.5345489829
 20
124.4070663812
  0
LINE
  5
7D
330
1F
100
AcDbEntity
  8
0
  6
Continuous
 62
     7
100
AcDbLine
 10
110.9982785841
 20
77.1570663812
 30
0.0
 11
96.5345489829
 21
77.1570663812
 31
0.0
  0
LINE
  5
7E
330
1F
100
AcDbEntity
  8
0
  6
Continuous
 62
     7
100
AcDbLine
 10
118.0708193817
 20
77.1570663812
 30
0.0
 11
122.4845489829
 21
77.1570663812
 31
0.0
  0
LINE
  5
7F
330
1F
100
AcDbEntity
  8
0
  6
Continuous
 62
     7
100
AcDbLine
 10
58.2845489829
 20
125.1770663812
 30
0.0
 11
56.6345489829
 21
126.8270663812
 31
0.0
  0
LINE
  5
80
330
1F
100
AcDbEntity
  8
0
  6
Continuous
 62
     7
100
AcDbLine
 10
113.3720489829
 20
82.1820663812
 30
0.0
 11
115.6970489829
 21
82.1820663812
 31
0.0
  0
LINE
  5
81
330
1F
100
AcDbEntity
  8
0
  6
Continuous
 62
     7
100
AcDbLine
 10
94.0345489829
 20
147.4386163812
 30
0.0
 11
94.0345489829
 21
86.8755163812
 31
0.0
  0
LINE
  5
82
330
1F
100
AcDbEntity
  8
0
  6
Continuous
 62
     9
100
AcDbLine
 10
94.6537925969
 20
87.0414422074
 30
0.0
 11
94.6537925969
 21
147.2726905549
 31
0.0
  0
LINE
  5
83
330
1F
100
AcDbEntity
  8
0
  6
Continuous
 62
     9
100
AcDbLine
 10
94.912611642
 20
87.0755163812
 30
0.0
 11
94.912611642
 21
147.2386163812
 31
0.0
  0
LINE
  5
84
330
1F
100
AcDbEntity
  8
0
  6
Continuous
 62
     9
100
AcDbLine
 10
95.8339776942
 20
87.0755163812
 30
0.0
 11
95.8339776942
 21
147.2386163812
 31
0.0
  0
LINE
  5
85
330
1F
100
AcDbEntity
  8
0
  6
Continuous
 62
     7
100
AcDbLine
 10
96.5345489829
 20
157.1570663812
 30
0.0
 11
96.5345489829
 21
77.1570663812
 31
0.0
  0
LINE
  5
86
330
1F
100
AcDbEntity
  8
0
  6
Continuous
 62
     7
100
AcDbLine
 10
116.4470489829
 20
154.3446135506
 30
0.0
 11
118.0708193817
 21
157.1570663812
 31
0.0
  0
LINE
  5
87
330
1F
100
AcDbEntity
  8
0
  6
Continuous
 62
     9
100
AcDbLine
 10
56.6345489829
 20
106.5536529955
 30
0.0
 11
58.2845489829
 21
107.5130108044
 31
0.0
  0
LINE
  5
88
330
1F
100
AcDbEntity
  8
0
  6
Continuous
 62
     7
100
AcDbLine
 10
100.866291396
 20
85.8125692565
 30
0.0
 11
110.9982785841
 21
85.8125692565
 31
0.0
  0
LINE
  5
89
330
1F
100
AcDbEntity
  8
0
  6
Continuous
 62
     7
100
AcDbLine
 10
118.0708193817
 20
85.8125692565
 30
0.0
 11
122.4845489829
 21
85.8125692565
 31
0.0
  0
LINE
  5
8A
330
1F
100
AcDbEntity
  8
0
  6
Continuous
 62
     7
100
AcDbLine
 10
95.8339776942
 20
87.0755163812
 30
0.0
 11
94.912611642
 21
87.0755163812
 31
0.0
  0
LINE
  5
8B
330
1F
100
AcDbEntity
  8
0
  6
Continuous
 62
     7
100
AcDbLine
 10
94.0345489829
 20
86.8755163812
 30
0.0
 11
58.1544893951
 21
88.6731073665
 31
0.0
  0
LWPOLYLINE
  5
8C
330
1F
100
AcDbEntity
  8
BEZUGSACHSEN
  6
DOT_CENTER
 62
     7
100
AcDbPolyline
 90
        2
 70
     0
 43
0.25
 10
103.5345489829
 20
163.2433360471
 10
103.5345489829
 20
149.2433360471
  0
LINE
  5
8D
330
1F
100
AcDbEntity
  8
0
  6
Continuous
 62
     7
100
AcDbLine
 10
109.0932261436
 20
91.9070663812
 30
0.0
 11
112.6837158136
 21
91.9070663812
 31
0.0
  0
LINE
  5
8E
330
1F
100
AcDbEntity
  8
0
  6
Continuous
 62
     7
100
AcDbLine
 10
116.3853821522
 20
91.9070663812
 30
0.0
 11
122.4845489829
 21
91.9070663812
 31
0.0
  0
LINE
  5
8F
330
1F
100
AcDbEntity
  8
0
  6
Continuous
 62
     7
100
AcDbLine
 10
109.0932261436
 20
92.3070663812
 30
0.0
 11
112.6837158136
 21
92.3070663812
 31
0.0
  0
LINE
  5
90
330
1F
100
AcDbEntity
  8
0
  6
Continuous
 62
     7
100
AcDbLine
 10
116.3853821522
 20
92.3070663812
 30
0.0
 11
122.4845489829
 21
92.3070663812
 31
0.0
  0
LINE
  5
91
330
1F
100
AcDbEntity
  8
0
  6
Continuous
 62
     9
100
AcDbLine
 10
58.2845489829
 20
126.801121958
 30
0.0
 11
56.6345489829
 21
127.7604797668
 31
0.0
  0
LINE
  5
92
330
1F
100
AcDbEntity
  8
0
  6
Continuous
 62
     7
100
AcDbLine
 10
116.4470489829
 20
79.9695192117
 30
0.0
 11
118.0708193817
 21
77.1570663812
 31
0.0
  0
LINE
  5
93
330
1F
100
AcDbEntity
  8
0
  6
Continuous
 62
     7
100
AcDbLine
 10
94.6537925969
 20
87.0414422074
 30
0.0
 11
94.0345489829
 21
86.8755163812
 31
0.0
  0
LINE
  5
94
330
1F
100
AcDbEntity
  8
RUNDUNGEN
  6
Continuous
 62
     7
100
AcDbLine
 10
190.6130080786
 20
103.5845395391
 30
0.0
 11
147.0628324063
 21
100.1570663812
 31
0.0
  0
LINE
  5
95
330
1F
100
AcDbEntity
  8
0
  6
Continuous
 62
     7
100
AcDbLine
 10
147.0628324063
 20
100.1570663812
 30
0.0
 11
190.6130080786
 21
103.5845395391
 31
0.0
  0
LINE
  5
96
330
1F
100
AcDbEntity
  8
RUNDUNGEN
  6
Continuous
 62
     7
100
AcDbLine
 10
147.0628324063
 20
100.1570663812
 30
0.0
 11
128.4845489829
 21
100.1570663812
 31
0.0
  0
LINE
  5
97
330
1F
100
AcDbEntity
  8
0
  6
Continuous
 62
     7
100
AcDbLine
 10
128.4845489829
 20
100.1570663812
 30
0.0
 11
147.0628324063
 21
100.1570663812
 31
0.0
  0
LINE
  5
98
330
1F
100
AcDbEntity
  8
FASEN
  6
Continuous
 62
     9
100
AcDbLine
 10
109.0932261436
 20
91.9070663812
 30
0.0
 11
109.0932261436
 21
92.3070663812
 31
0.0
  0
LINE
  5
99
330
1F
100
AcDbEntity
  8
FASEN
  6
Continuous
 62
     9
100
AcDbLine
 10
109.5020489829
 20
108.5395663812
 30
0.0
 11
109.5020489829
 21
108.1395663812
 31
0.0
  0
LINE
  5
9A
330
1F
100
AcDbEntity
  8
FASEN
  6
Continuous
 62
     9
100
AcDbLine
 10
109.5020489829
 20
125.7745663812
 30
0.0
 11
109.5020489829
 21
126.1745663812
 31
0.0
  0
LINE
  5
9B
330
1F
100
AcDbEntity
  8
0
  6
Continuous
 62
     7
100
AcDbLine
 10
110.9982785841
 20
157.1570663812
 30
0.0
 11
110.9982785841
 21
126.1745663812
 31
0.0
  0
LINE
  5
9C
330
1F
100
AcDbEntity
  8
0
  6
Continuous
 62
     7
100
AcDbLine
 10
110.9982785841
 20
108.1395663812
 30
0.0
 11
110.9982785841
 21
92.3070663812
 31
0.0
  0
LINE
  5
9D
330
1F
100
AcDbEntity
  8
0
  6
Continuous
 62
     7
100
AcDbLine
 10
110.9982785841
 20
85.8125692565
 30
0.0
 11
110.9982785841
 21
77.1570663812
 31
0.0
  0
LINE
  5
9E
330
1F
100
AcDbEntity
  8
0
  6
Continuous
 62
     7
100
AcDbLine
 10
112.6220489829
 20
154.3445991688
 30
0.0
 11
112.6220489829
 21
126.1745663812
 31
0.0
  0
LINE
  5
9F
330
1F
100
AcDbEntity
  8
0
  6
Continuous
 62
     7
100
AcDbLine
 10
112.6220489829
 20
108.1395663812
 30
0.0
 11
112.6220489829
 21
92.3070663812
 31
0.0
  0
LINE
  5
A0
330
1F
100
AcDbEntity
  8
0
  6
Continuous
 62
     7
100
AcDbLine
 10
112.6220489829
 20
79.9695560573
 30
0.0
 11
112.6220489829
 21
91.4908799679
 31
0.0
  0
LINE
  5
A1
330
1F
100
AcDbEntity
  8
0
  6
Continuous
 62
     9
100
AcDbLine
 10
113.3720489829
 20
82.1820663812
 30
0.0
 11
113.3720489829
 21
108.5523801579
 31
0.0
  0
LINE
  5
A2
330
1F
100
AcDbEntity
  8
0
  6
Continuous
 62
     9
100
AcDbLine
 10
113.3720489829
 20
125.7617526044
 30
0.0
 11
113.3720489829
 21
152.1320663812
 31
0.0
  0
LINE
  5
A3
330
1F
100
AcDbEntity
  8
RUNDUNGEN
  6
Continuous
 62
     9
100
AcDbLine
 10
63.9740526644
 20
105.2570663812
 30
0.0
 11
57.8162189704
 21
105.2570663812
 31
0.0
  0
LINE
  5
A4
330
1F
100
AcDbEntity
  8
0
  6
Continuous
 62
     9
100
AcDbLine
 10
115.6970489829
 20
82.1820663812
 30
0.0
 11
115.6970489829
 21
108.5523801579
 31
0.0
  0
LINE
  5
A5
330
1F
100
AcDbEntity
  8
0
  6
Continuous
 62
     9
100
AcDbLine
 10
115.6970489829
 20
125.7617526044
 30
0.0
 11
115.6970489829
 21
152.1320663812
 31
0.0
  0
LINE
  5
A6
330
1F
100
AcDbEntity
  8
0
  6
Continuous
 62
     7
100
AcDbLine
 10
116.4470489829
 20
108.1395663812
 30
0.0
 11
116.4470489829
 21
92.3070663812
 31
0.0
  0
LINE
  5
A7
330
1F
100
AcDbEntity
  8
0
  6
Continuous
 62
     7
100
AcDbLine
 10
116.4470489829
 20
79.9695560573
 30
0.0
 11
116.4470489829
 21
91.4908799679
 31
0.0
  0
LINE
  5
A8
330
1F
100
AcDbEntity
  8
0
  6
Continuous
 62
     7
100
AcDbLine
 10
116.4470489829
 20
126.1745663812
 30
0.0
 11
116.4470489829
 21
154.3445991688
 31
0.0
  0
LINE
  5
A9
330
1F
100
AcDbEntity
  8
0
  6
Continuous
 62
     7
100
AcDbLine
 10
118.0708193817
 20
108.1395663812
 30
0.0
 11
118.0708193817
 21
92.3070663812
 31
0.0
  0
LINE
  5
AA
330
1F
100
AcDbEntity
  8
0
  6
Continuous
 62
     7
100
AcDbLine
 10
118.0708193817
 20
77.1570663812
 30
0.0
 11
118.0708193817
 21
85.8125692565
 31
0.0
  0
LINE
  5
AB
330
1F
100
AcDbEntity
  8
0
  6
Continuous
 62
     7
100
AcDbLine
 10
118.0708193817
 20
126.1745663812
 30
0.0
 11
118.0708193817
 21
157.1570663812
 31
0.0
  0
LINE
  5
AC
330
1F
100
AcDbEntity
  8
0
  6
Continuous
 62
     7
100
AcDbLine
 10
109.5020489829
 20
108.1395663812
 30
0.0
 11
112.6683543008
 21
108.1395663812
 31
0.0
  0
LINE
  5
AD
330
1F
100
AcDbEntity
  8
0
  6
Continuous
 62
     7
100
AcDbLine
 10
116.4007436649
 20
108.1395663812
 30
0.0
 11
122.4845489829
 21
108.1395663812
 31
0.0
  0
LINE
  5
AE
330
1F
100
AcDbEntity
  8
0
  6
Continuous
 62
     7
100
AcDbLine
 10
122.4845489829
 20
108.5395663812
 30
0.0
 11
115.7657665103
 21
108.5395663812
 31
0.0
  0
LINE
  5
AF
330
1F
100
AcDbEntity
  8
0
  6
Continuous
 62
     7
100
AcDbLine
 10
113.3033314555
 20
108.5395663812
 30
0.0
 11
109.5020489829
 21
108.5395663812
 31
0.0
  0
LINE
  5
B0
330
1F
100
AcDbEntity
  8
0
  6
Continuous
 62
     7
100
AcDbLine
 10
113.3720489829
 20
108.5523801579
 30
0.0
 11
115.6970489829
 21
108.5523801579
 31
0.0
  0
LINE
  5
B1
330
1F
100
AcDbEntity
  8
0
  6
Continuous
 62
     7
100
AcDbLine
 10
62.8345489829
 20
109.1370663812
 30
0.0
 11
58.2845489829
 21
109.1370663812
 31
0.0
  0
LINE
  5
B2
330
1F
100
AcDbEntity
  8
DEFAULT_2
  6
HIDDEN
 62
     8
100
AcDbLine
 10
191.5345489829
 20
110.1570663812
 30
0.0
 11
144.5345489829
 21
110.1570663812
 31
0.0
  0
LINE
  5
B3
330
1F
100
AcDbEntity
  8
0
  6
Continuous
 62
     7
100
AcDbLine
 10
122.4845489829
 20
157.1570242158
 30
0.0
 11
122.4845489829
 21
126.1745663812
 31
0.0
  0
LINE
  5
B4
330
1F
100
AcDbEntity
  8
0
  6
Continuous
 62
     7
100
AcDbLine
 10
122.4845489829
 20
108.1395663812
 30
0.0
 11
122.4845489829
 21
92.3070663812
 31
0.0
  0
LINE
  5
B5
330
1F
100
AcDbEntity
  8
0
  6
Continuous
 62
     7
100
AcDbLine
 10
122.4845489829
 20
85.8125692565
 30
0.0
 11
122.4845489829
 21
77.1570950114
 31
0.0
  0
LINE
  5
B6
330
1F
100
AcDbEntity
  8
FASEN
  6
Continuous
 62
     7
100
AcDbLine
 10
122.4845489829
 20
85.8125692565
 30
0.0
 11
122.4845489829
 21
92.3070663812
 31
0.0
  0
LINE
  5
B7
330
1F
100
AcDbEntity
  8
FASEN
  6
Continuous
 62
     7
100
AcDbLine
 10
122.4845489829
 20
108.1395663812
 30
0.0
 11
122.4845489829
 21
126.1745663812
 31
0.0
  0
LINE
  5
B8
330
1F
100
AcDbEntity
  8
RUNDUNGEN
  6
Continuous
 62
     9
100
AcDbLine
 10
128.4845489829
 20
134.1570663812
 30
0.0
 11
128.4845489829
 21
100.1570663812
 31
0.0
  0
LWPOLYLINE
  5
B9
330
1F
100
AcDbEntity
  8
TEIL_STARTBEZUEGE
  6
DOT_CENTER
 62
     7
100
AcDbPolyline
 90
        2
 70
     0
 43
0.25
 10
194.5345489829
 20
117.1570663812
 10
53.6345489829
 20
117.1570663812
  0
LINE
  5
BA
330
1F
100
AcDbEntity
  8
0
  6
Continuous
 62
     7
100
AcDbLine
 10
110.9982785841
 20
77.1570663812
 30
0.0
 11
112.6220489829
 21
79.9695192117
 31
0.0
  0
LINE
  5
BB
330
1F
100
AcDbEntity
  8
DEFAULT_2
  6
HIDDEN
 62
     8
100
AcDbLine
 10
191.5345489829
 20
124.1570663812
 30
0.0
 11
144.5345489829
 21
124.1570663812
 31
0.0
  0
LINE
  5
BC
330
1F
100
AcDbEntity
  8
0
  6
Continuous
 62
     7
100
AcDbLine
 10
62.8345489829
 20
125.1770663812
 30
0.0
 11
58.2845489829
 21
125.1770663812
 31
0.0
  0
LINE
  5
BD
330
1F
100
AcDbEntity
  8
0
  6
Continuous
 62
     7
100
AcDbLine
 10
115.6970489829
 20
125.7617526044
 30
0.0
 11
113.3720489829
 21
125.7617526044
 31
0.0
  0
LINE
  5
BE
330
1F
100
AcDbEntity
  8
0
  6
Continuous
 62
     7
100
AcDbLine
 10
109.5020489829
 20
125.7745663812
 30
0.0
 11
113.3033314555
 21
125.7745663812
 31
0.0
  0
LINE
  5
BF
330
1F
100
AcDbEntity
  8
0
  6
Continuous
 62
     7
100
AcDbLine
 10
115.7657665103
 20
125.7745663812
 30
0.0
 11
122.4845489829
 21
125.7745663812
 31
0.0
  0
LINE
  5
C0
330
1F
100
AcDbEntity
  8
0
  6
Continuous
 62
     7
100
AcDbLine
 10
109.5020489829
 20
126.1745663812
 30
0.0
 11
112.6683543008
 21
126.1745663812
 31
0.0
  0
LINE
  5
C1
330
1F
100
AcDbEntity
  8
0
  6
Continuous
 62
     7
100
AcDbLine
 10
116.4007436649
 20
126.1745663812
 30
0.0
 11
122.4845489829
 21
126.1745663812
 31
0.0
  0
LINE
  5
C2
330
1F
100
AcDbEntity
  8
0
  6
Continuous
 62
     7
100
AcDbLine
 10
110.9982785841
 20
157.1570663812
 30
0.0
 11
112.6220489829
 21
154.3446135506
 31
0.0
  0
LINE
  5
C3
330
1F
100
AcDbEntity
  8
RUNDUNGEN
  6
Continuous
 62
     9
100
AcDbLine
 10
57.8162189704
 20
129.0570663812
 30
0.0
 11
63.9740526644
 21
129.0570663812
 31
0.0
  0
LINE
  5
C4
330
1F
100
AcDbEntity
  8
DEFAULT_2
  6
HIDDEN
 62
     8
100
AcDbLine
 10
144.5345489829
 20
124.1570663812
 30
0.0
 11
144.5345489829
 21
110.1570663812
 31
0.0
  0
LINE
  5
C5
330
1F
100
AcDbEntity
  8
RUNDUNGEN
  6
Continuous
 62
     7
100
AcDbLine
 10
147.0628324063
 20
134.1570663812
 30
0.0
 11
128.4845489829
 21
134.1570663812
 31
0.0
  0
LINE
  5
C6
330
1F
100
AcDbEntity
  8
0
  6
Continuous
 62
     7
100
AcDbLine
 10
128.4845489829
 20
134.1570663812
 30
0.0
 11
147.0628324063
 21
134.1570663812
 31
0.0
  0
LINE
  5
C7
330
1F
100
AcDbEntity
  8
RUNDUNGEN
  6
Continuous
 62
     7
100
AcDbLine
 10
190.6130080786
 20
130.7295932232
 30
0.0
 11
147.0628324063
 21
134.1570663812
 31
0.0
  0
LINE
  5
C8
330
1F
100
AcDbEntity
  8
0
  6
Continuous
 62
     7
100
AcDbLine
 10
147.0628324063
 20
134.1570663812
 30
0.0
 11
190.6130080786
 21
130.7295932232
 31
0.0
  0
LINE
  5
C9
330
1F
100
AcDbEntity
  8
0
  6
Continuous
 62
     7
100
AcDbLine
 10
147.0628324063
 20
134.1570663812
 30
0.0
 11
147.0628324063
 21
100.1570663812
 31
0.0
  0
LINE
  5
CA
330
1F
100
AcDbEntity
  8
0
  6
Continuous
 62
     7
100
AcDbLine
 10
94.6537925969
 20
147.2726905549
 30
0.0
 11
94.0345489829
 21
147.4386163812
 31
0.0
  0
LINE
  5
CB
330
1F
100
AcDbEntity
  8
0
  6
Continuous
 62
     7
100
AcDbLine
 10
95.8339776942
 20
147.2386163812
 30
0.0
 11
94.912611642
 21
147.2386163812
 31
0.0
  0
LINE
  5
CC
330
1F
100
AcDbEntity
  8
0
  6
Continuous
 62
     7
100
AcDbLine
 10
94.0345489829
 20
147.4386163812
 30
0.0
 11
58.1544893951
 21
145.6410253958
 31
0.0
  0
LINE
  5
CD
330
1F
100
AcDbEntity
  8
0
  6
Continuous
 62
     7
100
AcDbLine
 10
113.3720489829
 20
152.1320663812
 30
0.0
 11
115.6970489829
 21
152.1320663812
 31
0.0
  0
LINE
  5
CE
330
1F
100
AcDbEntity
  8
BEZUGSACHSEN
  6
Continuous
 62
     7
100
AcDbLine
 10
110.9982785841
 20
157.1570663812
 30
0.0
 11
108.5345489829
 21
157.1570663812
 31
0.0
  0
LINE
  5
CF
330
1F
100
AcDbEntity
  8
BEZUGSACHSEN
  6
Continuous
 62
     7
100
AcDbLine
 10
98.5345489829
 20
157.1570663812
 30
0.0
 11
96.5345489829
 21
157.1570663812
 31
0.0
  0
LINE
  5
D0
330
1F
100
AcDbEntity
  8
0
  6
Continuous
 62
     7
100
AcDbLine
 10
96.5345489829
 20
157.1570663812
 30
0.0
 11
98.5345489829
 21
157.1570663812
 31
0.0
  0
LINE
  5
D1
330
1F
100
AcDbEntity
  8
0
  6
Continuous
 62
     7
100
AcDbLine
 10
108.5345489829
 20
157.1570663812
 30
0.0
 11
110.9982785841
 21
157.1570663812
 31
0.0
  0
LINE
  5
D2
330
1F
100
AcDbEntity
  8
0
  6
Continuous
 62
     7
100
AcDbLine
 10
118.0708193817
 20
157.1570663812
 30
0.0
 11
122.4845489829
 21
157.1570663812
 31
0.0
  0
LINE
  5
D3
330
1F
100
AcDbEntity
  8
RUNDUNGEN
  6
Continuous
 62
     9
100
AcDbLine
 10
190.6130080786
 20
103.5845395391
 30
0.0
 11
190.6130080786
 21
130.7295932232
 31
0.0
  0
LINE
  5
D4
330
1F
100
AcDbEntity
  8
RUNDUNGEN
  6
Continuous
 62
     7
100
AcDbLine
 10
191.5345489829
 20
129.7326758895
 30
0.0
 11
191.5345489829
 21
104.5814568728
 31
0.0
  0
LWPOLYLINE
  5
D5
330
1F
100
AcDbEntity
  8
1
  6
Continuous
 62
     7
100
AcDbPolyline
 90
        2
 70
     0
 43
0.25
 10
191.5345489829
 20
129.7326758895
 10
191.5345489829
 20
130.6570663811466
  0
LWPOLYLINE
  5
D6
330
1F
100
AcDbEntity
  8
1
  6
Continuous
 62
     7
100
AcDbPolyline
 90
        2
 70
     0
 43
0.25
 10
190.6130080786
 20
130.7295932232
 10
191.5345489828949
 20
130.6570663811466
  0
LWPOLYLINE
  5
D7
330
1F
100
AcDbEntity
  8
1
  6
Continuous
 62
     7
100
AcDbPolyline
 90
        2
 70
     0
 43
0.25
 10
190.6130080786
 20
103.5845395391
 10
191.5345489829
 20
103.6570663811486
  0
LWPOLYLINE
  5
D8
330
1F
100
AcDbEntity
  8
1
  6
Continuous
 62
     7
100
AcDbPolyline
 90
        2
 70
     0
 43
0.25
 10
191.5345489829
 20
104.5814568728
 10
191.5345489829
 20
103.6570663811486
  0
ARC
  5
D9
330
1F
100
AcDbEntity
  8
0
  6
Continuous
 62
     7
100
AcDbCircle
 10
71.7432951817
 20
92.1070663812
 30
0.0
 40
40.94090914375135
100
AcDbArc
 50
359.7201038833813
 51
0.27989611661873
  0
ARC
  5
DA
330
1F
100
AcDbEntity
  8
FASEN
  6
Continuous
 62
     7
100
AcDbCircle
 10
113.2387204199
 20
98.3593620813
 30
0.0
 40
17.62098209919973
100
AcDbArc
 50
223.9318240225009
 51
225.4009012365698
  0
ARC
  5
DB
330
1F
100
AcDbEntity
  8
FASEN
  6
Continuous
 62
     7
100
AcDbCircle
 10
109.0932261436
 20
83.3070663812
 30
0.0
 40
9.0
100
AcDbArc
 50
90.0
 51
161.694032239301
  0
ARC
  5
DC
330
1F
100
AcDbEntity
  8
FASEN
  6
Continuous
 62
     7
100
AcDbCircle
 10
109.0932261436
 20
83.3070663812
 30
0.0
 40
8.599979606199994
100
AcDbArc
 50
90.0
 51
163.0619502147009
  0
ARC
  5
DD
330
1F
100
AcDbEntity
  8
RUNDUNGEN
  6
Continuous
 62
     7
100
AcDbCircle
 10
62.8345489829
 20
111.0370663812
 30
0.0
 40
1.900000000000006
100
AcDbArc
 50
270.0
 51
354.9999999998955
  0
ARC
  5
DE
330
1F
100
AcDbEntity
  8
0
  6
Continuous
 62
     7
100
AcDbCircle
 10
58.2345489829
 20
90.2711031307
 30
0.0
 40
1.600000000000001
100
AcDbArc
 50
180.0
 51
267.1318795121995
  0
ARC
  5
DF
330
1F
100
AcDbEntity
  8
0
  6
Continuous
 62
     7
100
AcDbCircle
 10
94.912611642
 20
86.0755163812
 30
0.0
 40
1.0
100
AcDbArc
 50
90.0
 51
105.0000000011813
  0
ARC
  5
E0
330
1F
100
AcDbEntity
  8
0
  6
Continuous
 62
     7
100
AcDbCircle
 10
95.8339776942
 20
86.0755163812
 30
0.0
 40
0.9999999999999963
100
AcDbArc
 50
45.52164291269973
 51
90.0
  0
ARC
  5
E1
330
1F
100
AcDbEntity
  8
0
  6
Continuous
 62
     7
100
AcDbCircle
 10
113.3720489829
 20
81.4320663812
 30
0.0
 40
0.75
100
AcDbArc
 50
90.0
 51
180.0
  0
ARC
  5
E2
330
1F
100
AcDbEntity
  8
0
  6
Continuous
 62
     7
100
AcDbCircle
 10
-80.0861795428
 20
172.3524562784
 30
0.0
 40
209.7675432076999
100
AcDbArc
 50
335.6347911335
 51
336.7331595278001
  0
ARC
  5
E3
330
1F
100
AcDbEntity
  8
RUNDUNGEN
  6
Continuous
 62
     7
100
AcDbCircle
 10
62.8345489829
 20
123.2770663812
 30
0.0
 40
1.899999999999991
100
AcDbArc
 50
0.0
 51
90.0
  0
ARC
  5
E4
330
1F
100
AcDbEntity
  8
0
  6
Continuous
 62
     7
100
AcDbCircle
 10
58.2345489829
 20
144.0430296316
 30
0.0
 40
1.599999999999946
100
AcDbArc
 50
92.86812048780048
 51
180.0
  0
ARC
  5
E5
330
1F
100
AcDbEntity
  8
0
  6
Continuous
 62
     7
100
AcDbCircle
 10
109.5020489829
 20
117.1570663812
 30
0.0
 40
9.017499999999998
100
AcDbArc
 50
90.0
 51
270.0
  0
ARC
  5
E6
330
1F
100
AcDbEntity
  8
FASEN
  6
Continuous
 62
     7
100
AcDbCircle
 10
109.5020489829
 20
117.1570663812
 30
0.0
 40
8.617497877200009
100
AcDbArc
 50
90.0
 51
270.0
  0
ARC
  5
E7
330
1F
100
AcDbEntity
  8
0
  6
Continuous
 62
     7
100
AcDbCircle
 10
94.912611642
 20
148.2386163812
 30
0.0
 40
1.000000000009887
100
AcDbArc
 50
255.0000000003015
 51
270.0
  0
ARC
  5
E8
330
1F
100
AcDbEntity
  8
0
  6
Continuous
 62
     7
100
AcDbCircle
 10
95.8339776942
 20
148.2386163812
 30
0.0
 40
1.0
100
AcDbArc
 50
270.0
 51
314.4783570872968
  0
ARC
  5
E9
330
1F
100
AcDbEntity
  8
0
  6
Continuous
 62
     7
100
AcDbCircle
 10
113.3720489829
 20
152.8820663812
 30
0.0
 40
0.75
100
AcDbArc
 50
180.0
 51
270.0
  0
ARC
  5
EA
330
1F
100
AcDbEntity
  8
BEZUGSACHSEN
  6
Continuous
 62
     7
100
AcDbCircle
 10
103.5106625252
 20
197.2240205892
 30
0.0
 40
40.38069160689966
100
AcDbArc
 50
270.0338922697995
 51
277.1468635116676
  0
ARC
  5
EB
330
1F
100
AcDbEntity
  8
BEZUGSACHSEN
  6
Continuous
 62
     7
100
AcDbCircle
 10
103.558435437
 20
197.2240205319
 30
0.0
 40
40.38069154952632
100
AcDbArc
 50
262.8531364832856
 51
269.9661077353144
  0
ARC
  5
EC
330
1F
100
AcDbEntity
  8
RUNDUNGEN
  6
Continuous
 62
     7
100
AcDbCircle
 10
191.7344880127
 20
-997.1097128667
 30
0.0
 40
1134.1881142077
100
AcDbArc
 50
96.52573778010002
 51
96.7637593779
  0
ARC
  5
ED
330
1F
100
AcDbEntity
  8
0
  6
Continuous
 62
     7
100
AcDbCircle
 10
157.325802784
 20
92.1070663812
 30
0.0
 40
40.94090914365135
100
AcDbArc
 50
179.7201038833806
 51
180.2798961166194
  0
ARC
  5
EE
330
1F
100
AcDbEntity
  8
RUNDUNGEN
  6
Continuous
 62
     7
100
AcDbCircle
 10
128.4845489829
 20
94.1570663812
 30
0.0
 40
6.0
100
AcDbArc
 50
90.0
 51
180.0
  0
ARC
  5
EF
330
1F
100
AcDbEntity
  8
RUNDUNGEN
  6
Continuous
 62
     7
100
AcDbCircle
 10
190.5345489829
 20
104.5814568728
 30
0.0
 40
0.9999999999647865
100
AcDbArc
 50
274.4999999985583
 51
0.0
  0
ARC
  5
F0
330
1F
100
AcDbEntity
  8
0
  6
Continuous
 62
     7
100
AcDbCircle
 10
115.6970489829
 20
81.4320663812
 30
0.0
 40
0.75
100
AcDbArc
 50
0.0
 51
90.0
  0
ARC
  5
F1
330
1F
100
AcDbEntity
  8
RUNDUNGEN
  6
Continuous
 62
     7
100
AcDbCircle
 10
191.7344880128
 20
1231.4238456294
 30
0.0
 40
1134.1881142081
100
AcDbArc
 50
263.2362406221
 51
263.4742622199
  0
ARC
  5
F2
330
1F
100
AcDbEntity
  8
0
  6
Continuous
 62
     7
100
AcDbCircle
 10
309.1552775085
 20
172.3524562783
 30
0.0
 40
209.7675432076002
100
AcDbArc
 50
203.2668404721999
 51
204.365208866521
  0
ARC
  5
F3
330
1F
100
AcDbEntity
  8
RUNDUNGEN
  6
Continuous
 62
     7
100
AcDbCircle
 10
128.4845489829
 20
140.1570663812
 30
0.0
 40
6.000000000000014
100
AcDbArc
 50
180.0
 51
270.0
  0
ARC
  5
F4
330
1F
100
AcDbEntity
  8
RUNDUNGEN
  6
Continuous
 62
     7
100
AcDbCircle
 10
190.5345489829
 20
129.7326758895
 30
0.0
 40
1.0
100
AcDbArc
 50
0.0
 51
85.50000000144168
  0
ARC
  5
F5
330
1F
100
AcDbEntity
  8
0
  6
Continuous
 62
     7
100
AcDbCircle
 10
115.6970489829
 20
152.8820663812
 30
0.0
 40
0.75
100
AcDbArc
 50
270.0
 51
0.0
  0
CIRCLE
  5
F6
330
1F
100
AcDbEntity
  8
FASEN
  6
Continuous
 62
     7
100
AcDbCircle
 10
84.5345489829
 20
117.1570663812
 30
0.0
 40
4.25
  0
SPLINE
  5
F7
330
1F
100
AcDbEntity
  8
0
  6
Continuous
 62
     7
100
AcDbSpline
210
0.0
220
0.0
230
1.0
 70
     8
 71
     3
 72
    11
 73
     7
 74
     5
 42
0.0000000001
 43
0.0000000001
 44
0.00000001
 40
0.0
 40
0.0
 40
0.0
 40
0.0
 40
0.091082880786461
 40
0.1822704385040802
 40
0.2734873446276381
 40
0.3645237789285851
 40
0.3645237789285851
 40
0.3645237789285851
 40
0.3645237789285851
 10
57.8162189704
 20
129.0570663812
 30
0.0
 10
57.84215089003895
 20
129.0729120625256
 30
0.0
 10
57.89404453155571
 20
129.104621635814
 30
0.0
 10
57.97751032919392
 20
129.1417851024069
 30
0.0
 10
58.06437995446716
 20
129.1704223027664
 30
0.0
 10
58.12447275001948
 20
129.1799314538553
 30
0.0
 10
58.1544893951
 20
129.1846813213
 30
0.0
 11
57.8162189704
 21
129.0570663812
 31
0.0
 11
57.89494705841195
 21
129.1028700855299
 31
0.0
 11
57.97807120144336
 21
129.1403607180639
 31
0.0
 11
58.06498652671651
 21
129.168041942665
 31
0.0
 11
58.1544893951
 21
129.1846813213
 31
0.0
  0
SPLINE
  5
F8
330
1F
100
AcDbEntity
  8
0
  6
Continuous
 62
     7
100
AcDbSpline
210
0.0
220
0.0
230
1.0
 70
     8
 71
     3
 72
     9
 73
     5
 74
     3
 42
0.0000000001
 43
0.0000000001
 44
0.00000001
 40
0.0
 40
0.0
 40
0.0
 40
0.0
 40
0.1121178551177065
 40
0.22418765695563
 40
0.22418765695563
 40
0.22418765695563
 40
0.22418765695563
 10
57.6390281269
 20
128.9200033723
 30
0.0
 10
57.66722174515824
 20
128.9445902865255
 30
0.0
 10
57.72359689799882
 20
128.9937535771202
 30
0.0
 10
57.78534935835613
 20
129.0359651291044
 30
0.0
 10
57.8162189704
 20
129.0570663812
 30
0.0
 11
57.6390281269
 21
128.9200033723
 31
0.0
 11
57.72495388491249
 21
128.9920254352125
 31
0.0
 11
57.8162189704
 21
129.0570663812
 31
0.0
  0
SPLINE
  5
F9
330
1F
100
AcDbEntity
  8
0
  6
Continuous
 62
     7
100
AcDbSpline
210
0.0
220
0.0
230
1.0
 70
     8
 71
     3
 72
    27
 73
    23
 74
    21
 42
0.0000000001
 43
0.0000000001
 44
0.00000001
 40
0.0
 40
0.0
 40
0.0
 40
0.0
 40
0.1005593763172263
 40
0.201254395428366
 40
0.2905289403681385
 40
0.3794999608219357
 40
0.4198989481515609
 40
0.4602916821570283
 40
0.4986937524114307
 40
0.5370892801878497
 40
0.5745784458630185
 40
0.6120681418173549
 40
0.6498944637546654
 40
0.6877262175896315
 40
0.7680465440983113
 40
0.8487068781956261
 40
0.9387083803981842
 40
1.028639130865813
 40
1.127965388963071
 40
1.227310735211012
 40
1.334449143141804
 40
1.441556400138795
 40
1.441556400138795
 40
1.441556400138795
 40
1.441556400138795
 10
56.6345489829
 20
128.5789035767
 30
0.0
 10
56.63521616200137
 20
128.6124356993157
 30
0.0
 10
56.63655142015043
 20
128.6795451754442
 30
0.0
 10
56.64938834264036
 20
128.7757750673264
 30
0.0
 10
56.6714795830954
 20
128.866282648985
 30
0.0
 10
56.69889068391726
 20
128.9342261547775
 30
0.0
 10
56.72693549319976
 20
128.9834513236605
 30
0.0
 10
56.74982312657573
 20
129.0160136550021
 30
0.0
 10
56.77552557503445
 20
129.0455233590426
 30
0.0
 10
56.80355243669143
 20
129.0714457215437
 30
0.0
 10
56.83411340112139
 20
129.0938135558873
 30
0.0
 10
56.86681741148734
 20
129.112530135007
 30
0.0
 10
56.90153065528227
 20
129.1274780631032
 30
0.0
 10
56.95128188944612
 20
129.1428707320422
 30
0.0
 10
57.01734554152679
 20
129.1523132028909
 30
0.0
 10
57.10125587149039
 20
129.1500336736817
 30
0.0
 10
57.18717755894419
 20
129.1355936778455
 30
0.0
 10
57.27668940103933
 20
129.1095185422316
 30
0.0
 10
57.36638979239872
 20
129.0744249033748
 30
0.0
 10
57.45817764370139
 20
129.0299246385137
 30
0.0
 10
57.54939198802496
 20
128.9786941524159
 30
0.0
 10
57.60915231028939
 20
128.9395650692392
 30
0.0
 10
57.6390281269
 20
128.9200033723
 30
0.0
 11
56.6345489829
 21
128.5789035767
 31
0.0
 11
56.6384372490986
 21
128.6793877523262
 31
0.0
 11
56.65176170724846
 21
128.7791972994087
 31
0.0
 11
56.67356809543838
 21
128.8657676511944
 31
0.0
 11
56.70741728521821
 21
128.948048115655
 31
0.0
 11
56.7274783251206
 21
128.9831142368447
 31
0.0
 11
56.75077070444665
 21
129.0161148129877
 31
0.0
 11
56.77602456128301
 21
129.0450451035965
 31
0.0
 11
56.80424727219356
 21
129.0710776820721
 31
0.0
 11
56.8344948563614
 21
129.0932253951602
 31
0.0
 11
56.8670348133588
 21
129.111843356954
 31
0.0
 11
56.90175908266388
 21
129.1268452152567
 31
0.0
 11
56.93789109766595
 21
129.1380576677145
 31
0.0
 11
57.01731417255104
 21
129.1500297195962
 31
0.0
 11
57.09795706288776
 21
129.1483523004982
 31
0.0
 11
57.18678750217001
 21
129.1338808300947
 31
0.0
 11
57.27326226990218
 21
129.1091896489699
 31
0.0
 11
57.36585435359777
 21
129.0732395226209
 31
0.0
 11
57.45539519683314
 21
129.030205405762
 31
0.0
 11
57.5487615127271
 21
128.9776566711404
 31
0.0
 11
57.6390281269
 21
128.9200033723
 31
0.0
  0
SPLINE
  5
FA
330
1F
100
AcDbEntity
  8
RUNDUNGEN
  6
Continuous
 62
     7
100
AcDbSpline
210
0.0
220
0.0
230
1.0
 70
     8
 71
     3
 72
    15
 73
    11
 74
     9
 42
0.0000000001
 43
0.0000000001
 44
0.00000001
 40
0.0
 40
0.0
 40
0.0
 40
0.0
 40
0.3162936729221014
 40
0.6327491899182173
 40
0.9497778541625592
 40
1.266736320425301
 40
1.585306002306339
 40
1.903962908476339
 40
2.225342078606245
 40
2.546438904853573
 40
2.546438904853573
 40
2.546438904853573
 40
2.546438904853573
 10
63.9740526644
 20
129.0570663812
 30
0.0
 10
64.0300996230358
 20
128.967722801971
 30
0.0
 10
64.14222221893392
 20
128.7889899273632
 30
0.0
 10
64.28820079391718
 20
128.5076966382358
 30
0.0
 10
64.41760118783913
 20
128.2183267597674
 30
0.0
 10
64.52747526658159
 20
127.920157124899
 30
0.0
 10
64.61675370007967
 20
127.6145699585992
 30
0.0
 10
64.68283676112495
 20
127.30171305238
 30
0.0
 10
64.72611444912494
 20
126.9836919119583
 30
0.0
 10
64.73173829546417
 20
126.7694716617555
 30
0.0
 10
64.7345489829
 20
126.6624086075
 30
0.0
 11
63.9740526644
 21
129.0570663812
 31
0.0
 11
64.13847780056436
 21
128.7868700412398
 31
0.0
 11
64.28533830288269
 21
128.5065557763583
 31
0.0
 11
64.41431312021429
 21
128.2169479890893
 31
0.0
 11
64.52384627517063
 21
127.9195170604673
 31
0.0
 11
64.61282313348791
 21
127.6136253134427
 31
0.0
 11
64.67885593907198
 21
127.3018852094513
 31
0.0
 11
64.72029568383469
 21
126.9831889299823
 31
0.0
 11
64.7345489829
 21
126.6624086075
 31
0.0
  0
SPLINE
  5
FB
330
1F
100
AcDbEntity
  8
RUNDUNGEN
  6
Continuous
 62
     7
100
AcDbSpline
210
0.0
220
0.0
230
1.0
 70
     8
 71
     3
 72
    19
 73
    15
 74
    13
 42
0.0000000001
 43
0.0000000001
 44
0.00000001
 40
0.0
 40
0.0
 40
0.0
 40
0.0
 40
0.0908658953553994
 40
0.1818155842932919
 40
0.2719578267093966
 40
0.3620796283893529
 40
0.4508848980135997
 40
0.5396930491267311
 40
0.6271215589185524
 40
0.7145608604808542
 40
0.8859439487514855
 40
1.057581272647507
 40
1.226597310343907
 40
1.395465809317465
 40
1.395465809317465
 40
1.395465809317465
 40
1.395465809317465
 10
62.8345489829
 20
129.7298871333
 30
0.0
 10
62.86475004557828
 20
129.7324834001487
 30
0.0
 10
62.92518002137564
 20
129.7376783280391
 30
0.0
 10
63.01599034310358
 20
129.7342164427938
 30
0.0
 10
63.10573650450723
 20
129.7224371182168
 30
0.0
 10
63.19324620382545
 20
129.7021246057074
 30
0.0
 10
63.27806002973824
 20
129.673983970298
 30
0.0
 10
63.35928514055644
 20
129.6389653494429
 30
0.0
 10
63.43698942516617
 20
129.5976983186241
 30
0.0
 10
63.53467010978589
 20
129.536057609325
 30
0.0
 10
63.64792547351193
 20
129.4472541981443
 30
0.0
 10
63.76931312517265
 20
129.3269008314327
 30
0.0
 10
63.87877475473451
 20
129.1966465836495
 30
0.0
 10
63.94230260774741
 20
129.1035795693137
 30
0.0
 10
63.9740526644
 20
129.0570663812
 30
0.0
 11
62.8345489829
 21
129.7298871333
 31
0.0
 11
62.92522227048149
 21
129.7358003268452
 31
0.0
 11
63.01612258104201
 21
129.7328037524843
 31
0.0
 11
63.10548747873381
 21
129.7209910928203
 31
0.0
 11
63.19329087864195
 21
129.700680945046
 31
0.0
 11
63.27760083980441
 21
129.6727845947145
 31
0.0
 11
63.35918143319237
 21
129.6376919389785
 31
0.0
 11
63.43643606593689
 21
129.5967594818824
 31
0.0
 11
63.51042731971015
 21
129.550166286856
 31
0.0
 11
63.6456292657977
 21
129.4448448896031
 31
0.0
 11
63.76801157371841
 21
129.3245039503422
 31
0.0
 11
63.87653932789489
 21
129.1949348661747
 31
0.0
 11
63.9740526644
 21
129.0570663812
 31
0.0
  0
SPLINE
  5
FC
330
1F
100
AcDbEntity
  8
RUNDUNGEN
  6
Continuous
 62
     7
100
AcDbSpline
210
0.0
220
0.0
230
1.0
 70
     8
 71
     3
 72
    15
 73
    11
 74
     9
 42
0.0000000001
 43
0.0000000001
 44
0.00000001
 40
0.0
 40
0.0
 40
0.0
 40
0.0
 40
0.3210967670974826
 40
0.6424758766326564
 40
0.9611327417816267
 40
1.279702385458489
 40
1.596661045151375
 40
1.913689899811494
 40
2.230145323883426
 40
2.546438905876356
 40
2.546438905876356
 40
2.546438905876356
 40
2.546438905876356
 10
64.7345489829
 20
107.6517241548
 30
0.0
 10
64.73173829744464
 20
107.5446611202659
 30
0.0
 10
64.72611445508026
 20
107.3304409099877
 30
0.0
 10
64.68283678245506
 20
107.0124198214368
 30
0.0
 10
64.61675372116262
 20
106.6995629626711
 30
0.0
 10
64.52747528102165
 20
106.3939757596207
 30
0.0
 10
64.41760120127452
 20
106.0958060026261
 30
0.0
 10
64.28820078985757
 20
105.8064360243473
 30
0.0
 10
64.14222218329618
 20
105.5251427488757
 30
0.0
 10
64.03009961127364
 20
105.346409931897
 30
0.0
 10
63.9740526644
 20
105.2570663812
 30
0.0
 11
64.7345489829
 21
107.6517241548
 31
0.0
 11
64.7202956914632
 21
107.3309438911869
 31
0.0
 11
64.67885595911865
 21
107.012247671208
 31
0.0
 11
64.6128231576051
 21
106.7005076082857
 31
0.0
 11
64.52384631881286
 21
106.3946158953692
 31
0.0
 11
64.41431312849333
 21
106.0971847736406
 31
0.0
 11
64.28533824854614
 21
105.8075768058122
 31
0.0
 11
64.13847776924881
 21
105.5272626337746
 31
0.0
 11
63.9740526644
 21
105.2570663812
 31
0.0
  0
SPLINE
  5
FD
330
1F
100
AcDbEntity
  8
RUNDUNGEN
  6
Continuous
 62
     7
100
AcDbSpline
210
0.0
220
0.0
230
1.0
 70
     8
 71
     3
 72
    19
 73
    15
 74
    13
 42
0.0000000001
 43
0.0000000001
 44
0.00000001
 40
0.0
 40
0.0
 40
0.0
 40
0.0
 40
0.1688722592032719
 40
0.3378923302488458
 40
0.5095430668104888
 40
0.6809387932363125
 40
0.7683828001095833
 40
0.8558164160315522
 40
0.9446259266611616
 40
1.033432066322164
 40
1.123538983658456
 40
1.213666714871391
 40
1.304608728460427
 40
1.395466840258692
 40
1.395466840258692
 40
1.395466840258692
 40
1.395466840258692
 10
63.9740526644
 20
105.2570663812
 30
0.0
 10
63.94230179353596
 20
105.2105522260035
 30
0.0
 10
63.87877226065533
 20
105.1174832023339
 30
0.0
 10
63.76930563543476
 20
104.9872239535972
 30
0.0
 10
63.64791153266752
 20
104.866862826404
 30
0.0
 10
63.53464610496972
 20
104.7780550622228
 30
0.0
 10
63.43695512741679
 20
104.7164165435851
 30
0.0
 10
63.35924554886195
 20
104.6751517542589
 30
0.0
 10
63.27801854475102
 20
104.6401316151882
 30
0.0
 10
63.19320871969713
 20
104.6119919104294
 30
0.0
 10
63.10570708081016
 20
104.5916863185172
 30
0.0
 10
63.01597254419365
 20
104.5799139816559
 30
0.0
 10
62.92517225130956
 20
104.5764548110948
 30
0.0
 10
62.8647474435725
 20
104.5816494888227
 30
0.0
 10
62.8345489829
 20
104.584245629
 30
0.0
 11
63.9740526644
 21
105.2570663812
 31
0.0
 11
63.87653681740321
 21
105.1191950661525
 31
0.0
 11
63.76800629162648
 21
104.9896230422011
 31
0.0
 11
63.64561445439627
 21
104.869272663965
 31
0.0
 11
63.51039989166864
 21
104.7639468975856
 31
0.0
 11
63.43640202083424
 21
104.7173553806535
 31
0.0
 11
63.3591410943183
 21
104.6764238961082
 31
0.0
 11
63.27755913577243
 21
104.6413309734871
 31
0.0
 11
63.1932481692972
 21
104.6134348917998
 31
0.0
 11
63.10545831633465
 21
104.5931322252591
 31
0.0
 11
63.01610718277091
 21
104.581326173232
 31
0.0
 11
62.92521446232734
 21
104.5783323118466
 31
0.0
 11
62.8345489829
 21
104.584245629
 31
0.0
  0
SPLINE
  5
FE
330
1F
100
AcDbEntity
  8
FASEN
  6
Continuous
 62
     7
100
AcDbSpline
210
0.0
220
0.0
230
1.0
 70
     8
 71
     3
 72
    43
 73
    39
 74
    37
 42
0.0000000001
 43
0.0000000001
 44
0.00000001
 40
0.0
 40
0.0
 40
0.0
 40
0.0
 40
0.474901379513777
 40
0.9503070043369581
 40
1.426516794648101
 40
1.902569884010628
 40
2.378584226291528
 40
2.854695131877124
 40
3.330934150158743
 40
3.806936903865463
 40
4.044851144814137
 40
4.282689037022623
 40
4.520257272244852
 40
4.757901325286888
 40
5.232421588206167
 40
5.707166910004553
 40
6.181844945994157
 40
6.65646672002849
 40
7.131680532863103
 40
7.606912148128764
 40
8.083165911065384
 40
8.559404406868905
 40
9.03679068888093
 40
9.514236751928873
 40
9.99255470989734
 40
10.47064082753654
 40
10.70993136084335
 40
10.94914401727378
 40
11.18825986893398
 40
11.42745308565249
 40
11.90448227696925
 40
12.38174856635747
 40
12.85659710247453
 40
13.33134750738638
 40
13.80459019503114
 40
14.27798080733411
 40
14.74980874348065
 40
15.22115173915432
 40
15.22115173915432
 40
15.22115173915432
 40
15.22115173915432
 10
79.6852342149
 20
117.15706634
 30
0.0
 10
79.68971576911717
 20
117.3154314923711
 30
0.0
 10
79.69868363601879
 20
117.632329947573
 30
0.0
 10
79.77135808848027
 20
118.1034268341457
 30
0.0
 10
79.88655182679003
 20
118.565771959667
 30
0.0
 10
80.04749725541942
 20
119.0147243214565
 30
0.0
 10
80.2516894692742
 20
119.4455968794753
 30
0.0
 10
80.49731547590324
 20
119.8543847671777
 30
0.0
 10
80.78205380207466
 20
120.2369118309673
 30
0.0
 10
81.04944488141243
 20
120.5309212986528
 30
0.0
 10
81.2797408010628
 20
120.7492780186073
 30
0.0
 10
81.46019259234703
 20
120.9042632538131
 30
0.0
 10
81.64795406197639
 20
121.0501598502501
 30
0.0
 10
81.90724616156287
 20
121.2319722157598
 30
0.0
 10
82.24760415400115
 20
121.4350190709881
 30
0.0
 10
82.67760385863576
 20
121.6377272050534
 30
0.0
 10
83.1254100732369
 20
121.7974589685777
 30
0.0
 10
83.58676035114033
 20
121.9129574308298
 30
0.0
 10
84.05735608477528
 20
121.9829696150406
 30
0.0
 10
84.5330709607549
 20
122.006980733764
 30
0.0
 10
85.00920181829265
 20
121.9843678482783
 30
0.0
 10
85.4815753826831
 20
121.9153607283957
 30
0.0
 10
85.94529021114293
 20
121.8002374459375
 30
0.0
 10
86.3961407518335
 20
121.6399477385847
 30
0.0
 10
86.82913409874122
 20
121.4357902640554
 30
0.0
 10
87.17176874334535
 20
121.2308012829298
 30
0.0
 10
87.43253869802588
 20
121.0471111313192
 30
0.0
 10
87.62110597250499
 20
120.8997662490617
 30
0.0
 10
87.80212256750754
 20
120.7432875679733
 30
0.0
 10
88.03248840909515
 20
120.5232678609292
 30
0.0
 10
88.29941167530865
 20
120.2273242528445
 30
0.0
 10
88.58257033462893
 20
119.8432907631076
 30
0.0
 10
88.82606081023566
 20
119.4338151150033
 30
0.0
 10
89.02765699667924
 20
119.0036944993847
 30
0.0
 10
89.1861957104101
 20
118.5563439664877
 30
0.0
 10
89.29937181650314
 20
118.0966734864378
 30
0.0
 10
89.37064789027029
 20
117.628756749845
 30
0.0
 10
89.37946879460789
 20
117.3142425769786
 30
0.0
 10
89.3838769791
 20
117.1570663458
 30
0.0
 11
79.6852342149
 21
117.15706634
 31
0.0
 11
79.7085298882582
 21
117.6313960058094
 31
0.0
 11
79.77838071884051
 21
118.1016420792438
 31
0.0
 11
79.89418469807161
 21
118.5635567929978
 31
0.0
 11
80.05471147345938
 21
119.0117282984232
 31
0.0
 11
80.2585746130404
 21
119.4418788236783
 31
0.0
 11
80.50381152924969
 21
119.8499725008478
 31
0.0
 11
80.7881319584486
 21
120.23202681122
 31
0.0
 11
81.10842681066845
 21
120.58414870656
 31
0.0
 11
81.28106856310339
 21
120.7478496881159
 31
0.0
 11
81.46149197740573
 21
120.9028150214704
 31
0.0
 11
81.64908545166575
 21
121.0485797456037
 31
0.0
 11
81.84366507983198
 21
121.1850109159752
 31
0.0
 11
82.25114943748159
 21
121.4281692557291
 31
0.0
 11
82.68058742712154
 21
121.6305701787098
 31
0.0
 11
83.1276599363164
 21
121.7900863514734
 31
0.0
 11
83.58807742345604
 21
121.9053320278501
 31
0.0
 11
84.05811299492736
 21
121.9752943710102
 31
0.0
 11
84.53274249325403
 21
121.9992093760525
 31
0.0
 11
85.00846150535133
 21
121.9766468354053
 31
0.0
 11
85.47969172658732
 21
121.9077615432226
 31
0.0
 11
85.9430161916932
 21
121.7927480558066
 31
0.0
 11
86.39285949541379
 21
121.6327613525537
 31
0.0
 11
86.82551478339207
 21
121.428806772562
 31
0.0
 11
87.2357516287864
 21
121.1833030728746
 31
0.0
 11
87.431382912175
 21
121.045504813488
 31
0.0
 11
87.61987676800874
 21
120.8982201866275
 31
0.0
 11
87.8007708004073
 21
120.7418432715864
 31
0.0
 11
87.9737409430422
 21
120.5766321197805
 31
0.0
 11
88.29327375732528
 21
120.2224349572218
 31
0.0
 11
88.57647399942971
 21
119.8382725776759
 31
0.0
 11
88.81920067498442
 21
119.430148952745
 31
0.0
 11
89.02070301143922
 21
119.0002829790193
 31
0.0
 11
89.17866757468542
 21
118.5541822749538
 31
0.0
 11
89.29250915630514
 21
118.0946838896347
 31
0.0
 11
89.36100337407944
 21
117.6278540025668
 31
0.0
 11
89.3838769791
 21
117.1570663458
 31
0.0
  0
SPLINE
  5
FF
330
1F
100
AcDbEntity
  8
FASEN
  6
Continuous
 62
     7
100
AcDbSpline
210
0.0
220
0.0
230
1.0
 70
     8
 71
     3
 72
    43
 73
    39
 74
    37
 42
0.0000000001
 43
0.0000000001
 44
0.00000001
 40
0.0
 40
0.0
 40
0.0
 40
0.0
 40
0.470981636436806
 40
0.942450313812298
 40
1.415748649633272
 40
1.888897490191551
 40
2.36365862384857
 40
2.838518572256461
 40
3.315822292150885
 40
3.792888957843261
 40
4.032098331360057
 40
4.271230229322645
 40
4.510442965714335
 40
4.749733683801572
 40
5.227809816891426
 40
5.706117458504425
 40
6.183577089218897
 40
6.660977225238048
 40
7.137232867795218
 40
7.613503641775015
 40
8.088735822404095
 40
8.563950163709116
 40
9.03857466112341
 40
9.513255581212615
 40
9.988020674051286
 40
10.46256050249192
 40
10.70020938112365
 40
10.93778249108892
 40
11.1756146926022
 40
11.41352320110994
 40
11.88952200047309
 40
12.36575696888891
 40
12.84187173893053
 40
13.31789081560161
 40
13.79401470450651
 40
14.27029322440111
 40
14.74597323805074
 40
15.22115173411999
 40
15.22115173411999
 40
15.22115173411999
 40
15.22115173411999
 10
89.3838592493
 20
117.1570664189
 30
0.0
 10
89.37946989060339
 20
117.0000101106985
 30
0.0
 10
89.37068663418525
 20
116.6857350827579
 30
0.0
 10
89.29948259050914
 20
116.2180827641946
 30
0.0
 10
89.18642314857327
 20
115.7585720809047
 30
0.0
 10
89.0279883496195
 20
115.3112470909204
 30
0.0
 10
88.82648392122034
 20
114.8811097426874
 30
0.0
 10
88.58305804283545
 20
114.4715724445473
 30
0.0
 10
88.29994912501499
 20
114.0874663023591
 30
0.0
 10
88.03305582473001
 20
113.7914547422684
 30
0.0
 10
87.80271118498646
 20
113.5713792096919
 30
0.0
 10
87.621712675364
 20
113.4148630867628
 30
0.0
 10
87.4331643015685
 20
113.2674851442926
 30
0.0
 10
87.17242557615108
 20
113.0837563171496
 30
0.0
 10
86.82983036333094
 20
112.8787147777038
 30
0.0
 10
86.39687323874118
 20
112.6744857195873
 30
0.0
 10
85.94604307821176
 20
112.5141212833396
 30
0.0
 10
85.48233192374916
 20
112.398921419607
 30
0.0
 10
85.00995334155671
 20
112.3298376993017
 30
0.0
 10
84.53381434798804
 20
112.3071505657674
 30
0.0
 10
84.05808977383676
 20
112.3310895919475
 30
0.0
 10
83.58748219203781
 20
112.4010309563341
 30
0.0
 10
83.1261127265454
 20
112.5164612981003
 30
0.0
 10
82.67827477757793
 20
112.6761291749797
 30
0.0
 10
82.24823183403868
 20
112.8787786952673
 30
0.0
 10
81.90783155256449
 20
113.0817836608167
 30
0.0
 10
81.64850622633907
 20
113.2635656529462
 30
0.0
 10
81.46072344591711
 20
113.4094369813681
 30
0.0
 10
81.28025100707309
 20
113.5643947890906
 30
0.0
 10
81.04992691137375
 20
113.7827143422944
 30
0.0
 10
80.78249706887858
 20
114.0766824317131
 30
0.0
 10
80.49770570454669
 20
114.4591682691014
 30
0.0
 10
80.25202085170417
 20
114.8679225327632
 30
0.0
 10
80.04775425201935
 20
115.2987890327395
 30
0.0
 10
79.88672591233932
 20
115.7477629092463
 30
0.0
 10
79.77144175083463
 20
116.2102290715246
 30
0.0
 10
79.69872016516547
 20
116.6815285093801
 30
0.0
 10
79.68971561601222
 20
116.9986095297052
 30
0.0
 10
79.6852157161
 20
117.1570664198
 30
0.0
 11
89.3838592493
 21
117.1570664189
 31
0.0
 11
89.36104700046505
 21
116.6866375686327
 31
0.0
 11
89.29264754236237
 21
116.2201568853484
 31
0.0
 11
89.17889818501467
 21
115.7607307232789
 31
0.0
 11
89.0210476606871
 21
115.3146892035846
 31
0.0
 11
88.8196225500958
 21
114.884775190258
 31
0.0
 11
88.57696470834024
 21
114.4765973583802
 31
0.0
 11
88.29380965140025
 21
114.0923551759557
 31
0.0
 11
87.97431240441924
 21
113.7380754662821
 31
0.0
 11
87.80135891844675
 21
113.5728234887803
 31
0.0
 11
87.62047880651224
 21
113.416405939478
 31
0.0
 11
87.43200824965126
 21
113.2690913697691
 31
0.0
 11
87.23639840106895
 21
113.1312623637496
 31
0.0
 11
86.82620999129858
 21
112.88569718397
 31
0.0
 11
86.39359795057362
 21
112.6816750718224
 31
0.0
 11
85.94376781718383
 21
112.5216108657783
 31
0.0
 11
85.48044809757995
 21
112.4065207823771
 31
0.0
 11
85.00921172535456
 21
112.3375590643055
 31
0.0
 11
84.53347921239077
 21
112.3149222302407
 31
0.0
 11
84.05884551696444
 21
112.338765062946
 31
0.0
 11
83.58879887861258
 21
112.4086566071848
 31
0.0
 11
83.1283615618561
 21
112.5238342564222
 31
0.0
 11
82.6812625003145
 21
112.6832845780442
 31
0.0
 11
82.25177635947637
 21
112.885629699572
 31
0.0
 11
81.84424003110779
 21
113.1287391190446
 31
0.0
 11
81.64963743269595
 21
113.2651459304811
 31
0.0
 11
81.46201976891831
 21
113.4108874647711
 31
0.0
 11
81.281578462697
 21
113.5658232291568
 31
0.0
 11
81.10891707209404
 21
113.7294951651002
 31
0.0
 11
80.78857455661358
 21
114.0815683531887
 31
0.0
 11
80.50420252119554
 21
114.4635792046238
 31
0.0
 11
80.25890536166922
 21
114.8716411824901
 31
0.0
 11
80.05497688975278
 21
115.3017659779816
 31
0.0
 11
79.89436130915945
 21
115.7499808738257
 31
0.0
 11
79.77848736325652
 21
116.2119488999638
 31
0.0
 11
79.70856692993712
 21
116.6824620330325
 31
0.0
 11
79.6852157161
 21
117.1570664198
 31
0.0
  0
SPLINE
  5
100
330
1F
100
AcDbEntity
  8
0
  6
Continuous
 62
     7
100
AcDbSpline
210
0.0
220
0.0
230
1.0
 70
     8
 71
     3
 72
    27
 73
    23
 74
    21
 42
0.0000000001
 43
0.0000000001
 44
0.00000001
 40
0.0
 40
0.0
 40
0.0
 40
0.0
 40
0.1071078874344643
 40
0.2142469263065239
 40
0.3135924362966497
 40
0.4129188580668587
 40
0.5028493808807941
 40
0.5928506536740703
 40
0.6735107911968082
 40
0.7538309173338058
 40
0.7916625684857983
 40
0.8294887980748712
 40
0.866978489891788
 40
0.9044676327959663
 40
0.9428631026804807
 40
0.9812651394406711
 40
1.021657815459347
 40
1.062056720284626
 40
1.151027619806131
 40
1.240302097195434
 40
1.34099708340313
 40
1.441556404330376
 40
1.441556404330376
 40
1.441556404330376
 40
1.441556404330376
 10
57.6390281269
 20
105.39412939
 30
0.0
 10
57.60915213177628
 20
105.3745675817352
 30
0.0
 10
57.54939145234432
 20
105.3354382758166
 30
0.0
 10
57.45817665511238
 20
105.2842076221777
 30
0.0
 10
57.3663884696938
 20
105.2397073129611
 30
0.0
 10
57.27668799921638
 20
105.2046137819229
 30
0.0
 10
57.18717621107122
 20
105.1785388110209
 30
0.0
 10
57.10125471111935
 20
105.1640990060433
 30
0.0
 10
57.01734458405824
 20
105.1618196778354
 30
0.0
 10
56.95128112058252
 20
105.1712622706542
 30
0.0
 10
56.90153004105916
 20
105.1866549899222
 30
0.0
 10
56.86681687024817
 20
105.2016029113349
 30
0.0
 10
56.83411286486483
 20
105.2203194159758
 30
0.0
 10
56.80355191690889
 20
105.242687236211
 30
0.0
 10
56.77552522396268
 20
105.2686097333048
 30
0.0
 10
56.74982296951745
 20
105.2981195318434
 30
0.0
 10
56.7269353385563
 20
105.3306817848104
 30
0.0
 10
56.69889041709413
 20
105.3799067918355
 30
0.0
 10
56.6714793886471
 20
105.4478502480108
 30
0.0
 10
56.64938835666891
 20
105.5383577993305
 30
0.0
 10
56.63655144350352
 20
105.6345876346724
 30
0.0
 10
56.63521616973237
 20
105.7016970814226
 30
0.0
 10
56.6345489829
 20
105.7352291856
 30
0.0
 11
57.6390281269
 21
105.39412939
 31
0.0
 11
57.54876096820392
 21
105.3364757724933
 31
0.0
 11
57.45539406566387
 21
105.2839267938114
 31
0.0
 11
57.36585302926311
 21
105.2408927008679
 31
0.0
 11
57.27326074424906
 21
105.2049426408185
 31
0.0
 11
57.18678615640672
 21
105.1802516588396
 31
0.0
 11
57.09795591678014
 21
105.1657803896383
 31
0.0
 11
57.01731321924422
 21
105.1641031540208
 31
0.0
 11
56.93789036810752
 21
105.1760753459663
 31
0.0
 11
56.9017584696091
 21
105.1872878273948
 31
0.0
 11
56.86703429108447
 21
105.202289662973
 31
0.0
 11
56.83449431861695
 21
105.2209075893973
 31
0.0
 11
56.80424676677315
 21
105.2430553080868
 31
0.0
 11
56.77602421805666
 21
105.2690879770164
 31
0.0
 11
56.75077050835974
 21
105.2980183516056
 31
0.0
 11
56.72747815192661
 21
105.3310188729309
 31
0.0
 11
56.70741706899917
 21
105.3660848744546
 31
0.0
 11
56.67356792682324
 21
105.448365227733
 31
0.0
 11
56.65176168639051
 21
105.534935547077
 31
0.0
 11
56.63843726657256
 21
105.6347450660814
 31
0.0
 11
56.6345489829
 21
105.7352291856
 31
0.0
  0
SPLINE
  5
101
330
1F
100
AcDbEntity
  8
0
  6
Continuous
 62
     7
100
AcDbSpline
210
0.0
220
0.0
230
1.0
 70
     8
 71
     3
 72
     9
 73
     5
 74
     3
 42
0.0000000001
 43
0.0000000001
 44
0.00000001
 40
0.0
 40
0.0
 40
0.0
 40
0.0
 40
0.1120698018088893
 40
0.2241876568944826
 40
0.2241876568944826
 40
0.2241876568944826
 40
0.2241876568944826
 10
57.8162189704
 20
105.2570663812
 30
0.0
 10
57.78534935835631
 20
105.2781676332787
 30
0.0
 10
57.72359689800027
 20
105.3203791852287
 30
0.0
 10
57.66722174515847
 20
105.369542475791
 30
0.0
 10
57.6390281269
 20
105.39412939
 30
0.0
 11
57.8162189704
 21
105.2570663812
 31
0.0
 11
57.72495388491251
 21
105.3221073271375
 31
0.0
 11
57.6390281269
 21
105.39412939
 31
0.0
  0
SPLINE
  5
102
330
1F
100
AcDbEntity
  8
0
  6
Continuous
 62
     7
100
AcDbSpline
210
0.0
220
0.0
230
1.0
 70
     8
 71
     3
 72
    11
 73
     7
 74
     5
 42
0.0000000001
 43
0.0000000001
 44
0.00000001
 40
0.0
 40
0.0
 40
0.0
 40
0.0
 40
0.0910518968376897
 40
0.1822839482587778
 40
0.2734564444794736
 40
0.3645245917167083
 40
0.3645245917167083
 40
0.3645245917167083
 40
0.3645245917167083
 10
58.1544893951
 20
105.129451441
 30
0.0
 10
58.12446761176939
 20
105.1342018096111
 30
0.0
 10
58.06436464423837
 20
105.1437119458762
 30
0.0
 10
57.97748980134899
 20
105.1723506474389
 30
0.0
 10
57.89403077350788
 20
105.2095172509049
 30
0.0
 10
57.84214633528351
 20
105.2412227225028
 30
0.0
 10
57.8162189704
 20
105.2570663812
 30
0.0
 11
58.1544893951
 21
105.129451441
 31
0.0
 11
58.06497117952044
 21
105.1460928651336
 31
0.0
 11
57.97804169630123
 21
105.1737795434056
 31
0.0
 11
57.89493304228327
 21
105.2112678841856
 31
0.0
 11
57.8162189704
 21
105.2570663812
 31
0.0
  0
SPLINE
  5
103
330
1F
100
AcDbEntity
  8
0
  6
Continuous
 62
     7
100
AcDbSpline
210
0.0
220
0.0
230
1.0
 70
     8
 71
     3
 72
     9
 73
     5
 74
     3
 42
0.0000000001
 43
0.0000000001
 44
0.00000001
 40
0.0
 40
0.0
 40
0.0
 40
0.0
 40
0.035071334678731
 40
0.0701775724802846
 40
0.0701775724802846
 40
0.0701775724802846
 40
0.0701775724802846
 10
113.3720489829
 20
125.7617526044
 30
0.0
 10
113.3603171967726
 20
125.7623607575713
 30
0.0
 10
113.3368419490004
 20
125.7635776691503
 30
0.0
 10
113.3145053230731
 20
125.7709022628772
 30
0.0
 10
113.3033314555
 20
125.7745663812
 30
0.0
 11
113.3720489829
 21
125.7617526044
 31
0.0
 11
113.3371379969
 21
125.7651024659875
 31
0.0
 11
113.3033314555
 21
125.7745663812
 31
0.0
  0
SPLINE
  5
104
330
1F
100
AcDbEntity
  8
0
  6
Continuous
 62
     7
100
AcDbSpline
210
0.0
220
0.0
230
1.0
 70
     8
 71
     3
 72
     9
 73
     5
 74
     3
 42
0.0000000001
 43
0.0000000001
 44
0.00000001
 40
0.0
 40
0.0
 40
0.0
 40
0.0
 40
0.0351062378737642
 40
0.0701775724778487
 40
0.0701775724778487
 40
0.0701775724778487
 40
0.0701775724778487
 10
115.7657665103
 20
125.7745663812
 30
0.0
 10
115.7545926427018
 20
125.7709022628773
 30
0.0
 10
115.7322560167709
 20
125.763577669166
 30
0.0
 10
115.7087807690015
 20
125.7623607575757
 30
0.0
 10
115.6970489829
 20
125.7617526044
 30
0.0
 11
115.7657665103
 21
125.7745663812
 31
0.0
 11
115.731959968825
 21
125.7651024659875
 31
0.0
 11
115.6970489829
 21
125.7617526044
 31
0.0
  0
SPLINE
  5
105
330
1F
100
AcDbEntity
  8
0
  6
Continuous
 62
     7
100
AcDbSpline
210
0.0
220
0.0
230
1.0
 70
     8
 71
     3
 72
     9
 73
     5
 74
     3
 42
0.0000000001
 43
0.0000000001
 44
0.00000001
 40
0.0
 40
0.0
 40
0.0
 40
0.0
 40
0.0350713346028759
 40
0.0701775724530666
 40
0.0701775724530666
 40
0.0701775724530666
 40
0.0701775724530666
 10
115.6970489829
 20
108.5523801579
 30
0.0
 10
115.7087807689998
 20
108.5517720047229
 30
0.0
 10
115.7322560167582
 20
108.5505550931302
 30
0.0
 10
115.7545926426999
 20
108.5432304994873
 30
0.0
 10
115.7657665103
 20
108.5395663812
 30
0.0
 11
115.6970489829
 21
108.5523801579
 31
0.0
 11
115.731959968825
 21
108.549030296325
 31
0.0
 11
115.7657665103
 21
108.5395663812
 31
0.0
  0
SPLINE
  5
106
330
1F
100
AcDbEntity
  8
0
  6
Continuous
 62
     7
100
AcDbSpline
210
0.0
220
0.0
230
1.0
 70
     8
 71
     3
 72
     9
 73
     5
 74
     3
 42
0.0000000001
 43
0.0000000001
 44
0.00000001
 40
0.0
 40
0.0
 40
0.0
 40
0.0
 40
0.0351062377779588
 40
0.070177572455498
 40
0.070177572455498
 40
0.070177572455498
 40
0.070177572455498
 10
113.3033314555
 20
108.5395663812
 30
0.0
 10
113.3145053230749
 20
108.5432304994874
 30
0.0
 10
113.3368419490133
 20
108.5505550931458
 30
0.0
 10
113.3603171967743
 20
108.5517720047272
 30
0.0
 10
113.3720489829
 20
108.5523801579
 30
0.0
 11
113.3033314555
 21
108.5395663812
 31
0.0
 11
113.3371379969
 21
108.549030296325
 31
0.0
 11
113.3720489829
 21
108.5523801579
 31
0.0
  0
SPLINE
  5
107
330
1F
100
AcDbEntity
  8
0
  6
Continuous
 62
     7
100
AcDbSpline
210
0.0
220
0.0
230
1.0
 70
     8
 71
     3
 72
    15
 73
    11
 74
     9
 42
0.0000000001
 43
0.0000000001
 44
0.00000001
 40
0.0
 40
0.0
 40
0.0
 40
0.0
 40
0.085983699612771
 40
0.1721999324441341
 40
0.2661861164632268
 40
0.3601417520158928
 40
0.4630205934027265
 40
0.5659790426259754
 40
0.6760998092206247
 40
0.7860512516298999
 40
0.7860512516298999
 40
0.7860512516298999
 40
0.7860512516298999
 10
116.4007436649
 20
126.1745663812
 30
0.0
 10
116.3877623866869
 20
126.148953290432
 30
0.0
 10
116.3617647238576
 20
126.0976578411808
 30
0.0
 10
116.3073705584502
 20
126.0269730378541
 30
0.0
 10
116.2424500818276
 20
125.9623172950094
 30
0.0
 10
116.1646933219603
 20
125.9039373433103
 30
0.0
 10
116.0774019219972
 20
125.8546608619425
 30
0.0
 10
115.979523410114
 20
125.8152015965975
 30
0.0
 10
115.8752383448077
 20
125.7867176458956
 30
0.0
 10
115.8022383996806
 20
125.7786147246283
 30
0.0
 10
115.7657665103
 20
125.7745663812
 30
0.0
 11
116.4007436649
 21
126.1745663812
 31
0.0
 11
116.3595083396582
 21
126.0991154398453
 31
0.0
 11
116.3076196498732
 21
126.0302619528165
 31
0.0
 11
116.241006003469
 21
125.9639594272296
 31
0.0
 11
116.1660116371989
 21
125.9073599000245
 31
0.0
 11
116.0764681363838
 21
125.8567040270493
 31
0.0
 11
115.9810929491285
 21
125.8179223829059
 31
0.0
 11
115.8746946047041
 21
125.7895326745741
 31
0.0
 11
115.7657665103
 21
125.7745663812
 31
0.0
  0
SPLINE
  5
108
330
1F
100
AcDbEntity
  8
0
  6
Continuous
 62
     7
100
AcDbSpline
210
0.0
220
0.0
230
1.0
 70
     8
 71
     3
 72
    15
 73
    11
 74
     9
 42
0.0000000001
 43
0.0000000001
 44
0.00000001
 40
0.0
 40
0.0
 40
0.0
 40
0.0
 40
0.1099548800866165
 40
0.2200790833804445
 40
0.3230356139727693
 40
0.4259125292516314
 40
0.519867038757886
 40
0.6138521143537992
 40
0.7000679720453395
 40
0.7860512885515345
 40
0.7860512885515345
 40
0.7860512885515345
 40
0.7860512885515345
 10
113.3033314555
 20
125.7745663812
 30
0.0
 10
113.2668584263499
 20
125.7786148736665
 30
0.0
 10
113.1938562020089
 20
125.7867180930087
 30
0.0
 10
113.0895696455837
 20
125.8152029997924
 30
0.0
 10
112.9916915481229
 20
125.8546629110155
 30
0.0
 10
112.9044018925622
 20
125.9039390898252
 30
0.0
 10
112.8266465316565
 20
125.9623185811133
 30
0.0
 10
112.7617268709459
 20
126.0269738881869
 30
0.0
 10
112.7073330908492
 20
126.097658191605
 30
0.0
 10
112.6813355282747
 20
126.148953408028
 30
0.0
 10
112.6683543008
 20
126.1745663812
 30
0.0
 11
113.3033314555
 21
125.7745663812
 31
0.0
 11
113.1943999752717
 21
125.7895332870305
 31
0.0
 11
113.0879984538888
 21
125.8179244194225
 31
0.0
 11
112.9926253177568
 21
125.8567060142317
 31
0.0
 11
112.9030837907446
 21
125.907361464458
 31
0.0
 11
112.8280905849851
 21
125.9639606600926
 31
0.0
 11
112.7614778996649
 21
126.0302625800436
 31
0.0
 11
112.7095894593282
 21
126.0991157853206
 31
0.0
 11
112.6683543008
 21
126.1745663812
 31
0.0
  0
SPLINE
  5
109
330
1F
100
AcDbEntity
  8
0
  6
Continuous
 62
     7
100
AcDbSpline
210
0.0
220
0.0
230
1.0
 70
     8
 71
     3
 72
    15
 73
    11
 74
     9
 42
0.0000000001
 43
0.0000000001
 44
0.00000001
 40
0.0
 40
0.0
 40
0.0
 40
0.0
 40
0.0859833164294553
 40
0.1721991741110142
 40
0.2661842497068972
 40
0.360138759213132
 40
0.4630156744920506
 40
0.5659722050843305
 40
0.6760964083813853
 40
0.7860512884799175
 40
0.7860512884799175
 40
0.7860512884799175
 40
0.7860512884799175
 10
112.6683543008
 20
108.1395663812
 30
0.0
 10
112.6813355282783
 20
108.1651793543409
 30
0.0
 10
112.70733309087
 20
108.2164745707218
 30
0.0
 10
112.7617268709479
 20
108.2871588741152
 30
0.0
 10
112.8266465316565
 20
108.3518141811868
 30
0.0
 10
112.9044018925622
 20
108.4101936724749
 30
0.0
 10
112.9916915481228
 20
108.4594698512841
 30
0.0
 10
113.089569645585
 20
108.4989297625099
 30
0.0
 10
113.1938562020138
 20
108.5274146692853
 30
0.0
 10
113.2668584263506
 20
108.5355178886981
 30
0.0
 10
113.3033314555
 20
108.5395663812
 30
0.0
 11
112.6683543008
 21
108.1395663812
 31
0.0
 11
112.7095894593282
 21
108.2150169769919
 31
0.0
 11
112.7614778996649
 21
108.2838701822564
 31
0.0
 11
112.8280905849851
 21
108.3501721022075
 31
0.0
 11
112.9030837907446
 21
108.406771297842
 31
0.0
 11
112.9926253177568
 21
108.4574267480683
 31
0.0
 11
113.0879984538888
 21
108.4962083428775
 31
0.0
 11
113.1943999752717
 21
108.524599475282
 31
0.0
 11
113.3033314555
 21
108.5395663812
 31
0.0
  0
SPLINE
  5
10A
330
1F
100
AcDbEntity
  8
0
  6
Continuous
 62
     7
100
AcDbSpline
210
0.0
220
0.0
230
1.0
 70
     8
 71
     3
 72
    15
 73
    11
 74
     9
 42
0.0000000001
 43
0.0000000001
 44
0.00000001
 40
0.0
 40
0.0
 40
0.0
 40
0.0
 40
0.1099514424132334
 40
0.220072209020143
 40
0.3230306582510997
 40
0.4259094996393765
 40
0.519865135192051
 40
0.6138513192111538
 40
0.7000675520325468
 40
0.7860512515685271
 40
0.7860512515685271
 40
0.7860512515685271
 40
0.7860512515685271
 10
115.7657665103
 20
108.5395663812
 30
0.0
 10
115.8022383996813
 20
108.535518037764
 30
0.0
 10
115.8752383448128
 20
108.527415116481
 30
0.0
 10
115.9795234101116
 20
108.4989311657201
 30
0.0
 10
116.0774019219942
 20
108.4594719003593
 30
0.0
 10
116.16469332196
 20
108.41019541899
 30
0.0
 10
116.2424500818275
 20
108.3518154672906
 30
0.0
 10
116.3073705584482
 20
108.287159724448
 30
0.0
 10
116.3617647238368
 20
108.216474921146
 30
0.0
 10
116.3877623866833
 20
108.1651794719369
 30
0.0
 10
116.4007436649
 20
108.1395663812
 30
0.0
 11
115.7657665103
 21
108.5395663812
 31
0.0
 11
115.8746946047042
 21
108.5246000877969
 31
0.0
 11
115.9810929491284
 21
108.4962103794175
 31
0.0
 11
116.0764681363838
 21
108.4574287352537
 31
0.0
 11
116.1660116371989
 21
108.4067728622756
 31
0.0
 11
116.241006003469
 21
108.3501733350705
 31
0.0
 11
116.3076196498732
 21
108.2838708094835
 31
0.0
 11
116.3595083396582
 21
108.2150173224671
 31
0.0
 11
116.4007436649
 21
108.1395663812
 31
0.0
  0
SPLINE
  5
10B
330
1F
100
AcDbEntity
  8
0
  6
Continuous
 62
     7
100
AcDbSpline
210
0.0
220
0.0
230
1.0
 70
     8
 71
     3
 72
    11
 73
     7
 74
     5
 42
0.0000000001
 43
0.0000000001
 44
0.00000001
 40
0.0
 40
0.0
 40
0.0
 40
0.0
 40
0.0527674946592608
 40
0.1055623898610123
 40
0.2638740941322419
 40
0.4221222824794145
 40
0.4221222824794145
 40
0.4221222824794145
 40
0.4221222824794145
 10
116.3853821522
 20
91.9070663812
 30
0.0
 10
116.3903735217404
 20
91.89019677153145
 30
0.0
 10
116.4003588526863
 20
91.85644879232318
 30
0.0
 10
116.4210368637759
 20
91.77094704721452
 30
0.0
 10
116.4421370749251
 20
91.64922737629684
 30
0.0
 10
116.4454118992666
 20
91.54365537656052
 30
0.0
 10
116.4470489829
 20
91.4908799679
 30
0.0
 11
116.3853821522
 21
91.9070663812
 31
0.0
 11
116.3999282013265
 21
91.85634339876181
 31
0.0
 11
116.4124878474876
 21
91.8050641997853
 31
0.0
 11
116.4384368772154
 21
91.64889364057056
 31
0.0
 11
116.4470489829
 21
91.4908799679
 31
0.0
  0
SPLINE
  5
10C
330
1F
100
AcDbEntity
  8
0
  6
Continuous
 62
     7
100
AcDbSpline
210
0.0
220
0.0
230
1.0
 70
     8
 71
     3
 72
     9
 73
     5
 74
     3
 42
0.0000000001
 43
0.0000000001
 44
0.00000001
 40
0.0
 40
0.0
 40
0.0
 40
0.0
 40
0.2109866006032166
 40
0.4218962683830141
 40
0.4218962683830141
 40
0.4218962683830141
 40
0.4218962683830141
 10
112.6220489829
 20
91.4908799679
 30
0.0
 10
112.6245760224357
 20
91.56140584411278
 30
0.0
 10
112.6296291800634
 20
91.70243188042767
 30
0.0
 10
112.6656891275994
 20
91.83886317369551
 30
0.0
 10
112.6837158136
 20
91.9070663812
 30
0.0
 11
112.6220489829
 21
91.4908799679
 31
0.0
 11
112.6373846262875
 21
91.7013084918125
 31
0.0
 11
112.6837158136
 21
91.9070663812
 31
0.0
  0
SPLINE
  5
10D
330
1F
100
AcDbEntity
  8
0
  6
Continuous
 62
     7
100
AcDbSpline
210
0.0
220
0.0
230
1.0
 70
     8
 71
     3
 72
    11
 73
     7
 74
     5
 42
0.0000000001
 43
0.0000000001
 44
0.00000001
 40
0.0
 40
0.0
 40
0.0
 40
0.0
 40
0.7132110075096574
 40
1.426361317768489
 40
1.831519457909951
 40
2.236026825432896
 40
2.236026825432896
 40
2.236026825432896
 40
2.236026825432896
 10
57.639028127035
 20
105.394129389892
 30
0.0
 10
57.74824058950108
 20
105.6056089930741
 30
0.0
 10
57.96665621999423
 20
106.0285502016364
 30
0.0
 10
58.1610489561741
 20
106.6098995772221
 30
0.0
 10
58.26636715245635
 20
107.1080385426096
 30
0.0
 10
58.27849162111914
 20
107.3780924028409
 30
0.0
 10
58.2845489829
 20
107.5130108044
 30
0.0
 11
57.639028127035
 21
105.394129389892
 31
0.0
 11
57.94990775556912
 21
106.0360201888566
 31
0.0
 11
58.17692196795542
 21
106.7120733764069
 31
0.0
 11
58.25542648842686
 21
107.1095531353739
 31
0.0
 11
58.2845489829
 21
107.5130108044
 31
0.0
  0
SPLINE
  5
10E
330
1F
100
AcDbEntity
  8
0
  6
Continuous
 62
     7
100
AcDbSpline
210
0.0
220
0.0
230
1.0
 70
     8
 71
     3
 72
    11
 73
     7
 74
     5
 42
0.0000000001
 43
0.0000000001
 44
0.00000001
 40
0.0
 40
0.0
 40
0.0
 40
0.0
 40
0.6210757380668741
 40
1.242411211129367
 40
1.739180735560733
 40
2.235731818863786
 40
2.235731818863786
 40
2.235731818863786
 40
2.235731818863786
 10
58.2845489829
 20
126.801121958
 30
0.0
 10
58.27035230361247
 20
127.0082885603613
 30
0.0
 10
58.24195300796049
 20
127.4227084025313
 30
0.0
 10
58.07198002862964
 20
127.9808535984292
 30
0.0
 10
57.87092214908692
 20
128.4804084147459
 30
0.0
 10
57.71631480115202
 20
128.773493204012
 30
0.0
 10
57.639028127035
 20
128.920003372508
 30
0.0
 11
58.2845489829
 21
126.801121958
 31
0.0
 11
58.21871277136351
 21
127.4186984032
 31
0.0
 11
58.05055635156344
 21
128.0168465358275
 31
0.0
 11
57.86316192128054
 21
128.4769153218832
 31
0.0
 11
57.639028127035
 21
128.920003372508
 31
0.0
  0
DIMENSION
  5
119
330
1F
100
AcDbEntity
  8
1
100
AcDbDimension
  2
*D2
 10
202.873620064219
 20
124.1570663812
 30
0.0
 11
199.123620064219
 21
117.626244338964
 31
0.0
 70
    32
  1
<>
 71
     5
 42
-1.0
 53
90.0
  3
ME10_DIM_10
100
AcDbAlignedDimension
 13
191.5345489829
 23
110.1570663812
 33
0.0
 14
191.5345489829
 24
124.1570663812
 34
0.0
 50
90.0
100
AcDbRotatedDimension
  0
DIMENSION
  5
124
330
1F
100
AcDbEntity
  8
1
100
AcDbDimension
  2
*D3
 10
210.928282859222
 20
130.6570663811466
 30
0.0
 11
207.178282859222
 21
117.724471934025
 31
0.0
 70
    32
  1
<>
 71
     5
 42
-1.0
 53
90.0
  3
ME10_DIM_11
100
AcDbAlignedDimension
 13
191.5345489829
 23
103.6570663811486
 33
0.0
 14
191.5345489829
 24
130.6570663811466
 34
0.0
 50
90.0
100
AcDbRotatedDimension
  0
DIMENSION
  5
12F
330
1F
100
AcDbEntity
  8
1
100
AcDbDimension
  2
*D4
 10
219.572311224592
 20
134.1570663812
 30
0.0
 11
215.822311224592
 21
117.822699529086
 31
0.0
 70
    32
  1
<>
 71
     5
 42
-1.0
 53
90.0
  3
ME10_DIM_12
100
AcDbAlignedDimension
 13
147.0628324063
 23
100.1570663812
 33
0.0
 14
147.0628324063
 24
134.1570663812
 34
0.0
 50
90.0
100
AcDbRotatedDimension
  0
DIMENSION
  5
13A
330
1F
100
AcDbEntity
  8
1
100
AcDbDimension
  2
*D5
 10
191.5345489829
 20
165.76428528472
 30
0.0
 11
155.567459889897
 21
169.51428528472
 31
0.0
 70
    32
  1
<>
 71
     5
 42
-1.0
 53
0.00013888888889
  3
ME10_DIM_13
100
AcDbAlignedDimension
 13
122.4845489829
 23
157.1570663812
 33
0.0
 14
191.5345489829
 24
129.7326758895
 34
0.0
100
AcDbRotatedDimension
  0
DIMENSION
  5
145
330
1F
100
AcDbEntity
  8
1
100
AcDbDimension
  2
*D6
 10
191.5345489829
 20
173.238246788857
 30
0.0
 11
142.824968145139
 21
176.988246788857
 31
0.0
 70
    32
  1
<>
 71
     5
 42
-1.0
 53
0.00013888888889
  3
ME10_DIM_14
100
AcDbAlignedDimension
 13
96.5345489829
 23
157.1570663812
 33
0.0
 14
191.5345489829
 24
129.7326758895
 34
0.0
100
AcDbRotatedDimension
  0
DIMENSION
  5
150
330
1F
100
AcDbEntity
  8
1
100
AcDbDimension
  2
*D7
 10
191.5345489829
 20
180.58968433391
 30
0.0
 11
129.959952441296
 21
184.33968433391
 31
0.0
 70
    32
  1
<>
 71
     5
 42
-1.0
 53
0.00013888888889
  3
ME10_DIM_15
100
AcDbAlignedDimension
 13
56.6345489829
 23
144.0429871812
 33
0.0
 14
191.5345489829
 24
129.7326758895
 34
0.0
100
AcDbRotatedDimension
  0
INSERT
  5
157
330
1F
100
AcDbEntity
  8
1
100
AcDbBlockReference
  2
*D8
 10
0.0
 20
0.0
 30
0.0
  0
DIMENSION
  5
162
330
1F
100
AcDbEntity
  8
1
100
AcDbDimension
  2
*D9
 10
174.0207369998898
 20
133.0978874249913
 30
0.0
 11
176.8431492023471
 21
141.7324207056808
 31
0.0
 70
    37
  1
<>
 71
     5
 42
-1.0
  3
ME10_DIM_16
100
AcDb3PointAngularDimension
 13
173.9583702617435
 23
132.0403416459623
 33
0.0
 14
149.7607028259799
 24
134.1570663812
 34
0.0
 15
147.0628324063
 25
134.1570663812
 35
0.0
  0
ENDSEC
  0
SECTION
  2
OBJECTS
  0
DICTIONARY
  5
C
330
0
100
AcDbDictionary
281
     1
  3
ACAD_GROUP
350
D
  3
ACAD_LAYOUT
350
1A
  3
ACAD_MLEADERSTYLE
350
165
  3
ACAD_MLINESTYLE
350
17
  3
ACAD_PLOTSETTINGS
350
19
  3
ACAD_PLOTSTYLENAME
350
E
  3
ACAD_SCALELIST
350
4C
  3
ACAD_VISUALSTYLE
350
2A
  3
AcDbVariableDictionary
350
163
  0
DICTIONARY
  5
D
102
{ACAD_REACTORS
330
C
102
}
330
C
100
AcDbDictionary
281
     1
  0
DICTIONARY
  5
1A
102
{ACAD_REACTORS
330
C
102
}
330
C
100
AcDbDictionary
281
     1
  3
Layout1
350
1E
  3
Layout2
350
26
  3
Model
350
22
  0
DICTIONARY
  5
165
102
{ACAD_REACTORS
330
C
102
}
330
C
100
AcDbDictionary
281
     1
  0
DICTIONARY
  5
17
102
{ACAD_REACTORS
330
C
102
}
330
C
100
AcDbDictionary
281
     1
  3
Standard
350
18
  0
DICTIONARY
  5
19
102
{ACAD_REACTORS
330
C
102
}
330
C
100
AcDbDictionary
281
     1
  0
ACDBDICTIONARYWDFLT
  5
E
102
{ACAD_REACTORS
330
C
102
}
330
C
100
AcDbDictionary
281
     1
  3
Normal
350
F
100
AcDbDictionaryWithDefault
340
F
  0
DICTIONARY
  5
4C
102
{ACAD_REACTORS
330
C
102
}
330
C
100
AcDbDictionary
281
     1
  3
A0
350
4D
  3
A1
350
4E
  3
A2
350
4F
  3
A3
350
50
  3
A4
350
51
  3
A5
350
52
  3
A6
350
53
  3
A7
350
54
  3
A8
350
55
  3
A9
350
56
  3
B0
350
57
  3
B1
350
58
  3
B2
350
59
  3
B3
350
5A
  3
B4
350
5B
  3
B5
350
5C
  3
B6
350
5D
  3
B7
350
5E
  3
B8
350
5F
  3
B9
350
60
  3
C0
350
61
  3
C1
350
62
  3
C2
350
63
  3
C3
350
64
  3
C4
350
65
  3
C5
350
66
  3
C6
350
67
  3
C7
350
68
  3
C8
350
69
  3
C9
350
6A
  3
D0
350
6B
  3
D1
350
6C
  3
D2
350
6D
  0
DICTIONARY
  5
2A
102
{ACAD_REACTORS
330
C
102
}
330
C
100
AcDbDictionary
281
     1
  3
2dWireframe
350
2F
  3
3D Hidden
350
31
  3
3dWireframe
350
30
  3
Basic
350
32
  3
Brighten
350
36
  3
ColorChange
350
3A
  3
Conceptual
350
34
  3
Dim
350
35
  3
Facepattern
350
39
  3
Flat
350
2B
  3
FlatWithEdges
350
2C
  3
Gouraud
350
2D
  3
GouraudWithEdges
350
2E
  3
Linepattern
350
38
  3
Realistic
350
33
  3
Thicken
350
37
  0
DICTIONARY
  5
163
102
{ACAD_REACTORS
330
C
102
}
330
C
100
AcDbDictionary
281
     1
  3
CANNOSCALE
350
166
  0
LAYOUT
  5
1E
102
{ACAD_REACTORS
330
1A
102
}
330
1A
100
AcDbPlotSettings
  1

  2
none_device
  4

  6

 40
0.0
 41
0.0
 42
0.0
 43
0.0
 44
0.0
 45
0.0
 46
0.0
 47
0.0
 48
0.0
 49
0.0
140
0.0
141
0.0
142
1.0
143
1.0
 70
   688
 72
     0
 73
     0
 74
     5
  7

 75
    16
147
1.0
148
0.0
149
0.0
100
AcDbLayout
  1
Layout1
 70
     1
 71
     1
 10
0.0
 20
0.0
 11
12.0
 21
9.0
 12
0.0
 22
0.0
 32
0.0
 14
1.00000000000000E+20
 24
1.00000000000000E+20
 34
1.00000000000000E+20
 15
-1.00000000000000E+20
 25
-1.00000000000000E+20
 35
-1.00000000000000E+20
146
0.0
 13
0.0
 23
0.0
 33
0.0
 16
1.0
 26
0.0
 36
0.0
 17
0.0
 27
1.0
 37
0.0
 76
     0
330
1B
  0
LAYOUT
  5
26
102
{ACAD_REACTORS
330
1A
102
}
330
1A
100
AcDbPlotSettings
  1

  2
none_device
  4

  6

 40
0.0
 41
0.0
 42
0.0
 43
0.0
 44
0.0
 45
0.0
 46
0.0
 47
0.0
 48
0.0
 49
0.0
140
0.0
141
0.0
142
1.0
143
1.0
 70
   688
 72
     0
 73
     0
 74
     5
  7

 75
    16
147
1.0
148
0.0
149
0.0
100
AcDbLayout
  1
Layout2
 70
     1
 71
     2
 10
0.0
 20
0.0
 11
0.0
 21
0.0
 12
0.0
 22
0.0
 32
0.0
 14
0.0
 24
0.0
 34
0.0
 15
0.0
 25
0.0
 35
0.0
146
0.0
 13
0.0
 23
0.0
 33
0.0
 16
1.0
 26
0.0
 36
0.0
 17
0.0
 27
1.0
 37
0.0
 76
     0
330
23
  0
LAYOUT
  5
22
102
{ACAD_REACTORS
330
1A
102
}
330
1A
100
AcDbPlotSettings
  1

  2
none_device
  4

  6

 40
0.0
 41
0.0
 42
0.0
 43
0.0
 44
0.0
 45
0.0
 46
0.0
 47
0.0
 48
0.0
 49
0.0
140
0.0
141
0.0
142
1.0
143
1.0
 70
  1712
 72
     0
 73
     0
 74
     0
  7

 75
     0
147
1.0
148
0.0
149
0.0
100
AcDbLayout
  1
Model
 70
     1
 71
     0
 10
0.0
 20
0.0
 11
12.0
 21
9.0
 12
0.0
 22
0.0
 32
0.0
 14
30.5595574175657
 24
77.1570663812
 34
0.0
 15
221.572311224592
 25
188.616990391014
 35
0.0
146
0.0
 13
0.0
 23
0.0
 33
0.0
 16
1.0
 26
0.0
 36
0.0
 17
0.0
 27
1.0
 37
0.0
 76
     0
330
1F
331
29
  0
MLINESTYLE
  5
18
102
{ACAD_REACTORS
330
17
102
}
330
17
100
AcDbMlineStyle
  2
Standard
 70
     0
  3

 62
   256
 51
90.0
 52
90.0
 71
     2
 49
0.5
 62
   256
  6
BYLAYER
 49
-0.5
 62
   256
  6
BYLAYER
  0
ACDBPLACEHOLDER
  5
F
102
{ACAD_REACTORS
330
E
102
}
330
E
  0
SCALE
  5
4D
102
{ACAD_REACTORS
330
4C
102
}
330
4C
100
AcDbScale
 70
     0
300
1:1
140
1.0
141
1.0
290
     1
  0
SCALE
  5
4E
102
{ACAD_REACTORS
330
4C
102
}
330
4C
100
AcDbScale
 70
     0
300
1:2
140
1.0
141
2.0
290
     0
  0
SCALE
  5
4F
102
{ACAD_REACTORS
330
4C
102
}
330
4C
100
AcDbScale
 70
     0
300
1:4
140
1.0
141
4.0
290
     0
  0
SCALE
  5
50
102
{ACAD_REACTORS
330
4C
102
}
330
4C
100
AcDbScale
 70
     0
300
1:5
140
1.0
141
5.0
290
     0
  0
SCALE
  5
51
102
{ACAD_REACTORS
330
4C
102
}
330
4C
100
AcDbScale
 70
     0
300
1:8
140
1.0
141
8.0
290
     0
  0
SCALE
  5
52
102
{ACAD_REACTORS
330
4C
102
}
330
4C
100
AcDbScale
 70
     0
300
1:10
140
1.0
141
10.0
290
     0
  0
SCALE
  5
53
102
{ACAD_REACTORS
330
4C
102
}
330
4C
100
AcDbScale
 70
     0
300
1:16
140
1.0
141
16.0
290
     0
  0
SCALE
  5
54
102
{ACAD_REACTORS
330
4C
102
}
330
4C
100
AcDbScale
 70
     0
300
1:20
140
1.0
141
20.0
290
     0
  0
SCALE
  5
55
102
{ACAD_REACTORS
330
4C
102
}
330
4C
100
AcDbScale
 70
     0
300
1:30
140
1.0
141
30.0
290
     0
  0
SCALE
  5
56
102
{ACAD_REACTORS
330
4C
102
}
330
4C
100
AcDbScale
 70
     0
300
1:40
140
1.0
141
40.0
290
     0
  0
SCALE
  5
57
102
{ACAD_REACTORS
330
4C
102
}
330
4C
100
AcDbScale
 70
     0
300
1:50
140
1.0
141
50.0
290
     0
  0
SCALE
  5
58
102
{ACAD_REACTORS
330
4C
102
}
330
4C
100
AcDbScale
 70
     0
300
1:100
140
1.0
141
100.0
290
     0
  0
SCALE
  5
59
102
{ACAD_REACTORS
330
4C
102
}
330
4C
100
AcDbScale
 70
     0
300
2:1
140
2.0
141
1.0
290
     0
  0
SCALE
  5
5A
102
{ACAD_REACTORS
330
4C
102
}
330
4C
100
AcDbScale
 70
     0
300
4:1
140
4.0
141
1.0
290
     0
  0
SCALE
  5
5B
102
{ACAD_REACTORS
330
4C
102
}
330
4C
100
AcDbScale
 70
     0
300
8:1
140
8.0
141
1.0
290
     0
  0
SCALE
  5
5C
102
{ACAD_REACTORS
330
4C
102
}
330
4C
100
AcDbScale
 70
     0
300
10:1
140
10.0
141
1.0
290
     0
  0
SCALE
  5
5D
102
{ACAD_REACTORS
330
4C
102
}
330
4C
100
AcDbScale
 70
     0
300
100:1
140
100.0
141
1.0
290
     0
  0
SCALE
  5
5E
102
{ACAD_REACTORS
330
4C
102
}
330
4C
100
AcDbScale
 70
     0
300
1/128" = 1'-0"
140
0.0078125
141
12.0
290
     0
  0
SCALE
  5
5F
102
{ACAD_REACTORS
330
4C
102
}
330
4C
100
AcDbScale
 70
     0
300
1/64" = 1'-0"
140
0.015625
141
12.0
290
     0
  0
SCALE
  5
60
102
{ACAD_REACTORS
330
4C
102
}
330
4C
100
AcDbScale
 70
     0
300
1/32" = 1'-0"
140
0.03125
141
12.0
290
     0
  0
SCALE
  5
61
102
{ACAD_REACTORS
330
4C
102
}
330
4C
100
AcDbScale
 70
     0
300
1/16" = 1'-0"
140
0.0625
141
12.0
290
     0
  0
SCALE
  5
62
102
{ACAD_REACTORS
330
4C
102
}
330
4C
100
AcDbScale
 70
     0
300
3/32" = 1'-0"
140
0.09375
141
12.0
290
     0
  0
SCALE
  5
63
102
{ACAD_REACTORS
330
4C
102
}
330
4C
100
AcDbScale
 70
     0
300
1/8" = 1'-0"
140
0.125
141
12.0
290
     0
  0
SCALE
  5
64
102
{ACAD_REACTORS
330
4C
102
}
330
4C
100
AcDbScale
 70
     0
300
3/16" = 1'-0"
140
0.1875
141
12.0
290
     0
  0
SCALE
  5
65
102
{ACAD_REACTORS
330
4C
102
}
330
4C
100
AcDbScale
 70
     0
300
1/4" = 1'-0"
140
0.25
141
12.0
290
     0
  0
SCALE
  5
66
102
{ACAD_REACTORS
330
4C
102
}
330
4C
100
AcDbScale
 70
     0
300
3/8" = 1'-0"
140
0.375
141
12.0
290
     0
  0
SCALE
  5
67
102
{ACAD_REACTORS
330
4C
102
}
330
4C
100
AcDbScale
 70
     0
300
1/2" = 1'-0"
140
0.5
141
12.0
290
     0
  0
SCALE
  5
68
102
{ACAD_REACTORS
330
4C
102
}
330
4C
100
AcDbScale
 70
     0
300
3/4" = 1'-0"
140
0.75
141
12.0
290
     0
  0
SCALE
  5
69
102
{ACAD_REACTORS
330
4C
102
}
330
4C
100
AcDbScale
 70
     0
300
1" = 1'-0"
140
1.0
141
12.0
290
     0
  0
SCALE
  5
6A
102
{ACAD_REACTORS
330
4C
102
}
330
4C
100
AcDbScale
 70
     0
300
1-1/2" = 1'-0"
140
1.5
141
12.0
290
     0
  0
SCALE
  5
6B
102
{ACAD_REACTORS
330
4C
102
}
330
4C
100
AcDbScale
 70
     0
300
3" = 1'-0"
140
3.0
141
12.0
290
     0
  0
SCALE
  5
6C
102
{ACAD_REACTORS
330
4C
102
}
330
4C
100
AcDbScale
 70
     0
300
6" = 1'-0"
140
6.0
141
12.0
290
     0
  0
SCALE
  5
6D
102
{ACAD_REACTORS
330
4C
102
}
330
4C
100
AcDbScale
 70
     0
300
1'-0" = 1'-0"
140
12.0
141
12.0
290
     0
  0
VISUALSTYLE
  5
2F
102
{ACAD_REACTORS
330
2A
102
}
330
2A
100
AcDbVisualStyle
  2
2dWireframe
 70
     4
 71
     0
 72
     2
 73
     0
 90
        0
 40
-0.6
 41
-30.0
 62
     5
 63
     7
 74
     1
 91
        4
 64
     7
 65
   257
 75
     1
175
     1
 42
1.0
 92
        0
 66
   257
 43
1.0
 76
     1
 77
     6
 78
     2
 67
     7
 79
     5
170
     0
171
     0
290
     0
174
     0
 93
        1
 44
0.0
173
     0
291
     0
 45
0.0
1001
ACAD
1000
AcDbSavedByObjectVersion
1070
     0
  0
VISUALSTYLE
  5
31
102
{ACAD_REACTORS
330
2A
102
}
330
2A
100
AcDbVisualStyle
  2
3D Hidden
 70
     6
 71
     1
 72
     2
 73
     2
 90
        0
 40
-0.6
 41
-30.0
 62
     5
 63
     7
 74
     2
 91
        2
 64
     7
 65
   257
 75
     2
175
     1
 42
40.0
 92
        0
 66
   257
 43
1.0
 76
     1
 77
     6
 78
     2
 67
     7
 79
     3
170
     0
171
     0
290
     0
174
     0
 93
        1
 44
0.0
173
     0
291
     0
 45
0.0
1001
ACAD
1000
AcDbSavedByObjectVersion
1070
     0
  0
VISUALSTYLE
  5
30
102
{ACAD_REACTORS
330
2A
102
}
330
2A
100
AcDbVisualStyle
  2
3dWireframe
 70
     5
 71
     0
 72
     2
 73
     0
 90
        0
 40
-0.6
 41
-30.0
 62
     5
 63
     7
 74
     1
 91
        4
 64
     7
 65
   257
 75
     1
175
     1
 42
1.0
 92
        0
 66
   257
 43
1.0
 76
     1
 77
     6
 78
     2
 67
     7
 79
     5
170
     0
171
     0
290
     0
174
     0
 93
        1
 44
0.0
173
     0
291
     0
 45
0.0
1001
ACAD
1000
AcDbSavedByObjectVersion
1070
     0
  0
VISUALSTYLE
  5
32
102
{ACAD_REACTORS
330
2A
102
}
330
2A
100
AcDbVisualStyle
  2
Basic
 70
     7
 71
     1
 72
     0
 73
     1
 90
        0
 40
-0.6
 41
-30.0
 62
     5
 63
     7
 74
     0
 91
        4
 64
     7
 65
   257
 75
     1
175
     1
 42
1.0
 92
        8
 66
     7
 43
1.0
 76
     1
 77
     6
 78
     2
 67
     7
 79
     5
170
     0
171
     0
290
     0
174
     0
 93
        1
 44
0.0
173
     0
291
     1
 45
0.0
1001
ACAD
1000
AcDbSavedByObjectVersion
1070
     0
  0
VISUALSTYLE
  5
36
102
{ACAD_REACTORS
330
2A
102
}
330
2A
100
AcDbVisualStyle
  2
Brighten
 70
    12
 71
     2
 72
     2
 73
     0
 90
        0
 40
-0.6
 41
-30.0
 62
     5
 63
     7
 74
     1
 91
        4
 64
     7
 65
   257
 75
     1
175
     1
 42
1.0
 92
        8
 66
     7
 43
1.0
 76
     1
 77
     6
 78
     2
 67
     7
 79
     5
170
     0
171
     0
290
     0
174
     0
 93
        1
 44
50.0
173
     0
291
     1
 45
0.0
1001
ACAD
1000
AcDbSavedByObjectVersion
1070
     0
  0
VISUALSTYLE
  5
3A
102
{ACAD_REACTORS
330
2A
102
}
330
2A
100
AcDbVisualStyle
  2
ColorChange
 70
    16
 71
     2
 72
     2
 73
     3
 90
        0
 40
-0.6
 41
-30.0
 62
     5
 63
     8
 74
     1
 91
        4
 64
     7
 65
   257
 75
     1
175
     1
 42
1.0
 92
        8
 66
     8
 43
1.0
 76
     1
 77
     6
 78
     2
 67
     7
 79
     5
170
     0
171
     0
290
     0
174
     0
 93
        1
 44
0.0
173
     0
291
     1
 45
0.0
1001
ACAD
1000
AcDbSavedByObjectVersion
1070
     0
  0
VISUALSTYLE
  5
34
102
{ACAD_REACTORS
330
2A
102
}
330
2A
100
AcDbVisualStyle
  2
Conceptual
 70
     9
 71
     3
 72
     2
 73
     0
 90
        0
 40
-0.6
 41
-30.0
 62
     5
 63
     7
 74
     2
 91
        2
 64
     7
 65
   257
 75
     1
175
     1
 42
40.0
 92
        8
 66
     7
 43
1.0
 76
     1
 77
     6
 78
     2
 67
     7
 79
     3
170
     0
171
     0
290
     0
174
     0
 93
        1
 44
0.0
173
     0
291
     0
 45
0.0
1001
ACAD
1000
AcDbSavedByObjectVersion
1070
     0
  0
VISUALSTYLE
  5
35
102
{ACAD_REACTORS
330
2A
102
}
330
2A
100
AcDbVisualStyle
  2
Dim
 70
    11
 71
     2
 72
     2
 73
     0
 90
        0
 40
-0.6
 41
-30.0
 62
     5
 63
     7
 74
     1
 91
        4
 64
     7
 65
   257
 75
     1
175
     1
 42
1.0
 92
        8
 66
     7
 43
1.0
 76
     1
 77
     6
 78
     2
 67
     7
 79
     5
170
     0
171
     0
290
     0
174
     0
 93
        1
 44
-50.0
173
     0
291
     1
 45
0.0
1001
ACAD
1000
AcDbSavedByObjectVersion
1070
     0
  0
VISUALSTYLE
  5
39
102
{ACAD_REACTORS
330
2A
102
}
330
2A
100
AcDbVisualStyle
  2
Facepattern
 70
    15
 71
     2
 72
     2
 73
     0
 90
        0
 40
-0.6
 41
-30.0
 62
     5
 63
     7
 74
     1
 91
        4
 64
     7
 65
   257
 75
     1
175
     1
 42
1.0
 92
        8
 66
     7
 43
1.0
 76
     1
 77
     6
 78
     2
 67
     7
 79
     5
170
     0
171
     0
290
     0
174
     0
 93
        1
 44
0.0
173
     0
291
     1
 45
0.0
1001
ACAD
1000
AcDbSavedByObjectVersion
1070
     0
  0
VISUALSTYLE
  5
2B
102
{ACAD_REACTORS
330
2A
102
}
330
2A
100
AcDbVisualStyle
  2
Flat
 70
     0
 71
     2
 72
     1
 73
     1
 90
        2
 40
-0.6
 41
30.0
 62
     5
 63
     7
 74
     0
 91
        4
 64
     7
 65
   257
 75
     1
175
     1
 42
1.0
 92
        8
 66
     7
 43
1.0
 76
     1
 77
     6
 78
     2
 67
     7
 79
     5
170
     0
171
     0
290
     0
174
     0
 93
       13
 44
0.0
173
     0
291
     1
 45
0.0
1001
ACAD
1000
AcDbSavedByObjectVersion
1070
     0
  0
VISUALSTYLE
  5
2C
102
{ACAD_REACTORS
330
2A
102
}
330
2A
100
AcDbVisualStyle
  2
FlatWithEdges
 70
     1
 71
     2
 72
     1
 73
     1
 90
        2
 40
-0.6
 41
30.0
 62
     5
 63
     7
 74
     1
 91
        4
 64
     7
 65
   257
 75
     1
175
     1
 42
1.0
 92
        0
 66
   257
 43
1.0
 76
     1
 77
     6
 78
     2
 67
     7
 79
     5
170
     0
171
     0
290
     0
174
     0
 93
       13
 44
0.0
173
     0
291
     1
 45
0.0
1001
ACAD
1000
AcDbSavedByObjectVersion
1070
     0
  0
VISUALSTYLE
  5
2D
102
{ACAD_REACTORS
330
2A
102
}
330
2A
100
AcDbVisualStyle
  2
Gouraud
 70
     2
 71
     2
 72
     2
 73
     1
 90
        2
 40
-0.6
 41
30.0
 62
     5
 63
     7
 74
     0
 91
        4
 64
     7
 65
   257
 75
     1
175
     1
 42
1.0
 92
        0
 66
     7
 43
1.0
 76
     1
 77
     6
 78
     2
 67
     7
 79
     5
170
     0
171
     0
290
     0
174
     0
 93
       13
 44
0.0
173
     0
291
     1
 45
0.0
1001
ACAD
1000
AcDbSavedByObjectVersion
1070
     0
  0
VISUALSTYLE
  5
2E
102
{ACAD_REACTORS
330
2A
102
}
330
2A
100
AcDbVisualStyle
  2
GouraudWithEdges
 70
     3
 71
     2
 72
     2
 73
     1
 90
        2
 40
-0.6
 41
30.0
 62
     5
 63
     7
 74
     1
 91
        4
 64
     7
 65
   257
 75
     1
175
     1
 42
1.0
 92
        0
 66
   257
 43
1.0
 76
     1
 77
     6
 78
     2
 67
     7
 79
     5
170
     0
171
     0
290
     0
174
     0
 93
       13
 44
0.0
173
     0
291
     1
 45
0.0
1001
ACAD
1000
AcDbSavedByObjectVersion
1070
     0
  0
VISUALSTYLE
  5
38
102
{ACAD_REACTORS
330
2A
102
}
330
2A
100
AcDbVisualStyle
  2
Linepattern
 70
    14
 71
     2
 72
     2
 73
     0
 90
        0
 40
-0.6
 41
-30.0
 62
     5
 63
     7
 74
     1
 91
        4
 64
     7
 65
   257
 75
     7
175
     7
 42
1.0
 92
        8
 66
     7
 43
1.0
 76
     1
 77
     6
 78
     2
 67
     7
 79
     5
170
     0
171
     0
290
     0
174
     0
 93
        1
 44
0.0
173
     0
291
     1
 45
0.0
1001
ACAD
1000
AcDbSavedByObjectVersion
1070
     0
  0
VISUALSTYLE
  5
33
102
{ACAD_REACTORS
330
2A
102
}
330
2A
100
AcDbVisualStyle
  2
Realistic
 70
     8
 71
     2
 72
     2
 73
     0
 90
        0
 40
-0.6
 41
-30.0
 62
     5
 63
     7
 74
     1
 91
        0
 64
     7
 65
   257
 75
     1
175
     1
 42
1.0
 92
        8
 66
     8
 43
1.0
 76
     1
 77
     6
 78
     2
 67
     7
 79
     5
170
     0
171
     0
290
     0
174
     0
 93
       13
 44
0.0
173
     0
291
     0
 45
0.0
1001
ACAD
1000
AcDbSavedByObjectVersion
1070
     0
  0
VISUALSTYLE
  5
37
102
{ACAD_REACTORS
330
2A
102
}
330
2A
100
AcDbVisualStyle
  2
Thicken
 70
    13
 71
     2
 72
     2
 73
     0
 90
        0
 40
-0.6
 41
-30.0
 62
     5
 63
     7
 74
     1
 91
        4
 64
     7
 65
   257
 75
     1
175
     1
 42
1.0
 92
       12
 66
     7
 43
1.0
 76
     1
 77
     6
 78
     2
 67
     7
 79
     5
170
     0
171
     0
290
     0
174
     0
 93
        1
 44
0.0
173
     0
291
     1
 45
0.0
1001
ACAD
1000
AcDbSavedByObjectVersion
1070
     0
  0
DICTIONARYVAR
  5
166
102
{ACAD_REACTORS
330
163
102
}
330
163
100
DictionaryVariables
280
     0
  1
1:1
  0
ENDSEC
  0
EOF
