  0
SECTION
  2
HEADER
  9
$ACADVER
  1
AC1015
  9
$ACADMAINTVER
 70
     6
  9
$DWGCODEPAGE
  3
ANSI_1252
  9
$INSBASE
 10
0.0
 20
0.0
 30
0.0
  9
$EXTMIN
 10
31.35356444005
 20
72.5124464668
 30
0.0
  9
$EXTMAX
 10
223.603170782554
 20
183.708873280326
 30
0.0
  9
$LIMMIN
 10
0.0
 20
0.0
  9
$LIMMAX
 10
12.0
 20
9.0
  9
$ORTHOMODE
 70
     0
  9
$REGENMODE
 70
     1
  9
$FILLMODE
 70
     1
  9
$QTEXTMODE
 70
     0
  9
$MIRRTEXT
 70
     1
  9
$LTSCALE
 40
1.0
  9
$ATTMODE
 70
     1
  9
$TEXTSIZE
 40
0.2
  9
$TRACEWID
 40
0.05
  9
$TEXTSTYLE
  7
Standard
  9
$CLAYER
  8
0
  9
$CELTYPE
  6
ByLayer
  9
$CECOLOR
 62
   256
  9
$CELTSCALE
 40
1.0
  9
$DISPSILH
 70
     0
  9
$DIMSCALE
 40
1.0
  9
$DIMASZ
 40
0.18
  9
$DIMEXO
 40
0.0625
  9
$DIMDLI
 40
0.38
  9
$DIMRND
 40
0.0
  9
$DIMDLE
 40
0.0
  9
$DIMEXE
 40
0.18
  9
$DIMTP
 40
0.0
  9
$DIMTM
 40
0.0
  9
$DIMTXT
 40
0.18
  9
$DIMCEN
 40
0.09
  9
$DIMTSZ
 40
0.0
  9
$DIMTOL
 70
     0
  9
$DIMLIM
 70
     0
  9
$DIMTIH
 70
     1
  9
$DIMTOH
 70
     1
  9
$DIMSE1
 70
     0
  9
$DIMSE2
 70
     0
  9
$DIMTAD
 70
     0
  9
$DIMZIN
 70
     0
  9
$DIMBLK
  1

  9
$DIMASO
 70
     1
  9
$DIMSHO
 70
     1
  9
$DIMPOST
  1

  9
$DIMAPOST
  1

  9
$DIMALT
 70
     0
  9
$DIMALTD
 70
     2
  9
$DIMALTF
 40
25.4
  9
$DIMLFAC
 40
1.0
  9
$DIMTOFL
 70
     0
  9
$DIMTVP
 40
0.0
  9
$DIMTIX
 70
     0
  9
$DIMSOXD
 70
     0
  9
$DIMSAH
 70
     0
  9
$DIMBLK1
  1

  9
$DIMBLK2
  1

  9
$DIMSTYLE
  2
Standard
  9
$DIMCLRD
 70
     0
  9
$DIMCLRE
 70
     0
  9
$DIMCLRT
 70
     0
  9
$DIMTFAC
 40
1.0
  9
$DIMGAP
 40
0.09
  9
$DIMJUST
 70
     0
  9
$DIMSD1
 70
     0
  9
$DIMSD2
 70
     0
  9
$DIMTOLJ
 70
     1
  9
$DIMTZIN
 70
     0
  9
$DIMALTZ
 70
     0
  9
$DIMALTTZ
 70
     0
  9
$DIMUPT
 70
     0
  9
$DIMDEC
 70
     4
  9
$DIMTDEC
 70
     4
  9
$DIMALTU
 70
     2
  9
$DIMALTTD
 70
     2
  9
$DIMTXSTY
  7
Standard
  9
$DIMAUNIT
 70
     0
  9
$DIMADEC
 70
     0
  9
$DIMALTRND
 40
0.0
  9
$DIMAZIN
 70
     0
  9
$DIMDSEP
 70
    46
  9
$DIMATFIT
 70
     3
  9
$DIMFRAC
 70
     0
  9
$DIMLDRBLK
  1

  9
$DIMLUNIT
 70
     2
  9
$DIMLWD
 70
    -2
  9
$DIMLWE
 70
    -2
  9
$DIMTMOVE
 70
     0
  9
$LUNITS
 70
     2
  9
$LUPREC
 70
     4
  9
$SKETCHINC
 40
0.1
  9
$FILLETRAD
 40
0.5
  9
$AUNITS
 70
     0
  9
$AUPREC
 70
     0
  9
$MENU
  1
.
  9
$ELEVATION
 40
0.0
  9
$PELEVATION
 40
0.0
  9
$THICKNESS
 40
0.0
  9
$LIMCHECK
 70
     0
  9
$CHAMFERA
 40
0.5
  9
$CHAMFERB
 40
0.5
  9
$CHAMFERC
 40
1.0
  9
$CHAMFERD
 40
0.0
  9
$SKPOLY
 70
     0
  9
$TDCREATE
 40
2456644.717417106
  9
$TDUCREATE
 40
2456644.67575044
  9
$TDUPDATE
 40
2456644.717417118
  9
$TDUUPDATE
 40
2456644.675750451
  9
$TDINDWG
 40
0.0000000116
  9
$TDUSRTIMER
 40
0.0000000116
  9
$USRTIMER
 70
     1
  9
$ANGBASE
 50
0.0
  9
$ANGDIR
 70
     0
  9
$PDMODE
 70
     0
  9
$PDSIZE
 40
0.0
  9
$PLINEWID
 40
0.0
  9
$SPLFRAME
 70
     0
  9
$SPLINETYPE
 70
     6
  9
$SPLINESEGS
 70
     8
  9
$HANDSEED
  5
164
  9
$SURFTAB1
 70
     6
  9
$SURFTAB2
 70
     6
  9
$SURFTYPE
 70
     6
  9
$SURFU
 70
     6
  9
$SURFV
 70
     6
  9
$UCSBASE
  2

  9
$UCSNAME
  2

  9
$UCSORG
 10
0.0
 20
0.0
 30
0.0
  9
$UCSXDIR
 10
1.0
 20
0.0
 30
0.0
  9
$UCSYDIR
 10
0.0
 20
1.0
 30
0.0
  9
$UCSORTHOREF
  2

  9
$UCSORTHOVIEW
 70
     0
  9
$UCSORGTOP
 10
0.0
 20
0.0
 30
0.0
  9
$UCSORGBOTTOM
 10
0.0
 20
0.0
 30
0.0
  9
$UCSORGLEFT
 10
0.0
 20
0.0
 30
0.0
  9
$UCSORGRIGHT
 10
0.0
 20
0.0
 30
0.0
  9
$UCSORGFRONT
 10
0.0
 20
0.0
 30
0.0
  9
$UCSORGBACK
 10
0.0
 20
0.0
 30
0.0
  9
$PUCSBASE
  2

  9
$PUCSNAME
  2

  9
$PUCSORG
 10
0.0
 20
0.0
 30
0.0
  9
$PUCSXDIR
 10
1.0
 20
0.0
 30
0.0
  9
$PUCSYDIR
 10
0.0
 20
1.0
 30
0.0
  9
$PUCSORTHOREF
  2

  9
$PUCSORTHOVIEW
 70
     0
  9
$PUCSORGTOP
 10
0.0
 20
0.0
 30
0.0
  9
$PUCSORGBOTTOM
 10
0.0
 20
0.0
 30
0.0
  9
$PUCSORGLEFT
 10
0.0
 20
0.0
 30
0.0
  9
$PUCSORGRIGHT
 10
0.0
 20
0.0
 30
0.0
  9
$PUCSORGFRONT
 10
0.0
 20
0.0
 30
0.0
  9
$PUCSORGBACK
 10
0.0
 20
0.0
 30
0.0
  9
$USERI1
 70
     0
  9
$USERI2
 70
     0
  9
$USERI3
 70
     0
  9
$USERI4
 70
     0
  9
$USERI5
 70
     0
  9
$USERR1
 40
16.5
  9
$USERR2
 40
0.0
  9
$USERR3
 40
0.0
  9
$USERR4
 40
0.0
  9
$USERR5
 40
0.0
  9
$WORLDVIEW
 70
     1
  9
$SHADEDGE
 70
     3
  9
$SHADEDIF
 70
    70
  9
$TILEMODE
 70
     1
  9
$MAXACTVP
 70
    64
  9
$PINSBASE
 10
0.0
 20
0.0
 30
0.0
  9
$PLIMCHECK
 70
     0
  9
$PEXTMIN
 10
1.00000000000000E+20
 20
1.00000000000000E+20
 30
1.00000000000000E+20
  9
$PEXTMAX
 10
-1.00000000000000E+20
 20
-1.00000000000000E+20
 30
-1.00000000000000E+20
  9
$PLIMMIN
 10
0.0
 20
0.0
  9
$PLIMMAX
 10
12.0
 20
9.0
  9
$UNITMODE
 70
     0
  9
$VISRETAIN
 70
     1
  9
$PLINEGEN
 70
     0
  9
$PSLTSCALE
 70
     1
  9
$TREEDEPTH
 70
  3020
  9
$CMLSTYLE
  2
Standard
  9
$CMLJUST
 70
     0
  9
$CMLSCALE
 40
1.0
  9
$PROXYGRAPHICS
 70
     1
  9
$MEASUREMENT
 70
     1
  9
$CELWEIGHT
370
    -1
  9
$ENDCAPS
280
     0
  9
$JOINSTYLE
280
     0
  9
$LWDISPLAY
290
     0
  9
$INSUNITS
 70
     1
  9
$HYPERLINKBASE
  1

  9
$STYLESHEET
  1

  9
$XEDIT
290
     1
  9
$CEPSNTYPE
380
     0
  9
$PSTYLEMODE
290
     1
  9
$FINGERPRINTGUID
  2
{DAF0316C-09AC-4ED5-8F01-3AD179BC3A82}
  9
$VERSIONGUID
  2
{FAEB1C32-E019-11D5-929B-00C0DF256EC4}
  9
$EXTNAMES
290
     1
  9
$PSVPSCALE
 40
0.0
  9
$OLESTARTUP
290
     0
  0
ENDSEC
  0
SECTION
  2
CLASSES
  0
CLASS
  1
ACDBDICTIONARYWDFLT
  2
AcDbDictionaryWithDefault
  3
ObjectDBX Classes
 90
        0
280
     0
281
     0
  0
CLASS
  1
VISUALSTYLE
  2
AcDbVisualStyle
  3
ObjectDBX Classes
 90
     4095
280
     0
281
     0
  0
CLASS
  1
SCALE
  2
AcDbScale
  3
ObjectDBX Classes
 90
     1153
280
     0
281
     0
  0
CLASS
  1

  2
exOdDbPolyline
  3

 90
        0
280
     0
281
     1
  0
CLASS
  1

  2
exOdDbCircle
  3

 90
        0
280
     0
281
     1
  0
CLASS
  1

  2
exOdDbSpline
  3

 90
        0
280
     0
281
     1
  0
CLASS
  1
DICTIONARYVAR
  2
AcDbDictionaryVar
  3
ObjectDBX Classes
 90
        0
280
     0
281
     0
  0
CLASS
  1
ACDBPLACEHOLDER
  2
AcDbPlaceHolder
  3
ObjectDBX Classes
 90
        0
280
     0
281
     0
  0
CLASS
  1
LAYOUT
  2
AcDbLayout
  3
ObjectDBX Classes
 90
        0
280
     0
281
     0
  0
ENDSEC
  0
SECTION
  2
TABLES
  0
TABLE
  2
VPORT
  5
8
330
0
100
AcDbSymbolTable
 70
     1
  0
VPORT
  5
29
330
8
100
AcDbSymbolTableRecord
100
AcDbViewportTableRecord
  2
*Active
 70
     0
 10
0.0
 20
0.0
 11
1.0
 21
1.0
 12
127.478367611302
 22
128.110659873563
 13
0.0
 23
0.0
 14
0.5
 24
0.5
 15
0.5
 25
0.5
 16
0.0
 26
0.0
 36
1.0
 17
0.0
 27
0.0
 37
0.0
 40
131.950704743156
 41
1.60267857142857
 42
50.0
 43
0.0
 44
0.0
 50
0.0
 51
0.0
 71
     0
 72
   100
 73
     1
 74
     3
 75
     0
 76
     0
 77
     0
 78
     0
281
     0
 65
     1
110
0.0
120
0.0
130
0.0
111
1.0
121
0.0
131
0.0
112
0.0
122
1.0
132
0.0
 79
     0
146
0.0
  0
ENDTAB
  0
TABLE
  2
LTYPE
  5
5
330
0
100
AcDbSymbolTable
 70
     9
  0
LTYPE
  5
14
330
5
100
AcDbSymbolTableRecord
100
AcDbLinetypeTableRecord
  2
ByBlock
 70
     0
  3

 72
    65
 73
     0
 40
0.0
  0
LTYPE
  5
15
330
5
100
AcDbSymbolTableRecord
100
AcDbLinetypeTableRecord
  2
ByLayer
 70
     0
  3

 72
    65
 73
     0
 40
0.0
  0
LTYPE
  5
16
330
5
100
AcDbSymbolTableRecord
100
AcDbLinetypeTableRecord
  2
Continuous
 70
     0
  3
Solid line
 72
    65
 73
     0
 40
0.0
  0
LTYPE
  5
3B
330
5
100
AcDbSymbolTableRecord
100
AcDbLinetypeTableRecord
  2
DASHED
 70
     0
  3
Dashed
 72
    65
 73
     2
 40
15.0
 49
7.0
 74
     0
 49
-8.0
 74
     0
  0
LTYPE
  5
3C
330
5
100
AcDbSymbolTableRecord
100
AcDbLinetypeTableRecord
  2
DOTTED
 70
     0
  3
Dotted
 72
    65
 73
     2
 40
1.0
 49
0.0
 74
     0
 49
-1.0
 74
     0
  0
LTYPE
  5
3D
330
5
100
AcDbSymbolTableRecord
100
AcDbLinetypeTableRecord
  2
DOT_CENTER
 70
     0
  3
Dot_Center
 72
    65
 73
     4
 40
14.0
 49
12.0
 74
     0
 49
-1.0
 74
     0
 49
0.0
 74
     0
 49
-1.0
 74
     0
  0
LTYPE
  5
3E
330
5
100
AcDbSymbolTableRecord
100
AcDbLinetypeTableRecord
  2
LONG_DASHED
 70
     0
  3
Long_Dashed
 72
    65
 73
     2
 40
15.0
 49
10.0
 74
     0
 49
-5.0
 74
     0
  0
LTYPE
  5
3F
330
5
100
AcDbSymbolTableRecord
100
AcDbLinetypeTableRecord
  2
DASH_CENTER
 70
     0
  3
Dash_Center
 72
    65
 73
     4
 40
14.0
 49
11.0
 74
     0
 49
-1.0
 74
     0
 49
1.0
 74
     0
 49
-1.0
 74
     0
  0
LTYPE
  5
40
330
5
100
AcDbSymbolTableRecord
100
AcDbLinetypeTableRecord
  2
PHANTOM
 70
     0
  3
Phantom
 72
    65
 73
     6
 40
13.0
 49
10.0
 74
     0
 49
-1.0
 74
     0
 49
0.0
 74
     0
 49
-1.0
 74
     0
 49
0.0
 74
     0
 49
-1.0
 74
     0
  0
LTYPE
  5
41
330
5
100
AcDbSymbolTableRecord
100
AcDbLinetypeTableRecord
  2
CENTER_DASH_DASH
 70
     0
  3
Center_Dash_Dash
 72
    65
 73
     6
 40
14.0
 49
9.0
 74
     0
 49
-1.0
 74
     0
 49
1.0
 74
     0
 49
-1.0
 74
     0
 49
1.0
 74
     0
 49
-1.0
 74
     0
  0
LTYPE
  5
42
330
5
100
AcDbSymbolTableRecord
100
AcDbLinetypeTableRecord
  2
HIDDEN
 70
     0
  3
HIDDEN
 72
    65
 73
     2
 40
4.0
 49
2.0
 74
     0
 49
-2.0
 74
     0
  0
ENDTAB
  0
TABLE
  2
LAYER
  5
2
330
0
100
AcDbSymbolTable
 70
     7
  0
LAYER
  5
10
330
2
100
AcDbSymbolTableRecord
100
AcDbLayerTableRecord
  2
0
 70
     0
 62
     7
  6
Continuous
370
    -3
390
F
  0
LAYER
  5
43
330
2
100
AcDbSymbolTableRecord
100
AcDbLayerTableRecord
  2
1
 70
     0
 62
     7
  6
Continuous
370
    -3
390
F
  0
LAYER
  5
44
330
2
100
AcDbSymbolTableRecord
100
AcDbLayerTableRecord
  2
BEZUGSACHSEN
 70
     0
 62
     7
  6
Continuous
370
    -3
390
F
  0
LAYER
  5
45
330
2
100
AcDbSymbolTableRecord
100
AcDbLayerTableRecord
  2
BOHRUNGEN
 70
     0
 62
     7
  6
Continuous
370
    -3
390
F
  0
LAYER
  5
46
330
2
100
AcDbSymbolTableRecord
100
AcDbLayerTableRecord
  2
FASEN
 70
     0
 62
     7
  6
Continuous
370
    -3
390
F
  0
LAYER
  5
47
330
2
100
AcDbSymbolTableRecord
100
AcDbLayerTableRecord
  2
RUNDUNGEN
 70
     0
 62
     7
  6
Continuous
370
    -3
390
F
  0
LAYER
  5
48
330
2
100
AcDbSymbolTableRecord
100
AcDbLayerTableRecord
  2
TEIL_STARTBEZUEGE
 70
     0
 62
     7
  6
Continuous
370
    -3
390
F
  0
ENDTAB
  0
TABLE
  2
STYLE
  5
3
330
0
100
AcDbSymbolTable
 70
     2
  0
STYLE
  5
11
330
3
100
AcDbSymbolTableRecord
100
AcDbTextStyleTableRecord
  2
Standard
 70
     0
 40
0.0
 41
1.0
 50
0.0
 71
     0
 42
0.2
  3
txt
  4

  0
STYLE
  5
6F
330
3
100
AcDbSymbolTableRecord
100
AcDbTextStyleTableRecord
  2
CONVERTER_11
 70
     0
 40
0.0
 41
0.72
 50
0.0
 71
     0
 42
0.2
  3
txt.shx
  4

  0
ENDTAB
  0
TABLE
  2
VIEW
  5
6
330
0
100
AcDbSymbolTable
 70
     0
  0
ENDTAB
  0
TABLE
  2
UCS
  5
7
330
0
100
AcDbSymbolTable
 70
     0
  0
ENDTAB
  0
TABLE
  2
APPID
  5
9
330
0
100
AcDbSymbolTable
 70
     1
  0
APPID
  5
12
330
9
100
AcDbSymbolTableRecord
100
AcDbRegAppTableRecord
  2
ACAD
 70
     0
  0
ENDTAB
  0
TABLE
  2
DIMSTYLE
  5
A
330
0
100
AcDbSymbolTable
 70
     8
100
AcDbDimStyleTable
  0
DIMSTYLE
105
27
330
A
100
AcDbSymbolTableRecord
100
AcDbDimStyleTableRecord
  2
Standard
 70
     0
340
11
  0
DIMSTYLE
105
115
102
{ACAD_REACTORS
330
116
102
}
330
A
100
AcDbSymbolTableRecord
100
AcDbDimStyleTableRecord
  2
ME10_DIM_10
 70
     0
  3
\U+2300<>
 41
3.5
 42
2.0
 44
2.0
 71
     1
 73
     0
 74
     0
 77
     1
 78
     8
140
3.5
146
0.7
147
2.0
172
     1
173
     1
176
     2
177
     2
178
     3
271
     2
272
     0
340
6F
  0
DIMSTYLE
105
120
102
{ACAD_REACTORS
330
121
102
}
330
A
100
AcDbSymbolTableRecord
100
AcDbDimStyleTableRecord
  2
ME10_DIM_11
 70
     0
  3
\U+2300<>
 41
3.5
 42
2.0
 44
2.0
 71
     1
 73
     0
 74
     0
 77
     1
 78
     8
140
3.5
146
0.7
147
2.0
172
     1
173
     1
176
     2
177
     2
178
     3
271
     2
272
     0
340
6F
  0
DIMSTYLE
105
12B
102
{ACAD_REACTORS
330
12C
102
}
330
A
100
AcDbSymbolTableRecord
100
AcDbDimStyleTableRecord
  2
ME10_DIM_12
 70
     0
  3
\U+2300<>
 41
3.5
 42
2.0
 44
2.0
 71
     1
 73
     0
 74
     0
 77
     1
 78
     8
140
3.5
146
0.7
147
2.0
172
     1
173
     1
176
     2
177
     2
178
     3
271
     2
272
     0
340
6F
  0
DIMSTYLE
105
136
102
{ACAD_REACTORS
330
137
102
}
330
A
100
AcDbSymbolTableRecord
100
AcDbDimStyleTableRecord
  2
ME10_DIM_13
 70
     0
  3
<>
 41
3.5
 42
2.0
 44
2.0
 71
     1
 73
     0
 74
     0
 77
     1
 78
     8
140
3.5
146
0.7
147
2.0
172
     1
173
     1
176
     2
177
     2
178
     3
271
     0
272
     0
340
6F
  0
DIMSTYLE
105
141
102
{ACAD_REACTORS
330
142
102
}
330
A
100
AcDbSymbolTableRecord
100
AcDbDimStyleTableRecord
  2
ME10_DIM_14
 70
     0
  3
<>
 41
3.5
 42
2.0
 44
2.0
 71
     1
 73
     0
 74
     0
 77
     1
 78
     8
140
3.5
146
0.7
147
2.0
172
     1
173
     1
176
     2
177
     2
178
     3
271
     2
272
     0
340
6F
  0
DIMSTYLE
105
14C
102
{ACAD_REACTORS
330
14D
102
}
330
A
100
AcDbSymbolTableRecord
100
AcDbDimStyleTableRecord
  2
ME10_DIM_15
 70
     0
  3
<>
 41
3.5
 42
2.0
 44
2.0
 71
     1
 73
     0
 74
     0
 77
     1
 78
     8
140
3.5
146
0.7
147
2.0
172
     1
173
     1
176
     2
177
     2
178
     3
271
     0
272
     0
340
6F
  0
DIMSTYLE
105
15E
102
{ACAD_REACTORS
330
15F
102
}
330
A
100
AcDbSymbolTableRecord
100
AcDbDimStyleTableRecord
  2
ME10_DIM_16
 70
     0
  3
<>
 41
3.5
 42
2.0
 44
2.0
 71
     1
 73
     0
 74
     0
 77
     1
 78
     8
140
3.5
146
0.7
147
2.0
172
     1
173
     1
176
     2
177
     2
178
     3
271
     2
272
     0
340
6F
  0
ENDTAB
  0
TABLE
  2
BLOCK_RECORD
  5
1
330
0
100
AcDbSymbolTable
 70
    10
  0
BLOCK_RECORD
  5
1F
330
1
100
AcDbSymbolTableRecord
100
AcDbBlockTableRecord
  2
*Model_Space
340
22
  0
BLOCK_RECORD
  5
1B
330
1
100
AcDbSymbolTableRecord
100
AcDbBlockTableRecord
  2
*Paper_Space
340
1E
  0
BLOCK_RECORD
  5
23
330
1
100
AcDbSymbolTableRecord
100
AcDbBlockTableRecord
  2
*Paper_Space0
340
26
  0
BLOCK_RECORD
  5
49
330
1
100
AcDbSymbolTableRecord
100
AcDbBlockTableRecord
  2
Urheberrecht_DE-EN
340
0
102
{BLKREFS
331
6E
102
}
  0
BLOCK_RECORD
  5
10C
330
1
100
AcDbSymbolTableRecord
100
AcDbBlockTableRecord
  2
*D2
340
0
  0
BLOCK_RECORD
  5
117
330
1
100
AcDbSymbolTableRecord
100
AcDbBlockTableRecord
  2
*D3
340
0
  0
BLOCK_RECORD
  5
122
330
1
100
AcDbSymbolTableRecord
100
AcDbBlockTableRecord
  2
*D4
340
0
  0
BLOCK_RECORD
  5
12D
330
1
100
AcDbSymbolTableRecord
100
AcDbBlockTableRecord
  2
*D5
340
0
  0
BLOCK_RECORD
  5
138
330
1
100
AcDbSymbolTableRecord
100
AcDbBlockTableRecord
  2
*D6
340
0
  0
BLOCK_RECORD
  5
143
330
1
100
AcDbSymbolTableRecord
100
AcDbBlockTableRecord
  2
*D7
340
0
  0
BLOCK_RECORD
  5
14E
330
1
100
AcDbSymbolTableRecord
100
AcDbBlockTableRecord
  2
*D8
340
0
102
{BLKREFS
331
154
102
}
  0
BLOCK_RECORD
  5
155
330
1
100
AcDbSymbolTableRecord
100
AcDbBlockTableRecord
  2
*D9
340
0
  0
ENDTAB
  0
ENDSEC
  0
SECTION
  2
BLOCKS
  0
BLOCK
  5
20
330
1F
100
AcDbEntity
  8
0
100
AcDbBlockBegin
  2
*Model_Space
 70
     0
 10
0.0
 20
0.0
 30
0.0
  3
*Model_Space
  1

  0
ENDBLK
  5
21
330
1F
100
AcDbEntity
  8
0
100
AcDbBlockEnd
  0
BLOCK
  5
1C
330
1B
100
AcDbEntity
 67
     1
  8
0
100
AcDbBlockBegin
  2
*Paper_Space
 70
     0
 10
0.0
 20
0.0
 30
0.0
  3
*Paper_Space
  1

  0
ENDBLK
  5
1D
330
1B
100
AcDbEntity
 67
     1
  8
0
100
AcDbBlockEnd
  0
BLOCK
  5
24
330
23
100
AcDbEntity
  8
0
100
AcDbBlockBegin
  2
*Paper_Space0
 70
     0
 10
0.0
 20
0.0
 30
0.0
  3
*Paper_Space0
  1

  0
ENDBLK
  5
25
330
23
100
AcDbEntity
  8
0
100
AcDbBlockEnd
  0
BLOCK
  5
4A
330
49
100
AcDbEntity
  8
0
100
AcDbBlockBegin
  2
Urheberrecht_DE-EN
 70
     0
 10
45.35356444005
 20
131.228873280326
 30
0.0
  3
Urheberrecht_DE-EN
  1

  0
MTEXT
  5
70
330
49
100
AcDbEntity
  8
1
 62
     1
100
AcDbMText
 10
45.35356444005
 20
131.228873280326
 30
0.0
 40
2.0
 41
0.0
 71
     7
 72
     1
  1
We own the copyright of this document. It \Pdetermined and may neither be copied or \Pmade accessible to outsiders without our\Ppermission.
  7
CONVERTER_11
 11
0.0
 21
1.0
 31
0.0
 73
     1
 44
0.90036014405762
  0
MTEXT
  5
71
330
49
100
AcDbEntity
  8
1
 62
     1
100
AcDbMText
 10
45.35356444005
 20
74.93948636301982
 30
0.0
 40
2.0
 41
0.0
 71
     7
 72
     1
  1
F\U+00fcr diese Unterlage behalten wir das Ur-\Pheberrecht. Sie darf nur f\U+00fcr den von uns \Pbestimmten Zweck benutzt und ohne unsere \PZustimmung weder vervielf\U+00e4ltigt noch\PDritten zug\U+00e4nglich gemacht werden.
  7
CONVERTER_11
 11
0.0
 21
1.0
 31
0.0
 73
     1
 44
0.90036014405762
  0
ENDBLK
  5
4B
330
49
100
AcDbEntity
  8
0
100
AcDbBlockEnd
  0
BLOCK
  5
113
330
10C
100
AcDbEntity
  8
0
100
AcDbBlockBegin
  2
*D2
 70
     1
 10
0.0
 20
0.0
 30
0.0
  3
*D2
  1

  0
LINE
  5
10D
330
10C
100
AcDbEntity
  8
1
  6
Continuous
 62
     2
100
AcDbLine
 10
204.127515644463
 20
118.5124464668
 30
0.0
 11
204.127515644463
 21
106.5124464668
 31
0.0
  0
LINE
  5
10E
330
10C
100
AcDbEntity
  8
1
  6
Continuous
 62
     2
100
AcDbLine
 10
194.3394539615
 20
118.5124464668
 30
0.0
 11
206.127515644463
 21
118.5124464668
 31
0.0
  0
LINE
  5
10F
330
10C
100
AcDbEntity
  8
1
  6
Continuous
 62
     2
100
AcDbLine
 10
194.3394539615
 20
106.5124464668
 30
0.0
 11
206.127515644463
 21
106.5124464668
 31
0.0
  0
SOLID
  5
110
330
10C
100
AcDbEntity
  8
1
 62
     2
100
AcDbTrace
 10
204.5882993860189
 20
115.0124464668
 30
0.0
 11
203.6667319029071
 21
115.0124464668
 31
0.0
 12
204.127515644463
 22
118.5124464668
 32
0.0
 13
204.127515644463
 23
118.5124464668
 33
0.0
  0
SOLID
  5
111
330
10C
100
AcDbEntity
  8
1
 62
     2
100
AcDbTrace
 10
203.6667319029071
 20
110.0124464668
 30
0.0
 11
204.5882993860189
 21
110.0124464668
 31
0.0
 12
204.127515644463
 22
106.5124464668
 32
0.0
 13
204.127515644463
 23
106.5124464668
 33
0.0
  0
MTEXT
  5
112
330
10C
100
AcDbEntity
  8
1
 62
     3
100
AcDbMText
 10
202.127515644463
 20
104.119948868887
 30
0.0
 40
3.5
 41
0.0
 71
     7
 72
     1
  1
\C3;%%c\C3;\C3;12\C2;\H2.45;\S^ ;\C3;
  7
CONVERTER_11
 11
0.0
 21
1.0
 31
0.0
 73
     1
 44
0.60024009603842
  0
ENDBLK
  5
114
330
10C
100
AcDbEntity
  8
0
100
AcDbBlockEnd
  0
BLOCK
  5
11E
330
117
100
AcDbEntity
  8
0
100
AcDbBlockBegin
  2
*D3
 70
     1
 10
0.0
 20
0.0
 30
0.0
  3
*D3
  1

  0
LINE
  5
118
330
117
100
AcDbEntity
  8
1
  6
Continuous
 62
     2
100
AcDbLine
 10
213.593495510929
 20
124.5124464668466
 30
0.0
 11
213.593495510929
 21
100.5124464667559
 31
0.0
  0
LINE
  5
119
330
117
100
AcDbEntity
  8
1
  6
Continuous
 62
     2
100
AcDbLine
 10
194.3394539615
 20
124.5124464668466
 30
0.0
 11
215.593495510929
 21
124.5124464668466
 31
0.0
  0
LINE
  5
11A
330
117
100
AcDbEntity
  8
1
  6
Continuous
 62
     2
100
AcDbLine
 10
194.3394539615
 20
100.5124464667559
 30
0.0
 11
215.593495510929
 21
100.5124464667559
 31
0.0
  0
SOLID
  5
11B
330
117
100
AcDbEntity
  8
1
 62
     2
100
AcDbTrace
 10
214.0542792524849
 20
121.0124464668466
 30
0.0
 11
213.1327117693731
 21
121.0124464668466
 31
0.0
 12
213.593495510929
 22
124.5124464668466
 32
0.0
 13
213.593495510929
 23
124.5124464668466
 33
0.0
  0
SOLID
  5
11C
330
117
100
AcDbEntity
  8
1
 62
     2
100
AcDbTrace
 10
213.1327117693731
 20
104.0124464667559
 30
0.0
 11
214.0542792524849
 21
104.0124464667559
 31
0.0
 12
213.593495510929
 22
100.5124464667559
 32
0.0
 13
213.593495510929
 23
100.5124464667559
 33
0.0
  0
MTEXT
  5
11D
330
117
100
AcDbEntity
  8
1
 62
     3
100
AcDbMText
 10
211.593495510929
 20
103.578590152651
 30
0.0
 40
3.5
 41
0.0
 71
     7
 72
     1
  1
\C3;%%c\C3;\C3;24\C2;\H2.45;\S^ ;\C3;
  7
CONVERTER_11
 11
0.0
 21
1.0
 31
0.0
 73
     1
 44
0.60024009603842
  0
ENDBLK
  5
11F
330
117
100
AcDbEntity
  8
0
100
AcDbBlockEnd
  0
BLOCK
  5
129
330
122
100
AcDbEntity
  8
0
100
AcDbBlockBegin
  2
*D4
 70
     1
 10
0.0
 20
0.0
 30
0.0
  3
*D4
  1

  0
LINE
  5
123
330
122
100
AcDbEntity
  8
1
  6
Continuous
 62
     2
100
AcDbLine
 10
221.603170782554
 20
128.5124464668
 30
0.0
 11
221.603170782554
 21
96.5124464668
 31
0.0
  0
LINE
  5
124
330
122
100
AcDbEntity
  8
1
  6
Continuous
 62
     2
100
AcDbLine
 10
143.5146350168
 20
128.5124464668
 30
0.0
 11
223.603170782554
 21
128.5124464668
 31
0.0
  0
LINE
  5
125
330
122
100
AcDbEntity
  8
1
  6
Continuous
 62
     2
100
AcDbLine
 10
143.5146350168
 20
96.5124464668
 30
0.0
 11
223.603170782554
 21
96.5124464668
 31
0.0
  0
SOLID
  5
126
330
122
100
AcDbEntity
  8
1
 62
     2
100
AcDbTrace
 10
222.0639545241099
 20
125.0124464668
 30
0.0
 11
221.1423870409981
 21
125.0124464668
 31
0.0
 12
221.603170782554
 22
128.5124464668
 32
0.0
 13
221.603170782554
 23
128.5124464668
 33
0.0
  0
SOLID
  5
127
330
122
100
AcDbEntity
  8
1
 62
     2
100
AcDbTrace
 10
221.1423870409981
 20
100.0124464668
 30
0.0
 11
222.0639545241099
 21
100.0124464668
 31
0.0
 12
221.603170782554
 22
96.5124464668
 32
0.0
 13
221.603170782554
 23
96.5124464668
 33
0.0
  0
MTEXT
  5
128
330
122
100
AcDbEntity
  8
1
 62
     3
100
AcDbMText
 10
219.603170782554
 20
103.335872720177
 30
0.0
 40
3.5
 41
0.0
 71
     7
 72
     1
  1
\C3;%%c\C3;\C3;32\C2;\H2.45;\S^ ;\C3;
  7
CONVERTER_11
 11
0.0
 21
1.0
 31
0.0
 73
     1
 44
0.60024009603842
  0
ENDBLK
  5
12A
330
122
100
AcDbEntity
  8
0
100
AcDbBlockEnd
  0
BLOCK
  5
134
330
12D
100
AcDbEntity
  8
0
100
AcDbBlockBegin
  2
*D5
 70
     1
 10
0.0
 20
0.0
 30
0.0
  3
*D5
  1

  0
LINE
  5
12E
330
12D
100
AcDbEntity
  8
1
  6
Continuous
 62
     2
100
AcDbLine
 10
192.3394539615
 20
162.069305093476
 30
0.0
 11
123.2894539615
 21
162.069305093476
 31
0.0
  0
LINE
  5
12F
330
12D
100
AcDbEntity
  8
1
  6
Continuous
 62
     2
100
AcDbLine
 10
192.3394539615
 20
125.5880559752
 30
0.0
 11
192.3394539615
 21
164.069305093476
 31
0.0
  0
LINE
  5
130
330
12D
100
AcDbEntity
  8
1
  6
Continuous
 62
     2
100
AcDbLine
 10
123.2894539615
 20
154.5124041726
 30
0.0
 11
123.2894539615
 21
164.069305093476
 31
0.0
  0
SOLID
  5
131
330
12D
100
AcDbEntity
  8
1
 62
     2
100
AcDbTrace
 10
188.8394539615
 20
161.6085213519201
 30
0.0
 11
188.8394539615
 21
162.5300888350319
 31
0.0
 12
192.3394539615
 22
162.069305093476
 32
0.0
 13
192.3394539615
 23
162.069305093476
 33
0.0
  0
SOLID
  5
132
330
12D
100
AcDbEntity
  8
1
 62
     2
100
AcDbTrace
 10
126.7894539615
 20
162.5300888350319
 30
0.0
 11
126.7894539615
 21
161.6085213519201
 31
0.0
 12
123.2894539615
 22
162.069305093476
 32
0.0
 13
123.2894539615
 23
162.069305093476
 33
0.0
  0
MTEXT
  5
133
330
12D
100
AcDbEntity
  8
1
 62
     3
100
AcDbMText
 10
154.697616312136
 20
164.069305093476
 30
0.0
 40
3.5
 41
0.0
 71
     7
 72
     1
  1
\C3;\C3;\C3;69\C2;\H2.45;\S^ ;\C3;
  7
CONVERTER_11
 11
0.9999999999970619
 21
2.424068405545306E-6
 31
0.0
 73
     1
 44
0.60024009603842
  0
ENDBLK
  5
135
330
12D
100
AcDbEntity
  8
0
100
AcDbBlockEnd
  0
BLOCK
  5
13F
330
138
100
AcDbEntity
  8
0
100
AcDbBlockBegin
  2
*D6
 70
     1
 10
0.0
 20
0.0
 30
0.0
  3
*D6
  1

  0
LINE
  5
139
330
138
100
AcDbEntity
  8
1
  6
Continuous
 62
     2
100
AcDbLine
 10
192.3394539615
 20
169.714904216391
 30
0.0
 11
97.3394539615
 21
169.714904216391
 31
0.0
  0
LINE
  5
13A
330
138
100
AcDbEntity
  8
1
  6
Continuous
 62
     2
100
AcDbLine
 10
192.3394539615
 20
125.5880559752
 30
0.0
 11
192.3394539615
 21
171.714904216391
 31
0.0
  0
LINE
  5
13B
330
138
100
AcDbEntity
  8
1
  6
Continuous
 62
     2
100
AcDbLine
 10
97.3394539615
 20
154.5124464668
 30
0.0
 11
97.3394539615
 21
171.714904216391
 31
0.0
  0
SOLID
  5
13C
330
138
100
AcDbEntity
  8
1
 62
     2
100
AcDbTrace
 10
188.8394539615
 20
169.2541204748351
 30
0.0
 11
188.8394539615
 21
170.1756879579469
 31
0.0
 12
192.3394539615
 22
169.714904216391
 32
0.0
 13
192.3394539615
 23
169.714904216391
 33
0.0
  0
SOLID
  5
13D
330
138
100
AcDbEntity
  8
1
 62
     2
100
AcDbTrace
 10
100.8394539615
 20
170.1756879579469
 30
0.0
 11
100.8394539615
 21
169.2541204748351
 31
0.0
 12
97.3394539615
 22
169.714904216391
 32
0.0
 13
97.3394539615
 23
169.714904216391
 33
0.0
  0
MTEXT
  5
13E
330
138
100
AcDbEntity
  8
1
 62
     3
100
AcDbMText
 10
141.105440093621
 20
171.714904216391
 30
0.0
 40
3.5
 41
0.0
 71
     7
 72
     1
  1
\C3;\C3;\C3;95\C2;\H2.45;\S^ ;\C3;
  7
CONVERTER_11
 11
0.9999999999970619
 21
2.424068405545306E-6
 31
0.0
 73
     1
 44
0.60024009603842
  0
ENDBLK
  5
140
330
138
100
AcDbEntity
  8
0
100
AcDbBlockEnd
  0
BLOCK
  5
14A
330
143
100
AcDbEntity
  8
0
100
AcDbBlockBegin
  2
*D7
 70
     1
 10
0.0
 20
0.0
 30
0.0
  3
*D7
  1

  0
LINE
  5
144
330
143
100
AcDbEntity
  8
1
  6
Continuous
 62
     2
100
AcDbLine
 10
192.3394539615
 20
177.845938204252
 30
0.0
 11
57.43945396149999
 21
177.845938204252
 31
0.0
  0
LINE
  5
145
330
143
100
AcDbEntity
  8
1
  6
Continuous
 62
     2
100
AcDbLine
 10
192.3394539615
 20
125.5880559752
 30
0.0
 11
192.3394539615
 21
179.845938204252
 31
0.0
  0
LINE
  5
146
330
143
100
AcDbEntity
  8
1
  6
Continuous
 62
     2
100
AcDbLine
 10
57.43945396149999
 20
141.3983672669
 30
0.0
 11
57.43945396149999
 21
179.845938204252
 31
0.0
  0
SOLID
  5
147
330
143
100
AcDbEntity
  8
1
 62
     2
100
AcDbTrace
 10
188.8394539615
 20
177.3851544626961
 30
0.0
 11
188.8394539615
 21
178.3067219458079
 31
0.0
 12
192.3394539615
 22
177.845938204252
 32
0.0
 13
192.3394539615
 23
177.845938204252
 33
0.0
  0
SOLID
  5
148
330
143
100
AcDbEntity
  8
1
 62
     2
100
AcDbTrace
 10
60.93945396149999
 20
178.3067219458079
 30
0.0
 11
60.93945396149999
 21
177.3851544626961
 31
0.0
 12
57.43945396149999
 22
177.845938204252
 32
0.0
 13
57.43945396149999
 23
177.845938204252
 33
0.0
  0
MTEXT
  5
149
330
143
100
AcDbEntity
  8
1
 62
     3
100
AcDbMText
 10
127.522774888764
 20
179.845938204252
 30
0.0
 40
3.5
 41
0.0
 71
     7
 72
     1
  1
\C3;\C3;\C3;135\C2;\H2.45;\S^ ;\C3;
  7
CONVERTER_11
 11
0.9999999999970619
 21
2.424068405545306E-6
 31
0.0
 73
     1
 44
0.60024009603842
  0
ENDBLK
  5
14B
330
143
100
AcDbEntity
  8
0
100
AcDbBlockEnd
  0
BLOCK
  5
152
330
14E
100
AcDbEntity
  8
0
100
AcDbBlockBegin
  2
*D8
 70
     1
 10
0.0
 20
0.0
 30
0.0
  3
*D8
  1

  0
LINE
  5
14F
330
14E
100
AcDbEntity
  8
1
  6
Continuous
 62
     2
100
AcDbLine
 10
133.9545090168772
 20
139.8115220975263
 30
0.0
 11
125.3247917362537
 21
130.0089529962036
 31
0.0
  0
SOLID
  5
150
330
14E
100
AcDbEntity
  8
1
 62
     2
100
AcDbTrace
 10
127.2916552724051
 20
132.9404661697439
 30
0.0
 11
127.9833674628897
 21
132.3315155383591
 31
0.0
 12
125.3247917362537
 22
130.0089529962036
 32
0.0
 13
125.3247917362537
 23
130.0089529962036
 33
0.0
  0
MTEXT
  5
151
330
14E
100
AcDbEntity
  8
1
 62
     3
100
AcDbMText
 10
127.5503789081237
 20
135.5637559139708
 30
0.0
 40
3.5
 41
0.0
 71
     7
 72
     1
  1
\C3; R\C3;\C3;6\C2;\H2.45;\S^ ;\C3;
  7
CONVERTER_11
 11
0.6607770375410601
 21
0.7505822450994031
 31
0.0
 73
     1
 44
0.60024009603842
  0
ENDBLK
  5
153
330
14E
100
AcDbEntity
  8
0
100
AcDbBlockEnd
  0
BLOCK
  5
15C
330
155
100
AcDbEntity
  8
0
100
AcDbBlockBegin
  2
*D9
 70
     1
 10
0.0
 20
0.0
 30
0.0
  3
*D9
  1

  0
LINE
  5
156
330
155
100
AcDbEntity
  8
1
  6
Continuous
 62
     2
100
AcDbLine
 10
175.1784377361406
 20
128.5124464667999
 30
0.0
 11
177.1784377361406
 21
128.5124464667999
 31
0.0
  0
LINE
  5
157
330
155
100
AcDbEntity
  8
1
  6
Continuous
 62
     2
100
AcDbLine
 10
143.5146350168
 20
128.5124464667999
 30
0.0
 11
175.1784377361406
 21
128.5124464667999
 31
0.0
  0
ARC
  5
158
330
155
100
AcDbEntity
  8
1
  6
Continuous
 62
     2
100
AcDbCircle
 10
141.5146350168
 20
128.5124464667999
 30
0.0
 40
33.66380271934056
100
AcDbArc
 50
346.5645019830163
 51
18.04884070313241
  0
SOLID
  5
159
330
155
100
AcDbEntity
  8
1
 62
     2
100
AcDbTrace
 10
175.0759882009772
 20
122.3410138332228
 30
0.0
 11
174.1622597805556
 21
122.4609596528366
 31
0.0
 12
175.0746634670842
 22
125.8712149466953
 32
0.0
 13
175.0746634670842
 23
125.8712149466953
 33
0.0
  0
SOLID
  5
15A
330
155
100
AcDbEntity
  8
1
 62
     2
100
AcDbTrace
 10
174.5364122322338
 20
131.9837754498863
 30
0.0
 11
175.4567347734199
 21
132.0316612109614
 31
0.0
 12
175.1784377361406
 22
128.5124464667999
 32
0.0
 13
175.1784377361406
 23
128.5124464667999
 33
0.0
  0
MTEXT
  5
15B
330
155
100
AcDbEntity
  8
1
 62
     3
100
AcDbMText
 10
175.5896870595018
 20
139.6162240983633
 30
0.0
 40
3.5
 41
0.0
 71
     7
 72
     1
  1
\C3;\C3;\C3;4.5%%d\C2;\H2.45;\S^ ;\C3;
  7
CONVERTER_11
 11
0.2145336123644407
 21
-0.9767166063735498
 31
0.0
 73
     1
 44
0.60024009603842
  0
ENDBLK
  5
15D
330
155
100
AcDbEntity
  8
0
100
AcDbBlockEnd
  0
ENDSEC
  0
SECTION
  2
ENTITIES
  0
INSERT
  5
6E
330
1F
100
AcDbEntity
  8
0
100
AcDbBlockReference
  2
Urheberrecht_DE-EN
 10
45.35356444005
 20
131.228873280326
 30
0.0
  0
LINE
  5
72
330
1F
100
AcDbEntity
  8
0
  6
Continuous
 62
     7
100
AcDbLine
 10
57.4394539615
 20
85.6265255619
 30
0.0
 11
57.4394539615
 21
102.8424464668
 31
0.0
  0
LINE
  5
73
330
1F
100
AcDbEntity
  8
0
  6
Continuous
 62
     7
100
AcDbLine
 10
57.4394539615
 20
122.1824464668
 30
0.0
 11
57.4394539615
 21
139.3983672669
 31
0.0
  0
LINE
  5
74
330
1F
100
AcDbEntity
  8
0
  6
Continuous
 62
     9
100
AcDbLine
 10
58.9593943737
 20
140.9964054815
 30
0.0
 11
58.9593943737
 21
124.540061407
 31
0.0
  0
LINE
  5
75
330
1F
100
AcDbEntity
  8
0
  6
Continuous
 62
     9
100
AcDbLine
 10
58.9593943737
 20
100.4848315267
 30
0.0
 11
58.9593943737
 21
84.0284874522
 31
0.0
  0
LINE
  5
76
330
1F
100
AcDbEntity
  8
0
  6
Continuous
 62
     7
100
AcDbLine
 10
59.0894539615
 20
102.86839089
 30
0.0
 11
59.0894539615
 21
104.4924464668
 31
0.0
  0
LINE
  5
77
330
1F
100
AcDbEntity
  8
0
  6
Continuous
 62
     7
100
AcDbLine
 10
59.0894539615
 20
120.5324464668
 30
0.0
 11
59.0894539615
 21
122.1565020436
 31
0.0
  0
LINE
  5
78
330
1F
100
AcDbEntity
  8
RUNDUNGEN
  6
Continuous
 62
     9
100
AcDbLine
 10
63.6394539615
 20
99.9396257147
 30
0.0
 11
63.6394539615
 21
104.4924464668
 31
0.0
  0
LINE
  5
79
330
1F
100
AcDbEntity
  8
RUNDUNGEN
  6
Continuous
 62
     9
100
AcDbLine
 10
63.6394539615
 20
120.5324464668
 30
0.0
 11
63.6394539615
 21
125.0852672189
 31
0.0
  0
LINE
  5
7A
330
1F
100
AcDbEntity
  8
RUNDUNGEN
  6
Continuous
 62
     7
100
AcDbLine
 10
65.5394539615
 20
122.0177886932
 30
0.0
 11
65.5394539615
 21
103.0071042404
 31
0.0
  0
LWPOLYLINE
  5
7B
330
1F
100
AcDbEntity
  8
BEZUGSACHSEN
  6
DOT_CENTER
 62
     7
100
AcDbPolyline
 90
        2
 70
     0
 43
0.25
 10
85.3394539615
 20
105.2624464668
 10
85.3394539615
 20
119.7624464668
  0
LINE
  5
7C
330
1F
100
AcDbEntity
  8
0
  6
Continuous
 62
     7
100
AcDbLine
 10
57.4394539615
 20
102.8424464668
 30
0.0
 11
59.0894539615
 21
104.4924464668
 31
0.0
  0
LINE
  5
7D
330
1F
100
AcDbEntity
  8
0
  6
Continuous
 62
     7
100
AcDbLine
 10
111.8031835627
 20
72.5124464668
 30
0.0
 11
97.3394539615
 21
72.5124464668
 31
0.0
  0
LINE
  5
7E
330
1F
100
AcDbEntity
  8
0
  6
Continuous
 62
     7
100
AcDbLine
 10
118.8757243602
 20
72.5124464668
 30
0.0
 11
123.2894539615
 21
72.5124464668
 31
0.0
  0
LINE
  5
7F
330
1F
100
AcDbEntity
  8
0
  6
Continuous
 62
     7
100
AcDbLine
 10
59.0894539615
 20
120.5324464668
 30
0.0
 11
57.4394539615
 21
122.1824464668
 31
0.0
  0
LINE
  5
80
330
1F
100
AcDbEntity
  8
0
  6
Continuous
 62
     7
100
AcDbLine
 10
114.1769539615
 20
77.5374464668
 30
0.0
 11
116.5019539615
 21
77.5374464668
 31
0.0
  0
LINE
  5
81
330
1F
100
AcDbEntity
  8
FASEN
  6
Continuous
 62
     7
100
AcDbLine
 10
102.1494711939
 20
81.2874564748
 30
0.0
 11
111.8031835627
 21
81.2874564748
 31
0.0
  0
LINE
  5
82
330
1F
100
AcDbEntity
  8
0
  6
Continuous
 62
     7
100
AcDbLine
 10
118.8757243602
 20
81.2874564748
 30
0.0
 11
123.2894539615
 21
81.2874564748
 31
0.0
  0
LINE
  5
83
330
1F
100
AcDbEntity
  8
0
  6
Continuous
 62
     7
100
AcDbLine
 10
94.8394539615
 20
82.2308964668
 30
0.0
 11
58.9593943737
 21
84.0284874522
 31
0.0
  0
LINE
  5
84
330
1F
100
AcDbEntity
  8
0
  6
Continuous
 62
     7
100
AcDbLine
 10
94.8394539615
 20
142.7939964668
 30
0.0
 11
94.8394539615
 21
82.2308964668
 31
0.0
  0
LINE
  5
85
330
1F
100
AcDbEntity
  8
0
  6
Continuous
 62
     9
100
AcDbLine
 10
95.4586975755
 20
82.3968222931
 30
0.0
 11
95.4586975755
 21
142.6280706405
 31
0.0
  0
LINE
  5
86
330
1F
100
AcDbEntity
  8
0
  6
Continuous
 62
     9
100
AcDbLine
 10
95.7175166206
 20
82.4308964668
 30
0.0
 11
95.7175166206
 21
142.5939964668
 31
0.0
  0
LINE
  5
87
330
1F
100
AcDbEntity
  8
0
  6
Continuous
 62
     9
100
AcDbLine
 10
96.6388826728
 20
82.4308964668
 30
0.0
 11
96.6388826728
 21
142.5939964668
 31
0.0
  0
LINE
  5
88
330
1F
100
AcDbEntity
  8
0
  6
Continuous
 62
     7
100
AcDbLine
 10
97.3394539615
 20
152.5124464668
 30
0.0
 11
97.3394539615
 21
72.5124464668
 31
0.0
  0
LINE
  5
89
330
1F
100
AcDbEntity
  8
0
  6
Continuous
 62
     7
100
AcDbLine
 10
96.6388826728
 20
82.4308964668
 30
0.0
 11
95.7175166206
 21
82.4308964668
 31
0.0
  0
LWPOLYLINE
  5
8A
330
1F
100
AcDbEntity
  8
BEZUGSACHSEN
  6
DOT_CENTER
 62
     7
100
AcDbPolyline
 90
        2
 70
     0
 43
0.25
 10
104.3394539615
 20
144.5987161328
 10
104.3394539615
 20
155.5124464668
  0
LINE
  5
8B
330
1F
100
AcDbEntity
  8
0
  6
Continuous
 62
     7
100
AcDbLine
 10
117.2519539615
 20
149.6999936363
 30
0.0
 11
118.8757243602
 21
152.5124464668
 31
0.0
  0
LINE
  5
8C
330
1F
100
AcDbEntity
  8
0
  6
Continuous
 62
     9
100
AcDbLine
 10
57.4394539615
 20
101.9090330812
 30
0.0
 11
59.0894539615
 21
102.86839089
 31
0.0
  0
LINE
  5
8D
330
1F
100
AcDbEntity
  8
0
  6
Continuous
 62
     7
100
AcDbLine
 10
95.4586975755
 20
82.3968222931
 30
0.0
 11
94.8394539615
 21
82.2308964668
 31
0.0
  0
LINE
  5
8E
330
1F
100
AcDbEntity
  8
FASEN
  6
Continuous
 62
     7
100
AcDbLine
 10
110.2894539615
 20
87.1124464668
 30
0.0
 11
113.4318658992
 21
87.1124464668
 31
0.0
  0
LINE
  5
8F
330
1F
100
AcDbEntity
  8
FASEN
  6
Continuous
 62
     7
100
AcDbLine
 10
117.2470420238
 20
87.1124464668
 30
0.0
 11
123.2894539615
 21
87.1124464668
 31
0.0
  0
LINE
  5
90
330
1F
100
AcDbEntity
  8
0
  6
Continuous
 62
     7
100
AcDbLine
 10
110.2894539615
 20
87.5124464668
 30
0.0
 11
113.4269539615
 21
87.5124464668
 31
0.0
  0
LINE
  5
91
330
1F
100
AcDbEntity
  8
0
  6
Continuous
 62
     7
100
AcDbLine
 10
117.2519539615
 20
87.5124464668
 30
0.0
 11
123.2894539615
 21
87.5124464668
 31
0.0
  0
LINE
  5
92
330
1F
100
AcDbEntity
  8
0
  6
Continuous
 62
     9
100
AcDbLine
 10
59.0894539615
 20
122.1565020436
 30
0.0
 11
57.4394539615
 21
123.1158598524
 31
0.0
  0
LINE
  5
93
330
1F
100
AcDbEntity
  8
0
  6
Continuous
 62
     7
100
AcDbLine
 10
117.2519539615
 20
75.3248992973
 30
0.0
 11
118.8757243602
 21
72.5124464668
 31
0.0
  0
LINE
  5
94
330
1F
100
AcDbEntity
  8
0
  6
Continuous
 62
     7
100
AcDbLine
 10
141.5146350168
 20
96.5124464668
 30
0.0
 11
191.4179130572
 21
100.4399196247
 31
0.0
  0
LINE
  5
95
330
1F
100
AcDbEntity
  8
0
  6
Continuous
 62
     7
100
AcDbLine
 10
129.2894539615
 20
96.5124464668
 30
0.0
 11
141.5146350168
 21
96.5124464668
 31
0.0
  0
LINE
  5
96
330
1F
100
AcDbEntity
  8
FASEN
  6
Continuous
 62
     9
100
AcDbLine
 10
110.2894539615
 20
103.9124464668
 30
0.0
 11
110.2894539615
 21
103.5124464668
 31
0.0
  0
LINE
  5
97
330
1F
100
AcDbEntity
  8
FASEN
  6
Continuous
 62
     9
100
AcDbLine
 10
110.2894539615
 20
87.1124464668
 30
0.0
 11
110.2894539646
 21
87.5124464668
 31
0.0
  0
LINE
  5
98
330
1F
100
AcDbEntity
  8
FASEN
  6
Continuous
 62
     9
100
AcDbLine
 10
110.2894539615
 20
121.1124464668
 30
0.0
 11
110.2894539717
 21
121.5124464668
 31
0.0
  0
LINE
  5
99
330
1F
100
AcDbEntity
  8
0
  6
Continuous
 62
     7
100
AcDbLine
 10
111.8031835627
 20
152.5124464668
 30
0.0
 11
111.8031835627
 21
121.5124464668
 31
0.0
  0
LINE
  5
9A
330
1F
100
AcDbEntity
  8
0
  6
Continuous
 62
     7
100
AcDbLine
 10
111.8031835627
 20
103.5124464668
 30
0.0
 11
111.8031835627
 21
87.5124464668
 31
0.0
  0
LINE
  5
9B
330
1F
100
AcDbEntity
  8
0
  6
Continuous
 62
     7
100
AcDbLine
 10
111.8031835627
 20
81.2874564748
 30
0.0
 11
111.8031835627
 21
72.5124464668
 31
0.0
  0
LINE
  5
9C
330
1F
100
AcDbEntity
  8
0
  6
Continuous
 62
     7
100
AcDbLine
 10
113.4269539615
 20
149.6999789558
 30
0.0
 11
113.4269539615
 21
121.5124464668
 31
0.0
  0
LINE
  5
9D
330
1F
100
AcDbEntity
  8
0
  6
Continuous
 62
     7
100
AcDbLine
 10
113.4269539615
 20
103.5124464668
 30
0.0
 11
113.4269539615
 21
87.5124464668
 31
0.0
  0
LINE
  5
9E
330
1F
100
AcDbEntity
  8
0
  6
Continuous
 62
     7
100
AcDbLine
 10
113.4269539615
 20
75.3249321114
 30
0.0
 11
113.4269539615
 21
86.9923440963
 31
0.0
  0
LINE
  5
9F
330
1F
100
AcDbEntity
  8
0
  6
Continuous
 62
     9
100
AcDbLine
 10
114.1769539615
 20
77.5374464668
 30
0.0
 11
114.1769539615
 21
104.3117986265
 31
0.0
  0
LINE
  5
A0
330
1F
100
AcDbEntity
  8
0
  6
Continuous
 62
     9
100
AcDbLine
 10
114.1769539615
 20
120.7130943071
 30
0.0
 11
114.1769539615
 21
147.4874464668
 31
0.0
  0
LINE
  5
A1
330
1F
100
AcDbEntity
  8
RUNDUNGEN
  6
Continuous
 62
     9
100
AcDbLine
 10
64.778957643
 20
100.6124464668
 30
0.0
 11
58.621123949
 21
100.6124464668
 31
0.0
  0
LINE
  5
A2
330
1F
100
AcDbEntity
  8
0
  6
Continuous
 62
     9
100
AcDbLine
 10
116.5019539615
 20
77.5374464668
 30
0.0
 11
116.5019539615
 21
104.3117986265
 31
0.0
  0
LINE
  5
A3
330
1F
100
AcDbEntity
  8
0
  6
Continuous
 62
     9
100
AcDbLine
 10
116.5019539615
 20
120.7130943071
 30
0.0
 11
116.5019539615
 21
147.4874464668
 31
0.0
  0
LINE
  5
A4
330
1F
100
AcDbEntity
  8
0
  6
Continuous
 62
     7
100
AcDbLine
 10
117.2519539615
 20
75.3249321114
 30
0.0
 11
117.2519539615
 21
86.9923440963
 31
0.0
  0
LINE
  5
A5
330
1F
100
AcDbEntity
  8
0
  6
Continuous
 62
     7
100
AcDbLine
 10
117.2519539615
 20
87.5124464668
 30
0.0
 11
117.2519539615
 21
103.5124464668
 31
0.0
  0
LINE
  5
A6
330
1F
100
AcDbEntity
  8
0
  6
Continuous
 62
     7
100
AcDbLine
 10
117.2519539615
 20
121.5124464668
 30
0.0
 11
117.2519539615
 21
149.6999789558
 31
0.0
  0
LINE
  5
A7
330
1F
100
AcDbEntity
  8
0
  6
Continuous
 62
     7
100
AcDbLine
 10
118.8757243602
 20
72.5124464668
 30
0.0
 11
118.8757243602
 21
81.2874564748
 31
0.0
  0
LINE
  5
A8
330
1F
100
AcDbEntity
  8
0
  6
Continuous
 62
     7
100
AcDbLine
 10
118.8757243602
 20
87.5124464668
 30
0.0
 11
118.8757243602
 21
103.5124464668
 31
0.0
  0
LINE
  5
A9
330
1F
100
AcDbEntity
  8
0
  6
Continuous
 62
     7
100
AcDbLine
 10
118.8757243602
 20
121.5124464668
 30
0.0
 11
118.8757243602
 21
152.5124464668
 31
0.0
  0
LINE
  5
AA
330
1F
100
AcDbEntity
  8
FASEN
  6
Continuous
 62
     7
100
AcDbLine
 10
113.4458194986
 20
103.5124464668
 30
0.0
 11
113.4269539615
 21
103.5124464668
 31
0.0
  0
LINE
  5
AB
330
1F
100
AcDbEntity
  8
0
  6
Continuous
 62
     7
100
AcDbLine
 10
110.2894539615
 20
103.5124464668
 30
0.0
 11
113.4269539615
 21
103.5124464668
 31
0.0
  0
LINE
  5
AC
330
1F
100
AcDbEntity
  8
0
  6
Continuous
 62
     7
100
AcDbLine
 10
117.0075189477
 20
103.5124464668
 30
0.0
 11
123.2894539615
 21
103.5124464668
 31
0.0
  0
LINE
  5
AD
330
1F
100
AcDbEntity
  8
FASEN
  6
Continuous
 62
     7
100
AcDbLine
 10
113.8102068138
 20
103.9124464668
 30
0.0
 11
110.2894539615
 21
103.9124464668
 31
0.0
  0
LINE
  5
AE
330
1F
100
AcDbEntity
  8
0
  6
Continuous
 62
     7
100
AcDbLine
 10
114.1769539615
 20
104.3117986265
 30
0.0
 11
116.5019539615
 21
104.3117986265
 31
0.0
  0
LINE
  5
AF
330
1F
100
AcDbEntity
  8
0
  6
Continuous
 62
     7
100
AcDbLine
 10
63.6394539615
 20
104.4924464668
 30
0.0
 11
59.0894539615
 21
104.4924464668
 31
0.0
  0
LINE
  5
B0
330
1F
100
AcDbEntity
  8
BOHRUNGEN
  6
HIDDEN
 62
     8
100
AcDbLine
 10
192.3394539615
 20
106.5124464668
 30
0.0
 11
145.3394539615
 21
106.5124464668
 31
0.0
  0
LINE
  5
B1
330
1F
100
AcDbEntity
  8
0
  6
Continuous
 62
     7
100
AcDbLine
 10
123.2894539615
 20
152.5124041726
 30
0.0
 11
123.2894539615
 21
121.5124464668
 31
0.0
  0
LINE
  5
B2
330
1F
100
AcDbEntity
  8
0
  6
Continuous
 62
     7
100
AcDbLine
 10
123.2894539615
 20
103.5124464668
 30
0.0
 11
123.2894539615
 21
87.5124464668
 31
0.0
  0
LINE
  5
B3
330
1F
100
AcDbEntity
  8
0
  6
Continuous
 62
     7
100
AcDbLine
 10
123.2894539615
 20
81.2874564748
 30
0.0
 11
123.2894539615
 21
72.5124554632
 31
0.0
  0
LINE
  5
B4
330
1F
100
AcDbEntity
  8
FASEN
  6
Continuous
 62
     7
100
AcDbLine
 10
123.2894539615
 20
81.2874564748
 30
0.0
 11
123.2894539615
 21
87.5124464668
 31
0.0
  0
LINE
  5
B5
330
1F
100
AcDbEntity
  8
FASEN
  6
Continuous
 62
     7
100
AcDbLine
 10
123.2894539615
 20
103.5124464668
 30
0.0
 11
123.2894539615
 21
121.5124464668
 31
0.0
  0
LWPOLYLINE
  5
B6
330
1F
100
AcDbEntity
  8
TEIL_STARTBEZUEGE
  6
DOT_CENTER
 62
     7
100
AcDbPolyline
 90
        2
 70
     0
 43
0.25
 10
195.3394539615
 20
112.5124464668
 10
54.4394539615
 20
112.5124464668
  0
LINE
  5
B7
330
1F
100
AcDbEntity
  8
RUNDUNGEN
  6
Continuous
 62
     9
100
AcDbLine
 10
129.2894539615
 20
128.5124464668
 30
0.0
 11
129.2894539615
 21
96.5124464668
 31
0.0
  0
LINE
  5
B8
330
1F
100
AcDbEntity
  8
0
  6
Continuous
 62
     7
100
AcDbLine
 10
111.8031835627
 20
72.5124464668
 30
0.0
 11
113.4269539615
 21
75.3248992973
 31
0.0
  0
LINE
  5
B9
330
1F
100
AcDbEntity
  8
BOHRUNGEN
  6
HIDDEN
 62
     8
100
AcDbLine
 10
192.3394539615
 20
118.5124464668
 30
0.0
 11
145.3394539615
 21
118.5124464668
 31
0.0
  0
LINE
  5
BA
330
1F
100
AcDbEntity
  8
0
  6
Continuous
 62
     7
100
AcDbLine
 10
63.6394539615
 20
120.5324464668
 30
0.0
 11
59.0894539615
 21
120.5324464668
 31
0.0
  0
LINE
  5
BB
330
1F
100
AcDbEntity
  8
0
  6
Continuous
 62
     7
100
AcDbLine
 10
114.1769539615
 20
120.7130943071
 30
0.0
 11
116.5019539615
 21
120.7130943071
 31
0.0
  0
LINE
  5
BC
330
1F
100
AcDbEntity
  8
FASEN
  6
Continuous
 62
     7
100
AcDbLine
 10
110.2894539615
 20
121.1124464668
 30
0.0
 11
113.8102068138
 21
121.1124464668
 31
0.0
  0
LINE
  5
BD
330
1F
100
AcDbEntity
  8
FASEN
  6
Continuous
 62
     7
100
AcDbLine
 10
116.8687011091
 20
121.1124464668
 30
0.0
 11
123.2894539615
 21
121.1124464668
 31
0.0
  0
LINE
  5
BE
330
1F
100
AcDbEntity
  8
0
  6
Continuous
 62
     7
100
AcDbLine
 10
110.2894539615
 20
121.5124464668
 30
0.0
 11
113.4269539615
 21
121.5124464668
 31
0.0
  0
LINE
  5
BF
330
1F
100
AcDbEntity
  8
FASEN
  6
Continuous
 62
     7
100
AcDbLine
 10
113.4269539615
 20
121.5124464668
 30
0.0
 11
113.4458194986
 21
121.5124464668
 31
0.0
  0
LINE
  5
C0
330
1F
100
AcDbEntity
  8
FASEN
  6
Continuous
 62
     7
100
AcDbLine
 10
117.2330884243
 20
121.5124464668
 30
0.0
 11
117.2519539615
 21
121.5124464668
 31
0.0
  0
LINE
  5
C1
330
1F
100
AcDbEntity
  8
0
  6
Continuous
 62
     7
100
AcDbLine
 10
117.2519539615
 20
121.5124464668
 30
0.0
 11
123.2894539615
 21
121.5124464668
 31
0.0
  0
LINE
  5
C2
330
1F
100
AcDbEntity
  8
0
  6
Continuous
 62
     7
100
AcDbLine
 10
111.8031835627
 20
152.5124464668
 30
0.0
 11
113.4269539615
 21
149.6999936363
 31
0.0
  0
LINE
  5
C3
330
1F
100
AcDbEntity
  8
RUNDUNGEN
  6
Continuous
 62
     9
100
AcDbLine
 10
58.621123949
 20
124.4124464668
 30
0.0
 11
64.778957643
 21
124.4124464668
 31
0.0
  0
LINE
  5
C4
330
1F
100
AcDbEntity
  8
0
  6
Continuous
 62
     7
100
AcDbLine
 10
129.2894539615
 20
128.5124464668
 30
0.0
 11
141.5146350168
 21
128.5124464668
 31
0.0
  0
LINE
  5
C5
330
1F
100
AcDbEntity
  8
0
  6
Continuous
 62
     7
100
AcDbLine
 10
141.5146350168
 20
96.5124464668
 30
0.0
 11
141.5146350168
 21
128.5124464668
 31
0.0
  0
LINE
  5
C6
330
1F
100
AcDbEntity
  8
BOHRUNGEN
  6
HIDDEN
 62
     8
100
AcDbLine
 10
145.3394539615
 20
106.5124464668
 30
0.0
 11
145.3394539615
 21
118.5124464668
 31
0.0
  0
LINE
  5
C7
330
1F
100
AcDbEntity
  8
0
  6
Continuous
 62
     7
100
AcDbLine
 10
141.5146350168
 20
128.5124464668
 30
0.0
 11
191.4179130572
 21
124.5849733089
 31
0.0
  0
LINE
  5
C8
330
1F
100
AcDbEntity
  8
0
  6
Continuous
 62
     7
100
AcDbLine
 10
95.4586975755
 20
142.6280706405
 30
0.0
 11
94.8394539615
 21
142.7939964668
 31
0.0
  0
LINE
  5
C9
330
1F
100
AcDbEntity
  8
0
  6
Continuous
 62
     7
100
AcDbLine
 10
94.8394539615
 20
142.7939964668
 30
0.0
 11
58.9593943737
 21
140.9964054815
 31
0.0
  0
LINE
  5
CA
330
1F
100
AcDbEntity
  8
0
  6
Continuous
 62
     7
100
AcDbLine
 10
96.6388826728
 20
142.5939964668
 30
0.0
 11
95.7175166206
 21
142.5939964668
 31
0.0
  0
LINE
  5
CB
330
1F
100
AcDbEntity
  8
0
  6
Continuous
 62
     7
100
AcDbLine
 10
114.1769539615
 20
147.4874464668
 30
0.0
 11
116.5019539615
 21
147.4874464668
 31
0.0
  0
LINE
  5
CC
330
1F
100
AcDbEntity
  8
BEZUGSACHSEN
  6
Continuous
 62
     7
100
AcDbLine
 10
111.8031835627
 20
152.5124464668
 30
0.0
 11
109.3394539615
 21
152.5124464668
 31
0.0
  0
LINE
  5
CD
330
1F
100
AcDbEntity
  8
BEZUGSACHSEN
  6
Continuous
 62
     7
100
AcDbLine
 10
99.3394539615
 20
152.5124464668
 30
0.0
 11
97.3394539615
 21
152.5124464668
 31
0.0
  0
LINE
  5
CE
330
1F
100
AcDbEntity
  8
0
  6
Continuous
 62
     7
100
AcDbLine
 10
97.3394539615
 20
152.5124464668
 30
0.0
 11
99.3394539615
 21
152.5124464668
 31
0.0
  0
LINE
  5
CF
330
1F
100
AcDbEntity
  8
0
  6
Continuous
 62
     7
100
AcDbLine
 10
109.3394539615
 20
152.5124464668
 30
0.0
 11
111.8031835627
 21
152.5124464668
 31
0.0
  0
LINE
  5
D0
330
1F
100
AcDbEntity
  8
0
  6
Continuous
 62
     7
100
AcDbLine
 10
118.8757243602
 20
152.5124464668
 30
0.0
 11
123.2894539615
 21
152.5124464668
 31
0.0
  0
LINE
  5
D1
330
1F
100
AcDbEntity
  8
RUNDUNGEN
  6
Continuous
 62
     9
100
AcDbLine
 10
191.4179130572
 20
100.4399196247
 30
0.0
 11
191.4179130572
 21
124.5849733089
 31
0.0
  0
LINE
  5
D2
330
1F
100
AcDbEntity
  8
RUNDUNGEN
  6
Continuous
 62
     7
100
AcDbLine
 10
192.3394539615
 20
101.4368369585
 30
0.0
 11
192.3394539615
 21
123.5880559752
 31
0.0
  0
LWPOLYLINE
  5
D3
330
1F
100
AcDbEntity
  8
1
  6
Continuous
 62
     7
100
AcDbPolyline
 90
        2
 70
     0
 43
0.25
 10
192.3394539615
 20
123.5880559752
 10
192.3394539615
 20
124.5124464668466
  0
LWPOLYLINE
  5
D4
330
1F
100
AcDbEntity
  8
1
  6
Continuous
 62
     7
100
AcDbPolyline
 90
        2
 70
     0
 43
0.25
 10
191.4179130572
 20
124.5849733089
 10
192.3394539614949
 20
124.5124464668466
  0
LWPOLYLINE
  5
D5
330
1F
100
AcDbEntity
  8
1
  6
Continuous
 62
     7
100
AcDbPolyline
 90
        2
 70
     0
 43
0.25
 10
191.4179130572
 20
100.4399196247
 10
192.3394539615
 20
100.5124464667559
  0
LWPOLYLINE
  5
D6
330
1F
100
AcDbEntity
  8
1
  6
Continuous
 62
     7
100
AcDbPolyline
 90
        2
 70
     0
 43
0.25
 10
192.3394539615
 20
101.4368369585
 10
192.3394539615
 20
100.5124464667559
  0
ARC
  5
D7
330
1F
100
AcDbEntity
  8
FASEN
  6
Continuous
 62
     7
100
AcDbCircle
 10
-41.5022985885
 20
87.3124464668
 30
0.0
 40
154.9342935747334
100
AcDbArc
 50
359.9260385882253
 51
0.07396141180001
  0
ARC
  5
D8
330
1F
100
AcDbEntity
  8
FASEN
  6
Continuous
 62
     7
100
AcDbCircle
 10
114.4680109675
 20
93.3445279031
 30
0.0
 40
17.23715155060034
100
AcDbArc
 50
222.8949094446989
 51
224.3854325127996
  0
ARC
  5
D9
330
1F
100
AcDbEntity
  8
FASEN
  6
Continuous
 62
     7
100
AcDbCircle
 10
110.2894539615
 20
78.5124464668
 30
0.0
 40
9.0
100
AcDbArc
 50
90.0
 51
159.8554054768235
  0
ARC
  5
DA
330
1F
100
AcDbEntity
  8
FASEN
  6
Continuous
 62
     7
100
AcDbCircle
 10
110.2894539615
 20
78.5124464668
 30
0.0
 40
8.599999999999994
100
AcDbArc
 50
90.0
 51
161.1751898266044
  0
ARC
  5
DB
330
1F
100
AcDbEntity
  8
RUNDUNGEN
  6
Continuous
 62
     7
100
AcDbCircle
 10
63.6394539615
 20
106.3924464668
 30
0.0
 40
1.899999999999991
100
AcDbArc
 50
270.0
 51
354.9999999998954
  0
ARC
  5
DC
330
1F
100
AcDbEntity
  8
0
  6
Continuous
 62
     7
100
AcDbCircle
 10
59.0394539615
 20
85.6264832164
 30
0.0
 40
1.600000000000001
100
AcDbArc
 50
180.0
 51
267.1318795121995
  0
ARC
  5
DD
330
1F
100
AcDbEntity
  8
FASEN
  6
Continuous
 62
     7
100
AcDbCircle
 10
114.8976744135
 20
86.9923463113
 30
0.0
 40
1.470720452004894
100
AcDbArc
 50
175.3159671136103
 51
180.0000862911447
  0
ARC
  5
DE
330
1F
100
AcDbEntity
  8
0
  6
Continuous
 62
     7
100
AcDbCircle
 10
95.7175166206
 20
81.4308964668
 30
0.0
 40
1.0
100
AcDbArc
 50
90.0
 51
104.9999999996981
  0
ARC
  5
DF
330
1F
100
AcDbEntity
  8
0
  6
Continuous
 62
     7
100
AcDbCircle
 10
96.6388826728
 20
81.4308964668
 30
0.0
 40
1.000000000000006
100
AcDbArc
 50
45.52164291269916
 51
90.0
  0
ARC
  5
E0
330
1F
100
AcDbEntity
  8
0
  6
Continuous
 62
     7
100
AcDbCircle
 10
114.1769539615
 20
76.7874464668
 30
0.0
 40
0.75
100
AcDbArc
 50
90.0
 51
180.0
  0
ARC
  5
E1
330
1F
100
AcDbEntity
  8
0
  6
Continuous
 62
     7
100
AcDbCircle
 10
-76.7143637051
 20
166.3412361877
 30
0.0
 40
206.8163704142342
100
AcDbArc
 50
335.7164515714146
 51
336.8345414976
  0
ARC
  5
E2
330
1F
100
AcDbEntity
  8
RUNDUNGEN
  6
Continuous
 62
     7
100
AcDbCircle
 10
63.6394539615
 20
118.6324464668
 30
0.0
 40
1.899999999999999
100
AcDbArc
 50
0.0
 51
90.0
  0
ARC
  5
E3
330
1F
100
AcDbEntity
  8
0
  6
Continuous
 62
     7
100
AcDbCircle
 10
59.0394539615
 20
139.3984097173
 30
0.0
 40
1.599999999999946
100
AcDbArc
 50
92.86812048780048
 51
180.0
  0
ARC
  5
E4
330
1F
100
AcDbEntity
  8
0
  6
Continuous
 62
     7
100
AcDbCircle
 10
110.2894539615
 20
112.5124464668
 30
0.0
 40
9.0
100
AcDbArc
 50
90.0
 51
270.0
  0
ARC
  5
E5
330
1F
100
AcDbEntity
  8
FASEN
  6
Continuous
 62
     7
100
AcDbCircle
 10
110.2894539615
 20
112.5124464668
 30
0.0
 40
8.599999999999994
100
AcDbArc
 50
90.0
 51
270.0
  0
ARC
  5
E6
330
1F
100
AcDbEntity
  8
0
  6
Continuous
 62
     7
100
AcDbCircle
 10
95.7175166206
 20
143.5939964668
 30
0.0
 40
1.000000000009914
100
AcDbArc
 50
255.0000000003019
 51
270.0
  0
ARC
  5
E7
330
1F
100
AcDbEntity
  8
0
  6
Continuous
 62
     7
100
AcDbCircle
 10
96.6388826728
 20
143.5939964668
 30
0.0
 40
1.0
100
AcDbArc
 50
270.0
 51
314.4783570872963
  0
ARC
  5
E8
330
1F
100
AcDbEntity
  8
0
  6
Continuous
 62
     7
100
AcDbCircle
 10
114.1769539615
 20
148.2374464668
 30
0.0
 40
0.75
100
AcDbArc
 50
180.0
 51
270.0
  0
ARC
  5
E9
330
1F
100
AcDbEntity
  8
BEZUGSACHSEN
  6
Continuous
 62
     7
100
AcDbCircle
 10
104.3633404192
 20
192.5794006748
 30
0.0
 40
40.38069160682903
100
AcDbArc
 50
262.8531364883324
 51
269.9661077302005
  0
ARC
  5
EA
330
1F
100
AcDbEntity
  8
BEZUGSACHSEN
  6
Continuous
 62
     7
100
AcDbCircle
 10
104.3155675073
 20
192.5794006175
 30
0.0
 40
40.38069154959759
100
AcDbArc
 50
270.0338922648275
 51
277.1468635168552
  0
ARC
  5
EB
330
1F
100
AcDbEntity
  8
RUNDUNGEN
  6
Continuous
 62
     7
100
AcDbCircle
 10
192.5393929913
 20
-1001.754332781
 30
0.0
 40
1134.1881142077
100
AcDbArc
 50
96.52573778010002
 51
96.7637593779
  0
ARC
  5
EC
330
1F
100
AcDbEntity
  8
FASEN
  6
Continuous
 62
     7
100
AcDbCircle
 10
272.1812065114
 20
87.3124464668
 30
0.0
 40
154.9342935747005
100
AcDbArc
 50
179.9260385882
 51
180.0739614117747
  0
ARC
  5
ED
330
1F
100
AcDbEntity
  8
RUNDUNGEN
  6
Continuous
 62
     7
100
AcDbCircle
 10
129.2894539615
 20
90.5124464668
 30
0.0
 40
6.0
100
AcDbArc
 50
90.0
 51
180.0
  0
ARC
  5
EE
330
1F
100
AcDbEntity
  8
FASEN
  6
Continuous
 62
     7
100
AcDbCircle
 10
115.7812335094
 20
86.9923463113
 30
0.0
 40
1.470720452101679
100
AcDbArc
 50
359.9999137088553
 51
4.68403288607151
  0
ARC
  5
EF
330
1F
100
AcDbEntity
  8
RUNDUNGEN
  6
Continuous
 62
     7
100
AcDbCircle
 10
191.3394539615
 20
101.4368369585
 30
0.0
 40
1.00000000006448
100
AcDbArc
 50
274.4999999981088
 51
0.0
  0
ARC
  5
F0
330
1F
100
AcDbEntity
  8
0
  6
Continuous
 62
     7
100
AcDbCircle
 10
116.5019539615
 20
76.7874464668
 30
0.0
 40
0.75
100
AcDbArc
 50
0.0
 51
90.0
  0
ARC
  5
F1
330
1F
100
AcDbEntity
  8
RUNDUNGEN
  6
Continuous
 62
     7
100
AcDbCircle
 10
192.5393929914
 20
1226.7792257151
 30
0.0
 40
1134.1881142081
100
AcDbArc
 50
263.2362406221
 51
263.4742622199
  0
ARC
  5
F2
330
1F
100
AcDbEntity
  8
0
  6
Continuous
 62
     7
100
AcDbCircle
 10
307.3932716279
 20
166.3412361877
 30
0.0
 40
206.8163704139998
100
AcDbArc
 50
203.1654585024
 51
204.2835484285969
  0
ARC
  5
F3
330
1F
100
AcDbEntity
  8
RUNDUNGEN
  6
Continuous
 62
     7
100
AcDbCircle
 10
129.2894539615
 20
134.5124464668
 30
0.0
 40
5.999999999999986
100
AcDbArc
 50
180.0
 51
270.0
  0
ARC
  5
F4
330
1F
100
AcDbEntity
  8
RUNDUNGEN
  6
Continuous
 62
     7
100
AcDbCircle
 10
191.3394539615
 20
123.5880559752
 30
0.0
 40
1.0
100
AcDbArc
 50
0.0
 51
85.50000000144168
  0
ARC
  5
F5
330
1F
100
AcDbEntity
  8
0
  6
Continuous
 62
     7
100
AcDbCircle
 10
116.5019539615
 20
148.2374464668
 30
0.0
 40
0.75
100
AcDbArc
 50
270.0
 51
0.0
  0
CIRCLE
  5
F6
330
1F
100
AcDbEntity
  8
FASEN
  6
Continuous
 62
     7
100
AcDbCircle
 10
85.3394539615
 20
112.5124464668
 30
0.0
 40
4.25
  0
SPLINE
  5
F7
330
1F
100
AcDbEntity
  8
0
  6
Continuous
 62
     7
100
AcDbSpline
210
0.0
220
0.0
230
1.0
 70
     8
 71
     3
 72
    27
 73
    23
 74
    21
 42
0.0000000001
 43
0.0000000001
 44
0.00000001
 40
0.0
 40
0.0
 40
0.0
 40
0.0
 40
0.1005593763190748
 40
0.2012543954466359
 40
0.2905289404288312
 40
0.3794999609239819
 40
0.4198989482601491
 40
0.4602916822665713
 40
0.4986937525195672
 40
0.5370892802850069
 40
0.5745784459337682
 40
0.6120681418632745
 40
0.6498944637997289
 40
0.6877262176478676
 40
0.7680465441563775
 40
0.8487068782312412
 40
0.9387083804480328
 40
1.028639130950652
 40
1.12796538905792
 40
1.227310735294378
 40
1.334449143217119
 40
1.441556400212849
 40
1.441556400212849
 40
1.441556400212849
 40
1.441556400212849
 10
57.4394539615
 20
123.9342836623
 30
0.0
 10
57.44012114059373
 20
123.9678157849163
 30
0.0
 10
57.44145639872758
 20
124.0349252610508
 30
0.0
 10
57.45429332117664
 20
124.1311551529598
 30
0.0
 10
57.47638456165945
 20
124.2216627346478
 30
0.0
 10
57.50379566250642
 20
124.2896062404618
 30
0.0
 10
57.53184047179815
 20
124.3388314093581
 30
0.0
 10
57.55472810517527
 20
124.3713937407014
 30
0.0
 10
57.58043055363132
 20
124.4009034447391
 30
0.0
 10
57.60845741527184
 20
124.426825807238
 30
0.0
 10
57.63901837967133
 20
124.449193641588
 30
0.0
 10
57.6717223900208
 20
124.467910220704
 30
0.0
 10
57.70643563382556
 20
124.4828581487692
 30
0.0
 10
57.75618686800556
 20
124.498250817666
 30
0.0
 10
57.82225052007639
 20
124.507693288529
 30
0.0
 10
57.90616085004029
 20
124.5054137593526
 30
0.0
 10
57.99208253750119
 20
124.4909737634958
 30
0.0
 10
58.08159437960978
 20
124.4648986278617
 30
0.0
 10
58.17129477098874
 20
124.4298049890267
 30
0.0
 10
58.2630826223043
 20
124.3853047241986
 30
0.0
 10
58.35429696662791
 20
124.334074238114
 30
0.0
 10
58.41405728888974
 20
124.294945154939
 30
0.0
 10
58.4439331055
 20
124.275383458
 30
0.0
 11
57.4394539615
 21
123.9342836623
 31
0.0
 11
57.44334222767186
 21
124.0347678379291
 31
0.0
 11
57.4566666857937
 21
124.1345773850319
 31
0.0
 11
57.47847307400317
 21
124.2211477368565
 31
0.0
 11
57.51232226381272
 21
124.3034282013495
 31
0.0
 11
57.53238330371992
 21
124.338494322544
 31
0.0
 11
57.55567568304666
 21
124.3714948986877
 31
0.0
 11
57.58092953988088
 21
124.4004251892965
 31
0.0
 11
57.60915225077648
 21
124.4264577677721
 31
0.0
 11
57.63939983491267
 21
124.4486054808587
 31
0.0
 11
57.6719397918875
 21
124.467223442642
 31
0.0
 11
57.70666406120202
 21
124.4822253009206
 31
0.0
 11
57.74279607622505
 21
124.4934377533554
 31
0.0
 11
57.82221915110993
 21
124.5054098052373
 31
0.0
 11
57.90286204142465
 21
124.5037323861613
 31
0.0
 11
57.99169248071955
 21
124.489260915747
 31
0.0
 11
58.07816724848281
 21
124.4645697346036
 31
0.0
 11
58.17075933219535
 21
124.4286196082706
 31
0.0
 11
58.26030017543314
 21
124.3855854914433
 31
0.0
 11
58.3536664913271
 21
124.333036756838
 31
0.0
 11
58.4439331055
 21
124.275383458
 31
0.0
  0
SPLINE
  5
F8
330
1F
100
AcDbEntity
  8
FASEN
  6
Continuous
 62
     7
100
AcDbSpline
210
0.0
220
0.0
230
1.0
 70
     8
 71
     3
 72
    43
 73
    39
 74
    37
 42
0.0000000001
 43
0.0000000001
 44
0.00000001
 40
0.0
 40
0.0
 40
0.0
 40
0.0
 40
0.4746456165955385
 40
0.9497960374925087
 40
1.42604461999068
 40
1.902135884659687
 40
2.378025997867341
 40
2.854012610881284
 40
3.330091925469924
 40
3.805935305669654
 40
4.043899193082806
 40
4.281786766543457
 40
4.519436129866774
 40
4.757161339815519
 40
5.231697012303385
 40
5.706457647874497
 40
6.181170996872904
 40
6.65582828372292
 40
7.13122793754845
 40
7.606645640093048
 40
8.083109536758696
 40
8.559557846677352
 40
9.037001714144587
 40
9.51450538107653
 40
9.992842253210828
 40
10.47094721802817
 40
10.7102917136007
 40
10.94955826649444
 40
11.18873219247363
 40
11.42798359963415
 40
11.90489092888212
 40
12.38203450727113
 40
12.85683924197964
 40
13.33154665157352
 40
13.80494455473195
 40
14.27849021123854
 40
14.75006397884367
 40
15.22115281064601
 40
15.22115281064601
 40
15.22115281064601
 40
15.22115281064601
 10
80.4901356941
 20
112.5124464216
 30
0.0
 10
80.49461075762541
 20
112.6707263715908
 30
0.0
 10
80.50356564408249
 20
112.9874546085312
 30
0.0
 10
80.5761891515792
 20
113.458398586295
 30
0.0
 10
80.69132145034922
 20
113.9206975592994
 30
0.0
 10
80.8522159790492
 20
114.3696515892243
 30
0.0
 10
81.0563321973655
 20
114.800482040642
 30
0.0
 10
81.30183527130433
 20
115.2091843676826
 30
0.0
 10
81.58642527036264
 20
115.5916367053999
 30
0.0
 10
81.85370020853789
 20
115.8856295002727
 30
0.0
 10
82.08393785588288
 20
116.1040186622475
 30
0.0
 10
82.26440566395308
 20
116.2590776485778
 30
0.0
 10
82.45219688258884
 20
116.4050512604935
 30
0.0
 10
82.71150795924532
 20
116.5869399035205
 30
0.0
 10
83.0518670361331
 20
116.7900579185728
 30
0.0
 10
83.48185664374674
 20
116.9928393411218
 30
0.0
 10
83.9296675804161
 20
117.1526439163126
 30
0.0
 10
84.39108563114513
 20
117.2682247180273
 30
0.0
 10
84.86180864594138
 20
117.3383098440198
 30
0.0
 10
85.33771632416305
 20
117.3623669549861
 30
0.0
 10
85.81405077682578
 20
117.3397618906526
 30
0.0
 10
86.28658231916995
 20
117.2707277753809
 30
0.0
 10
86.75039785327589
 20
117.155558916481
 30
0.0
 10
87.2012820614465
 20
116.9952297918425
 30
0.0
 10
87.63429258719145
 20
116.7910341463502
 30
0.0
 10
87.97694155118583
 20
116.5860093614879
 30
0.0
 10
88.23773388653277
 20
116.4022775063791
 30
0.0
 10
88.42633286000782
 20
116.2548832087801
 30
0.0
 10
88.60737683475871
 20
116.0983493370388
 30
0.0
 10
88.83771705099514
 20
115.8783054512229
 30
0.0
 10
89.10457170051069
 20
115.5823845454169
 30
0.0
 10
89.3876492833909
 20
115.1984112324022
 30
0.0
 10
89.63108052917599
 20
114.7889816789138
 30
0.0
 10
89.83266358652203
 20
114.3588299075119
 30
0.0
 10
89.9912050608915
 20
113.9113851951825
 30
0.0
 10
90.10434603478957
 20
113.4516863154162
 30
0.0
 10
90.1755718875896
 20
112.9838825841658
 30
0.0
 10
90.18438201320004
 20
112.6695379112027
 30
0.0
 10
90.1887848099
 20
112.5124464292
 30
0.0
 11
80.4901356941
 21
112.5124464216
 31
0.0
 11
80.5134041462436
 21
112.9865213529012
 31
0.0
 11
80.5831875000893
 21
113.4565194443916
 31
0.0
 11
80.69895524332658
 21
113.9184832329695
 31
0.0
 11
80.85945024013185
 21
114.3667066686515
 31
0.0
 11
81.06321441815226
 21
114.796766617501
 31
0.0
 11
81.3083347562212
 21
115.2047853372106
 31
0.0
 11
81.59250019478101
 21
115.5867559084688
 31
0.0
 11
81.9126214721941
 21
115.9388202353003
 31
0.0
 11
82.085266406269
 21
116.1025900080029
 31
0.0
 11
82.26569785305152
 21
116.2576222324563
 31
0.0
 11
82.45332930828307
 21
116.4034702934501
 31
0.0
 11
82.64795318269805
 21
116.5399797178606
 31
0.0
 11
83.05541366138291
 21
116.7832081347313
 31
0.0
 11
83.48483548454128
 21
116.9856792657185
 31
0.0
 11
83.93191871539476
 21
117.1452704572263
 31
0.0
 11
84.39235524602037
 21
117.2605862897267
 31
0.0
 11
84.86256677170712
 21
117.3306287908869
 31
0.0
 11
85.33738030442407
 21
117.3545891965937
 31
0.0
 11
85.81331002974576
 21
117.3320339005186
 31
0.0
 11
86.28474724674834
 21
117.2631140742767
 31
0.0
 11
86.74812290535615
 21
117.1480677984055
 31
0.0
 11
87.1980119814079
 21
116.9880378912545
 31
0.0
 11
87.63067268895223
 21
116.7840504519587
 31
0.0
 11
88.04091122425466
 21
116.5385128753316
 31
0.0
 11
88.23657738853905
 21
116.4006704300721
 31
0.0
 11
88.4251016764232
 21
116.2533372151767
 31
0.0
 11
88.60602426885075
 21
116.0969045382272
 31
0.0
 11
88.77901846410106
 21
115.9316343224047
 31
0.0
 11
89.09843691332654
 21
115.5774981127554
 31
0.0
 11
89.38153957707861
 21
115.1934162514623
 31
0.0
 11
89.62422099386798
 21
114.7853166728706
 31
0.0
 11
89.82568293307834
 21
114.3554792480541
 31
0.0
 11
89.98367237655606
 21
113.9092226957611
 31
0.0
 11
90.09751184796869
 21
113.4495640576994
 31
0.0
 11
90.16593646283499
 21
112.9829808492856
 31
0.0
 11
90.1887848099
 21
112.5124464292
 31
0.0
  0
SPLINE
  5
F9
330
1F
100
AcDbEntity
  8
RUNDUNGEN
  6
Continuous
 62
     7
100
AcDbSpline
210
0.0
220
0.0
230
1.0
 70
     8
 71
     3
 72
    15
 73
    11
 74
     9
 42
0.0000000001
 43
0.0000000001
 44
0.00000001
 40
0.0
 40
0.0
 40
0.0
 40
0.0
 40
0.3162936728578514
 40
0.63274918986937
 40
0.949777854138375
 40
1.266736320414491
 40
1.585306002296655
 40
1.903962908445847
 40
2.225342078529179
 40
2.546438904748297
 40
2.546438904748297
 40
2.546438904748297
 40
2.546438904748297
 10
64.778957643
 20
124.4124464668
 30
0.0
 10
64.83500460163172
 20
124.3231028875932
 30
0.0
 10
64.94712719753578
 20
124.1443700130075
 30
0.0
 10
65.09310577244716
 20
123.8630767238509
 30
0.0
 10
65.22250616638726
 20
123.5737068453733
 30
0.0
 10
65.33238024516709
 20
123.2755372105043
 30
0.0
 10
65.42165867867692
 20
122.9699500442098
 30
0.0
 10
65.48774173972265
 20
122.6570931380132
 30
0.0
 10
65.53101942772606
 20
122.3390719976241
 30
0.0
 10
65.53664327406452
 20
122.1248517474462
 30
0.0
 10
65.5394539615
 20
122.0177886932
 30
0.0
 11
64.778957643
 21
124.4124464668
 31
0.0
 11
64.94338277913833
 21
124.1422501268992
 31
0.0
 11
65.09024328142435
 21
123.8619358619833
 31
0.0
 11
65.2192180987673
 21
123.5723280746924
 31
0.0
 11
65.32875125375385
 21
123.2748971460673
 31
0.0
 11
65.41772811208581
 21
122.9690053990458
 31
0.0
 11
65.48376091767199
 21
122.6572652950761
 31
0.0
 11
65.5252006624347
 21
122.3385690156541
 31
0.0
 11
65.5394539615
 21
122.0177886932
 31
0.0
  0
SPLINE
  5
FA
330
1F
100
AcDbEntity
  8
RUNDUNGEN
  6
Continuous
 62
     7
100
AcDbSpline
210
0.0
220
0.0
230
1.0
 70
     8
 71
     3
 72
    19
 73
    15
 74
    13
 42
0.0000000001
 43
0.0000000001
 44
0.00000001
 40
0.0
 40
0.0
 40
0.0
 40
0.0
 40
0.0908658953553914
 40
0.181815584293283
 40
0.2719578267091243
 40
0.3620796283857077
 40
0.4508848979994731
 40
0.5396930490994569
 40
0.6271215588850303
 40
0.7145608604494448
 40
0.8859439487412046
 40
1.057581272664652
 40
1.226597310374212
 40
1.395465809349762
 40
1.395465809349762
 40
1.395465809349762
 40
1.395465809349762
 10
63.6394539615
 20
125.0852672189
 30
0.0
 10
63.66965502417828
 20
125.0878634857486
 30
0.0
 10
63.73008499997564
 20
125.0930584136391
 30
0.0
 10
63.8208953217035
 20
125.0895965283938
 30
0.0
 10
63.91064148310582
 20
125.0778172038169
 30
0.0
 10
63.99815118242166
 20
125.0575046913213
 30
0.0
 10
64.08296500833684
 20
125.0293640559491
 30
0.0
 10
64.16419011915983
 20
124.9943454351291
 30
0.0
 10
64.24189440376983
 20
124.9530784043218
 30
0.0
 10
64.3395750883914
 20
124.8914376950145
 30
0.0
 10
64.45283045211431
 20
124.8026342838013
 30
0.0
 10
64.57421810376717
 20
124.6822809170533
 30
0.0
 10
64.68367973333119
 20
124.5520266692541
 30
0.0
 10
64.74720758634703
 20
124.4589596549143
 30
0.0
 10
64.778957643
 20
124.4124464668
 30
0.0
 11
63.6394539615
 21
125.0852672189
 31
0.0
 11
63.73012724908148
 21
125.0911804124452
 31
0.0
 11
63.821027559642
 21
125.0881838380843
 31
0.0
 11
63.91039245733381
 21
125.0763711784224
 31
0.0
 11
63.99819585724195
 21
125.0560610306631
 31
0.0
 11
64.08250581840443
 21
125.028164680365
 31
0.0
 11
64.16408641179237
 21
124.9930720246623
 31
0.0
 11
64.2413410445369
 21
124.9521395675795
 31
0.0
 11
64.31533229831015
 21
124.9055463725492
 31
0.0
 11
64.4505342443977
 21
124.8002249752618
 31
0.0
 11
64.57291655231842
 21
124.6798840359618
 31
0.0
 11
64.6814443064949
 21
124.5503149517772
 31
0.0
 11
64.778957643
 21
124.4124464668
 31
0.0
  0
SPLINE
  5
FB
330
1F
100
AcDbEntity
  8
0
  6
Continuous
 62
     7
100
AcDbSpline
210
0.0
220
0.0
230
1.0
 70
     8
 71
     3
 72
    27
 73
    23
 74
    21
 42
0.0000000001
 43
0.0000000001
 44
0.00000001
 40
0.0
 40
0.0
 40
0.0
 40
0.0
 40
0.1071078874242698
 40
0.2142469263329242
 40
0.3135924363057961
 40
0.412918858043338
 40
0.502849380851016
 40
0.5928506536474762
 40
0.6735107911703785
 40
0.7538309173116888
 40
0.7916625684720164
 40
0.8294887980709177
 40
0.866978489893041
 40
0.9044676327981203
 40
0.942863102682625
 40
0.981265139442826
 40
1.02165781546094
 40
1.062056720282038
 40
1.151027619773532
 40
1.240302097125171
 40
1.340997083325134
 40
1.4415564043369
 40
1.4415564043369
 40
1.4415564043369
 40
1.4415564043369
 10
58.4439331055
 20
100.7495094756
 30
0.0
 10
58.41405711036404
 20
100.7299476673607
 30
0.0
 10
58.35429643089453
 20
100.6908183614846
 30
0.0
 10
58.26308163367322
 20
100.6395877078231
 30
0.0
 10
58.17129344825351
 20
100.5950873986167
 30
0.0
 10
58.08159297779158
 20
100.5599938675928
 30
0.0
 10
57.99208118966683
 20
100.5339188966667
 30
0.0
 10
57.90615968972136
 20
100.5194790916545
 30
0.0
 10
57.82224956265657
 20
100.5171997634351
 30
0.0
 10
57.75618609917709
 20
100.5266423562773
 30
0.0
 10
57.70643501965836
 20
100.5420350755864
 30
0.0
 10
57.67172184885051
 20
100.5569829970248
 30
0.0
 10
57.63901784346665
 20
100.5756995016744
 30
0.0
 10
57.60845689550914
 20
100.5980673219108
 30
0.0
 10
57.58043020256267
 20
100.6239898190048
 30
0.0
 10
57.55472794811756
 20
100.6534996175432
 30
0.0
 10
57.53184031715733
 20
100.6860618705089
 30
0.0
 10
57.50379539569803
 20
100.7352868775222
 30
0.0
 10
57.47638436724785
 20
100.8032303336699
 30
0.0
 10
57.45429333526513
 20
100.8937378849632
 30
0.0
 10
57.44145642210005
 20
100.9899677203186
 30
0.0
 10
57.44012114833143
 20
101.0570771670944
 30
0.0
 10
57.4394539615
 20
101.0906092713
 30
0.0
 11
58.4439331055
 21
100.7495094756
 31
0.0
 11
58.3536659467772
 21
100.6918558581541
 31
0.0
 11
58.26029904420578
 21
100.6393068794533
 31
0.0
 11
58.17075800781874
 21
100.596272786521
 31
0.0
 11
58.07816572283467
 21
100.5603227264848
 31
0.0
 11
57.99169113500492
 21
100.5356317444845
 31
0.0
 11
57.90286089538014
 21
100.5211604752524
 31
0.0
 11
57.82221819784422
 21
100.5194832396269
 31
0.0
 11
57.74279534670752
 21
100.5314554316014
 31
0.0
 11
57.7066634482091
 21
100.5426679130581
 31
0.0
 11
57.67193926968447
 21
100.557669748661
 31
0.0
 11
57.63939929721694
 21
100.5762876750958
 31
0.0
 11
57.60915174537315
 21
100.5984353937868
 31
0.0
 11
57.58092919665666
 21
100.6244680627163
 31
0.0
 11
57.55567548695974
 21
100.6533984373056
 31
0.0
 11
57.53238313052662
 21
100.6863989586302
 31
0.0
 11
57.51232204759918
 21
100.7214649601491
 31
0.0
 11
57.47847290542323
 21
100.8037453133951
 31
0.0
 11
57.45666666499051
 21
100.8903156327002
 31
0.0
 11
57.44334224517256
 21
100.9901251516968
 31
0.0
 11
57.4394539615
 21
101.0906092713
 31
0.0
  0
SPLINE
  5
FC
330
1F
100
AcDbEntity
  8
RUNDUNGEN
  6
Continuous
 62
     7
100
AcDbSpline
210
0.0
220
0.0
230
1.0
 70
     8
 71
     3
 72
    15
 73
    11
 74
     9
 42
0.0000000001
 43
0.0000000001
 44
0.00000001
 40
0.0
 40
0.0
 40
0.0
 40
0.0
 40
0.3210967670361665
 40
0.642475876590902
 40
0.9611327417284723
 40
1.27970238537638
 40
1.596661045058642
 40
1.913689899736878
 40
2.230145323850293
 40
2.546438905867251
 40
2.546438905867251
 40
2.546438905867251
 40
2.546438905867251
 10
65.5394539615
 20
103.0071042404
 30
0.0
 10
65.53664327604349
 20
102.9000412058864
 30
0.0
 10
65.5310194336761
 20
102.6858209956224
 30
0.0
 10
65.48774176105792
 20
102.3677999070886
 30
0.0
 10
65.42165869976529
 20
102.0549430483297
 30
0.0
 10
65.33238025961856
 20
101.7493558452987
 30
0.0
 10
65.22250617986921
 20
101.4511860883127
 30
0.0
 10
65.09310576845121
 20
101.161816110017
 30
0.0
 10
64.9471271619019
 20
100.8805228345075
 30
0.0
 10
64.83500458987453
 20
100.701790017506
 30
0.0
 10
64.778957643
 20
100.6124464668
 30
0.0
 11
65.5394539615
 21
103.0071042404
 31
0.0
 11
65.52520067006321
 21
102.6863239768483
 31
0.0
 11
65.48376093771864
 21
102.3676277568497
 31
0.0
 11
65.4177281362051
 21
102.055887693939
 31
0.0
 11
65.32875129741285
 21
101.7499959810527
 31
0.0
 11
65.21921810709331
 21
101.4525648593354
 31
0.0
 11
65.09024322714613
 21
101.1629568914872
 31
0.0
 11
64.94338274784882
 21
100.8826427194028
 31
0.0
 11
64.778957643
 21
100.6124464668
 31
0.0
  0
SPLINE
  5
FD
330
1F
100
AcDbEntity
  8
RUNDUNGEN
  6
Continuous
 62
     7
100
AcDbSpline
210
0.0
220
0.0
230
1.0
 70
     8
 71
     3
 72
    19
 73
    15
 74
    13
 42
0.0000000001
 43
0.0000000001
 44
0.00000001
 40
0.0
 40
0.0
 40
0.0
 40
0.0
 40
0.1688722591318263
 40
0.3378923301678288
 40
0.5095430667323313
 40
0.6809387931756992
 40
0.7683828000631957
 40
0.855816415990547
 40
0.9446259266114704
 40
1.033432066262476
 40
1.1235389835961
 40
1.213666714811599
 40
1.304608728401785
 40
1.3954668402039
 40
1.3954668402039
 40
1.3954668402039
 40
1.3954668402039
 10
64.778957643
 20
100.6124464668
 30
0.0
 10
64.74720677213253
 20
100.565932311635
 30
0.0
 10
64.68367723923338
 20
100.4728632880114
 30
0.0
 10
64.57421061403258
 20
100.3426040392939
 30
0.0
 10
64.45281651126172
 20
100.2222429120988
 30
0.0
 10
64.33955108356531
 20
100.1334351478995
 30
0.0
 10
64.24186010602075
 20
100.0717966292256
 30
0.0
 10
64.164150527469
 20
100.0305318398841
 30
0.0
 10
64.08292352335141
 20
99.99551170083765
 30
0.0
 10
63.99811369829327
 20
99.96737199611573
 30
0.0
 10
63.9106120594073
 20
99.94706640421614
 30
0.0
 10
63.82087752279502
 20
99.93529406734007
 30
0.0
 10
63.73007722990775
 20
99.93183489670983
 30
0.0
 10
63.66965242217218
 20
99.93702957449435
 30
0.0
 10
63.6394539615
 20
99.9396257147
 30
0.0
 11
64.778957643
 21
100.6124464668
 31
0.0
 11
64.68144179600321
 21
100.47457515184
 31
0.0
 11
64.57291127022647
 21
100.3450031279011
 31
0.0
 11
64.45051943299627
 21
100.2246527496609
 31
0.0
 11
64.31530487026865
 21
100.1193269832529
 31
0.0
 11
64.24130699943424
 21
100.0727354662942
 31
0.0
 11
64.16404607291831
 21
100.0318039817373
 31
0.0
 11
64.08246411437243
 21
99.99671105913822
 31
0.0
 11
63.99815314789721
 21
99.96881497748277
 31
0.0
 11
63.91036329493465
 21
99.9485123109539
 31
0.0
 11
63.82101216137092
 21
99.93670625890725
 31
0.0
 11
63.73011944092733
 21
99.93371239748728
 31
0.0
 11
63.6394539615
 21
99.9396257147
 31
0.0
  0
SPLINE
  5
FE
330
1F
100
AcDbEntity
  8
0
  6
Continuous
 62
     7
100
AcDbSpline
210
0.0
220
0.0
230
1.0
 70
     8
 71
     3
 72
     9
 73
     5
 74
     3
 42
0.0000000001
 43
0.0000000001
 44
0.00000001
 40
0.0
 40
0.0
 40
0.0
 40
0.0
 40
0.1120698018612088
 40
0.2241876568939554
 40
0.2241876568939554
 40
0.2241876568939554
 40
0.2241876568939554
 10
58.621123949
 20
100.6124464668
 30
0.0
 10
58.59025433694407
 20
100.6335477188916
 30
0.0
 10
58.52850187659248
 20
100.6757592708475
 30
0.0
 10
58.47212672374706
 20
100.7249225614049
 30
0.0
 10
58.4439331055
 20
100.7495094756
 30
0.0
 11
58.621123949
 21
100.6124464668
 31
0.0
 11
58.529858863475
 21
100.677487412775
 31
0.0
 11
58.4439331055
 21
100.7495094756
 31
0.0
  0
SPLINE
  5
FF
330
1F
100
AcDbEntity
  8
0
  6
Continuous
 62
     7
100
AcDbSpline
210
0.0
220
0.0
230
1.0
 70
     8
 71
     3
 72
    11
 73
     7
 74
     5
 42
0.0000000001
 43
0.0000000001
 44
0.00000001
 40
0.0
 40
0.0
 40
0.0
 40
0.0
 40
0.0910518968262668
 40
0.18228394825115
 40
0.2734564444615676
 40
0.3645245916862169
 40
0.3645245916862169
 40
0.3645245916862169
 40
0.3645245916862169
 10
58.9593943737
 20
100.4848315267
 30
0.0
 10
58.92937259036782
 20
100.4895818952833
 30
0.0
 10
58.8692696228286
 20
100.4990920314934
 30
0.0
 10
58.78239477995806
 20
100.5277307331017
 30
0.0
 10
58.69893575210788
 20
100.5648973365256
 30
0.0
 10
58.64705131388328
 20
100.5966028081099
 30
0.0
 10
58.621123949
 20
100.6124464668
 30
0.0
 11
58.9593943737
 21
100.4848315267
 31
0.0
 11
58.86987615812044
 21
100.5014729507711
 31
0.0
 11
58.78294667490123
 21
100.5291596290556
 31
0.0
 11
58.69983802088327
 21
100.5666479698106
 31
0.0
 11
58.621123949
 21
100.6124464668
 31
0.0
  0
SPLINE
  5
100
330
1F
100
AcDbEntity
  8
FASEN
  6
Continuous
 62
     7
100
AcDbSpline
210
0.0
220
0.0
230
1.0
 70
     8
 71
     3
 72
    13
 73
     9
 74
     7
 42
0.0000000001
 43
0.0000000001
 44
0.00000001
 40
0.0
 40
0.0
 40
0.0
 40
0.0
 40
0.1484181247335303
 40
0.2968908034314245
 40
0.3638815768213668
 40
0.4308012641200168
 40
0.4942605387404773
 40
0.5576337749236069
 40
0.5576337749236069
 40
0.5576337749236069
 40
0.5576337749236069
 10
116.8687011091
 20
121.1124464668
 30
0.0
 10
116.9125665114139
 20
121.1356299870775
 30
0.0
 10
117.0003134396224
 20
121.1820055491858
 30
0.0
 10
117.0911905760966
 20
121.2645358398765
 30
0.0
 10
117.1502410169065
 20
121.3379708007781
 30
0.0
 10
117.1853328160815
 20
121.3937763777115
 30
0.0
 10
117.2138653235747
 20
121.451950090046
 30
0.0
 10
117.2266836225433
 20
121.4922901296073
 30
0.0
 10
117.2330884243
 20
121.5124464668
 30
0.0
 11
116.8687011091
 21
121.1124464668
 31
0.0
 11
116.9968984863903
 21
121.1872353176088
 31
0.0
 11
117.1073833930901
 21
121.2864180868344
 31
0.0
 11
117.1492063385323
 21
121.3387497689584
 31
0.0
 11
117.1848992758883
 21
121.3953559415109
 31
0.0
 11
117.2124111501699
 21
121.4525413969071
 31
0.0
 11
117.2330884243
 21
121.5124464668
 31
0.0
  0
SPLINE
  5
101
330
1F
100
AcDbEntity
  8
FASEN
  6
Continuous
 62
     7
100
AcDbSpline
210
0.0
220
0.0
230
1.0
 70
     8
 71
     3
 72
    13
 73
     9
 74
     7
 42
0.0000000001
 43
0.0000000001
 44
0.00000001
 40
0.0
 40
0.0
 40
0.0
 40
0.0
 40
0.063373759075371
 40
0.1268335618192401
 40
0.1937531772470209
 40
0.2607438719479193
 40
0.4092160946749024
 40
0.5576337728205104
 40
0.5576337728205104
 40
0.5576337728205104
 40
0.5576337728205104
 10
113.4458194986
 20
121.5124464668
 30
0.0
 10
113.4522243641955
 20
121.4922899662086
 30
0.0
 10
113.4650427913851
 20
121.45194959819
 30
0.0
 10
113.4935755605297
 20
121.3937756459381
 30
0.0
 10
113.5286675047827
 20
121.3379700149375
 30
0.0
 10
113.5877178942978
 20
121.2645352714883
 30
0.0
 10
113.6785948663418
 20
121.1820053018776
 30
0.0
 10
113.7663415382504
 20
121.1356299051315
 30
0.0
 10
113.8102068138
 20
121.1124464668
 30
0.0
 11
113.4458194986
 21
121.5124464668
 31
0.0
 11
113.4664969899682
 21
121.4525409187259
 31
0.0
 11
113.4940091928533
 21
121.3953550353568
 31
0.0
 11
113.5297021790076
 21
121.3387489785396
 31
0.0
 11
113.5715251335578
 21
121.2864174044261
 31
0.0
 11
113.6820097928532
 21
121.1872350421741
 31
0.0
 11
113.8102068138
 21
121.1124464668
 31
0.0
  0
SPLINE
  5
102
330
1F
100
AcDbEntity
  8
FASEN
  6
Continuous
 62
     7
100
AcDbSpline
210
0.0
220
0.0
230
1.0
 70
     8
 71
     3
 72
    13
 73
     9
 74
     7
 42
0.0000000001
 43
0.0000000001
 44
0.00000001
 40
0.0
 40
0.0
 40
0.0
 40
0.0
 40
0.148418135893404
 40
0.2968908257655701
 40
0.3638815919820143
 40
0.4308012720938247
 40
0.4942605426695705
 40
0.5576337749009646
 40
0.5576337749009646
 40
0.5576337749009646
 40
0.5576337749009646
 10
113.8102068138
 20
103.9124464668
 30
0.0
 10
113.766341408263
 20
103.8892629445948
 30
0.0
 10
113.6785944736041
 20
103.8428873786288
 30
0.0
 10
113.5877173351172
 20
103.7603570821404
 30
0.0
 10
113.5286668971668
 20
103.6869221203529
 30
0.0
 10
113.4935751023791
 20
103.6311165479441
 30
0.0
 10
113.4650425979155
 20
103.5729428398063
 30
0.0
 10
113.4522242998899
 20
103.5326028027533
 30
0.0
 10
113.4458194986
 20
103.5124464668
 30
0.0
 11
113.8102068138
 21
103.9124464668
 31
0.0
 11
113.6820094274199
 21
103.8376576094256
 31
0.0
 11
113.5715245147831
 21
103.738474830086
 31
0.0
 11
113.5297015753556
 21
103.6861431523381
 31
0.0
 11
113.4940086429623
 21
103.6295369851526
 31
0.0
 11
113.4664967711435
 21
103.57235153306
 31
0.0
 11
113.4458194986
 21
103.5124464668
 31
0.0
  0
SPLINE
  5
103
330
1F
100
AcDbEntity
  8
FASEN
  6
Continuous
 62
     7
100
AcDbSpline
210
0.0
220
0.0
230
1.0
 70
     8
 71
     3
 72
    43
 73
    39
 74
    37
 42
0.0000000001
 43
0.0000000001
 44
0.00000001
 40
0.0
 40
0.0
 40
0.0
 40
0.0
 40
0.4706686416640673
 40
0.941824275218436
 40
1.415226743212671
 40
1.888479857315936
 40
2.363190981073021
 40
2.838000227725529
 40
3.315175149121618
 40
3.792113826672247
 40
4.031391417199611
 40
4.270591420909839
 40
4.509874995721631
 40
4.749236632860688
 40
5.227333355353962
 40
5.705661581708809
 40
6.183163657767864
 40
6.660606244152073
 40
7.137076247150111
 40
7.613561752863024
 40
8.088992783634694
 40
8.564405684834608
 40
9.039085299033568
 40
9.513821208509688
 40
9.988600689700727
 40
10.46315488349945
 40
10.70087681262037
 40
10.93852297401752
 40
11.17640321738573
 40
11.41435972167883
 40
11.89020085768312
 40
12.36627782166704
 40
12.84226790388399
 40
13.31816244382503
 40
13.79435809943196
 40
14.27070893665041
 40
14.74618188898422
 40
15.22115280864144
 40
15.22115280864144
 40
15.22115280864144
 40
15.22115280864144
 10
90.1887664686
 20
112.512446507
 30
0.0
 10
90.18438404689456
 20
112.3554945550313
 30
0.0
 10
90.17561466907534
 20
112.0414282558947
 30
0.0
 10
90.10447704054837
 20
111.5739437096299
 30
0.0
 10
89.99147913802882
 20
111.1144535460099
 30
0.0
 10
89.83307185706744
 20
110.6670624073935
 30
0.0
 10
89.63160924003674
 20
110.2369043815646
 30
0.0
 10
89.38826526220436
 20
109.8274075324287
 30
0.0
 10
89.10526035253636
 20
109.4433526443768
 30
0.0
 10
88.83845133067504
 20
109.1473506767292
 30
0.0
 10
88.6081399708806
 20
108.9272362196598
 30
0.0
 10
88.42711220024472
 20
108.7706482123618
 30
0.0
 10
88.23852713253277
 20
108.6232034389833
 30
0.0
 10
87.97776385946572
 20
108.4394153323259
 30
0.0
 10
87.63515676333283
 20
108.2343207121131
 30
0.0
 10
87.2021941799543
 20
108.0300377912219
 30
0.0
 10
86.75134587389236
 20
107.8696189424036
 30
0.0
 10
86.28754734823721
 20
107.7543556966726
 30
0.0
 10
85.81501577657062
 20
107.6852245632664
 30
0.0
 10
85.33866686267694
 20
107.6625242950793
 30
0.0
 10
84.86273840084368
 20
107.6864896320418
 30
0.0
 10
84.39198580880009
 20
107.7564874600558
 30
0.0
 10
83.9305275784117
 20
107.8719881203442
 30
0.0
 10
83.48266777287276
 20
108.0317190592842
 30
0.0
 10
83.05262329869485
 20
108.2344310343872
 30
0.0
 10
82.71221857035326
 20
108.4374950319048
 30
0.0
 10
82.4528736057306
 20
108.6193423586293
 30
0.0
 10
82.26506119472492
 20
108.7652811587494
 30
0.0
 10
82.08457031701502
 20
108.9203040796738
 30
0.0
 10
81.85429717720609
 20
109.1386476030719
 30
0.0
 10
81.58697281659124
 20
109.4325901512351
 30
0.0
 10
81.30231616388645
 20
109.8149924142063
 30
0.0
 10
81.05674051173031
 20
110.2236532736209
 30
0.0
 10
80.85253084807313
 20
110.6544807674465
 30
0.0
 10
80.6915319665046
 20
111.1034724493976
 30
0.0
 10
80.57628908802383
 20
111.5659272234375
 30
0.0
 10
80.50360598139656
 20
112.0371159078737
 30
0.0
 10
80.49461120635951
 20
112.3540587794136
 30
0.0
 10
80.4901161944
 20
112.5124465092
 30
0.0
 11
90.1887664686
 21
112.512446507
 31
0.0
 11
90.16598610938604
 21
112.0423294731882
 31
0.0
 11
90.09767272355671
 21
111.5761525621914
 31
0.0
 11
89.9839511817229
 21
111.1166122401021
 31
0.0
 11
89.8261107090906
 21
110.6704565551583
 31
0.0
 11
89.62474853967959
 21
110.2405682815932
 31
0.0
 11
89.38215874409305
 21
109.832408984524
 31
0.0
 11
89.09912391873786
 21
109.4482381979648
 31
0.0
 11
88.77976321096409
 21
109.0940077073602
 31
0.0
 11
88.60678671346625
 21
108.9286810711458
 31
0.0
 11
88.42587790959962
 21
108.7721925844814
 31
0.0
 11
88.2373701414927
 21
108.6248105959683
 31
0.0
 11
88.04171723762036
 21
108.4869195718217
 31
0.0
 11
87.63153548158196
 21
108.2413031980351
 31
0.0
 11
87.19892465069138
 21
108.0372302671405
 31
0.0
 11
86.74906951010367
 21
107.8771097340177
 31
0.0
 11
86.28571823301591
 21
107.7619706124543
 31
0.0
 11
85.81427339832258
 21
107.6929529944287
 31
0.0
 11
85.33832655832033
 21
107.670302549701
 31
0.0
 11
84.86349506738253
 21
107.6941713627087
 31
0.0
 11
84.39325711880372
 21
107.7641263363968
 31
0.0
 11
83.9327776468763
 21
107.8793625809969
 31
0.0
 11
83.4856442745948
 21
108.0388803892137
 31
0.0
 11
83.05616891938318
 21
108.2412821555743
 31
0.0
 11
82.64865000124325
 21
108.4844487943429
 31
0.0
 11
82.45400572575923
 21
108.6209234132516
 31
0.0
 11
82.2663518391464
 21
108.7667373936029
 31
0.0
 11
82.08589846942841
 21
108.9217328501245
 31
0.0
 11
81.91322934084022
 21
109.08546638355
 31
0.0
 11
81.59304697676231
 21
109.437472122775
 31
0.0
 11
81.30881594168606
 21
109.8193909549051
 31
0.0
 11
81.06362197498409
 21
110.227369480151
 31
0.0
 11
80.85977819872173
 21
110.6573966049057
 31
0.0
 11
80.69916932396853
 21
111.1056901379501
 31
0.0
 11
80.58331280001772
 21
111.5677370900846
 31
0.0
 11
80.51344639411666
 21
112.0380489161399
 31
0.0
 11
80.4901161944
 21
112.5124465092
 31
0.0
  0
SPLINE
  5
104
330
1F
100
AcDbEntity
  8
FASEN
  6
Continuous
 62
     7
100
AcDbSpline
210
0.0
220
0.0
230
1.0
 70
     8
 71
     3
 72
    19
 73
    15
 74
    13
 42
0.0000000001
 43
0.0000000001
 44
0.00000001
 40
0.0
 40
0.0
 40
0.0
 40
0.0
 40
0.0355072727730388
 40
0.0711690978483888
 40
0.1067340991343759
 40
0.142286843149633
 40
0.1778317460303929
 40
0.2133709080616754
 40
0.2488997354040125
 40
0.2844290254566131
 40
0.355438710084072
 40
0.42650147005015
 40
0.4975508693472607
 40
0.5685734842951242
 40
0.5685734842951242
 40
0.5685734842951242
 40
0.5685734842951242
 10
114.1769539615
 20
104.3117986265
 30
0.0
 10
114.1651041387844
 20
104.3110628782924
 30
0.0
 10
114.1413529146979
 20
104.3095881793901
 30
0.0
 10
114.1070982780153
 20
104.2988965117607
 30
0.0
 10
114.0750566572712
 20
104.2831920140831
 30
0.0
 10
114.0455300416948
 20
104.2632109729725
 30
0.0
 10
114.0182437736312
 20
104.2403593085913
 30
0.0
 10
113.9930306557187
 20
104.215263744648
 30
0.0
 10
113.9695925527565
 20
104.1885280820855
 30
0.0
 10
113.9404401878498
 20
104.15118525623
 30
0.0
 10
113.9072478306521
 20
104.1020744587824
 30
0.0
 10
113.8717691989553
 20
104.0404871871663
 30
0.0
 10
113.839319336493
 20
103.9772480361556
 30
0.0
 10
113.8199097682912
 20
103.9340442748996
 30
0.0
 10
113.8102068138
 20
103.9124464668
 30
0.0
 11
114.1769539615
 21
104.3117986265
 31
0.0
 11
114.1416311599922
 21
104.3081839185704
 31
0.0
 11
114.1074396937285
 21
104.2980493538314
 31
0.0
 11
114.0754664958413
 21
104.2824742476251
 31
0.0
 11
114.0459001860282
 21
104.2627301110006
 31
0.0
 11
114.0185869080428
 21
104.2399831339159
 31
0.0
 11
113.9933235309862
 21
104.2149872579043
 31
0.0
 11
113.9698533434321
 21
104.1883142777841
 31
0.0
 11
113.9479377041202
 21
104.1603493854154
 31
0.0
 11
113.9079825220943
 21
104.1016470963615
 31
0.0
 11
113.8722723027348
 21
104.0402085409805
 31
0.0
 11
113.8398707074433
 21
103.9769775852465
 31
0.0
 11
113.8102068138
 21
103.9124464668
 31
0.0
  0
SPLINE
  5
105
330
1F
100
AcDbEntity
  8
FASEN
  6
Continuous
 62
     7
100
AcDbSpline
210
0.0
220
0.0
230
1.0
 70
     8
 71
     3
 72
    19
 73
    15
 74
    13
 42
0.0000000001
 43
0.0000000001
 44
0.00000001
 40
0.0
 40
0.0
 40
0.0
 40
0.0
 40
0.0710236744616813
 40
0.1420741377442535
 40
0.2131378692160814
 40
0.2841485009986238
 40
0.3196779500070209
 40
0.3552069496970638
 40
0.3907443591002471
 40
0.4262874916437165
 40
0.4618403527501506
 40
0.497405489647429
 40
0.5330666493845929
 40
0.5685732488946219
 40
0.5685732488946219
 40
0.5685732488946219
 40
0.5685732488946219
 10
113.8102068138
 20
121.1124464668
 30
0.0
 10
113.8199098960062
 20
121.0908483290256
 30
0.0
 10
113.8393197202423
 20
121.0476439070573
 30
0.0
 10
113.8717699949111
 20
120.9844038053389
 30
0.0
 10
113.9072493093578
 20
120.9228157720254
 30
0.0
 10
113.9404425014284
 20
120.8737046848254
 30
0.0
 10
113.9695956981199
 20
120.8363619655762
 30
0.0
 10
113.993033832159
 20
120.8096269669415
 30
0.0
 10
114.0182462167689
 20
120.7845322647802
 30
0.0
 10
114.0455315472334
 20
120.7616812537827
 30
0.0
 10
114.0750577698006
 20
120.7417005210077
 30
0.0
 10
114.107099328537
 20
120.7259962080162
 30
0.0
 10
114.1413535867854
 20
120.7153047147547
 30
0.0
 10
114.1651043636948
 20
120.7138300421001
 30
0.0
 10
114.1769539615
 20
120.7130943071
 30
0.0
 11
113.8102068138
 21
121.1124464668
 31
0.0
 11
113.8398710975373
 21
121.0479143615779
 31
0.0
 11
113.8722731615416
 21
120.9846824504813
 31
0.0
 11
113.907984073263
 21
120.9232431738358
 31
0.0
 11
113.9479403390415
 21
120.8645404766985
 31
0.0
 11
113.9698564732226
 21
120.8365757702027
 31
0.0
 11
113.9933270926725
 21
120.8099029405513
 31
0.0
 11
114.0185893175989
 21
120.7849083919684
 31
0.0
 11
114.0459011957313
 21
120.762162500386
 31
0.0
 11
114.0754676102663
 21
120.7424183097366
 31
0.0
 11
114.1074409811102
 21
120.7268432489213
 31
0.0
 11
114.1416318290108
 21
120.7167089391944
 31
0.0
 11
114.1769539615
 21
120.7130943071
 31
0.0
  0
SPLINE
  5
106
330
1F
100
AcDbEntity
  8
0
  6
Continuous
 62
     7
100
AcDbSpline
210
0.0
220
0.0
230
1.0
 70
     8
 71
     3
 72
    25
 73
    21
 74
    19
 42
0.0000000001
 43
0.0000000001
 44
0.00000001
 40
0.0
 40
0.0
 40
0.0
 40
0.0
 40
0.1239880553180591
 40
0.2479744814066378
 40
0.3099722230579053
 40
0.3719691775525619
 40
0.4339700137409772
 40
0.495967313164716
 40
0.5579583281241562
 40
0.6199698189140191
 40
0.68199795410395
 40
0.7439758327695823
 40
0.7749898252852333
 40
0.8060036548540215
 40
0.8370304792669471
 40
0.8680591966123807
 40
0.8991088559537425
 40
0.9301665595172813
 40
0.9613026542388202
 40
0.9923391667020961
 40
0.9923391667020961
 40
0.9923391667020961
 40
0.9923391667020961
 10
117.0075189477
 20
103.5124464668
 30
0.0
 10
116.9960451559227
 20
103.5521544478644
 30
0.0
 10
116.9730977231362
 20
103.631569888222
 30
0.0
 10
116.9403007565102
 20
103.7295883138391
 30
0.0
 10
116.9118411529897
 20
103.807199233155
 30
0.0
 10
116.8891147918877
 20
103.8648896718435
 30
0.0
 10
116.8648712204714
 20
103.9219606271842
 30
0.0
 10
116.8388417115265
 20
103.9782407376102
 30
0.0
 10
116.810774365719
 20
104.0335429750598
 30
0.0
 10
116.7802101721767
 20
104.0875263302038
 30
0.0
 10
116.7467495066438
 20
104.13977460436
 30
0.0
 10
116.7156559107381
 20
104.1811349916015
 30
0.0
 10
116.6884878462684
 20
104.2123115106141
 30
0.0
 10
116.6667532659689
 20
104.2344708102563
 30
0.0
 10
116.6435159091442
 20
104.2550728451726
 30
0.0
 10
116.6185750910768
 20
104.2736116959785
 30
0.0
 10
116.591844530511
 20
104.2895532232559
 30
0.0
 10
116.5632386957127
 20
104.3018870892957
 30
0.0
 10
116.5330544144873
 20
104.3101331681082
 30
0.0
 10
116.5123097035175
 20
104.3112440668139
 30
0.0
 10
116.5019539615
 20
104.3117986265
 30
0.0
 11
117.0075189477
 21
103.5124464668
 31
0.0
 11
116.9722751136441
 21
103.6313199710917
 31
0.0
 11
116.933001456567
 21
103.748921900132
 31
0.0
 11
116.9116109729934
 21
103.8071126827556
 31
0.0
 11
116.8888624024538
 21
103.8647852490677
 31
0.0
 11
116.864572944303
 21
103.9218301954767
 31
0.0
 11
116.8385014382752
 21
103.9780791217711
 31
0.0
 11
116.8103622869139
 21
104.0333156504127
 31
0.0
 11
116.7797298225197
 21
104.0872329678081
 31
0.0
 11
116.7460982513816
 21
104.1393521291398
 31
0.0
 11
116.7086806670891
 21
104.188760446553
 31
0.0
 11
116.6882632578349
 21
104.2121056201679
 31
0.0
 11
116.6665065387912
 21
104.2342077196377
 31
0.0
 11
116.643234046164
 21
104.2547273424429
 31
0.0
 11
116.6182840484732
 21
104.2731739929609
 31
0.0
 11
116.5915397811164
 21
104.2889481968636
 31
0.0
 11
116.5629994924926
 21
104.3011969876573
 31
0.0
 11
116.5328677592844
 21
104.3090414155128
 31
0.0
 11
116.5019539615
 21
104.3117986265
 31
0.0
  0
SPLINE
  5
107
330
1F
100
AcDbEntity
  8
0
  6
Continuous
 62
     7
100
AcDbSpline
210
0.0
220
0.0
230
1.0
 70
     8
 71
     3
 72
    11
 73
     7
 74
     5
 42
0.0000000001
 43
0.0000000001
 44
0.00000001
 40
0.0
 40
0.0
 40
0.0
 40
0.0
 40
0.0910828807962721
 40
0.1822704384859639
 40
0.2734873446409299
 40
0.3645237789710311
 40
0.3645237789710311
 40
0.3645237789710311
 40
0.3645237789710311
 10
58.621123949
 20
124.4124464668
 30
0.0
 10
58.64705586862734
 20
124.4282921481522
 30
0.0
 10
58.6989495101101
 20
124.4600017214873
 30
0.0
 10
58.78241530776642
 20
124.4971651880556
 30
0.0
 10
58.86928493303996
 20
124.5258023884429
 30
0.0
 10
58.92937772861069
 20
124.5353115395476
 30
0.0
 10
58.9593943737
 20
124.540061407
 30
0.0
 11
58.621123949
 21
124.4124464668
 31
0.0
 11
58.69985203698694
 21
124.4582501711924
 31
0.0
 11
58.78297617999336
 21
124.4957408037139
 31
0.0
 11
58.86989150529151
 21
124.52342202834
 31
0.0
 11
58.9593943737
 21
124.540061407
 31
0.0
  0
SPLINE
  5
108
330
1F
100
AcDbEntity
  8
0
  6
Continuous
 62
     7
100
AcDbSpline
210
0.0
220
0.0
230
1.0
 70
     8
 71
     3
 72
     9
 73
     5
 74
     3
 42
0.0000000001
 43
0.0000000001
 44
0.00000001
 40
0.0
 40
0.0
 40
0.0
 40
0.0
 40
0.1121178550327557
 40
0.2241876568939645
 40
0.2241876568939645
 40
0.2241876568939645
 40
0.2241876568939645
 10
58.4439331055
 20
124.275383458
 30
0.0
 10
58.47212672374707
 20
124.2999703721951
 30
0.0
 10
58.52850187659247
 20
124.3491336627525
 30
0.0
 10
58.59025433694406
 20
124.3913452147084
 30
0.0
 10
58.621123949
 20
124.4124464668
 30
0.0
 11
58.4439331055
 21
124.275383458
 31
0.0
 11
58.529858863475
 21
124.347405520825
 31
0.0
 11
58.621123949
 21
124.4124464668
 31
0.0
  0
SPLINE
  5
109
330
1F
100
AcDbEntity
  8
FASEN
  6
Continuous
 62
     7
100
AcDbSpline
210
0.0
220
0.0
230
1.0
 70
     8
 71
     3
 72
    19
 73
    15
 74
    13
 42
0.0000000001
 43
0.0000000001
 44
0.00000001
 40
0.0
 40
0.0
 40
0.0
 40
0.0
 40
0.0355380830145276
 40
0.0712305623774941
 40
0.1068073091544314
 40
0.1423722988403517
 40
0.1779159207442055
 40
0.2134534050614084
 40
0.248976331509591
 40
0.2844999303332027
 40
0.3554928278804124
 40
0.4265383986780621
 40
0.4975694021977198
 40
0.5685737885154754
 40
0.5685737885154754
 40
0.5685737885154754
 40
0.5685737885154754
 10
116.5019539615
 20
120.7130943071
 30
0.0
 10
116.5138140859476
 20
120.7138308632577
 30
0.0
 10
116.5375858615361
 20
120.7153071755651
 30
0.0
 10
116.5718628814199
 20
120.7260116481372
 30
0.0
 10
116.6039154187342
 20
120.7417357448103
 30
0.0
 10
116.6334407289775
 20
120.7617320590537
 30
0.0
 10
116.6607240458272
 20
120.7845918131884
 30
0.0
 10
116.6859312966494
 20
120.8096890639899
 30
0.0
 10
116.7093624229032
 20
120.8364249497429
 30
0.0
 10
116.7385043542916
 20
120.8737638651971
 30
0.0
 10
116.7716872942689
 20
120.9228648580498
 30
0.0
 10
116.8071573435914
 20
120.9844369494951
 30
0.0
 10
116.8395969349069
 20
121.047661209408
 30
0.0
 10
116.8590009297947
 20
121.0908540790939
 30
0.0
 10
116.8687011091
 20
121.1124464668
 30
0.0
 11
116.5019539615
 21
120.7130943071
 31
0.0
 11
116.5373072762302
 21
120.7167134895958
 31
0.0
 11
116.5715263834212
 21
120.7268626662187
 31
0.0
 11
116.6035049425253
 21
120.7424535824477
 31
0.0
 11
116.6330745057595
 21
120.7622148936769
 31
0.0
 11
116.6603812821419
 21
120.7849676742024
 31
0.0
 11
116.6856393680088
 21
120.8099665119741
 31
0.0
 11
116.709101730148
 21
120.8366385172661
 31
0.0
 11
116.7310105406588
 21
120.8646015302543
 31
0.0
 11
116.7709532709869
 21
120.9232919877077
 31
0.0
 11
116.8066541894711
 21
120.9847160672641
 31
0.0
 11
116.839045886613
 21
121.047931424712
 31
0.0
 11
116.8687011091
 21
121.1124464668
 31
0.0
  0
SPLINE
  5
10A
330
1F
100
AcDbEntity
  8
0
  6
Continuous
 62
     7
100
AcDbSpline
210
0.0
220
0.0
230
1.0
 70
     8
 71
     3
 72
    11
 73
     7
 74
     5
 42
0.0000000001
 43
0.0000000001
 44
0.00000001
 40
0.0
 40
0.0
 40
0.0
 40
0.0
 40
0.7132110075096446
 40
1.426361317768476
 40
1.831519457909938
 40
2.236026825432897
 40
2.236026825432897
 40
2.236026825432897
 40
2.236026825432897
 10
58.443933105635
 20
100.749509475492
 30
0.0
 10
58.55314556810109
 20
100.9609890786742
 30
0.0
 10
58.77156119859421
 20
101.3839302872364
 30
0.0
 10
58.96595393477411
 20
101.9652796628221
 30
0.0
 10
59.07127213105638
 20
102.4634186282096
 30
0.0
 10
59.08339659971915
 20
102.7334724884409
 30
0.0
 10
59.0894539615
 20
102.86839089
 30
0.0
 11
58.443933105635
 21
100.749509475492
 31
0.0
 11
58.75481273416912
 21
101.3914002744566
 31
0.0
 11
58.98182694655542
 21
102.0674534620069
 31
0.0
 11
59.06033146702686
 21
102.4649332209738
 31
0.0
 11
59.0894539615
 21
102.86839089
 31
0.0
  0
SPLINE
  5
10B
330
1F
100
AcDbEntity
  8
0
  6
Continuous
 62
     7
100
AcDbSpline
210
0.0
220
0.0
230
1.0
 70
     8
 71
     3
 72
    11
 73
     7
 74
     5
 42
0.0000000001
 43
0.0000000001
 44
0.00000001
 40
0.0
 40
0.0
 40
0.0
 40
0.0
 40
0.6210757380668845
 40
1.242411211129398
 40
1.73918073556073
 40
2.235731818863774
 40
2.235731818863774
 40
2.235731818863774
 40
2.235731818863774
 10
59.0894539615
 20
122.1565020436
 30
0.0
 10
59.07525728221249
 20
122.3636686459613
 30
0.0
 10
59.04685798656055
 20
122.7780884881314
 30
0.0
 10
58.87688500722959
 20
123.3362336840292
 30
0.0
 10
58.67582712768688
 20
123.8357885003459
 30
0.0
 10
58.52121977975201
 20
124.128873289612
 30
0.0
 10
58.443933105635
 20
124.275383458108
 30
0.0
 11
59.0894539615
 21
122.1565020436
 31
0.0
 11
59.02361774996354
 21
122.7740784888
 31
0.0
 11
58.8554613301634
 21
123.3722266214275
 31
0.0
 11
58.66806689988052
 21
123.8322954074831
 31
0.0
 11
58.443933105635
 21
124.275383458108
 31
0.0
  0
DIMENSION
  5
116
330
1F
100
AcDbEntity
  8
1
100
AcDbDimension
  2
*D2
 10
204.127515644463
 20
118.5124464668
 30
0.0
 11
200.377515644463
 21
112.554948868887
 31
0.0
 70
    32
  1
<>
 71
     5
 42
-1.0
 53
90.0
  3
ME10_DIM_10
100
AcDbAlignedDimension
 13
192.3394539615
 23
106.5124464668
 33
0.0
 14
192.3394539615
 24
118.5124464668
 34
0.0
 50
90.0
100
AcDbRotatedDimension
  0
DIMENSION
  5
121
330
1F
100
AcDbEntity
  8
1
100
AcDbDimension
  2
*D3
 10
213.593495510929
 20
124.5124464668466
 30
0.0
 11
209.843495510929
 21
112.433590152651
 31
0.0
 70
    32
  1
<>
 71
     5
 42
-1.0
 53
90.0
  3
ME10_DIM_11
100
AcDbAlignedDimension
 13
192.3394539615
 23
100.5124464667559
 33
0.0
 14
192.3394539615
 24
124.5124464668466
 34
0.0
 50
90.0
100
AcDbRotatedDimension
  0
DIMENSION
  5
12C
330
1F
100
AcDbEntity
  8
1
100
AcDbDimension
  2
*D4
 10
221.603170782554
 20
128.5124464668
 30
0.0
 11
217.853170782554
 21
112.190872720177
 31
0.0
 70
    32
  1
<>
 71
     5
 42
-1.0
 53
90.0
  3
ME10_DIM_12
100
AcDbAlignedDimension
 13
141.5146350168
 23
96.5124464668
 33
0.0
 14
141.5146350168
 24
128.5124464668
 34
0.0
 50
90.0
100
AcDbRotatedDimension
  0
DIMENSION
  5
137
330
1F
100
AcDbEntity
  8
1
100
AcDbDimension
  2
*D5
 10
192.3394539615
 20
162.069305093476
 30
0.0
 11
156.797616312136
 21
165.819305093476
 31
0.0
 70
    32
  1
<>
 71
     5
 42
-1.0
 53
0.00013888888889
  3
ME10_DIM_13
100
AcDbAlignedDimension
 13
123.2894539615
 23
152.5124041726
 33
0.0
 14
192.3394539615
 24
123.5880559752
 34
0.0
100
AcDbRotatedDimension
  0
DIMENSION
  5
142
330
1F
100
AcDbEntity
  8
1
100
AcDbDimension
  2
*D6
 10
192.3394539615
 20
169.714904216391
 30
0.0
 11
143.205440093621
 21
173.464904216391
 31
0.0
 70
    32
  1
<>
 71
     5
 42
-1.0
 53
0.00013888888889
  3
ME10_DIM_14
100
AcDbAlignedDimension
 13
97.3394539615
 23
152.5124464668
 33
0.0
 14
192.3394539615
 24
123.5880559752
 34
0.0
100
AcDbRotatedDimension
  0
DIMENSION
  5
14D
330
1F
100
AcDbEntity
  8
1
100
AcDbDimension
  2
*D7
 10
192.3394539615
 20
177.845938204252
 30
0.0
 11
130.462774888764
 21
181.595938204252
 31
0.0
 70
    32
  1
<>
 71
     5
 42
-1.0
 53
0.00013888888889
  3
ME10_DIM_15
100
AcDbAlignedDimension
 13
57.4394539615
 23
139.3983672669
 33
0.0
 14
192.3394539615
 24
123.5880559752
 34
0.0
100
AcDbRotatedDimension
  0
INSERT
  5
154
330
1F
100
AcDbEntity
  8
1
100
AcDbBlockReference
  2
*D8
 10
0.0
 20
0.0
 30
0.0
  0
DIMENSION
  5
15F
330
1F
100
AcDbEntity
  8
1
100
AcDbDimension
  2
*D9
 10
175.1524841642448
 20
127.1908117742966
 30
0.0
 11
178.0573174403638
 21
136.5389647164706
 31
0.0
 70
    37
  1
<>
 71
     5
 42
-1.0
  3
ME10_DIM_16
100
AcDb3PointAngularDimension
 13
175.0746634670842
 23
125.8712149466953
 33
0.0
 14
144.881015288734
 24
128.5124464667999
 34
0.0
 15
141.5146350168
 25
128.5124464667999
 35
0.0
  0
ENDSEC
  0
SECTION
  2
OBJECTS
  0
DICTIONARY
  5
C
330
0
100
AcDbDictionary
281
     1
  3
ACAD_GROUP
350
D
  3
ACAD_LAYOUT
350
1A
  3
ACAD_MLEADERSTYLE
350
162
  3
ACAD_MLINESTYLE
350
17
  3
ACAD_PLOTSETTINGS
350
19
  3
ACAD_PLOTSTYLENAME
350
E
  3
ACAD_SCALELIST
350
4C
  3
ACAD_VISUALSTYLE
350
2A
  3
AcDbVariableDictionary
350
160
  0
DICTIONARY
  5
D
102
{ACAD_REACTORS
330
C
102
}
330
C
100
AcDbDictionary
281
     1
  0
DICTIONARY
  5
1A
102
{ACAD_REACTORS
330
C
102
}
330
C
100
AcDbDictionary
281
     1
  3
Layout1
350
1E
  3
Layout2
350
26
  3
Model
350
22
  0
DICTIONARY
  5
162
102
{ACAD_REACTORS
330
C
102
}
330
C
100
AcDbDictionary
281
     1
  0
DICTIONARY
  5
17
102
{ACAD_REACTORS
330
C
102
}
330
C
100
AcDbDictionary
281
     1
  3
Standard
350
18
  0
DICTIONARY
  5
19
102
{ACAD_REACTORS
330
C
102
}
330
C
100
AcDbDictionary
281
     1
  0
ACDBDICTIONARYWDFLT
  5
E
102
{ACAD_REACTORS
330
C
102
}
330
C
100
AcDbDictionary
281
     1
  3
Normal
350
F
100
AcDbDictionaryWithDefault
340
F
  0
DICTIONARY
  5
4C
102
{ACAD_REACTORS
330
C
102
}
330
C
100
AcDbDictionary
281
     1
  3
A0
350
4D
  3
A1
350
4E
  3
A2
350
4F
  3
A3
350
50
  3
A4
350
51
  3
A5
350
52
  3
A6
350
53
  3
A7
350
54
  3
A8
350
55
  3
A9
350
56
  3
B0
350
57
  3
B1
350
58
  3
B2
350
59
  3
B3
350
5A
  3
B4
350
5B
  3
B5
350
5C
  3
B6
350
5D
  3
B7
350
5E
  3
B8
350
5F
  3
B9
350
60
  3
C0
350
61
  3
C1
350
62
  3
C2
350
63
  3
C3
350
64
  3
C4
350
65
  3
C5
350
66
  3
C6
350
67
  3
C7
350
68
  3
C8
350
69
  3
C9
350
6A
  3
D0
350
6B
  3
D1
350
6C
  3
D2
350
6D
  0
DICTIONARY
  5
2A
102
{ACAD_REACTORS
330
C
102
}
330
C
100
AcDbDictionary
281
     1
  3
2dWireframe
350
2F
  3
3D Hidden
350
31
  3
3dWireframe
350
30
  3
Basic
350
32
  3
Brighten
350
36
  3
ColorChange
350
3A
  3
Conceptual
350
34
  3
Dim
350
35
  3
Facepattern
350
39
  3
Flat
350
2B
  3
FlatWithEdges
350
2C
  3
Gouraud
350
2D
  3
GouraudWithEdges
350
2E
  3
Linepattern
350
38
  3
Realistic
350
33
  3
Thicken
350
37
  0
DICTIONARY
  5
160
102
{ACAD_REACTORS
330
C
102
}
330
C
100
AcDbDictionary
281
     1
  3
CANNOSCALE
350
163
  0
LAYOUT
  5
1E
102
{ACAD_REACTORS
330
1A
102
}
330
1A
100
AcDbPlotSettings
  1

  2
none_device
  4

  6

 40
0.0
 41
0.0
 42
0.0
 43
0.0
 44
0.0
 45
0.0
 46
0.0
 47
0.0
 48
0.0
 49
0.0
140
0.0
141
0.0
142
1.0
143
1.0
 70
   688
 72
     0
 73
     0
 74
     5
  7

 75
    16
147
1.0
148
0.0
149
0.0
100
AcDbLayout
  1
Layout1
 70
     1
 71
     1
 10
0.0
 20
0.0
 11
12.0
 21
9.0
 12
0.0
 22
0.0
 32
0.0
 14
1.00000000000000E+20
 24
1.00000000000000E+20
 34
1.00000000000000E+20
 15
-1.00000000000000E+20
 25
-1.00000000000000E+20
 35
-1.00000000000000E+20
146
0.0
 13
0.0
 23
0.0
 33
0.0
 16
1.0
 26
0.0
 36
0.0
 17
0.0
 27
1.0
 37
0.0
 76
     0
330
1B
  0
LAYOUT
  5
26
102
{ACAD_REACTORS
330
1A
102
}
330
1A
100
AcDbPlotSettings
  1

  2
none_device
  4

  6

 40
0.0
 41
0.0
 42
0.0
 43
0.0
 44
0.0
 45
0.0
 46
0.0
 47
0.0
 48
0.0
 49
0.0
140
0.0
141
0.0
142
1.0
143
1.0
 70
   688
 72
     0
 73
     0
 74
     5
  7

 75
    16
147
1.0
148
0.0
149
0.0
100
AcDbLayout
  1
Layout2
 70
     1
 71
     2
 10
0.0
 20
0.0
 11
0.0
 21
0.0
 12
0.0
 22
0.0
 32
0.0
 14
0.0
 24
0.0
 34
0.0
 15
0.0
 25
0.0
 35
0.0
146
0.0
 13
0.0
 23
0.0
 33
0.0
 16
1.0
 26
0.0
 36
0.0
 17
0.0
 27
1.0
 37
0.0
 76
     0
330
23
  0
LAYOUT
  5
22
102
{ACAD_REACTORS
330
1A
102
}
330
1A
100
AcDbPlotSettings
  1

  2
none_device
  4

  6

 40
0.0
 41
0.0
 42
0.0
 43
0.0
 44
0.0
 45
0.0
 46
0.0
 47
0.0
 48
0.0
 49
0.0
140
0.0
141
0.0
142
1.0
143
1.0
 70
  1712
 72
     0
 73
     0
 74
     0
  7

 75
     0
147
1.0
148
0.0
149
0.0
100
AcDbLayout
  1
Model
 70
     1
 71
     0
 10
0.0
 20
0.0
 11
12.0
 21
9.0
 12
0.0
 22
0.0
 32
0.0
 14
31.35356444005
 24
72.5124464668
 34
0.0
 15
223.603170782554
 25
183.708873280326
 35
0.0
146
0.0
 13
0.0
 23
0.0
 33
0.0
 16
1.0
 26
0.0
 36
0.0
 17
0.0
 27
1.0
 37
0.0
 76
     0
330
1F
331
29
  0
MLINESTYLE
  5
18
102
{ACAD_REACTORS
330
17
102
}
330
17
100
AcDbMlineStyle
  2
Standard
 70
     0
  3

 62
   256
 51
90.0
 52
90.0
 71
     2
 49
0.5
 62
   256
  6
BYLAYER
 49
-0.5
 62
   256
  6
BYLAYER
  0
ACDBPLACEHOLDER
  5
F
102
{ACAD_REACTORS
330
E
102
}
330
E
  0
SCALE
  5
4D
102
{ACAD_REACTORS
330
4C
102
}
330
4C
100
AcDbScale
 70
     0
300
1:1
140
1.0
141
1.0
290
     1
  0
SCALE
  5
4E
102
{ACAD_REACTORS
330
4C
102
}
330
4C
100
AcDbScale
 70
     0
300
1:2
140
1.0
141
2.0
290
     0
  0
SCALE
  5
4F
102
{ACAD_REACTORS
330
4C
102
}
330
4C
100
AcDbScale
 70
     0
300
1:4
140
1.0
141
4.0
290
     0
  0
SCALE
  5
50
102
{ACAD_REACTORS
330
4C
102
}
330
4C
100
AcDbScale
 70
     0
300
1:5
140
1.0
141
5.0
290
     0
  0
SCALE
  5
51
102
{ACAD_REACTORS
330
4C
102
}
330
4C
100
AcDbScale
 70
     0
300
1:8
140
1.0
141
8.0
290
     0
  0
SCALE
  5
52
102
{ACAD_REACTORS
330
4C
102
}
330
4C
100
AcDbScale
 70
     0
300
1:10
140
1.0
141
10.0
290
     0
  0
SCALE
  5
53
102
{ACAD_REACTORS
330
4C
102
}
330
4C
100
AcDbScale
 70
     0
300
1:16
140
1.0
141
16.0
290
     0
  0
SCALE
  5
54
102
{ACAD_REACTORS
330
4C
102
}
330
4C
100
AcDbScale
 70
     0
300
1:20
140
1.0
141
20.0
290
     0
  0
SCALE
  5
55
102
{ACAD_REACTORS
330
4C
102
}
330
4C
100
AcDbScale
 70
     0
300
1:30
140
1.0
141
30.0
290
     0
  0
SCALE
  5
56
102
{ACAD_REACTORS
330
4C
102
}
330
4C
100
AcDbScale
 70
     0
300
1:40
140
1.0
141
40.0
290
     0
  0
SCALE
  5
57
102
{ACAD_REACTORS
330
4C
102
}
330
4C
100
AcDbScale
 70
     0
300
1:50
140
1.0
141
50.0
290
     0
  0
SCALE
  5
58
102
{ACAD_REACTORS
330
4C
102
}
330
4C
100
AcDbScale
 70
     0
300
1:100
140
1.0
141
100.0
290
     0
  0
SCALE
  5
59
102
{ACAD_REACTORS
330
4C
102
}
330
4C
100
AcDbScale
 70
     0
300
2:1
140
2.0
141
1.0
290
     0
  0
SCALE
  5
5A
102
{ACAD_REACTORS
330
4C
102
}
330
4C
100
AcDbScale
 70
     0
300
4:1
140
4.0
141
1.0
290
     0
  0
SCALE
  5
5B
102
{ACAD_REACTORS
330
4C
102
}
330
4C
100
AcDbScale
 70
     0
300
8:1
140
8.0
141
1.0
290
     0
  0
SCALE
  5
5C
102
{ACAD_REACTORS
330
4C
102
}
330
4C
100
AcDbScale
 70
     0
300
10:1
140
10.0
141
1.0
290
     0
  0
SCALE
  5
5D
102
{ACAD_REACTORS
330
4C
102
}
330
4C
100
AcDbScale
 70
     0
300
100:1
140
100.0
141
1.0
290
     0
  0
SCALE
  5
5E
102
{ACAD_REACTORS
330
4C
102
}
330
4C
100
AcDbScale
 70
     0
300
1/128" = 1'-0"
140
0.0078125
141
12.0
290
     0
  0
SCALE
  5
5F
102
{ACAD_REACTORS
330
4C
102
}
330
4C
100
AcDbScale
 70
     0
300
1/64" = 1'-0"
140
0.015625
141
12.0
290
     0
  0
SCALE
  5
60
102
{ACAD_REACTORS
330
4C
102
}
330
4C
100
AcDbScale
 70
     0
300
1/32" = 1'-0"
140
0.03125
141
12.0
290
     0
  0
SCALE
  5
61
102
{ACAD_REACTORS
330
4C
102
}
330
4C
100
AcDbScale
 70
     0
300
1/16" = 1'-0"
140
0.0625
141
12.0
290
     0
  0
SCALE
  5
62
102
{ACAD_REACTORS
330
4C
102
}
330
4C
100
AcDbScale
 70
     0
300
3/32" = 1'-0"
140
0.09375
141
12.0
290
     0
  0
SCALE
  5
63
102
{ACAD_REACTORS
330
4C
102
}
330
4C
100
AcDbScale
 70
     0
300
1/8" = 1'-0"
140
0.125
141
12.0
290
     0
  0
SCALE
  5
64
102
{ACAD_REACTORS
330
4C
102
}
330
4C
100
AcDbScale
 70
     0
300
3/16" = 1'-0"
140
0.1875
141
12.0
290
     0
  0
SCALE
  5
65
102
{ACAD_REACTORS
330
4C
102
}
330
4C
100
AcDbScale
 70
     0
300
1/4" = 1'-0"
140
0.25
141
12.0
290
     0
  0
SCALE
  5
66
102
{ACAD_REACTORS
330
4C
102
}
330
4C
100
AcDbScale
 70
     0
300
3/8" = 1'-0"
140
0.375
141
12.0
290
     0
  0
SCALE
  5
67
102
{ACAD_REACTORS
330
4C
102
}
330
4C
100
AcDbScale
 70
     0
300
1/2" = 1'-0"
140
0.5
141
12.0
290
     0
  0
SCALE
  5
68
102
{ACAD_REACTORS
330
4C
102
}
330
4C
100
AcDbScale
 70
     0
300
3/4" = 1'-0"
140
0.75
141
12.0
290
     0
  0
SCALE
  5
69
102
{ACAD_REACTORS
330
4C
102
}
330
4C
100
AcDbScale
 70
     0
300
1" = 1'-0"
140
1.0
141
12.0
290
     0
  0
SCALE
  5
6A
102
{ACAD_REACTORS
330
4C
102
}
330
4C
100
AcDbScale
 70
     0
300
1-1/2" = 1'-0"
140
1.5
141
12.0
290
     0
  0
SCALE
  5
6B
102
{ACAD_REACTORS
330
4C
102
}
330
4C
100
AcDbScale
 70
     0
300
3" = 1'-0"
140
3.0
141
12.0
290
     0
  0
SCALE
  5
6C
102
{ACAD_REACTORS
330
4C
102
}
330
4C
100
AcDbScale
 70
     0
300
6" = 1'-0"
140
6.0
141
12.0
290
     0
  0
SCALE
  5
6D
102
{ACAD_REACTORS
330
4C
102
}
330
4C
100
AcDbScale
 70
     0
300
1'-0" = 1'-0"
140
12.0
141
12.0
290
     0
  0
VISUALSTYLE
  5
2F
102
{ACAD_REACTORS
330
2A
102
}
330
2A
100
AcDbVisualStyle
  2
2dWireframe
 70
     4
 71
     0
 72
     2
 73
     0
 90
        0
 40
-0.6
 41
-30.0
 62
     5
 63
     7
 74
     1
 91
        4
 64
     7
 65
   257
 75
     1
175
     1
 42
1.0
 92
        0
 66
   257
 43
1.0
 76
     1
 77
     6
 78
     2
 67
     7
 79
     5
170
     0
171
     0
290
     0
174
     0
 93
        1
 44
0.0
173
     0
291
     0
 45
0.0
1001
ACAD
1000
AcDbSavedByObjectVersion
1070
     0
  0
VISUALSTYLE
  5
31
102
{ACAD_REACTORS
330
2A
102
}
330
2A
100
AcDbVisualStyle
  2
3D Hidden
 70
     6
 71
     1
 72
     2
 73
     2
 90
        0
 40
-0.6
 41
-30.0
 62
     5
 63
     7
 74
     2
 91
        2
 64
     7
 65
   257
 75
     2
175
     1
 42
40.0
 92
        0
 66
   257
 43
1.0
 76
     1
 77
     6
 78
     2
 67
     7
 79
     3
170
     0
171
     0
290
     0
174
     0
 93
        1
 44
0.0
173
     0
291
     0
 45
0.0
1001
ACAD
1000
AcDbSavedByObjectVersion
1070
     0
  0
VISUALSTYLE
  5
30
102
{ACAD_REACTORS
330
2A
102
}
330
2A
100
AcDbVisualStyle
  2
3dWireframe
 70
     5
 71
     0
 72
     2
 73
     0
 90
        0
 40
-0.6
 41
-30.0
 62
     5
 63
     7
 74
     1
 91
        4
 64
     7
 65
   257
 75
     1
175
     1
 42
1.0
 92
        0
 66
   257
 43
1.0
 76
     1
 77
     6
 78
     2
 67
     7
 79
     5
170
     0
171
     0
290
     0
174
     0
 93
        1
 44
0.0
173
     0
291
     0
 45
0.0
1001
ACAD
1000
AcDbSavedByObjectVersion
1070
     0
  0
VISUALSTYLE
  5
32
102
{ACAD_REACTORS
330
2A
102
}
330
2A
100
AcDbVisualStyle
  2
Basic
 70
     7
 71
     1
 72
     0
 73
     1
 90
        0
 40
-0.6
 41
-30.0
 62
     5
 63
     7
 74
     0
 91
        4
 64
     7
 65
   257
 75
     1
175
     1
 42
1.0
 92
        8
 66
     7
 43
1.0
 76
     1
 77
     6
 78
     2
 67
     7
 79
     5
170
     0
171
     0
290
     0
174
     0
 93
        1
 44
0.0
173
     0
291
     1
 45
0.0
1001
ACAD
1000
AcDbSavedByObjectVersion
1070
     0
  0
VISUALSTYLE
  5
36
102
{ACAD_REACTORS
330
2A
102
}
330
2A
100
AcDbVisualStyle
  2
Brighten
 70
    12
 71
     2
 72
     2
 73
     0
 90
        0
 40
-0.6
 41
-30.0
 62
     5
 63
     7
 74
     1
 91
        4
 64
     7
 65
   257
 75
     1
175
     1
 42
1.0
 92
        8
 66
     7
 43
1.0
 76
     1
 77
     6
 78
     2
 67
     7
 79
     5
170
     0
171
     0
290
     0
174
     0
 93
        1
 44
50.0
173
     0
291
     1
 45
0.0
1001
ACAD
1000
AcDbSavedByObjectVersion
1070
     0
  0
VISUALSTYLE
  5
3A
102
{ACAD_REACTORS
330
2A
102
}
330
2A
100
AcDbVisualStyle
  2
ColorChange
 70
    16
 71
     2
 72
     2
 73
     3
 90
        0
 40
-0.6
 41
-30.0
 62
     5
 63
     8
 74
     1
 91
        4
 64
     7
 65
   257
 75
     1
175
     1
 42
1.0
 92
        8
 66
     8
 43
1.0
 76
     1
 77
     6
 78
     2
 67
     7
 79
     5
170
     0
171
     0
290
     0
174
     0
 93
        1
 44
0.0
173
     0
291
     1
 45
0.0
1001
ACAD
1000
AcDbSavedByObjectVersion
1070
     0
  0
VISUALSTYLE
  5
34
102
{ACAD_REACTORS
330
2A
102
}
330
2A
100
AcDbVisualStyle
  2
Conceptual
 70
     9
 71
     3
 72
     2
 73
     0
 90
        0
 40
-0.6
 41
-30.0
 62
     5
 63
     7
 74
     2
 91
        2
 64
     7
 65
   257
 75
     1
175
     1
 42
40.0
 92
        8
 66
     7
 43
1.0
 76
     1
 77
     6
 78
     2
 67
     7
 79
     3
170
     0
171
     0
290
     0
174
     0
 93
        1
 44
0.0
173
     0
291
     0
 45
0.0
1001
ACAD
1000
AcDbSavedByObjectVersion
1070
     0
  0
VISUALSTYLE
  5
35
102
{ACAD_REACTORS
330
2A
102
}
330
2A
100
AcDbVisualStyle
  2
Dim
 70
    11
 71
     2
 72
     2
 73
     0
 90
        0
 40
-0.6
 41
-30.0
 62
     5
 63
     7
 74
     1
 91
        4
 64
     7
 65
   257
 75
     1
175
     1
 42
1.0
 92
        8
 66
     7
 43
1.0
 76
     1
 77
     6
 78
     2
 67
     7
 79
     5
170
     0
171
     0
290
     0
174
     0
 93
        1
 44
-50.0
173
     0
291
     1
 45
0.0
1001
ACAD
1000
AcDbSavedByObjectVersion
1070
     0
  0
VISUALSTYLE
  5
39
102
{ACAD_REACTORS
330
2A
102
}
330
2A
100
AcDbVisualStyle
  2
Facepattern
 70
    15
 71
     2
 72
     2
 73
     0
 90
        0
 40
-0.6
 41
-30.0
 62
     5
 63
     7
 74
     1
 91
        4
 64
     7
 65
   257
 75
     1
175
     1
 42
1.0
 92
        8
 66
     7
 43
1.0
 76
     1
 77
     6
 78
     2
 67
     7
 79
     5
170
     0
171
     0
290
     0
174
     0
 93
        1
 44
0.0
173
     0
291
     1
 45
0.0
1001
ACAD
1000
AcDbSavedByObjectVersion
1070
     0
  0
VISUALSTYLE
  5
2B
102
{ACAD_REACTORS
330
2A
102
}
330
2A
100
AcDbVisualStyle
  2
Flat
 70
     0
 71
     2
 72
     1
 73
     1
 90
        2
 40
-0.6
 41
30.0
 62
     5
 63
     7
 74
     0
 91
        4
 64
     7
 65
   257
 75
     1
175
     1
 42
1.0
 92
        8
 66
     7
 43
1.0
 76
     1
 77
     6
 78
     2
 67
     7
 79
     5
170
     0
171
     0
290
     0
174
     0
 93
       13
 44
0.0
173
     0
291
     1
 45
0.0
1001
ACAD
1000
AcDbSavedByObjectVersion
1070
     0
  0
VISUALSTYLE
  5
2C
102
{ACAD_REACTORS
330
2A
102
}
330
2A
100
AcDbVisualStyle
  2
FlatWithEdges
 70
     1
 71
     2
 72
     1
 73
     1
 90
        2
 40
-0.6
 41
30.0
 62
     5
 63
     7
 74
     1
 91
        4
 64
     7
 65
   257
 75
     1
175
     1
 42
1.0
 92
        0
 66
   257
 43
1.0
 76
     1
 77
     6
 78
     2
 67
     7
 79
     5
170
     0
171
     0
290
     0
174
     0
 93
       13
 44
0.0
173
     0
291
     1
 45
0.0
1001
ACAD
1000
AcDbSavedByObjectVersion
1070
     0
  0
VISUALSTYLE
  5
2D
102
{ACAD_REACTORS
330
2A
102
}
330
2A
100
AcDbVisualStyle
  2
Gouraud
 70
     2
 71
     2
 72
     2
 73
     1
 90
        2
 40
-0.6
 41
30.0
 62
     5
 63
     7
 74
     0
 91
        4
 64
     7
 65
   257
 75
     1
175
     1
 42
1.0
 92
        0
 66
     7
 43
1.0
 76
     1
 77
     6
 78
     2
 67
     7
 79
     5
170
     0
171
     0
290
     0
174
     0
 93
       13
 44
0.0
173
     0
291
     1
 45
0.0
1001
ACAD
1000
AcDbSavedByObjectVersion
1070
     0
  0
VISUALSTYLE
  5
2E
102
{ACAD_REACTORS
330
2A
102
}
330
2A
100
AcDbVisualStyle
  2
GouraudWithEdges
 70
     3
 71
     2
 72
     2
 73
     1
 90
        2
 40
-0.6
 41
30.0
 62
     5
 63
     7
 74
     1
 91
        4
 64
     7
 65
   257
 75
     1
175
     1
 42
1.0
 92
        0
 66
   257
 43
1.0
 76
     1
 77
     6
 78
     2
 67
     7
 79
     5
170
     0
171
     0
290
     0
174
     0
 93
       13
 44
0.0
173
     0
291
     1
 45
0.0
1001
ACAD
1000
AcDbSavedByObjectVersion
1070
     0
  0
VISUALSTYLE
  5
38
102
{ACAD_REACTORS
330
2A
102
}
330
2A
100
AcDbVisualStyle
  2
Linepattern
 70
    14
 71
     2
 72
     2
 73
     0
 90
        0
 40
-0.6
 41
-30.0
 62
     5
 63
     7
 74
     1
 91
        4
 64
     7
 65
   257
 75
     7
175
     7
 42
1.0
 92
        8
 66
     7
 43
1.0
 76
     1
 77
     6
 78
     2
 67
     7
 79
     5
170
     0
171
     0
290
     0
174
     0
 93
        1
 44
0.0
173
     0
291
     1
 45
0.0
1001
ACAD
1000
AcDbSavedByObjectVersion
1070
     0
  0
VISUALSTYLE
  5
33
102
{ACAD_REACTORS
330
2A
102
}
330
2A
100
AcDbVisualStyle
  2
Realistic
 70
     8
 71
     2
 72
     2
 73
     0
 90
        0
 40
-0.6
 41
-30.0
 62
     5
 63
     7
 74
     1
 91
        0
 64
     7
 65
   257
 75
     1
175
     1
 42
1.0
 92
        8
 66
     8
 43
1.0
 76
     1
 77
     6
 78
     2
 67
     7
 79
     5
170
     0
171
     0
290
     0
174
     0
 93
       13
 44
0.0
173
     0
291
     0
 45
0.0
1001
ACAD
1000
AcDbSavedByObjectVersion
1070
     0
  0
VISUALSTYLE
  5
37
102
{ACAD_REACTORS
330
2A
102
}
330
2A
100
AcDbVisualStyle
  2
Thicken
 70
    13
 71
     2
 72
     2
 73
     0
 90
        0
 40
-0.6
 41
-30.0
 62
     5
 63
     7
 74
     1
 91
        4
 64
     7
 65
   257
 75
     1
175
     1
 42
1.0
 92
       12
 66
     7
 43
1.0
 76
     1
 77
     6
 78
     2
 67
     7
 79
     5
170
     0
171
     0
290
     0
174
     0
 93
        1
 44
0.0
173
     0
291
     1
 45
0.0
1001
ACAD
1000
AcDbSavedByObjectVersion
1070
     0
  0
DICTIONARYVAR
  5
163
102
{ACAD_REACTORS
330
160
102
}
330
160
100
DictionaryVariables
280
     0
  1
1:1
  0
ENDSEC
  0
EOF
