999
DXF file: 200_a80-140-10-bmg.dxf
999
Pro/ENGINEER 2010430 by Parametric Technology Corporation
  0
SECTION
  2
HEADER
  9
$ACADVER
  1
AC1021
  9
$DWGCODEPAGE
  3
ANSI_1252
  9
$EXTMAX
 10
420.0
 20
297.0
 30
0.0
  9
$EXTMIN
 10
0.0
 20
0.0
 30
0.0
  9
$LIMMIN
 10
0.0
 20
0.0
  9
$LIMMAX
 10
420.0
 20
297.0
  9
$VIEWCTR
 10
210.0
 20
148.5
  9
$VIEWSIZE
 40
297.0
  9
$CLAYER
  8
0
  9
$LTSCALE
 40
23.1
  9
$CELTYPE
  6
BYLAYER
  9
$DIMSCALE
 40
1.0
  9
$DIMASZ
 40
3.5
  9
$DIMEXO
 40
2.625
  9
$DIMDLI
 40
15.96
  9
$DIMEXE
 40
7.56
  9
$DIMCEN
 40
3.78
  9
$DIMLFAC
 40
1.0
  9
$DIMBLK
  1
_FILLED
  9
$DIMTXT
 40
3.5
  9
$DIMTOL
 70
0
  9
$DIMLIM
 70
0
  9
$DIMTFAC
 40
1.0
  9
$PDMODE
 70
3
  9
$PDSIZE
 40
0.3125
  9
$HANDSEED
  5
321
  9
$TILEMODE
 70
1
  9
$MEASUREMENT
 70
1
  9
$INSUNITS
 70
4
  0
ENDSEC
  0
SECTION
  2
CLASSES
  0
CLASS
  1
ACDBDICTIONARYWDFLT
  2
AcDbDictionaryWithDefault
  3
AutoCAD 2000
 90
0
 91
1
280
0
281
0
  0
CLASS
  1
ACDBPLACEHOLDER
  2
AcDbPlaceHolder
  3
AutoCAD 2000
 90
0
 91
1
280
0
281
0
  0
CLASS
  1
LAYOUT
  2
AcDbLayout
  3
AutoCAD 2000
 90
0
 91
0
280
0
281
0
  0
ENDSEC
  0
SECTION
  2
TABLES
  0
TABLE
  2
VPORT
  5
8
100
AcDbSymbolTable
 70
2
  0
VPORT
  5
1F4
100
AcDbSymbolTableRecord
100
AcDbViewportTableRecord
  2
*ACTIVE
 70
0
 10
0.0
 20
0.0
 11
1.0
 21
1.0
 12
210.0
 22
148.5
 13
0.0
 23
0.0
 14
1.0
 24
1.0
 15
0.0
 25
0.0
 16
0.0
 26
0.0
 36
1.0
 17
0.0
 27
0.0
 37
0.0
 40
297.0
 41
1.4141414141
 42
50.0
 43
0.0
 44
0.0
 50
0.0
 51
0.0
 71
0
 72
100
 73
1
 74
1
 75
0
 76
0
 77
0
 78
0
  0
ENDTAB
  0
TABLE
  2
LTYPE
  5
5
100
AcDbSymbolTable
 70
6
  0
LTYPE
  5
14
100
AcDbSymbolTableRecord
100
AcDbLinetypeTableRecord
  2
BYBLOCK
 70
0
  3

 72
65
 73
0
 40
0.0
  0
LTYPE
  5
15
100
AcDbSymbolTableRecord
100
AcDbLinetypeTableRecord
  2
BYLAYER
 70
0
  3

 72
65
 73
0
 40
0.0
  0
LTYPE
  5
16
100
AcDbSymbolTableRecord
100
AcDbLinetypeTableRecord
  2
CONTINUOUS
 70
64
  3
Solid line
 72
65
 73
0
 40
0.0
  0
LTYPE
  5
1F5
100
AcDbSymbolTableRecord
100
AcDbLinetypeTableRecord
  2
CENTER
 70
64
  3
____ _ ____ _ ____ _ ____ _ ____ _ ____ _ ____
 72
65
 73
4
 40
0.6
 49
0.375
 74
0
 49
-0.075
 74
0
 49
0.075
 74
0
 49
-0.075
 74
0
  0
LTYPE
  5
1F6
100
AcDbSymbolTableRecord
100
AcDbLinetypeTableRecord
  2
HIDDEN
 70
64
  3
- - - - - - - - - - - - - - - - - - - -
 72
65
 73
2
 40
0.2
 49
0.1
 74
0
 49
-0.1
 74
0
  0
LTYPE
  5
1F7
100
AcDbSymbolTableRecord
100
AcDbLinetypeTableRecord
  2
PHANTOM
 70
64
  3
_____ _ _ _____ _ _ _____ _ _ _____
 72
65
 73
6
 40
0.8
 49
0.45
 74
0
 49
-0.05
 74
0
 49
0.1
 74
0
 49
-0.05
 74
0
 49
0.1
 74
0
 49
-0.05
 74
0
  0
LTYPE
  5
1F8
100
AcDbSymbolTableRecord
100
AcDbLinetypeTableRecord
  2
DOT
 70
64
  3
. . . . . . . . . . . . . . . . . . . .
 72
65
 73
2
 40
0.2
 49
0.1
 74
0
 49
-0.1
 74
0
  0
LTYPE
  5
1F9
100
AcDbSymbolTableRecord
100
AcDbLinetypeTableRecord
  2
DASHED
 70
64
  3
- - - - - - - - - - - - - - - - - - - -
 72
65
 73
2
 40
0.2
 49
0.1
 74
0
 49
-0.1
 74
0
  0
ENDTAB
  0
TABLE
  2
LAYER
  5
2
100
AcDbSymbolTable
 70
36
  0
LAYER
  5
10
100
AcDbSymbolTableRecord
100
AcDbLayerTableRecord
  2
0
 70
0
 62
7
  6
CONTINUOUS
370
-3
390
F
  0
LAYER
  5
1FA
100
AcDbSymbolTableRecord
100
AcDbLayerTableRecord
  2
DEFAULT_1
 70
0
 62
7
  6
CENTER
370
-3
390
F
  0
LAYER
  5
1FB
100
AcDbSymbolTableRecord
100
AcDbLayerTableRecord
  2
DEFAULT_2
 70
0
 62
8
  6
HIDDEN
370
-3
390
F
  0
LAYER
  5
1FC
100
AcDbSymbolTableRecord
100
AcDbLayerTableRecord
  2
DEFAULT_3
 70
0
 62
7
  6
PHANTOM
370
-3
390
F
  0
LAYER
  5
1FD
100
AcDbSymbolTableRecord
100
AcDbLayerTableRecord
  2
1
 70
0
 62
7
  6
CONTINUOUS
370
-3
390
F
  0
LAYER
  5
1FE
100
AcDbSymbolTableRecord
100
AcDbLayerTableRecord
  2
2
 70
0
 62
7
  6
CONTINUOUS
370
-3
390
F
  0
LAYER
  5
1FF
100
AcDbSymbolTableRecord
100
AcDbLayerTableRecord
  2
4
 70
0
 62
7
  6
CONTINUOUS
370
-3
390
F
  0
LAYER
  5
200
100
AcDbSymbolTableRecord
100
AcDbLayerTableRecord
  2
5
 70
0
 62
7
  6
CONTINUOUS
370
-3
390
F
  0
LAYER
  5
201
100
AcDbSymbolTableRecord
100
AcDbLayerTableRecord
  2
6
 70
0
 62
7
  6
CONTINUOUS
370
-3
390
F
  0
LAYER
  5
202
100
AcDbSymbolTableRecord
100
AcDbLayerTableRecord
  2
ACHSEN
 70
0
 62
7
  6
CONTINUOUS
370
-3
390
F
  0
LAYER
  5
203
100
AcDbSymbolTableRecord
100
AcDbLayerTableRecord
  2
ANALYSEN
 70
0
 62
7
  6
CONTINUOUS
370
-3
390
F
  0
LAYER
  5
204
100
AcDbSymbolTableRecord
100
AcDbLayerTableRecord
  2
AUFMASS_WEICHBEARBEITUNG
 70
0
 62
7
  6
CONTINUOUS
370
-3
390
F
  0
LAYER
  5
205
100
AcDbSymbolTableRecord
100
AcDbLayerTableRecord
  2
AUFMASS_WEICHBE_INNENKONTUR
 70
0
 62
7
  6
CONTINUOUS
370
-3
390
F
  0
LAYER
  5
206
100
AcDbSymbolTableRecord
100
AcDbLayerTableRecord
  2
AUSSENKONTUR
 70
0
 62
7
  6
CONTINUOUS
370
-3
390
F
  0
LAYER
  5
207
100
AcDbSymbolTableRecord
100
AcDbLayerTableRecord
  2
BEZUGSACHSEN
 70
0
 62
7
  6
CONTINUOUS
370
-3
390
F
  0
LAYER
  5
208
100
AcDbSymbolTableRecord
100
AcDbLayerTableRecord
  2
BEZUGSACHSENKENNZEICHEN
 70
0
 62
7
  6
CONTINUOUS
370
-3
390
F
  0
LAYER
  5
209
100
AcDbSymbolTableRecord
100
AcDbLayerTableRecord
  2
BEZUGSEBENEN
 70
0
 62
7
  6
CONTINUOUS
370
-3
390
F
  0
LAYER
  5
20A
100
AcDbSymbolTableRecord
100
AcDbLayerTableRecord
  2
BEZUGSEBENE_B
 70
0
 62
7
  6
CONTINUOUS
370
-3
390
F
  0
LAYER
  5
20B
100
AcDbSymbolTableRecord
100
AcDbLayerTableRecord
  2
BEZUGSPUNKTE
 70
0
 62
7
  6
CONTINUOUS
370
-3
390
F
  0
LAYER
  5
20C
100
AcDbSymbolTableRecord
100
AcDbLayerTableRecord
  2
BOHRUNGEN
 70
0
 62
7
  6
CONTINUOUS
370
-3
390
F
  0
LAYER
  5
20D
100
AcDbSymbolTableRecord
100
AcDbLayerTableRecord
  2
EBENEN
 70
0
 62
7
  6
CONTINUOUS
370
-3
390
F
  0
LAYER
  5
20E
100
AcDbSymbolTableRecord
100
AcDbLayerTableRecord
  2
FASEN
 70
0
 62
7
  6
CONTINUOUS
370
-3
390
F
  0
LAYER
  5
20F
100
AcDbSymbolTableRecord
100
AcDbLayerTableRecord
  2
FLAECHEN
 70
0
 62
7
  6
CONTINUOUS
370
-3
390
F
  0
LAYER
  5
210
100
AcDbSymbolTableRecord
100
AcDbLayerTableRecord
  2
FORM_LAGE_TOLERANZEN
 70
0
 62
7
  6
CONTINUOUS
370
-3
390
F
  0
LAYER
  5
211
100
AcDbSymbolTableRecord
100
AcDbLayerTableRecord
  2
GEWINDE
 70
0
 62
7
  6
CONTINUOUS
370
-3
390
F
  0
LAYER
  5
212
100
AcDbSymbolTableRecord
100
AcDbLayerTableRecord
  2
HILFEN
 70
0
 62
7
  6
CONTINUOUS
370
-3
390
F
  0
LAYER
  5
213
100
AcDbSymbolTableRecord
100
AcDbLayerTableRecord
  2
INNENKONTUR
 70
0
 62
7
  6
CONTINUOUS
370
-3
390
F
  0
LAYER
  5
214
100
AcDbSymbolTableRecord
100
AcDbLayerTableRecord
  2
KOORDINATENSYSTEME
 70
0
 62
7
  6
CONTINUOUS
370
-3
390
F
  0
LAYER
  5
215
100
AcDbSymbolTableRecord
100
AcDbLayerTableRecord
  2
KOORDSYS
 70
0
 62
7
  6
CONTINUOUS
370
-3
390
F
  0
LAYER
  5
216
100
AcDbSymbolTableRecord
100
AcDbLayerTableRecord
  2
KURVEN
 70
0
 62
7
  6
CONTINUOUS
370
-3
390
F
  0
LAYER
  5
217
100
AcDbSymbolTableRecord
100
AcDbLayerTableRecord
  2
KURVE_FUER_GTOL_DETAILANSICHT
 70
0
 62
7
  6
CONTINUOUS
370
-3
390
F
  0
LAYER
  5
218
100
AcDbSymbolTableRecord
100
AcDbLayerTableRecord
  2
KURVE_GAUGE2_POLIGON_INNENEINST
 70
0
 62
7
  6
CONTINUOUS
370
-3
390
F
  0
LAYER
  5
219
100
AcDbSymbolTableRecord
100
AcDbLayerTableRecord
  2
KURVE_PHANTOM1_GAUGE_PIN_1
 70
0
 62
7
  6
CONTINUOUS
370
-3
390
F
  0
LAYER
  5
21A
100
AcDbSymbolTableRecord
100
AcDbLayerTableRecord
  2
KURVE_PHANTOM2_GAUGE_PIN1
 70
0
 62
7
  6
CONTINUOUS
370
-3
390
F
  0
LAYER
  5
21B
100
AcDbSymbolTableRecord
100
AcDbLayerTableRecord
  2
KURVE_POLIGON_BEMASUNG
 70
0
 62
7
  6
CONTINUOUS
370
-3
390
F
  0
LAYER
  5
21C
100
AcDbSymbolTableRecord
100
AcDbLayerTableRecord
  2
NOCUT
 70
0
 62
7
  6
CONTINUOUS
370
-3
390
F
  0
LAYER
  5
21D
100
AcDbSymbolTableRecord
100
AcDbLayerTableRecord
  2
PLATZIERUNG
 70
0
 62
7
  6
CONTINUOUS
370
-3
390
F
  0
LAYER
  5
21E
100
AcDbSymbolTableRecord
100
AcDbLayerTableRecord
  2
PUNKTE
 70
0
 62
7
  6
CONTINUOUS
370
-3
390
F
  0
LAYER
  5
21F
100
AcDbSymbolTableRecord
100
AcDbLayerTableRecord
  2
RUNDUNGEN
 70
0
 62
7
  6
CONTINUOUS
370
-3
390
F
  0
LAYER
  5
220
100
AcDbSymbolTableRecord
100
AcDbLayerTableRecord
  2
SK1
 70
0
 62
7
  6
CONTINUOUS
370
-3
390
F
  0
LAYER
  5
221
100
AcDbSymbolTableRecord
100
AcDbLayerTableRecord
  2
SK2
 70
0
 62
7
  6
CONTINUOUS
370
-3
390
F
  0
LAYER
  5
222
100
AcDbSymbolTableRecord
100
AcDbLayerTableRecord
  2
SK4
 70
0
 62
7
  6
CONTINUOUS
370
-3
390
F
  0
LAYER
  5
223
100
AcDbSymbolTableRecord
100
AcDbLayerTableRecord
  2
S_ACHSEN
 70
0
 62
7
  6
CONTINUOUS
370
-3
390
F
  0
LAYER
  5
224
100
AcDbSymbolTableRecord
100
AcDbLayerTableRecord
  2
S_EBENEN
 70
0
 62
7
  6
CONTINUOUS
370
-3
390
F
  0
LAYER
  5
225
100
AcDbSymbolTableRecord
100
AcDbLayerTableRecord
  2
S_KOORDSYS
 70
0
 62
7
  6
CONTINUOUS
370
-3
390
F
  0
LAYER
  5
226
100
AcDbSymbolTableRecord
100
AcDbLayerTableRecord
  2
TEIL_STARTBEZUEGE
 70
0
 62
7
  6
CONTINUOUS
370
-3
390
F
  0
LAYER
  5
227
100
AcDbSymbolTableRecord
100
AcDbLayerTableRecord
  2
TOL_BEZUEGE
 70
0
 62
7
  6
CONTINUOUS
370
-3
390
F
  0
LAYER
  5
228
100
AcDbSymbolTableRecord
100
AcDbLayerTableRecord
  2
VERBFLAECHE
 70
0
 62
7
  6
CONTINUOUS
370
-3
390
F
  0
LAYER
  5
229
100
AcDbSymbolTableRecord
100
AcDbLayerTableRecord
  2
VERERBUNG
 70
0
 62
7
  6
CONTINUOUS
370
-3
390
F
  0
LAYER
  5
22A
100
AcDbSymbolTableRecord
100
AcDbLayerTableRecord
  2
VOLGEOM
 70
0
 62
7
  6
CONTINUOUS
370
-3
390
F
  0
LAYER
  5
22B
100
AcDbSymbolTableRecord
100
AcDbLayerTableRecord
  2
VOLUMEN
 70
0
 62
7
  6
CONTINUOUS
370
-3
390
F
  0
LAYER
  5
22C
100
AcDbSymbolTableRecord
100
AcDbLayerTableRecord
  2
XSEC_DATUMS
 70
0
 62
7
  6
CONTINUOUS
370
-3
390
F
  0
LAYER
  5
22D
100
AcDbSymbolTableRecord
100
AcDbLayerTableRecord
  2
ZEICHNUNG
 70
0
 62
7
  6
CONTINUOUS
370
-3
390
F
  0
ENDTAB
  0
TABLE
  2
STYLE
  5
3
100
AcDbSymbolTable
 70
1
  0
STYLE
  5
11
100
AcDbSymbolTableRecord
100
AcDbTextStyleTableRecord
  2
STANDARD
 70
0
 40
0.0
 41
0.7
 50
0.0
 71
0
 42
0.2
  3
txt
  4

  0
STYLE
  5
22E
100
AcDbSymbolTableRecord
100
AcDbTextStyleTableRecord
  2
TEXTSTYLE_1
 70
0
 40
0.0
 41
0.8
 50
0.0
 71
0
 42
0.2
  3
gdt
  4

  0
STYLE
  5
22F
100
AcDbSymbolTableRecord
100
AcDbTextStyleTableRecord
  2
TEXTSTYLE_2
 70
0
 40
0.0
 41
0.7
 50
0.0
 71
0
 42
0.2
  3
gdt
  4

  0
ENDTAB
  0
TABLE
  2
VIEW
  5
6
100
AcDbSymbolTable
 70
0
  0
ENDTAB
  0
TABLE
  2
UCS
  5
7
100
AcDbSymbolTable
 70
0
  0
ENDTAB
  0
TABLE
  2
APPID
  5
9
100
AcDbSymbolTable
 70
1
  0
APPID
  5
230
100
AcDbSymbolTableRecord
100
AcDbRegAppTableRecord
  2
ACAD
 70
0
  0
ENDTAB
  0
TABLE
  2
BLOCK_RECORD
  5
1
100
AcDbSymbolTable
 70
0
  0
BLOCK_RECORD
  5
231
100
AcDbSymbolTableRecord
100
AcDbBlockTableRecord
  2
*Model_Space
  0
BLOCK_RECORD
  5
232
100
AcDbSymbolTableRecord
100
AcDbBlockTableRecord
  2
*Paper_Space
  0
BLOCK_RECORD
  5
233
100
AcDbSymbolTableRecord
100
AcDbBlockTableRecord
  2
_FILLED
  0
BLOCK_RECORD
  5
234
100
AcDbSymbolTableRecord
100
AcDbBlockTableRecord
  2
*D0
  0
BLOCK_RECORD
  5
235
100
AcDbSymbolTableRecord
100
AcDbBlockTableRecord
  2
*D1
  0
BLOCK_RECORD
  5
236
100
AcDbSymbolTableRecord
100
AcDbBlockTableRecord
  2
*D2
  0
BLOCK_RECORD
  5
237
100
AcDbSymbolTableRecord
100
AcDbBlockTableRecord
  2
*D3
  0
BLOCK_RECORD
  5
238
100
AcDbSymbolTableRecord
100
AcDbBlockTableRecord
  2
*D4
  0
BLOCK_RECORD
  5
239
100
AcDbSymbolTableRecord
100
AcDbBlockTableRecord
  2
*D5
  0
BLOCK_RECORD
  5
23A
100
AcDbSymbolTableRecord
100
AcDbBlockTableRecord
  2
*D6
  0
BLOCK_RECORD
  5
23B
100
AcDbSymbolTableRecord
100
AcDbBlockTableRecord
  2
*D7
  0
ENDTAB
  0
TABLE
  2
DIMSTYLE
  5
A
100
AcDbSymbolTable
 70
1
100
AcDbDimStyleTable
 71
0
  0
DIMSTYLE
105
23C
100
AcDbSymbolTableRecord
100
AcDbDimStyleTableRecord
  2
STANDARD
 70
0
  3

  4

 40
1.0
 41
3.5
 42
0.0625
 43
0.38
 44
0.18
 45
0.0
 46
0.0
 47
0.005
 48
0.005
140
3.5
141
0.09
142
0.0
143
25.4
144
1.0
145
0.0
146
1.0
147
0.09
 71
0.0
 72
0.0
 73
0
 74
0
 75
0
 76
0
 77
1
 78
8
170
0
171
2
172
0
173
0
174
0
175
0
176
0
177
0
178
5
270
2
271
3
272
3
273
2
274
2
275
0
280
0
281
0
282
0
283
1
284
8
285
0
286
0
287
3
288
0
340
11
341
233
342
233
343
233
344
233
  0
DIMSTYLE
105
23D
100
AcDbSymbolTableRecord
100
AcDbDimStyleTableRecord
  2
DIMSTYLE_1
 70
0
  3

  4

 40
1.0
 41
3.5
 42
0.0625
 43
0.38
 44
0.18
 45
0.0
 46
0.0
 47
0.0
 48
0.0
140
3.5
141
0.09
142
0.0
143
25.4
144
1.0
145
0.0
146
1.0
147
0.09
 71
0.0
 72
0.0
 73
0
 74
0
 75
0
 76
0
 77
1
 78
8
170
0
171
2
172
0
173
0
174
0
175
0
176
0
177
0
178
5
270
2
271
3
272
3
273
2
274
2
275
0
280
0
281
0
282
0
283
1
284
8
285
0
286
0
287
3
288
0
340
11
341
233
342
233
343
233
344
233
  0
DIMSTYLE
105
23E
100
AcDbSymbolTableRecord
100
AcDbDimStyleTableRecord
  2
DIMSTYLE_2
 70
0
  3

  4

 40
1.0
 41
3.5
 42
0.0625
 43
0.38
 44
0.18
 45
0.0
 46
0.0
 47
0.0
 48
0.0
140
3.5
141
0.09
142
0.0
143
25.4
144
1.0
145
0.0
146
1.0
147
0.09
 71
0.0
 72
0.0
 73
0
 74
0
 75
0
 76
0
 77
1
 78
8
170
0
171
2
172
0
173
0
174
0
175
0
176
0
177
0
178
5
270
2
271
2
272
2
273
2
274
2
275
0
280
0
281
0
282
0
283
1
284
8
285
0
286
0
287
3
288
0
340
11
341
233
342
233
343
233
344
233
  0
DIMSTYLE
105
23F
100
AcDbSymbolTableRecord
100
AcDbDimStyleTableRecord
  2
DIMSTYLE_3
 70
0
  3

  4

 40
1.0
 41
3.5
 42
0.0625
 43
0.38
 44
0.18
 45
0.0
 46
0.0
 47
0.0
 48
0.0
140
3.5
141
0.09
142
0.0
143
25.4
144
1.0
145
0.0
146
1.0
147
0.09
 71
0.0
 72
0.0
 73
0
 74
0
 75
0
 76
0
 77
1
 78
8
170
0
171
2
172
0
173
0
174
0
175
0
176
0
177
0
178
5
270
2
271
2
272
2
273
2
274
2
275
0
280
0
281
0
282
0
283
1
284
8
285
0
286
0
287
3
288
0
340
11
341
233
342
233
343
233
344
233
  0
DIMSTYLE
105
240
100
AcDbSymbolTableRecord
100
AcDbDimStyleTableRecord
  2
DIMSTYLE_4
 70
0
  3

  4

 40
1.0
 41
3.5
 42
0.0625
 43
0.38
 44
0.18
 45
0.0
 46
0.0
 47
0.0
 48
0.0
140
3.5
141
0.09
142
0.0
143
25.4
144
1.0
145
0.0
146
1.0
147
0.09
 71
0.0
 72
0.0
 73
0
 74
0
 75
0
 76
0
 77
1
 78
8
170
0
171
2
172
0
173
0
174
0
175
0
176
0
177
0
178
5
270
2
271
2
272
2
273
2
274
2
275
0
280
0
281
0
282
0
283
1
284
8
285
0
286
0
287
3
288
0
340
11
341
233
342
233
343
233
344
233
  0
ENDTAB
  0
ENDSEC
  0
SECTION
  2
BLOCKS
  0
BLOCK
  5
20
100
AcDbEntity
  8
0
100
AcDbBlockBegin
  2
*Model_Space
 70
0
 10
0.0
 20
0.0
 30
0.0
  3
*Model_Space
  1

  0
ENDBLK
  5
21
100
AcDbEntity
  8
0
100
AcDbBlockEnd
  0
BLOCK
  5
1C
100
AcDbEntity
  8
0
100
AcDbBlockBegin
  2
*Paper_Space
 70
0
 10
0.0
 20
0.0
 30
0.0
  3
*Paper_Space
  1

  0
ENDBLK
  5
1D
100
AcDbEntity
  8
0
100
AcDbBlockEnd
  0
BLOCK
  5
241
100
AcDbEntity
  8
0
100
AcDbBlockBegin
  2
_FILLED
 70
64
 10
0.0
 20
0.0
  3
_FILLED
  1

  0
SOLID
  5
242
100
AcDbEntity
  8
0
  6
BYBLOCK
 62
0
100
AcDbTrace
 10
0.0
 20
0.0
 11
-1.0
 21
0.125
 12
-1.0
 22
-0.125
 13
-1.0
 23
-0.125
  0
ENDBLK
  5
243
100
AcDbEntity
  8
0
  6
BYBLOCK
 62
0
100
AcDbBlockEnd
  0
BLOCK
  5
244
100
AcDbEntity
  8
2
100
AcDbBlockBegin
 62
2
  6
CONTINUOUS
  2
*D0
 70
65
 10
0.0
 20
0.0
  3
*D0
  1

  0
MTEXT
  5
245
100
AcDbEntity
  8
2
100
AcDbMText
 62
5
  6
CONTINUOUS
  7
TEXTSTYLE_2
 71
2
 72
1
 10
246.9858756249
 20
155.1804378124
 30
0.0
 11
0.0
 21
1.0
 31
0.0
 44
0.9
  1
{\Fgdt;n}\Ftxt;10
 40
3.5
 41
9.4166666667
  0
LINE
  5
246
100
AcDbEntity
  8
2
100
AcDbLine
 62
2
  6
CONTINUOUS
 10
241.8108756249
 20
150.1804378124
 11
252.8608756249
 21
150.1804378124
  0
LINE
  5
247
100
AcDbEntity
  8
2
100
AcDbLine
 62
2
  6
CONTINUOUS
 10
241.8108756249
 20
160.1804378124
 11
252.8608756249
 21
160.1804378124
  0
LINE
  5
248
100
AcDbEntity
  8
2
100
AcDbLine
 62
2
  6
CONTINUOUS
 10
251.3608756249
 20
150.1804378124
 11
251.3608756249
 21
155.1804378124
  0
LINE
  5
249
100
AcDbEntity
  8
2
100
AcDbLine
 62
2
  6
CONTINUOUS
 10
251.3608756249
 20
160.1804378124
 11
251.3608756249
 21
155.1804378124
  0
INSERT
  5
24A
100
AcDbEntity
  8
2
100
AcDbBlockReference
 62
2
  6
CONTINUOUS
  2
_FILLED
 10
251.3608756249
 20
150.1804378124
 41
3.5
 42
3.5
 43
3.5
 50
270.0
  0
INSERT
  5
24B
100
AcDbEntity
  8
2
100
AcDbBlockReference
 62
2
  6
CONTINUOUS
  2
_FILLED
 10
251.3608756249
 20
160.1804378124
 41
3.5
 42
3.5
 43
3.5
 50
90.0
  0
ENDBLK
  5
24C
100
AcDbEntity
  8
0
  6
BYBLOCK
 62
0
100
AcDbBlockEnd
  0
BLOCK
  5
24D
100
AcDbEntity
  8
SK2
100
AcDbBlockBegin
 62
2
  6
CONTINUOUS
  2
*D1
 70
65
 10
0.0
 20
0.0
  3
*D1
  1

  0
MTEXT
  5
24E
100
AcDbEntity
  8
SK2
100
AcDbMText
 62
5
  6
CONTINUOUS
  7
TEXTSTYLE_2
 71
2
 72
1
 10
253.9858756249
 20
155.1804378124
 30
0.0
 11
0.0
 21
1.0
 31
0.0
 44
0.9
  1
{\Fgdt;n}\Ftxt;24
 40
3.5
 41
10.1666666667
  0
LINE
  5
24F
100
AcDbEntity
  8
SK2
100
AcDbLine
 62
2
  6
CONTINUOUS
 10
241.8108756249
 20
143.1804378124
 11
259.8608756249
 21
143.1804378124
  0
LINE
  5
250
100
AcDbEntity
  8
SK2
100
AcDbLine
 62
2
  6
CONTINUOUS
 10
241.8108756249
 20
167.1804378124
 11
259.8608756249
 21
167.1804378124
  0
LINE
  5
251
100
AcDbEntity
  8
SK2
100
AcDbLine
 62
2
  6
CONTINUOUS
 10
258.3608756249
 20
143.1804378124
 11
258.3608756249
 21
155.1804378124
  0
LINE
  5
252
100
AcDbEntity
  8
SK2
100
AcDbLine
 62
2
  6
CONTINUOUS
 10
258.3608756249
 20
167.1804378124
 11
258.3608756249
 21
155.1804378124
  0
INSERT
  5
253
100
AcDbEntity
  8
SK2
100
AcDbBlockReference
 62
2
  6
CONTINUOUS
  2
_FILLED
 10
258.3608756249
 20
143.1804378124
 41
3.5
 42
3.5
 43
3.5
 50
270.0
  0
INSERT
  5
254
100
AcDbEntity
  8
SK2
100
AcDbBlockReference
 62
2
  6
CONTINUOUS
  2
_FILLED
 10
258.3608756249
 20
167.1804378124
 41
3.5
 42
3.5
 43
3.5
 50
90.0
  0
ENDBLK
  5
255
100
AcDbEntity
  8
0
  6
BYBLOCK
 62
0
100
AcDbBlockEnd
  0
BLOCK
  5
256
100
AcDbEntity
  8
SK2
100
AcDbBlockBegin
 62
2
  6
CONTINUOUS
  2
*D2
 70
65
 10
0.0
 20
0.0
  3
*D2
  1

  0
MTEXT
  5
257
100
AcDbEntity
  8
SK2
100
AcDbMText
 62
5
  6
CONTINUOUS
  7
STANDARD
 71
2
 72
1
 10
208.3108756249
 20
210.5554378124
 30
0.0
 11
1.0
 21
0.0
 31
0.0
 44
0.9
  1
64
 40
3.5
 41
5.5
  0
LINE
  5
258
100
AcDbEntity
  8
SK2
100
AcDbLine
 62
2
  6
CONTINUOUS
 10
176.3108756249
 20
196.1804378124
 11
176.3108756249
 21
207.6804378124
  0
LINE
  5
259
100
AcDbEntity
  8
SK2
100
AcDbLine
 62
2
  6
CONTINUOUS
 10
240.3108756249
 20
167.7560473208
 11
240.3108756249
 21
207.6804378124
  0
LINE
  5
25A
100
AcDbEntity
  8
SK2
100
AcDbLine
 62
2
  6
CONTINUOUS
 10
176.3108756249
 20
206.1804378124
 11
208.3108756249
 21
206.1804378124
  0
LINE
  5
25B
100
AcDbEntity
  8
SK2
100
AcDbLine
 62
2
  6
CONTINUOUS
 10
240.3108756249
 20
206.1804378124
 11
208.3108756249
 21
206.1804378124
  0
INSERT
  5
25C
100
AcDbEntity
  8
SK2
100
AcDbBlockReference
 62
2
  6
CONTINUOUS
  2
_FILLED
 10
176.3108756249
 20
206.1804378124
 41
3.5
 42
3.5
 43
3.5
 50
180.0
  0
INSERT
  5
25D
100
AcDbEntity
  8
SK2
100
AcDbBlockReference
 62
2
  6
CONTINUOUS
  2
_FILLED
 10
240.3108756249
 20
206.1804378124
 41
3.5
 42
3.5
 43
3.5
  0
ENDBLK
  5
25E
100
AcDbEntity
  8
0
  6
BYBLOCK
 62
0
100
AcDbBlockEnd
  0
BLOCK
  5
25F
100
AcDbEntity
  8
2
100
AcDbBlockBegin
 62
2
  6
CONTINUOUS
  2
*D3
 70
65
 10
0.0
 20
0.0
  3
*D3
  1

  0
MTEXT
  5
260
100
AcDbEntity
  8
2
100
AcDbMText
 62
5
  6
CONTINUOUS
  7
STANDARD
 71
2
 72
1
 10
195.3108756249
 20
217.5554378124
 30
0.0
 11
1.0
 21
0.0
 31
0.0
 44
0.9
  1
90
 40
3.5
 41
5.5
  0
LINE
  5
261
100
AcDbEntity
  8
2
100
AcDbLine
 62
2
  6
CONTINUOUS
 10
240.3108756249
 20
167.7560473208
 11
240.3108756249
 21
214.6804378124
  0
LINE
  5
262
100
AcDbEntity
  8
2
100
AcDbLine
 62
2
  6
CONTINUOUS
 10
150.3108756249
 20
196.1804378124
 11
150.3108756249
 21
214.6804378124
  0
LINE
  5
263
100
AcDbEntity
  8
2
100
AcDbLine
 62
2
  6
CONTINUOUS
 10
240.3108756249
 20
213.1804378124
 11
195.3108756249
 21
213.1804378124
  0
LINE
  5
264
100
AcDbEntity
  8
2
100
AcDbLine
 62
2
  6
CONTINUOUS
 10
150.3108756249
 20
213.1804378124
 11
195.3108756249
 21
213.1804378124
  0
INSERT
  5
265
100
AcDbEntity
  8
2
100
AcDbBlockReference
 62
2
  6
CONTINUOUS
  2
_FILLED
 10
240.3108756249
 20
213.1804378124
 41
3.5
 42
3.5
 43
3.5
  0
INSERT
  5
266
100
AcDbEntity
  8
2
100
AcDbBlockReference
 62
2
  6
CONTINUOUS
  2
_FILLED
 10
150.3108756249
 20
213.1804378124
 41
3.5
 42
3.5
 43
3.5
 50
180.0
  0
ENDBLK
  5
267
100
AcDbEntity
  8
0
  6
BYBLOCK
 62
0
100
AcDbBlockEnd
  0
BLOCK
  5
268
100
AcDbEntity
  8
SK2
100
AcDbBlockBegin
 62
2
  6
CONTINUOUS
  2
*D4
 70
65
 10
0.0
 20
0.0
  3
*D4
  1

  0
MTEXT
  5
269
100
AcDbEntity
  8
SK2
100
AcDbMText
 62
5
  6
CONTINUOUS
  7
STANDARD
 71
2
 72
1
 10
175.3608756249
 20
224.5554378124
 30
0.0
 11
1.0
 21
0.0
 31
0.0
 44
0.9
  1
130
 40
3.5
 41
7.25
  0
LINE
  5
26A
100
AcDbEntity
  8
SK2
100
AcDbLine
 62
2
  6
CONTINUOUS
 10
240.3108756249
 20
167.7560473208
 11
240.3108756249
 21
221.6804378124
  0
LINE
  5
26B
100
AcDbEntity
  8
SK2
100
AcDbLine
 62
2
  6
CONTINUOUS
 10
110.4108756249
 20
165.1804378124
 11
110.4108756249
 21
221.6804378124
  0
LINE
  5
26C
100
AcDbEntity
  8
SK2
100
AcDbLine
 62
2
  6
CONTINUOUS
 10
240.3108756249
 20
220.1804378124
 11
175.3608756249
 21
220.1804378124
  0
LINE
  5
26D
100
AcDbEntity
  8
SK2
100
AcDbLine
 62
2
  6
CONTINUOUS
 10
110.4108756249
 20
220.1804378124
 11
175.3608756249
 21
220.1804378124
  0
INSERT
  5
26E
100
AcDbEntity
  8
SK2
100
AcDbBlockReference
 62
2
  6
CONTINUOUS
  2
_FILLED
 10
240.3108756249
 20
220.1804378124
 41
3.5
 42
3.5
 43
3.5
  0
INSERT
  5
26F
100
AcDbEntity
  8
SK2
100
AcDbBlockReference
 62
2
  6
CONTINUOUS
  2
_FILLED
 10
110.4108756249
 20
220.1804378124
 41
3.5
 42
3.5
 43
3.5
 50
180.0
  0
ENDBLK
  5
270
100
AcDbEntity
  8
0
  6
BYBLOCK
 62
0
100
AcDbBlockEnd
  0
BLOCK
  5
271
100
AcDbEntity
  8
SK2
100
AcDbBlockBegin
 62
2
  6
CONTINUOUS
  2
*D5
 70
65
 10
0.0
 20
0.0
  3
*D5
  1

  0
MTEXT
  5
272
100
AcDbEntity
  8
SK2
100
AcDbMText
 62
5
  6
CONTINUOUS
  7
STANDARD
 71
1
 72
1
 10
242.4783174702
 20
176.1455388193
 30
0.0
 11
0.6778587557
 21
0.7351921567
 31
0.0
 44
0.9
  1
R1
 40
3.5
 41
4.75
  0
LINE
  5
273
100
AcDbEntity
  8
SK2
100
AcDbLine
 62
2
  6
CONTINUOUS
 10
239.9887343806
 20
166.9912394775
 11
248.9146122455
 21
176.6720695077
  0
INSERT
  5
274
100
AcDbEntity
  8
SK2
100
AcDbBlockReference
 62
2
  6
CONTINUOUS
  2
_FILLED
 10
239.9887343806
 20
166.9912394775
 41
3.5
 42
3.5
 43
3.5
 50
227.323455592
  0
ENDBLK
  5
275
100
AcDbEntity
  8
0
  6
BYBLOCK
 62
0
100
AcDbBlockEnd
  0
BLOCK
  5
276
100
AcDbEntity
  8
2
100
AcDbBlockBegin
 62
2
  6
CONTINUOUS
  2
*D6
 70
65
 10
0.0
 20
0.0
  3
*D6
  1

  0
MTEXT
  5
277
100
AcDbEntity
  8
2
100
AcDbMText
 62
5
  6
CONTINUOUS
  7
TEXTSTYLE_2
 71
2
 72
1
 10
260.9858756249
 20
155.1804378124
 30
0.0
 11
0.0
 21
1.0
 31
0.0
 44
0.9
  1
{\Fgdt;n}\Ftxt;32
 40
3.5
 41
9.9166666667
  0
LINE
  5
278
100
AcDbEntity
  8
2
100
AcDbLine
 62
2
  6
CONTINUOUS
 10
189.4860566802
 20
171.1554378124
 11
266.8608756249
 21
171.1554378124
  0
LINE
  5
279
100
AcDbEntity
  8
2
100
AcDbLine
 62
2
  6
CONTINUOUS
 10
189.4860566802
 20
139.2054378124
 11
266.8608756249
 21
139.2054378124
  0
LINE
  5
27A
100
AcDbEntity
  8
2
100
AcDbLine
 62
2
  6
CONTINUOUS
 10
265.3608756249
 20
171.1554378124
 11
265.3608756249
 21
155.1804378124
  0
LINE
  5
27B
100
AcDbEntity
  8
2
100
AcDbLine
 62
2
  6
CONTINUOUS
 10
265.3608756249
 20
139.2054378124
 11
265.3608756249
 21
155.1804378124
  0
INSERT
  5
27C
100
AcDbEntity
  8
2
100
AcDbBlockReference
 62
2
  6
CONTINUOUS
  2
_FILLED
 10
265.3608756249
 20
171.1554378124
 41
3.5
 42
3.5
 43
3.5
 50
90.0
  0
INSERT
  5
27D
100
AcDbEntity
  8
2
100
AcDbBlockReference
 62
2
  6
CONTINUOUS
  2
_FILLED
 10
265.3608756249
 20
139.2054378124
 41
3.5
 42
3.5
 43
3.5
 50
270.0
  0
ENDBLK
  5
27E
100
AcDbEntity
  8
0
  6
BYBLOCK
 62
0
100
AcDbBlockEnd
  0
BLOCK
  5
27F
100
AcDbEntity
  8
SK2
100
AcDbBlockBegin
 62
2
  6
CONTINUOUS
  2
*D7
 70
65
 10
0.0
 20
0.0
  3
*D7
  1

  0
MTEXT
  5
280
100
AcDbEntity
  8
SK2
100
AcDbMText
 62
5
  6
CONTINUOUS
  7
STANDARD
 71
2
 72
1
 10
233.3065457704
 20
179.2644352541
 30
0.0
 11
0.1243486072
 21
-0.9922385922
 31
0.0
 44
0.9
  1
4.5\Fgdt;{\Fgdt;~}
 40
3.5
 41
9.5833333333
  0
LINE
  5
281
100
AcDbEntity
  8
SK2
100
AcDbLine
 62
2
  6
CONTINUOUS
 10
228.0900429695
 20
168.1422382012
 11
226.3608756249
 21
168.2783266226
  0
LINE
  5
282
100
AcDbEntity
  8
SK2
100
AcDbLine
 62
2
  6
CONTINUOUS
 10
226.3608756249
 20
172.1804378124
 11
228.2487042643
 21
172.1804378124
  0
ARC
  5
283
100
AcDbEntity
  8
SK2
100
AcDbCircle
 62
2
  6
CONTINUOUS
 10
176.779851944
 20
172.1804378124
 40
49.9688523203
100
AcDbArc
 50
348.6202206752
 51
355.5
  0
ARC
  5
284
100
AcDbEntity
  8
SK2
100
AcDbCircle
 62
2
  6
CONTINUOUS
 10
176.779851944
 20
172.1804378124
 40
49.9688523203
100
AcDbArc
 50
0.0
 51
7.1431402374
  0
ARC
  5
285
100
AcDbEntity
  8
SK2
100
AcDbCircle
 62
2
  6
CONTINUOUS
 10
176.779851944
 20
172.1804378124
 40
49.9688523203
100
AcDbArc
 50
355.5
 51
360.0
  0
SOLID
  5
286
100
AcDbEntity
  8
SK2
100
AcDbTrace
 62
2
  6
CONTINUOUS
 10
226.6327369811
 20
164.7328945336
 11
226.5946669689
 21
168.2599268448
 12
225.7633730272
 22
164.8320475248
 13
225.7633730272
 23
164.8320475248
  0
SOLID
  5
287
100
AcDbEntity
  8
SK2
100
AcDbTrace
 62
2
  6
CONTINUOUS
 10
226.1889212361
 20
175.6629726954
 11
226.7487042643
 21
172.1804378124
 12
227.0633846851
 22
175.6936105214
 13
227.0633846851
 23
175.6936105214
  0
ENDBLK
  5
288
100
AcDbEntity
  8
0
  6
BYBLOCK
 62
0
100
AcDbBlockEnd
  0
ENDSEC
  0
SECTION
  2
ENTITIES
  0
DIMENSION
  5
289
100
AcDbEntity
  8
2
100
AcDbDimension
 62
2
  6
CONTINUOUS
  2
*D0
 10
251.3608756249
 20
160.1804378124
 11
249.7907155962
 21
153.0758206669
 70
160
 71
2
 42
10.0
  1
%%c<>
  3
DIMSTYLE_1
100
AcDbAlignedDimension
 13
241.8108756249
 23
150.1804378124
 14
241.8108756249
 24
160.1804378124
 50
90.0
100
AcDbRotatedDimension
  0
DIMENSION
  5
28A
100
AcDbEntity
  8
SK2
100
AcDbDimension
 62
2
  6
CONTINUOUS
  2
*D1
 10
258.3608756249
 20
167.1804378124
 11
256.8747293992
 21
152.9081962925
 70
160
 71
2
 42
24.0
  1
%%c<>
  3
DIMSTYLE_2
100
AcDbAlignedDimension
 13
241.8108756249
 23
143.1804378124
 14
241.8108756249
 24
167.1804378124
 50
90.0
100
AcDbRotatedDimension
  0
DIMENSION
  5
28B
100
AcDbEntity
  8
SK2
100
AcDbDimension
 62
2
  6
CONTINUOUS
  2
*D2
 10
240.3108756249
 20
206.1804378124
 11
205.5608756249
 21
208.8054378124
 70
160
 71
2
 42
64.0
  3
DIMSTYLE_2
100
AcDbAlignedDimension
 13
176.3108756249
 23
196.1804378124
 14
240.3108756249
 24
167.7560473208
100
AcDbRotatedDimension
  0
DIMENSION
  5
28C
100
AcDbEntity
  8
2
100
AcDbDimension
 62
2
  6
CONTINUOUS
  2
*D3
 10
150.3108756249
 20
213.1804378124
 11
192.5608756249
 21
215.8054378124
 70
160
 71
2
 42
90.0
  3
DIMSTYLE_2
100
AcDbAlignedDimension
 13
240.3108756249
 23
167.7560473208
 14
150.3108756249
 24
196.1804378124
 50
180.0
100
AcDbRotatedDimension
  0
DIMENSION
  5
28D
100
AcDbEntity
  8
SK2
100
AcDbDimension
 62
2
  6
CONTINUOUS
  2
*D4
 10
110.4108756249
 20
220.1804378124
 11
171.7358756249
 21
222.8054378124
 70
160
 71
2
 42
129.9
  3
DIMSTYLE_2
100
AcDbAlignedDimension
 13
240.3108756249
 23
167.7560473208
 14
110.4108756249
 24
165.1804378124
 50
180.0
100
AcDbRotatedDimension
  0
DIMENSION
  5
28E
100
AcDbEntity
  8
SK2
100
AcDbDimension
 62
2
  6
CONTINUOUS
  2
*D5
 10
239.3108756249
 20
166.2560473208
 11
245.3748182893
 21
176.7053673691
 70
164
 71
1
 42
1.0
  1
<>
  3
DIMSTYLE_3
100
AcDbRadialDimension
 15
239.9887343806
 25
166.9912394775
  0
DIMENSION
  5
28F
100
AcDbEntity
  8
2
100
AcDbDimension
 62
2
  6
CONTINUOUS
  2
*D6
 10
265.3608756249
 20
139.2054378124
 11
263.8467247982
 21
152.9640710839
 70
160
 71
2
 42
31.95
  1
%%c<>
  3
DIMSTYLE_2
100
AcDbAlignedDimension
 13
189.4860566802
 23
171.1554378124
 14
189.4860566802
 24
139.2054378124
 50
270.0
100
AcDbRotatedDimension
  0
DIMENSION
  5
290
100
AcDbEntity
  8
SK2
100
AcDbDimension
 62
2
  6
CONTINUOUS
  2
*D7
 10
228.2487042643
 20
172.1804378124
 11
230.6474278562
 21
181.2578524128
 70
162
 71
2
 42
0.0785398163
  3
DIMSTYLE_4
100
AcDb2LineAngularDimension
 13
226.3608756249
 23
168.2783266226
 14
228.0900429695
 24
168.1422382012
 15
226.3608756249
 25
172.1804378124
 16
226.7101800901
 26
170.2186698767
  0
MTEXT
  5
291
100
AcDbEntity
  8
6
100
AcDbMText
 62
5
  6
CONTINUOUS
  7
STANDARD
 71
1
 72
1
 10
139.5741815328
 20
82.3507156451
 30
0.0
 11
1.0
 21
0.0
 31
0.0
 44
0.9
  3
Für diese Unterlage behalten wir das Ur-\Pheberrecht. Sie darf nur für den von uns\Pbestimmten Zweck benutzt und ohne unsere \PZustimmung weder vervielfältigt noch \PDritten zugänglich gemacht werden.\P \PWe own the copyright of this document. It\Pde
  1
termined and may neither be copied or\Pmade accessible to outsiders without our\Ppermission.\P \PCe plan reste notre propriété. Il ne peut\Pétre utilisé, copié ou reproduit sans notre\Paccord.
 40
3.5
 41
103.5833333333
  0
LINE
  5
292
100
AcDbEntity
  8
1
100
AcDbLine
 62
9
  6
CONTINUOUS
 10
110.4608756249
 20
128.2945169075
 11
110.4608756249
 21
143.7586006169
  0
LINE
  5
293
100
AcDbEntity
  8
1
100
AcDbLine
 62
6
  6
CONTINUOUS
 10
110.4608756249
 20
143.7586006169
 11
110.4608756249
 21
145.5104378124
  0
LINE
  5
294
100
AcDbEntity
  8
1
100
AcDbLine
 62
6
  6
CONTINUOUS
 10
110.4608756249
 20
164.8504378124
 11
110.4608756249
 21
166.602275008
  0
LINE
  5
295
100
AcDbEntity
  8
1
100
AcDbLine
 62
9
  6
CONTINUOUS
 10
110.4608756249
 20
166.602275008
 11
110.4608756249
 21
182.0663586125
  0
LINE
  5
296
100
AcDbEntity
  8
1
100
AcDbLine
 62
9
  6
CONTINUOUS
 10
111.9808160371
 20
183.6643968271
 11
111.9808160371
 21
167.2080527526
  0
LINE
  5
297
100
AcDbEntity
  8
1
100
AcDbLine
 62
9
  6
CONTINUOUS
 10
111.9808160371
 20
143.1528228723
 11
111.9808160371
 21
126.6964787978
  0
LINE
  5
298
100
AcDbEntity
  8
1
100
AcDbLine
 62
6
  6
CONTINUOUS
 10
112.1108756249
 20
145.5363822356
 11
112.1108756249
 21
147.1604378124
  0
LINE
  5
299
100
AcDbEntity
  8
1
100
AcDbLine
 62
6
  6
CONTINUOUS
 10
112.1108756249
 20
163.2004378124
 11
112.1108756249
 21
164.8244933892
  0
LINE
  5
29A
100
AcDbEntity
  8
1
100
AcDbLine
 62
9
  6
CONTINUOUS
 10
116.6608756249
 20
142.6076170603
 11
116.6608756249
 21
147.1604378124
  0
LINE
  5
29B
100
AcDbEntity
  8
1
100
AcDbLine
 62
9
  6
CONTINUOUS
 10
116.6608756249
 20
163.2004378124
 11
116.6608756249
 21
167.7532585646
  0
LINE
  5
29C
100
AcDbEntity
  8
1
100
AcDbLine
 62
6
  6
CONTINUOUS
 10
118.5608756249
 20
164.6857800388
 11
118.5608756249
 21
145.6750955861
  0
LINE
  5
29D
100
AcDbEntity
  8
1
100
AcDbLine
 62
9
  6
CONTINUOUS
 10
110.4608756249
 20
145.5104378124
 11
112.1108756249
 21
147.1604378124
  0
LINE
  5
29E
100
AcDbEntity
  8
1
100
AcDbLine
 62
6
  6
CONTINUOUS
 10
164.8246052261
 20
115.1804378124
 11
150.3608756249
 21
115.1804378124
  0
LINE
  5
29F
100
AcDbEntity
  8
1
100
AcDbLine
 62
6
  6
CONTINUOUS
 10
171.8971460237
 20
115.1804378124
 11
176.3108756249
 21
115.1804378124
  0
LINE
  5
2A0
100
AcDbEntity
  8
1
100
AcDbLine
 62
9
  6
CONTINUOUS
 10
112.1108756249
 20
163.2004378124
 11
110.4608756249
 21
164.8504378124
  0
LINE
  5
2A1
100
AcDbEntity
  8
1
100
AcDbLine
 62
6
  6
CONTINUOUS
 10
167.1983756249
 20
120.2054378124
 11
169.5233756249
 21
120.2054378124
  0
LINE
  5
2A2
100
AcDbEntity
  8
1
100
AcDbLine
 62
6
  6
CONTINUOUS
 10
154.6926187742
 20
123.8359406877
 11
164.8246052261
 21
123.8359406877
  0
LINE
  5
2A3
100
AcDbEntity
  8
1
100
AcDbLine
 62
6
  6
CONTINUOUS
 10
171.8971460237
 20
123.8359406877
 11
176.3108756249
 21
123.8359406877
  0
LINE
  5
2A4
100
AcDbEntity
  8
1
100
AcDbLine
 62
6
  6
CONTINUOUS
 10
147.8608756249
 20
124.8988878124
 11
111.9808160371
 21
126.6964787978
  0
LINE
  5
2A5
100
AcDbEntity
  8
1
100
AcDbLine
 62
6
  6
CONTINUOUS
 10
147.8608756249
 20
185.4619878124
 11
147.8608756249
 21
124.8988878124
  0
LINE
  5
2A6
100
AcDbEntity
  8
1
100
AcDbLine
 62
9
  6
CONTINUOUS
 10
148.4801192389
 20
125.0648136387
 11
148.4801192389
 21
185.2960619862
  0
LINE
  5
2A7
100
AcDbEntity
  8
1
100
AcDbLine
 62
9
  6
CONTINUOUS
 10
148.738938284
 20
125.0988878124
 11
148.738938284
 21
185.2619878124
  0
LINE
  5
2A8
100
AcDbEntity
  8
1
100
AcDbLine
 62
9
  6
CONTINUOUS
 10
149.6603043362
 20
125.0988878124
 11
149.6603043362
 21
185.2619878124
  0
LINE
  5
2A9
100
AcDbEntity
  8
1
100
AcDbLine
 62
6
  6
CONTINUOUS
 10
150.3608756249
 20
195.1804378124
 11
150.3608756249
 21
115.1804378124
  0
LINE
  5
2AA
100
AcDbEntity
  8
1
100
AcDbLine
 62
6
  6
CONTINUOUS
 10
149.6603043362
 20
125.0988878124
 11
148.738938284
 21
125.0988878124
  0
LINE
  5
2AB
100
AcDbEntity
  8
1
100
AcDbLine
 62
6
  6
CONTINUOUS
 10
170.2733756249
 20
192.3679849819
 11
171.8971460237
 21
195.1804378124
  0
LINE
  5
2AC
100
AcDbEntity
  8
1
100
AcDbLine
 62
9
  6
CONTINUOUS
 10
110.4608756249
 20
144.5770244268
 11
112.1108756249
 21
145.5363822356
  0
LINE
  5
2AD
100
AcDbEntity
  8
1
100
AcDbLine
 62
6
  6
CONTINUOUS
 10
148.4801192389
 20
125.0648136387
 11
147.8608756249
 21
124.8988878124
  0
LINE
  5
2AE
100
AcDbEntity
  8
1
100
AcDbLine
 62
6
  6
CONTINUOUS
 10
176.3108756249
 20
129.9304378124
 11
170.2117087942
 21
129.9304378124
  0
LINE
  5
2AF
100
AcDbEntity
  8
1
100
AcDbLine
 62
6
  6
CONTINUOUS
 10
166.5100424556
 20
129.9304378124
 11
162.9195527856
 21
129.9304378124
  0
LINE
  5
2B0
100
AcDbEntity
  8
1
100
AcDbLine
 62
6
  6
CONTINUOUS
 10
162.9195527856
 20
130.3304378124
 11
166.5100424556
 21
130.3304378124
  0
LINE
  5
2B1
100
AcDbEntity
  8
1
100
AcDbLine
 62
6
  6
CONTINUOUS
 10
170.2117087942
 20
130.3304378124
 11
176.3108756249
 21
130.3304378124
  0
LINE
  5
2B2
100
AcDbEntity
  8
1
100
AcDbLine
 62
9
  6
CONTINUOUS
 10
112.1108756249
 20
164.8244933892
 11
110.4608756249
 21
165.7838511981
  0
LINE
  5
2B3
100
AcDbEntity
  8
1
100
AcDbLine
 62
6
  6
CONTINUOUS
 10
170.2733756249
 20
117.992890643
 11
171.8971460237
 21
115.1804378124
  0
LINE
  5
2B4
100
AcDbEntity
  8
1
100
AcDbLine
 62
6
  6
CONTINUOUS
 10
239.4393347206
 20
143.1329109704
 11
189.5360566802
 21
139.2054378124
  0
LINE
  5
2B5
100
AcDbEntity
  8
1
100
AcDbLine
 62
6
  6
CONTINUOUS
 10
189.5360566802
 20
139.2054378124
 11
182.3108756249
 21
139.2054378124
  0
LINE
  5
2B6
100
AcDbEntity
  8
1
100
AcDbLine
 62
9
  6
CONTINUOUS
 10
162.9195527856
 20
130.3304378124
 11
162.9195527856
 21
129.9304378124
  0
LINE
  5
2B7
100
AcDbEntity
  8
1
100
AcDbLine
 62
9
  6
CONTINUOUS
 10
163.3283756249
 20
146.1629378124
 11
163.3283756249
 21
146.5629378124
  0
LINE
  5
2B8
100
AcDbEntity
  8
1
100
AcDbLine
 62
9
  6
CONTINUOUS
 10
163.3283756249
 20
163.7979378124
 11
163.3283756249
 21
164.1979378124
  0
LINE
  5
2B9
100
AcDbEntity
  8
1
100
AcDbLine
 62
6
  6
CONTINUOUS
 10
164.8246052261
 20
195.1804378124
 11
164.8246052261
 21
164.1979378124
  0
LINE
  5
2BA
100
AcDbEntity
  8
1
100
AcDbLine
 62
6
  6
CONTINUOUS
 10
164.8246052261
 20
146.1629378124
 11
164.8246052261
 21
130.3304378124
  0
LINE
  5
2BB
100
AcDbEntity
  8
1
100
AcDbLine
 62
6
  6
CONTINUOUS
 10
164.8246052261
 20
123.8359406877
 11
164.8246052261
 21
115.1804378124
  0
LINE
  5
2BC
100
AcDbEntity
  8
1
100
AcDbLine
 62
9
  6
CONTINUOUS
 10
117.8003793065
 20
143.2804378124
 11
111.6425456124
 21
143.2804378124
  0
LINE
  5
2BD
100
AcDbEntity
  8
1
100
AcDbLine
 62
6
  6
CONTINUOUS
 10
166.4483756249
 20
192.3679582136
 11
166.4483756249
 21
164.1979378124
  0
LINE
  5
2BE
100
AcDbEntity
  8
1
100
AcDbLine
 62
6
  6
CONTINUOUS
 10
166.4483756249
 20
146.1629378124
 11
166.4483756249
 21
130.3304378124
  0
LINE
  5
2BF
100
AcDbEntity
  8
1
100
AcDbLine
 62
6
  6
CONTINUOUS
 10
166.4483756249
 20
117.9929187336
 11
166.4483756249
 21
129.5142513992
  0
LINE
  5
2C0
100
AcDbEntity
  8
1
100
AcDbLine
 62
9
  6
CONTINUOUS
 10
167.1983756249
 20
120.2054378124
 11
167.1983756249
 21
146.5757515892
  0
LINE
  5
2C1
100
AcDbEntity
  8
1
100
AcDbLine
 62
9
  6
CONTINUOUS
 10
167.1983756249
 20
163.7851240357
 11
167.1983756249
 21
190.1554378124
  0
LINE
  5
2C2
100
AcDbEntity
  8
1
100
AcDbLine
 62
9
  6
CONTINUOUS
 10
169.5233756249
 20
120.2054378124
 11
169.5233756249
 21
146.5757515892
  0
LINE
  5
2C3
100
AcDbEntity
  8
1
100
AcDbLine
 62
9
  6
CONTINUOUS
 10
169.5233756249
 20
163.7851240357
 11
169.5233756249
 21
190.1554378124
  0
LINE
  5
2C4
100
AcDbEntity
  8
1
100
AcDbLine
 62
6
  6
CONTINUOUS
 10
170.2733756249
 20
117.9929190388
 11
170.2733756249
 21
129.5142513992
  0
LINE
  5
2C5
100
AcDbEntity
  8
1
100
AcDbLine
 62
6
  6
CONTINUOUS
 10
170.2733756249
 20
130.3304378124
 11
170.2733756249
 21
146.1629378124
  0
LINE
  5
2C6
100
AcDbEntity
  8
1
100
AcDbLine
 62
6
  6
CONTINUOUS
 10
170.2733756249
 20
164.1979378124
 11
170.2733756249
 21
192.3679579885
  0
LINE
  5
2C7
100
AcDbEntity
  8
1
100
AcDbLine
 62
6
  6
CONTINUOUS
 10
163.3283756249
 20
146.1629378124
 11
166.4946809428
 21
146.1629378124
  0
LINE
  5
2C8
100
AcDbEntity
  8
1
100
AcDbLine
 62
6
  6
CONTINUOUS
 10
170.2270703069
 20
146.1629378124
 11
176.3108756249
 21
146.1629378124
  0
LINE
  5
2C9
100
AcDbEntity
  8
1
100
AcDbLine
 62
6
  6
CONTINUOUS
 10
176.3108756249
 20
146.5629378124
 11
169.5920931523
 21
146.5629378124
  0
LINE
  5
2CA
100
AcDbEntity
  8
1
100
AcDbLine
 62
6
  6
CONTINUOUS
 10
167.1296580975
 20
146.5629378124
 11
163.3283756249
 21
146.5629378124
  0
LINE
  5
2CB
100
AcDbEntity
  8
1
100
AcDbLine
 62
6
  6
CONTINUOUS
 10
167.1983756249
 20
146.5757515892
 11
169.5233756249
 21
146.5757515892
  0
LINE
  5
2CC
100
AcDbEntity
  8
1
100
AcDbLine
 62
6
  6
CONTINUOUS
 10
116.6608756249
 20
147.1604378124
 11
112.1108756249
 21
147.1604378124
  0
LINE
  5
2CD
100
AcDbEntity
  8
1
100
AcDbLine
 62
6
  6
CONTINUOUS
 10
171.8971460237
 20
195.1804378124
 11
171.8971460237
 21
164.1979378124
  0
LINE
  5
2CE
100
AcDbEntity
  8
1
100
AcDbLine
 62
6
  6
CONTINUOUS
 10
171.8971460237
 20
146.1629378124
 11
171.8971460237
 21
130.3304378124
  0
LINE
  5
2CF
100
AcDbEntity
  8
1
100
AcDbLine
 62
6
  6
CONTINUOUS
 10
171.8971460237
 20
123.8359406877
 11
171.8971460237
 21
115.1804378124
  0
LINE
  5
2D0
100
AcDbEntity
  8
1
100
AcDbLine
 62
6
  6
CONTINUOUS
 10
176.3108756249
 20
115.180454124
 11
176.3108756249
 21
195.1804300166
  0
LINE
  5
2D1
100
AcDbEntity
  8
DEFAULT_1
100
AcDbLine
 62
7
  6
CENTER
 10
243.3608756249
 20
155.1804378124
 11
173.3108756249
 21
155.1804378124
  0
LINE
  5
2D2
100
AcDbEntity
  8
4
100
AcDbLine
 62
7
  6
CENTER
 10
244.6481315846
 20
155.1804378124
 11
107.4608756249
 21
155.1804378124
  0
LINE
  5
2D3
100
AcDbEntity
  8
1
100
AcDbLine
 62
9
  6
CONTINUOUS
 10
182.3108756249
 20
171.1554378124
 11
182.3108756249
 21
139.2054378124
  0
LINE
  5
2D4
100
AcDbEntity
  8
1
100
AcDbLine
 62
6
  6
CONTINUOUS
 10
164.8246052261
 20
115.1804378124
 11
166.4483756249
 21
117.992890643
  0
LINE
  5
2D5
100
AcDbEntity
  8
1
100
AcDbLine
 62
9
  6
CONTINUOUS
 10
116.6608756249
 20
163.2004378124
 11
112.1108756249
 21
163.2004378124
  0
LINE
  5
2D6
100
AcDbEntity
  8
1
100
AcDbLine
 62
6
  6
CONTINUOUS
 10
167.1983756249
 20
163.7851240357
 11
169.5233756249
 21
163.7851240357
  0
LINE
  5
2D7
100
AcDbEntity
  8
1
100
AcDbLine
 62
6
  6
CONTINUOUS
 10
163.3283756249
 20
163.7979378124
 11
167.1296580975
 21
163.7979378124
  0
LINE
  5
2D8
100
AcDbEntity
  8
1
100
AcDbLine
 62
6
  6
CONTINUOUS
 10
169.5920931523
 20
163.7979378124
 11
176.3108756249
 21
163.7979378124
  0
LINE
  5
2D9
100
AcDbEntity
  8
1
100
AcDbLine
 62
6
  6
CONTINUOUS
 10
163.3283756249
 20
164.1979378124
 11
166.4946809428
 21
164.1979378124
  0
LINE
  5
2DA
100
AcDbEntity
  8
1
100
AcDbLine
 62
6
  6
CONTINUOUS
 10
170.2270703069
 20
164.1979378124
 11
176.3108756249
 21
164.1979378124
  0
LINE
  5
2DB
100
AcDbEntity
  8
1
100
AcDbLine
 62
6
  6
CONTINUOUS
 10
164.8246052261
 20
195.1804378124
 11
166.4483756249
 21
192.3679849819
  0
LINE
  5
2DC
100
AcDbEntity
  8
1
100
AcDbLine
 62
6
  6
CONTINUOUS
 10
189.5360566802
 20
171.1554378124
 11
189.5360566802
 21
139.2054378124
  0
LINE
  5
2DD
100
AcDbEntity
  8
1
100
AcDbLine
 62
9
  6
CONTINUOUS
 10
111.6425456124
 20
167.0804378124
 11
117.8003793065
 21
167.0804378124
  0
LINE
  5
2DE
100
AcDbEntity
  8
1
100
AcDbLine
 62
6
  6
CONTINUOUS
 10
189.5360566802
 20
171.1554378124
 11
182.3108756249
 21
171.1554378124
  0
LINE
  5
2DF
100
AcDbEntity
  8
1
100
AcDbLine
 62
6
  6
CONTINUOUS
 10
239.4393347206
 20
167.2279646545
 11
189.5360566802
 21
171.1554378124
  0
LINE
  5
2E0
100
AcDbEntity
  8
1
100
AcDbLine
 62
6
  6
CONTINUOUS
 10
148.4801192389
 20
185.2960619862
 11
147.8608756249
 21
185.4619878124
  0
LINE
  5
2E1
100
AcDbEntity
  8
1
100
AcDbLine
 62
6
  6
CONTINUOUS
 10
149.6603043362
 20
185.2619878124
 11
148.738938284
 21
185.2619878124
  0
LINE
  5
2E2
100
AcDbEntity
  8
1
100
AcDbLine
 62
6
  6
CONTINUOUS
 10
147.8608756249
 20
185.4619878124
 11
111.9808160371
 21
183.6643968271
  0
LINE
  5
2E3
100
AcDbEntity
  8
1
100
AcDbLine
 62
6
  6
CONTINUOUS
 10
167.1983756249
 20
190.1554378124
 11
169.5233756249
 21
190.1554378124
  0
LINE
  5
2E4
100
AcDbEntity
  8
1
100
AcDbLine
 62
6
  6
CONTINUOUS
 10
164.8246052261
 20
195.1804378124
 11
150.3608756249
 21
195.1804378124
  0
LINE
  5
2E5
100
AcDbEntity
  8
1
100
AcDbLine
 62
6
  6
CONTINUOUS
 10
171.8971460237
 20
195.1804378124
 11
176.3108756249
 21
195.1804378124
  0
LINE
  5
2E6
100
AcDbEntity
  8
1
100
AcDbLine
 62
9
  6
CONTINUOUS
 10
239.4393347206
 20
167.2279646545
 11
239.4393347206
 21
143.1329109704
  0
LINE
  5
2E7
100
AcDbEntity
  8
1
100
AcDbLine
 62
6
  6
CONTINUOUS
 10
240.3608756249
 20
166.2310473208
 11
240.3608756249
 21
144.1298283041
  0
LINE
  5
2E8
100
AcDbEntity
  8
SK1
100
AcDbLine
 62
8
  6
HIDDEN
 10
197.8608756249
 20
150.25
 11
240.3608756249
 21
150.25
  0
LINE
  5
2E9
100
AcDbEntity
  8
SK1
100
AcDbLine
 62
8
  6
HIDDEN
 10
197.8608756249
 20
159.75
 11
240.3608756249
 21
159.75
  0
LINE
  5
2EA
100
AcDbEntity
  8
SK1
100
AcDbLine
 62
8
  6
HIDDEN
 10
197.8608756249
 20
159.75
 11
197.8608756249
 21
150.25
  0
ARC
  5
2EB
100
AcDbEntity
  8
1
100
AcDbCircle
 62
6
  6
CONTINUOUS
 10
125.5696218245
 20
130.1304378124
 40
40.940909143
100
AcDbArc
 50
359.7201038834
 51
0.2798961166
  0
ARC
  5
2EC
100
AcDbEntity
  8
1
100
AcDbCircle
 62
6
  6
CONTINUOUS
 10
167.0650592193
 20
136.3827429938
 40
17.6209968695
100
AcDbArc
 50
223.9318221759
 51
225.4008964399
  0
ARC
  5
2ED
100
AcDbEntity
  8
1
100
AcDbCircle
 62
6
  6
CONTINUOUS
 10
162.9195527856
 20
121.3304378124
 40
9.0
100
AcDbArc
 50
90.0
 51
161.694020926
  0
ARC
  5
2EE
100
AcDbEntity
  8
1
100
AcDbCircle
 62
6
  6
CONTINUOUS
 10
162.9195527856
 20
121.3304378124
 40
8.5999992957
100
AcDbArc
 50
90.0
 51
163.0619487858
  0
ARC
  5
2EF
100
AcDbEntity
  8
1
100
AcDbCircle
 62
9
  6
CONTINUOUS
 10
116.6608756249
 20
149.0604378124
 40
1.9
100
AcDbArc
 50
270.0
 51
354.9999999999
  0
ARC
  5
2F0
100
AcDbEntity
  8
1
100
AcDbCircle
 62
6
  6
CONTINUOUS
 10
112.0608756249
 20
128.294474562
 40
1.6
100
AcDbArc
 50
180.0
 51
267.1318795127
  0
ARC
  5
2F1
100
AcDbEntity
  8
1
100
AcDbCircle
 62
6
  6
CONTINUOUS
 10
148.738938284
 20
124.0988878124
 40
1.0
100
AcDbArc
 50
90.0
 51
105.0
  0
ARC
  5
2F2
100
AcDbEntity
  8
1
100
AcDbCircle
 62
6
  6
CONTINUOUS
 10
149.6603043362
 20
124.0988878124
 40
1.0
100
AcDbArc
 50
45.5216429127
 51
90.0
  0
ARC
  5
2F3
100
AcDbEntity
  8
1
100
AcDbCircle
 62
6
  6
CONTINUOUS
 10
167.1983756249
 20
119.4554378124
 40
0.75
100
AcDbArc
 50
90.0
 51
180.0
  0
ARC
  5
2F4
100
AcDbEntity
  8
1
100
AcDbCircle
 62
6
  6
CONTINUOUS
 10
-26.2598529007
 20
210.3758277096
 40
209.7675432076
100
AcDbArc
 50
335.6347911335
 51
336.7331595278
  0
ARC
  5
2F5
100
AcDbEntity
  8
1
100
AcDbCircle
 62
6
  6
CONTINUOUS
 10
163.3283756249
 20
155.1804378124
 40
9.0175
100
AcDbArc
 50
90.0
 51
270.0
  0
ARC
  5
2F6
100
AcDbEntity
  8
1
100
AcDbCircle
 62
6
  6
CONTINUOUS
 10
163.3283756249
 20
155.1804378124
 40
8.6175
100
AcDbArc
 50
89.9999999722
 51
270.0000000314
  0
CIRCLE
  5
2F7
100
AcDbEntity
  8
1
100
AcDbCircle
 62
6
  6
CONTINUOUS
 10
138.3608756249
 20
155.1804378124
 40
4.25
  0
ARC
  5
2F8
100
AcDbEntity
  8
1
100
AcDbCircle
 62
9
  6
CONTINUOUS
 10
116.6608756249
 20
161.3004378124
 40
1.9
100
AcDbArc
 50
0.0
 51
90.0
  0
ARC
  5
2F9
100
AcDbEntity
  8
1
100
AcDbCircle
 62
6
  6
CONTINUOUS
 10
112.0608756249
 20
182.0664010629
 40
1.6
100
AcDbArc
 50
92.8681204873
 51
180.0
  0
ARC
  5
2FA
100
AcDbEntity
  8
1
100
AcDbCircle
 62
6
  6
CONTINUOUS
 10
148.738938284
 20
186.2619878124
 40
1.0
100
AcDbArc
 50
255.0
 51
270.0
  0
ARC
  5
2FB
100
AcDbEntity
  8
1
100
AcDbCircle
 62
6
  6
CONTINUOUS
 10
149.6603043362
 20
186.2619878124
 40
1.0
100
AcDbArc
 50
270.0
 51
314.4783570873
  0
ARC
  5
2FC
100
AcDbEntity
  8
1
100
AcDbCircle
 62
6
  6
CONTINUOUS
 10
167.1983756249
 20
190.9054378124
 40
0.75
100
AcDbArc
 50
185.625
 51
270.0
  0
ARC
  5
2FD
100
AcDbEntity
  8
1
100
AcDbCircle
 62
6
  6
CONTINUOUS
 10
245.5608146556
 20
-959.0863414423
 40
1134.1881142147
100
AcDbArc
 50
96.5257377801
 51
96.7637593779
  0
ARC
  5
2FE
100
AcDbEntity
  8
1
100
AcDbCircle
 62
6
  6
CONTINUOUS
 10
211.1521294253
 20
130.1304378124
 40
40.940909143
100
AcDbArc
 50
179.7201038834
 51
180.2798961166
  0
ARC
  5
2FF
100
AcDbEntity
  8
1
100
AcDbCircle
 62
6
  6
CONTINUOUS
 10
182.3108756249
 20
133.2054378124
 40
6.0
100
AcDbArc
 50
90.0
 51
180.0
  0
ARC
  5
300
100
AcDbEntity
  8
1
100
AcDbCircle
 62
6
  6
CONTINUOUS
 10
239.3608756249
 20
144.1298283041
 40
1.0
100
AcDbArc
 50
274.5
 51
360.0
  0
ARC
  5
301
100
AcDbEntity
  8
1
100
AcDbCircle
 62
6
  6
CONTINUOUS
 10
169.5233756249
 20
119.4554378124
 40
0.75
100
AcDbArc
 50
0.0
 51
90.0
  0
ARC
  5
302
100
AcDbEntity
  8
1
100
AcDbCircle
 62
6
  6
CONTINUOUS
 10
245.5608146554
 20
1269.4472170659
 40
1134.1881142134
100
AcDbArc
 50
263.2362406221
 51
263.4742622199
  0
ARC
  5
303
100
AcDbEntity
  8
1
100
AcDbCircle
 62
6
  6
CONTINUOUS
 10
362.9816041504
 20
210.3758277096
 40
209.7675432076
100
AcDbArc
 50
203.2668404722
 51
204.3652088665
  0
ARC
  5
304
100
AcDbEntity
  8
1
100
AcDbCircle
 62
6
  6
CONTINUOUS
 10
182.3108756249
 20
177.1554378124
 40
6.0
100
AcDbArc
 50
180.0
 51
270.0
  0
ARC
  5
305
100
AcDbEntity
  8
1
100
AcDbCircle
 62
6
  6
CONTINUOUS
 10
239.3608756249
 20
166.2310473208
 40
1.0
100
AcDbArc
 50
0.0
 51
85.5
  0
ARC
  5
306
100
AcDbEntity
  8
1
100
AcDbCircle
 62
6
  6
CONTINUOUS
 10
169.5233756249
 20
190.9054378124
 40
0.75
100
AcDbArc
 50
270.0
 51
354.375
  0
SPLINE
  5
307
100
AcDbEntity
  8
1
100
AcDbSpline
 62
6
  6
CONTINUOUS
 70
0
 71
3
 72
12
 73
8
 74
0
 42
0.0000001
 43
0.0000001
 44
0.0000000001
 40
0.0
 40
0.0
 40
0.0
 40
0.0
 40
0.2424056017
 40
0.4883054533
 40
0.7403634915
 40
0.8696237942
 40
1.0
 40
1.0
 40
1.0
 40
1.0
 10
117.8003793065
 20
143.2804378124
 30
0.0
 10
117.7387809901
 20
143.1862560295
 30
0.0
 10
117.6012880338
 20
143.0046224188
 30
0.0
 10
117.3439781429
 20
142.7727438278
 30
0.0
 10
117.0774797003
 20
142.6416209923
 30
0.0
 10
116.8424702945
 20
142.5987026036
 30
0.0
 10
116.7210103735
 20
142.6007354323
 30
0.0
 10
116.6608756249
 20
142.6076170603
 30
0.0
  0
SPLINE
  5
308
100
AcDbEntity
  8
1
100
AcDbSpline
 62
6
  6
CONTINUOUS
 70
0
 71
3
 72
9
 73
5
 74
0
 42
0.0000001
 43
0.0000001
 44
0.0000000001
 40
0.0
 40
0.0
 40
0.0
 40
0.0
 40
0.5001751551
 40
1.0
 40
1.0
 40
1.0
 40
1.0
 10
111.6425456124
 20
167.0804378124
 30
0.0
 10
111.6934850198
 20
167.1134035897
 30
0.0
 10
111.8016711402
 20
167.1702774225
 30
0.0
 10
111.9206049475
 20
167.2009088578
 30
0.0
 10
111.9808160371
 20
167.2080527526
 30
0.0
  0
SPLINE
  5
309
100
AcDbEntity
  8
1
100
AcDbSpline
 62
6
  6
CONTINUOUS
 70
0
 71
3
 72
8
 73
4
 74
0
 42
0.0000001
 43
0.0000001
 44
0.0000000001
 40
0.0
 40
0.0
 40
0.0
 40
0.0
 40
1.0
 40
1.0
 40
1.0
 40
1.0
 10
111.4653547689
 20
166.9433748036
 30
0.0
 10
111.5209250601
 20
166.9932528193
 30
0.0
 10
111.5798562179
 20
167.0398679526
 30
0.0
 10
111.6425456124
 20
167.0804378124
 30
0.0
  0
SPLINE
  5
30A
100
AcDbEntity
  8
1
100
AcDbSpline
 62
6
  6
CONTINUOUS
 70
0
 71
3
 72
11
 73
7
 74
0
 42
0.0000001
 43
0.0000001
 44
0.0000000001
 40
0.0
 40
0.0
 40
0.0
 40
0.0
 40
0.2522437889
 40
0.502479271
 40
0.7514787163
 40
1.0
 40
1.0
 40
1.0
 40
1.0
 10
118.5608756249
 20
145.6750955861
 30
0.0
 10
118.5608756249
 20
145.4611298863
 30
0.0
 10
118.5221415652
 20
145.0341886653
 30
0.0
 10
118.3644866867
 20
144.4142962128
 30
0.0
 10
118.1238251237
 20
143.8255581354
 30
0.0
 10
117.9157674112
 20
143.4568623982
 30
0.0
 10
117.8003793065
 20
143.2804378124
 30
0.0
  0
SPLINE
  5
30B
100
AcDbEntity
  8
1
100
AcDbSpline
 62
6
  6
CONTINUOUS
 70
0
 71
3
 72
23
 73
19
 74
0
 42
0.0000001
 43
0.0000001
 44
0.0000000001
 40
0.0
 40
0.0
 40
0.0
 40
0.0
 40
0.0624017645
 40
0.1249707406
 40
0.1875089792
 40
0.2500505564
 40
0.3125276117
 40
0.3748977338
 40
0.4372729171
 40
0.4997431662
 40
0.5623505095
 40
0.6250906697
 40
0.6879284275
 40
0.7507851877
 40
0.8134659476
 40
0.8758493075
 40
0.9380649891
 40
1.0
 40
1.0
 40
1.0
 40
1.0
 10
133.5115573576
 20
155.1804377672
 30
0.0
 10
133.5113770837
 20
155.4966536249
 30
0.0
 10
133.5742529439
 20
156.1316628133
 30
0.0
 10
133.8517768046
 20
157.0465188813
 30
0.0
 10
134.3037084489
 20
157.8902719687
 30
0.0
 10
134.9117107485
 20
158.6287596283
 30
0.0
 10
135.6516720973
 20
159.2336089414
 30
0.0
 10
136.4944551947
 20
159.6823299062
 30
0.0
 10
137.4081988391
 20
159.9590479663
 30
0.0
 10
138.3594437064
 20
160.0536806097
 30
0.0
 10
139.3128654821
 20
159.9617032765
 30
0.0
 10
140.2319104575
 20
159.6850172518
 30
0.0
 10
141.0800344759
 20
159.2328404287
 30
0.0
 10
141.8222561786
 20
158.6226072607
 30
0.0
 10
142.4282839553
 20
157.8800281032
 30
0.0
 10
142.8755654834
 20
157.0359820492
 30
0.0
 10
143.1486997747
 20
156.1250891398
 30
0.0
 10
143.2103236097
 20
155.4942884256
 30
0.0
 10
143.2102064733
 20
155.1804377748
 30
0.0
  0
SPLINE
  5
30C
100
AcDbEntity
  8
1
100
AcDbSpline
 62
6
  6
CONTINUOUS
 70
0
 71
3
 72
23
 73
19
 74
0
 42
0.0000001
 43
0.0000001
 44
0.0000000001
 40
0.0
 40
0.0
 40
0.0
 40
0.0
 40
0.0618799418
 40
0.1240767694
 40
0.186460661
 40
0.2491455354
 40
0.3120079396
 40
0.3748445936
 40
0.4375845626
 40
0.5001947461
 40
0.5626667351
 40
0.6250448622
 40
0.6874174311
 40
0.7498931096
 40
0.8124343811
 40
0.8749731455
 40
0.9375556409
 40
1.0
 40
1.0
 40
1.0
 40
1.0
 10
143.210188132
 20
155.1804378526
 30
0.0
 10
143.210348084
 20
154.8668662781
 30
0.0
 10
143.1487781516
 20
154.2364422434
 30
0.0
 10
142.8759535854
 20
153.325855871
 30
0.0
 10
142.428898958
 20
152.4817688438
 30
0.0
 10
141.8230038345
 20
151.7390135181
 30
0.0
 10
141.0808752292
 20
151.1285958784
 30
0.0
 10
140.2328250574
 20
150.6762337057
 30
0.0
 10
139.313827616
 20
150.3993618548
 30
0.0
 10
138.3604017171
 20
150.307191724
 30
0.0
 10
137.4090997838
 20
150.4016444428
 30
0.0
 10
136.4952708415
 20
150.678207848
 30
0.0
 10
135.6523889533
 20
151.1267876189
 30
0.0
 10
134.9123192985
 20
151.7315100187
 30
0.0
 10
134.3041897034
 20
152.4698861785
 30
0.0
 10
133.8520790747
 20
153.3136199209
 30
0.0
 10
133.5743083476
 20
154.2287115155
 30
0.0
 10
133.511405329
 20
154.8640061286
 30
0.0
 10
133.5115378578
 20
155.1804378549
 30
0.0
  0
SPLINE
  5
30D
100
AcDbEntity
  8
1
100
AcDbSpline
 62
6
  6
CONTINUOUS
 70
0
 71
3
 72
16
 73
12
 74
0
 42
0.0000001
 43
0.0000001
 44
0.0000000001
 40
0.0
 40
0.0
 40
0.0
 40
0.0
 40
0.1488797729
 40
0.2868860523
 40
0.4117562626
 40
0.5232586506
 40
0.5757784755
 40
0.6278191897
 40
0.7366574523
 40
0.8602490311
 40
1.0
 40
1.0
 40
1.0
 40
1.0
 10
111.4653547689
 20
143.4175008213
 30
0.0
 10
111.4061501304
 20
143.3776129539
 30
0.0
 10
111.2884286286
 20
143.3058666
 30
0.0
 10
111.1074974075
 20
143.2250138976
 30
0.0
 10
110.9319433218
 20
143.1818823183
 30
0.0
 10
110.7903781196
 20
143.1871802889
 30
0.0
 10
110.6923172135
 20
143.2230244808
 30
0.0
 10
110.6056674318
 20
143.2791122079
 30
0.0
 10
110.5213125318
 20
143.391777578
 30
0.0
 10
110.4697815345
 20
143.5648995946
 30
0.0
 10
110.4608756249
 20
143.6915899885
 30
0.0
 10
110.4608756249
 20
143.7586006169
 30
0.0
  0
SPLINE
  5
30E
100
AcDbEntity
  8
1
100
AcDbSpline
 62
6
  6
CONTINUOUS
 70
0
 71
3
 72
8
 73
4
 74
0
 42
0.0000001
 43
0.0000001
 44
0.0000000001
 40
0.0
 40
0.0
 40
0.0
 40
0.0
 40
1.0
 40
1.0
 40
1.0
 40
1.0
 10
111.6425456124
 20
143.2804378124
 30
0.0
 10
111.5798562179
 20
143.3210076722
 30
0.0
 10
111.5209250601
 20
143.3676228056
 30
0.0
 10
111.4653547689
 20
143.4175008213
 30
0.0
  0
SPLINE
  5
30F
100
AcDbEntity
  8
1
100
AcDbSpline
 62
6
  6
CONTINUOUS
 70
0
 71
3
 72
9
 73
5
 74
0
 42
0.0000001
 43
0.0000001
 44
0.0000000001
 40
0.0
 40
0.0
 40
0.0
 40
0.0
 40
0.4999074292
 40
1.0
 40
1.0
 40
1.0
 40
1.0
 10
111.9808160371
 20
143.1528228723
 30
0.0
 10
111.9205948705
 20
143.1599679627
 30
0.0
 10
111.8016588333
 20
143.1905954653
 30
0.0
 10
111.6934767179
 20
143.2474774078
 30
0.0
 10
111.6425456124
 20
143.2804378124
 30
0.0
  0
SPLINE
  5
310
100
AcDbEntity
  8
1
100
AcDbSpline
 62
6
  6
CONTINUOUS
 70
0
 71
3
 72
8
 73
4
 74
0
 42
0.0000001
 43
0.0000001
 44
0.0000000001
 40
0.0
 40
0.0
 40
0.0
 40
0.0
 40
1.0
 40
1.0
 40
1.0
 40
1.0
 10
167.1296580975
 20
163.7979378124
 30
0.0
 10
167.1514861758
 20
163.789785741
 30
0.0
 10
167.1750749538
 20
163.7851240357
 30
0.0
 10
167.1983756249
 20
163.7851240357
 30
0.0
  0
SPLINE
  5
311
100
AcDbEntity
  8
1
100
AcDbSpline
 62
6
  6
CONTINUOUS
 70
0
 71
3
 72
11
 73
7
 74
0
 42
0.0000001
 43
0.0000001
 44
0.0000000001
 40
0.0
 40
0.0
 40
0.0
 40
0.0
 40
0.2189726782
 40
0.458039113
 40
0.7199382815
 40
1.0
 40
1.0
 40
1.0
 40
1.0
 10
166.4946809428
 20
164.1979378124
 30
0.0
 10
166.5181872434
 20
164.1457390936
 30
0.0
 10
166.5849273433
 20
164.0438658464
 30
0.0
 10
166.7297468674
 20
163.9201913306
 30
0.0
 10
166.9159879297
 20
163.8313421399
 30
0.0
 10
167.0566488071
 20
163.8034642361
 30
0.0
 10
167.1296580975
 20
163.7979378124
 30
0.0
  0
SPLINE
  5
312
100
AcDbEntity
  8
1
100
AcDbSpline
 62
6
  6
CONTINUOUS
 70
0
 71
3
 72
8
 73
4
 74
0
 42
0.0000001
 43
0.0000001
 44
0.0000000001
 40
0.0
 40
0.0
 40
0.0
 40
0.0
 40
1.0
 40
1.0
 40
1.0
 40
1.0
 10
166.5100424556
 20
129.9304378124
 30
0.0
 10
166.4687150637
 20
129.7964219143
 30
0.0
 10
166.4483756249
 20
129.65449481
 30
0.0
 10
166.4483756249
 20
129.5142513992
 30
0.0
  0
SPLINE
  5
313
100
AcDbEntity
  8
1
100
AcDbSpline
 62
6
  6
CONTINUOUS
 70
0
 71
3
 72
11
 73
7
 74
0
 42
0.0000001
 43
0.0000001
 44
0.0000000001
 40
0.0
 40
0.0
 40
0.0
 40
0.0
 40
0.2800617185
 40
0.541960887
 40
0.7810273218
 40
1.0
 40
1.0
 40
1.0
 40
1.0
 10
167.1296580975
 20
146.5629378124
 30
0.0
 10
167.0566488071
 20
146.5574113888
 30
0.0
 10
166.9159879297
 20
146.5295334849
 30
0.0
 10
166.7297468674
 20
146.4406842943
 30
0.0
 10
166.5849273433
 20
146.3170097785
 30
0.0
 10
166.5181872434
 20
146.2151365313
 30
0.0
 10
166.4946809428
 20
146.1629378124
 30
0.0
  0
SPLINE
  5
314
100
AcDbEntity
  8
1
100
AcDbSpline
 62
6
  6
CONTINUOUS
 70
0
 71
3
 72
8
 73
4
 74
0
 42
0.0000001
 43
0.0000001
 44
0.0000000001
 40
0.0
 40
0.0
 40
0.0
 40
0.0
 40
1.0
 40
1.0
 40
1.0
 40
1.0
 10
167.1983756249
 20
146.5757515892
 30
0.0
 10
167.1750749538
 20
146.5757515892
 30
0.0
 10
167.1514861758
 20
146.5710898839
 30
0.0
 10
167.1296580975
 20
146.5629378124
 30
0.0
  0
SPLINE
  5
315
100
AcDbEntity
  8
1
100
AcDbSpline
 62
6
  6
CONTINUOUS
 70
0
 71
3
 72
11
 73
7
 74
0
 42
0.0000001
 43
0.0000001
 44
0.0000000001
 40
0.0
 40
0.0
 40
0.0
 40
0.0
 40
0.2800490488
 40
0.5419541136
 40
0.7810243383
 40
1.0
 40
1.0
 40
1.0
 40
1.0
 10
169.5920931523
 20
163.7979378124
 30
0.0
 10
169.6650991304
 20
163.8034639854
 30
0.0
 10
169.8057580803
 20
163.8313412346
 30
0.0
 10
169.9919995063
 20
163.9201878948
 30
0.0
 10
170.1368224132
 20
164.0438637182
 30
0.0
 10
170.2035636892
 20
164.1457383891
 30
0.0
 10
170.2270703069
 20
164.1979378124
 30
0.0
  0
SPLINE
  5
316
100
AcDbEntity
  8
1
100
AcDbSpline
 62
6
  6
CONTINUOUS
 70
0
 71
3
 72
8
 73
4
 74
0
 42
0.0000001
 43
0.0000001
 44
0.0000000001
 40
0.0
 40
0.0
 40
0.0
 40
0.0
 40
1.0
 40
1.0
 40
1.0
 40
1.0
 10
169.5233756249
 20
163.7851240357
 30
0.0
 10
169.5466762959
 20
163.7851240357
 30
0.0
 10
169.570265074
 20
163.789785741
 30
0.0
 10
169.5920931523
 20
163.7979378124
 30
0.0
  0
SPLINE
  5
317
100
AcDbEntity
  8
1
100
AcDbSpline
 62
6
  6
CONTINUOUS
 70
0
 71
3
 72
8
 73
4
 74
0
 42
0.0000001
 43
0.0000001
 44
0.0000000001
 40
0.0
 40
0.0
 40
0.0
 40
0.0
 40
1.0
 40
1.0
 40
1.0
 40
1.0
 10
170.2733756249
 20
129.5142513992
 30
0.0
 10
170.2733756249
 20
129.65449481
 30
0.0
 10
170.2530361861
 20
129.7964219143
 30
0.0
 10
170.2117087942
 20
129.9304378124
 30
0.0
  0
SPLINE
  5
318
100
AcDbEntity
  8
1
100
AcDbSpline
 62
6
  6
CONTINUOUS
 70
0
 71
3
 72
8
 73
4
 74
0
 42
0.0000001
 43
0.0000001
 44
0.0000000001
 40
0.0
 40
0.0
 40
0.0
 40
0.0
 40
1.0
 40
1.0
 40
1.0
 40
1.0
 10
169.5920931523
 20
146.5629378124
 30
0.0
 10
169.570265074
 20
146.5710898839
 30
0.0
 10
169.5466762959
 20
146.5757515892
 30
0.0
 10
169.5233756249
 20
146.5757515892
 30
0.0
  0
SPLINE
  5
319
100
AcDbEntity
  8
1
100
AcDbSpline
 62
6
  6
CONTINUOUS
 70
0
 71
3
 72
11
 73
7
 74
0
 42
0.0000001
 43
0.0000001
 44
0.0000000001
 40
0.0
 40
0.0
 40
0.0
 40
0.0
 40
0.2189756617
 40
0.4580458864
 40
0.7199509512
 40
1.0
 40
1.0
 40
1.0
 40
1.0
 10
170.2270703069
 20
146.1629378124
 30
0.0
 10
170.2035636892
 20
146.2151372358
 30
0.0
 10
170.1368224132
 20
146.3170119067
 30
0.0
 10
169.9919995063
 20
146.4406877301
 30
0.0
 10
169.8057580803
 20
146.5295343902
 30
0.0
 10
169.6650991304
 20
146.5574116395
 30
0.0
 10
169.5920931523
 20
146.5629378124
 30
0.0
  0
SPLINE
  5
31A
100
AcDbEntity
  8
1
100
AcDbSpline
 62
6
  6
CONTINUOUS
 70
0
 71
3
 72
12
 73
8
 74
0
 42
0.0000001
 43
0.0000001
 44
0.0000000001
 40
0.0
 40
0.0
 40
0.0
 40
0.0
 40
0.1303873664
 40
0.259668906
 40
0.5117181168
 40
0.7575997366
 40
1.0
 40
1.0
 40
1.0
 40
1.0
 10
116.6608756249
 20
167.7532585646
 30
0.0
 10
116.7210154572
 20
167.7601407744
 30
0.0
 10
116.8424908664
 20
167.762171859
 30
0.0
 10
117.07750835
 20
167.7192373323
 30
0.0
 10
117.3440015042
 20
167.5881144267
 30
0.0
 10
117.6012964867
 20
167.3562419245
 30
0.0
 10
117.7387824122
 20
167.1746174211
 30
0.0
 10
117.8003793065
 20
167.0804378124
 30
0.0
  0
SPLINE
  5
31B
100
AcDbEntity
  8
1
100
AcDbSpline
 62
6
  6
CONTINUOUS
 70
0
 71
3
 72
16
 73
12
 74
0
 42
0.0000001
 43
0.0000001
 44
0.0000000001
 40
0.0
 40
0.0
 40
0.0
 40
0.0
 40
0.1397510331
 40
0.2633427535
 40
0.372181144
 40
0.4242218811
 40
0.4767418413
 40
0.5882445076
 40
0.7131150402
 40
0.8511210977
 40
1.0
 40
1.0
 40
1.0
 40
1.0
 10
110.4608756249
 20
166.602275008
 30
0.0
 10
110.4608756249
 20
166.6692856649
 30
0.0
 10
110.4697815312
 20
166.7959761473
 30
0.0
 10
110.5213126924
 20
166.9690983301
 30
0.0
 10
110.6056679308
 20
167.0817635778
 30
0.0
 10
110.6923177671
 20
167.1378514532
 30
0.0
 10
110.7903789336
 20
167.1736955977
 30
0.0
 10
110.9319445065
 20
167.1789932023
 30
0.0
 10
111.107498684
 20
167.1358613197
 30
0.0
 10
111.2884294669
 20
167.0550085642
 30
0.0
 10
111.4061504786
 20
166.9832624364
 30
0.0
 10
111.4653547689
 20
166.9433748036
 30
0.0
  0
SPLINE
  5
31C
100
AcDbEntity
  8
1
100
AcDbSpline
 62
6
  6
CONTINUOUS
 70
0
 71
3
 72
11
 73
7
 74
0
 42
0.0000001
 43
0.0000001
 44
0.0000000001
 40
0.0
 40
0.0
 40
0.0
 40
0.0
 40
0.248521356
 40
0.4975206509
 40
0.747756164
 40
1.0
 40
1.0
 40
1.0
 40
1.0
 10
117.8003793065
 20
167.0804378124
 30
0.0
 10
117.9157674447
 20
166.9040131755
 30
0.0
 10
118.1238250608
 20
166.5353174625
 30
0.0
 10
118.3644867109
 20
165.9465794682
 30
0.0
 10
118.5221415393
 20
165.3266870616
 30
0.0
 10
118.5608756249
 20
164.8997457784
 30
0.0
 10
118.5608756249
 20
164.6857800388
 30
0.0
  0
ELLIPSE
  5
31D
100
AcDbEntity
  8
1
100
AcDbEllipse
 62
6
  6
CONTINUOUS
 10
108.2308756249
 20
167.0804378124
 30
0.0
 11
3.4501785723
 21
-3.4501785723
 31
0.0
 40
0.5144696208
 41
0.4751561847
 42
1.0603072732
  0
ELLIPSE
  5
31E
100
AcDbEntity
  8
1
100
AcDbEllipse
 62
6
  6
CONTINUOUS
 10
108.2308756249
 20
143.2804378124
 30
0.0
 11
3.4501785723
 21
3.4501785723
 31
0.0
 40
0.5144696208
 41
-1.0603072732
 42
-0.4751561847
  0
ENDSEC
  0
SECTION
  2
OBJECTS
  0
DICTIONARY
  5
C
100
AcDbDictionary
280
0
281
1
  3
ACAD_GROUP
350
D
  3
ACAD_MLINESTYLE
350
17
  3
ACAD_LAYOUT
350
1A
  3
ACAD_PLOTSETTINGS
350
19
  3
ACAD_PLOTSTYLENAME
350
E
  0
DICTIONARY
  5
D
102
{ACAD_REACTORS
330
C
102
}
100
AcDbDictionary
280
0
281
1
  0
ACDBDICTIONARYWDFLT
  5
E
102
{ACAD_REACTORS
330
C
102
}
100
AcDbDictionary
281
1
  3
Normal
350
F
100
AcDbDictionaryWithDefault
340
F
  0
DICTIONARY
  5
17
102
{ACAD_REACTORS
330
C
102
}
100
AcDbDictionary
280
0
281
1
  3
Standard
350
18
  0
DICTIONARY
  5
19
102
{ACAD_REACTORS
330
C
102
}
100
AcDbDictionary
281
1
  0
DICTIONARY
  5
1A
102
{ACAD_REACTORS
330
C
102
}
100
AcDbDictionary
281
1
  3
Model
350
31F
  3
Layout1
350
320
  0
ACDBPLACEHOLDER
  5
F
102
{ACAD_REACTORS
330
E
102
}
  0
MLINESTYLE
  5
18
102
{ACAD_REACTORS
330
17
102
}
100
AcDbMlineStyle
  2
STANDARD
 70
0
  3

 62
256
 51
90.0
 52
90.0
 71
2
 49
0.5
 62
256
  6
BYLAYER
 49
-0.5
 62
256
  6
BYLAYER
  0
LAYOUT
  5
31F
102
{ACAD_REACTORS
330
1A
102
}
100
AcDbPlotSettings
  1

  2
none_device
  4
ISO_A3_(420.00_x_297.00_MM)
  6

 40
0.0
 41
0.0
 42
0.0
 43
0.0
 44
420.0
 45
297.0
 46
0.0
 47
0.0
 48
0.0
 49
0.0
140
0.0
141
0.0
142
1.0
143
1.0
 70
1024
 72
1
 73
0
 74
0
  7

 75
0
147
1.0
148
0.0
149
0.0
100
AcDbLayout
  1
Model
 70
0
 71
0
 10
0.0
 20
0.0
 11
420.0
 21
297.0
 12
0.0
 22
0.0
 32
0.0
 14
0.0
 24
0.0
 34
0.0
 15
0.0
 25
0.0
 35
0.0
146
0.0
 13
0.0
 23
0.0
 33
0.0
 16
1.0
 26
0.0
 36
0.0
 17
0.0
 27
1.0
 37
0.0
 76
0
330
231
345
0
346
0
  0
LAYOUT
  5
320
102
{ACAD_REACTORS
330
1A
102
}
100
AcDbPlotSettings
  1

  2
none_device
  4
ISO_A3_(420.00_x_297.00_MM)
  6

 40
0.0
 41
0.0
 42
0.0
 43
0.0
 44
420.0
 45
297.0
 46
0.0
 47
0.0
 48
0.0
 49
0.0
140
0.0
141
0.0
142
1.0
143
1.0
 70
0
 72
1
 73
0
 74
0
  7

 75
0
147
1.0
148
0.0
149
0.0
100
AcDbLayout
  1
Layout1
 70
0
 71
1
 10
0.0
 20
0.0
 11
420.0
 21
297.0
 12
0.0
 22
0.0
 32
0.0
 14
0.0
 24
0.0
 34
0.0
 15
0.0
 25
0.0
 35
0.0
146
0.0
 13
0.0
 23
0.0
 33
0.0
 16
1.0
 26
0.0
 36
0.0
 17
0.0
 27
1.0
 37
0.0
 76
0
330
232
345
0
346
0
  0
ENDSEC
  0
EOF
