  0
SECTION
  2
HEADER
  9
$ACADVER
  1
AC1015
  9
$ACADMAINTVER
 70
     6
  9
$DWGCODEPAGE
  3
ANSI_1252
  9
$INSBASE
 10
0.0
 20
0.0
 30
0.0
  9
$EXTMIN
 10
74.2875930348521
 20
77.3418763383
 30
0.0
  9
$EXTMAX
 10
261.496787251286
 20
186.9147704932
 30
0.0
  9
$LIMMIN
 10
0.0
 20
0.0
  9
$LIMMAX
 10
12.0
 20
9.0
  9
$ORTHOMODE
 70
     0
  9
$REGENMODE
 70
     1
  9
$FILLMODE
 70
     1
  9
$QTEXTMODE
 70
     0
  9
$MIRRTEXT
 70
     1
  9
$LTSCALE
 40
1.0
  9
$ATTMODE
 70
     1
  9
$TEXTSIZE
 40
0.2
  9
$TRACEWID
 40
0.05
  9
$TEXTSTYLE
  7
Standard
  9
$CLAYER
  8
0
  9
$CELTYPE
  6
ByLayer
  9
$CECOLOR
 62
   256
  9
$CELTSCALE
 40
1.0
  9
$DISPSILH
 70
     0
  9
$DIMSCALE
 40
1.0
  9
$DIMASZ
 40
0.18
  9
$DIMEXO
 40
0.0625
  9
$DIMDLI
 40
0.38
  9
$DIMRND
 40
0.0
  9
$DIMDLE
 40
0.0
  9
$DIMEXE
 40
0.18
  9
$DIMTP
 40
0.0
  9
$DIMTM
 40
0.0
  9
$DIMTXT
 40
0.18
  9
$DIMCEN
 40
0.09
  9
$DIMTSZ
 40
0.0
  9
$DIMTOL
 70
     0
  9
$DIMLIM
 70
     0
  9
$DIMTIH
 70
     1
  9
$DIMTOH
 70
     1
  9
$DIMSE1
 70
     0
  9
$DIMSE2
 70
     0
  9
$DIMTAD
 70
     0
  9
$DIMZIN
 70
     0
  9
$DIMBLK
  1

  9
$DIMASO
 70
     1
  9
$DIMSHO
 70
     1
  9
$DIMPOST
  1

  9
$DIMAPOST
  1

  9
$DIMALT
 70
     0
  9
$DIMALTD
 70
     2
  9
$DIMALTF
 40
25.4
  9
$DIMLFAC
 40
1.0
  9
$DIMTOFL
 70
     0
  9
$DIMTVP
 40
0.0
  9
$DIMTIX
 70
     0
  9
$DIMSOXD
 70
     0
  9
$DIMSAH
 70
     0
  9
$DIMBLK1
  1

  9
$DIMBLK2
  1

  9
$DIMSTYLE
  2
Standard
  9
$DIMCLRD
 70
     0
  9
$DIMCLRE
 70
     0
  9
$DIMCLRT
 70
     0
  9
$DIMTFAC
 40
1.0
  9
$DIMGAP
 40
0.09
  9
$DIMJUST
 70
     0
  9
$DIMSD1
 70
     0
  9
$DIMSD2
 70
     0
  9
$DIMTOLJ
 70
     1
  9
$DIMTZIN
 70
     0
  9
$DIMALTZ
 70
     0
  9
$DIMALTTZ
 70
     0
  9
$DIMUPT
 70
     0
  9
$DIMDEC
 70
     4
  9
$DIMTDEC
 70
     4
  9
$DIMALTU
 70
     2
  9
$DIMALTTD
 70
     2
  9
$DIMTXSTY
  7
Standard
  9
$DIMAUNIT
 70
     0
  9
$DIMADEC
 70
     0
  9
$DIMALTRND
 40
0.0
  9
$DIMAZIN
 70
     0
  9
$DIMDSEP
 70
    46
  9
$DIMATFIT
 70
     3
  9
$DIMFRAC
 70
     0
  9
$DIMLDRBLK
  1

  9
$DIMLUNIT
 70
     2
  9
$DIMLWD
 70
    -2
  9
$DIMLWE
 70
    -2
  9
$DIMTMOVE
 70
     0
  9
$LUNITS
 70
     2
  9
$LUPREC
 70
     4
  9
$SKETCHINC
 40
0.1
  9
$FILLETRAD
 40
0.5
  9
$AUNITS
 70
     0
  9
$AUPREC
 70
     0
  9
$MENU
  1
.
  9
$ELEVATION
 40
0.0
  9
$PELEVATION
 40
0.0
  9
$THICKNESS
 40
0.0
  9
$LIMCHECK
 70
     0
  9
$CHAMFERA
 40
0.5
  9
$CHAMFERB
 40
0.5
  9
$CHAMFERC
 40
1.0
  9
$CHAMFERD
 40
0.0
  9
$SKPOLY
 70
     0
  9
$TDCREATE
 40
2456644.717249283
  9
$TDUCREATE
 40
2456644.675582616
  9
$TDUPDATE
 40
2456644.717249294
  9
$TDUUPDATE
 40
2456644.675582627
  9
$TDINDWG
 40
0.0000000116
  9
$TDUSRTIMER
 40
0.0000000116
  9
$USRTIMER
 70
     1
  9
$ANGBASE
 50
0.0
  9
$ANGDIR
 70
     0
  9
$PDMODE
 70
     0
  9
$PDSIZE
 40
0.0
  9
$PLINEWID
 40
0.0
  9
$SPLFRAME
 70
     0
  9
$SPLINETYPE
 70
     6
  9
$SPLINESEGS
 70
     8
  9
$HANDSEED
  5
166
  9
$SURFTAB1
 70
     6
  9
$SURFTAB2
 70
     6
  9
$SURFTYPE
 70
     6
  9
$SURFU
 70
     6
  9
$SURFV
 70
     6
  9
$UCSBASE
  2

  9
$UCSNAME
  2

  9
$UCSORG
 10
0.0
 20
0.0
 30
0.0
  9
$UCSXDIR
 10
1.0
 20
0.0
 30
0.0
  9
$UCSYDIR
 10
0.0
 20
1.0
 30
0.0
  9
$UCSORTHOREF
  2

  9
$UCSORTHOVIEW
 70
     0
  9
$UCSORGTOP
 10
0.0
 20
0.0
 30
0.0
  9
$UCSORGBOTTOM
 10
0.0
 20
0.0
 30
0.0
  9
$UCSORGLEFT
 10
0.0
 20
0.0
 30
0.0
  9
$UCSORGRIGHT
 10
0.0
 20
0.0
 30
0.0
  9
$UCSORGFRONT
 10
0.0
 20
0.0
 30
0.0
  9
$UCSORGBACK
 10
0.0
 20
0.0
 30
0.0
  9
$PUCSBASE
  2

  9
$PUCSNAME
  2

  9
$PUCSORG
 10
0.0
 20
0.0
 30
0.0
  9
$PUCSXDIR
 10
1.0
 20
0.0
 30
0.0
  9
$PUCSYDIR
 10
0.0
 20
1.0
 30
0.0
  9
$PUCSORTHOREF
  2

  9
$PUCSORTHOVIEW
 70
     0
  9
$PUCSORGTOP
 10
0.0
 20
0.0
 30
0.0
  9
$PUCSORGBOTTOM
 10
0.0
 20
0.0
 30
0.0
  9
$PUCSORGLEFT
 10
0.0
 20
0.0
 30
0.0
  9
$PUCSORGRIGHT
 10
0.0
 20
0.0
 30
0.0
  9
$PUCSORGFRONT
 10
0.0
 20
0.0
 30
0.0
  9
$PUCSORGBACK
 10
0.0
 20
0.0
 30
0.0
  9
$USERI1
 70
     0
  9
$USERI2
 70
     0
  9
$USERI3
 70
     0
  9
$USERI4
 70
     0
  9
$USERI5
 70
     0
  9
$USERR1
 40
16.5
  9
$USERR2
 40
0.0
  9
$USERR3
 40
0.0
  9
$USERR4
 40
0.0
  9
$USERR5
 40
0.0
  9
$WORLDVIEW
 70
     1
  9
$SHADEDGE
 70
     3
  9
$SHADEDIF
 70
    70
  9
$TILEMODE
 70
     1
  9
$MAXACTVP
 70
    64
  9
$PINSBASE
 10
0.0
 20
0.0
 30
0.0
  9
$PLIMCHECK
 70
     0
  9
$PEXTMIN
 10
1.00000000000000E+20
 20
1.00000000000000E+20
 30
1.00000000000000E+20
  9
$PEXTMAX
 10
-1.00000000000000E+20
 20
-1.00000000000000E+20
 30
-1.00000000000000E+20
  9
$PLIMMIN
 10
0.0
 20
0.0
  9
$PLIMMAX
 10
12.0
 20
9.0
  9
$UNITMODE
 70
     0
  9
$VISRETAIN
 70
     1
  9
$PLINEGEN
 70
     0
  9
$PSLTSCALE
 70
     1
  9
$TREEDEPTH
 70
  3020
  9
$CMLSTYLE
  2
Standard
  9
$CMLJUST
 70
     0
  9
$CMLSCALE
 40
1.0
  9
$PROXYGRAPHICS
 70
     1
  9
$MEASUREMENT
 70
     1
  9
$CELWEIGHT
370
    -1
  9
$ENDCAPS
280
     0
  9
$JOINSTYLE
280
     0
  9
$LWDISPLAY
290
     0
  9
$INSUNITS
 70
     1
  9
$HYPERLINKBASE
  1

  9
$STYLESHEET
  1

  9
$XEDIT
290
     1
  9
$CEPSNTYPE
380
     0
  9
$PSTYLEMODE
290
     1
  9
$FINGERPRINTGUID
  2
{C1736840-4351-4BF7-8F0D-4ABE2582E3BC}
  9
$VERSIONGUID
  2
{FAEB1C32-E019-11D5-929B-00C0DF256EC4}
  9
$EXTNAMES
290
     1
  9
$PSVPSCALE
 40
0.0
  9
$OLESTARTUP
290
     0
  0
ENDSEC
  0
SECTION
  2
CLASSES
  0
CLASS
  1
ACDBDICTIONARYWDFLT
  2
AcDbDictionaryWithDefault
  3
ObjectDBX Classes
 90
        0
280
     0
281
     0
  0
CLASS
  1
VISUALSTYLE
  2
AcDbVisualStyle
  3
ObjectDBX Classes
 90
     4095
280
     0
281
     0
  0
CLASS
  1
SCALE
  2
AcDbScale
  3
ObjectDBX Classes
 90
     1153
280
     0
281
     0
  0
CLASS
  1

  2
exOdDbPolyline
  3

 90
        0
280
     0
281
     1
  0
CLASS
  1

  2
exOdDbCircle
  3

 90
        0
280
     0
281
     1
  0
CLASS
  1

  2
exOdDbSpline
  3

 90
        0
280
     0
281
     1
  0
CLASS
  1
DICTIONARYVAR
  2
AcDbDictionaryVar
  3
ObjectDBX Classes
 90
        0
280
     0
281
     0
  0
CLASS
  1
ACDBPLACEHOLDER
  2
AcDbPlaceHolder
  3
ObjectDBX Classes
 90
        0
280
     0
281
     0
  0
CLASS
  1
LAYOUT
  2
AcDbLayout
  3
ObjectDBX Classes
 90
        0
280
     0
281
     0
  0
ENDSEC
  0
SECTION
  2
TABLES
  0
TABLE
  2
VPORT
  5
8
330
0
100
AcDbSymbolTable
 70
     1
  0
VPORT
  5
29
330
8
100
AcDbSymbolTableRecord
100
AcDbViewportTableRecord
  2
*Active
 70
     0
 10
0.0
 20
0.0
 11
1.0
 21
1.0
 12
167.892190143069
 22
132.12832341575
 13
0.0
 23
0.0
 14
0.5
 24
0.5
 15
0.5
 25
0.5
 16
0.0
 26
0.0
 36
1.0
 17
0.0
 27
0.0
 37
0.0
 40
128.491212966377
 41
1.60267857142857
 42
50.0
 43
0.0
 44
0.0
 50
0.0
 51
0.0
 71
     0
 72
   100
 73
     1
 74
     3
 75
     0
 76
     0
 77
     0
 78
     0
281
     0
 65
     1
110
0.0
120
0.0
130
0.0
111
1.0
121
0.0
131
0.0
112
0.0
122
1.0
132
0.0
 79
     0
146
0.0
  0
ENDTAB
  0
TABLE
  2
LTYPE
  5
5
330
0
100
AcDbSymbolTable
 70
     9
  0
LTYPE
  5
14
330
5
100
AcDbSymbolTableRecord
100
AcDbLinetypeTableRecord
  2
ByBlock
 70
     0
  3

 72
    65
 73
     0
 40
0.0
  0
LTYPE
  5
15
330
5
100
AcDbSymbolTableRecord
100
AcDbLinetypeTableRecord
  2
ByLayer
 70
     0
  3

 72
    65
 73
     0
 40
0.0
  0
LTYPE
  5
16
330
5
100
AcDbSymbolTableRecord
100
AcDbLinetypeTableRecord
  2
Continuous
 70
     0
  3
Solid line
 72
    65
 73
     0
 40
0.0
  0
LTYPE
  5
3B
330
5
100
AcDbSymbolTableRecord
100
AcDbLinetypeTableRecord
  2
DASHED
 70
     0
  3
Dashed
 72
    65
 73
     2
 40
15.0
 49
7.0
 74
     0
 49
-8.0
 74
     0
  0
LTYPE
  5
3C
330
5
100
AcDbSymbolTableRecord
100
AcDbLinetypeTableRecord
  2
DOTTED
 70
     0
  3
Dotted
 72
    65
 73
     2
 40
1.0
 49
0.0
 74
     0
 49
-1.0
 74
     0
  0
LTYPE
  5
3D
330
5
100
AcDbSymbolTableRecord
100
AcDbLinetypeTableRecord
  2
DOT_CENTER
 70
     0
  3
Dot_Center
 72
    65
 73
     4
 40
14.0
 49
12.0
 74
     0
 49
-1.0
 74
     0
 49
0.0
 74
     0
 49
-1.0
 74
     0
  0
LTYPE
  5
3E
330
5
100
AcDbSymbolTableRecord
100
AcDbLinetypeTableRecord
  2
LONG_DASHED
 70
     0
  3
Long_Dashed
 72
    65
 73
     2
 40
15.0
 49
10.0
 74
     0
 49
-5.0
 74
     0
  0
LTYPE
  5
3F
330
5
100
AcDbSymbolTableRecord
100
AcDbLinetypeTableRecord
  2
DASH_CENTER
 70
     0
  3
Dash_Center
 72
    65
 73
     4
 40
14.0
 49
11.0
 74
     0
 49
-1.0
 74
     0
 49
1.0
 74
     0
 49
-1.0
 74
     0
  0
LTYPE
  5
40
330
5
100
AcDbSymbolTableRecord
100
AcDbLinetypeTableRecord
  2
PHANTOM
 70
     0
  3
Phantom
 72
    65
 73
     6
 40
13.0
 49
10.0
 74
     0
 49
-1.0
 74
     0
 49
0.0
 74
     0
 49
-1.0
 74
     0
 49
0.0
 74
     0
 49
-1.0
 74
     0
  0
LTYPE
  5
41
330
5
100
AcDbSymbolTableRecord
100
AcDbLinetypeTableRecord
  2
CENTER_DASH_DASH
 70
     0
  3
Center_Dash_Dash
 72
    65
 73
     6
 40
14.0
 49
9.0
 74
     0
 49
-1.0
 74
     0
 49
1.0
 74
     0
 49
-1.0
 74
     0
 49
1.0
 74
     0
 49
-1.0
 74
     0
  0
LTYPE
  5
42
330
5
100
AcDbSymbolTableRecord
100
AcDbLinetypeTableRecord
  2
HIDDEN
 70
     0
  3
HIDDEN
 72
    65
 73
     2
 40
4.0
 49
2.0
 74
     0
 49
-2.0
 74
     0
  0
ENDTAB
  0
TABLE
  2
LAYER
  5
2
330
0
100
AcDbSymbolTable
 70
     7
  0
LAYER
  5
10
330
2
100
AcDbSymbolTableRecord
100
AcDbLayerTableRecord
  2
0
 70
     0
 62
     7
  6
Continuous
370
    -3
390
F
  0
LAYER
  5
43
330
2
100
AcDbSymbolTableRecord
100
AcDbLayerTableRecord
  2
1
 70
     0
 62
     7
  6
Continuous
370
    -3
390
F
  0
LAYER
  5
44
330
2
100
AcDbSymbolTableRecord
100
AcDbLayerTableRecord
  2
BEZUGSACHSEN
 70
     0
 62
     7
  6
Continuous
370
    -3
390
F
  0
LAYER
  5
45
330
2
100
AcDbSymbolTableRecord
100
AcDbLayerTableRecord
  2
BOHRUNGEN
 70
     0
 62
     7
  6
Continuous
370
    -3
390
F
  0
LAYER
  5
46
330
2
100
AcDbSymbolTableRecord
100
AcDbLayerTableRecord
  2
FASEN
 70
     0
 62
     7
  6
Continuous
370
    -3
390
F
  0
LAYER
  5
47
330
2
100
AcDbSymbolTableRecord
100
AcDbLayerTableRecord
  2
RUNDUNGEN
 70
     0
 62
     7
  6
Continuous
370
    -3
390
F
  0
LAYER
  5
48
330
2
100
AcDbSymbolTableRecord
100
AcDbLayerTableRecord
  2
TEIL_STARTBEZUEGE
 70
     0
 62
     7
  6
Continuous
370
    -3
390
F
  0
ENDTAB
  0
TABLE
  2
STYLE
  5
3
330
0
100
AcDbSymbolTable
 70
     2
  0
STYLE
  5
11
330
3
100
AcDbSymbolTableRecord
100
AcDbTextStyleTableRecord
  2
Standard
 70
     0
 40
0.0
 41
1.0
 50
0.0
 71
     0
 42
0.2
  3
txt
  4

  0
STYLE
  5
6F
330
3
100
AcDbSymbolTableRecord
100
AcDbTextStyleTableRecord
  2
CONVERTER_11
 70
     0
 40
0.0
 41
0.72
 50
0.0
 71
     0
 42
0.2
  3
txt.shx
  4

  0
ENDTAB
  0
TABLE
  2
VIEW
  5
6
330
0
100
AcDbSymbolTable
 70
     0
  0
ENDTAB
  0
TABLE
  2
UCS
  5
7
330
0
100
AcDbSymbolTable
 70
     0
  0
ENDTAB
  0
TABLE
  2
APPID
  5
9
330
0
100
AcDbSymbolTable
 70
     1
  0
APPID
  5
12
330
9
100
AcDbSymbolTableRecord
100
AcDbRegAppTableRecord
  2
ACAD
 70
     0
  0
ENDTAB
  0
TABLE
  2
DIMSTYLE
  5
A
330
0
100
AcDbSymbolTable
 70
     8
100
AcDbDimStyleTable
  0
DIMSTYLE
105
27
330
A
100
AcDbSymbolTableRecord
100
AcDbDimStyleTableRecord
  2
Standard
 70
     0
340
11
  0
DIMSTYLE
105
117
102
{ACAD_REACTORS
330
118
102
}
330
A
100
AcDbSymbolTableRecord
100
AcDbDimStyleTableRecord
  2
ME10_DIM_10
 70
     0
  3
\U+2300<>
 41
3.5
 42
2.0
 44
2.0
 71
     1
 73
     0
 74
     0
 77
     1
 78
     8
140
3.5
146
0.7
147
2.0
172
     1
173
     1
176
     2
177
     2
178
     3
271
     2
272
     0
340
6F
  0
DIMSTYLE
105
122
102
{ACAD_REACTORS
330
123
102
}
330
A
100
AcDbSymbolTableRecord
100
AcDbDimStyleTableRecord
  2
ME10_DIM_11
 70
     0
  3
\U+2300<>
 41
3.5
 42
2.0
 44
2.0
 71
     1
 73
     0
 74
     0
 77
     1
 78
     8
140
3.5
146
0.7
147
2.0
172
     1
173
     1
176
     2
177
     2
178
     3
271
     2
272
     0
340
6F
  0
DIMSTYLE
105
12D
102
{ACAD_REACTORS
330
12E
102
}
330
A
100
AcDbSymbolTableRecord
100
AcDbDimStyleTableRecord
  2
ME10_DIM_12
 70
     0
  3
\U+2300<>
 41
3.5
 42
2.0
 44
2.0
 71
     1
 73
     0
 74
     0
 77
     1
 78
     8
140
3.5
146
0.7
147
2.0
172
     1
173
     1
176
     2
177
     2
178
     3
271
     2
272
     0
340
6F
  0
DIMSTYLE
105
138
102
{ACAD_REACTORS
330
139
102
}
330
A
100
AcDbSymbolTableRecord
100
AcDbDimStyleTableRecord
  2
ME10_DIM_13
 70
     0
  3
<>
 41
3.5
 42
2.0
 44
2.0
 71
     1
 73
     0
 74
     0
 77
     1
 78
     8
140
3.5
146
0.7
147
2.0
172
     1
173
     1
176
     2
177
     2
178
     3
271
     0
272
     0
340
6F
  0
DIMSTYLE
105
143
102
{ACAD_REACTORS
330
144
102
}
330
A
100
AcDbSymbolTableRecord
100
AcDbDimStyleTableRecord
  2
ME10_DIM_14
 70
     0
  3
<>
 41
3.5
 42
2.0
 44
2.0
 71
     1
 73
     0
 74
     0
 77
     1
 78
     8
140
3.5
146
0.7
147
2.0
172
     1
173
     1
176
     2
177
     2
178
     3
271
     2
272
     0
340
6F
  0
DIMSTYLE
105
14E
102
{ACAD_REACTORS
330
14F
102
}
330
A
100
AcDbSymbolTableRecord
100
AcDbDimStyleTableRecord
  2
ME10_DIM_15
 70
     0
  3
<>
 41
3.5
 42
2.0
 44
2.0
 71
     1
 73
     0
 74
     0
 77
     1
 78
     8
140
3.5
146
0.7
147
2.0
172
     1
173
     1
176
     2
177
     2
178
     3
271
     0
272
     0
340
6F
  0
DIMSTYLE
105
160
102
{ACAD_REACTORS
330
161
102
}
330
A
100
AcDbSymbolTableRecord
100
AcDbDimStyleTableRecord
  2
ME10_DIM_16
 70
     0
  3
<>
 41
3.5
 42
2.0
 44
2.0
 71
     1
 73
     0
 74
     0
 77
     1
 78
     8
140
3.5
146
0.7
147
2.0
172
     1
173
     1
176
     2
177
     2
178
     3
271
     2
272
     0
340
6F
  0
ENDTAB
  0
TABLE
  2
BLOCK_RECORD
  5
1
330
0
100
AcDbSymbolTable
 70
    10
  0
BLOCK_RECORD
  5
1F
330
1
100
AcDbSymbolTableRecord
100
AcDbBlockTableRecord
  2
*Model_Space
340
22
  0
BLOCK_RECORD
  5
1B
330
1
100
AcDbSymbolTableRecord
100
AcDbBlockTableRecord
  2
*Paper_Space
340
1E
  0
BLOCK_RECORD
  5
23
330
1
100
AcDbSymbolTableRecord
100
AcDbBlockTableRecord
  2
*Paper_Space0
340
26
  0
BLOCK_RECORD
  5
49
330
1
100
AcDbSymbolTableRecord
100
AcDbBlockTableRecord
  2
Urheberrecht_DE-EN
340
0
102
{BLKREFS
331
6E
102
}
  0
BLOCK_RECORD
  5
10C
330
1
100
AcDbSymbolTableRecord
100
AcDbBlockTableRecord
  2
*D2
340
0
  0
BLOCK_RECORD
  5
119
330
1
100
AcDbSymbolTableRecord
100
AcDbBlockTableRecord
  2
*D3
340
0
  0
BLOCK_RECORD
  5
124
330
1
100
AcDbSymbolTableRecord
100
AcDbBlockTableRecord
  2
*D4
340
0
  0
BLOCK_RECORD
  5
12F
330
1
100
AcDbSymbolTableRecord
100
AcDbBlockTableRecord
  2
*D5
340
0
  0
BLOCK_RECORD
  5
13A
330
1
100
AcDbSymbolTableRecord
100
AcDbBlockTableRecord
  2
*D6
340
0
  0
BLOCK_RECORD
  5
145
330
1
100
AcDbSymbolTableRecord
100
AcDbBlockTableRecord
  2
*D7
340
0
  0
BLOCK_RECORD
  5
150
330
1
100
AcDbSymbolTableRecord
100
AcDbBlockTableRecord
  2
*D8
340
0
102
{BLKREFS
331
156
102
}
  0
BLOCK_RECORD
  5
157
330
1
100
AcDbSymbolTableRecord
100
AcDbBlockTableRecord
  2
*D9
340
0
  0
ENDTAB
  0
ENDSEC
  0
SECTION
  2
BLOCKS
  0
BLOCK
  5
20
330
1F
100
AcDbEntity
  8
0
100
AcDbBlockBegin
  2
*Model_Space
 70
     0
 10
0.0
 20
0.0
 30
0.0
  3
*Model_Space
  1

  0
ENDBLK
  5
21
330
1F
100
AcDbEntity
  8
0
100
AcDbBlockEnd
  0
BLOCK
  5
1C
330
1B
100
AcDbEntity
 67
     1
  8
0
100
AcDbBlockBegin
  2
*Paper_Space
 70
     0
 10
0.0
 20
0.0
 30
0.0
  3
*Paper_Space
  1

  0
ENDBLK
  5
1D
330
1B
100
AcDbEntity
 67
     1
  8
0
100
AcDbBlockEnd
  0
BLOCK
  5
24
330
23
100
AcDbEntity
  8
0
100
AcDbBlockBegin
  2
*Paper_Space0
 70
     0
 10
0.0
 20
0.0
 30
0.0
  3
*Paper_Space0
  1

  0
ENDBLK
  5
25
330
23
100
AcDbEntity
  8
0
100
AcDbBlockEnd
  0
BLOCK
  5
4A
330
49
100
AcDbEntity
  8
0
100
AcDbBlockBegin
  2
Urheberrecht_DE-EN
 70
     0
 10
88.2875930348521
 20
134.4347704932
 30
0.0
  3
Urheberrecht_DE-EN
  1

  0
MTEXT
  5
70
330
49
100
AcDbEntity
  8
1
 62
     1
100
AcDbMText
 10
88.2875930348521
 20
134.4347704932
 30
0.0
 40
2.0
 41
0.0
 71
     7
 72
     1
  1
We own the copyright of this document. It \Pdetermined and may neither be copied or \Pmade accessible to outsiders without our\Ppermission.
  7
CONVERTER_11
 11
0.0
 21
1.0
 31
0.0
 73
     1
 44
0.90036014405762
  0
MTEXT
  5
71
330
49
100
AcDbEntity
  8
1
 62
     1
100
AcDbMText
 10
88.2875930348521
 20
78.14538357589382
 30
0.0
 40
2.0
 41
0.0
 71
     7
 72
     1
  1
F\U+00fcr diese Unterlage behalten wir das Ur-\Pheberrecht. Sie darf nur f\U+00fcr den von uns \Pbestimmten Zweck benutzt und ohne unsere \PZustimmung weder vervielf\U+00e4ltigt noch\PDritten zug\U+00e4nglich gemacht werden.
  7
CONVERTER_11
 11
0.0
 21
1.0
 31
0.0
 73
     1
 44
0.90036014405762
  0
ENDBLK
  5
4B
330
49
100
AcDbEntity
  8
0
100
AcDbBlockEnd
  0
BLOCK
  5
115
330
10C
100
AcDbEntity
  8
0
100
AcDbBlockBegin
  2
*D2
 70
     1
 10
0.0
 20
0.0
 30
0.0
  3
*D2
  1

  0
LINE
  5
10D
330
10C
100
AcDbEntity
  8
1
  6
Continuous
 62
     2
100
AcDbLine
 10
240.319122303088
 20
128.3418763383
 30
0.0
 11
240.319122303088
 21
121.3418763383
 31
0.0
  0
LINE
  5
10E
330
10C
100
AcDbEntity
  8
1
  6
Continuous
 62
     2
100
AcDbLine
 10
240.319122303088
 20
121.3418763383
 30
0.0
 11
240.319122303088
 21
113.3418763383
 31
0.0
  0
LINE
  5
10F
330
10C
100
AcDbEntity
  8
1
  6
Continuous
 62
     2
100
AcDbLine
 10
240.319122303088
 20
113.3418763383
 30
0.0
 11
240.319122303088
 21
106.3418763383
 31
0.0
  0
LINE
  5
110
330
10C
100
AcDbEntity
  8
1
  6
Continuous
 62
     2
100
AcDbLine
 10
230.6579095289
 20
121.3418763383
 30
0.0
 11
242.319122303088
 21
121.3418763383
 31
0.0
  0
LINE
  5
111
330
10C
100
AcDbEntity
  8
1
  6
Continuous
 62
     2
100
AcDbLine
 10
230.6579095289
 20
113.3418763383
 30
0.0
 11
242.319122303088
 21
113.3418763383
 31
0.0
  0
SOLID
  5
112
330
10C
100
AcDbEntity
  8
1
 62
     2
100
AcDbTrace
 10
239.8583385615321
 20
124.8418763383
 30
0.0
 11
240.7799060446439
 21
124.8418763383
 31
0.0
 12
240.319122303088
 22
121.3418763383
 32
0.0
 13
240.319122303088
 23
121.3418763383
 33
0.0
  0
SOLID
  5
113
330
10C
100
AcDbEntity
  8
1
 62
     2
100
AcDbTrace
 10
240.7799060446439
 20
109.8418763383
 30
0.0
 11
239.8583385615321
 21
109.8418763383
 31
0.0
 12
240.319122303088
 22
113.3418763383
 32
0.0
 13
240.319122303088
 23
113.3418763383
 33
0.0
  0
MTEXT
  5
114
330
10C
100
AcDbEntity
  8
1
 62
     3
100
AcDbMText
 10
238.319122303088
 20
110.106813451698
 30
0.0
 40
3.5
 41
0.0
 71
     7
 72
     1
  1
\C3;%%c\C3;\C3;8\C2;\H2.45;\S^ ;\C3;
  7
CONVERTER_11
 11
0.0
 21
1.0
 31
0.0
 73
     1
 44
0.60024009603842
  0
ENDBLK
  5
116
330
10C
100
AcDbEntity
  8
0
100
AcDbBlockEnd
  0
BLOCK
  5
120
330
119
100
AcDbEntity
  8
0
100
AcDbBlockBegin
  2
*D3
 70
     1
 10
0.0
 20
0.0
 30
0.0
  3
*D3
  1

  0
LINE
  5
11A
330
119
100
AcDbEntity
  8
1
  6
Continuous
 62
     2
100
AcDbLine
 10
250.59287138248
 20
127.8418763383466
 30
0.0
 11
250.59287138248
 21
106.8418763383486
 31
0.0
  0
LINE
  5
11B
330
119
100
AcDbEntity
  8
1
  6
Continuous
 62
     2
100
AcDbLine
 10
230.6579095289
 20
127.8418763383466
 30
0.0
 11
252.59287138248
 21
127.8418763383466
 31
0.0
  0
LINE
  5
11C
330
119
100
AcDbEntity
  8
1
  6
Continuous
 62
     2
100
AcDbLine
 10
230.6579095289
 20
106.8418763383486
 30
0.0
 11
252.59287138248
 21
106.8418763383486
 31
0.0
  0
SOLID
  5
11D
330
119
100
AcDbEntity
  8
1
 62
     2
100
AcDbTrace
 10
251.0536551240359
 20
124.3418763383466
 30
0.0
 11
250.1320876409241
 21
124.3418763383466
 31
0.0
 12
250.59287138248
 22
127.8418763383466
 32
0.0
 13
250.59287138248
 23
127.8418763383466
 33
0.0
  0
SOLID
  5
11E
330
119
100
AcDbEntity
  8
1
 62
     2
100
AcDbTrace
 10
250.1320876409241
 20
110.3418763383486
 30
0.0
 11
251.0536551240359
 21
110.3418763383486
 31
0.0
 12
250.59287138248
 22
106.8418763383486
 32
0.0
 13
250.59287138248
 23
106.8418763383486
 33
0.0
  0
MTEXT
  5
11F
330
119
100
AcDbEntity
  8
1
 62
     3
100
AcDbMText
 10
248.59287138248
 20
108.810202381503
 30
0.0
 40
3.5
 41
0.0
 71
     7
 72
     1
  1
\C3;%%c\C3;\C3;21\C2;\H2.45;\S^ ;\C3;
  7
CONVERTER_11
 11
0.0
 21
1.0
 31
0.0
 73
     1
 44
0.60024009603842
  0
ENDBLK
  5
121
330
119
100
AcDbEntity
  8
0
100
AcDbBlockEnd
  0
BLOCK
  5
12B
330
124
100
AcDbEntity
  8
0
100
AcDbBlockBegin
  2
*D4
 70
     1
 10
0.0
 20
0.0
 30
0.0
  3
*D4
  1

  0
LINE
  5
125
330
124
100
AcDbEntity
  8
1
  6
Continuous
 62
     2
100
AcDbLine
 10
259.496787251286
 20
130.8418763383
 30
0.0
 11
259.496787251286
 21
103.8418763383
 31
0.0
  0
LINE
  5
126
330
124
100
AcDbEntity
  8
1
  6
Continuous
 62
     2
100
AcDbLine
 10
192.5392953204
 20
130.8418763383
 30
0.0
 11
261.496787251286
 21
130.8418763383
 31
0.0
  0
LINE
  5
127
330
124
100
AcDbEntity
  8
1
  6
Continuous
 62
     2
100
AcDbLine
 10
192.5392953204
 20
103.8418763383
 30
0.0
 11
261.496787251286
 21
103.8418763383
 31
0.0
  0
SOLID
  5
128
330
124
100
AcDbEntity
  8
1
 62
     2
100
AcDbTrace
 10
259.9575709928419
 20
127.3418763383
 30
0.0
 11
259.0360035097302
 21
127.3418763383
 31
0.0
 12
259.496787251286
 22
130.8418763383
 32
0.0
 13
259.496787251286
 23
130.8418763383
 33
0.0
  0
SOLID
  5
129
330
124
100
AcDbEntity
  8
1
 62
     2
100
AcDbTrace
 10
259.0360035097302
 20
107.3418763383
 30
0.0
 11
259.9575709928419
 21
107.3418763383
 31
0.0
 12
259.496787251286
 22
103.8418763383
 32
0.0
 13
259.496787251286
 23
103.8418763383
 33
0.0
  0
MTEXT
  5
12A
330
124
100
AcDbEntity
  8
1
 62
     3
100
AcDbMText
 10
257.496787251286
 20
109.075118986796
 30
0.0
 40
3.5
 41
0.0
 71
     7
 72
     1
  1
\C3;%%c\C3;\C3;27\C2;\H2.45;\S^ ;\C3;
  7
CONVERTER_11
 11
0.0
 21
1.0
 31
0.0
 73
     1
 44
0.60024009603842
  0
ENDBLK
  5
12C
330
124
100
AcDbEntity
  8
0
100
AcDbBlockEnd
  0
BLOCK
  5
136
330
12F
100
AcDbEntity
  8
0
100
AcDbBlockBegin
  2
*D5
 70
     1
 10
0.0
 20
0.0
 30
0.0
  3
*D5
  1

  0
LINE
  5
130
330
12F
100
AcDbEntity
  8
1
  6
Continuous
 62
     2
100
AcDbLine
 10
228.6579095289
 20
164.504448146704
 30
0.0
 11
169.6079095289
 21
164.504448146704
 31
0.0
  0
LINE
  5
131
330
12F
100
AcDbEntity
  8
1
  6
Continuous
 62
     2
100
AcDbLine
 10
228.6579095289
 20
128.9174858467
 30
0.0
 11
228.6579095289
 21
166.504448146704
 31
0.0
  0
LINE
  5
132
330
12F
100
AcDbEntity
  8
1
  6
Continuous
 62
     2
100
AcDbLine
 10
169.6079095289
 20
159.3418340441
 30
0.0
 11
169.6079095289
 21
166.504448146704
 31
0.0
  0
SOLID
  5
133
330
12F
100
AcDbEntity
  8
1
 62
     2
100
AcDbTrace
 10
225.1579095289
 20
164.0436644051481
 30
0.0
 11
225.1579095289
 21
164.9652318882599
 31
0.0
 12
228.6579095289
 22
164.504448146704
 32
0.0
 13
228.6579095289
 23
164.504448146704
 33
0.0
  0
SOLID
  5
134
330
12F
100
AcDbEntity
  8
1
 62
     2
100
AcDbTrace
 10
173.1079095289
 20
164.9652318882599
 30
0.0
 11
173.1079095289
 21
164.0436644051481
 31
0.0
 12
169.6079095289
 22
164.504448146704
 32
0.0
 13
169.6079095289
 23
164.504448146704
 33
0.0
  0
MTEXT
  5
135
330
12F
100
AcDbEntity
  8
1
 62
     3
100
AcDbMText
 10
196.210903845132
 20
166.504448146704
 30
0.0
 40
3.5
 41
0.0
 71
     7
 72
     1
  1
\C3;\C3;\C3;59\C2;\H2.45;\S^ ;\C3;
  7
CONVERTER_11
 11
0.9999999999970619
 21
2.424068405545306E-6
 31
0.0
 73
     1
 44
0.60024009603842
  0
ENDBLK
  5
137
330
12F
100
AcDbEntity
  8
0
100
AcDbBlockEnd
  0
BLOCK
  5
141
330
13A
100
AcDbEntity
  8
0
100
AcDbBlockBegin
  2
*D6
 70
     1
 10
0.0
 20
0.0
 30
0.0
  3
*D6
  1

  0
LINE
  5
13B
330
13A
100
AcDbEntity
  8
1
  6
Continuous
 62
     2
100
AcDbLine
 10
228.6579095289
 20
172.723447410218
 30
0.0
 11
143.6579095289
 21
172.723447410218
 31
0.0
  0
LINE
  5
13C
330
13A
100
AcDbEntity
  8
1
  6
Continuous
 62
     2
100
AcDbLine
 10
228.6579095289
 20
128.9174858467
 30
0.0
 11
228.6579095289
 21
174.723447410218
 31
0.0
  0
LINE
  5
13D
330
13A
100
AcDbEntity
  8
1
  6
Continuous
 62
     2
100
AcDbLine
 10
143.6579095289
 20
159.3418763383
 30
0.0
 11
143.6579095289
 21
174.723447410218
 31
0.0
  0
SOLID
  5
13E
330
13A
100
AcDbEntity
  8
1
 62
     2
100
AcDbTrace
 10
225.1579095289
 20
172.2626636686621
 30
0.0
 11
225.1579095289
 21
173.1842311517739
 31
0.0
 12
228.6579095289
 22
172.723447410218
 32
0.0
 13
228.6579095289
 23
172.723447410218
 33
0.0
  0
SOLID
  5
13F
330
13A
100
AcDbEntity
  8
1
 62
     2
100
AcDbTrace
 10
147.1579095289
 20
173.1842311517739
 30
0.0
 11
147.1579095289
 21
172.2626636686621
 31
0.0
 12
143.6579095289
 22
172.723447410218
 32
0.0
 13
143.6579095289
 23
172.723447410218
 33
0.0
  0
MTEXT
  5
140
330
13A
100
AcDbEntity
  8
1
 62
     3
100
AcDbMText
 10
184.339016020057
 20
174.723447410218
 30
0.0
 40
3.5
 41
0.0
 71
     7
 72
     1
  1
\C3;\C3;\C3;85\C2;\H2.45;\S^ ;\C3;
  7
CONVERTER_11
 11
0.9999999999970619
 21
2.424068405545306E-6
 31
0.0
 73
     1
 44
0.60024009603842
  0
ENDBLK
  5
142
330
13A
100
AcDbEntity
  8
0
100
AcDbBlockEnd
  0
BLOCK
  5
14C
330
145
100
AcDbEntity
  8
0
100
AcDbBlockBegin
  2
*D7
 70
     1
 10
0.0
 20
0.0
 30
0.0
  3
*D7
  1

  0
LINE
  5
146
330
145
100
AcDbEntity
  8
1
  6
Continuous
 62
     2
100
AcDbLine
 10
228.6579095289
 20
180.143377300889
 30
0.0
 11
103.7579095289
 21
180.143377300889
 31
0.0
  0
LINE
  5
147
330
145
100
AcDbEntity
  8
1
  6
Continuous
 62
     2
100
AcDbLine
 10
228.6579095289
 20
128.9174858467
 30
0.0
 11
228.6579095289
 21
182.143377300889
 31
0.0
  0
LINE
  5
148
330
145
100
AcDbEntity
  8
1
  6
Continuous
 62
     2
100
AcDbLine
 10
103.7579095289
 20
146.2277971384
 30
0.0
 11
103.7579095289
 21
182.143377300889
 31
0.0
  0
SOLID
  5
149
330
145
100
AcDbEntity
  8
1
 62
     2
100
AcDbTrace
 10
225.1579095289
 20
179.6825935593331
 30
0.0
 11
225.1579095289
 21
180.6041610424449
 31
0.0
 12
228.6579095289
 22
180.143377300889
 32
0.0
 13
228.6579095289
 23
180.143377300889
 33
0.0
  0
SOLID
  5
14A
330
145
100
AcDbEntity
  8
1
 62
     2
100
AcDbTrace
 10
107.2579095289
 20
180.6041610424449
 30
0.0
 11
107.2579095289
 21
179.6825935593331
 31
0.0
 12
103.7579095289
 22
180.143377300889
 32
0.0
 13
103.7579095289
 23
180.143377300889
 33
0.0
  0
MTEXT
  5
14B
330
145
100
AcDbEntity
  8
1
 62
     3
100
AcDbMText
 10
169.572378379104
 20
182.143377300889
 30
0.0
 40
3.5
 41
0.0
 71
     7
 72
     1
  1
\C3;\C3;\C3;125\C2;\H2.45;\S^ ;\C3;
  7
CONVERTER_11
 11
0.9999999999970619
 21
2.424068405545306E-6
 31
0.0
 73
     1
 44
0.60024009603842
  0
ENDBLK
  5
14D
330
145
100
AcDbEntity
  8
0
100
AcDbBlockEnd
  0
BLOCK
  5
154
330
150
100
AcDbEntity
  8
0
100
AcDbBlockBegin
  2
*D8
 70
     1
 10
0.0
 20
0.0
 30
0.0
  3
*D8
  1

  0
LINE
  5
151
330
150
100
AcDbEntity
  8
1
  6
Continuous
 62
     2
100
AcDbLine
 10
180.8800962977373
 20
140.5635699738773
 30
0.0
 11
170.7061680693102
 21
133.3816840512533
 31
0.0
  0
SOLID
  5
152
330
150
100
AcDbEntity
  8
1
 62
     2
100
AcDbTrace
 10
173.2997838626495
 20
135.7765700136788
 30
0.0
 11
173.8312506454923
 21
135.0236890903823
 31
0.0
 12
170.7061680693102
 22
133.3816840512533
 32
0.0
 13
170.7061680693102
 23
133.3816840512533
 33
0.0
  0
MTEXT
  5
153
330
150
100
AcDbEntity
  8
1
 62
     3
100
AcDbMText
 10
173.6648785970289
 20
137.9183793320927
 30
0.0
 40
3.5
 41
0.0
 71
     7
 72
     1
  1
\C3; R\C3;\C3;6\C2;\H2.45;\S^ ;\C3;
  7
CONVERTER_11
 11
0.8169569099316435
 21
0.5766987145077926
 31
0.0
 73
     1
 44
0.60024009603842
  0
ENDBLK
  5
155
330
150
100
AcDbEntity
  8
0
100
AcDbBlockEnd
  0
BLOCK
  5
15E
330
157
100
AcDbEntity
  8
0
100
AcDbBlockBegin
  2
*D9
 70
     1
 10
0.0
 20
0.0
 30
0.0
  3
*D9
  1

  0
LINE
  5
158
330
157
100
AcDbEntity
  8
1
  6
Continuous
 62
     2
100
AcDbLine
 10
213.3587560118082
 20
130.8418763383
 30
0.0
 11
215.3587560118082
 21
130.8418763383
 31
0.0
  0
LINE
  5
159
330
157
100
AcDbEntity
  8
1
  6
Continuous
 62
     2
100
AcDbLine
 10
192.5392953204
 20
130.8418763383
 30
0.0
 11
213.3587560118082
 21
130.8418763383
 31
0.0
  0
ARC
  5
15A
330
157
100
AcDbEntity
  8
1
  6
Continuous
 62
     2
100
AcDbCircle
 10
190.5392953204
 20
130.8418763383
 30
0.0
 40
22.81946069140824
100
AcDbArc
 50
342.318144104685
 51
26.14135219342237
  0
SOLID
  5
15B
330
157
100
AcDbEntity
  8
1
 62
     2
100
AcDbTrace
 10
213.2025332521863
 20
125.5223254418383
 30
0.0
 11
212.2920465202849
 21
125.6648053946755
 31
0.0
 12
213.2884112301076
 22
129.0514820874677
 32
0.0
 13
213.2884112301076
 23
129.0514820874677
 33
0.0
  0
SOLID
  5
15C
330
157
100
AcDbEntity
  8
1
 62
     2
100
AcDbTrace
 10
212.6311783527032
 20
134.296286911242
 30
0.0
 11
213.5500372061286
 21
134.3668916802782
 31
0.0
 12
213.3587560118082
 22
130.8418763383
 32
0.0
 13
213.3587560118082
 23
130.8418763383
 33
0.0
  0
MTEXT
  5
15D
330
157
100
AcDbEntity
  8
1
 62
     3
100
AcDbMText
 10
213.0448260662591
 20
141.8873704358741
 30
0.0
 40
3.5
 41
0.0
 71
     7
 72
     1
  1
\C3;\C3;\C3;4.5%%d\C2;\H2.45;\S^ ;\C3;
  7
CONVERTER_11
 11
0.3096031525493085
 21
-0.9508658622179732
 31
0.0
 73
     1
 44
0.60024009603842
  0
ENDBLK
  5
15F
330
157
100
AcDbEntity
  8
0
100
AcDbBlockEnd
  0
ENDSEC
  0
SECTION
  2
ENTITIES
  0
INSERT
  5
6E
330
1F
100
AcDbEntity
  8
0
100
AcDbBlockReference
  2
Urheberrecht_DE-EN
 10
88.2875930348521
 20
134.4347704932
 30
0.0
  0
LINE
  5
72
330
1F
100
AcDbEntity
  8
0
  6
Continuous
 62
     7
100
AcDbLine
 10
103.7579095289
 20
90.4559554334
 30
0.0
 11
103.7579095289
 21
107.6718763383
 31
0.0
  0
LINE
  5
73
330
1F
100
AcDbEntity
  8
0
  6
Continuous
 62
     7
100
AcDbLine
 10
103.7579095289
 20
127.0118763383
 30
0.0
 11
103.7579095289
 21
144.2277971384
 31
0.0
  0
LINE
  5
74
330
1F
100
AcDbEntity
  8
0
  6
Continuous
 62
     9
100
AcDbLine
 10
105.2778499411
 20
145.825835353
 30
0.0
 11
105.2778499411
 21
129.3694912785
 31
0.0
  0
LINE
  5
75
330
1F
100
AcDbEntity
  8
0
  6
Continuous
 62
     9
100
AcDbLine
 10
105.2778499411
 20
105.3142613982
 30
0.0
 11
105.2778499411
 21
88.8579173237
 31
0.0
  0
LINE
  5
76
330
1F
100
AcDbEntity
  8
0
  6
Continuous
 62
     7
100
AcDbLine
 10
105.4079095289
 20
107.6978207615
 30
0.0
 11
105.4079095289
 21
109.3218763383
 31
0.0
  0
LINE
  5
77
330
1F
100
AcDbEntity
  8
0
  6
Continuous
 62
     7
100
AcDbLine
 10
105.4079095289
 20
125.3618763383
 30
0.0
 11
105.4079095289
 21
126.9859319151
 31
0.0
  0
LINE
  5
78
330
1F
100
AcDbEntity
  8
RUNDUNGEN
  6
Continuous
 62
     9
100
AcDbLine
 10
109.9579095289
 20
104.7690555862
 30
0.0
 11
109.9579095289
 21
109.3218763383
 31
0.0
  0
LINE
  5
79
330
1F
100
AcDbEntity
  8
RUNDUNGEN
  6
Continuous
 62
     9
100
AcDbLine
 10
109.9579095289
 20
125.3618763383
 30
0.0
 11
109.9579095289
 21
129.9146970904
 31
0.0
  0
LINE
  5
7A
330
1F
100
AcDbEntity
  8
RUNDUNGEN
  6
Continuous
 62
     7
100
AcDbLine
 10
111.8579095289
 20
126.8472185647
 30
0.0
 11
111.8579095289
 21
107.8365341119
 31
0.0
  0
LINE
  5
7B
330
1F
100
AcDbEntity
  8
0
  6
Continuous
 62
     7
100
AcDbLine
 10
158.1216391301
 20
77.3418763383
 30
0.0
 11
143.6579095289
 21
77.3418763383
 31
0.0
  0
LINE
  5
7C
330
1F
100
AcDbEntity
  8
0
  6
Continuous
 62
     7
100
AcDbLine
 10
165.1941799277
 20
77.3418763383
 30
0.0
 11
169.6079095289
 21
77.3418763383
 31
0.0
  0
LWPOLYLINE
  5
7D
330
1F
100
AcDbEntity
  8
BEZUGSACHSEN
  6
DOT_CENTER
 62
     7
100
AcDbPolyline
 90
        2
 70
     0
 43
0.25
 10
131.6579095289
 20
110.0918763383
 10
131.6579095289
 20
124.5918763383
  0
LINE
  5
7E
330
1F
100
AcDbEntity
  8
0
  6
Continuous
 62
     7
100
AcDbLine
 10
103.7579095289
 20
107.6718763383
 30
0.0
 11
105.4079095289
 21
109.3218763383
 31
0.0
  0
LINE
  5
7F
330
1F
100
AcDbEntity
  8
0
  6
Continuous
 62
     7
100
AcDbLine
 10
160.4954095289
 20
82.3668763383
 30
0.0
 11
162.8204095289
 21
82.3668763383
 31
0.0
  0
LINE
  5
80
330
1F
100
AcDbEntity
  8
0
  6
Continuous
 62
     7
100
AcDbLine
 10
105.4079095289
 20
125.3618763383
 30
0.0
 11
103.7579095289
 21
127.0118763383
 31
0.0
  0
LINE
  5
81
330
1F
100
AcDbEntity
  8
FASEN
  6
Continuous
 62
     7
100
AcDbLine
 10
148.4679267614
 20
86.1168863463
 30
0.0
 11
158.1216391301
 21
86.1168863463
 31
0.0
  0
LINE
  5
82
330
1F
100
AcDbEntity
  8
0
  6
Continuous
 62
     7
100
AcDbLine
 10
165.1941799277
 20
86.1168863463
 30
0.0
 11
169.6079095289
 21
86.1168863463
 31
0.0
  0
LINE
  5
83
330
1F
100
AcDbEntity
  8
0
  6
Continuous
 62
     7
100
AcDbLine
 10
142.9573382402
 20
87.2603263383
 30
0.0
 11
142.035972188
 21
87.2603263383
 31
0.0
  0
LINE
  5
84
330
1F
100
AcDbEntity
  8
0
  6
Continuous
 62
     7
100
AcDbLine
 10
141.1579095289
 20
87.0603263383
 30
0.0
 11
105.2778499411
 21
88.8579173237
 31
0.0
  0
LINE
  5
85
330
1F
100
AcDbEntity
  8
0
  6
Continuous
 62
     7
100
AcDbLine
 10
141.1579095289
 20
147.6234263383
 30
0.0
 11
141.1579095289
 21
87.0603263383
 31
0.0
  0
LINE
  5
86
330
1F
100
AcDbEntity
  8
0
  6
Continuous
 62
     9
100
AcDbLine
 10
141.7771531429
 20
87.2262521646
 30
0.0
 11
141.7771531429
 21
147.457500512
 31
0.0
  0
LINE
  5
87
330
1F
100
AcDbEntity
  8
0
  6
Continuous
 62
     9
100
AcDbLine
 10
142.035972188
 20
87.2603263383
 30
0.0
 11
142.035972188
 21
147.4234263383
 31
0.0
  0
LINE
  5
88
330
1F
100
AcDbEntity
  8
FASEN
  6
Continuous
 62
     7
100
AcDbLine
 10
156.6079095289
 20
91.9418763383
 30
0.0
 11
159.7503214666
 21
91.9418763383
 31
0.0
  0
LINE
  5
89
330
1F
100
AcDbEntity
  8
FASEN
  6
Continuous
 62
     7
100
AcDbLine
 10
163.5654975912
 20
91.9418763383
 30
0.0
 11
169.6079095289
 21
91.9418763383
 31
0.0
  0
LINE
  5
8A
330
1F
100
AcDbEntity
  8
0
  6
Continuous
 62
     7
100
AcDbLine
 10
156.6079095289
 20
92.3418763383
 30
0.0
 11
159.7454095289
 21
92.3418763383
 31
0.0
  0
LINE
  5
8B
330
1F
100
AcDbEntity
  8
0
  6
Continuous
 62
     7
100
AcDbLine
 10
163.5704095289
 20
92.3418763383
 30
0.0
 11
169.6079095289
 21
92.3418763383
 31
0.0
  0
LINE
  5
8C
330
1F
100
AcDbEntity
  8
0
  6
Continuous
 62
     9
100
AcDbLine
 10
142.9573382402
 20
87.2603263383
 30
0.0
 11
142.9573382402
 21
147.4234263383
 31
0.0
  0
LINE
  5
8D
330
1F
100
AcDbEntity
  8
0
  6
Continuous
 62
     7
100
AcDbLine
 10
143.6579095289
 20
157.3418763383
 30
0.0
 11
143.6579095289
 21
77.3418763383
 31
0.0
  0
LINE
  5
8E
330
1F
100
AcDbEntity
  8
0
  6
Continuous
 62
     7
100
AcDbLine
 10
163.5704095289
 20
154.5294235078
 30
0.0
 11
165.1941799277
 21
157.3418763383
 31
0.0
  0
LINE
  5
8F
330
1F
100
AcDbEntity
  8
0
  6
Continuous
 62
     9
100
AcDbLine
 10
103.7579095289
 20
106.7384629527
 30
0.0
 11
105.4079095289
 21
107.6978207615
 31
0.0
  0
LINE
  5
90
330
1F
100
AcDbEntity
  8
0
  6
Continuous
 62
     7
100
AcDbLine
 10
141.7771531429
 20
87.2262521646
 30
0.0
 11
141.1579095289
 21
87.0603263383
 31
0.0
  0
LINE
  5
91
330
1F
100
AcDbEntity
  8
0
  6
Continuous
 62
     9
100
AcDbLine
 10
105.4079095289
 20
126.9859319151
 30
0.0
 11
103.7579095289
 21
127.945289724
 31
0.0
  0
LINE
  5
92
330
1F
100
AcDbEntity
  8
0
  6
Continuous
 62
     7
100
AcDbLine
 10
163.5704095289
 20
80.1543291689
 30
0.0
 11
165.1941799277
 21
77.3418763383
 31
0.0
  0
LWPOLYLINE
  5
93
330
1F
100
AcDbEntity
  8
BEZUGSACHSEN
  6
DOT_CENTER
 62
     7
100
AcDbPolyline
 90
        2
 70
     0
 43
0.25
 10
150.6579095289
 20
149.4281460043
 10
150.6579095289
 20
160.3418763383
  0
LINE
  5
94
330
1F
100
AcDbEntity
  8
0
  6
Continuous
 62
     7
100
AcDbLine
 10
190.5392953204
 20
103.8418763383
 30
0.0
 11
227.7363686246
 21
106.7693494963
 31
0.0
  0
LINE
  5
95
330
1F
100
AcDbEntity
  8
FASEN
  6
Continuous
 62
     9
100
AcDbLine
 10
156.6079095289
 20
125.9418763383
 30
0.0
 11
156.6079095392
 21
126.3418763383
 31
0.0
  0
LINE
  5
96
330
1F
100
AcDbEntity
  8
FASEN
  6
Continuous
 62
     9
100
AcDbLine
 10
156.6079095289
 20
108.7418763383
 30
0.0
 11
156.6079095289
 21
108.3418763383
 31
0.0
  0
LINE
  5
97
330
1F
100
AcDbEntity
  8
FASEN
  6
Continuous
 62
     9
100
AcDbLine
 10
156.6079095289
 20
91.9418763383
 30
0.0
 11
156.6079095321
 21
92.3418763383
 31
0.0
  0
LINE
  5
98
330
1F
100
AcDbEntity
  8
0
  6
Continuous
 62
     7
100
AcDbLine
 10
175.6079095289
 20
103.8418763383
 30
0.0
 11
190.5392953204
 21
103.8418763383
 31
0.0
  0
LINE
  5
99
330
1F
100
AcDbEntity
  8
RUNDUNGEN
  6
Continuous
 62
     9
100
AcDbLine
 10
111.0974132105
 20
105.4418763383
 30
0.0
 11
104.9395795164
 21
105.4418763383
 31
0.0
  0
LINE
  5
9A
330
1F
100
AcDbEntity
  8
0
  6
Continuous
 62
     7
100
AcDbLine
 10
158.1216391301
 20
157.3418763383
 30
0.0
 11
158.1216391301
 21
126.3418763383
 31
0.0
  0
LINE
  5
9B
330
1F
100
AcDbEntity
  8
0
  6
Continuous
 62
     7
100
AcDbLine
 10
158.1216391301
 20
108.3418763383
 30
0.0
 11
158.1216391301
 21
92.3418763383
 31
0.0
  0
LINE
  5
9C
330
1F
100
AcDbEntity
  8
0
  6
Continuous
 62
     7
100
AcDbLine
 10
158.1216391301
 20
86.1168863463
 30
0.0
 11
158.1216391301
 21
77.3418763383
 31
0.0
  0
LINE
  5
9D
330
1F
100
AcDbEntity
  8
0
  6
Continuous
 62
     7
100
AcDbLine
 10
159.7454095289
 20
154.5294088273
 30
0.0
 11
159.7454095289
 21
126.3418763383
 31
0.0
  0
LINE
  5
9E
330
1F
100
AcDbEntity
  8
0
  6
Continuous
 62
     7
100
AcDbLine
 10
159.7454095289
 20
108.3418763383
 30
0.0
 11
159.7454095289
 21
92.3418763383
 31
0.0
  0
LINE
  5
9F
330
1F
100
AcDbEntity
  8
0
  6
Continuous
 62
     7
100
AcDbLine
 10
159.7454095289
 20
80.1543619829
 30
0.0
 11
159.7454095289
 21
91.8217739678
 31
0.0
  0
LINE
  5
A0
330
1F
100
AcDbEntity
  8
0
  6
Continuous
 62
     9
100
AcDbLine
 10
160.4954095289
 20
82.3668763383
 30
0.0
 11
160.4954095289
 21
109.1412284981
 31
0.0
  0
LINE
  5
A1
330
1F
100
AcDbEntity
  8
0
  6
Continuous
 62
     9
100
AcDbLine
 10
160.4954095289
 20
125.5425241786
 30
0.0
 11
160.4954095289
 21
152.3168763383
 31
0.0
  0
LINE
  5
A2
330
1F
100
AcDbEntity
  8
FASEN
  6
Continuous
 62
     7
100
AcDbLine
 10
159.7642750661
 20
108.3418763383
 30
0.0
 11
159.7454095289
 21
108.3418763383
 31
0.0
  0
LINE
  5
A3
330
1F
100
AcDbEntity
  8
0
  6
Continuous
 62
     7
100
AcDbLine
 10
156.6079095289
 20
108.3418763383
 30
0.0
 11
159.7454095289
 21
108.3418763383
 31
0.0
  0
LINE
  5
A4
330
1F
100
AcDbEntity
  8
0
  6
Continuous
 62
     7
100
AcDbLine
 10
163.3259745152
 20
108.3418763383
 30
0.0
 11
169.6079095289
 21
108.3418763383
 31
0.0
  0
LINE
  5
A5
330
1F
100
AcDbEntity
  8
FASEN
  6
Continuous
 62
     7
100
AcDbLine
 10
160.1286623813
 20
108.7418763383
 30
0.0
 11
156.6079095289
 21
108.7418763383
 31
0.0
  0
LINE
  5
A6
330
1F
100
AcDbEntity
  8
0
  6
Continuous
 62
     7
100
AcDbLine
 10
160.4954095289
 20
109.1412284981
 30
0.0
 11
162.8204095289
 21
109.1412284981
 31
0.0
  0
LINE
  5
A7
330
1F
100
AcDbEntity
  8
0
  6
Continuous
 62
     7
100
AcDbLine
 10
109.9579095289
 20
109.3218763383
 30
0.0
 11
105.4079095289
 21
109.3218763383
 31
0.0
  0
LINE
  5
A8
330
1F
100
AcDbEntity
  8
0
  6
Continuous
 62
     9
100
AcDbLine
 10
162.8204095289
 20
82.3668763383
 30
0.0
 11
162.8204095289
 21
109.1412284981
 31
0.0
  0
LINE
  5
A9
330
1F
100
AcDbEntity
  8
0
  6
Continuous
 62
     9
100
AcDbLine
 10
162.8204095289
 20
125.5425241786
 30
0.0
 11
162.8204095289
 21
152.3168763383
 31
0.0
  0
LINE
  5
AA
330
1F
100
AcDbEntity
  8
0
  6
Continuous
 62
     7
100
AcDbLine
 10
163.5704095289
 20
80.1543619829
 30
0.0
 11
163.5704095289
 21
91.8217739678
 31
0.0
  0
LINE
  5
AB
330
1F
100
AcDbEntity
  8
0
  6
Continuous
 62
     7
100
AcDbLine
 10
163.5704095289
 20
92.3418763383
 30
0.0
 11
163.5704095289
 21
108.3418763383
 31
0.0
  0
LINE
  5
AC
330
1F
100
AcDbEntity
  8
0
  6
Continuous
 62
     7
100
AcDbLine
 10
163.5704095289
 20
126.3418763383
 30
0.0
 11
163.5704095289
 21
154.5294088273
 31
0.0
  0
LINE
  5
AD
330
1F
100
AcDbEntity
  8
0
  6
Continuous
 62
     7
100
AcDbLine
 10
165.1941799277
 20
77.3418763383
 30
0.0
 11
165.1941799277
 21
86.1168863463
 31
0.0
  0
LINE
  5
AE
330
1F
100
AcDbEntity
  8
0
  6
Continuous
 62
     7
100
AcDbLine
 10
165.1941799277
 20
92.3418763383
 30
0.0
 11
165.1941799277
 21
108.3418763383
 31
0.0
  0
LINE
  5
AF
330
1F
100
AcDbEntity
  8
0
  6
Continuous
 62
     7
100
AcDbLine
 10
165.1941799277
 20
126.3418763383
 30
0.0
 11
165.1941799277
 21
157.3418763383
 31
0.0
  0
LINE
  5
B0
330
1F
100
AcDbEntity
  8
BOHRUNGEN
  6
HIDDEN
 62
     8
100
AcDbLine
 10
228.6579095289
 20
113.3418763383
 30
0.0
 11
192.6579095289
 21
113.3418763383
 31
0.0
  0
LWPOLYLINE
  5
B1
330
1F
100
AcDbEntity
  8
TEIL_STARTBEZUEGE
  6
DOT_CENTER
 62
     7
100
AcDbPolyline
 90
        2
 70
     0
 43
0.25
 10
231.6579095289
 20
117.3418763383
 10
100.7579095289
 20
117.3418763383
  0
LINE
  5
B2
330
1F
100
AcDbEntity
  8
0
  6
Continuous
 62
     7
100
AcDbLine
 10
169.6079095289
 20
157.3418340441
 30
0.0
 11
169.6079095289
 21
126.3418763383
 31
0.0
  0
LINE
  5
B3
330
1F
100
AcDbEntity
  8
0
  6
Continuous
 62
     7
100
AcDbLine
 10
169.6079095289
 20
108.3418763383
 30
0.0
 11
169.6079095289
 21
92.3418763383
 31
0.0
  0
LINE
  5
B4
330
1F
100
AcDbEntity
  8
0
  6
Continuous
 62
     7
100
AcDbLine
 10
169.6079095289
 20
86.1168863463
 30
0.0
 11
169.6079095289
 21
77.3418853347
 31
0.0
  0
LINE
  5
B5
330
1F
100
AcDbEntity
  8
FASEN
  6
Continuous
 62
     7
100
AcDbLine
 10
169.6079095289
 20
86.1168863463
 30
0.0
 11
169.6079095289
 21
92.3418763383
 31
0.0
  0
LINE
  5
B6
330
1F
100
AcDbEntity
  8
FASEN
  6
Continuous
 62
     7
100
AcDbLine
 10
169.6079095289
 20
108.3418763383
 30
0.0
 11
169.6079095289
 21
126.3418763383
 31
0.0
  0
LINE
  5
B7
330
1F
100
AcDbEntity
  8
BOHRUNGEN
  6
HIDDEN
 62
     8
100
AcDbLine
 10
228.6579095289
 20
121.3418763383
 30
0.0
 11
192.6579095289
 21
121.3418763383
 31
0.0
  0
LINE
  5
B8
330
1F
100
AcDbEntity
  8
RUNDUNGEN
  6
Continuous
 62
     9
100
AcDbLine
 10
175.6079095289
 20
130.8418763383
 30
0.0
 11
175.6079095289
 21
103.8418763383
 31
0.0
  0
LINE
  5
B9
330
1F
100
AcDbEntity
  8
0
  6
Continuous
 62
     7
100
AcDbLine
 10
109.9579095289
 20
125.3618763383
 30
0.0
 11
105.4079095289
 21
125.3618763383
 31
0.0
  0
LINE
  5
BA
330
1F
100
AcDbEntity
  8
0
  6
Continuous
 62
     7
100
AcDbLine
 10
160.4954095289
 20
125.5425241786
 30
0.0
 11
162.8204095289
 21
125.5425241786
 31
0.0
  0
LINE
  5
BB
330
1F
100
AcDbEntity
  8
FASEN
  6
Continuous
 62
     7
100
AcDbLine
 10
156.6079095289
 20
125.9418763383
 30
0.0
 11
160.1286623813
 21
125.9418763383
 31
0.0
  0
LINE
  5
BC
330
1F
100
AcDbEntity
  8
FASEN
  6
Continuous
 62
     7
100
AcDbLine
 10
163.1871566766
 20
125.9418763383
 30
0.0
 11
169.6079095289
 21
125.9418763383
 31
0.0
  0
LINE
  5
BD
330
1F
100
AcDbEntity
  8
0
  6
Continuous
 62
     7
100
AcDbLine
 10
156.6079095289
 20
126.3418763383
 30
0.0
 11
159.7454095289
 21
126.3418763383
 31
0.0
  0
LINE
  5
BE
330
1F
100
AcDbEntity
  8
FASEN
  6
Continuous
 62
     7
100
AcDbLine
 10
159.7454095289
 20
126.3418763383
 30
0.0
 11
159.7642750661
 21
126.3418763383
 31
0.0
  0
LINE
  5
BF
330
1F
100
AcDbEntity
  8
FASEN
  6
Continuous
 62
     7
100
AcDbLine
 10
163.5515439917
 20
126.3418763383
 30
0.0
 11
163.5704095289
 21
126.3418763383
 31
0.0
  0
LINE
  5
C0
330
1F
100
AcDbEntity
  8
0
  6
Continuous
 62
     7
100
AcDbLine
 10
163.5704095289
 20
126.3418763383
 30
0.0
 11
169.6079095289
 21
126.3418763383
 31
0.0
  0
LINE
  5
C1
330
1F
100
AcDbEntity
  8
0
  6
Continuous
 62
     7
100
AcDbLine
 10
158.1216391301
 20
77.3418763383
 30
0.0
 11
159.7454095289
 21
80.1543291689
 31
0.0
  0
LINE
  5
C2
330
1F
100
AcDbEntity
  8
RUNDUNGEN
  6
Continuous
 62
     9
100
AcDbLine
 10
104.9395795164
 20
129.2418763383
 30
0.0
 11
111.0974132105
 21
129.2418763383
 31
0.0
  0
LINE
  5
C3
330
1F
100
AcDbEntity
  8
0
  6
Continuous
 62
     7
100
AcDbLine
 10
175.6079095289
 20
130.8418763383
 30
0.0
 11
190.5392953204
 21
130.8418763383
 31
0.0
  0
LINE
  5
C4
330
1F
100
AcDbEntity
  8
0
  6
Continuous
 62
     7
100
AcDbLine
 10
190.5392953204
 20
130.8418763383
 30
0.0
 11
227.7363686246
 21
127.9144031804
 31
0.0
  0
LINE
  5
C5
330
1F
100
AcDbEntity
  8
0
  6
Continuous
 62
     7
100
AcDbLine
 10
158.1216391301
 20
157.3418763383
 30
0.0
 11
159.7454095289
 21
154.5294235078
 31
0.0
  0
LINE
  5
C6
330
1F
100
AcDbEntity
  8
0
  6
Continuous
 62
     7
100
AcDbLine
 10
190.5392953204
 20
103.8418763383
 30
0.0
 11
190.5392953204
 21
130.8418763383
 31
0.0
  0
LINE
  5
C7
330
1F
100
AcDbEntity
  8
0
  6
Continuous
 62
     7
100
AcDbLine
 10
141.7771531429
 20
147.457500512
 30
0.0
 11
141.1579095289
 21
147.6234263383
 31
0.0
  0
LINE
  5
C8
330
1F
100
AcDbEntity
  8
BOHRUNGEN
  6
HIDDEN
 62
     8
100
AcDbLine
 10
192.6579095289
 20
113.3418763383
 30
0.0
 11
192.6579095289
 21
121.3418763383
 31
0.0
  0
LINE
  5
C9
330
1F
100
AcDbEntity
  8
0
  6
Continuous
 62
     7
100
AcDbLine
 10
142.9573382402
 20
147.4234263383
 30
0.0
 11
142.035972188
 21
147.4234263383
 31
0.0
  0
LINE
  5
CA
330
1F
100
AcDbEntity
  8
0
  6
Continuous
 62
     7
100
AcDbLine
 10
141.1579095289
 20
147.6234263383
 30
0.0
 11
105.2778499411
 21
145.825835353
 31
0.0
  0
LINE
  5
CB
330
1F
100
AcDbEntity
  8
0
  6
Continuous
 62
     7
100
AcDbLine
 10
160.4954095289
 20
152.3168763383
 30
0.0
 11
162.8204095289
 21
152.3168763383
 31
0.0
  0
LINE
  5
CC
330
1F
100
AcDbEntity
  8
BEZUGSACHSEN
  6
Continuous
 62
     7
100
AcDbLine
 10
158.1216391301
 20
157.3418763383
 30
0.0
 11
155.6579095289
 21
157.3418763383
 31
0.0
  0
LINE
  5
CD
330
1F
100
AcDbEntity
  8
BEZUGSACHSEN
  6
Continuous
 62
     7
100
AcDbLine
 10
145.6579095289
 20
157.3418763383
 30
0.0
 11
143.6579095289
 21
157.3418763383
 31
0.0
  0
LINE
  5
CE
330
1F
100
AcDbEntity
  8
0
  6
Continuous
 62
     7
100
AcDbLine
 10
143.6579095289
 20
157.3418763383
 30
0.0
 11
145.6579095289
 21
157.3418763383
 31
0.0
  0
LINE
  5
CF
330
1F
100
AcDbEntity
  8
0
  6
Continuous
 62
     7
100
AcDbLine
 10
155.6579095289
 20
157.3418763383
 30
0.0
 11
158.1216391301
 21
157.3418763383
 31
0.0
  0
LINE
  5
D0
330
1F
100
AcDbEntity
  8
0
  6
Continuous
 62
     7
100
AcDbLine
 10
165.1941799277
 20
157.3418763383
 30
0.0
 11
169.6079095289
 21
157.3418763383
 31
0.0
  0
LINE
  5
D1
330
1F
100
AcDbEntity
  8
RUNDUNGEN
  6
Continuous
 62
     9
100
AcDbLine
 10
227.7363686246
 20
106.7693494963
 30
0.0
 11
227.7363686246
 21
127.9144031804
 31
0.0
  0
LINE
  5
D2
330
1F
100
AcDbEntity
  8
RUNDUNGEN
  6
Continuous
 62
     7
100
AcDbLine
 10
228.6579095289
 20
126.9174858467
 30
0.0
 11
228.6579095289
 21
107.76626683
 31
0.0
  0
LWPOLYLINE
  5
D3
330
1F
100
AcDbEntity
  8
1
  6
Continuous
 62
     7
100
AcDbPolyline
 90
        2
 70
     0
 43
0.25
 10
228.6579095289
 20
126.9174858467
 10
228.6579095289
 20
127.8418763383466
  0
LWPOLYLINE
  5
D4
330
1F
100
AcDbEntity
  8
1
  6
Continuous
 62
     7
100
AcDbPolyline
 90
        2
 70
     0
 43
0.25
 10
227.7363686246
 20
127.9144031804
 10
228.6579095288949
 20
127.8418763383466
  0
LWPOLYLINE
  5
D5
330
1F
100
AcDbEntity
  8
1
  6
Continuous
 62
     7
100
AcDbPolyline
 90
        2
 70
     0
 43
0.25
 10
227.7363686246
 20
106.7693494963
 10
228.6579095289
 20
106.8418763383486
  0
LWPOLYLINE
  5
D6
330
1F
100
AcDbEntity
  8
1
  6
Continuous
 62
     7
100
AcDbPolyline
 90
        2
 70
     0
 43
0.25
 10
228.6579095289
 20
107.76626683
 10
228.6579095289
 20
106.8418763383486
  0
ARC
  5
D7
330
1F
100
AcDbEntity
  8
FASEN
  6
Continuous
 62
     7
100
AcDbCircle
 10
4.8161569384
 20
92.1418763383
 30
0.0
 40
154.9342936151995
100
AcDbArc
 50
359.9260385882
 51
0.07396141179998
  0
ARC
  5
D8
330
1F
100
AcDbEntity
  8
FASEN
  6
Continuous
 62
     7
100
AcDbCircle
 10
160.7864665349
 20
98.1739577745
 30
0.0
 40
17.23715155060033
100
AcDbArc
 50
222.8949094446989
 51
224.3854325127945
  0
ARC
  5
D9
330
1F
100
AcDbEntity
  8
FASEN
  6
Continuous
 62
     7
100
AcDbCircle
 10
156.6079095289
 20
83.3418763383
 30
0.0
 40
9.0
100
AcDbArc
 50
90.0
 51
159.8554054774212
  0
ARC
  5
DA
330
1F
100
AcDbEntity
  8
FASEN
  6
Continuous
 62
     7
100
AcDbCircle
 10
156.6079095289
 20
83.3418763383
 30
0.0
 40
8.600000000000009
100
AcDbArc
 50
90.0
 51
161.1751898263893
  0
ARC
  5
DB
330
1F
100
AcDbEntity
  8
RUNDUNGEN
  6
Continuous
 62
     7
100
AcDbCircle
 10
109.9579095289
 20
111.2218763383
 30
0.0
 40
1.900000000000006
100
AcDbArc
 50
270.0
 51
354.9999999998955
  0
ARC
  5
DC
330
1F
100
AcDbEntity
  8
0
  6
Continuous
 62
     7
100
AcDbCircle
 10
105.3579095289
 20
90.4559130879
 30
0.0
 40
1.599999999999994
100
AcDbArc
 50
180.0
 51
267.1318795121998
  0
ARC
  5
DD
330
1F
100
AcDbEntity
  8
FASEN
  6
Continuous
 62
     7
100
AcDbCircle
 10
161.216129981
 20
91.8217761829
 30
0.0
 40
1.470720452096382
100
AcDbArc
 50
175.3159671178107
 51
180.0000862950405
  0
ARC
  5
DE
330
1F
100
AcDbEntity
  8
0
  6
Continuous
 62
     7
100
AcDbCircle
 10
142.035972188
 20
86.2603263383
 30
0.0
 40
1.0
100
AcDbArc
 50
90.0
 51
104.9999999996976
  0
ARC
  5
DF
330
1F
100
AcDbEntity
  8
0
  6
Continuous
 62
     7
100
AcDbCircle
 10
142.9573382402
 20
86.2603263383
 30
0.0
 40
0.9999999999996478
100
AcDbArc
 50
45.52164291272007
 51
90.0
  0
ARC
  5
E0
330
1F
100
AcDbEntity
  8
0
  6
Continuous
 62
     7
100
AcDbCircle
 10
160.4954095289
 20
81.6168763383
 30
0.0
 40
0.75
100
AcDbArc
 50
90.0
 51
180.0
  0
ARC
  5
E1
330
1F
100
AcDbEntity
  8
0
  6
Continuous
 62
     7
100
AcDbCircle
 10
-30.3959081378
 20
171.1706660593
 30
0.0
 40
206.8163704143665
100
AcDbArc
 50
335.7164515714007
 51
336.8345414976
  0
ARC
  5
E2
330
1F
100
AcDbEntity
  8
RUNDUNGEN
  6
Continuous
 62
     7
100
AcDbCircle
 10
109.9579095289
 20
123.4618763383
 30
0.0
 40
1.899999999999991
100
AcDbArc
 50
0.0
 51
90.0
  0
ARC
  5
E3
330
1F
100
AcDbEntity
  8
0
  6
Continuous
 62
     7
100
AcDbCircle
 10
105.3579095289
 20
144.2278395888
 30
0.0
 40
1.599999999999945
100
AcDbArc
 50
92.86812048780023
 51
180.0
  0
ARC
  5
E4
330
1F
100
AcDbEntity
  8
0
  6
Continuous
 62
     7
100
AcDbCircle
 10
156.6079095289
 20
117.3418763383
 30
0.0
 40
9.0
100
AcDbArc
 50
90.0
 51
270.0
  0
ARC
  5
E5
330
1F
100
AcDbEntity
  8
FASEN
  6
Continuous
 62
     7
100
AcDbCircle
 10
156.6079095289
 20
117.3418763383
 30
0.0
 40
8.600000000000009
100
AcDbArc
 50
90.0
 51
270.0
  0
ARC
  5
E6
330
1F
100
AcDbEntity
  8
0
  6
Continuous
 62
     7
100
AcDbCircle
 10
142.035972188
 20
148.4234263383
 30
0.0
 40
1.000000000009911
100
AcDbArc
 50
255.0000000003027
 51
270.0
  0
ARC
  5
E7
330
1F
100
AcDbEntity
  8
0
  6
Continuous
 62
     7
100
AcDbCircle
 10
142.9573382402
 20
148.4234263383
 30
0.0
 40
1.0
100
AcDbArc
 50
270.0
 51
314.4783570872754
  0
ARC
  5
E8
330
1F
100
AcDbEntity
  8
0
  6
Continuous
 62
     7
100
AcDbCircle
 10
160.4954095289
 20
153.0668763383
 30
0.0
 40
0.75
100
AcDbArc
 50
180.0
 51
270.0
  0
ARC
  5
E9
330
1F
100
AcDbEntity
  8
BEZUGSACHSEN
  6
Continuous
 62
     7
100
AcDbCircle
 10
150.6817959866
 20
197.4088305464
 30
0.0
 40
40.38069160692821
100
AcDbArc
 50
262.8531364883499
 51
269.9661077302005
  0
ARC
  5
EA
330
1F
100
AcDbEntity
  8
BEZUGSACHSEN
  6
Continuous
 62
     7
100
AcDbCircle
 10
150.6340230748
 20
197.4088304891
 30
0.0
 40
40.38069154959753
100
AcDbArc
 50
270.0338922646856
 51
277.1468635166968
  0
ARC
  5
EB
330
1F
100
AcDbEntity
  8
RUNDUNGEN
  6
Continuous
 62
     7
100
AcDbCircle
 10
238.8578485588
 20
-996.9249029097
 30
0.0
 40
1134.188114207823
100
AcDbArc
 50
96.5257377801286
 51
96.76375937787053
  0
ARC
  5
EC
330
1F
100
AcDbEntity
  8
FASEN
  6
Continuous
 62
     7
100
AcDbCircle
 10
318.4996621194
 20
92.1418763383
 30
0.0
 40
154.9342936151996
100
AcDbArc
 50
179.9260385882
 51
180.0739614118
  0
ARC
  5
ED
330
1F
100
AcDbEntity
  8
RUNDUNGEN
  6
Continuous
 62
     7
100
AcDbCircle
 10
175.6079095289
 20
97.8418763383
 30
0.0
 40
6.0
100
AcDbArc
 50
90.0
 51
180.0
  0
ARC
  5
EE
330
1F
100
AcDbEntity
  8
FASEN
  6
Continuous
 62
     7
100
AcDbCircle
 10
162.0996890768
 20
91.8217761829
 30
0.0
 40
1.470720452101679
100
AcDbArc
 50
359.9999137049595
 51
4.68403288218924
  0
ARC
  5
EF
330
1F
100
AcDbEntity
  8
RUNDUNGEN
  6
Continuous
 62
     7
100
AcDbCircle
 10
227.6579095289
 20
107.76626683
 30
0.0
 40
0.9999999999648007
100
AcDbArc
 50
274.4999999985583
 51
0.0
  0
ARC
  5
F0
330
1F
100
AcDbEntity
  8
0
  6
Continuous
 62
     7
100
AcDbCircle
 10
162.8204095289
 20
81.6168763383
 30
0.0
 40
0.75
100
AcDbArc
 50
0.0
 51
90.0
  0
ARC
  5
F1
330
1F
100
AcDbEntity
  8
RUNDUNGEN
  6
Continuous
 62
     7
100
AcDbCircle
 10
238.8578485587
 20
1231.6086555855
 30
0.0
 40
1134.188114206993
100
AcDbArc
 50
263.2362406221291
 51
263.4742622198719
  0
ARC
  5
F2
330
1F
100
AcDbEntity
  8
0
  6
Continuous
 62
     7
100
AcDbCircle
 10
353.7117271954
 20
171.1706660592
 30
0.0
 40
206.8163704141998
100
AcDbArc
 50
203.1654585024
 51
204.2835484285969
  0
ARC
  5
F3
330
1F
100
AcDbEntity
  8
RUNDUNGEN
  6
Continuous
 62
     7
100
AcDbCircle
 10
175.6079095289
 20
136.8418763383
 30
0.0
 40
6.0
100
AcDbArc
 50
180.0
 51
270.0
  0
ARC
  5
F4
330
1F
100
AcDbEntity
  8
RUNDUNGEN
  6
Continuous
 62
     7
100
AcDbCircle
 10
227.6579095289
 20
126.9174858467
 30
0.0
 40
1.0
100
AcDbArc
 50
0.0
 51
85.50000000144168
  0
ARC
  5
F5
330
1F
100
AcDbEntity
  8
0
  6
Continuous
 62
     7
100
AcDbCircle
 10
162.8204095289
 20
153.0668763383
 30
0.0
 40
0.75
100
AcDbArc
 50
270.0
 51
0.0
  0
CIRCLE
  5
F6
330
1F
100
AcDbEntity
  8
FASEN
  6
Continuous
 62
     7
100
AcDbCircle
 10
131.6579095289
 20
117.3418763383
 30
0.0
 40
4.25
  0
SPLINE
  5
F7
330
1F
100
AcDbEntity
  8
0
  6
Continuous
 62
     7
100
AcDbSpline
210
0.0
220
0.0
230
1.0
 70
     8
 71
     3
 72
    27
 73
    23
 74
    21
 42
0.0000000001
 43
0.0000000001
 44
0.00000001
 40
0.0
 40
0.0
 40
0.0
 40
0.0
 40
0.1005593763173384
 40
0.2012543954311944
 40
0.2905289403793067
 40
0.3794999608333174
 40
0.4198989481514225
 40
0.4602916821432376
 40
0.4986937523912292
 40
0.5370892801666193
 40
0.5745784458430034
 40
0.6120681418064102
 40
0.6498944637658376
 40
0.6877262176228113
 40
0.7680465441292893
 40
0.8487068781925624
 40
0.9387083803821211
 40
1.028639130865006
 40
1.127965388984442
 40
1.227310735231058
 40
1.334449143126454
 40
1.441556400099675
 40
1.441556400099675
 40
1.441556400099675
 40
1.441556400099675
 10
103.7579095289
 20
128.7637135339
 30
0.0
 10
103.7585767080014
 20
128.7972456565158
 30
0.0
 10
103.7599119661505
 20
128.8643551326452
 30
0.0
 10
103.7727488886578
 20
128.9605850245302
 30
0.0
 10
103.7948401291581
 20
129.0510926061819
 30
0.0
 10
103.8222512299842
 20
129.1190361119679
 30
0.0
 10
103.8502960392339
 20
129.1682612808595
 30
0.0
 10
103.8731836725865
 20
129.2008236122051
 30
0.0
 10
103.8988861210365
 20
129.2303333162446
 30
0.0
 10
103.926912982692
 20
129.2562556787441
 30
0.0
 10
103.9574739471246
 20
129.2786235130895
 30
0.0
 10
103.9901779575028
 20
129.2973400922101
 30
0.0
 10
104.0248912013186
 20
129.3122880203029
 30
0.0
 10
104.0746424354982
 20
129.3276806892367
 30
0.0
 10
104.1407060875728
 20
129.3371231600913
 30
0.0
 10
104.2246164175214
 20
129.33484363087
 30
0.0
 10
104.3105381049583
 20
129.3204036349955
 30
0.0
 10
104.4000499470528
 20
129.2943284993557
 30
0.0
 10
104.4897503384344
 20
129.2592348605265
 30
0.0
 10
104.5815381897538
 20
129.2147345957091
 30
0.0
 10
104.6727525340552
 20
129.1635041096114
 30
0.0
 10
104.7325128562984
 20
129.1243750264384
 30
0.0
 10
104.7623886729
 20
129.1048133295
 30
0.0
 11
103.7579095289
 21
128.7637135339
 31
0.0
 11
103.7617977951015
 21
128.8641977095262
 31
0.0
 11
103.7751222532717
 21
128.9640072566087
 31
0.0
 11
103.7969286414959
 21
129.0505776083944
 31
0.0
 11
103.8307778312762
 21
129.132858072855
 31
0.0
 11
103.8508388711554
 21
129.1679241940447
 31
0.0
 11
103.8741312504578
 21
129.2009247701877
 31
0.0
 11
103.8993851072844
 21
129.2298550607965
 31
0.0
 11
103.9276078181936
 21
129.2558876392721
 31
0.0
 11
103.9578554023629
 21
129.2780353523602
 31
0.0
 11
103.9903953593708
 21
129.296653314154
 31
0.0
 11
104.0251196286999
 21
129.3116551724567
 31
0.0
 11
104.0612516437251
 21
129.3228676249145
 31
0.0
 11
104.1406747186082
 21
129.3348396767945
 31
0.0
 11
104.2213176089106
 21
129.3331622576842
 31
0.0
 11
104.3101480481747
 21
129.3186907872498
 31
0.0
 11
104.3966228159166
 21
129.2939996061037
 31
0.0
 11
104.4892148996421
 21
129.2580494797705
 31
0.0
 11
104.5787557428912
 21
129.2150153629433
 31
0.0
 11
104.6721220587538
 21
129.1624666283381
 31
0.0
 11
104.7623886729
 21
129.1048133295
 31
0.0
  0
SPLINE
  5
F8
330
1F
100
AcDbEntity
  8
FASEN
  6
Continuous
 62
     7
100
AcDbSpline
210
0.0
220
0.0
230
1.0
 70
     8
 71
     3
 72
    43
 73
    39
 74
    37
 42
0.0000000001
 43
0.0000000001
 44
0.00000001
 40
0.0
 40
0.0
 40
0.0
 40
0.0
 40
0.4746456166223098
 40
0.9497960375608833
 40
1.426044620081075
 40
1.902135884749483
 40
2.378025997932214
 40
2.854012610909658
 40
3.330091925465688
 40
3.805935305660518
 40
4.043899193089064
 40
4.281786766560159
 40
4.519436129872579
 40
4.757161339803945
 40
5.231697012296145
 40
5.706457647898904
 40
6.181170996911819
 40
6.655828283750159
 40
7.131227937542771
 40
7.606645640054015
 40
8.083109536705042
 40
8.559557846621644
 40
9.037001714088907
 40
9.514505381020836
 40
9.992842253158912
 40
10.47094721800124
 40
10.71029171359505
 40
10.94955826649349
 40
11.18873219244607
 40
11.4279835995755
 40
11.90489092882937
 40
12.38203450725863
 40
12.85683924197502
 40
13.33154665156429
 40
13.80494455472798
 40
14.27849021123679
 40
14.75006397883903
 40
15.22115281064435
 40
15.22115281064435
 40
15.22115281064435
 40
15.22115281064435
 10
126.8085912616
 20
117.3418762931
 30
0.0
 10
126.8130663251185
 20
117.5001562430996
 30
0.0
 10
126.8220212115619
 20
117.8168844800627
 30
0.0
 10
126.8946447190075
 20
118.2878284578653
 30
0.0
 10
127.0097770177963
 20
118.7501274308889
 30
0.0
 10
127.1706715465317
 20
119.1990814607998
 30
0.0
 10
127.3747877648626
 20
119.629911912187
 30
0.0
 10
127.6202908387902
 20
120.0386142391966
 30
0.0
 10
127.9048808378108
 20
120.4210665769105
 30
0.0
 10
128.1721557759767
 20
120.7150593717838
 30
0.0
 10
128.4023934233437
 20
120.9334485337458
 30
0.0
 10
128.5828612314251
 20
121.0885075200702
 30
0.0
 10
128.7706524500484
 20
121.2344811319917
 30
0.0
 10
129.0299635266873
 20
121.4163697750303
 30
0.0
 10
129.3703226035858
 20
121.6194877900789
 30
0.0
 10
129.8003122112225
 20
121.8222692126176
 30
0.0
 10
130.2481231479035
 20
121.9820737878088
 30
0.0
 10
130.7095411986215
 20
122.0976545895253
 30
0.0
 10
131.1802642133912
 20
122.1677397155201
 30
0.0
 10
131.656171891586
 20
122.1917968264862
 30
0.0
 10
132.132506344232
 20
122.1691917621518
 30
0.0
 10
132.6050378865706
 20
122.1001576468806
 30
0.0
 10
133.0688534206759
 20
121.9849887879811
 30
0.0
 10
133.5197376288477
 20
121.8246596633422
 30
0.0
 10
133.9527481546011
 20
121.6204640178454
 30
0.0
 10
134.2953971186139
 20
121.4154392329828
 30
0.0
 10
134.5561894539885
 20
121.2317073778839
 30
0.0
 10
134.7447884274756
 20
121.0843130803006
 30
0.0
 10
134.9258324022197
 20
120.9277792085782
 30
0.0
 10
135.1561726184439
 20
120.7077353227743
 30
0.0
 10
135.4230272679607
 20
120.4118144169628
 30
0.0
 10
135.7061048508523
 20
120.0278411039336
 30
0.0
 10
135.9495360966235
 20
119.6184115504191
 30
0.0
 10
136.1511191539497
 20
119.1882597790059
 30
0.0
 10
136.3096606283401
 20
118.7408150666845
 30
0.0
 10
136.4228016022606
 20
118.2811161869193
 30
0.0
 10
136.4940274550049
 20
117.8133124556621
 30
0.0
 10
136.5028375806718
 20
117.4989677827021
 30
0.0
 10
136.5072403774
 20
117.3418763007
 30
0.0
 11
126.8085912616
 21
117.3418762931
 31
0.0
 11
126.8318597137176
 21
117.8159512244292
 31
0.0
 11
126.901643067531
 21
118.2859493159665
 31
0.0
 11
127.0174108107797
 21
118.7479131045642
 31
0.0
 11
127.1779058076152
 21
119.1961365402348
 31
0.0
 11
127.3816699856477
 21
119.6261964890511
 31
0.0
 11
127.6267903237012
 21
120.0342152087273
 31
0.0
 11
127.910955762226
 21
120.4161857799709
 31
0.0
 11
128.2310770396341
 21
120.7682501068003
 31
0.0
 11
128.4037219737302
 21
120.9320198795029
 31
0.0
 11
128.5841534205265
 21
121.0870521039563
 31
0.0
 11
128.7717848757443
 21
121.2329001649501
 31
0.0
 11
128.966408750138
 21
121.3694095893606
 31
0.0
 11
129.3738692288279
 21
121.6126380062313
 31
0.0
 11
129.8032910520213
 21
121.8151091372185
 31
0.0
 11
130.2503742828902
 21
121.9747003287263
 31
0.0
 11
130.7108108135037
 21
122.0900161612267
 31
0.0
 11
131.1810223391572
 21
122.1600586623869
 31
0.0
 11
131.6558358718408
 21
122.1840190680937
 31
0.0
 11
132.1317655971478
 21
122.1614637720186
 31
0.0
 11
132.6032028141483
 21
122.0925439457768
 31
0.0
 11
133.0665784727562
 21
121.9774976699055
 31
0.0
 11
133.5164675488079
 21
121.8174677627545
 31
0.0
 11
133.9491282563564
 21
121.6134803234587
 31
0.0
 11
134.359366791688
 21
121.3679427468316
 31
0.0
 11
134.5550329559995
 21
121.2301003015737
 31
0.0
 11
134.7435572438982
 21
121.0827670866892
 31
0.0
 11
134.9244798363119
 21
120.9263344097644
 31
0.0
 11
135.097474031541
 21
120.7610641939648
 31
0.0
 11
135.4168924807695
 21
120.4069279843103
 31
0.0
 11
135.699995144542
 21
120.0228461229822
 31
0.0
 11
135.9426765613175
 21
119.6147465443731
 31
0.0
 11
136.1441385005117
 21
119.184909119554
 31
0.0
 11
136.3021279440051
 21
118.7386525672611
 31
0.0
 11
136.415967415427
 21
118.2789939291994
 31
0.0
 11
136.4843920302735
 21
117.8124107207856
 31
0.0
 11
136.5072403774
 21
117.3418763007
 31
0.0
  0
SPLINE
  5
F9
330
1F
100
AcDbEntity
  8
RUNDUNGEN
  6
Continuous
 62
     7
100
AcDbSpline
210
0.0
220
0.0
230
1.0
 70
     8
 71
     3
 72
    15
 73
    11
 74
     9
 42
0.0000000001
 43
0.0000000001
 44
0.00000001
 40
0.0
 40
0.0
 40
0.0
 40
0.0
 40
0.3162936728269473
 40
0.6327491898544185
 40
0.9497778541304545
 40
1.266736320394071
 40
1.585306002246396
 40
1.903962908379706
 40
2.225342078488942
 40
2.546438904732902
 40
2.546438904732902
 40
2.546438904732902
 40
2.546438904732902
 10
111.0974132105
 20
129.2418763383
 30
0.0
 10
111.1534601691053
 20
129.1525327590894
 30
0.0
 10
111.2655827649649
 20
128.9737998844828
 30
0.0
 10
111.4115613399272
 20
128.6925065953577
 30
0.0
 10
111.5409617338832
 20
128.4031367168819
 30
0.0
 10
111.6508358126642
 20
128.1049670820262
 30
0.0
 10
111.7401142461787
 20
127.7993799157531
 30
0.0
 10
111.8061973072089
 20
127.4865230095585
 30
0.0
 10
111.8494749951472
 20
127.1685018691491
 30
0.0
 10
111.8550988414716
 20
126.9542816189544
 30
0.0
 10
111.8579095289
 20
126.8472185647
 30
0.0
 11
111.0974132105
 21
129.2418763383
 31
0.0
 11
111.2618383465789
 21
128.9716799983992
 31
0.0
 11
111.4086988488993
 21
128.6913657334833
 31
0.0
 11
111.5376736662642
 21
128.4017579461945
 31
0.0
 11
111.6472068212538
 21
128.1043270175838
 31
0.0
 11
111.7361836795827
 21
127.7984352705925
 31
0.0
 11
111.8022164851472
 21
127.4866951666345
 31
0.0
 11
111.8436562298629
 21
127.1679988871802
 31
0.0
 11
111.8579095289
 21
126.8472185647
 31
0.0
  0
SPLINE
  5
FA
330
1F
100
AcDbEntity
  8
RUNDUNGEN
  6
Continuous
 62
     7
100
AcDbSpline
210
0.0
220
0.0
230
1.0
 70
     8
 71
     3
 72
    19
 73
    15
 74
    13
 42
0.0000000001
 43
0.0000000001
 44
0.00000001
 40
0.0
 40
0.0
 40
0.0
 40
0.0
 40
0.0908658954202331
 40
0.1818155843232345
 40
0.2719578267178724
 40
0.3620796283947896
 40
0.45088489801905
 40
0.5396930491321552
 40
0.6271215589239827
 40
0.7145608604862965
 40
0.8859439487613785
 40
1.057581272688776
 40
1.226597310450959
 40
1.395465809463479
 40
1.395465809463479
 40
1.395465809463479
 40
1.395465809463479
 10
109.9579095289
 20
129.9146970904
 30
0.0
 10
109.9881105915975
 20
129.9172933572846
 30
0.0
 10
110.0485405674
 20
129.9224882852442
 30
0.0
 10
110.1393508891335
 20
129.9190263999924
 30
0.0
 10
110.2290970505161
 20
129.9072470754151
 30
0.0
 10
110.3166067498264
 20
129.886934562907
 30
0.0
 10
110.4014205757383
 20
129.858793927498
 30
0.0
 10
110.4826456865564
 20
129.8237753066429
 30
0.0
 10
110.5603499711661
 20
129.782508275824
 30
0.0
 10
110.6580306557872
 20
129.7208675665242
 30
0.0
 10
110.7712860195224
 20
129.6320641553357
 30
0.0
 10
110.892673671205
 20
129.5117107885983
 30
0.0
 10
111.0021353008019
 20
129.3814565407853
 30
0.0
 10
111.0656631538382
 20
129.2883895264232
 30
0.0
 10
111.0974132105
 20
129.2418763383
 30
0.0
 11
109.9579095289
 21
129.9146970904
 31
0.0
 11
110.0485828165408
 21
129.9206102840327
 31
0.0
 11
110.1394831270668
 21
129.9176137096844
 31
0.0
 11
110.2288480247369
 21
129.9058010500203
 31
0.0
 11
110.3166514246419
 21
129.885490902246
 31
0.0
 11
110.4009613858044
 21
129.8575945519145
 31
0.0
 11
110.4825419791923
 21
129.8225018961786
 31
0.0
 11
110.5597966119369
 21
129.7815694390824
 31
0.0
 11
110.6337878657101
 21
129.734976244056
 31
0.0
 11
110.7689898118009
 21
129.6296548467999
 31
0.0
 11
110.8913721197438
 21
129.5093139075169
 31
0.0
 11
110.999899873967
 21
129.3797448233027
 31
0.0
 11
111.0974132105
 21
129.2418763383
 31
0.0
  0
SPLINE
  5
FB
330
1F
100
AcDbEntity
  8
0
  6
Continuous
 62
     7
100
AcDbSpline
210
0.0
220
0.0
230
1.0
 70
     8
 71
     3
 72
    27
 73
    23
 74
    21
 42
0.0000000001
 43
0.0000000001
 44
0.00000001
 40
0.0
 40
0.0
 40
0.0
 40
0.0
 40
0.10710788740176
 40
0.2142469262830703
 40
0.3135924362672432
 40
0.4129188580266047
 40
0.5028493808370891
 40
0.5928506536300937
 40
0.6735107911484269
 40
0.753830917255079
 40
0.7916625683822002
 40
0.8294887979619204
 40
0.8669784897966907
 40
0.9044676327151637
 40
0.9428631025875386
 40
0.9812651393335883
 40
1.021657815356931
 40
1.062056720192619
 40
1.151027619712428
 40
1.240302097079375
 40
1.340997083255264
 40
1.44155640424134
 40
1.44155640424134
 40
1.44155640424134
 40
1.44155640424134
 10
104.7623886729
 20
105.5789393471
 30
0.0
 10
104.7325126777727
 20
105.5593775388614
 30
0.0
 10
104.6727519983219
 20
105.5202482329873
 30
0.0
 10
104.5815372011225
 20
105.4690175793124
 30
0.0
 10
104.4897490156955
 20
105.4245172701151
 30
0.0
 10
104.4000485452128
 20
105.3894237391104
 30
0.0
 10
104.3105367570697
 20
105.3633487682206
 30
0.0
 10
104.2246152571207
 20
105.3489089632436
 30
0.0
 10
104.1407051300715
 20
105.3466296350353
 30
0.0
 10
104.0746416666147
 20
105.3560722278511
 30
0.0
 10
104.0248905871154
 20
105.3714649471246
 30
0.0
 10
103.9901774163129
 20
105.386412868542
 30
0.0
 10
103.9574734109171
 20
105.4051293731751
 30
0.0
 10
103.9269124629454
 20
105.4274971934013
 30
0.0
 10
103.8988857700115
 20
105.453419690504
 30
0.0
 10
103.873183515589
 20
105.482929489052
 30
0.0
 10
103.8502958846202
 20
105.5154917420127
 30
0.0
 10
103.8222509631274
 20
105.5647167490259
 30
0.0
 10
103.7948399346864
 20
105.632660205202
 30
0.0
 10
103.7727489027362
 20
105.7231677565073
 30
0.0
 10
103.7599119895225
 20
105.8193975918434
 30
0.0
 10
103.7585767157389
 20
105.8865070386028
 30
0.0
 10
103.7579095289
 20
105.9200391428
 30
0.0
 11
104.7623886729
 21
105.5789393471
 31
0.0
 11
104.6721215142039
 21
105.5212857296541
 31
0.0
 11
104.5787546116639
 21
105.4687367509533
 31
0.0
 11
104.4892135752631
 21
105.4257026580235
 31
0.0
 11
104.3966212902491
 21
105.3897525980041
 31
0.0
 11
104.3101467024067
 21
105.3650616160378
 31
0.0
 11
104.2213164627801
 21
105.3505903468383
 31
0.0
 11
104.1406737652486
 21
105.3489131112208
 31
0.0
 11
104.0612509141426
 21
105.3608853031663
 31
0.0
 11
104.0251190156702
 21
105.3720977845948
 31
0.0
 11
103.9903948371558
 21
105.387099620173
 31
0.0
 11
103.9578548646677
 21
105.4057175465973
 31
0.0
 11
103.9276073128062
 21
105.4278652652867
 31
0.0
 11
103.8993847641062
 21
105.4538979342164
 31
0.0
 11
103.8741310544308
 21
105.4828283088056
 31
0.0
 11
103.8508386979896
 21
105.5158288301309
 31
0.0
 11
103.8307776150412
 21
105.5508948316546
 31
0.0
 11
103.796928472863
 21
105.6331751849303
 31
0.0
 11
103.7751222324453
 21
105.719745504255
 31
0.0
 11
103.7617978125993
 21
105.8195550232235
 31
0.0
 11
103.7579095289
 21
105.9200391428
 31
0.0
  0
SPLINE
  5
FC
330
1F
100
AcDbEntity
  8
RUNDUNGEN
  6
Continuous
 62
     7
100
AcDbSpline
210
0.0
220
0.0
230
1.0
 70
     8
 71
     3
 72
    15
 73
    11
 74
     9
 42
0.0000000001
 43
0.0000000001
 44
0.00000001
 40
0.0
 40
0.0
 40
0.0
 40
0.0
 40
0.3210967670348989
 40
0.6424758765835925
 40
0.961132741717099
 40
1.279702385368214
 40
1.596661045057979
 40
1.913689899720834
 40
2.230145323788828
 40
2.546438905842991
 40
2.546438905842991
 40
2.546438905842991
 40
2.546438905842991
 10
111.8579095289
 20
107.8365341119
 30
0.0
 10
111.8550988434508
 20
107.7294710773869
 30
0.0
 10
111.8494750010981
 20
107.5152508671253
 30
0.0
 10
111.8061973285401
 20
107.1972297785874
 30
0.0
 10
111.7401142672642
 20
106.8843729198261
 30
0.0
 10
111.650835827105
 20
106.5787857167957
 30
0.0
 10
111.5409617473228
 20
106.2806159598233
 30
0.0
 10
111.4115613358923
 20
105.9912459815532
 30
0.0
 10
111.2655827293548
 20
105.7099527060479
 30
0.0
 10
111.1534601573637
 20
105.5312198890273
 30
0.0
 10
111.0974132105
 20
105.4418763383
 30
0.0
 11
111.8579095289
 21
107.8365341119
 31
0.0
 11
111.8436562374914
 21
107.5157538483483
 31
0.0
 11
111.8022165051938
 21
107.1970576283497
 31
0.0
 11
111.7361837036999
 21
106.885317565439
 31
0.0
 11
111.6472068648961
 21
106.5794258525527
 31
0.0
 11
111.5376736745463
 21
106.2819947308386
 31
0.0
 11
111.4086987945878
 21
105.9923867630122
 31
0.0
 11
111.2618383153228
 21
105.7120725909622
 31
0.0
 11
111.0974132105
 21
105.4418763383
 31
0.0
  0
SPLINE
  5
FD
330
1F
100
AcDbEntity
  8
RUNDUNGEN
  6
Continuous
 62
     7
100
AcDbSpline
210
0.0
220
0.0
230
1.0
 70
     8
 71
     3
 72
    19
 73
    15
 74
    13
 42
0.0000000001
 43
0.0000000001
 44
0.00000001
 40
0.0
 40
0.0
 40
0.0
 40
0.0
 40
0.1688722591479595
 40
0.3378923302139377
 40
0.5095430667942675
 40
0.6809387932401578
 40
0.7683828001259182
 40
0.8558164160406929
 40
0.9446259266329229
 40
1.033432066265793
 40
1.123538983616632
 40
1.213666714860339
 40
1.304608728464168
 40
1.395466840264538
 40
1.395466840264538
 40
1.395466840264538
 40
1.395466840264538
 10
111.0974132105
 20
105.4418763383
 30
0.0
 10
111.0656623396244
 20
105.3953621831338
 30
0.0
 10
111.0021328067063
 20
105.3022931595042
 30
0.0
 10
110.8926661814565
 20
105.1720339108009
 30
0.0
 10
110.7712720786672
 20
105.0516727836031
 30
0.0
 10
110.6580066509664
 20
104.9628650194004
 30
0.0
 10
110.5603156734253
 20
104.9012265007284
 30
0.0
 10
110.4826060948896
 20
104.8599617113881
 30
0.0
 10
110.4013790907963
 20
104.8249415723355
 30
0.0
 10
110.3165692657491
 20
104.7968018676102
 30
0.0
 10
110.2290676268525
 20
104.7764962757163
 30
0.0
 10
110.1393330902158
 20
104.7647239388569
 30
0.0
 10
110.0485327973159
 20
104.7612647682944
 30
0.0
 10
109.9881079895732
 20
104.7664594460227
 30
0.0
 10
109.9579095289
 20
104.7690555862
 30
0.0
 11
111.0974132105
 21
105.4418763383
 31
0.0
 11
110.9998973634753
 21
105.3040050233401
 31
0.0
 11
110.8913668376518
 21
105.1744329994011
 31
0.0
 11
110.7689750003995
 21
105.0540826211609
 31
0.0
 11
110.6337604376686
 21
104.9487568547529
 31
0.0
 11
110.5597625668363
 21
104.9021653377942
 31
0.0
 11
110.4825016403346
 21
104.8612338532373
 31
0.0
 11
110.4009196818199
 21
104.8261409306382
 31
0.0
 11
110.3166087153638
 21
104.7982448489828
 31
0.0
 11
110.2288188623829
 21
104.777942182457
 31
0.0
 11
110.1394677287878
 21
104.766136130432
 31
0.0
 11
110.0485750083295
 21
104.7631422690466
 31
0.0
 11
109.9579095289
 21
104.7690555862
 31
0.0
  0
SPLINE
  5
FE
330
1F
100
AcDbEntity
  8
0
  6
Continuous
 62
     7
100
AcDbSpline
210
0.0
220
0.0
230
1.0
 70
     8
 71
     3
 72
     9
 73
     5
 74
     3
 42
0.0000000001
 43
0.0000000001
 44
0.00000001
 40
0.0
 40
0.0
 40
0.0
 40
0.0
 40
0.1120698018001254
 40
0.2241876568903585
 40
0.2241876568903585
 40
0.2241876568903585
 40
0.2241876568903585
 10
104.9395795164
 20
105.4418763383
 30
0.0
 10
104.9087099043742
 20
105.4629775903983
 30
0.0
 10
104.8469574440503
 20
105.5051891423897
 30
0.0
 10
104.7905822911763
 20
105.5543524329103
 30
0.0
 10
104.7623886729
 20
105.5789393471
 30
0.0
 11
104.9395795164
 21
105.4418763383
 31
0.0
 11
104.84831443095
 21
105.506917284275
 31
0.0
 11
104.7623886729
 21
105.5789393471
 31
0.0
  0
SPLINE
  5
FF
330
1F
100
AcDbEntity
  8
0
  6
Continuous
 62
     7
100
AcDbSpline
210
0.0
220
0.0
230
1.0
 70
     8
 71
     3
 72
    11
 73
     7
 74
     5
 42
0.0000000001
 43
0.0000000001
 44
0.00000001
 40
0.0
 40
0.0
 40
0.0
 40
0.0
 40
0.0910518967510793
 40
0.1822839481536366
 40
0.2734564443664421
 40
0.3645245916651654
 40
0.3645245916651654
 40
0.3645245916651654
 40
0.3645245916651654
 10
105.2778499411
 20
105.3142613982
 30
0.0
 10
105.2478281577992
 20
105.3190117668131
 30
0.0
 10
105.1877251903054
 20
105.3285219030858
 30
0.0
 10
105.1008503474482
 20
105.3571606046201
 30
0.0
 10
105.0173913195777
 20
105.394327208046
 30
0.0
 10
104.9655068813134
 20
105.4260326796125
 30
0.0
 10
104.9395795164
 20
105.4418763383
 30
0.0
 11
105.2778499411
 21
105.3142613982
 31
0.0
 11
105.188331725608
 21
105.3309028223304
 31
0.0
 11
105.1014022424012
 21
105.3585895005806
 31
0.0
 11
105.0182935883708
 21
105.3960778413137
 31
0.0
 11
104.9395795164
 21
105.4418763383
 31
0.0
  0
SPLINE
  5
100
330
1F
100
AcDbEntity
  8
FASEN
  6
Continuous
 62
     7
100
AcDbSpline
210
0.0
220
0.0
230
1.0
 70
     8
 71
     3
 72
    13
 73
     9
 74
     7
 42
0.0000000001
 43
0.0000000001
 44
0.00000001
 40
0.0
 40
0.0
 40
0.0
 40
0.0
 40
0.1484181247024358
 40
0.2968908034209267
 40
0.3638815767855529
 40
0.4308012640646194
 40
0.4942605386867084
 40
0.5576337748484772
 40
0.5576337748484772
 40
0.5576337748484772
 40
0.5576337748484772
 10
163.1871566766
 20
125.9418763383
 30
0.0
 10
163.2310220788933
 20
125.9650598585926
 30
0.0
 10
163.3187690070759
 20
126.0114354207391
 30
0.0
 10
163.4096461435402
 20
126.0939657114178
 30
0.0
 10
163.4686965843446
 20
126.1674006723149
 30
0.0
 10
163.5037883835129
 20
126.2232062492323
 30
0.0
 10
163.5323208910545
 20
126.2813799615322
 30
0.0
 10
163.5451391899707
 20
126.3217200011051
 30
0.0
 10
163.5515439917
 20
126.3418763383
 30
0.0
 11
163.1871566766
 21
125.9418763383
 31
0.0
 11
163.3153540538354
 21
126.0166651891413
 31
0.0
 11
163.4258389605438
 21
126.1158479583881
 31
0.0
 11
163.4676619059699
 21
126.1681796404926
 31
0.0
 11
163.5033548433258
 21
126.224785813022
 31
0.0
 11
163.5308667176313
 21
126.2819712684085
 31
0.0
 11
163.5515439917
 21
126.3418763383
 31
0.0
  0
SPLINE
  5
101
330
1F
100
AcDbEntity
  8
FASEN
  6
Continuous
 62
     7
100
AcDbSpline
210
0.0
220
0.0
230
1.0
 70
     8
 71
     3
 72
    13
 73
     9
 74
     7
 42
0.0000000001
 43
0.0000000001
 44
0.00000001
 40
0.0
 40
0.0
 40
0.0
 40
0.0
 40
0.0633737589989991
 40
0.1268335617878324
 40
0.1937531772467923
 40
0.2607438719470368
 40
0.4092160946437133
 40
0.5576337728328475
 40
0.5576337728328475
 40
0.5576337728328475
 40
0.5576337728328475
 10
159.7642750661
 20
126.3418763383
 30
0.0
 10
159.7706799316719
 20
126.3217198377272
 30
0.0
 10
159.7834983588267
 20
126.2813794697074
 30
0.0
 10
159.8120311280071
 20
126.2232055174707
 30
0.0
 10
159.8471230722724
 20
126.16739988645
 30
0.0
 10
159.9061734617808
 20
126.0939651429959
 30
0.0
 10
159.9970504338024
 20
126.0114351733508
 30
0.0
 10
160.08479710573
 20
125.9650597766265
 30
0.0
 10
160.1286623813
 20
125.9418763383
 30
0.0
 11
159.7642750661
 21
126.3418763383
 31
0.0
 11
159.7849525574082
 21
126.281970790286
 31
0.0
 11
159.812464760327
 21
126.2247849068832
 31
0.0
 11
159.8481577465031
 21
126.1681788500429
 31
0.0
 11
159.8899807010481
 21
126.1158472759261
 31
0.0
 11
160.0004653603028
 21
126.0166649136741
 31
0.0
 11
160.1286623813
 21
125.9418763383
 31
0.0
  0
SPLINE
  5
102
330
1F
100
AcDbEntity
  8
FASEN
  6
Continuous
 62
     7
100
AcDbSpline
210
0.0
220
0.0
230
1.0
 70
     8
 71
     3
 72
    13
 73
     9
 74
     7
 42
0.0000000001
 43
0.0000000001
 44
0.00000001
 40
0.0
 40
0.0
 40
0.0
 40
0.0
 40
0.1484181359650271
 40
0.296890825822674
 40
0.3638815920236786
 40
0.4308012721348492
 40
0.4942605427209946
 40
0.5576337749323349
 40
0.5576337749323349
 40
0.5576337749323349
 40
0.5576337749323349
 10
160.1286623813
 20
108.7418763383
 30
0.0
 10
160.0847969757326
 20
108.7186928160995
 30
0.0
 10
159.9970500410386
 20
108.6723172501566
 30
0.0
 10
159.9061729025453
 20
108.5897869536474
 30
0.0
 10
159.8471224646266
 20
108.5163519918468
 30
0.0
 10
159.8120306698505
 20
108.4605464194366
 30
0.0
 10
159.7834981653369
 20
108.4023727113237
 30
0.0
 10
159.7706798673627
 20
108.3620326742559
 30
0.0
 10
159.7642750661
 20
108.3418763383
 30
0.0
 11
160.1286623813
 21
108.7418763383
 31
0.0
 11
160.0004649948369
 21
108.6670874809256
 31
0.0
 11
159.8899800822196
 21
108.567904701586
 31
0.0
 11
159.8481571428169
 21
108.5155730238381
 31
0.0
 11
159.8124642104248
 21
108.4589668566526
 31
0.0
 11
159.7849523385821
 21
108.40178140456
 31
0.0
 11
159.7642750661
 21
108.3418763383
 31
0.0
  0
SPLINE
  5
103
330
1F
100
AcDbEntity
  8
FASEN
  6
Continuous
 62
     7
100
AcDbSpline
210
0.0
220
0.0
230
1.0
 70
     8
 71
     3
 72
    43
 73
    39
 74
    37
 42
0.0000000001
 43
0.0000000001
 44
0.00000001
 40
0.0
 40
0.0
 40
0.0
 40
0.0
 40
0.4706686416599464
 40
0.9418242752145896
 40
1.415226743216331
 40
1.888479857325887
 40
2.363190981072817
 40
2.838000227694407
 40
3.315175149056059
 40
3.792113826620907
 40
4.031391417183672
 40
4.270591420922264
 40
4.509874995733723
 40
4.749236632858446
 40
5.227333355336034
 40
5.705661581682125
 40
6.1831636577229
 40
6.660606244096996
 40
7.137076247113676
 40
7.613561752843297
 40
8.08899278359619
 40
8.564405684765177
 40
9.039085298950024
 40
9.513821208424202
 40
9.988600689615273
 40
10.46315488341397
 40
10.70087681253578
 40
10.93852297393963
 40
11.17640321732448
 40
11.41435972163729
 40
11.89020085766164
 40
12.3662778216372
 40
12.84226790382664
 40
13.31816244374382
 40
13.79435809935015
 40
14.27070893659064
 40
14.74618188896788
 40
15.22115280865616
 40
15.22115280865616
 40
15.22115280865616
 40
15.22115280865616
 10
136.507222036
 20
117.3418763785
 30
0.0
 10
136.5028396143301
 20
117.184924426531
 30
0.0
 10
136.494070236582
 20
116.8708581273926
 30
0.0
 10
136.4229326080333
 20
116.4033735811259
 30
0.0
 10
136.3099347054794
 20
115.9438834175103
 30
0.0
 10
136.1515274244954
 20
115.4964922789016
 30
0.0
 10
135.9500648074917
 20
115.0663342530741
 30
0.0
 10
135.7067208296938
 20
114.656837403946
 30
0.0
 10
135.4237159200213
 20
114.2727825159171
 30
0.0
 10
135.1569068981366
 20
113.9767805482842
 30
0.0
 10
134.9265955383207
 20
113.7566660912
 30
0.0
 10
134.7455677676663
 20
113.6000780838907
 30
0.0
 10
134.5569826999384
 20
113.4526333105248
 30
0.0
 10
134.2962194268601
 20
113.2688452039012
 30
0.0
 10
133.9536123307297
 20
113.0637505837117
 30
0.0
 10
133.5206497473724
 20
112.8594676628117
 30
0.0
 10
133.0698014413389
 20
112.6990488139521
 30
0.0
 10
132.6060029156959
 20
112.5837855681819
 30
0.0
 10
132.1334713440213
 20
112.5146544347671
 30
0.0
 10
131.6571224301222
 20
112.4919541665793
 30
0.0
 10
131.1811939682997
 20
112.5159195035407
 30
0.0
 10
130.710441376278
 20
112.5859173315576
 30
0.0
 10
130.2489831459059
 20
112.7014179918461
 30
0.0
 10
129.8011233403722
 20
112.8611489307845
 30
0.0
 10
129.3710788661948
 20
113.0638609058872
 30
0.0
 10
129.030674137853
 20
113.266924903405
 30
0.0
 10
128.7713291732283
 20
113.4487722301309
 30
0.0
 10
128.5835167622207
 20
113.5947110302622
 30
0.0
 10
128.4030258845139
 20
113.7497339512124
 30
0.0
 10
128.1727527447122
 20
113.9680774746452
 30
0.0
 10
127.9054283841003
 20
114.262020022824
 30
0.0
 10
127.6207717313919
 20
114.6444222857853
 30
0.0
 10
127.3751960792291
 20
115.0530831451724
 30
0.0
 10
127.1709864155556
 20
115.4839106389707
 30
0.0
 10
127.0099875339521
 20
115.9329023209078
 30
0.0
 10
126.8947446554502
 20
116.3953570949681
 30
0.0
 10
126.8220615488826
 20
116.8665457794435
 30
0.0
 10
126.8130667737881
 20
117.1834886510049
 30
0.0
 10
126.8085717618
 20
117.3418763808
 30
0.0
 11
136.507222036
 21
117.3418763785
 31
0.0
 11
136.4844416768715
 21
116.8717593446882
 31
0.0
 11
136.4161282910402
 21
116.4055824336914
 31
0.0
 11
136.3024067491751
 21
115.9460421116021
 31
0.0
 11
136.1445662765239
 21
115.4998864266583
 31
0.0
 11
135.9432041071315
 21
115.0699981530956
 31
0.0
 11
135.7006143115763
 21
114.6618388560439
 31
0.0
 11
135.4175794862316
 21
114.2776680695197
 31
0.0
 11
135.0982187784309
 21
113.9234375789202
 31
0.0
 11
134.9252422809043
 21
113.7581109426846
 31
0.0
 11
134.7443334770121
 21
113.6016224560064
 31
0.0
 11
134.5558257088943
 21
113.4542404675079
 31
0.0
 11
134.3601728050204
 21
113.3163494433884
 31
0.0
 11
133.9499910489841
 21
113.0707330696288
 31
0.0
 11
133.5173802181081
 21
112.8666601387237
 31
0.0
 11
133.0675250775516
 21
112.7065396055677
 31
0.0
 11
132.6041738004826
 21
112.5914004839709
 31
0.0
 11
132.1327289657725
 21
112.5223828659308
 31
0.0
 11
131.6567821257537
 21
112.499732421201
 31
0.0
 11
131.1819506348347
 21
112.5236012342087
 31
0.0
 11
130.7117126862871
 21
112.5935562078968
 31
0.0
 11
130.2512332143743
 21
112.7087924524969
 31
0.0
 11
129.8040998420948
 21
112.8683102607137
 31
0.0
 11
129.3746244868832
 21
113.0707120270743
 31
0.0
 11
128.9671055687433
 21
113.3138786658429
 31
0.0
 11
128.7724612932593
 21
113.4503532847531
 31
0.0
 11
128.5848074066464
 21
113.5961672651154
 31
0.0
 11
128.4043540369284
 21
113.7511627216625
 31
0.0
 11
128.2316849083402
 21
113.9148962551166
 31
0.0
 11
127.9115025442623
 21
114.2669019943687
 31
0.0
 11
127.6272715091861
 21
114.6488208264884
 31
0.0
 11
127.382077542482
 21
115.056799351701
 31
0.0
 11
127.1782337662051
 21
115.4868264764224
 31
0.0
 11
127.0176248914216
 21
115.9351200094553
 31
0.0
 11
126.9017683674594
 21
116.3971669616097
 31
0.0
 11
126.8319019615781
 21
116.8674787877118
 31
0.0
 11
126.8085717618
 21
117.3418763808
 31
0.0
  0
SPLINE
  5
104
330
1F
100
AcDbEntity
  8
FASEN
  6
Continuous
 62
     7
100
AcDbSpline
210
0.0
220
0.0
230
1.0
 70
     8
 71
     3
 72
    19
 73
    15
 74
    13
 42
0.0000000001
 43
0.0000000001
 44
0.00000001
 40
0.0
 40
0.0
 40
0.0
 40
0.0
 40
0.0355072727147704
 40
0.0711690978223821
 40
0.1067340991095914
 40
0.1422868431135653
 40
0.1778317460075055
 40
0.2133709080532639
 40
0.2488997353888875
 40
0.2844290254287277
 40
0.355438710057226
 40
0.4265014700299045
 40
0.4975508693136256
 40
0.5685734842507935
 40
0.5685734842507935
 40
0.5685734842507935
 40
0.5685734842507935
 10
160.4954095289
 20
109.1412284981
 30
0.0
 10
160.4835597062044
 20
109.1404927498823
 30
0.0
 10
160.4598084821277
 20
109.139018050958
 30
0.0
 10
160.4255538454673
 20
109.1283263832851
 30
0.0
 10
160.3935122247259
 20
109.1126218855876
 30
0.0
 10
160.363985609158
 20
109.0926408444634
 30
0.0
 10
160.3366993410812
 20
109.0697891800908
 30
0.0
 10
160.3114862231488
 20
109.0446936161569
 30
0.0
 10
160.2880481201957
 20
109.0179579535878
 30
0.0
 10
160.2588957553149
 20
108.9806151277202
 30
0.0
 10
160.2257033981115
 20
108.9315043302802
 30
0.0
 10
160.1902247663939
 20
108.8699170586771
 30
0.0
 10
160.15777490397
 20
108.806677907653
 30
0.0
 10
160.1383653357837
 20
108.763474146399
 30
0.0
 10
160.1286623813
 20
108.7418763383
 30
0.0
 11
160.4954095289
 21
109.1412284981
 31
0.0
 11
160.4600867274536
 21
109.1376137901423
 31
0.0
 11
160.4258952611702
 21
109.1274792253565
 31
0.0
 11
160.3939220632923
 21
109.1119041191283
 31
0.0
 11
160.3643557534948
 21
109.0921599825006
 31
0.0
 11
160.3370424754923
 21
109.0694130054159
 31
0.0
 11
160.3117790984154
 21
109.0444171294043
 31
0.0
 11
160.2883089108714
 21
109.0177441492841
 31
0.0
 11
160.2663932715802
 21
108.9897792569154
 31
0.0
 11
160.2264380895525
 21
108.9310769678615
 31
0.0
 11
160.1907278701798
 21
108.8696384124805
 31
0.0
 11
160.1583262749176
 21
108.8064074567465
 31
0.0
 11
160.1286623813
 21
108.7418763383
 31
0.0
  0
SPLINE
  5
105
330
1F
100
AcDbEntity
  8
FASEN
  6
Continuous
 62
     7
100
AcDbSpline
210
0.0
220
0.0
230
1.0
 70
     8
 71
     3
 72
    19
 73
    15
 74
    13
 42
0.0000000001
 43
0.0000000001
 44
0.00000001
 40
0.0
 40
0.0
 40
0.0
 40
0.0
 40
0.0710236744373504
 40
0.1420741376858034
 40
0.2131378691529166
 40
0.2841485009418891
 40
0.3196779499512782
 40
0.3552069496414167
 40
0.3907443590460649
 40
0.4262874916007362
 40
0.4618403527349229
 40
0.497405489662154
 40
0.5330666494012976
 40
0.5685732488263489
 40
0.5685732488263489
 40
0.5685732488263489
 40
0.5685732488263489
 10
160.1286623813
 20
125.9418763383
 30
0.0
 10
160.1383654635055
 20
125.9202782005341
 30
0.0
 10
160.1577752877388
 20
125.8770737785859
 30
0.0
 10
160.1902255624045
 20
125.8138336768901
 30
0.0
 10
160.2257048768006
 20
125.7522456435612
 30
0.0
 10
160.2588980688338
 20
125.7031345563337
 30
0.0
 10
160.2880512655197
 20
125.6657918370765
 30
0.0
 10
160.3114893995593
 20
125.639056838441
 30
0.0
 10
160.3367017841723
 20
125.6139621362769
 30
0.0
 10
160.3639871146532
 20
125.5911111252772
 30
0.0
 10
160.3935133372519
 20
125.5711303925072
 30
0.0
 10
160.425554896013
 20
125.5554260795225
 30
0.0
 10
160.4598091542425
 20
125.5447345862631
 30
0.0
 10
160.4835599311236
 20
125.5432599136023
 30
0.0
 10
160.4954095289
 20
125.5425241786
 30
0.0
 11
160.1286623813
 21
125.9418763383
 31
0.0
 11
160.1583266650348
 21
125.8773442331036
 31
0.0
 11
160.1907287290215
 21
125.8141123220363
 31
0.0
 11
160.2264396407039
 21
125.7526730453735
 31
0.0
 11
160.2663959064482
 21
125.6939703482052
 31
0.0
 11
160.2883120406234
 21
125.6660056417035
 31
0.0
 11
160.3117826600725
 21
125.6393328120513
 31
0.0
 11
160.3370448850009
 21
125.6143382634685
 31
0.0
 11
160.364356763148
 21
125.591592371886
 31
0.0
 11
160.3939231777163
 21
125.5718481812366
 31
0.0
 11
160.4258965485936
 21
125.5562731204214
 31
0.0
 11
160.4600873964962
 21
125.5461388106944
 31
0.0
 11
160.4954095289
 21
125.5425241786
 31
0.0
  0
SPLINE
  5
106
330
1F
100
AcDbEntity
  8
0
  6
Continuous
 62
     7
100
AcDbSpline
210
0.0
220
0.0
230
1.0
 70
     8
 71
     3
 72
    25
 73
    21
 74
    19
 42
0.0000000001
 43
0.0000000001
 44
0.00000001
 40
0.0
 40
0.0
 40
0.0
 40
0.0
 40
0.1239880553192386
 40
0.2479744814170497
 40
0.3099722230774859
 40
0.371969177576168
 40
0.4339700137566241
 40
0.4959673131731309
 40
0.5579583281399698
 40
0.6199698189365752
 40
0.6819979541189479
 40
0.7439758328060596
 40
0.7749898253553634
 40
0.8060036549390179
 40
0.8370304793219115
 40
0.8680591966346594
 40
0.899108855983637
 40
0.9301665595636226
 40
0.9613026542777983
 40
0.9923391668047927
 40
0.9923391668047927
 40
0.9923391668047927
 40
0.9923391668047927
 10
163.3259745152
 20
108.3418763383
 30
0.0
 10
163.3145007234226
 20
108.3815843193648
 30
0.0
 10
163.2915532906351
 20
108.4609997597257
 30
0.0
 10
163.2587563239879
 20
108.5590181853432
 30
0.0
 10
163.2302967204282
 20
108.6366291046527
 30
0.0
 10
163.2075703593121
 20
108.6943195433372
 30
0.0
 10
163.1833267879214
 20
108.7513904986845
 30
0.0
 10
163.1572972789978
 20
108.8076706091179
 30
0.0
 10
163.1292299331688
 20
108.8629728465596
 30
0.0
 10
163.0986657396092
 20
108.9169562016957
 30
0.0
 10
163.0652050740962
 20
108.9692044758721
 30
0.0
 10
163.0341114781966
 20
109.0105648631387
 30
0.0
 10
163.006943413712
 20
109.0417413821694
 30
0.0
 10
162.9852088334092
 20
109.063900681817
 30
0.0
 10
162.9619714765957
 20
109.0845027167222
 30
0.0
 10
162.9370306585326
 20
109.1030415675041
 30
0.0
 10
162.9103000979561
 20
109.1189830947573
 30
0.0
 10
162.8816942631602
 20
109.1313169608087
 30
0.0
 10
162.8515099819286
 20
109.1395630396937
 30
0.0
 10
162.8307652709391
 20
109.1406739384087
 30
0.0
 10
162.8204095289
 20
109.1412284981
 30
0.0
 11
163.3259745152
 21
108.3418763383
 31
0.0
 11
163.2907306811399
 21
108.4607498425917
 31
0.0
 11
163.2514570240336
 21
108.578351771632
 31
0.0
 11
163.2300665404335
 21
108.6365425542556
 31
0.0
 11
163.207317969883
 21
108.6942151205677
 31
0.0
 11
163.1830285117525
 21
108.7512600669767
 31
0.0
 11
163.1569570057419
 21
108.8075089932711
 31
0.0
 11
163.1288178543643
 21
108.8627455219127
 31
0.0
 11
163.0981853899564
 21
108.9166628393081
 31
0.0
 11
163.0645538188387
 21
108.968782000644
 31
0.0
 11
163.0271362345491
 21
109.0181903180863
 31
0.0
 11
163.0067188252742
 21
109.0415354917278
 31
0.0
 11
162.9849621062204
 21
109.0636375912085
 31
0.0
 11
162.9616896136135
 21
109.0841572139913
 31
0.0
 11
162.9367396159398
 21
109.1026038644776
 31
0.0
 11
162.9099953485675
 21
109.1183780683688
 31
0.0
 11
162.8814550599342
 21
109.1306268591823
 31
0.0
 11
162.8513233267459
 21
109.1384712870847
 31
0.0
 11
162.8204095289
 21
109.1412284981
 31
0.0
  0
SPLINE
  5
107
330
1F
100
AcDbEntity
  8
0
  6
Continuous
 62
     7
100
AcDbSpline
210
0.0
220
0.0
230
1.0
 70
     8
 71
     3
 72
    11
 73
     7
 74
     5
 42
0.0000000001
 43
0.0000000001
 44
0.00000001
 40
0.0
 40
0.0
 40
0.0
 40
0.0
 40
0.0910828808206011
 40
0.1822704385530166
 40
0.2734873447169349
 40
0.3645237789640614
 40
0.3645237789640614
 40
0.3645237789640614
 40
0.3645237789640614
 10
104.9395795164
 20
129.2418763383
 30
0.0
 10
104.9655114360365
 20
129.2577220196531
 30
0.0
 10
105.0174050775427
 20
129.2894315929931
 30
0.0
 10
105.1008708752327
 20
129.3265950595482
 30
0.0
 10
105.1877405004952
 20
129.3552322599313
 30
0.0
 10
105.2478332960392
 20
129.3647414110452
 30
0.0
 10
105.2778499411
 20
129.3694912785
 30
0.0
 11
104.9395795164
 21
129.2418763383
 31
0.0
 11
105.0183076044151
 21
129.2876800426924
 31
0.0
 11
105.1014317474684
 21
129.3251706752139
 31
0.0
 11
105.1883470727759
 21
129.35285189984
 31
0.0
 11
105.2778499411
 21
129.3694912785
 31
0.0
  0
SPLINE
  5
108
330
1F
100
AcDbEntity
  8
0
  6
Continuous
 62
     7
100
AcDbSpline
210
0.0
220
0.0
230
1.0
 70
     8
 71
     3
 72
     9
 73
     5
 74
     3
 42
0.0000000001
 43
0.0000000001
 44
0.00000001
 40
0.0
 40
0.0
 40
0.0
 40
0.0
 40
0.112117855090244
 40
0.2241876568903578
 40
0.2241876568903578
 40
0.2241876568903578
 40
0.2241876568903578
 10
104.7623886729
 20
129.1048133295
 30
0.0
 10
104.7905822911763
 20
129.1294002436897
 30
0.0
 10
104.8469574440503
 20
129.1785635342102
 30
0.0
 10
104.9087099043742
 20
129.2207750862017
 30
0.0
 10
104.9395795164
 20
129.2418763383
 30
0.0
 11
104.7623886729
 21
129.1048133295
 31
0.0
 11
104.84831443095
 21
129.176835392325
 31
0.0
 11
104.9395795164
 21
129.2418763383
 31
0.0
  0
SPLINE
  5
109
330
1F
100
AcDbEntity
  8
FASEN
  6
Continuous
 62
     7
100
AcDbSpline
210
0.0
220
0.0
230
1.0
 70
     8
 71
     3
 72
    19
 73
    15
 74
    13
 42
0.0000000001
 43
0.0000000001
 44
0.00000001
 40
0.0
 40
0.0
 40
0.0
 40
0.0
 40
0.0355380830995318
 40
0.0712305624605132
 40
0.1068073092074774
 40
0.1423722988656594
 40
0.1779159207594981
 40
0.2134534050830139
 40
0.2489763315486765
 40
0.2844999303945612
 40
0.3554928279838001
 40
0.4265383987985017
 40
0.4975694022920369
 40
0.568573788586519
 40
0.568573788586519
 40
0.568573788586519
 40
0.568573788586519
 10
162.8204095289
 20
125.5425241786
 30
0.0
 10
162.8322696533763
 20
125.5432607347555
 30
0.0
 10
162.8560414289932
 20
125.5447370470568
 30
0.0
 10
162.8903184488959
 20
125.555441519631
 30
0.0
 10
162.9223709861855
 20
125.5711656163109
 30
0.0
 10
162.9518962963976
 20
125.5911619305593
 30
0.0
 10
162.9791796132331
 20
125.6140216846941
 30
0.0
 10
163.0043868640626
 20
125.639118935494
 30
0.0
 10
163.0278179903421
 20
125.6658548212447
 30
0.0
 10
163.0569599217701
 20
125.7031937367029
 30
0.0
 10
163.0901428617624
 20
125.7522947295795
 30
0.0
 10
163.1256129110796
 20
125.8138668210401
 30
0.0
 10
163.1580525024089
 20
125.8770910809335
 30
0.0
 10
163.1774564972953
 20
125.9202839506021
 30
0.0
 10
163.1871566766
 20
125.9418763383
 30
0.0
 11
162.8204095289
 21
125.5425241786
 31
0.0
 11
162.8557628437156
 21
125.5461433610958
 31
0.0
 11
162.8899819509046
 21
125.5562925377187
 31
0.0
 11
162.9219605099753
 21
125.5718834539477
 31
0.0
 11
162.9515300731761
 21
125.5916447651769
 31
0.0
 11
162.9788368495455
 21
125.6143975457024
 31
0.0
 11
163.0040949354213
 21
125.6393963834741
 31
0.0
 11
163.027557297586
 21
125.6660683887669
 31
0.0
 11
163.0494661081255
 21
125.694031401761
 31
0.0
 11
163.0894088384827
 21
125.7527218592454
 31
0.0
 11
163.1251097569711
 21
125.8141459388191
 31
0.0
 11
163.1575014541131
 21
125.8773612962377
 31
0.0
 11
163.1871566766
 21
125.9418763383
 31
0.0
  0
SPLINE
  5
10A
330
1F
100
AcDbEntity
  8
0
  6
Continuous
 62
     7
100
AcDbSpline
210
0.0
220
0.0
230
1.0
 70
     8
 71
     3
 72
    11
 73
     7
 74
     5
 42
0.0000000001
 43
0.0000000001
 44
0.00000001
 40
0.0
 40
0.0
 40
0.0
 40
0.0
 40
0.7132110074759435
 40
1.426361317727349
 40
1.831519457868835
 40
2.236026825391798
 40
2.236026825391798
 40
2.236026825391798
 40
2.236026825391798
 10
104.7623886729
 20
105.5789393471
 30
0.0
 10
104.8716011354147
 20
105.7904189502458
 30
0.0
 10
105.0900167660092
 20
106.213360158743
 30
0.0
 10
105.2844095021728
 20
106.7947095343258
 30
0.0
 10
105.3897276984564
 20
107.2928484997094
 30
0.0
 10
105.4018521671191
 20
107.5629023599408
 30
0.0
 10
105.4079095289
 20
107.6978207615
 30
0.0
 11
104.7623886729
 21
105.5789393471
 31
0.0
 11
105.0732683015519
 21
106.2208301459701
 31
0.0
 11
105.3002825139551
 21
106.8968833335069
 31
0.0
 11
105.3787870344266
 21
107.2943630924739
 31
0.0
 11
105.4079095289
 21
107.6978207615
 31
0.0
  0
SPLINE
  5
10B
330
1F
100
AcDbEntity
  8
0
  6
Continuous
 62
     7
100
AcDbSpline
210
0.0
220
0.0
230
1.0
 70
     8
 71
     3
 72
    11
 73
     7
 74
     5
 42
0.0000000001
 43
0.0000000001
 44
0.00000001
 40
0.0
 40
0.0
 40
0.0
 40
0.0
 40
0.6210757380668938
 40
1.242411211129356
 40
1.739180735554634
 40
2.235731818826581
 40
2.235731818826581
 40
2.235731818826581
 40
2.235731818826581
 10
105.4079095289
 20
126.9859319151
 30
0.0
 10
105.3937128496127
 20
127.1930985174616
 30
0.0
 10
105.3653135539611
 20
127.607518359632
 30
0.0
 10
105.1953405746271
 20
128.1656635555248
 30
0.0
 10
104.9942826951017
 20
128.6652183718398
 30
0.0
 10
104.8396753470656
 20
128.9583031610404
 30
0.0
 10
104.7623886729
 20
129.1048133295
 30
0.0
 11
105.4079095289
 21
126.9859319151
 31
0.0
 11
105.3420733173633
 21
127.6035083603
 31
0.0
 11
105.1739168975634
 21
128.2016564929275
 31
0.0
 11
104.9865224672635
 21
128.6617252789696
 31
0.0
 11
104.7623886729
 21
129.1048133295
 31
0.0
  0
DIMENSION
  5
118
330
1F
100
AcDbEntity
  8
1
100
AcDbDimension
  2
*D2
 10
240.319122303088
 20
121.3418763383
 30
0.0
 11
236.569122303088
 21
117.701813451698
 31
0.0
 70
    32
  1
<>
 71
     5
 42
-1.0
 53
90.0
  3
ME10_DIM_10
100
AcDbAlignedDimension
 13
228.6579095289
 23
113.3418763383
 33
0.0
 14
228.6579095289
 24
121.3418763383
 34
0.0
 50
90.0
100
AcDbRotatedDimension
  0
DIMENSION
  5
123
330
1F
100
AcDbEntity
  8
1
100
AcDbDimension
  2
*D3
 10
250.59287138248
 20
127.8418763383466
 30
0.0
 11
246.84287138248
 21
117.245202381503
 31
0.0
 70
    32
  1
<>
 71
     5
 42
-1.0
 53
90.0
  3
ME10_DIM_11
100
AcDbAlignedDimension
 13
228.6579095289
 23
106.8418763383486
 33
0.0
 14
228.6579095289
 24
127.8418763383466
 34
0.0
 50
90.0
100
AcDbRotatedDimension
  0
DIMENSION
  5
12E
330
1F
100
AcDbEntity
  8
1
100
AcDbDimension
  2
*D4
 10
259.496787251286
 20
130.8418763383
 30
0.0
 11
255.746787251286
 21
117.930118986796
 31
0.0
 70
    32
  1
<>
 71
     5
 42
-1.0
 53
90.0
  3
ME10_DIM_12
100
AcDbAlignedDimension
 13
190.5392953204
 23
103.8418763383
 33
0.0
 14
190.5392953204
 24
130.8418763383
 34
0.0
 50
90.0
100
AcDbRotatedDimension
  0
DIMENSION
  5
139
330
1F
100
AcDbEntity
  8
1
100
AcDbDimension
  2
*D5
 10
228.6579095289
 20
164.504448146704
 30
0.0
 11
198.310903845132
 21
168.254448146704
 31
0.0
 70
    32
  1
<>
 71
     5
 42
-1.0
 53
0.00013888888889
  3
ME10_DIM_13
100
AcDbAlignedDimension
 13
169.6079095289
 23
157.3418340441
 33
0.0
 14
228.6579095289
 24
126.9174858467
 34
0.0
100
AcDbRotatedDimension
  0
DIMENSION
  5
144
330
1F
100
AcDbEntity
  8
1
100
AcDbDimension
  2
*D6
 10
228.6579095289
 20
172.723447410218
 30
0.0
 11
186.439016020057
 21
176.473447410218
 31
0.0
 70
    32
  1
<>
 71
     5
 42
-1.0
 53
0.00013888888889
  3
ME10_DIM_14
100
AcDbAlignedDimension
 13
143.6579095289
 23
157.3418763383
 33
0.0
 14
228.6579095289
 24
126.9174858467
 34
0.0
100
AcDbRotatedDimension
  0
DIMENSION
  5
14F
330
1F
100
AcDbEntity
  8
1
100
AcDbDimension
  2
*D7
 10
228.6579095289
 20
180.143377300889
 30
0.0
 11
172.512378379104
 21
183.893377300889
 31
0.0
 70
    32
  1
<>
 71
     5
 42
-1.0
 53
0.00013888888889
  3
ME10_DIM_15
100
AcDbAlignedDimension
 13
103.7579095289
 23
144.2277971384
 33
0.0
 14
228.6579095289
 24
126.9174858467
 34
0.0
100
AcDbRotatedDimension
  0
INSERT
  5
156
330
1F
100
AcDbEntity
  8
1
100
AcDbBlockReference
  2
*D8
 10
0.0
 20
0.0
 30
0.0
  0
DIMENSION
  5
161
330
1F
100
AcDbEntity
  8
1
100
AcDbDimension
  2
*D9
 10
213.3411630346091
 20
129.9459885158404
 30
0.0
 11
215.8032884694024
 21
139.0678651298949
 31
0.0
 70
    37
  1
<>
 71
     5
 42
-1.0
  3
ME10_DIM_16
100
AcDb3PointAngularDimension
 13
213.2884112301076
 23
129.0514820874678
 33
0.0
 14
192.8212413895408
 24
130.8418763383
 34
0.0
 15
190.5392953204
 25
130.8418763383
 35
0.0
  0
ENDSEC
  0
SECTION
  2
OBJECTS
  0
DICTIONARY
  5
C
330
0
100
AcDbDictionary
281
     1
  3
ACAD_GROUP
350
D
  3
ACAD_LAYOUT
350
1A
  3
ACAD_MLEADERSTYLE
350
164
  3
ACAD_MLINESTYLE
350
17
  3
ACAD_PLOTSETTINGS
350
19
  3
ACAD_PLOTSTYLENAME
350
E
  3
ACAD_SCALELIST
350
4C
  3
ACAD_VISUALSTYLE
350
2A
  3
AcDbVariableDictionary
350
162
  0
DICTIONARY
  5
D
102
{ACAD_REACTORS
330
C
102
}
330
C
100
AcDbDictionary
281
     1
  0
DICTIONARY
  5
1A
102
{ACAD_REACTORS
330
C
102
}
330
C
100
AcDbDictionary
281
     1
  3
Layout1
350
1E
  3
Layout2
350
26
  3
Model
350
22
  0
DICTIONARY
  5
164
102
{ACAD_REACTORS
330
C
102
}
330
C
100
AcDbDictionary
281
     1
  0
DICTIONARY
  5
17
102
{ACAD_REACTORS
330
C
102
}
330
C
100
AcDbDictionary
281
     1
  3
Standard
350
18
  0
DICTIONARY
  5
19
102
{ACAD_REACTORS
330
C
102
}
330
C
100
AcDbDictionary
281
     1
  0
ACDBDICTIONARYWDFLT
  5
E
102
{ACAD_REACTORS
330
C
102
}
330
C
100
AcDbDictionary
281
     1
  3
Normal
350
F
100
AcDbDictionaryWithDefault
340
F
  0
DICTIONARY
  5
4C
102
{ACAD_REACTORS
330
C
102
}
330
C
100
AcDbDictionary
281
     1
  3
A0
350
4D
  3
A1
350
4E
  3
A2
350
4F
  3
A3
350
50
  3
A4
350
51
  3
A5
350
52
  3
A6
350
53
  3
A7
350
54
  3
A8
350
55
  3
A9
350
56
  3
B0
350
57
  3
B1
350
58
  3
B2
350
59
  3
B3
350
5A
  3
B4
350
5B
  3
B5
350
5C
  3
B6
350
5D
  3
B7
350
5E
  3
B8
350
5F
  3
B9
350
60
  3
C0
350
61
  3
C1
350
62
  3
C2
350
63
  3
C3
350
64
  3
C4
350
65
  3
C5
350
66
  3
C6
350
67
  3
C7
350
68
  3
C8
350
69
  3
C9
350
6A
  3
D0
350
6B
  3
D1
350
6C
  3
D2
350
6D
  0
DICTIONARY
  5
2A
102
{ACAD_REACTORS
330
C
102
}
330
C
100
AcDbDictionary
281
     1
  3
2dWireframe
350
2F
  3
3D Hidden
350
31
  3
3dWireframe
350
30
  3
Basic
350
32
  3
Brighten
350
36
  3
ColorChange
350
3A
  3
Conceptual
350
34
  3
Dim
350
35
  3
Facepattern
350
39
  3
Flat
350
2B
  3
FlatWithEdges
350
2C
  3
Gouraud
350
2D
  3
GouraudWithEdges
350
2E
  3
Linepattern
350
38
  3
Realistic
350
33
  3
Thicken
350
37
  0
DICTIONARY
  5
162
102
{ACAD_REACTORS
330
C
102
}
330
C
100
AcDbDictionary
281
     1
  3
CANNOSCALE
350
165
  0
LAYOUT
  5
1E
102
{ACAD_REACTORS
330
1A
102
}
330
1A
100
AcDbPlotSettings
  1

  2
none_device
  4

  6

 40
0.0
 41
0.0
 42
0.0
 43
0.0
 44
0.0
 45
0.0
 46
0.0
 47
0.0
 48
0.0
 49
0.0
140
0.0
141
0.0
142
1.0
143
1.0
 70
   688
 72
     0
 73
     0
 74
     5
  7

 75
    16
147
1.0
148
0.0
149
0.0
100
AcDbLayout
  1
Layout1
 70
     1
 71
     1
 10
0.0
 20
0.0
 11
12.0
 21
9.0
 12
0.0
 22
0.0
 32
0.0
 14
1.00000000000000E+20
 24
1.00000000000000E+20
 34
1.00000000000000E+20
 15
-1.00000000000000E+20
 25
-1.00000000000000E+20
 35
-1.00000000000000E+20
146
0.0
 13
0.0
 23
0.0
 33
0.0
 16
1.0
 26
0.0
 36
0.0
 17
0.0
 27
1.0
 37
0.0
 76
     0
330
1B
  0
LAYOUT
  5
26
102
{ACAD_REACTORS
330
1A
102
}
330
1A
100
AcDbPlotSettings
  1

  2
none_device
  4

  6

 40
0.0
 41
0.0
 42
0.0
 43
0.0
 44
0.0
 45
0.0
 46
0.0
 47
0.0
 48
0.0
 49
0.0
140
0.0
141
0.0
142
1.0
143
1.0
 70
   688
 72
     0
 73
     0
 74
     5
  7

 75
    16
147
1.0
148
0.0
149
0.0
100
AcDbLayout
  1
Layout2
 70
     1
 71
     2
 10
0.0
 20
0.0
 11
0.0
 21
0.0
 12
0.0
 22
0.0
 32
0.0
 14
0.0
 24
0.0
 34
0.0
 15
0.0
 25
0.0
 35
0.0
146
0.0
 13
0.0
 23
0.0
 33
0.0
 16
1.0
 26
0.0
 36
0.0
 17
0.0
 27
1.0
 37
0.0
 76
     0
330
23
  0
LAYOUT
  5
22
102
{ACAD_REACTORS
330
1A
102
}
330
1A
100
AcDbPlotSettings
  1

  2
none_device
  4

  6

 40
0.0
 41
0.0
 42
0.0
 43
0.0
 44
0.0
 45
0.0
 46
0.0
 47
0.0
 48
0.0
 49
0.0
140
0.0
141
0.0
142
1.0
143
1.0
 70
  1712
 72
     0
 73
     0
 74
     0
  7

 75
     0
147
1.0
148
0.0
149
0.0
100
AcDbLayout
  1
Model
 70
     1
 71
     0
 10
0.0
 20
0.0
 11
12.0
 21
9.0
 12
0.0
 22
0.0
 32
0.0
 14
74.2875930348521
 24
77.3418763383
 34
0.0
 15
261.496787251286
 25
186.9147704932
 35
0.0
146
0.0
 13
0.0
 23
0.0
 33
0.0
 16
1.0
 26
0.0
 36
0.0
 17
0.0
 27
1.0
 37
0.0
 76
     0
330
1F
331
29
  0
MLINESTYLE
  5
18
102
{ACAD_REACTORS
330
17
102
}
330
17
100
AcDbMlineStyle
  2
Standard
 70
     0
  3

 62
   256
 51
90.0
 52
90.0
 71
     2
 49
0.5
 62
   256
  6
BYLAYER
 49
-0.5
 62
   256
  6
BYLAYER
  0
ACDBPLACEHOLDER
  5
F
102
{ACAD_REACTORS
330
E
102
}
330
E
  0
SCALE
  5
4D
102
{ACAD_REACTORS
330
4C
102
}
330
4C
100
AcDbScale
 70
     0
300
1:1
140
1.0
141
1.0
290
     1
  0
SCALE
  5
4E
102
{ACAD_REACTORS
330
4C
102
}
330
4C
100
AcDbScale
 70
     0
300
1:2
140
1.0
141
2.0
290
     0
  0
SCALE
  5
4F
102
{ACAD_REACTORS
330
4C
102
}
330
4C
100
AcDbScale
 70
     0
300
1:4
140
1.0
141
4.0
290
     0
  0
SCALE
  5
50
102
{ACAD_REACTORS
330
4C
102
}
330
4C
100
AcDbScale
 70
     0
300
1:5
140
1.0
141
5.0
290
     0
  0
SCALE
  5
51
102
{ACAD_REACTORS
330
4C
102
}
330
4C
100
AcDbScale
 70
     0
300
1:8
140
1.0
141
8.0
290
     0
  0
SCALE
  5
52
102
{ACAD_REACTORS
330
4C
102
}
330
4C
100
AcDbScale
 70
     0
300
1:10
140
1.0
141
10.0
290
     0
  0
SCALE
  5
53
102
{ACAD_REACTORS
330
4C
102
}
330
4C
100
AcDbScale
 70
     0
300
1:16
140
1.0
141
16.0
290
     0
  0
SCALE
  5
54
102
{ACAD_REACTORS
330
4C
102
}
330
4C
100
AcDbScale
 70
     0
300
1:20
140
1.0
141
20.0
290
     0
  0
SCALE
  5
55
102
{ACAD_REACTORS
330
4C
102
}
330
4C
100
AcDbScale
 70
     0
300
1:30
140
1.0
141
30.0
290
     0
  0
SCALE
  5
56
102
{ACAD_REACTORS
330
4C
102
}
330
4C
100
AcDbScale
 70
     0
300
1:40
140
1.0
141
40.0
290
     0
  0
SCALE
  5
57
102
{ACAD_REACTORS
330
4C
102
}
330
4C
100
AcDbScale
 70
     0
300
1:50
140
1.0
141
50.0
290
     0
  0
SCALE
  5
58
102
{ACAD_REACTORS
330
4C
102
}
330
4C
100
AcDbScale
 70
     0
300
1:100
140
1.0
141
100.0
290
     0
  0
SCALE
  5
59
102
{ACAD_REACTORS
330
4C
102
}
330
4C
100
AcDbScale
 70
     0
300
2:1
140
2.0
141
1.0
290
     0
  0
SCALE
  5
5A
102
{ACAD_REACTORS
330
4C
102
}
330
4C
100
AcDbScale
 70
     0
300
4:1
140
4.0
141
1.0
290
     0
  0
SCALE
  5
5B
102
{ACAD_REACTORS
330
4C
102
}
330
4C
100
AcDbScale
 70
     0
300
8:1
140
8.0
141
1.0
290
     0
  0
SCALE
  5
5C
102
{ACAD_REACTORS
330
4C
102
}
330
4C
100
AcDbScale
 70
     0
300
10:1
140
10.0
141
1.0
290
     0
  0
SCALE
  5
5D
102
{ACAD_REACTORS
330
4C
102
}
330
4C
100
AcDbScale
 70
     0
300
100:1
140
100.0
141
1.0
290
     0
  0
SCALE
  5
5E
102
{ACAD_REACTORS
330
4C
102
}
330
4C
100
AcDbScale
 70
     0
300
1/128" = 1'-0"
140
0.0078125
141
12.0
290
     0
  0
SCALE
  5
5F
102
{ACAD_REACTORS
330
4C
102
}
330
4C
100
AcDbScale
 70
     0
300
1/64" = 1'-0"
140
0.015625
141
12.0
290
     0
  0
SCALE
  5
60
102
{ACAD_REACTORS
330
4C
102
}
330
4C
100
AcDbScale
 70
     0
300
1/32" = 1'-0"
140
0.03125
141
12.0
290
     0
  0
SCALE
  5
61
102
{ACAD_REACTORS
330
4C
102
}
330
4C
100
AcDbScale
 70
     0
300
1/16" = 1'-0"
140
0.0625
141
12.0
290
     0
  0
SCALE
  5
62
102
{ACAD_REACTORS
330
4C
102
}
330
4C
100
AcDbScale
 70
     0
300
3/32" = 1'-0"
140
0.09375
141
12.0
290
     0
  0
SCALE
  5
63
102
{ACAD_REACTORS
330
4C
102
}
330
4C
100
AcDbScale
 70
     0
300
1/8" = 1'-0"
140
0.125
141
12.0
290
     0
  0
SCALE
  5
64
102
{ACAD_REACTORS
330
4C
102
}
330
4C
100
AcDbScale
 70
     0
300
3/16" = 1'-0"
140
0.1875
141
12.0
290
     0
  0
SCALE
  5
65
102
{ACAD_REACTORS
330
4C
102
}
330
4C
100
AcDbScale
 70
     0
300
1/4" = 1'-0"
140
0.25
141
12.0
290
     0
  0
SCALE
  5
66
102
{ACAD_REACTORS
330
4C
102
}
330
4C
100
AcDbScale
 70
     0
300
3/8" = 1'-0"
140
0.375
141
12.0
290
     0
  0
SCALE
  5
67
102
{ACAD_REACTORS
330
4C
102
}
330
4C
100
AcDbScale
 70
     0
300
1/2" = 1'-0"
140
0.5
141
12.0
290
     0
  0
SCALE
  5
68
102
{ACAD_REACTORS
330
4C
102
}
330
4C
100
AcDbScale
 70
     0
300
3/4" = 1'-0"
140
0.75
141
12.0
290
     0
  0
SCALE
  5
69
102
{ACAD_REACTORS
330
4C
102
}
330
4C
100
AcDbScale
 70
     0
300
1" = 1'-0"
140
1.0
141
12.0
290
     0
  0
SCALE
  5
6A
102
{ACAD_REACTORS
330
4C
102
}
330
4C
100
AcDbScale
 70
     0
300
1-1/2" = 1'-0"
140
1.5
141
12.0
290
     0
  0
SCALE
  5
6B
102
{ACAD_REACTORS
330
4C
102
}
330
4C
100
AcDbScale
 70
     0
300
3" = 1'-0"
140
3.0
141
12.0
290
     0
  0
SCALE
  5
6C
102
{ACAD_REACTORS
330
4C
102
}
330
4C
100
AcDbScale
 70
     0
300
6" = 1'-0"
140
6.0
141
12.0
290
     0
  0
SCALE
  5
6D
102
{ACAD_REACTORS
330
4C
102
}
330
4C
100
AcDbScale
 70
     0
300
1'-0" = 1'-0"
140
12.0
141
12.0
290
     0
  0
VISUALSTYLE
  5
2F
102
{ACAD_REACTORS
330
2A
102
}
330
2A
100
AcDbVisualStyle
  2
2dWireframe
 70
     4
 71
     0
 72
     2
 73
     0
 90
        0
 40
-0.6
 41
-30.0
 62
     5
 63
     7
 74
     1
 91
        4
 64
     7
 65
   257
 75
     1
175
     1
 42
1.0
 92
        0
 66
   257
 43
1.0
 76
     1
 77
     6
 78
     2
 67
     7
 79
     5
170
     0
171
     0
290
     0
174
     0
 93
        1
 44
0.0
173
     0
291
     0
 45
0.0
1001
ACAD
1000
AcDbSavedByObjectVersion
1070
     0
  0
VISUALSTYLE
  5
31
102
{ACAD_REACTORS
330
2A
102
}
330
2A
100
AcDbVisualStyle
  2
3D Hidden
 70
     6
 71
     1
 72
     2
 73
     2
 90
        0
 40
-0.6
 41
-30.0
 62
     5
 63
     7
 74
     2
 91
        2
 64
     7
 65
   257
 75
     2
175
     1
 42
40.0
 92
        0
 66
   257
 43
1.0
 76
     1
 77
     6
 78
     2
 67
     7
 79
     3
170
     0
171
     0
290
     0
174
     0
 93
        1
 44
0.0
173
     0
291
     0
 45
0.0
1001
ACAD
1000
AcDbSavedByObjectVersion
1070
     0
  0
VISUALSTYLE
  5
30
102
{ACAD_REACTORS
330
2A
102
}
330
2A
100
AcDbVisualStyle
  2
3dWireframe
 70
     5
 71
     0
 72
     2
 73
     0
 90
        0
 40
-0.6
 41
-30.0
 62
     5
 63
     7
 74
     1
 91
        4
 64
     7
 65
   257
 75
     1
175
     1
 42
1.0
 92
        0
 66
   257
 43
1.0
 76
     1
 77
     6
 78
     2
 67
     7
 79
     5
170
     0
171
     0
290
     0
174
     0
 93
        1
 44
0.0
173
     0
291
     0
 45
0.0
1001
ACAD
1000
AcDbSavedByObjectVersion
1070
     0
  0
VISUALSTYLE
  5
32
102
{ACAD_REACTORS
330
2A
102
}
330
2A
100
AcDbVisualStyle
  2
Basic
 70
     7
 71
     1
 72
     0
 73
     1
 90
        0
 40
-0.6
 41
-30.0
 62
     5
 63
     7
 74
     0
 91
        4
 64
     7
 65
   257
 75
     1
175
     1
 42
1.0
 92
        8
 66
     7
 43
1.0
 76
     1
 77
     6
 78
     2
 67
     7
 79
     5
170
     0
171
     0
290
     0
174
     0
 93
        1
 44
0.0
173
     0
291
     1
 45
0.0
1001
ACAD
1000
AcDbSavedByObjectVersion
1070
     0
  0
VISUALSTYLE
  5
36
102
{ACAD_REACTORS
330
2A
102
}
330
2A
100
AcDbVisualStyle
  2
Brighten
 70
    12
 71
     2
 72
     2
 73
     0
 90
        0
 40
-0.6
 41
-30.0
 62
     5
 63
     7
 74
     1
 91
        4
 64
     7
 65
   257
 75
     1
175
     1
 42
1.0
 92
        8
 66
     7
 43
1.0
 76
     1
 77
     6
 78
     2
 67
     7
 79
     5
170
     0
171
     0
290
     0
174
     0
 93
        1
 44
50.0
173
     0
291
     1
 45
0.0
1001
ACAD
1000
AcDbSavedByObjectVersion
1070
     0
  0
VISUALSTYLE
  5
3A
102
{ACAD_REACTORS
330
2A
102
}
330
2A
100
AcDbVisualStyle
  2
ColorChange
 70
    16
 71
     2
 72
     2
 73
     3
 90
        0
 40
-0.6
 41
-30.0
 62
     5
 63
     8
 74
     1
 91
        4
 64
     7
 65
   257
 75
     1
175
     1
 42
1.0
 92
        8
 66
     8
 43
1.0
 76
     1
 77
     6
 78
     2
 67
     7
 79
     5
170
     0
171
     0
290
     0
174
     0
 93
        1
 44
0.0
173
     0
291
     1
 45
0.0
1001
ACAD
1000
AcDbSavedByObjectVersion
1070
     0
  0
VISUALSTYLE
  5
34
102
{ACAD_REACTORS
330
2A
102
}
330
2A
100
AcDbVisualStyle
  2
Conceptual
 70
     9
 71
     3
 72
     2
 73
     0
 90
        0
 40
-0.6
 41
-30.0
 62
     5
 63
     7
 74
     2
 91
        2
 64
     7
 65
   257
 75
     1
175
     1
 42
40.0
 92
        8
 66
     7
 43
1.0
 76
     1
 77
     6
 78
     2
 67
     7
 79
     3
170
     0
171
     0
290
     0
174
     0
 93
        1
 44
0.0
173
     0
291
     0
 45
0.0
1001
ACAD
1000
AcDbSavedByObjectVersion
1070
     0
  0
VISUALSTYLE
  5
35
102
{ACAD_REACTORS
330
2A
102
}
330
2A
100
AcDbVisualStyle
  2
Dim
 70
    11
 71
     2
 72
     2
 73
     0
 90
        0
 40
-0.6
 41
-30.0
 62
     5
 63
     7
 74
     1
 91
        4
 64
     7
 65
   257
 75
     1
175
     1
 42
1.0
 92
        8
 66
     7
 43
1.0
 76
     1
 77
     6
 78
     2
 67
     7
 79
     5
170
     0
171
     0
290
     0
174
     0
 93
        1
 44
-50.0
173
     0
291
     1
 45
0.0
1001
ACAD
1000
AcDbSavedByObjectVersion
1070
     0
  0
VISUALSTYLE
  5
39
102
{ACAD_REACTORS
330
2A
102
}
330
2A
100
AcDbVisualStyle
  2
Facepattern
 70
    15
 71
     2
 72
     2
 73
     0
 90
        0
 40
-0.6
 41
-30.0
 62
     5
 63
     7
 74
     1
 91
        4
 64
     7
 65
   257
 75
     1
175
     1
 42
1.0
 92
        8
 66
     7
 43
1.0
 76
     1
 77
     6
 78
     2
 67
     7
 79
     5
170
     0
171
     0
290
     0
174
     0
 93
        1
 44
0.0
173
     0
291
     1
 45
0.0
1001
ACAD
1000
AcDbSavedByObjectVersion
1070
     0
  0
VISUALSTYLE
  5
2B
102
{ACAD_REACTORS
330
2A
102
}
330
2A
100
AcDbVisualStyle
  2
Flat
 70
     0
 71
     2
 72
     1
 73
     1
 90
        2
 40
-0.6
 41
30.0
 62
     5
 63
     7
 74
     0
 91
        4
 64
     7
 65
   257
 75
     1
175
     1
 42
1.0
 92
        8
 66
     7
 43
1.0
 76
     1
 77
     6
 78
     2
 67
     7
 79
     5
170
     0
171
     0
290
     0
174
     0
 93
       13
 44
0.0
173
     0
291
     1
 45
0.0
1001
ACAD
1000
AcDbSavedByObjectVersion
1070
     0
  0
VISUALSTYLE
  5
2C
102
{ACAD_REACTORS
330
2A
102
}
330
2A
100
AcDbVisualStyle
  2
FlatWithEdges
 70
     1
 71
     2
 72
     1
 73
     1
 90
        2
 40
-0.6
 41
30.0
 62
     5
 63
     7
 74
     1
 91
        4
 64
     7
 65
   257
 75
     1
175
     1
 42
1.0
 92
        0
 66
   257
 43
1.0
 76
     1
 77
     6
 78
     2
 67
     7
 79
     5
170
     0
171
     0
290
     0
174
     0
 93
       13
 44
0.0
173
     0
291
     1
 45
0.0
1001
ACAD
1000
AcDbSavedByObjectVersion
1070
     0
  0
VISUALSTYLE
  5
2D
102
{ACAD_REACTORS
330
2A
102
}
330
2A
100
AcDbVisualStyle
  2
Gouraud
 70
     2
 71
     2
 72
     2
 73
     1
 90
        2
 40
-0.6
 41
30.0
 62
     5
 63
     7
 74
     0
 91
        4
 64
     7
 65
   257
 75
     1
175
     1
 42
1.0
 92
        0
 66
     7
 43
1.0
 76
     1
 77
     6
 78
     2
 67
     7
 79
     5
170
     0
171
     0
290
     0
174
     0
 93
       13
 44
0.0
173
     0
291
     1
 45
0.0
1001
ACAD
1000
AcDbSavedByObjectVersion
1070
     0
  0
VISUALSTYLE
  5
2E
102
{ACAD_REACTORS
330
2A
102
}
330
2A
100
AcDbVisualStyle
  2
GouraudWithEdges
 70
     3
 71
     2
 72
     2
 73
     1
 90
        2
 40
-0.6
 41
30.0
 62
     5
 63
     7
 74
     1
 91
        4
 64
     7
 65
   257
 75
     1
175
     1
 42
1.0
 92
        0
 66
   257
 43
1.0
 76
     1
 77
     6
 78
     2
 67
     7
 79
     5
170
     0
171
     0
290
     0
174
     0
 93
       13
 44
0.0
173
     0
291
     1
 45
0.0
1001
ACAD
1000
AcDbSavedByObjectVersion
1070
     0
  0
VISUALSTYLE
  5
38
102
{ACAD_REACTORS
330
2A
102
}
330
2A
100
AcDbVisualStyle
  2
Linepattern
 70
    14
 71
     2
 72
     2
 73
     0
 90
        0
 40
-0.6
 41
-30.0
 62
     5
 63
     7
 74
     1
 91
        4
 64
     7
 65
   257
 75
     7
175
     7
 42
1.0
 92
        8
 66
     7
 43
1.0
 76
     1
 77
     6
 78
     2
 67
     7
 79
     5
170
     0
171
     0
290
     0
174
     0
 93
        1
 44
0.0
173
     0
291
     1
 45
0.0
1001
ACAD
1000
AcDbSavedByObjectVersion
1070
     0
  0
VISUALSTYLE
  5
33
102
{ACAD_REACTORS
330
2A
102
}
330
2A
100
AcDbVisualStyle
  2
Realistic
 70
     8
 71
     2
 72
     2
 73
     0
 90
        0
 40
-0.6
 41
-30.0
 62
     5
 63
     7
 74
     1
 91
        0
 64
     7
 65
   257
 75
     1
175
     1
 42
1.0
 92
        8
 66
     8
 43
1.0
 76
     1
 77
     6
 78
     2
 67
     7
 79
     5
170
     0
171
     0
290
     0
174
     0
 93
       13
 44
0.0
173
     0
291
     0
 45
0.0
1001
ACAD
1000
AcDbSavedByObjectVersion
1070
     0
  0
VISUALSTYLE
  5
37
102
{ACAD_REACTORS
330
2A
102
}
330
2A
100
AcDbVisualStyle
  2
Thicken
 70
    13
 71
     2
 72
     2
 73
     0
 90
        0
 40
-0.6
 41
-30.0
 62
     5
 63
     7
 74
     1
 91
        4
 64
     7
 65
   257
 75
     1
175
     1
 42
1.0
 92
       12
 66
     7
 43
1.0
 76
     1
 77
     6
 78
     2
 67
     7
 79
     5
170
     0
171
     0
290
     0
174
     0
 93
        1
 44
0.0
173
     0
291
     1
 45
0.0
1001
ACAD
1000
AcDbSavedByObjectVersion
1070
     0
  0
DICTIONARYVAR
  5
165
102
{ACAD_REACTORS
330
162
102
}
330
162
100
DictionaryVariables
280
     0
  1
1:1
  0
ENDSEC
  0
EOF
