  0
SECTION
  2
HEADER
  9
$ACADVER
  1
AC1015
  9
$ACADMAINTVER
 70
     6
  9
$DWGCODEPAGE
  3
ANSI_1252
  9
$INSBASE
 10
0.0
 20
0.0
 30
0.0
  9
$EXTMIN
 10
63.4092991448036
 20
60.3047209582
 30
0.0
  9
$EXTMAX
 10
248.639120160402
 20
172.546052522358
 30
0.0
  9
$LIMMIN
 10
0.0
 20
0.0
  9
$LIMMAX
 10
12.0
 20
9.0
  9
$ORTHOMODE
 70
     0
  9
$REGENMODE
 70
     1
  9
$FILLMODE
 70
     1
  9
$QTEXTMODE
 70
     0
  9
$MIRRTEXT
 70
     1
  9
$LTSCALE
 40
1.0
  9
$ATTMODE
 70
     1
  9
$TEXTSIZE
 40
0.2
  9
$TRACEWID
 40
0.05
  9
$TEXTSTYLE
  7
Standard
  9
$CLAYER
  8
0
  9
$CELTYPE
  6
ByLayer
  9
$CECOLOR
 62
   256
  9
$CELTSCALE
 40
1.0
  9
$DISPSILH
 70
     0
  9
$DIMSCALE
 40
1.0
  9
$DIMASZ
 40
0.18
  9
$DIMEXO
 40
0.0625
  9
$DIMDLI
 40
0.38
  9
$DIMRND
 40
0.0
  9
$DIMDLE
 40
0.0
  9
$DIMEXE
 40
0.18
  9
$DIMTP
 40
0.0
  9
$DIMTM
 40
0.0
  9
$DIMTXT
 40
0.18
  9
$DIMCEN
 40
0.09
  9
$DIMTSZ
 40
0.0
  9
$DIMTOL
 70
     0
  9
$DIMLIM
 70
     0
  9
$DIMTIH
 70
     1
  9
$DIMTOH
 70
     1
  9
$DIMSE1
 70
     0
  9
$DIMSE2
 70
     0
  9
$DIMTAD
 70
     0
  9
$DIMZIN
 70
     0
  9
$DIMBLK
  1

  9
$DIMASO
 70
     1
  9
$DIMSHO
 70
     1
  9
$DIMPOST
  1

  9
$DIMAPOST
  1

  9
$DIMALT
 70
     0
  9
$DIMALTD
 70
     2
  9
$DIMALTF
 40
25.4
  9
$DIMLFAC
 40
1.0
  9
$DIMTOFL
 70
     0
  9
$DIMTVP
 40
0.0
  9
$DIMTIX
 70
     0
  9
$DIMSOXD
 70
     0
  9
$DIMSAH
 70
     0
  9
$DIMBLK1
  1

  9
$DIMBLK2
  1

  9
$DIMSTYLE
  2
Standard
  9
$DIMCLRD
 70
     0
  9
$DIMCLRE
 70
     0
  9
$DIMCLRT
 70
     0
  9
$DIMTFAC
 40
1.0
  9
$DIMGAP
 40
0.09
  9
$DIMJUST
 70
     0
  9
$DIMSD1
 70
     0
  9
$DIMSD2
 70
     0
  9
$DIMTOLJ
 70
     1
  9
$DIMTZIN
 70
     0
  9
$DIMALTZ
 70
     0
  9
$DIMALTTZ
 70
     0
  9
$DIMUPT
 70
     0
  9
$DIMDEC
 70
     4
  9
$DIMTDEC
 70
     4
  9
$DIMALTU
 70
     2
  9
$DIMALTTD
 70
     2
  9
$DIMTXSTY
  7
Standard
  9
$DIMAUNIT
 70
     0
  9
$DIMADEC
 70
     0
  9
$DIMALTRND
 40
0.0
  9
$DIMAZIN
 70
     0
  9
$DIMDSEP
 70
    46
  9
$DIMATFIT
 70
     3
  9
$DIMFRAC
 70
     0
  9
$DIMLDRBLK
  1

  9
$DIMLUNIT
 70
     2
  9
$DIMLWD
 70
    -2
  9
$DIMLWE
 70
    -2
  9
$DIMTMOVE
 70
     0
  9
$LUNITS
 70
     2
  9
$LUPREC
 70
     4
  9
$SKETCHINC
 40
0.1
  9
$FILLETRAD
 40
0.5
  9
$AUNITS
 70
     0
  9
$AUPREC
 70
     0
  9
$MENU
  1
.
  9
$ELEVATION
 40
0.0
  9
$PELEVATION
 40
0.0
  9
$THICKNESS
 40
0.0
  9
$LIMCHECK
 70
     0
  9
$CHAMFERA
 40
0.5
  9
$CHAMFERB
 40
0.5
  9
$CHAMFERC
 40
1.0
  9
$CHAMFERD
 40
0.0
  9
$SKPOLY
 70
     0
  9
$TDCREATE
 40
2456644.717144757
  9
$TDUCREATE
 40
2456644.67547809
  9
$TDUPDATE
 40
2456644.717144769
  9
$TDUUPDATE
 40
2456644.675478102
  9
$TDINDWG
 40
0.0000000116
  9
$TDUSRTIMER
 40
0.0000000116
  9
$USRTIMER
 70
     1
  9
$ANGBASE
 50
0.0
  9
$ANGDIR
 70
     0
  9
$PDMODE
 70
     0
  9
$PDSIZE
 40
0.0
  9
$PLINEWID
 40
0.0
  9
$SPLFRAME
 70
     0
  9
$SPLINETYPE
 70
     6
  9
$SPLINESEGS
 70
     8
  9
$HANDSEED
  5
166
  9
$SURFTAB1
 70
     6
  9
$SURFTAB2
 70
     6
  9
$SURFTYPE
 70
     6
  9
$SURFU
 70
     6
  9
$SURFV
 70
     6
  9
$UCSBASE
  2

  9
$UCSNAME
  2

  9
$UCSORG
 10
0.0
 20
0.0
 30
0.0
  9
$UCSXDIR
 10
1.0
 20
0.0
 30
0.0
  9
$UCSYDIR
 10
0.0
 20
1.0
 30
0.0
  9
$UCSORTHOREF
  2

  9
$UCSORTHOVIEW
 70
     0
  9
$UCSORGTOP
 10
0.0
 20
0.0
 30
0.0
  9
$UCSORGBOTTOM
 10
0.0
 20
0.0
 30
0.0
  9
$UCSORGLEFT
 10
0.0
 20
0.0
 30
0.0
  9
$UCSORGRIGHT
 10
0.0
 20
0.0
 30
0.0
  9
$UCSORGFRONT
 10
0.0
 20
0.0
 30
0.0
  9
$UCSORGBACK
 10
0.0
 20
0.0
 30
0.0
  9
$PUCSBASE
  2

  9
$PUCSNAME
  2

  9
$PUCSORG
 10
0.0
 20
0.0
 30
0.0
  9
$PUCSXDIR
 10
1.0
 20
0.0
 30
0.0
  9
$PUCSYDIR
 10
0.0
 20
1.0
 30
0.0
  9
$PUCSORTHOREF
  2

  9
$PUCSORTHOVIEW
 70
     0
  9
$PUCSORGTOP
 10
0.0
 20
0.0
 30
0.0
  9
$PUCSORGBOTTOM
 10
0.0
 20
0.0
 30
0.0
  9
$PUCSORGLEFT
 10
0.0
 20
0.0
 30
0.0
  9
$PUCSORGRIGHT
 10
0.0
 20
0.0
 30
0.0
  9
$PUCSORGFRONT
 10
0.0
 20
0.0
 30
0.0
  9
$PUCSORGBACK
 10
0.0
 20
0.0
 30
0.0
  9
$USERI1
 70
     0
  9
$USERI2
 70
     0
  9
$USERI3
 70
     0
  9
$USERI4
 70
     0
  9
$USERI5
 70
     0
  9
$USERR1
 40
16.5
  9
$USERR2
 40
0.0
  9
$USERR3
 40
0.0
  9
$USERR4
 40
0.0
  9
$USERR5
 40
0.0
  9
$WORLDVIEW
 70
     1
  9
$SHADEDGE
 70
     3
  9
$SHADEDIF
 70
    70
  9
$TILEMODE
 70
     1
  9
$MAXACTVP
 70
    64
  9
$PINSBASE
 10
0.0
 20
0.0
 30
0.0
  9
$PLIMCHECK
 70
     0
  9
$PEXTMIN
 10
1.00000000000000E+20
 20
1.00000000000000E+20
 30
1.00000000000000E+20
  9
$PEXTMAX
 10
-1.00000000000000E+20
 20
-1.00000000000000E+20
 30
-1.00000000000000E+20
  9
$PLIMMIN
 10
0.0
 20
0.0
  9
$PLIMMAX
 10
12.0
 20
9.0
  9
$UNITMODE
 70
     0
  9
$VISRETAIN
 70
     1
  9
$PLINEGEN
 70
     0
  9
$PSLTSCALE
 70
     1
  9
$TREEDEPTH
 70
  3020
  9
$CMLSTYLE
  2
Standard
  9
$CMLJUST
 70
     0
  9
$CMLSCALE
 40
1.0
  9
$PROXYGRAPHICS
 70
     1
  9
$MEASUREMENT
 70
     1
  9
$CELWEIGHT
370
    -1
  9
$ENDCAPS
280
     0
  9
$JOINSTYLE
280
     0
  9
$LWDISPLAY
290
     0
  9
$INSUNITS
 70
     1
  9
$HYPERLINKBASE
  1

  9
$STYLESHEET
  1

  9
$XEDIT
290
     1
  9
$CEPSNTYPE
380
     0
  9
$PSTYLEMODE
290
     1
  9
$FINGERPRINTGUID
  2
{701961E6-D3E0-4D16-9C2D-0DF3287E5439}
  9
$VERSIONGUID
  2
{FAEB1C32-E019-11D5-929B-00C0DF256EC4}
  9
$EXTNAMES
290
     1
  9
$PSVPSCALE
 40
0.0
  9
$OLESTARTUP
290
     0
  0
ENDSEC
  0
SECTION
  2
CLASSES
  0
CLASS
  1
ACDBDICTIONARYWDFLT
  2
AcDbDictionaryWithDefault
  3
ObjectDBX Classes
 90
        0
280
     0
281
     0
  0
CLASS
  1
VISUALSTYLE
  2
AcDbVisualStyle
  3
ObjectDBX Classes
 90
     4095
280
     0
281
     0
  0
CLASS
  1
SCALE
  2
AcDbScale
  3
ObjectDBX Classes
 90
     1153
280
     0
281
     0
  0
CLASS
  1

  2
exOdDbPolyline
  3

 90
        0
280
     0
281
     1
  0
CLASS
  1

  2
exOdDbCircle
  3

 90
        0
280
     0
281
     1
  0
CLASS
  1

  2
exOdDbSpline
  3

 90
        0
280
     0
281
     1
  0
CLASS
  1
DICTIONARYVAR
  2
AcDbDictionaryVar
  3
ObjectDBX Classes
 90
        0
280
     0
281
     0
  0
CLASS
  1
ACDBPLACEHOLDER
  2
AcDbPlaceHolder
  3
ObjectDBX Classes
 90
        0
280
     0
281
     0
  0
CLASS
  1
LAYOUT
  2
AcDbLayout
  3
ObjectDBX Classes
 90
        0
280
     0
281
     0
  0
ENDSEC
  0
SECTION
  2
TABLES
  0
TABLE
  2
VPORT
  5
8
330
0
100
AcDbSymbolTable
 70
     1
  0
VPORT
  5
29
330
8
100
AcDbSymbolTableRecord
100
AcDbViewportTableRecord
  2
*Active
 70
     0
 10
0.0
 20
0.0
 11
1.0
 21
1.0
 12
156.0242096526028
 22
116.425386740279
 13
0.0
 23
0.0
 14
0.5
 24
0.5
 15
0.5
 25
0.5
 16
0.0
 26
0.0
 36
1.0
 17
0.0
 27
0.0
 37
0.0
 40
127.1326682402325
 41
1.60267857142857
 42
50.0
 43
0.0
 44
0.0
 50
0.0
 51
0.0
 71
     0
 72
   100
 73
     1
 74
     3
 75
     0
 76
     0
 77
     0
 78
     0
281
     0
 65
     1
110
0.0
120
0.0
130
0.0
111
1.0
121
0.0
131
0.0
112
0.0
122
1.0
132
0.0
 79
     0
146
0.0
  0
ENDTAB
  0
TABLE
  2
LTYPE
  5
5
330
0
100
AcDbSymbolTable
 70
     9
  0
LTYPE
  5
14
330
5
100
AcDbSymbolTableRecord
100
AcDbLinetypeTableRecord
  2
ByBlock
 70
     0
  3

 72
    65
 73
     0
 40
0.0
  0
LTYPE
  5
15
330
5
100
AcDbSymbolTableRecord
100
AcDbLinetypeTableRecord
  2
ByLayer
 70
     0
  3

 72
    65
 73
     0
 40
0.0
  0
LTYPE
  5
16
330
5
100
AcDbSymbolTableRecord
100
AcDbLinetypeTableRecord
  2
Continuous
 70
     0
  3
Solid line
 72
    65
 73
     0
 40
0.0
  0
LTYPE
  5
3B
330
5
100
AcDbSymbolTableRecord
100
AcDbLinetypeTableRecord
  2
DASHED
 70
     0
  3
Dashed
 72
    65
 73
     2
 40
15.0
 49
7.0
 74
     0
 49
-8.0
 74
     0
  0
LTYPE
  5
3C
330
5
100
AcDbSymbolTableRecord
100
AcDbLinetypeTableRecord
  2
DOTTED
 70
     0
  3
Dotted
 72
    65
 73
     2
 40
1.0
 49
0.0
 74
     0
 49
-1.0
 74
     0
  0
LTYPE
  5
3D
330
5
100
AcDbSymbolTableRecord
100
AcDbLinetypeTableRecord
  2
DOT_CENTER
 70
     0
  3
Dot_Center
 72
    65
 73
     4
 40
14.0
 49
12.0
 74
     0
 49
-1.0
 74
     0
 49
0.0
 74
     0
 49
-1.0
 74
     0
  0
LTYPE
  5
3E
330
5
100
AcDbSymbolTableRecord
100
AcDbLinetypeTableRecord
  2
LONG_DASHED
 70
     0
  3
Long_Dashed
 72
    65
 73
     2
 40
15.0
 49
10.0
 74
     0
 49
-5.0
 74
     0
  0
LTYPE
  5
3F
330
5
100
AcDbSymbolTableRecord
100
AcDbLinetypeTableRecord
  2
DASH_CENTER
 70
     0
  3
Dash_Center
 72
    65
 73
     4
 40
14.0
 49
11.0
 74
     0
 49
-1.0
 74
     0
 49
1.0
 74
     0
 49
-1.0
 74
     0
  0
LTYPE
  5
40
330
5
100
AcDbSymbolTableRecord
100
AcDbLinetypeTableRecord
  2
PHANTOM
 70
     0
  3
Phantom
 72
    65
 73
     6
 40
13.0
 49
10.0
 74
     0
 49
-1.0
 74
     0
 49
0.0
 74
     0
 49
-1.0
 74
     0
 49
0.0
 74
     0
 49
-1.0
 74
     0
  0
LTYPE
  5
41
330
5
100
AcDbSymbolTableRecord
100
AcDbLinetypeTableRecord
  2
CENTER_DASH_DASH
 70
     0
  3
Center_Dash_Dash
 72
    65
 73
     6
 40
14.0
 49
9.0
 74
     0
 49
-1.0
 74
     0
 49
1.0
 74
     0
 49
-1.0
 74
     0
 49
1.0
 74
     0
 49
-1.0
 74
     0
  0
LTYPE
  5
42
330
5
100
AcDbSymbolTableRecord
100
AcDbLinetypeTableRecord
  2
HIDDEN
 70
     0
  3
HIDDEN
 72
    65
 73
     2
 40
4.0
 49
2.0
 74
     0
 49
-2.0
 74
     0
  0
ENDTAB
  0
TABLE
  2
LAYER
  5
2
330
0
100
AcDbSymbolTable
 70
     7
  0
LAYER
  5
10
330
2
100
AcDbSymbolTableRecord
100
AcDbLayerTableRecord
  2
0
 70
     0
 62
     7
  6
Continuous
370
    -3
390
F
  0
LAYER
  5
43
330
2
100
AcDbSymbolTableRecord
100
AcDbLayerTableRecord
  2
1
 70
     0
 62
     7
  6
Continuous
370
    -3
390
F
  0
LAYER
  5
44
330
2
100
AcDbSymbolTableRecord
100
AcDbLayerTableRecord
  2
BEZUGSACHSEN
 70
     0
 62
     7
  6
Continuous
370
    -3
390
F
  0
LAYER
  5
45
330
2
100
AcDbSymbolTableRecord
100
AcDbLayerTableRecord
  2
BOHRUNGEN
 70
     0
 62
     7
  6
Continuous
370
    -3
390
F
  0
LAYER
  5
46
330
2
100
AcDbSymbolTableRecord
100
AcDbLayerTableRecord
  2
FASEN
 70
     0
 62
     7
  6
Continuous
370
    -3
390
F
  0
LAYER
  5
47
330
2
100
AcDbSymbolTableRecord
100
AcDbLayerTableRecord
  2
RUNDUNGEN
 70
     0
 62
     7
  6
Continuous
370
    -3
390
F
  0
LAYER
  5
48
330
2
100
AcDbSymbolTableRecord
100
AcDbLayerTableRecord
  2
TEIL_STARTBEZUEGE
 70
     0
 62
     7
  6
Continuous
370
    -3
390
F
  0
ENDTAB
  0
TABLE
  2
STYLE
  5
3
330
0
100
AcDbSymbolTable
 70
     2
  0
STYLE
  5
11
330
3
100
AcDbSymbolTableRecord
100
AcDbTextStyleTableRecord
  2
Standard
 70
     0
 40
0.0
 41
1.0
 50
0.0
 71
     0
 42
0.2
  3
txt
  4

  0
STYLE
  5
6F
330
3
100
AcDbSymbolTableRecord
100
AcDbTextStyleTableRecord
  2
CONVERTER_11
 70
     0
 40
0.0
 41
0.72
 50
0.0
 71
     0
 42
0.2
  3
txt.shx
  4

  0
ENDTAB
  0
TABLE
  2
VIEW
  5
6
330
0
100
AcDbSymbolTable
 70
     0
  0
ENDTAB
  0
TABLE
  2
UCS
  5
7
330
0
100
AcDbSymbolTable
 70
     0
  0
ENDTAB
  0
TABLE
  2
APPID
  5
9
330
0
100
AcDbSymbolTable
 70
     1
  0
APPID
  5
12
330
9
100
AcDbSymbolTableRecord
100
AcDbRegAppTableRecord
  2
ACAD
 70
     0
  0
ENDTAB
  0
TABLE
  2
DIMSTYLE
  5
A
330
0
100
AcDbSymbolTable
 70
     8
100
AcDbDimStyleTable
  0
DIMSTYLE
105
27
330
A
100
AcDbSymbolTableRecord
100
AcDbDimStyleTableRecord
  2
Standard
 70
     0
340
11
  0
DIMSTYLE
105
117
102
{ACAD_REACTORS
330
118
102
}
330
A
100
AcDbSymbolTableRecord
100
AcDbDimStyleTableRecord
  2
ME10_DIM_10
 70
     0
  3
\U+2300<>
 41
3.5
 42
2.0
 44
2.0
 71
     1
 73
     0
 74
     0
 77
     1
 78
     8
140
3.5
146
0.7
147
2.0
172
     1
173
     1
176
     2
177
     2
178
     3
271
     2
272
     0
340
6F
  0
DIMSTYLE
105
122
102
{ACAD_REACTORS
330
123
102
}
330
A
100
AcDbSymbolTableRecord
100
AcDbDimStyleTableRecord
  2
ME10_DIM_11
 70
     0
  3
\U+2300<>
 41
3.5
 42
2.0
 44
2.0
 71
     1
 73
     0
 74
     0
 77
     1
 78
     8
140
3.5
146
0.7
147
2.0
172
     1
173
     1
176
     2
177
     2
178
     3
271
     2
272
     0
340
6F
  0
DIMSTYLE
105
12D
102
{ACAD_REACTORS
330
12E
102
}
330
A
100
AcDbSymbolTableRecord
100
AcDbDimStyleTableRecord
  2
ME10_DIM_12
 70
     0
  3
\U+2300<>
 41
3.5
 42
2.0
 44
2.0
 71
     1
 73
     0
 74
     0
 77
     1
 78
     8
140
3.5
146
0.7
147
2.0
172
     1
173
     1
176
     2
177
     2
178
     3
271
     2
272
     0
340
6F
  0
DIMSTYLE
105
138
102
{ACAD_REACTORS
330
139
102
}
330
A
100
AcDbSymbolTableRecord
100
AcDbDimStyleTableRecord
  2
ME10_DIM_13
 70
     0
  3
<>
 41
3.5
 42
2.0
 44
2.0
 71
     1
 73
     0
 74
     0
 77
     1
 78
     8
140
3.5
146
0.7
147
2.0
172
     1
173
     1
176
     2
177
     2
178
     3
271
     0
272
     0
340
6F
  0
DIMSTYLE
105
143
102
{ACAD_REACTORS
330
144
102
}
330
A
100
AcDbSymbolTableRecord
100
AcDbDimStyleTableRecord
  2
ME10_DIM_14
 70
     0
  3
<>
 41
3.5
 42
2.0
 44
2.0
 71
     1
 73
     0
 74
     0
 77
     1
 78
     8
140
3.5
146
0.7
147
2.0
172
     1
173
     1
176
     2
177
     2
178
     3
271
     2
272
     0
340
6F
  0
DIMSTYLE
105
14E
102
{ACAD_REACTORS
330
14F
102
}
330
A
100
AcDbSymbolTableRecord
100
AcDbDimStyleTableRecord
  2
ME10_DIM_15
 70
     0
  3
<>
 41
3.5
 42
2.0
 44
2.0
 71
     1
 73
     0
 74
     0
 77
     1
 78
     8
140
3.5
146
0.7
147
2.0
172
     1
173
     1
176
     2
177
     2
178
     3
271
     0
272
     0
340
6F
  0
DIMSTYLE
105
160
102
{ACAD_REACTORS
330
161
102
}
330
A
100
AcDbSymbolTableRecord
100
AcDbDimStyleTableRecord
  2
ME10_DIM_16
 70
     0
  3
<>
 41
3.5
 42
2.0
 44
2.0
 71
     1
 73
     0
 74
     0
 77
     1
 78
     8
140
3.5
146
0.7
147
2.0
172
     1
173
     1
176
     2
177
     2
178
     3
271
     2
272
     0
340
6F
  0
ENDTAB
  0
TABLE
  2
BLOCK_RECORD
  5
1
330
0
100
AcDbSymbolTable
 70
    10
  0
BLOCK_RECORD
  5
1F
330
1
100
AcDbSymbolTableRecord
100
AcDbBlockTableRecord
  2
*Model_Space
340
22
  0
BLOCK_RECORD
  5
1B
330
1
100
AcDbSymbolTableRecord
100
AcDbBlockTableRecord
  2
*Paper_Space
340
1E
  0
BLOCK_RECORD
  5
23
330
1
100
AcDbSymbolTableRecord
100
AcDbBlockTableRecord
  2
*Paper_Space0
340
26
  0
BLOCK_RECORD
  5
49
330
1
100
AcDbSymbolTableRecord
100
AcDbBlockTableRecord
  2
Urheberrecht_DE-EN
340
0
102
{BLKREFS
331
6E
102
}
  0
BLOCK_RECORD
  5
10C
330
1
100
AcDbSymbolTableRecord
100
AcDbBlockTableRecord
  2
*D2
340
0
  0
BLOCK_RECORD
  5
119
330
1
100
AcDbSymbolTableRecord
100
AcDbBlockTableRecord
  2
*D3
340
0
  0
BLOCK_RECORD
  5
124
330
1
100
AcDbSymbolTableRecord
100
AcDbBlockTableRecord
  2
*D4
340
0
  0
BLOCK_RECORD
  5
12F
330
1
100
AcDbSymbolTableRecord
100
AcDbBlockTableRecord
  2
*D5
340
0
  0
BLOCK_RECORD
  5
13A
330
1
100
AcDbSymbolTableRecord
100
AcDbBlockTableRecord
  2
*D6
340
0
  0
BLOCK_RECORD
  5
145
330
1
100
AcDbSymbolTableRecord
100
AcDbBlockTableRecord
  2
*D7
340
0
  0
BLOCK_RECORD
  5
150
330
1
100
AcDbSymbolTableRecord
100
AcDbBlockTableRecord
  2
*D8
340
0
102
{BLKREFS
331
156
102
}
  0
BLOCK_RECORD
  5
157
330
1
100
AcDbSymbolTableRecord
100
AcDbBlockTableRecord
  2
*D9
340
0
  0
ENDTAB
  0
ENDSEC
  0
SECTION
  2
BLOCKS
  0
BLOCK
  5
20
330
1F
100
AcDbEntity
  8
0
100
AcDbBlockBegin
  2
*Model_Space
 70
     0
 10
0.0
 20
0.0
 30
0.0
  3
*Model_Space
  1

  0
ENDBLK
  5
21
330
1F
100
AcDbEntity
  8
0
100
AcDbBlockEnd
  0
BLOCK
  5
1C
330
1B
100
AcDbEntity
 67
     1
  8
0
100
AcDbBlockBegin
  2
*Paper_Space
 70
     0
 10
0.0
 20
0.0
 30
0.0
  3
*Paper_Space
  1

  0
ENDBLK
  5
1D
330
1B
100
AcDbEntity
 67
     1
  8
0
100
AcDbBlockEnd
  0
BLOCK
  5
24
330
23
100
AcDbEntity
  8
0
100
AcDbBlockBegin
  2
*Paper_Space0
 70
     0
 10
0.0
 20
0.0
 30
0.0
  3
*Paper_Space0
  1

  0
ENDBLK
  5
25
330
23
100
AcDbEntity
  8
0
100
AcDbBlockEnd
  0
BLOCK
  5
4A
330
49
100
AcDbEntity
  8
0
100
AcDbBlockBegin
  2
Urheberrecht_DE-EN
 70
     0
 10
77.4092991448036
 20
120.066052522358
 30
0.0
  3
Urheberrecht_DE-EN
  1

  0
MTEXT
  5
70
330
49
100
AcDbEntity
  8
1
 62
     1
100
AcDbMText
 10
77.4092991448036
 20
120.066052522358
 30
0.0
 40
2.0
 41
0.0
 71
     7
 72
     1
  1
We own the copyright of this document. It \Pdetermined and may neither be copied or \Pmade accessible to outsiders without our\Ppermission.
  7
CONVERTER_11
 11
0.0
 21
1.0
 31
0.0
 73
     1
 44
0.90036014405762
  0
MTEXT
  5
71
330
49
100
AcDbEntity
  8
1
 62
     1
100
AcDbMText
 10
77.4092991448036
 20
63.77666560505181
 30
0.0
 40
2.0
 41
0.0
 71
     7
 72
     1
  1
F\U+00fcr diese Unterlage behalten wir das Ur-\Pheberrecht. Sie darf nur f\U+00fcr den von uns \Pbestimmten Zweck benutzt und ohne unsere \PZustimmung weder vervielf\U+00e4ltigt noch\PDritten zug\U+00e4nglich gemacht werden.
  7
CONVERTER_11
 11
0.0
 21
1.0
 31
0.0
 73
     1
 44
0.90036014405762
  0
ENDBLK
  5
4B
330
49
100
AcDbEntity
  8
0
100
AcDbBlockEnd
  0
BLOCK
  5
115
330
10C
100
AcDbEntity
  8
0
100
AcDbBlockBegin
  2
*D2
 70
     1
 10
0.0
 20
0.0
 30
0.0
  3
*D2
  1

  0
LINE
  5
10D
330
10C
100
AcDbEntity
  8
1
  6
Continuous
 62
     2
100
AcDbLine
 10
228.351048745107
 20
90.3047209582
 30
0.0
 11
228.351048745107
 21
97.3047209582
 31
0.0
  0
LINE
  5
10E
330
10C
100
AcDbEntity
  8
1
  6
Continuous
 62
     2
100
AcDbLine
 10
228.351048745107
 20
97.3047209582
 30
0.0
 11
228.351048745107
 21
103.3047209582
 31
0.0
  0
LINE
  5
10F
330
10C
100
AcDbEntity
  8
1
  6
Continuous
 62
     2
100
AcDbLine
 10
228.351048745107
 20
103.3047209582
 30
0.0
 11
228.351048745107
 21
110.49810305106
 31
0.0
  0
LINE
  5
110
330
10C
100
AcDbEntity
  8
1
  6
Continuous
 62
     2
100
AcDbLine
 10
220.0599939775
 20
97.3047209582
 30
0.0
 11
230.351048745107
 21
97.3047209582
 31
0.0
  0
LINE
  5
111
330
10C
100
AcDbEntity
  8
1
  6
Continuous
 62
     2
100
AcDbLine
 10
220.0599939775
 20
103.3047209582
 30
0.0
 11
230.351048745107
 21
103.3047209582
 31
0.0
  0
SOLID
  5
112
330
10C
100
AcDbEntity
  8
1
 62
     2
100
AcDbTrace
 10
228.8118324866629
 20
93.8047209582
 30
0.0
 11
227.8902650035511
 21
93.8047209582
 31
0.0
 12
228.351048745107
 22
97.3047209582
 32
0.0
 13
228.351048745107
 23
97.3047209582
 33
0.0
  0
SOLID
  5
113
330
10C
100
AcDbEntity
  8
1
 62
     2
100
AcDbTrace
 10
227.8902650035511
 20
106.8047209582
 30
0.0
 11
228.8118324866629
 21
106.8047209582
 31
0.0
 12
228.351048745107
 22
103.3047209582
 32
0.0
 13
228.351048745107
 23
103.3047209582
 33
0.0
  0
MTEXT
  5
114
330
10C
100
AcDbEntity
  8
1
 62
     3
100
AcDbMText
 10
226.351048745107
 20
100.20810305106
 30
0.0
 40
3.5
 41
0.0
 71
     7
 72
     1
  1
\C3;%%c\C3;\C3;6\C2;\H2.45;\S^ ;\C3;
  7
CONVERTER_11
 11
0.0
 21
1.0
 31
0.0
 73
     1
 44
0.60024009603842
  0
ENDBLK
  5
116
330
10C
100
AcDbEntity
  8
0
100
AcDbBlockEnd
  0
BLOCK
  5
120
330
119
100
AcDbEntity
  8
0
100
AcDbBlockBegin
  2
*D3
 70
     1
 10
0.0
 20
0.0
 30
0.0
  3
*D3
  1

  0
LINE
  5
11A
330
119
100
AcDbEntity
  8
1
  6
Continuous
 62
     2
100
AcDbLine
 10
238.51108842027
 20
110.8047209582466
 30
0.0
 11
238.51108842027
 21
89.80472095824862
 31
0.0
  0
LINE
  5
11B
330
119
100
AcDbEntity
  8
1
  6
Continuous
 62
     2
100
AcDbLine
 10
220.0599939775
 20
110.8047209582466
 30
0.0
 11
240.51108842027
 21
110.8047209582466
 31
0.0
  0
LINE
  5
11C
330
119
100
AcDbEntity
  8
1
  6
Continuous
 62
     2
100
AcDbLine
 10
220.0599939775
 20
89.80472095824862
 30
0.0
 11
240.51108842027
 21
89.80472095824862
 31
0.0
  0
SOLID
  5
11D
330
119
100
AcDbEntity
  8
1
 62
     2
100
AcDbTrace
 10
238.9718721618259
 20
107.3047209582466
 30
0.0
 11
238.0503046787141
 21
107.3047209582466
 31
0.0
 12
238.51108842027
 22
110.8047209582466
 32
0.0
 13
238.51108842027
 23
110.8047209582466
 33
0.0
  0
SOLID
  5
11E
330
119
100
AcDbEntity
  8
1
 62
     2
100
AcDbTrace
 10
238.0503046787141
 20
93.30472095824862
 30
0.0
 11
238.9718721618259
 21
93.30472095824862
 31
0.0
 12
238.51108842027
 22
89.80472095824862
 32
0.0
 13
238.51108842027
 23
89.80472095824862
 33
0.0
  0
MTEXT
  5
11F
330
119
100
AcDbEntity
  8
1
 62
     3
100
AcDbMText
 10
236.51108842027
 20
91.917407289273
 30
0.0
 40
3.5
 41
0.0
 71
     7
 72
     1
  1
\C3;%%c\C3;\C3;21\C2;\H2.45;\S^ ;\C3;
  7
CONVERTER_11
 11
0.0
 21
1.0
 31
0.0
 73
     1
 44
0.60024009603842
  0
ENDBLK
  5
121
330
119
100
AcDbEntity
  8
0
100
AcDbBlockEnd
  0
BLOCK
  5
12B
330
124
100
AcDbEntity
  8
0
100
AcDbBlockBegin
  2
*D4
 70
     1
 10
0.0
 20
0.0
 30
0.0
  3
*D4
  1

  0
LINE
  5
125
330
124
100
AcDbEntity
  8
1
  6
Continuous
 62
     2
100
AcDbLine
 10
246.639120160402
 20
113.8047209582
 30
0.0
 11
246.639120160402
 21
86.8047209582
 31
0.0
  0
LINE
  5
126
330
124
100
AcDbEntity
  8
1
  6
Continuous
 62
     2
100
AcDbLine
 10
181.941379769
 20
113.8047209582
 30
0.0
 11
248.639120160402
 21
113.8047209582
 31
0.0
  0
LINE
  5
127
330
124
100
AcDbEntity
  8
1
  6
Continuous
 62
     2
100
AcDbLine
 10
181.941379769
 20
86.8047209582
 30
0.0
 11
248.639120160402
 21
86.8047209582
 31
0.0
  0
SOLID
  5
128
330
124
100
AcDbEntity
  8
1
 62
     2
100
AcDbTrace
 10
247.0999039019579
 20
110.3047209582
 30
0.0
 11
246.1783364188461
 21
110.3047209582
 31
0.0
 12
246.639120160402
 22
113.8047209582
 32
0.0
 13
246.639120160402
 23
113.8047209582
 33
0.0
  0
SOLID
  5
129
330
124
100
AcDbEntity
  8
1
 62
     2
100
AcDbTrace
 10
246.1783364188461
 20
90.3047209582
 30
0.0
 11
247.0999039019579
 21
90.3047209582
 31
0.0
 12
246.639120160402
 22
86.8047209582
 32
0.0
 13
246.639120160402
 23
86.8047209582
 33
0.0
  0
MTEXT
  5
12A
330
124
100
AcDbEntity
  8
1
 62
     3
100
AcDbMText
 10
244.639120160402
 20
91.497407289273
 30
0.0
 40
3.5
 41
0.0
 71
     7
 72
     1
  1
\C3;%%c\C3;\C3;27\C2;\H2.45;\S^ ;\C3;
  7
CONVERTER_11
 11
0.0
 21
1.0
 31
0.0
 73
     1
 44
0.60024009603842
  0
ENDBLK
  5
12C
330
124
100
AcDbEntity
  8
0
100
AcDbBlockEnd
  0
BLOCK
  5
136
330
12F
100
AcDbEntity
  8
0
100
AcDbBlockBegin
  2
*D5
 70
     1
 10
0.0
 20
0.0
 30
0.0
  3
*D5
  1

  0
LINE
  5
130
330
12F
100
AcDbEntity
  8
1
  6
Continuous
 62
     2
100
AcDbLine
 10
218.0599939775
 20
147.991704432819
 30
0.0
 11
159.0099939775
 21
147.991704432819
 31
0.0
  0
LINE
  5
131
330
12F
100
AcDbEntity
  8
1
  6
Continuous
 62
     2
100
AcDbLine
 10
218.0599939775
 20
111.8803304666
 30
0.0
 11
218.0599939775
 21
149.991704432819
 31
0.0
  0
LINE
  5
132
330
12F
100
AcDbEntity
  8
1
  6
Continuous
 62
     2
100
AcDbLine
 10
159.0099939775
 20
142.304678664
 30
0.0
 11
159.0099939775
 21
149.991704432819
 31
0.0
  0
SOLID
  5
133
330
12F
100
AcDbEntity
  8
1
 62
     2
100
AcDbTrace
 10
214.5599939775
 20
147.5309206912631
 30
0.0
 11
214.5599939775
 21
148.4524881743749
 31
0.0
 12
218.0599939775
 22
147.991704432819
 32
0.0
 13
218.0599939775
 23
147.991704432819
 33
0.0
  0
SOLID
  5
134
330
12F
100
AcDbEntity
  8
1
 62
     2
100
AcDbTrace
 10
162.5099939775
 20
148.4524881743749
 30
0.0
 11
162.5099939775
 21
147.5309206912631
 31
0.0
 12
159.0099939775
 22
147.991704432819
 32
0.0
 13
159.0099939775
 23
147.991704432819
 33
0.0
  0
MTEXT
  5
135
330
12F
100
AcDbEntity
  8
1
 62
     3
100
AcDbMText
 10
186.175336693071
 20
149.991704432819
 30
0.0
 40
3.5
 41
0.0
 71
     7
 72
     1
  1
\C3;\C3;\C3;59\C2;\H2.45;\S^ ;\C3;
  7
CONVERTER_11
 11
0.9999999999970619
 21
2.424068405545306E-6
 31
0.0
 73
     1
 44
0.60024009603842
  0
ENDBLK
  5
137
330
12F
100
AcDbEntity
  8
0
100
AcDbBlockEnd
  0
BLOCK
  5
141
330
13A
100
AcDbEntity
  8
0
100
AcDbBlockBegin
  2
*D6
 70
     1
 10
0.0
 20
0.0
 30
0.0
  3
*D6
  1

  0
LINE
  5
13B
330
13A
100
AcDbEntity
  8
1
  6
Continuous
 62
     2
100
AcDbLine
 10
218.0599939775
 20
156.006846843226
 30
0.0
 11
133.0599939775
 21
156.006846843226
 31
0.0
  0
LINE
  5
13C
330
13A
100
AcDbEntity
  8
1
  6
Continuous
 62
     2
100
AcDbLine
 10
218.0599939775
 20
111.8803304666
 30
0.0
 11
218.0599939775
 21
158.006846843226
 31
0.0
  0
LINE
  5
13D
330
13A
100
AcDbEntity
  8
1
  6
Continuous
 62
     2
100
AcDbLine
 10
133.0599939775
 20
142.3047209582
 30
0.0
 11
133.0599939775
 21
158.006846843226
 31
0.0
  0
SOLID
  5
13E
330
13A
100
AcDbEntity
  8
1
 62
     2
100
AcDbTrace
 10
214.5599939775
 20
155.5460631016701
 30
0.0
 11
214.5599939775
 21
156.4676305847819
 31
0.0
 12
218.0599939775
 22
156.006846843226
 32
0.0
 13
218.0599939775
 23
156.006846843226
 33
0.0
  0
SOLID
  5
13F
330
13A
100
AcDbEntity
  8
1
 62
     2
100
AcDbTrace
 10
136.5599939775
 20
156.4676305847819
 30
0.0
 11
136.5599939775
 21
155.5460631016701
 31
0.0
 12
133.0599939775
 22
156.006846843226
 32
0.0
 13
133.0599939775
 23
156.006846843226
 33
0.0
  0
MTEXT
  5
140
330
13A
100
AcDbEntity
  8
1
 62
     3
100
AcDbMText
 10
173.983289082874
 20
158.006846843226
 30
0.0
 40
3.5
 41
0.0
 71
     7
 72
     1
  1
\C3;\C3;\C3;85\C2;\H2.45;\S^ ;\C3;
  7
CONVERTER_11
 11
0.9999999999970619
 21
2.424068405545306E-6
 31
0.0
 73
     1
 44
0.60024009603842
  0
ENDBLK
  5
142
330
13A
100
AcDbEntity
  8
0
100
AcDbBlockEnd
  0
BLOCK
  5
14C
330
145
100
AcDbEntity
  8
0
100
AcDbBlockBegin
  2
*D7
 70
     1
 10
0.0
 20
0.0
 30
0.0
  3
*D7
  1

  0
LINE
  5
146
330
145
100
AcDbEntity
  8
1
  6
Continuous
 62
     2
100
AcDbLine
 10
218.0599939775
 20
163.683321264461
 30
0.0
 11
93.1599939775
 21
163.683321264461
 31
0.0
  0
LINE
  5
147
330
145
100
AcDbEntity
  8
1
  6
Continuous
 62
     2
100
AcDbLine
 10
218.0599939775
 20
111.8803304666
 30
0.0
 11
218.0599939775
 21
165.683321264461
 31
0.0
  0
LINE
  5
148
330
145
100
AcDbEntity
  8
1
  6
Continuous
 62
     2
100
AcDbLine
 10
93.1599939775
 20
129.1906417583
 30
0.0
 11
93.1599939775
 21
165.683321264461
 31
0.0
  0
SOLID
  5
149
330
145
100
AcDbEntity
  8
1
 62
     2
100
AcDbTrace
 10
214.5599939775
 20
163.2225375229051
 30
0.0
 11
214.5599939775
 21
164.1441050060169
 31
0.0
 12
218.0599939775
 22
163.683321264461
 32
0.0
 13
218.0599939775
 23
163.683321264461
 33
0.0
  0
SOLID
  5
14A
330
145
100
AcDbEntity
  8
1
 62
     2
100
AcDbTrace
 10
96.6599939775
 20
164.1441050060169
 30
0.0
 11
96.6599939775
 21
163.2225375229051
 31
0.0
 12
93.1599939775
 22
163.683321264461
 32
0.0
 13
93.1599939775
 23
163.683321264461
 33
0.0
  0
MTEXT
  5
14B
330
145
100
AcDbEntity
  8
1
 62
     3
100
AcDbMText
 10
160.273905494333
 20
165.683321264461
 30
0.0
 40
3.5
 41
0.0
 71
     7
 72
     1
  1
\C3;\C3;\C3;125\C2;\H2.45;\S^ ;\C3;
  7
CONVERTER_11
 11
0.9999999999970619
 21
2.424068405545306E-6
 31
0.0
 73
     1
 44
0.60024009603842
  0
ENDBLK
  5
14D
330
145
100
AcDbEntity
  8
0
100
AcDbBlockEnd
  0
BLOCK
  5
154
330
150
100
AcDbEntity
  8
0
100
AcDbBlockBegin
  2
*D8
 70
     1
 10
0.0
 20
0.0
 30
0.0
  3
*D8
  1

  0
LINE
  5
151
330
150
100
AcDbEntity
  8
1
  6
Continuous
 62
     2
100
AcDbLine
 10
170.7730069005903
 20
124.788750141382
 30
0.0
 11
160.4717377159011
 21
115.879898655973
 31
0.0
  0
SOLID
  5
152
330
150
100
AcDbEntity
  8
1
 62
     2
100
AcDbTrace
 10
162.8176381509401
 20
118.5179041156652
 30
0.0
 11
163.4204695860608
 21
117.8208525488789
 31
0.0
 12
160.4717377159011
 22
115.879898655973
 32
0.0
 13
160.4717377159011
 23
115.879898655973
 33
0.0
  0
MTEXT
  5
153
330
150
100
AcDbEntity
  8
1
 62
     3
100
AcDbMText
 10
163.8524225563373
 20
121.4478053148276
 30
0.0
 40
3.5
 41
0.0
 71
     7
 72
     1
  1
\C3; R\C3;\C3;6\C2;\H2.45;\S^ ;\C3;
  7
CONVERTER_11
 11
0.7563760435998111
 21
0.6541370503711718
 31
0.0
 73
     1
 44
0.60024009603842
  0
ENDBLK
  5
155
330
150
100
AcDbEntity
  8
0
100
AcDbBlockEnd
  0
BLOCK
  5
15E
330
157
100
AcDbEntity
  8
0
100
AcDbBlockBegin
  2
*D9
 70
     1
 10
0.0
 20
0.0
 30
0.0
  3
*D9
  1

  0
LINE
  5
158
330
157
100
AcDbEntity
  8
1
  6
Continuous
 62
     2
100
AcDbLine
 10
202.2061757583104
 20
113.8047209582
 30
0.0
 11
204.2061757583104
 21
113.8047209582
 31
0.0
  0
LINE
  5
159
330
157
100
AcDbEntity
  8
1
  6
Continuous
 62
     2
100
AcDbLine
 10
181.941379769
 20
113.8047209582
 30
0.0
 11
202.2061757583104
 21
113.8047209582
 31
0.0
  0
ARC
  5
15A
330
157
100
AcDbEntity
  8
1
  6
Continuous
 62
     2
100
AcDbCircle
 10
179.941379769
 20
113.8047209582
 30
0.0
 40
22.2647959893104
100
AcDbArc
 50
341.9897552806059
 51
28.71622798448183
  0
SOLID
  5
15B
330
157
100
AcDbEntity
  8
1
 62
     2
100
AcDbTrace
 10
202.0449205916647
 20
108.5288590621575
 30
0.0
 11
201.1347077275656
 21
108.6730782285583
 31
0.0
 12
202.1375408227763
 22
112.0578451983262
 32
0.0
 13
202.1375408227763
 23
112.0578451983262
 33
0.0
  0
SOLID
  5
15C
330
157
100
AcDbEntity
  8
1
 62
     2
100
AcDbTrace
 10
201.4719998185491
 20
117.2577351988248
 30
0.0
 11
202.3907221055388
 21
117.3300953074298
 31
0.0
 12
202.2061757583104
 22
113.8047209582
 32
0.0
 13
202.2061757583104
 23
113.8047209582
 33
0.0
  0
MTEXT
  5
15D
330
157
100
AcDbEntity
  8
1
 62
     3
100
AcDbMText
 10
201.4464930638433
 20
125.5863444277736
 30
0.0
 40
3.5
 41
0.0
 71
     7
 72
     1
  1
\C3;\C3;\C3;4.5%%d\C2;\H2.45;\S^ ;\C3;
  7
CONVERTER_11
 11
0.3490209532089988
 21
-0.9371149204985917
 31
0.0
 73
     1
 44
0.60024009603842
  0
ENDBLK
  5
15F
330
157
100
AcDbEntity
  8
0
100
AcDbBlockEnd
  0
ENDSEC
  0
SECTION
  2
ENTITIES
  0
INSERT
  5
6E
330
1F
100
AcDbEntity
  8
0
100
AcDbBlockReference
  2
Urheberrecht_DE-EN
 10
77.4092991448036
 20
120.066052522358
 30
0.0
  0
LINE
  5
72
330
1F
100
AcDbEntity
  8
0
  6
Continuous
 62
     7
100
AcDbLine
 10
93.1599939775
 20
73.4188000533
 30
0.0
 11
93.1599939775
 21
90.6347209582
 31
0.0
  0
LINE
  5
73
330
1F
100
AcDbEntity
  8
0
  6
Continuous
 62
     7
100
AcDbLine
 10
93.1599939775
 20
109.9747209582
 30
0.0
 11
93.1599939775
 21
127.1906417583
 31
0.0
  0
LINE
  5
74
330
1F
100
AcDbEntity
  8
0
  6
Continuous
 62
     9
100
AcDbLine
 10
94.6799343897
 20
128.7886799729
 30
0.0
 11
94.6799343897
 21
112.3323358984
 31
0.0
  0
LINE
  5
75
330
1F
100
AcDbEntity
  8
0
  6
Continuous
 62
     9
100
AcDbLine
 10
94.6799343897
 20
88.2771060181
 30
0.0
 11
94.6799343897
 21
71.8207619436
 31
0.0
  0
LINE
  5
76
330
1F
100
AcDbEntity
  8
0
  6
Continuous
 62
     7
100
AcDbLine
 10
94.8099939775
 20
90.6606653814
 30
0.0
 11
94.8099939775
 21
92.2847209582
 31
0.0
  0
LINE
  5
77
330
1F
100
AcDbEntity
  8
0
  6
Continuous
 62
     7
100
AcDbLine
 10
94.8099939775
 20
108.3247209582
 30
0.0
 11
94.8099939775
 21
109.948776535
 31
0.0
  0
LINE
  5
78
330
1F
100
AcDbEntity
  8
RUNDUNGEN
  6
Continuous
 62
     9
100
AcDbLine
 10
99.3599939775
 20
87.7319002061
 30
0.0
 11
99.3599939775
 21
92.2847209582
 31
0.0
  0
LINE
  5
79
330
1F
100
AcDbEntity
  8
RUNDUNGEN
  6
Continuous
 62
     9
100
AcDbLine
 10
99.3599939775
 20
108.3247209582
 30
0.0
 11
99.3599939775
 21
112.8775417104
 31
0.0
  0
LINE
  5
7A
330
1F
100
AcDbEntity
  8
RUNDUNGEN
  6
Continuous
 62
     7
100
AcDbLine
 10
101.2599939775
 20
109.8100631846
 30
0.0
 11
101.2599939775
 21
90.7993787319
 31
0.0
  0
LINE
  5
7B
330
1F
100
AcDbEntity
  8
0
  6
Continuous
 62
     7
100
AcDbLine
 10
147.5237235787
 20
60.3047209582
 30
0.0
 11
133.0599939775
 21
60.3047209582
 31
0.0
  0
LINE
  5
7C
330
1F
100
AcDbEntity
  8
0
  6
Continuous
 62
     7
100
AcDbLine
 10
154.5962643763
 20
60.3047209582
 30
0.0
 11
159.0099939775
 21
60.3047209582
 31
0.0
  0
LWPOLYLINE
  5
7D
330
1F
100
AcDbEntity
  8
BEZUGSACHSEN
  6
DOT_CENTER
 62
     7
100
AcDbPolyline
 90
        2
 70
     0
 43
0.25
 10
121.0599939775
 20
93.0547209582
 10
121.0599939775
 20
107.5547209582
  0
LINE
  5
7E
330
1F
100
AcDbEntity
  8
0
  6
Continuous
 62
     7
100
AcDbLine
 10
93.1599939775
 20
90.6347209582
 30
0.0
 11
94.8099939775
 21
92.2847209582
 31
0.0
  0
LINE
  5
7F
330
1F
100
AcDbEntity
  8
0
  6
Continuous
 62
     7
100
AcDbLine
 10
149.8974939775
 20
65.3297209582
 30
0.0
 11
152.2224939775
 21
65.3297209582
 31
0.0
  0
LINE
  5
80
330
1F
100
AcDbEntity
  8
0
  6
Continuous
 62
     7
100
AcDbLine
 10
94.8099939775
 20
108.3247209582
 30
0.0
 11
93.1599939775
 21
109.9747209582
 31
0.0
  0
LINE
  5
81
330
1F
100
AcDbEntity
  8
FASEN
  6
Continuous
 62
     7
100
AcDbLine
 10
137.87001121
 20
69.0797309663
 30
0.0
 11
147.5237235787
 21
69.0797309663
 31
0.0
  0
LINE
  5
82
330
1F
100
AcDbEntity
  8
0
  6
Continuous
 62
     7
100
AcDbLine
 10
154.5962643763
 20
69.0797309663
 30
0.0
 11
159.0099939775
 21
69.0797309663
 31
0.0
  0
LINE
  5
83
330
1F
100
AcDbEntity
  8
0
  6
Continuous
 62
     7
100
AcDbLine
 10
132.3594226888
 20
70.2231709582
 30
0.0
 11
131.4380566366
 21
70.2231709582
 31
0.0
  0
LINE
  5
84
330
1F
100
AcDbEntity
  8
0
  6
Continuous
 62
     7
100
AcDbLine
 10
130.5599939775
 20
70.0231709582
 30
0.0
 11
94.6799343897
 21
71.8207619436
 31
0.0
  0
LINE
  5
85
330
1F
100
AcDbEntity
  8
0
  6
Continuous
 62
     7
100
AcDbLine
 10
130.5599939775
 20
130.5862709582
 30
0.0
 11
130.5599939775
 21
70.0231709582
 31
0.0
  0
LINE
  5
86
330
1F
100
AcDbEntity
  8
0
  6
Continuous
 62
     9
100
AcDbLine
 10
131.1792375915
 20
70.1890967845
 30
0.0
 11
131.1792375915
 21
130.420345132
 31
0.0
  0
LINE
  5
87
330
1F
100
AcDbEntity
  8
0
  6
Continuous
 62
     9
100
AcDbLine
 10
131.4380566366
 20
70.2231709582
 30
0.0
 11
131.4380566366
 21
130.3862709582
 31
0.0
  0
LINE
  5
88
330
1F
100
AcDbEntity
  8
FASEN
  6
Continuous
 62
     7
100
AcDbLine
 10
146.0099939775
 20
74.9047209582
 30
0.0
 11
149.1524059152
 21
74.9047209582
 31
0.0
  0
LINE
  5
89
330
1F
100
AcDbEntity
  8
FASEN
  6
Continuous
 62
     7
100
AcDbLine
 10
152.9675820398
 20
74.9047209582
 30
0.0
 11
159.0099939775
 21
74.9047209582
 31
0.0
  0
LINE
  5
8A
330
1F
100
AcDbEntity
  8
0
  6
Continuous
 62
     7
100
AcDbLine
 10
146.0099939775
 20
75.3047209582
 30
0.0
 11
149.1474939775
 21
75.3047209582
 31
0.0
  0
LINE
  5
8B
330
1F
100
AcDbEntity
  8
0
  6
Continuous
 62
     7
100
AcDbLine
 10
152.9724939775
 20
75.3047209582
 30
0.0
 11
159.0099939775
 21
75.3047209582
 31
0.0
  0
LINE
  5
8C
330
1F
100
AcDbEntity
  8
0
  6
Continuous
 62
     9
100
AcDbLine
 10
132.3594226888
 20
70.2231709582
 30
0.0
 11
132.3594226888
 21
130.3862709582
 31
0.0
  0
LINE
  5
8D
330
1F
100
AcDbEntity
  8
0
  6
Continuous
 62
     7
100
AcDbLine
 10
133.0599939775
 20
140.3047209582
 30
0.0
 11
133.0599939775
 21
60.3047209582
 31
0.0
  0
LINE
  5
8E
330
1F
100
AcDbEntity
  8
0
  6
Continuous
 62
     7
100
AcDbLine
 10
152.9724939775
 20
137.4922681277
 30
0.0
 11
154.5962643763
 21
140.3047209582
 31
0.0
  0
LINE
  5
8F
330
1F
100
AcDbEntity
  8
0
  6
Continuous
 62
     9
100
AcDbLine
 10
93.1599939775
 20
89.7013075726
 30
0.0
 11
94.8099939775
 21
90.6606653814
 31
0.0
  0
LINE
  5
90
330
1F
100
AcDbEntity
  8
0
  6
Continuous
 62
     7
100
AcDbLine
 10
131.1792375915
 20
70.1890967845
 30
0.0
 11
130.5599939775
 21
70.0231709582
 31
0.0
  0
LINE
  5
91
330
1F
100
AcDbEntity
  8
0
  6
Continuous
 62
     9
100
AcDbLine
 10
94.8099939775
 20
109.948776535
 30
0.0
 11
93.1599939775
 21
110.9081343439
 31
0.0
  0
LINE
  5
92
330
1F
100
AcDbEntity
  8
0
  6
Continuous
 62
     7
100
AcDbLine
 10
152.9724939775
 20
63.1171737888
 30
0.0
 11
154.5962643763
 21
60.3047209582
 31
0.0
  0
LWPOLYLINE
  5
93
330
1F
100
AcDbEntity
  8
BEZUGSACHSEN
  6
DOT_CENTER
 62
     7
100
AcDbPolyline
 90
        2
 70
     0
 43
0.25
 10
140.0599939775
 20
132.3909906242
 10
140.0599939775
 20
143.3047209582
  0
LINE
  5
94
330
1F
100
AcDbEntity
  8
0
  6
Continuous
 62
     7
100
AcDbLine
 10
179.941379769
 20
86.8047209582
 30
0.0
 11
217.1384530732
 21
89.7321941162
 31
0.0
  0
LINE
  5
95
330
1F
100
AcDbEntity
  8
FASEN
  6
Continuous
 62
     9
100
AcDbLine
 10
146.0099939775
 20
108.9047209582
 30
0.0
 11
146.0099939878
 21
109.3047209582
 31
0.0
  0
LINE
  5
96
330
1F
100
AcDbEntity
  8
FASEN
  6
Continuous
 62
     9
100
AcDbLine
 10
146.0099939775
 20
91.7047209582
 30
0.0
 11
146.0099939775
 21
91.3047209582
 31
0.0
  0
LINE
  5
97
330
1F
100
AcDbEntity
  8
FASEN
  6
Continuous
 62
     9
100
AcDbLine
 10
146.0099939775
 20
74.9047209582
 30
0.0
 11
146.0099939807
 21
75.3047209582
 31
0.0
  0
LINE
  5
98
330
1F
100
AcDbEntity
  8
0
  6
Continuous
 62
     7
100
AcDbLine
 10
165.0099939775
 20
86.8047209582
 30
0.0
 11
179.941379769
 21
86.8047209582
 31
0.0
  0
LINE
  5
99
330
1F
100
AcDbEntity
  8
RUNDUNGEN
  6
Continuous
 62
     9
100
AcDbLine
 10
100.4994976591
 20
88.4047209582
 30
0.0
 11
94.341663965
 21
88.4047209582
 31
0.0
  0
LINE
  5
9A
330
1F
100
AcDbEntity
  8
0
  6
Continuous
 62
     7
100
AcDbLine
 10
147.5237235787
 20
140.3047209582
 30
0.0
 11
147.5237235787
 21
109.3047209582
 31
0.0
  0
LINE
  5
9B
330
1F
100
AcDbEntity
  8
0
  6
Continuous
 62
     7
100
AcDbLine
 10
147.5237235787
 20
91.3047209582
 30
0.0
 11
147.5237235787
 21
75.3047209582
 31
0.0
  0
LINE
  5
9C
330
1F
100
AcDbEntity
  8
0
  6
Continuous
 62
     7
100
AcDbLine
 10
147.5237235787
 20
69.0797309663
 30
0.0
 11
147.5237235787
 21
60.3047209582
 31
0.0
  0
LINE
  5
9D
330
1F
100
AcDbEntity
  8
0
  6
Continuous
 62
     7
100
AcDbLine
 10
149.1474939775
 20
137.4922534473
 30
0.0
 11
149.1474939775
 21
109.3047209582
 31
0.0
  0
LINE
  5
9E
330
1F
100
AcDbEntity
  8
0
  6
Continuous
 62
     7
100
AcDbLine
 10
149.1474939775
 20
91.3047209582
 30
0.0
 11
149.1474939775
 21
75.3047209582
 31
0.0
  0
LINE
  5
9F
330
1F
100
AcDbEntity
  8
0
  6
Continuous
 62
     7
100
AcDbLine
 10
149.1474939775
 20
63.1172066028
 30
0.0
 11
149.1474939775
 21
74.7846185878
 31
0.0
  0
LINE
  5
A0
330
1F
100
AcDbEntity
  8
0
  6
Continuous
 62
     9
100
AcDbLine
 10
149.8974939775
 20
65.3297209582
 30
0.0
 11
149.8974939775
 21
92.104073118
 31
0.0
  0
LINE
  5
A1
330
1F
100
AcDbEntity
  8
0
  6
Continuous
 62
     9
100
AcDbLine
 10
149.8974939775
 20
108.5053687985
 30
0.0
 11
149.8974939775
 21
135.2797209582
 31
0.0
  0
LINE
  5
A2
330
1F
100
AcDbEntity
  8
FASEN
  6
Continuous
 62
     7
100
AcDbLine
 10
149.1663595147
 20
91.3047209582
 30
0.0
 11
149.1474939775
 21
91.3047209582
 31
0.0
  0
LINE
  5
A3
330
1F
100
AcDbEntity
  8
0
  6
Continuous
 62
     7
100
AcDbLine
 10
146.0099939775
 20
91.3047209582
 30
0.0
 11
149.1474939775
 21
91.3047209582
 31
0.0
  0
LINE
  5
A4
330
1F
100
AcDbEntity
  8
0
  6
Continuous
 62
     7
100
AcDbLine
 10
152.7280589638
 20
91.3047209582
 30
0.0
 11
159.0099939775
 21
91.3047209582
 31
0.0
  0
LINE
  5
A5
330
1F
100
AcDbEntity
  8
FASEN
  6
Continuous
 62
     7
100
AcDbLine
 10
149.5307468299
 20
91.7047209582
 30
0.0
 11
146.0099939775
 21
91.7047209582
 31
0.0
  0
LINE
  5
A6
330
1F
100
AcDbEntity
  8
0
  6
Continuous
 62
     7
100
AcDbLine
 10
149.8974939775
 20
92.104073118
 30
0.0
 11
152.2224939775
 21
92.104073118
 31
0.0
  0
LINE
  5
A7
330
1F
100
AcDbEntity
  8
0
  6
Continuous
 62
     7
100
AcDbLine
 10
99.3599939775
 20
92.2847209582
 30
0.0
 11
94.8099939775
 21
92.2847209582
 31
0.0
  0
LINE
  5
A8
330
1F
100
AcDbEntity
  8
0
  6
Continuous
 62
     9
100
AcDbLine
 10
152.2224939775
 20
65.3297209582
 30
0.0
 11
152.2224939775
 21
92.104073118
 31
0.0
  0
LINE
  5
A9
330
1F
100
AcDbEntity
  8
0
  6
Continuous
 62
     9
100
AcDbLine
 10
152.2224939775
 20
108.5053687985
 30
0.0
 11
152.2224939775
 21
135.2797209582
 31
0.0
  0
LINE
  5
AA
330
1F
100
AcDbEntity
  8
0
  6
Continuous
 62
     7
100
AcDbLine
 10
152.9724939775
 20
63.1172066028
 30
0.0
 11
152.9724939775
 21
74.7846185878
 31
0.0
  0
LINE
  5
AB
330
1F
100
AcDbEntity
  8
0
  6
Continuous
 62
     7
100
AcDbLine
 10
152.9724939775
 20
75.3047209582
 30
0.0
 11
152.9724939775
 21
91.3047209582
 31
0.0
  0
LINE
  5
AC
330
1F
100
AcDbEntity
  8
0
  6
Continuous
 62
     7
100
AcDbLine
 10
152.9724939775
 20
109.3047209582
 30
0.0
 11
152.9724939775
 21
137.4922534473
 31
0.0
  0
LINE
  5
AD
330
1F
100
AcDbEntity
  8
0
  6
Continuous
 62
     7
100
AcDbLine
 10
154.5962643763
 20
60.3047209582
 30
0.0
 11
154.5962643763
 21
69.0797309663
 31
0.0
  0
LINE
  5
AE
330
1F
100
AcDbEntity
  8
0
  6
Continuous
 62
     7
100
AcDbLine
 10
154.5962643763
 20
75.3047209582
 30
0.0
 11
154.5962643763
 21
91.3047209582
 31
0.0
  0
LINE
  5
AF
330
1F
100
AcDbEntity
  8
0
  6
Continuous
 62
     7
100
AcDbLine
 10
154.5962643763
 20
109.3047209582
 30
0.0
 11
154.5962643763
 21
140.3047209582
 31
0.0
  0
LINE
  5
B0
330
1F
100
AcDbEntity
  8
BOHRUNGEN
  6
HIDDEN
 62
     8
100
AcDbLine
 10
218.0599939775
 20
97.3047209582
 30
0.0
 11
182.0599939775
 21
97.3047209582
 31
0.0
  0
LWPOLYLINE
  5
B1
330
1F
100
AcDbEntity
  8
TEIL_STARTBEZUEGE
  6
DOT_CENTER
 62
     7
100
AcDbPolyline
 90
        2
 70
     0
 43
0.25
 10
221.0599939775
 20
100.3047209582
 10
90.1599939775
 20
100.3047209582
  0
LINE
  5
B2
330
1F
100
AcDbEntity
  8
0
  6
Continuous
 62
     7
100
AcDbLine
 10
159.0099939775
 20
140.304678664
 30
0.0
 11
159.0099939775
 21
109.3047209582
 31
0.0
  0
LINE
  5
B3
330
1F
100
AcDbEntity
  8
0
  6
Continuous
 62
     7
100
AcDbLine
 10
159.0099939775
 20
91.3047209582
 30
0.0
 11
159.0099939775
 21
75.3047209582
 31
0.0
  0
LINE
  5
B4
330
1F
100
AcDbEntity
  8
0
  6
Continuous
 62
     7
100
AcDbLine
 10
159.0099939775
 20
69.0797309663
 30
0.0
 11
159.0099939775
 21
60.3047299546
 31
0.0
  0
LINE
  5
B5
330
1F
100
AcDbEntity
  8
FASEN
  6
Continuous
 62
     7
100
AcDbLine
 10
159.0099939775
 20
69.0797309663
 30
0.0
 11
159.0099939775
 21
75.3047209582
 31
0.0
  0
LINE
  5
B6
330
1F
100
AcDbEntity
  8
FASEN
  6
Continuous
 62
     7
100
AcDbLine
 10
159.0099939775
 20
91.3047209582
 30
0.0
 11
159.0099939775
 21
109.3047209582
 31
0.0
  0
LINE
  5
B7
330
1F
100
AcDbEntity
  8
BOHRUNGEN
  6
HIDDEN
 62
     8
100
AcDbLine
 10
218.0599939775
 20
103.3047209582
 30
0.0
 11
182.0599939775
 21
103.3047209582
 31
0.0
  0
LINE
  5
B8
330
1F
100
AcDbEntity
  8
RUNDUNGEN
  6
Continuous
 62
     9
100
AcDbLine
 10
165.0099939775
 20
113.8047209582
 30
0.0
 11
165.0099939775
 21
86.8047209582
 31
0.0
  0
LINE
  5
B9
330
1F
100
AcDbEntity
  8
0
  6
Continuous
 62
     7
100
AcDbLine
 10
99.3599939775
 20
108.3247209582
 30
0.0
 11
94.8099939775
 21
108.3247209582
 31
0.0
  0
LINE
  5
BA
330
1F
100
AcDbEntity
  8
0
  6
Continuous
 62
     7
100
AcDbLine
 10
149.8974939775
 20
108.5053687985
 30
0.0
 11
152.2224939775
 21
108.5053687985
 31
0.0
  0
LINE
  5
BB
330
1F
100
AcDbEntity
  8
FASEN
  6
Continuous
 62
     7
100
AcDbLine
 10
146.0099939775
 20
108.9047209582
 30
0.0
 11
149.5307468299
 21
108.9047209582
 31
0.0
  0
LINE
  5
BC
330
1F
100
AcDbEntity
  8
FASEN
  6
Continuous
 62
     7
100
AcDbLine
 10
152.5892411252
 20
108.9047209582
 30
0.0
 11
159.0099939775
 21
108.9047209582
 31
0.0
  0
LINE
  5
BD
330
1F
100
AcDbEntity
  8
0
  6
Continuous
 62
     7
100
AcDbLine
 10
146.0099939775
 20
109.3047209582
 30
0.0
 11
149.1474939775
 21
109.3047209582
 31
0.0
  0
LINE
  5
BE
330
1F
100
AcDbEntity
  8
FASEN
  6
Continuous
 62
     7
100
AcDbLine
 10
149.1474939775
 20
109.3047209582
 30
0.0
 11
149.1663595147
 21
109.3047209582
 31
0.0
  0
LINE
  5
BF
330
1F
100
AcDbEntity
  8
FASEN
  6
Continuous
 62
     7
100
AcDbLine
 10
152.9536284403
 20
109.3047209582
 30
0.0
 11
152.9724939775
 21
109.3047209582
 31
0.0
  0
LINE
  5
C0
330
1F
100
AcDbEntity
  8
0
  6
Continuous
 62
     7
100
AcDbLine
 10
152.9724939775
 20
109.3047209582
 30
0.0
 11
159.0099939775
 21
109.3047209582
 31
0.0
  0
LINE
  5
C1
330
1F
100
AcDbEntity
  8
0
  6
Continuous
 62
     7
100
AcDbLine
 10
147.5237235787
 20
60.3047209582
 30
0.0
 11
149.1474939775
 21
63.1171737888
 31
0.0
  0
LINE
  5
C2
330
1F
100
AcDbEntity
  8
RUNDUNGEN
  6
Continuous
 62
     9
100
AcDbLine
 10
94.341663965
 20
112.2047209582
 30
0.0
 11
100.4994976591
 21
112.2047209582
 31
0.0
  0
LINE
  5
C3
330
1F
100
AcDbEntity
  8
0
  6
Continuous
 62
     7
100
AcDbLine
 10
165.0099939775
 20
113.8047209582
 30
0.0
 11
179.941379769
 21
113.8047209582
 31
0.0
  0
LINE
  5
C4
330
1F
100
AcDbEntity
  8
0
  6
Continuous
 62
     7
100
AcDbLine
 10
179.941379769
 20
113.8047209582
 30
0.0
 11
217.1384530732
 21
110.8772478003
 31
0.0
  0
LINE
  5
C5
330
1F
100
AcDbEntity
  8
0
  6
Continuous
 62
     7
100
AcDbLine
 10
147.5237235787
 20
140.3047209582
 30
0.0
 11
149.1474939775
 21
137.4922681277
 31
0.0
  0
LINE
  5
C6
330
1F
100
AcDbEntity
  8
0
  6
Continuous
 62
     7
100
AcDbLine
 10
179.941379769
 20
86.8047209582
 30
0.0
 11
179.941379769
 21
113.8047209582
 31
0.0
  0
LINE
  5
C7
330
1F
100
AcDbEntity
  8
0
  6
Continuous
 62
     7
100
AcDbLine
 10
131.1792375915
 20
130.420345132
 30
0.0
 11
130.5599939775
 21
130.5862709582
 31
0.0
  0
LINE
  5
C8
330
1F
100
AcDbEntity
  8
BOHRUNGEN
  6
HIDDEN
 62
     8
100
AcDbLine
 10
182.0599939775
 20
97.3047209582
 30
0.0
 11
182.0599939775
 21
103.3047209582
 31
0.0
  0
LINE
  5
C9
330
1F
100
AcDbEntity
  8
0
  6
Continuous
 62
     7
100
AcDbLine
 10
132.3594226888
 20
130.3862709582
 30
0.0
 11
131.4380566366
 21
130.3862709582
 31
0.0
  0
LINE
  5
CA
330
1F
100
AcDbEntity
  8
0
  6
Continuous
 62
     7
100
AcDbLine
 10
130.5599939775
 20
130.5862709582
 30
0.0
 11
94.6799343897
 21
128.7886799729
 31
0.0
  0
LINE
  5
CB
330
1F
100
AcDbEntity
  8
0
  6
Continuous
 62
     7
100
AcDbLine
 10
149.8974939775
 20
135.2797209582
 30
0.0
 11
152.2224939775
 21
135.2797209582
 31
0.0
  0
LINE
  5
CC
330
1F
100
AcDbEntity
  8
BEZUGSACHSEN
  6
Continuous
 62
     7
100
AcDbLine
 10
147.5237235787
 20
140.3047209582
 30
0.0
 11
145.0599939775
 21
140.3047209582
 31
0.0
  0
LINE
  5
CD
330
1F
100
AcDbEntity
  8
BEZUGSACHSEN
  6
Continuous
 62
     7
100
AcDbLine
 10
135.0599939775
 20
140.3047209582
 30
0.0
 11
133.0599939775
 21
140.3047209582
 31
0.0
  0
LINE
  5
CE
330
1F
100
AcDbEntity
  8
0
  6
Continuous
 62
     7
100
AcDbLine
 10
133.0599939775
 20
140.3047209582
 30
0.0
 11
135.0599939775
 21
140.3047209582
 31
0.0
  0
LINE
  5
CF
330
1F
100
AcDbEntity
  8
0
  6
Continuous
 62
     7
100
AcDbLine
 10
145.0599939775
 20
140.3047209582
 30
0.0
 11
147.5237235787
 21
140.3047209582
 31
0.0
  0
LINE
  5
D0
330
1F
100
AcDbEntity
  8
0
  6
Continuous
 62
     7
100
AcDbLine
 10
154.5962643763
 20
140.3047209582
 30
0.0
 11
159.0099939775
 21
140.3047209582
 31
0.0
  0
LINE
  5
D1
330
1F
100
AcDbEntity
  8
RUNDUNGEN
  6
Continuous
 62
     9
100
AcDbLine
 10
217.1384530732
 20
89.7321941162
 30
0.0
 11
217.1384530732
 21
110.8772478003
 31
0.0
  0
LINE
  5
D2
330
1F
100
AcDbEntity
  8
RUNDUNGEN
  6
Continuous
 62
     7
100
AcDbLine
 10
218.0599939775
 20
109.8803304666
 30
0.0
 11
218.0599939775
 21
90.7291114499
 31
0.0
  0
LWPOLYLINE
  5
D3
330
1F
100
AcDbEntity
  8
1
  6
Continuous
 62
     7
100
AcDbPolyline
 90
        2
 70
     0
 43
0.25
 10
218.0599939775
 20
109.8803304666
 10
218.0599939775
 20
110.8047209582466
  0
LWPOLYLINE
  5
D4
330
1F
100
AcDbEntity
  8
1
  6
Continuous
 62
     7
100
AcDbPolyline
 90
        2
 70
     0
 43
0.25
 10
217.1384530732
 20
110.8772478003
 10
218.0599939774949
 20
110.8047209582466
  0
LWPOLYLINE
  5
D5
330
1F
100
AcDbEntity
  8
1
  6
Continuous
 62
     7
100
AcDbPolyline
 90
        2
 70
     0
 43
0.25
 10
217.1384530732
 20
89.7321941162
 10
218.0599939775
 20
89.80472095824862
  0
LWPOLYLINE
  5
D6
330
1F
100
AcDbEntity
  8
1
  6
Continuous
 62
     7
100
AcDbPolyline
 90
        2
 70
     0
 43
0.25
 10
218.0599939775
 20
90.7291114499
 10
218.0599939775
 20
89.80472095824862
  0
ARC
  5
D7
330
1F
100
AcDbEntity
  8
FASEN
  6
Continuous
 62
     7
100
AcDbCircle
 10
-5.7817585724
 20
75.1047209582
 30
0.0
 40
154.9342935746334
100
AcDbArc
 50
359.9260385882252
 51
0.07396141180001
  0
ARC
  5
D8
330
1F
100
AcDbEntity
  8
FASEN
  6
Continuous
 62
     7
100
AcDbCircle
 10
150.1885509835
 20
81.1368023945
 30
0.0
 40
17.23715155060033
100
AcDbArc
 50
222.8949094446989
 51
224.3854325127945
  0
ARC
  5
D9
330
1F
100
AcDbEntity
  8
FASEN
  6
Continuous
 62
     7
100
AcDbCircle
 10
146.0099939775
 20
66.3047209582
 30
0.0
 40
9.0
100
AcDbArc
 50
90.0
 51
159.8554054768235
  0
ARC
  5
DA
330
1F
100
AcDbEntity
  8
FASEN
  6
Continuous
 62
     7
100
AcDbCircle
 10
146.0099939775
 20
66.3047209582
 30
0.0
 40
8.600000000000009
100
AcDbArc
 50
90.0
 51
161.1751898257587
  0
ARC
  5
DB
330
1F
100
AcDbEntity
  8
RUNDUNGEN
  6
Continuous
 62
     7
100
AcDbCircle
 10
99.3599939775
 20
94.1847209582
 30
0.0
 40
1.900000000000006
100
AcDbArc
 50
270.0
 51
354.9999999999014
  0
ARC
  5
DC
330
1F
100
AcDbEntity
  8
0
  6
Continuous
 62
     7
100
AcDbCircle
 10
94.7599939775
 20
73.4187577078
 30
0.0
 40
1.600000000000009
100
AcDbArc
 50
180.0
 51
267.1318795121992
  0
ARC
  5
DD
330
1F
100
AcDbEntity
  8
FASEN
  6
Continuous
 62
     7
100
AcDbCircle
 10
150.6182144296
 20
74.7846208028
 30
0.0
 40
1.470720452096381
100
AcDbArc
 50
175.3159671178112
 51
180.0000862911452
  0
ARC
  5
DE
330
1F
100
AcDbEntity
  8
0
  6
Continuous
 62
     7
100
AcDbCircle
 10
131.4380566366
 20
69.2231709582
 30
0.0
 40
1.0
100
AcDbArc
 50
90.0
 51
104.9999999996991
  0
ARC
  5
DF
330
1F
100
AcDbEntity
  8
0
  6
Continuous
 62
     7
100
AcDbCircle
 10
132.3594226888
 20
69.2231709582
 30
0.0
 40
0.9999999999996478
100
AcDbArc
 50
45.52164291272007
 51
90.0
  0
ARC
  5
E0
330
1F
100
AcDbEntity
  8
0
  6
Continuous
 62
     7
100
AcDbCircle
 10
149.8974939775
 20
64.5797209582
 30
0.0
 40
0.75
100
AcDbArc
 50
90.0
 51
180.0
  0
ARC
  5
E1
330
1F
100
AcDbEntity
  8
0
  6
Continuous
 62
     7
100
AcDbCircle
 10
-40.9938236889
 20
154.1335106791
 30
0.0
 40
206.8163704140107
100
AcDbArc
 50
335.716451571417
 51
336.8345414976
  0
ARC
  5
E2
330
1F
100
AcDbEntity
  8
RUNDUNGEN
  6
Continuous
 62
     7
100
AcDbCircle
 10
99.3599939775
 20
106.4247209582
 30
0.0
 40
1.900000000000006
100
AcDbArc
 50
0.0
 51
90.0
  0
ARC
  5
E3
330
1F
100
AcDbEntity
  8
0
  6
Continuous
 62
     7
100
AcDbCircle
 10
94.7599939775
 20
127.1906842087
 30
0.0
 40
1.59999999999996
100
AcDbArc
 50
92.86812048780072
 51
180.0
  0
ARC
  5
E4
330
1F
100
AcDbEntity
  8
0
  6
Continuous
 62
     7
100
AcDbCircle
 10
146.0099939775
 20
100.3047209582
 30
0.0
 40
9.0
100
AcDbArc
 50
90.0
 51
270.0
  0
ARC
  5
E5
330
1F
100
AcDbEntity
  8
FASEN
  6
Continuous
 62
     7
100
AcDbCircle
 10
146.0099939775
 20
100.3047209582
 30
0.0
 40
8.600000000000009
100
AcDbArc
 50
90.0
 51
270.0
  0
ARC
  5
E6
330
1F
100
AcDbEntity
  8
0
  6
Continuous
 62
     7
100
AcDbCircle
 10
131.4380566366
 20
131.3862709582
 30
0.0
 40
0.9999999999133098
100
AcDbArc
 50
254.9999999988179
 51
270.0
  0
ARC
  5
E7
330
1F
100
AcDbEntity
  8
0
  6
Continuous
 62
     7
100
AcDbCircle
 10
132.3594226888
 20
131.3862709582
 30
0.0
 40
1.0
100
AcDbArc
 50
270.0
 51
314.4783570872765
  0
ARC
  5
E8
330
1F
100
AcDbEntity
  8
0
  6
Continuous
 62
     7
100
AcDbCircle
 10
149.8974939775
 20
136.0297209582
 30
0.0
 40
0.75
100
AcDbArc
 50
180.0
 51
270.0
  0
ARC
  5
E9
330
1F
100
AcDbEntity
  8
BEZUGSACHSEN
  6
Continuous
 62
     7
100
AcDbCircle
 10
140.0838804352
 20
180.3716751663
 30
0.0
 40
40.38069160692824
100
AcDbArc
 50
262.8531364883499
 51
269.9661077302005
  0
ARC
  5
EA
330
1F
100
AcDbEntity
  8
BEZUGSACHSEN
  6
Continuous
 62
     7
100
AcDbCircle
 10
140.0361075234
 20
180.371675109
 30
0.0
 40
40.38069154959753
100
AcDbArc
 50
270.0338922646856
 51
277.1468635166968
  0
ARC
  5
EB
330
1F
100
AcDbEntity
  8
RUNDUNGEN
  6
Continuous
 62
     7
100
AcDbCircle
 10
228.2599330074
 20
-1013.9620582898
 30
0.0
 40
1134.1881142079
100
AcDbArc
 50
96.52573778010002
 51
96.7637593779
  0
ARC
  5
EC
330
1F
100
AcDbEntity
  8
FASEN
  6
Continuous
 62
     7
100
AcDbCircle
 10
307.901746568
 20
75.1047209582
 30
0.0
 40
154.9342936151996
100
AcDbArc
 50
179.9260385882
 51
180.0739614118
  0
ARC
  5
ED
330
1F
100
AcDbEntity
  8
RUNDUNGEN
  6
Continuous
 62
     7
100
AcDbCircle
 10
165.0099939775
 20
80.8047209582
 30
0.0
 40
6.0
100
AcDbArc
 50
90.0
 51
180.0
  0
ARC
  5
EE
330
1F
100
AcDbEntity
  8
FASEN
  6
Continuous
 62
     7
100
AcDbCircle
 10
151.5017735254
 20
74.7846208028
 30
0.0
 40
1.47072045210165
100
AcDbArc
 50
359.9999137088547
 51
4.68403288218878
  0
ARC
  5
EF
330
1F
100
AcDbEntity
  8
RUNDUNGEN
  6
Continuous
 62
     7
100
AcDbCircle
 10
217.0599939775
 20
90.7291114499
 30
0.0
 40
0.9999999999647865
100
AcDbArc
 50
274.4999999985583
 51
0.0
  0
ARC
  5
F0
330
1F
100
AcDbEntity
  8
0
  6
Continuous
 62
     7
100
AcDbCircle
 10
152.2224939775
 20
64.5797209582
 30
0.0
 40
0.75
100
AcDbArc
 50
0.0
 51
90.0
  0
ARC
  5
F1
330
1F
100
AcDbEntity
  8
RUNDUNGEN
  6
Continuous
 62
     7
100
AcDbCircle
 10
228.2599330073
 20
1214.5715002054
 30
0.0
 40
1134.188114207
100
AcDbArc
 50
263.2362406221
 51
263.4742622199
  0
ARC
  5
F2
330
1F
100
AcDbEntity
  8
0
  6
Continuous
 62
     7
100
AcDbCircle
 10
343.1138116442
 20
154.1335106792
 30
0.0
 40
206.8163704144
100
AcDbArc
 50
203.1654585024
 51
204.2835484285999
  0
ARC
  5
F3
330
1F
100
AcDbEntity
  8
RUNDUNGEN
  6
Continuous
 62
     7
100
AcDbCircle
 10
165.0099939775
 20
119.8047209582
 30
0.0
 40
6.0
100
AcDbArc
 50
180.0
 51
270.0
  0
ARC
  5
F4
330
1F
100
AcDbEntity
  8
RUNDUNGEN
  6
Continuous
 62
     7
100
AcDbCircle
 10
217.0599939775
 20
109.8803304666
 30
0.0
 40
1.0
100
AcDbArc
 50
0.0
 51
85.50000000144168
  0
ARC
  5
F5
330
1F
100
AcDbEntity
  8
0
  6
Continuous
 62
     7
100
AcDbCircle
 10
152.2224939775
 20
136.0297209582
 30
0.0
 40
0.75
100
AcDbArc
 50
270.0
 51
0.0
  0
CIRCLE
  5
F6
330
1F
100
AcDbEntity
  8
FASEN
  6
Continuous
 62
     7
100
AcDbCircle
 10
121.0599939775
 20
100.3047209582
 30
0.0
 40
4.25
  0
SPLINE
  5
F7
330
1F
100
AcDbEntity
  8
0
  6
Continuous
 62
     7
100
AcDbSpline
210
0.0
220
0.0
230
1.0
 70
     8
 71
     3
 72
    27
 73
    23
 74
    21
 42
0.0000000001
 43
0.0000000001
 44
0.00000001
 40
0.0
 40
0.0
 40
0.0
 40
0.0
 40
0.1005593763173242
 40
0.2012543954311679
 40
0.2905289403793043
 40
0.3794999608333205
 40
0.4198989481514132
 40
0.4602916821432168
 40
0.4986937523911989
 40
0.5370892801666083
 40
0.5745784458429924
 40
0.6120681418064309
 40
0.6498944637658377
 40
0.6877262176228124
 40
0.768046544129525
 40
0.8487068781925704
 40
0.9387083803771753
 40
1.028639130854186
 40
1.127965388979373
 40
1.227310735239674
 40
1.334449143143141
 40
1.441556400117597
 40
1.441556400117597
 40
1.441556400117597
 40
1.441556400117597
 10
93.1599939775
 20
111.7265581538
 30
0.0
 10
93.16066115660138
 20
111.7600902764158
 30
0.0
 10
93.16199641475043
 20
111.8271997525452
 30
0.0
 10
93.17483333725781
 20
111.9234296444301
 30
0.0
 10
93.19692457775804
 20
112.0139372260819
 30
0.0
 10
93.2243356785842
 20
112.081880731868
 30
0.0
 10
93.25238048783388
 20
112.1311059007595
 30
0.0
 10
93.27526812118654
 20
112.1636682321051
 30
0.0
 10
93.3009705696365
 20
112.1931779361445
 30
0.0
 10
93.32899743129198
 20
112.2191002986441
 30
0.0
 10
93.35955839572459
 20
112.2414681329896
 30
0.0
 10
93.39226240610282
 20
112.2601847121101
 30
0.0
 10
93.42697564991863
 20
112.275132640203
 30
0.0
 10
93.47672688409838
 20
112.2905253091367
 30
0.0
 10
93.5427905361727
 20
112.2999677799913
 30
0.0
 10
93.62670086611888
 20
112.2976882507811
 30
0.0
 10
93.71262255355748
 20
112.2832482549423
 30
0.0
 10
93.80213439565907
 20
112.2571731193284
 30
0.0
 10
93.89183478703829
 20
112.2220794804776
 30
0.0
 10
93.98362263835037
 20
112.1775792156246
 30
0.0
 10
94.07483698265224
 20
112.1263487295132
 30
0.0
 10
94.13459730489804
 20
112.0872196463386
 30
0.0
 10
94.1644731215
 20
112.0676579494
 30
0.0
 11
93.1599939775
 21
111.7265581538
 31
0.0
 11
93.1638822437015
 21
111.8270423294262
 31
0.0
 11
93.17720670187168
 21
111.9268518765087
 31
0.0
 11
93.19901309009585
 21
112.0134222282944
 31
0.0
 11
93.23286227987624
 21
112.095702692755
 31
0.0
 11
93.25292331975544
 21
112.1307688139447
 31
0.0
 11
93.27621569905781
 21
112.1637693900877
 31
0.0
 11
93.30146955588441
 21
112.1926996806965
 31
0.0
 11
93.32969226679356
 21
112.2187322591722
 31
0.0
 11
93.3599398509629
 21
112.2408799722602
 31
0.0
 11
93.3924798079708
 21
112.259497934054
 31
0.0
 11
93.42720407729993
 21
112.2744997923567
 31
0.0
 11
93.46333609232506
 21
112.2857122448145
 31
0.0
 11
93.54275916720816
 21
112.2976842966962
 31
0.0
 11
93.6234020575106
 21
112.2960068775982
 31
0.0
 11
93.71223249677466
 21
112.2815354071947
 31
0.0
 11
93.79870726451658
 21
112.2568442260699
 31
0.0
 11
93.89129934824214
 21
112.2208940997209
 31
0.0
 11
93.98084019149124
 21
112.177859982862
 31
0.0
 11
94.07420650735382
 21
112.1253112482404
 31
0.0
 11
94.1644731215
 21
112.0676579494
 31
0.0
  0
SPLINE
  5
F8
330
1F
100
AcDbEntity
  8
FASEN
  6
Continuous
 62
     7
100
AcDbSpline
210
0.0
220
0.0
230
1.0
 70
     8
 71
     3
 72
    43
 73
    39
 74
    37
 42
0.0000000001
 43
0.0000000001
 44
0.00000001
 40
0.0
 40
0.0
 40
0.0
 40
0.0
 40
0.474645616622324
 40
0.9497960375608694
 40
1.426044620081089
 40
1.902135884749488
 40
2.378025997932206
 40
2.85401261090966
 40
3.330091925465687
 40
3.805935305660517
 40
4.043899193089094
 40
4.281786766560156
 40
4.51943612987259
 40
4.757161339803925
 40
5.231697012296162
 40
5.706457647898914
 40
6.181170996913796
 40
6.655828283766235
 40
7.131227937589715
 40
7.606645640119766
 40
8.083109536752142
 40
8.559557846637807
 40
9.037001714090858
 40
9.51450538102081
 40
9.992842253158898
 40
10.47094721800123
 40
10.71029171359502
 40
10.94955826649347
 40
11.18873219244606
 40
11.42798359957549
 40
11.90489092882935
 40
12.38203450725861
 40
12.85683924197499
 40
13.33154665156425
 40
13.80494455472794
 40
14.27849021123676
 40
14.75006397883901
 40
15.22115281064432
 40
15.22115281064432
 40
15.22115281064432
 40
15.22115281064432
 10
116.2106757102
 20
100.304720913
 30
0.0
 10
116.2151507737185
 20
100.4630008629996
 30
0.0
 10
116.2241056601618
 20
100.7797290999627
 30
0.0
 10
116.2967291676076
 20
101.2506730777654
 30
0.0
 10
116.4118614663962
 20
101.7129720507889
 30
0.0
 10
116.5727559951317
 20
102.1619260806999
 30
0.0
 10
116.7768722134627
 20
102.592756532087
 30
0.0
 10
117.0223752873901
 20
103.0014588590966
 30
0.0
 10
117.3069652864108
 20
103.3839111968105
 30
0.0
 10
117.5742402245767
 20
103.6779039916838
 30
0.0
 10
117.8044778719437
 20
103.8962931536458
 30
0.0
 10
117.984945680025
 20
104.0513521399702
 30
0.0
 10
118.1727368986485
 20
104.1973257518917
 30
0.0
 10
118.4320479752872
 20
104.3792143949303
 30
0.0
 10
118.7724070521858
 20
104.5823324099788
 30
0.0
 10
119.2023966598231
 20
104.7851138325179
 30
0.0
 10
119.6502075965092
 20
104.9449184077107
 30
0.0
 10
120.1116256472436
 20
105.060499209427
 30
0.0
 10
120.5823486620351
 20
105.130584335419
 30
0.0
 10
121.0582563402401
 20
105.1546414463862
 30
0.0
 10
121.534590792876
 20
105.1320363820529
 30
0.0
 10
122.0071223351928
 20
105.0630022667789
 30
0.0
 10
122.4709378692817
 20
104.9478334078791
 30
0.0
 10
122.9218220774483
 20
104.7875042832419
 30
0.0
 10
123.3548326032011
 20
104.5833086377454
 30
0.0
 10
123.6974815672139
 20
104.3782838528828
 30
0.0
 10
123.9582739025885
 20
104.1945519977839
 30
0.0
 10
124.1468728760756
 20
104.0471577002006
 30
0.0
 10
124.3279168508196
 20
103.8906238284781
 30
0.0
 10
124.558257067044
 20
103.6705799426743
 30
0.0
 10
124.8251117165607
 20
103.3746590368627
 30
0.0
 10
125.1081892994523
 20
102.9906857238336
 30
0.0
 10
125.3516205452235
 20
102.5812561703192
 30
0.0
 10
125.5532036025496
 20
102.1511043989059
 30
0.0
 10
125.7117450769401
 20
101.7036596865845
 30
0.0
 10
125.8248860508606
 20
101.2439608068193
 30
0.0
 10
125.8961119036048
 20
100.7761570755621
 30
0.0
 10
125.9049220292717
 20
100.4618124026021
 30
0.0
 10
125.909324826
 20
100.3047209206
 30
0.0
 11
116.2106757102
 21
100.304720913
 31
0.0
 11
116.2339441623176
 21
100.7787958443293
 31
0.0
 11
116.303727516131
 21
101.2487939358665
 31
0.0
 11
116.4194952593797
 21
101.7107577244643
 31
0.0
 11
116.5799902562152
 21
102.1589811601348
 31
0.0
 11
116.7837544342477
 21
102.589041108951
 31
0.0
 11
117.0288747723012
 21
102.9970598286273
 31
0.0
 11
117.313040210826
 21
103.3790303998709
 31
0.0
 11
117.6331614882341
 21
103.7310947267003
 31
0.0
 11
117.8058064223302
 21
103.8948644994029
 31
0.0
 11
117.9862378691265
 21
104.0498967238563
 31
0.0
 11
118.1738693243443
 21
104.1957447848501
 31
0.0
 11
118.368493198738
 21
104.3322542092606
 31
0.0
 11
118.7759536774279
 21
104.5754826261313
 31
0.0
 11
119.2053755006213
 21
104.7779537571185
 31
0.0
 11
119.6524587314923
 21
104.9375449486263
 31
0.0
 11
120.1128952621204
 21
105.0528607811267
 31
0.0
 11
120.5831067878051
 21
105.1229032822869
 31
0.0
 11
121.0579203205074
 21
105.1468636879937
 31
0.0
 11
121.5338500457958
 21
105.1243083919186
 31
0.0
 11
122.0052872627651
 21
105.0553885656768
 31
0.0
 11
122.4686629213582
 21
104.9403422898055
 31
0.0
 11
122.9185519974079
 21
104.7803123826545
 31
0.0
 11
123.3512127049564
 21
104.5763249433587
 31
0.0
 11
123.761451240288
 21
104.3307873667316
 31
0.0
 11
123.9571174045994
 21
104.1929449214737
 31
0.0
 11
124.1456416924981
 21
104.0456117065892
 31
0.0
 11
124.3265642849119
 21
103.8891790296644
 31
0.0
 11
124.499558480141
 21
103.7239088138648
 31
0.0
 11
124.8189769293695
 21
103.3697726042103
 31
0.0
 11
125.102079593142
 21
102.9856907428822
 31
0.0
 11
125.3447610099175
 21
102.5775911642731
 31
0.0
 11
125.5462229491117
 21
102.147753739454
 31
0.0
 11
125.7042123926051
 21
101.7014971871611
 31
0.0
 11
125.818051864027
 21
101.2418385490994
 31
0.0
 11
125.8864764788735
 21
100.7752553406856
 31
0.0
 11
125.909324826
 21
100.3047209206
 31
0.0
  0
SPLINE
  5
F9
330
1F
100
AcDbEntity
  8
RUNDUNGEN
  6
Continuous
 62
     7
100
AcDbSpline
210
0.0
220
0.0
230
1.0
 70
     8
 71
     3
 72
    15
 73
    11
 74
     9
 42
0.0000000001
 43
0.0000000001
 44
0.00000001
 40
0.0
 40
0.0
 40
0.0
 40
0.0
 40
0.3162936728269716
 40
0.6327491898544111
 40
0.9497778541304658
 40
1.266736320394082
 40
1.585306002246384
 40
1.903962908379718
 40
2.225342078488955
 40
2.546438904732915
 40
2.546438904732915
 40
2.546438904732915
 40
2.546438904732915
 10
100.4994976591
 20
112.2047209582
 30
0.0
 10
100.5555446177053
 20
112.1153773789894
 30
0.0
 10
100.6676672135649
 20
111.9366445043828
 30
0.0
 10
100.8136457885272
 20
111.6553512152576
 30
0.0
 10
100.9430461824832
 20
111.3659813367819
 30
0.0
 10
101.0529202612642
 20
111.0678117019262
 30
0.0
 10
101.1421986947787
 20
110.7622245356531
 30
0.0
 10
101.2082817558089
 20
110.4493676294585
 30
0.0
 10
101.2515594437473
 20
110.1313464890491
 30
0.0
 10
101.2571832900716
 20
109.9171262388544
 30
0.0
 10
101.2599939775
 20
109.8100631846
 30
0.0
 11
100.4994976591
 21
112.2047209582
 31
0.0
 11
100.6639227951789
 21
111.9345246182992
 31
0.0
 11
100.8107832974993
 21
111.6542103533833
 31
0.0
 11
100.9397581148642
 21
111.3646025660945
 31
0.0
 11
101.0492912698539
 21
111.0671716374838
 31
0.0
 11
101.1382681281827
 21
110.7612798904925
 31
0.0
 11
101.2043009337472
 21
110.4495397865345
 31
0.0
 11
101.2457406784629
 21
110.1308435070802
 31
0.0
 11
101.2599939775
 21
109.8100631846
 31
0.0
  0
SPLINE
  5
FA
330
1F
100
AcDbEntity
  8
RUNDUNGEN
  6
Continuous
 62
     7
100
AcDbSpline
210
0.0
220
0.0
230
1.0
 70
     8
 71
     3
 72
    19
 73
    15
 74
    13
 42
0.0000000001
 43
0.0000000001
 44
0.00000001
 40
0.0
 40
0.0
 40
0.0
 40
0.0
 40
0.090865895414541
 40
0.1818155843179554
 40
0.2719578267147028
 40
0.3620796284061544
 40
0.4508848980606311
 40
0.5396930491939445
 40
0.6271215589756073
 40
0.714560860515315
 40
0.8859439487659221
 40
1.057581272674848
 40
1.226597310410829
 40
1.39546580947195
 40
1.39546580947195
 40
1.39546580947195
 40
1.39546580947195
 10
99.3599939775
 20
112.8775417104
 30
0.0
 10
99.39019504019804
 20
112.8801379772491
 30
0.0
 10
99.45062501600376
 20
112.8853329051376
 30
0.0
 10
99.54143533773345
 20
112.8818710198942
 30
0.0
 10
99.63118149912245
 20
112.8700916953136
 30
0.0
 10
99.71869119844807
 20
112.8497791828046
 30
0.0
 10
99.80350502438378
 20
112.8216385473995
 30
0.0
 10
99.88473013521951
 20
112.7866199265502
 30
0.0
 10
99.96243441982287
 20
112.7453528957273
 30
0.0
 10
100.0601151044159
 20
112.6837121864188
 30
0.0
 10
100.1733704681245
 20
112.5949087752334
 30
0.0
 10
100.2947581197987
 20
112.4745554085226
 30
0.0
 10
100.4042197494294
 20
112.3443011607342
 30
0.0
 10
100.4677476024427
 20
112.2512341463463
 30
0.0
 10
100.4994976591
 20
112.2047209582
 30
0.0
 11
99.3599939775
 21
112.8775417104
 31
0.0
 11
99.45066726514075
 21
112.8834549039452
 31
0.0
 11
99.54156757566678
 21
112.8804583295843
 31
0.0
 11
99.63093247333904
 21
112.8686456699203
 31
0.0
 11
99.71873587325899
 21
112.8483355221461
 31
0.0
 11
99.80304583445329
 21
112.8204391718145
 31
0.0
 11
99.88462642786321
 21
112.7853465160785
 31
0.0
 11
99.96188106059623
 21
112.7444140589824
 31
0.0
 11
100.0358723143428
 21
112.6978208639561
 31
0.0
 11
100.1710742604049
 21
112.5924994667031
 31
0.0
 11
100.2934565683438
 21
112.4721585274422
 31
0.0
 11
100.401984322567
 21
112.3425894432622
 31
0.0
 11
100.4994976591
 21
112.2047209582
 31
0.0
  0
SPLINE
  5
FB
330
1F
100
AcDbEntity
  8
0
  6
Continuous
 62
     7
100
AcDbSpline
210
0.0
220
0.0
230
1.0
 70
     8
 71
     3
 72
    27
 73
    23
 74
    21
 42
0.0000000001
 43
0.0000000001
 44
0.00000001
 40
0.0
 40
0.0
 40
0.0
 40
0.0
 40
0.1071078874488452
 40
0.2142469263362768
 40
0.3135924363204814
 40
0.4129188580798193
 40
0.5028493808902862
 40
0.5928506536832954
 40
0.6735107912016568
 40
0.7538309173082928
 40
0.7916625684354139
 40
0.8294887980151454
 40
0.8669784898499087
 40
0.9044676327683933
 40
0.9428631026407385
 40
0.9812651393868189
 40
1.02165781541015
 40
1.062056720245845
 40
1.151027619765636
 40
1.240302097132606
 40
1.340997083308483
 40
1.441556404294573
 40
1.441556404294573
 40
1.441556404294573
 40
1.441556404294573
 10
94.1644731215
 20
88.5417839671
 30
0.0
 10
94.13459712637575
 20
88.52222215882747
 30
0.0
 10
94.07483644694244
 20
88.48309285289312
 30
0.0
 10
93.98362164972353
 20
88.43186219921422
 30
0.0
 10
93.89183346429573
 20
88.38736189001482
 30
0.0
 10
93.80213299381276
 20
88.35226835901048
 30
0.0
 10
93.71262120566972
 20
88.32619338812066
 30
0.0
 10
93.62669970572071
 20
88.31175358314361
 30
0.0
 10
93.54278957867149
 20
88.30947425493531
 30
0.0
 10
93.47672611521473
 20
88.31891684775108
 30
0.0
 10
93.42697503571537
 20
88.3343095670246
 30
0.0
 10
93.39226186491288
 20
88.34925748844199
 30
0.0
 10
93.35955785951711
 20
88.36797399307511
 30
0.0
 10
93.32899691154542
 20
88.39034181330129
 30
0.0
 10
93.30097021861145
 20
88.41626431040399
 30
0.0
 10
93.27526796418906
 20
88.44577410895201
 30
0.0
 10
93.25238033322026
 20
88.4783363619127
 30
0.0
 10
93.2243354117273
 20
88.52756136892583
 30
0.0
 10
93.1969243832864
 20
88.59550482510201
 30
0.0
 10
93.17483335133619
 20
88.68601237640725
 30
0.0
 10
93.16199643812246
 20
88.7822422117434
 30
0.0
 10
93.16066116433888
 20
88.84935165850285
 30
0.0
 10
93.1599939775
 20
88.8828837627
 30
0.0
 11
94.1644731215
 21
88.5417839671
 31
0.0
 11
94.07420596280392
 21
88.48413034956657
 31
0.0
 11
93.98083906026389
 21
88.43158137085334
 31
0.0
 11
93.89129802386311
 21
88.38854727792346
 31
0.0
 11
93.79870573884908
 21
88.35259721790413
 31
0.0
 11
93.71223115100673
 21
88.32790623593783
 31
0.0
 11
93.62340091138014
 21
88.31343496673833
 31
0.0
 11
93.5427582138486
 21
88.31175773112078
 31
0.0
 11
93.4633353627426
 21
88.32372992306627
 31
0.0
 11
93.42720346427022
 21
88.33494240449484
 31
0.0
 11
93.39247928575577
 21
88.34994424007303
 31
0.0
 11
93.35993931326767
 21
88.3685621664973
 31
0.0
 11
93.32969176140615
 21
88.39070988518675
 31
0.0
 11
93.30146921270622
 21
88.41674255411635
 31
0.0
 11
93.27621550303077
 21
88.44567292870562
 31
0.0
 11
93.25292314658955
 21
88.47867345003091
 31
0.0
 11
93.23286206364114
 21
88.51373945155461
 31
0.0
 11
93.19901292146301
 21
88.59601980483026
 31
0.0
 11
93.17720668104526
 21
88.68259012415501
 31
0.0
 11
93.1638822611993
 21
88.78239964312354
 31
0.0
 11
93.1599939775
 21
88.8828837627
 31
0.0
  0
SPLINE
  5
FC
330
1F
100
AcDbEntity
  8
RUNDUNGEN
  6
Continuous
 62
     7
100
AcDbSpline
210
0.0
220
0.0
230
1.0
 70
     8
 71
     3
 72
    15
 73
    11
 74
     9
 42
0.0000000001
 43
0.0000000001
 44
0.00000001
 40
0.0
 40
0.0
 40
0.0
 40
0.0
 40
0.3210967670962299
 40
0.6424758766253615
 40
0.9611327417702848
 40
1.279702385450351
 40
1.596661045153705
 40
1.913689899818448
 40
2.230145323886416
 40
2.546438905940587
 40
2.546438905940587
 40
2.546438905940587
 40
2.546438905940587
 10
101.2599939775
 20
90.7993787319
 30
0.0
 10
101.257183292052
 20
90.69231569736633
 30
0.0
 10
101.2515594497023
 20
90.47809548709063
 30
0.0
 10
101.2082817771372
 20
90.16007439853568
 30
0.0
 10
101.1421987158615
 20
89.84721753976751
 30
0.0
 10
101.0529202757079
 20
89.54163033671688
 30
0.0
 10
100.9430461959251
 20
89.24346057972866
 30
0.0
 10
100.8136457844926
 20
88.95409060145374
 30
0.0
 10
100.6676671779548
 20
88.6727973259479
 30
0.0
 10
100.5555446059637
 20
88.49406450892727
 30
0.0
 10
100.4994976591
 20
88.4047209582
 30
0.0
 11
101.2599939775
 21
90.7993787319
 31
0.0
 11
101.2457406860914
 21
90.47859846828693
 31
0.0
 11
101.2043009537938
 21
90.15990224830803
 31
0.0
 11
101.1382681522999
 21
89.84816218538565
 31
0.0
 11
101.0492913134961
 21
89.54227047246926
 31
0.0
 11
100.9397581231463
 21
89.24483935074062
 31
0.0
 11
100.8107832431878
 21
88.95523138291219
 31
0.0
 11
100.6639227639228
 21
88.67491721086215
 31
0.0
 11
100.4994976591
 21
88.4047209582
 31
0.0
  0
SPLINE
  5
FD
330
1F
100
AcDbEntity
  8
RUNDUNGEN
  6
Continuous
 62
     7
100
AcDbSpline
210
0.0
220
0.0
230
1.0
 70
     8
 71
     3
 72
    19
 73
    15
 74
    13
 42
0.0000000001
 43
0.0000000001
 44
0.00000001
 40
0.0
 40
0.0
 40
0.0
 40
0.0
 40
0.1688722591479677
 40
0.337892330213935
 40
0.5095430667913569
 40
0.6809387932147082
 40
0.7683828000778844
 40
0.8558164159824876
 40
0.9446259265949443
 40
1.033432066257991
 40
1.123538983623367
 40
1.213666714869174
 40
1.304608728473016
 40
1.395466840273386
 40
1.395466840273386
 40
1.395466840273386
 40
1.395466840273386
 10
100.4994976591
 20
88.4047209582
 30
0.0
 10
100.4677467882244
 20
88.35820680303385
 30
0.0
 10
100.4042172553063
 20
88.26513777940426
 30
0.0
 10
100.2947506300571
 20
88.13487853070157
 30
0.0
 10
100.1733565272741
 20
88.01451740350981
 30
0.0
 10
100.0600910995957
 20
87.92570963930612
 30
0.0
 10
99.96240012208206
 20
87.86407112062514
 30
0.0
 10
99.88469054355257
 20
87.82280633128079
 30
0.0
 10
99.80346353944181
 20
87.78778619223392
 30
0.0
 10
99.71865371437072
 20
87.75964648751284
 30
0.0
 10
99.63115207545869
 20
87.73934089561726
 30
0.0
 10
99.54141753881656
 20
87.72756855875686
 30
0.0
 10
99.45061724591588
 20
87.72410938819445
 30
0.0
 10
99.39019243817319
 20
87.72930406592269
 30
0.0
 10
99.3599939775
 20
87.7319002061
 30
0.0
 11
100.4994976591
 21
88.4047209582
 31
0.0
 11
100.4019818120753
 21
88.26684964324005
 31
0.0
 11
100.2934512862518
 21
88.1372776193011
 31
0.0
 11
100.1710594490035
 21
88.01692724106094
 31
0.0
 11
100.0358448863013
 21
87.91160147465294
 31
0.0
 11
99.96184701549562
 21
87.8650099576942
 31
0.0
 11
99.88458608900542
 21
87.82407847313732
 31
0.0
 11
99.80300413046876
 21
87.78898555053821
 31
0.0
 11
99.71869316398086
 21
87.76108946888276
 31
0.0
 11
99.630903310985
 21
87.74078680235698
 31
0.0
 11
99.54155217738783
 21
87.72898075033203
 31
0.0
 11
99.45065945692944
 21
87.72598688894657
 31
0.0
 11
99.3599939775
 21
87.7319002061
 31
0.0
  0
SPLINE
  5
FE
330
1F
100
AcDbEntity
  8
0
  6
Continuous
 62
     7
100
AcDbSpline
210
0.0
220
0.0
230
1.0
 70
     8
 71
     3
 72
     9
 73
     5
 74
     3
 42
0.0000000001
 43
0.0000000001
 44
0.00000001
 40
0.0
 40
0.0
 40
0.0
 40
0.0
 40
0.1120698018073749
 40
0.2241876569538228
 40
0.2241876569538228
 40
0.2241876569538228
 40
0.2241876569538228
 10
94.341663965
 20
88.4047209582
 30
0.0
 10
94.3107943529712
 20
88.42582221029893
 30
0.0
 10
94.24904189262774
 20
88.46803376230093
 30
0.0
 10
94.19266673977285
 20
88.51719705287715
 30
0.0
 10
94.1644731215
 20
88.5417839671
 30
0.0
 11
94.341663965
 21
88.4047209582
 31
0.0
 11
94.25039887954999
 21
88.4697619041875
 31
0.0
 11
94.1644731215
 21
88.5417839671
 31
0.0
  0
SPLINE
  5
FF
330
1F
100
AcDbEntity
  8
0
  6
Continuous
 62
     7
100
AcDbSpline
210
0.0
220
0.0
230
1.0
 70
     8
 71
     3
 72
    11
 73
     7
 74
     5
 42
0.0000000001
 43
0.0000000001
 44
0.00000001
 40
0.0
 40
0.0
 40
0.0
 40
0.0
 40
0.0910518967510819
 40
0.1822839481536305
 40
0.2734564443664549
 40
0.3645245916651658
 40
0.3645245916651658
 40
0.3645245916651658
 40
0.3645245916651658
 10
94.6799343897
 20
88.2771060181
 30
0.0
 10
94.6499126063992
 20
88.28185638671314
 30
0.0
 10
94.5898096389054
 20
88.29136652298583
 30
0.0
 10
94.50293479604825
 20
88.32000522452007
 30
0.0
 10
94.41947576817773
 20
88.35717182794603
 30
0.0
 10
94.36759132991338
 20
88.38887729951252
 30
0.0
 10
94.341663965
 20
88.4047209582
 30
0.0
 11
94.6799343897
 21
88.2771060181
 31
0.0
 11
94.59041617420795
 21
88.29374744223043
 31
0.0
 11
94.50348669100123
 21
88.32143412048063
 31
0.0
 11
94.42037803697076
 21
88.35892246121374
 31
0.0
 11
94.341663965
 21
88.4047209582
 31
0.0
  0
SPLINE
  5
100
330
1F
100
AcDbEntity
  8
FASEN
  6
Continuous
 62
     7
100
AcDbSpline
210
0.0
220
0.0
230
1.0
 70
     8
 71
     3
 72
    13
 73
     9
 74
     7
 42
0.0000000001
 43
0.0000000001
 44
0.00000001
 40
0.0
 40
0.0
 40
0.0
 40
0.0
 40
0.148418124702443
 40
0.2968908034209243
 40
0.3638815767855506
 40
0.4308012640646139
 40
0.4942605386867403
 40
0.5576337748484823
 40
0.5576337748484823
 40
0.5576337748484823
 40
0.5576337748484823
 10
152.5892411252
 20
108.9047209582
 30
0.0
 10
152.6331065274933
 20
108.9279044784926
 30
0.0
 10
152.7208534556759
 20
108.9742800406392
 30
0.0
 10
152.8117305921401
 20
109.0568103313178
 30
0.0
 10
152.8707810329446
 20
109.130245292215
 30
0.0
 10
152.9058728321128
 20
109.1860508691324
 30
0.0
 10
152.9344053396546
 20
109.2442245814322
 30
0.0
 10
152.9472236385707
 20
109.2845646210051
 30
0.0
 10
152.9536284403
 20
109.3047209582
 30
0.0
 11
152.5892411252
 21
108.9047209582
 31
0.0
 11
152.7174385024354
 21
108.9795098090413
 31
0.0
 11
152.8279234091438
 21
109.0786925782881
 31
0.0
 11
152.8697463545699
 21
109.1310242603926
 31
0.0
 11
152.9054392919257
 21
109.187630432922
 31
0.0
 11
152.9329511662314
 21
109.2448158883085
 31
0.0
 11
152.9536284403
 21
109.3047209582
 31
0.0
  0
SPLINE
  5
101
330
1F
100
AcDbEntity
  8
FASEN
  6
Continuous
 62
     7
100
AcDbSpline
210
0.0
220
0.0
230
1.0
 70
     8
 71
     3
 72
    13
 73
     9
 74
     7
 42
0.0000000001
 43
0.0000000001
 44
0.00000001
 40
0.0
 40
0.0
 40
0.0
 40
0.0
 40
0.0633737589976868
 40
0.1268335617777855
 40
0.1937531772171574
 40
0.2607438719021822
 40
0.4092160946130247
 40
0.5576337728185748
 40
0.5576337728185748
 40
0.5576337728185748
 40
0.5576337728185748
 10
149.1663595147
 20
109.3047209582
 30
0.0
 10
149.1727643802717
 20
109.2845644576276
 30
0.0
 10
149.1855828074254
 20
109.2442240896109
 30
0.0
 10
149.2141155766042
 20
109.1860501373841
 30
0.0
 10
149.2492075208735
 20
109.1302445063827
 30
0.0
 10
149.3082579103946
 20
109.0568097629486
 30
0.0
 10
149.3991348824008
 20
108.9742797932831
 30
0.0
 10
149.4868815543292
 20
108.9279043965373
 30
0.0
 10
149.5307468299
 20
108.9047209582
 30
0.0
 11
149.1663595147
 21
109.3047209582
 31
0.0
 11
149.1870370060082
 21
109.2448154101873
 31
0.0
 11
149.214549208927
 21
109.1876295267943
 31
0.0
 11
149.2502421951031
 21
109.1310234699771
 31
0.0
 11
149.2920651496481
 21
109.0786918958798
 31
0.0
 11
149.4025498089028
 21
108.9795095336067
 31
0.0
 11
149.5307468299
 21
108.9047209582
 31
0.0
  0
SPLINE
  5
102
330
1F
100
AcDbEntity
  8
FASEN
  6
Continuous
 62
     7
100
AcDbSpline
210
0.0
220
0.0
230
1.0
 70
     8
 71
     3
 72
    13
 73
     9
 74
     7
 42
0.0000000001
 43
0.0000000001
 44
0.00000001
 40
0.0
 40
0.0
 40
0.0
 40
0.0
 40
0.1484181359215254
 40
0.2968908258094282
 40
0.3638815920157672
 40
0.4308012721275473
 40
0.4942605427137055
 40
0.5576337749250551
 40
0.5576337749250551
 40
0.5576337749250551
 40
0.5576337749250551
 10
149.5307468299
 20
91.7047209582
 30
0.0
 10
149.486881424353
 20
91.68153743599447
 30
0.0
 10
149.3991344896779
 20
91.63516187002988
 30
0.0
 10
149.3082573511616
 20
91.55263157355395
 30
0.0
 10
149.2492069132277
 20
91.47919661174866
 30
0.0
 10
149.2141151184507
 20
91.42339103933678
 30
0.0
 10
149.1855826139369
 20
91.36521733122375
 30
0.0
 10
149.1727643159627
 20
91.32487729415588
 30
0.0
 10
149.1663595147
 20
91.3047209582
 30
0.0
 11
149.5307468299
 21
91.7047209582
 31
0.0
 11
149.4025494434873
 21
91.62993210082556
 31
0.0
 11
149.2920645308294
 21
91.53074932148604
 31
0.0
 11
149.2502415914181
 21
91.47841764373811
 31
0.0
 11
149.2145486590248
 21
91.42181147655259
 31
0.0
 11
149.1870367871821
 21
91.36462602446
 31
0.0
 11
149.1663595147
 21
91.3047209582
 31
0.0
  0
SPLINE
  5
103
330
1F
100
AcDbEntity
  8
FASEN
  6
Continuous
 62
     7
100
AcDbSpline
210
0.0
220
0.0
230
1.0
 70
     8
 71
     3
 72
    43
 73
    39
 74
    37
 42
0.0000000001
 43
0.0000000001
 44
0.00000001
 40
0.0
 40
0.0
 40
0.0
 40
0.0
 40
0.4706686416621238
 40
0.9418242752042362
 40
1.415226743175661
 40
1.888479857267405
 40
2.363190981031206
 40
2.838000227679672
 40
3.315175149053142
 40
3.792113826619543
 40
4.031391417182339
 40
4.2705914209209
 40
4.509874995732351
 40
4.749236632857094
 40
5.227333355334697
 40
5.705661581680787
 40
6.183163657718889
 40
6.660606244075267
 40
7.137076247056181
 40
7.613561752765538
 40
8.088992783537831
 40
8.564405684735902
 40
9.039085298926762
 40
9.513821208391693
 40
9.988600689576542
 40
10.46315488337417
 40
10.70087681249601
 40
10.93852297389985
 40
11.17640321728468
 40
11.4143597215975
 40
11.89020085762183
 40
12.36627782159742
 40
12.84226790378686
 40
13.31816244370403
 40
13.79435809931036
 40
14.27070893655085
 40
14.74618188892808
 40
15.22115280861638
 40
15.22115280861638
 40
15.22115280861638
 40
15.22115280861638
 10
125.9093064847
 20
100.3047209984
 30
0.0
 10
125.9049240629946
 20
100.1477690464319
 30
0.0
 10
125.8961546851756
 20
99.83370274730004
 30
0.0
 10
125.8250170566373
 20
99.36621820104837
 30
0.0
 10
125.7120191540774
 20
98.90672803745377
 30
0.0
 10
125.5536118730883
 20
98.45933689885868
 30
0.0
 10
125.352149256089
 20
98.0291788730202
 30
0.0
 10
125.1088052782986
 20
97.61968202386596
 30
0.0
 10
124.8258003686246
 20
97.23562713582086
 30
0.0
 10
124.558991346737
 20
96.93962516818456
 30
0.0
 10
124.3286799869207
 20
96.71951071110001
 30
0.0
 10
124.1476522162663
 20
96.5629227037907
 30
0.0
 10
123.9590671485385
 20
96.41547793042481
 30
0.0
 10
123.69830387546
 20
96.23168982380116
 30
0.0
 10
123.3556967793296
 20
96.02659520361168
 30
0.0
 10
122.9227341959733
 20
95.82231228271213
 30
0.0
 10
122.4718858899462
 20
95.66189343385443
 30
0.0
 10
122.0080873643189
 20
95.5466301880963
 30
0.0
 10
121.5355557926634
 20
95.47749905471585
 30
0.0
 10
121.059206878775
 20
95.45479878656693
 30
0.0
 10
120.5832784169449
 20
95.47876412354174
 30
0.0
 10
120.1125258249033
 20
95.54876195154264
 30
0.0
 10
119.6510675945134
 20
95.66426261179359
 30
0.0
 10
119.20320778897
 20
95.8239935506977
 30
0.0
 10
118.7731633147925
 20
96.02670552578849
 30
0.0
 10
118.4327585864527
 20
96.22976952330515
 30
0.0
 10
118.1734136218283
 20
96.41161685003092
 30
0.0
 10
117.9856012108208
 20
96.55755565016221
 30
0.0
 10
117.8051103331138
 20
96.71257857111235
 30
0.0
 10
117.5748371933122
 20
96.93092209454524
 30
0.0
 10
117.3075128327003
 20
97.22486464272396
 30
0.0
 10
117.0228561799919
 20
97.60726690568534
 30
0.0
 10
116.7772805278292
 20
98.01592776507239
 30
0.0
 10
116.5730708641556
 20
98.44675525887071
 30
0.0
 10
116.4120719825521
 20
98.89574694080785
 30
0.0
 10
116.2968291040502
 20
99.35820171486807
 30
0.0
 10
116.2241459974825
 20
99.82939039934347
 30
0.0
 10
116.2151512223881
 20
100.1463332709049
 30
0.0
 10
116.2106562104
 20
100.3047210007
 30
0.0
 11
125.9093064847
 21
100.3047209984
 31
0.0
 11
125.886526125484
 21
99.83460396459027
 31
0.0
 11
125.8182127396402
 21
99.36842705360795
 31
0.0
 11
125.7044911977751
 21
98.90888673154984
 31
0.0
 11
125.5466507251239
 21
98.46273104662495
 31
0.0
 11
125.3452885557316
 21
98.03284277304368
 31
0.0
 11
125.1026987601763
 21
97.62468347596064
 31
0.0
 11
124.8196639348316
 21
97.24051268942176
 31
0.0
 11
124.5003032270309
 21
96.88628219882023
 31
0.0
 11
124.3273267295043
 21
96.72095556258462
 31
0.0
 11
124.1464179256121
 21
96.56446707590644
 31
0.0
 11
123.9579101574943
 21
96.41708508740794
 31
0.0
 11
123.7622572536204
 21
96.27919406328839
 31
0.0
 11
123.3520754975841
 21
96.03357768952883
 31
0.0
 11
122.9194646667081
 21
95.82950475862373
 31
0.0
 11
122.4696095261537
 21
95.66938422546976
 31
0.0
 11
122.0062582490993
 21
95.55424510388765
 31
0.0
 11
121.5348134144205
 21
95.48522748588086
 31
0.0
 11
121.0588665744203
 21
95.46257704118439
 31
0.0
 11
120.5840350834825
 21
95.48644585420452
 31
0.0
 11
120.1137971349037
 21
95.55640082788014
 31
0.0
 11
119.6533176629763
 21
95.67163707244688
 31
0.0
 11
119.2061842906948
 21
95.83115488063035
 31
0.0
 11
118.7767089354832
 21
96.03355664697638
 31
0.0
 11
118.3691900173433
 21
96.27672328574289
 31
0.0
 11
118.1745457418592
 21
96.41319790465315
 31
0.0
 11
117.9868918552464
 21
96.5590118850154
 31
0.0
 11
117.8064384855284
 21
96.71400734156252
 31
0.0
 11
117.6337693569402
 21
96.87774087501664
 31
0.0
 11
117.3135869928623
 21
97.2297466142687
 31
0.0
 11
117.0293559577861
 21
97.61166544638844
 31
0.0
 11
116.784161991082
 21
98.01964397160103
 31
0.0
 11
116.5803182148051
 21
98.4496710963224
 31
0.0
 11
116.4197093400216
 21
98.89796462935533
 31
0.0
 11
116.3038528160594
 21
99.36001158150965
 31
0.0
 11
116.2339864101781
 21
99.83032340761181
 31
0.0
 11
116.2106562104
 21
100.3047210007
 31
0.0
  0
SPLINE
  5
104
330
1F
100
AcDbEntity
  8
FASEN
  6
Continuous
 62
     7
100
AcDbSpline
210
0.0
220
0.0
230
1.0
 70
     8
 71
     3
 72
    19
 73
    15
 74
    13
 42
0.0000000001
 43
0.0000000001
 44
0.00000001
 40
0.0
 40
0.0
 40
0.0
 40
0.0
 40
0.0355072727147436
 40
0.0711690978224017
 40
0.1067340991077009
 40
0.1422868430995495
 40
0.1778317459690947
 40
0.2133709079989023
 40
0.2488997353418027
 40
0.2844290253979884
 40
0.3554387100429225
 40
0.4265014700176861
 40
0.4975508693014076
 40
0.5685734842385646
 40
0.5685734842385646
 40
0.5685734842385646
 40
0.5685734842385646
 10
149.8974939775
 20
92.104073118
 30
0.0
 10
149.8856441548045
 20
92.10333736978234
 30
0.0
 10
149.8618929307277
 20
92.10186267085801
 30
0.0
 10
149.8276382940679
 20
92.09117100318527
 30
0.0
 10
149.7955966733305
 20
92.07546650549008
 30
0.0
 10
149.7660700577761
 20
92.05548546436782
 30
0.0
 10
149.7387837897278
 20
92.03263379998795
 30
0.0
 10
149.7135706718182
 20
92.00753823604757
 30
0.0
 10
149.6901325688555
 20
91.98080257348434
 30
0.0
 10
149.6609802039405
 20
91.94345974762638
 30
0.0
 10
149.627787846715
 20
91.89434895018614
 30
0.0
 10
149.5923092149943
 20
91.83276167857775
 30
0.0
 10
149.5598593525699
 20
91.76952252755297
 30
0.0
 10
149.5404497843837
 20
91.726318766299
 30
0.0
 10
149.5307468299
 20
91.7047209582
 30
0.0
 11
149.8974939775
 21
92.104073118
 31
0.0
 11
149.8621711760536
 21
92.1004584100423
 31
0.0
 11
149.8279797097702
 21
92.09032384525646
 31
0.0
 11
149.7960065118944
 21
92.07474873902825
 31
0.0
 11
149.7664402021115
 21
92.05500460240063
 31
0.0
 11
149.7391269241407
 21
92.03225762531588
 31
0.0
 11
149.7138635470862
 21
92.0072617493043
 31
0.0
 11
149.6903933595312
 21
91.9805887691841
 31
0.0
 11
149.6684777202135
 21
91.95262387681538
 31
0.0
 11
149.6285225381566
 21
91.89392158776145
 31
0.0
 11
149.5928123187798
 21
91.83248303238054
 31
0.0
 11
149.5604107235176
 21
91.7692520766465
 31
0.0
 11
149.5307468299
 21
91.7047209582
 31
0.0
  0
SPLINE
  5
105
330
1F
100
AcDbEntity
  8
FASEN
  6
Continuous
 62
     7
100
AcDbSpline
210
0.0
220
0.0
230
1.0
 70
     8
 71
     3
 72
    19
 73
    15
 74
    13
 42
0.0000000001
 43
0.0000000001
 44
0.00000001
 40
0.0
 40
0.0
 40
0.0
 40
0.0
 40
0.0710236743833912
 40
0.1420741376624245
 40
0.2131378691484585
 40
0.2841485009400037
 40
0.3196779499506838
 40
0.3552069496504435
 40
0.3907443590758568
 40
0.4262874916356243
 40
0.4618403527373857
 40
0.4974054896315067
 40
0.5330666493658738
 40
0.5685732487915115
 40
0.5685732487915115
 40
0.5685732487915115
 40
0.5685732487915115
 10
149.5307468299
 20
108.9047209582
 30
0.0
 10
149.540449912109
 20
108.8831228204556
 30
0.0
 10
149.559859736361
 20
108.8399183985246
 30
0.0
 10
149.5923100109994
 20
108.7766782968172
 30
0.0
 10
149.6277893253964
 20
108.715090263468
 30
0.0
 10
149.6609825174336
 20
108.6659791762341
 30
0.0
 10
149.6901357141222
 20
108.6286364569733
 30
0.0
 10
149.7135738481765
 20
108.6019014583362
 30
0.0
 10
149.7387862328169
 20
108.5768067561824
 30
0.0
 10
149.7660715633112
 20
108.5539557452027
 30
0.0
 10
149.7955977859014
 20
108.5339750124562
 30
0.0
 10
149.8276393446409
 20
108.5182706994859
 30
0.0
 10
149.861893602844
 20
108.5075792061851
 30
0.0
 10
149.8856443797234
 20
108.5061045335096
 30
0.0
 10
149.8974939775
 20
108.5053687985
 30
0.0
 11
149.5307468299
 21
108.9047209582
 31
0.0
 11
149.5604111136348
 21
108.8401888530629
 31
0.0
 11
149.5928131776215
 21
108.7769569419613
 31
0.0
 11
149.6285240893039
 21
108.7155176652766
 31
0.0
 11
149.6684803550482
 21
108.6568149681052
 31
0.0
 11
149.6903964892255
 21
108.6288502616035
 31
0.0
 11
149.7138671086892
 21
108.6021774319513
 31
0.0
 11
149.7391293336489
 21
108.5771828833705
 31
0.0
 11
149.7664412118147
 21
108.5544369918027
 31
0.0
 11
149.7960076263642
 21
108.5346928011835
 31
0.0
 11
149.8279809972102
 21
108.5191177403797
 31
0.0
 11
149.8621718450983
 21
108.5089834306205
 31
0.0
 11
149.8974939775
 21
108.5053687985
 31
0.0
  0
SPLINE
  5
106
330
1F
100
AcDbEntity
  8
0
  6
Continuous
 62
     7
100
AcDbSpline
210
0.0
220
0.0
230
1.0
 70
     8
 71
     3
 72
    25
 73
    21
 74
    19
 42
0.0000000001
 43
0.0000000001
 44
0.00000001
 40
0.0
 40
0.0
 40
0.0
 40
0.0
 40
0.1239880553192603
 40
0.2479744814170714
 40
0.3099722230774943
 40
0.371969177576166
 40
0.4339700137585441
 40
0.4959673131882794
 40
0.5579583281825958
 40
0.6199698189929798
 40
0.6819979541547035
 40
0.7439758328162348
 40
0.7749898253627227
 40
0.8060036549561804
 40
0.8370304793597411
 40
0.8680591966836408
 40
0.8991088560230569
 40
0.9301665595907179
 40
0.9613026543012477
 40
0.9923391668280567
 40
0.9923391668280567
 40
0.9923391668280567
 40
0.9923391668280567
 10
152.7280589638
 20
91.3047209582
 30
0.0
 10
152.7165851720226
 20
91.34442893926483
 30
0.0
 10
152.693637739235
 20
91.42384437962573
 30
0.0
 10
152.660840772588
 20
91.52186280524323
 30
0.0
 10
152.6323811690281
 20
91.59947372455267
 30
0.0
 10
152.6096548079119
 20
91.65716416323775
 30
0.0
 10
152.5854112365191
 20
91.7142351185897
 30
0.0
 10
152.5593817275941
 20
91.77051522903797
 30
0.0
 10
152.5313143817719
 20
91.82581746650344
 30
0.0
 10
152.5007501882191
 20
91.87980082165151
 30
0.0
 10
152.4672895226979
 20
91.93204909581048
 30
0.0
 10
152.4361959267918
 20
91.97340948305143
 30
0.0
 10
152.4090278623077
 20
92.00458600207412
 30
0.0
 10
152.3872932820046
 20
92.0267453017338
 30
0.0
 10
152.3640559251994
 20
92.0473473366688
 30
0.0
 10
152.3391151071423
 20
92.06588618747266
 30
0.0
 10
152.3123845465571
 20
92.08182771470717
 30
0.0
 10
152.2837787117555
 20
92.09416158072285
 30
0.0
 10
152.2535944305271
 20
92.1024076595939
 30
0.0
 10
152.232849719539
 20
92.10351855830868
 30
0.0
 10
152.2224939775
 20
92.104073118
 30
0.0
 11
152.7280589638
 21
91.3047209582
 31
0.0
 11
152.6928151297399
 21
91.42359446249172
 31
0.0
 11
152.6535414726336
 21
91.54119639153205
 31
0.0
 11
152.6321509890335
 21
91.59938717415564
 31
0.0
 11
152.609402418483
 21
91.65705974046769
 31
0.0
 11
152.5851129603525
 21
91.71410468687876
 31
0.0
 11
152.5590414543419
 21
91.77035361318781
 31
0.0
 11
152.5309023029643
 21
91.82559014186019
 31
0.0
 11
152.5002698385564
 21
91.8795074592714
 31
0.0
 11
152.4666382674387
 21
91.93162662058276
 31
0.0
 11
152.4292206831491
 21
91.981034937993
 31
0.0
 11
152.4088032738742
 21
92.00438011163074
 31
0.0
 11
152.3870465548204
 21
92.02648221112521
 31
0.0
 11
152.3637740622135
 21
92.04700183393926
 31
0.0
 11
152.3388240645398
 21
92.06544848444425
 31
0.0
 11
152.3120797971675
 21
92.08122268831676
 31
0.0
 11
152.2835395085343
 21
92.09347147909901
 31
0.0
 11
152.2534077753459
 21
92.10131590698677
 31
0.0
 11
152.2224939775
 21
92.104073118
 31
0.0
  0
SPLINE
  5
107
330
1F
100
AcDbEntity
  8
0
  6
Continuous
 62
     7
100
AcDbSpline
210
0.0
220
0.0
230
1.0
 70
     8
 71
     3
 72
    11
 73
     7
 74
     5
 42
0.0000000001
 43
0.0000000001
 44
0.00000001
 40
0.0
 40
0.0
 40
0.0
 40
0.0
 40
0.0910828808205991
 40
0.1822704385530263
 40
0.2734873447169224
 40
0.364523778964054
 40
0.364523778964054
 40
0.364523778964054
 40
0.364523778964054
 10
94.341663965
 20
112.2047209582
 30
0.0
 10
94.36759588463646
 20
112.2205666395531
 30
0.0
 10
94.4194895261427
 20
112.252276212893
 30
0.0
 10
94.50295532383267
 20
112.2894396794482
 30
0.0
 10
94.58982494909523
 20
112.3180768798312
 30
0.0
 10
94.6499177446392
 20
112.3275860309452
 30
0.0
 10
94.6799343897
 20
112.3323358984
 30
0.0
 11
94.341663965
 21
112.2047209582
 31
0.0
 11
94.42039205301508
 21
112.2505246625924
 31
0.0
 11
94.50351619606838
 21
112.2880152951139
 31
0.0
 11
94.59043152137589
 21
112.31569651974
 31
0.0
 11
94.6799343897
 21
112.3323358984
 31
0.0
  0
SPLINE
  5
108
330
1F
100
AcDbEntity
  8
0
  6
Continuous
 62
     7
100
AcDbSpline
210
0.0
220
0.0
230
1.0
 70
     8
 71
     3
 72
     9
 73
     5
 74
     3
 42
0.0000000001
 43
0.0000000001
 44
0.00000001
 40
0.0
 40
0.0
 40
0.0
 40
0.0
 40
0.1121178551143238
 40
0.2241876568926843
 40
0.2241876568926843
 40
0.2241876568926843
 40
0.2241876568926843
 10
94.1644731215
 20
112.0676579494
 30
0.0
 10
94.19266673977305
 20
112.0922448636063
 30
0.0
 10
94.24904189262915
 20
112.1414081541502
 30
0.0
 10
94.31079435297139
 20
112.1836197061179
 30
0.0
 10
94.341663965
 20
112.2047209582
 30
0.0
 11
94.1644731215
 21
112.0676579494
 31
0.0
 11
94.25039887954999
 21
112.1396800122625
 31
0.0
 11
94.341663965
 21
112.2047209582
 31
0.0
  0
SPLINE
  5
109
330
1F
100
AcDbEntity
  8
FASEN
  6
Continuous
 62
     7
100
AcDbSpline
210
0.0
220
0.0
230
1.0
 70
     8
 71
     3
 72
    19
 73
    15
 74
    13
 42
0.0000000001
 43
0.0000000001
 44
0.00000001
 40
0.0
 40
0.0
 40
0.0
 40
0.0
 40
0.0355380831021846
 40
0.0712305624723428
 40
0.1068073092170741
 40
0.1423722988787007
 40
0.177915920808941
 40
0.2134534051703674
 40
0.2489763316391208
 40
0.2844999304656628
 40
0.3554928280102841
 40
0.4265383987890252
 40
0.4975694022669532
 40
0.5685737885591746
 40
0.5685737885591746
 40
0.5685737885591746
 40
0.5685737885591746
 10
152.2224939775
 20
108.5053687985
 30
0.0
 10
152.2343541019771
 20
108.5061053546631
 30
0.0
 10
152.2581258775977
 20
108.5075816669795
 30
0.0
 10
152.2924028974889
 20
108.5182861395981
 30
0.0
 10
152.3244554347877
 20
108.5340102362612
 30
0.0
 10
152.3539807450254
 20
108.5540065504959
 30
0.0
 10
152.3812640618833
 20
108.576866304645
 30
0.0
 10
152.4064713127274
 20
108.6019635554673
 30
0.0
 10
152.4299024389976
 20
108.628699441236
 30
0.0
 10
152.4590443703906
 20
108.6660383566957
 30
0.0
 10
152.4922273103645
 20
108.7151393495428
 30
0.0
 10
152.5276973596849
 20
108.7767114409648
 30
0.0
 10
152.5601369510117
 20
108.8399357008396
 30
0.0
 10
152.5795409458955
 20
108.8831285705028
 30
0.0
 10
152.5892411252
 20
108.9047209582
 30
0.0
 11
152.2224939775
 21
108.5053687985
 31
0.0
 11
152.2578472923156
 21
108.5089879810218
 31
0.0
 11
152.2920663995046
 21
108.519137157677
 31
0.0
 11
152.3240449585774
 21
108.5347280738966
 31
0.0
 11
152.3536145217928
 21
108.5544893851102
 31
0.0
 11
152.380921298194
 21
108.5772421656545
 31
0.0
 11
152.4061793840922
 21
108.6022410034575
 31
0.0
 11
152.4296417462459
 21
108.628913008764
 31
0.0
 11
152.4515505567588
 21
108.6568760217543
 31
0.0
 11
152.4914932870869
 21
108.7155664792046
 31
0.0
 11
152.5271942055711
 21
108.7769905587391
 31
0.0
 11
152.559585902713
 21
108.8402059161402
 31
0.0
 11
152.5892411252
 21
108.9047209582
 31
0.0
  0
SPLINE
  5
10A
330
1F
100
AcDbEntity
  8
0
  6
Continuous
 62
     7
100
AcDbSpline
210
0.0
220
0.0
230
1.0
 70
     8
 71
     3
 72
    11
 73
     7
 74
     5
 42
0.0000000001
 43
0.0000000001
 44
0.00000001
 40
0.0
 40
0.0
 40
0.0
 40
0.0
 40
0.7132110075095925
 40
1.426361317768327
 40
1.831519457881091
 40
2.23602682519549
 40
2.23602682519549
 40
2.23602682519549
 40
2.23602682519549
 10
94.164473121635
 20
88.5417839668921
 30
0.0
 10
94.27368558410129
 20
88.75326357007413
 30
0.0
 10
94.49210121459483
 20
89.17620477863616
 30
0.0
 10
94.68649395076943
 20
89.75755415421382
 30
0.0
 10
94.79181214704158
 20
90.25569311952071
 30
0.0
 10
94.80393661573532
 20
90.52574697967057
 30
0.0
 10
94.8099939775303
 20
90.6606653811589
 30
0.0
 11
94.164473121635
 21
88.5417839668921
 31
0.0
 11
94.47535275016918
 21
89.18367476585661
 31
0.0
 11
94.70236696255543
 21
89.8597279534068
 31
0.0
 11
94.78087148303065
 21
90.25720771234377
 31
0.0
 11
94.8099939775303
 21
90.6606653811589
 31
0.0
  0
SPLINE
  5
10B
330
1F
100
AcDbEntity
  8
0
  6
Continuous
 62
     7
100
AcDbSpline
210
0.0
220
0.0
230
1.0
 70
     8
 71
     3
 72
    11
 73
     7
 74
     5
 42
0.0000000001
 43
0.0000000001
 44
0.00000001
 40
0.0
 40
0.0
 40
0.0
 40
0.0
 40
0.6210757380668899
 40
1.242411211129394
 40
1.739180735560726
 40
2.235731818863741
 40
2.235731818863741
 40
2.235731818863741
 40
2.235731818863741
 10
94.8099939775
 20
109.948776535
 30
0.0
 10
94.79579729821245
 20
110.1559431373613
 30
0.0
 10
94.76739800256044
 20
110.5703629795313
 30
0.0
 10
94.59742502322966
 20
111.1285081754292
 30
0.0
 10
94.39636714368692
 20
111.6280629917459
 30
0.0
 10
94.24175979575206
 20
111.921147781012
 30
0.0
 10
94.1644731216351
 20
112.067657949508
 30
0.0
 11
94.8099939775
 21
109.948776535
 31
0.0
 11
94.7441577659635
 21
110.5663529802
 31
0.0
 11
94.57600134616344
 21
111.1645011128275
 31
0.0
 11
94.38860691588056
 21
111.6245698988832
 31
0.0
 11
94.1644731216351
 21
112.067657949508
 31
0.0
  0
DIMENSION
  5
118
330
1F
100
AcDbEntity
  8
1
100
AcDbDimension
  2
*D2
 10
228.351048745107
 20
97.3047209582
 30
0.0
 11
224.601048745107
 21
107.80310305106
 31
0.0
 70
    32
  1
<>
 71
     5
 42
-1.0
 53
90.0
  3
ME10_DIM_10
100
AcDbAlignedDimension
 13
218.0599939775
 23
103.3047209582
 33
0.0
 14
218.0599939775
 24
97.3047209582
 34
0.0
 50
90.0
100
AcDbRotatedDimension
  0
DIMENSION
  5
123
330
1F
100
AcDbEntity
  8
1
100
AcDbDimension
  2
*D3
 10
238.51108842027
 20
110.8047209582466
 30
0.0
 11
234.76108842027
 21
100.352407289273
 31
0.0
 70
    32
  1
<>
 71
     5
 42
-1.0
 53
90.0
  3
ME10_DIM_11
100
AcDbAlignedDimension
 13
218.0599939775
 23
89.80472095824862
 33
0.0
 14
218.0599939775
 24
110.8047209582466
 34
0.0
 50
90.0
100
AcDbRotatedDimension
  0
DIMENSION
  5
12E
330
1F
100
AcDbEntity
  8
1
100
AcDbDimension
  2
*D4
 10
246.639120160402
 20
113.8047209582
 30
0.0
 11
242.889120160402
 21
100.352407289273
 31
0.0
 70
    32
  1
<>
 71
     5
 42
-1.0
 53
90.0
  3
ME10_DIM_12
100
AcDbAlignedDimension
 13
179.941379769
 23
86.8047209582
 33
0.0
 14
179.941379769
 24
113.8047209582
 34
0.0
 50
90.0
100
AcDbRotatedDimension
  0
DIMENSION
  5
139
330
1F
100
AcDbEntity
  8
1
100
AcDbDimension
  2
*D5
 10
218.0599939775
 20
147.991704432819
 30
0.0
 11
188.275336693071
 21
151.741704432819
 31
0.0
 70
    32
  1
<>
 71
     5
 42
-1.0
 53
0.00013888888889
  3
ME10_DIM_13
100
AcDbAlignedDimension
 13
159.0099939775
 23
140.304678664
 33
0.0
 14
218.0599939775
 24
109.8803304666
 34
0.0
100
AcDbRotatedDimension
  0
DIMENSION
  5
144
330
1F
100
AcDbEntity
  8
1
100
AcDbDimension
  2
*D6
 10
218.0599939775
 20
156.006846843226
 30
0.0
 11
176.083289082874
 21
159.756846843226
 31
0.0
 70
    32
  1
<>
 71
     5
 42
-1.0
 53
0.00013888888889
  3
ME10_DIM_14
100
AcDbAlignedDimension
 13
133.0599939775
 23
140.3047209582
 33
0.0
 14
218.0599939775
 24
109.8803304666
 34
0.0
100
AcDbRotatedDimension
  0
DIMENSION
  5
14F
330
1F
100
AcDbEntity
  8
1
100
AcDbDimension
  2
*D7
 10
218.0599939775
 20
163.683321264461
 30
0.0
 11
163.213905494333
 21
167.433321264461
 31
0.0
 70
    32
  1
<>
 71
     5
 42
-1.0
 53
0.00013888888889
  3
ME10_DIM_15
100
AcDbAlignedDimension
 13
93.1599939775
 23
127.1906417583
 33
0.0
 14
218.0599939775
 24
109.8803304666
 34
0.0
100
AcDbRotatedDimension
  0
INSERT
  5
156
330
1F
100
AcDbEntity
  8
1
100
AcDbBlockReference
  2
*D8
 10
0.0
 20
0.0
 30
0.0
  0
DIMENSION
  5
161
330
1F
100
AcDbEntity
  8
1
100
AcDbDimension
  2
*D9
 10
202.1890104074952
 20
112.9306091697527
 30
0.0
 11
204.3202332443097
 21
122.8844298519268
 31
0.0
 70
    37
  1
<>
 71
     5
 42
-1.0
  3
ME10_DIM_16
100
AcDb3PointAngularDimension
 13
202.1375408227763
 23
112.0578451983262
 33
0.0
 14
182.167859367931
 24
113.8047209582
 34
0.0
 15
179.941379769
 25
113.8047209582
 35
0.0
  0
ENDSEC
  0
SECTION
  2
OBJECTS
  0
DICTIONARY
  5
C
330
0
100
AcDbDictionary
281
     1
  3
ACAD_GROUP
350
D
  3
ACAD_LAYOUT
350
1A
  3
ACAD_MLEADERSTYLE
350
164
  3
ACAD_MLINESTYLE
350
17
  3
ACAD_PLOTSETTINGS
350
19
  3
ACAD_PLOTSTYLENAME
350
E
  3
ACAD_SCALELIST
350
4C
  3
ACAD_VISUALSTYLE
350
2A
  3
AcDbVariableDictionary
350
162
  0
DICTIONARY
  5
D
102
{ACAD_REACTORS
330
C
102
}
330
C
100
AcDbDictionary
281
     1
  0
DICTIONARY
  5
1A
102
{ACAD_REACTORS
330
C
102
}
330
C
100
AcDbDictionary
281
     1
  3
Layout1
350
1E
  3
Layout2
350
26
  3
Model
350
22
  0
DICTIONARY
  5
164
102
{ACAD_REACTORS
330
C
102
}
330
C
100
AcDbDictionary
281
     1
  0
DICTIONARY
  5
17
102
{ACAD_REACTORS
330
C
102
}
330
C
100
AcDbDictionary
281
     1
  3
Standard
350
18
  0
DICTIONARY
  5
19
102
{ACAD_REACTORS
330
C
102
}
330
C
100
AcDbDictionary
281
     1
  0
ACDBDICTIONARYWDFLT
  5
E
102
{ACAD_REACTORS
330
C
102
}
330
C
100
AcDbDictionary
281
     1
  3
Normal
350
F
100
AcDbDictionaryWithDefault
340
F
  0
DICTIONARY
  5
4C
102
{ACAD_REACTORS
330
C
102
}
330
C
100
AcDbDictionary
281
     1
  3
A0
350
4D
  3
A1
350
4E
  3
A2
350
4F
  3
A3
350
50
  3
A4
350
51
  3
A5
350
52
  3
A6
350
53
  3
A7
350
54
  3
A8
350
55
  3
A9
350
56
  3
B0
350
57
  3
B1
350
58
  3
B2
350
59
  3
B3
350
5A
  3
B4
350
5B
  3
B5
350
5C
  3
B6
350
5D
  3
B7
350
5E
  3
B8
350
5F
  3
B9
350
60
  3
C0
350
61
  3
C1
350
62
  3
C2
350
63
  3
C3
350
64
  3
C4
350
65
  3
C5
350
66
  3
C6
350
67
  3
C7
350
68
  3
C8
350
69
  3
C9
350
6A
  3
D0
350
6B
  3
D1
350
6C
  3
D2
350
6D
  0
DICTIONARY
  5
2A
102
{ACAD_REACTORS
330
C
102
}
330
C
100
AcDbDictionary
281
     1
  3
2dWireframe
350
2F
  3
3D Hidden
350
31
  3
3dWireframe
350
30
  3
Basic
350
32
  3
Brighten
350
36
  3
ColorChange
350
3A
  3
Conceptual
350
34
  3
Dim
350
35
  3
Facepattern
350
39
  3
Flat
350
2B
  3
FlatWithEdges
350
2C
  3
Gouraud
350
2D
  3
GouraudWithEdges
350
2E
  3
Linepattern
350
38
  3
Realistic
350
33
  3
Thicken
350
37
  0
DICTIONARY
  5
162
102
{ACAD_REACTORS
330
C
102
}
330
C
100
AcDbDictionary
281
     1
  3
CANNOSCALE
350
165
  0
LAYOUT
  5
1E
102
{ACAD_REACTORS
330
1A
102
}
330
1A
100
AcDbPlotSettings
  1

  2
none_device
  4

  6

 40
0.0
 41
0.0
 42
0.0
 43
0.0
 44
0.0
 45
0.0
 46
0.0
 47
0.0
 48
0.0
 49
0.0
140
0.0
141
0.0
142
1.0
143
1.0
 70
   688
 72
     0
 73
     0
 74
     5
  7

 75
    16
147
1.0
148
0.0
149
0.0
100
AcDbLayout
  1
Layout1
 70
     1
 71
     1
 10
0.0
 20
0.0
 11
12.0
 21
9.0
 12
0.0
 22
0.0
 32
0.0
 14
1.00000000000000E+20
 24
1.00000000000000E+20
 34
1.00000000000000E+20
 15
-1.00000000000000E+20
 25
-1.00000000000000E+20
 35
-1.00000000000000E+20
146
0.0
 13
0.0
 23
0.0
 33
0.0
 16
1.0
 26
0.0
 36
0.0
 17
0.0
 27
1.0
 37
0.0
 76
     0
330
1B
  0
LAYOUT
  5
26
102
{ACAD_REACTORS
330
1A
102
}
330
1A
100
AcDbPlotSettings
  1

  2
none_device
  4

  6

 40
0.0
 41
0.0
 42
0.0
 43
0.0
 44
0.0
 45
0.0
 46
0.0
 47
0.0
 48
0.0
 49
0.0
140
0.0
141
0.0
142
1.0
143
1.0
 70
   688
 72
     0
 73
     0
 74
     5
  7

 75
    16
147
1.0
148
0.0
149
0.0
100
AcDbLayout
  1
Layout2
 70
     1
 71
     2
 10
0.0
 20
0.0
 11
0.0
 21
0.0
 12
0.0
 22
0.0
 32
0.0
 14
0.0
 24
0.0
 34
0.0
 15
0.0
 25
0.0
 35
0.0
146
0.0
 13
0.0
 23
0.0
 33
0.0
 16
1.0
 26
0.0
 36
0.0
 17
0.0
 27
1.0
 37
0.0
 76
     0
330
23
  0
LAYOUT
  5
22
102
{ACAD_REACTORS
330
1A
102
}
330
1A
100
AcDbPlotSettings
  1

  2
none_device
  4

  6

 40
0.0
 41
0.0
 42
0.0
 43
0.0
 44
0.0
 45
0.0
 46
0.0
 47
0.0
 48
0.0
 49
0.0
140
0.0
141
0.0
142
1.0
143
1.0
 70
  1712
 72
     0
 73
     0
 74
     0
  7

 75
     0
147
1.0
148
0.0
149
0.0
100
AcDbLayout
  1
Model
 70
     1
 71
     0
 10
0.0
 20
0.0
 11
12.0
 21
9.0
 12
0.0
 22
0.0
 32
0.0
 14
63.4092991448036
 24
60.3047209582
 34
0.0
 15
248.639120160402
 25
172.546052522358
 35
0.0
146
0.0
 13
0.0
 23
0.0
 33
0.0
 16
1.0
 26
0.0
 36
0.0
 17
0.0
 27
1.0
 37
0.0
 76
     0
330
1F
331
29
  0
MLINESTYLE
  5
18
102
{ACAD_REACTORS
330
17
102
}
330
17
100
AcDbMlineStyle
  2
Standard
 70
     0
  3

 62
   256
 51
90.0
 52
90.0
 71
     2
 49
0.5
 62
   256
  6
BYLAYER
 49
-0.5
 62
   256
  6
BYLAYER
  0
ACDBPLACEHOLDER
  5
F
102
{ACAD_REACTORS
330
E
102
}
330
E
  0
SCALE
  5
4D
102
{ACAD_REACTORS
330
4C
102
}
330
4C
100
AcDbScale
 70
     0
300
1:1
140
1.0
141
1.0
290
     1
  0
SCALE
  5
4E
102
{ACAD_REACTORS
330
4C
102
}
330
4C
100
AcDbScale
 70
     0
300
1:2
140
1.0
141
2.0
290
     0
  0
SCALE
  5
4F
102
{ACAD_REACTORS
330
4C
102
}
330
4C
100
AcDbScale
 70
     0
300
1:4
140
1.0
141
4.0
290
     0
  0
SCALE
  5
50
102
{ACAD_REACTORS
330
4C
102
}
330
4C
100
AcDbScale
 70
     0
300
1:5
140
1.0
141
5.0
290
     0
  0
SCALE
  5
51
102
{ACAD_REACTORS
330
4C
102
}
330
4C
100
AcDbScale
 70
     0
300
1:8
140
1.0
141
8.0
290
     0
  0
SCALE
  5
52
102
{ACAD_REACTORS
330
4C
102
}
330
4C
100
AcDbScale
 70
     0
300
1:10
140
1.0
141
10.0
290
     0
  0
SCALE
  5
53
102
{ACAD_REACTORS
330
4C
102
}
330
4C
100
AcDbScale
 70
     0
300
1:16
140
1.0
141
16.0
290
     0
  0
SCALE
  5
54
102
{ACAD_REACTORS
330
4C
102
}
330
4C
100
AcDbScale
 70
     0
300
1:20
140
1.0
141
20.0
290
     0
  0
SCALE
  5
55
102
{ACAD_REACTORS
330
4C
102
}
330
4C
100
AcDbScale
 70
     0
300
1:30
140
1.0
141
30.0
290
     0
  0
SCALE
  5
56
102
{ACAD_REACTORS
330
4C
102
}
330
4C
100
AcDbScale
 70
     0
300
1:40
140
1.0
141
40.0
290
     0
  0
SCALE
  5
57
102
{ACAD_REACTORS
330
4C
102
}
330
4C
100
AcDbScale
 70
     0
300
1:50
140
1.0
141
50.0
290
     0
  0
SCALE
  5
58
102
{ACAD_REACTORS
330
4C
102
}
330
4C
100
AcDbScale
 70
     0
300
1:100
140
1.0
141
100.0
290
     0
  0
SCALE
  5
59
102
{ACAD_REACTORS
330
4C
102
}
330
4C
100
AcDbScale
 70
     0
300
2:1
140
2.0
141
1.0
290
     0
  0
SCALE
  5
5A
102
{ACAD_REACTORS
330
4C
102
}
330
4C
100
AcDbScale
 70
     0
300
4:1
140
4.0
141
1.0
290
     0
  0
SCALE
  5
5B
102
{ACAD_REACTORS
330
4C
102
}
330
4C
100
AcDbScale
 70
     0
300
8:1
140
8.0
141
1.0
290
     0
  0
SCALE
  5
5C
102
{ACAD_REACTORS
330
4C
102
}
330
4C
100
AcDbScale
 70
     0
300
10:1
140
10.0
141
1.0
290
     0
  0
SCALE
  5
5D
102
{ACAD_REACTORS
330
4C
102
}
330
4C
100
AcDbScale
 70
     0
300
100:1
140
100.0
141
1.0
290
     0
  0
SCALE
  5
5E
102
{ACAD_REACTORS
330
4C
102
}
330
4C
100
AcDbScale
 70
     0
300
1/128" = 1'-0"
140
0.0078125
141
12.0
290
     0
  0
SCALE
  5
5F
102
{ACAD_REACTORS
330
4C
102
}
330
4C
100
AcDbScale
 70
     0
300
1/64" = 1'-0"
140
0.015625
141
12.0
290
     0
  0
SCALE
  5
60
102
{ACAD_REACTORS
330
4C
102
}
330
4C
100
AcDbScale
 70
     0
300
1/32" = 1'-0"
140
0.03125
141
12.0
290
     0
  0
SCALE
  5
61
102
{ACAD_REACTORS
330
4C
102
}
330
4C
100
AcDbScale
 70
     0
300
1/16" = 1'-0"
140
0.0625
141
12.0
290
     0
  0
SCALE
  5
62
102
{ACAD_REACTORS
330
4C
102
}
330
4C
100
AcDbScale
 70
     0
300
3/32" = 1'-0"
140
0.09375
141
12.0
290
     0
  0
SCALE
  5
63
102
{ACAD_REACTORS
330
4C
102
}
330
4C
100
AcDbScale
 70
     0
300
1/8" = 1'-0"
140
0.125
141
12.0
290
     0
  0
SCALE
  5
64
102
{ACAD_REACTORS
330
4C
102
}
330
4C
100
AcDbScale
 70
     0
300
3/16" = 1'-0"
140
0.1875
141
12.0
290
     0
  0
SCALE
  5
65
102
{ACAD_REACTORS
330
4C
102
}
330
4C
100
AcDbScale
 70
     0
300
1/4" = 1'-0"
140
0.25
141
12.0
290
     0
  0
SCALE
  5
66
102
{ACAD_REACTORS
330
4C
102
}
330
4C
100
AcDbScale
 70
     0
300
3/8" = 1'-0"
140
0.375
141
12.0
290
     0
  0
SCALE
  5
67
102
{ACAD_REACTORS
330
4C
102
}
330
4C
100
AcDbScale
 70
     0
300
1/2" = 1'-0"
140
0.5
141
12.0
290
     0
  0
SCALE
  5
68
102
{ACAD_REACTORS
330
4C
102
}
330
4C
100
AcDbScale
 70
     0
300
3/4" = 1'-0"
140
0.75
141
12.0
290
     0
  0
SCALE
  5
69
102
{ACAD_REACTORS
330
4C
102
}
330
4C
100
AcDbScale
 70
     0
300
1" = 1'-0"
140
1.0
141
12.0
290
     0
  0
SCALE
  5
6A
102
{ACAD_REACTORS
330
4C
102
}
330
4C
100
AcDbScale
 70
     0
300
1-1/2" = 1'-0"
140
1.5
141
12.0
290
     0
  0
SCALE
  5
6B
102
{ACAD_REACTORS
330
4C
102
}
330
4C
100
AcDbScale
 70
     0
300
3" = 1'-0"
140
3.0
141
12.0
290
     0
  0
SCALE
  5
6C
102
{ACAD_REACTORS
330
4C
102
}
330
4C
100
AcDbScale
 70
     0
300
6" = 1'-0"
140
6.0
141
12.0
290
     0
  0
SCALE
  5
6D
102
{ACAD_REACTORS
330
4C
102
}
330
4C
100
AcDbScale
 70
     0
300
1'-0" = 1'-0"
140
12.0
141
12.0
290
     0
  0
VISUALSTYLE
  5
2F
102
{ACAD_REACTORS
330
2A
102
}
330
2A
100
AcDbVisualStyle
  2
2dWireframe
 70
     4
 71
     0
 72
     2
 73
     0
 90
        0
 40
-0.6
 41
-30.0
 62
     5
 63
     7
 74
     1
 91
        4
 64
     7
 65
   257
 75
     1
175
     1
 42
1.0
 92
        0
 66
   257
 43
1.0
 76
     1
 77
     6
 78
     2
 67
     7
 79
     5
170
     0
171
     0
290
     0
174
     0
 93
        1
 44
0.0
173
     0
291
     0
 45
0.0
1001
ACAD
1000
AcDbSavedByObjectVersion
1070
     0
  0
VISUALSTYLE
  5
31
102
{ACAD_REACTORS
330
2A
102
}
330
2A
100
AcDbVisualStyle
  2
3D Hidden
 70
     6
 71
     1
 72
     2
 73
     2
 90
        0
 40
-0.6
 41
-30.0
 62
     5
 63
     7
 74
     2
 91
        2
 64
     7
 65
   257
 75
     2
175
     1
 42
40.0
 92
        0
 66
   257
 43
1.0
 76
     1
 77
     6
 78
     2
 67
     7
 79
     3
170
     0
171
     0
290
     0
174
     0
 93
        1
 44
0.0
173
     0
291
     0
 45
0.0
1001
ACAD
1000
AcDbSavedByObjectVersion
1070
     0
  0
VISUALSTYLE
  5
30
102
{ACAD_REACTORS
330
2A
102
}
330
2A
100
AcDbVisualStyle
  2
3dWireframe
 70
     5
 71
     0
 72
     2
 73
     0
 90
        0
 40
-0.6
 41
-30.0
 62
     5
 63
     7
 74
     1
 91
        4
 64
     7
 65
   257
 75
     1
175
     1
 42
1.0
 92
        0
 66
   257
 43
1.0
 76
     1
 77
     6
 78
     2
 67
     7
 79
     5
170
     0
171
     0
290
     0
174
     0
 93
        1
 44
0.0
173
     0
291
     0
 45
0.0
1001
ACAD
1000
AcDbSavedByObjectVersion
1070
     0
  0
VISUALSTYLE
  5
32
102
{ACAD_REACTORS
330
2A
102
}
330
2A
100
AcDbVisualStyle
  2
Basic
 70
     7
 71
     1
 72
     0
 73
     1
 90
        0
 40
-0.6
 41
-30.0
 62
     5
 63
     7
 74
     0
 91
        4
 64
     7
 65
   257
 75
     1
175
     1
 42
1.0
 92
        8
 66
     7
 43
1.0
 76
     1
 77
     6
 78
     2
 67
     7
 79
     5
170
     0
171
     0
290
     0
174
     0
 93
        1
 44
0.0
173
     0
291
     1
 45
0.0
1001
ACAD
1000
AcDbSavedByObjectVersion
1070
     0
  0
VISUALSTYLE
  5
36
102
{ACAD_REACTORS
330
2A
102
}
330
2A
100
AcDbVisualStyle
  2
Brighten
 70
    12
 71
     2
 72
     2
 73
     0
 90
        0
 40
-0.6
 41
-30.0
 62
     5
 63
     7
 74
     1
 91
        4
 64
     7
 65
   257
 75
     1
175
     1
 42
1.0
 92
        8
 66
     7
 43
1.0
 76
     1
 77
     6
 78
     2
 67
     7
 79
     5
170
     0
171
     0
290
     0
174
     0
 93
        1
 44
50.0
173
     0
291
     1
 45
0.0
1001
ACAD
1000
AcDbSavedByObjectVersion
1070
     0
  0
VISUALSTYLE
  5
3A
102
{ACAD_REACTORS
330
2A
102
}
330
2A
100
AcDbVisualStyle
  2
ColorChange
 70
    16
 71
     2
 72
     2
 73
     3
 90
        0
 40
-0.6
 41
-30.0
 62
     5
 63
     8
 74
     1
 91
        4
 64
     7
 65
   257
 75
     1
175
     1
 42
1.0
 92
        8
 66
     8
 43
1.0
 76
     1
 77
     6
 78
     2
 67
     7
 79
     5
170
     0
171
     0
290
     0
174
     0
 93
        1
 44
0.0
173
     0
291
     1
 45
0.0
1001
ACAD
1000
AcDbSavedByObjectVersion
1070
     0
  0
VISUALSTYLE
  5
34
102
{ACAD_REACTORS
330
2A
102
}
330
2A
100
AcDbVisualStyle
  2
Conceptual
 70
     9
 71
     3
 72
     2
 73
     0
 90
        0
 40
-0.6
 41
-30.0
 62
     5
 63
     7
 74
     2
 91
        2
 64
     7
 65
   257
 75
     1
175
     1
 42
40.0
 92
        8
 66
     7
 43
1.0
 76
     1
 77
     6
 78
     2
 67
     7
 79
     3
170
     0
171
     0
290
     0
174
     0
 93
        1
 44
0.0
173
     0
291
     0
 45
0.0
1001
ACAD
1000
AcDbSavedByObjectVersion
1070
     0
  0
VISUALSTYLE
  5
35
102
{ACAD_REACTORS
330
2A
102
}
330
2A
100
AcDbVisualStyle
  2
Dim
 70
    11
 71
     2
 72
     2
 73
     0
 90
        0
 40
-0.6
 41
-30.0
 62
     5
 63
     7
 74
     1
 91
        4
 64
     7
 65
   257
 75
     1
175
     1
 42
1.0
 92
        8
 66
     7
 43
1.0
 76
     1
 77
     6
 78
     2
 67
     7
 79
     5
170
     0
171
     0
290
     0
174
     0
 93
        1
 44
-50.0
173
     0
291
     1
 45
0.0
1001
ACAD
1000
AcDbSavedByObjectVersion
1070
     0
  0
VISUALSTYLE
  5
39
102
{ACAD_REACTORS
330
2A
102
}
330
2A
100
AcDbVisualStyle
  2
Facepattern
 70
    15
 71
     2
 72
     2
 73
     0
 90
        0
 40
-0.6
 41
-30.0
 62
     5
 63
     7
 74
     1
 91
        4
 64
     7
 65
   257
 75
     1
175
     1
 42
1.0
 92
        8
 66
     7
 43
1.0
 76
     1
 77
     6
 78
     2
 67
     7
 79
     5
170
     0
171
     0
290
     0
174
     0
 93
        1
 44
0.0
173
     0
291
     1
 45
0.0
1001
ACAD
1000
AcDbSavedByObjectVersion
1070
     0
  0
VISUALSTYLE
  5
2B
102
{ACAD_REACTORS
330
2A
102
}
330
2A
100
AcDbVisualStyle
  2
Flat
 70
     0
 71
     2
 72
     1
 73
     1
 90
        2
 40
-0.6
 41
30.0
 62
     5
 63
     7
 74
     0
 91
        4
 64
     7
 65
   257
 75
     1
175
     1
 42
1.0
 92
        8
 66
     7
 43
1.0
 76
     1
 77
     6
 78
     2
 67
     7
 79
     5
170
     0
171
     0
290
     0
174
     0
 93
       13
 44
0.0
173
     0
291
     1
 45
0.0
1001
ACAD
1000
AcDbSavedByObjectVersion
1070
     0
  0
VISUALSTYLE
  5
2C
102
{ACAD_REACTORS
330
2A
102
}
330
2A
100
AcDbVisualStyle
  2
FlatWithEdges
 70
     1
 71
     2
 72
     1
 73
     1
 90
        2
 40
-0.6
 41
30.0
 62
     5
 63
     7
 74
     1
 91
        4
 64
     7
 65
   257
 75
     1
175
     1
 42
1.0
 92
        0
 66
   257
 43
1.0
 76
     1
 77
     6
 78
     2
 67
     7
 79
     5
170
     0
171
     0
290
     0
174
     0
 93
       13
 44
0.0
173
     0
291
     1
 45
0.0
1001
ACAD
1000
AcDbSavedByObjectVersion
1070
     0
  0
VISUALSTYLE
  5
2D
102
{ACAD_REACTORS
330
2A
102
}
330
2A
100
AcDbVisualStyle
  2
Gouraud
 70
     2
 71
     2
 72
     2
 73
     1
 90
        2
 40
-0.6
 41
30.0
 62
     5
 63
     7
 74
     0
 91
        4
 64
     7
 65
   257
 75
     1
175
     1
 42
1.0
 92
        0
 66
     7
 43
1.0
 76
     1
 77
     6
 78
     2
 67
     7
 79
     5
170
     0
171
     0
290
     0
174
     0
 93
       13
 44
0.0
173
     0
291
     1
 45
0.0
1001
ACAD
1000
AcDbSavedByObjectVersion
1070
     0
  0
VISUALSTYLE
  5
2E
102
{ACAD_REACTORS
330
2A
102
}
330
2A
100
AcDbVisualStyle
  2
GouraudWithEdges
 70
     3
 71
     2
 72
     2
 73
     1
 90
        2
 40
-0.6
 41
30.0
 62
     5
 63
     7
 74
     1
 91
        4
 64
     7
 65
   257
 75
     1
175
     1
 42
1.0
 92
        0
 66
   257
 43
1.0
 76
     1
 77
     6
 78
     2
 67
     7
 79
     5
170
     0
171
     0
290
     0
174
     0
 93
       13
 44
0.0
173
     0
291
     1
 45
0.0
1001
ACAD
1000
AcDbSavedByObjectVersion
1070
     0
  0
VISUALSTYLE
  5
38
102
{ACAD_REACTORS
330
2A
102
}
330
2A
100
AcDbVisualStyle
  2
Linepattern
 70
    14
 71
     2
 72
     2
 73
     0
 90
        0
 40
-0.6
 41
-30.0
 62
     5
 63
     7
 74
     1
 91
        4
 64
     7
 65
   257
 75
     7
175
     7
 42
1.0
 92
        8
 66
     7
 43
1.0
 76
     1
 77
     6
 78
     2
 67
     7
 79
     5
170
     0
171
     0
290
     0
174
     0
 93
        1
 44
0.0
173
     0
291
     1
 45
0.0
1001
ACAD
1000
AcDbSavedByObjectVersion
1070
     0
  0
VISUALSTYLE
  5
33
102
{ACAD_REACTORS
330
2A
102
}
330
2A
100
AcDbVisualStyle
  2
Realistic
 70
     8
 71
     2
 72
     2
 73
     0
 90
        0
 40
-0.6
 41
-30.0
 62
     5
 63
     7
 74
     1
 91
        0
 64
     7
 65
   257
 75
     1
175
     1
 42
1.0
 92
        8
 66
     8
 43
1.0
 76
     1
 77
     6
 78
     2
 67
     7
 79
     5
170
     0
171
     0
290
     0
174
     0
 93
       13
 44
0.0
173
     0
291
     0
 45
0.0
1001
ACAD
1000
AcDbSavedByObjectVersion
1070
     0
  0
VISUALSTYLE
  5
37
102
{ACAD_REACTORS
330
2A
102
}
330
2A
100
AcDbVisualStyle
  2
Thicken
 70
    13
 71
     2
 72
     2
 73
     0
 90
        0
 40
-0.6
 41
-30.0
 62
     5
 63
     7
 74
     1
 91
        4
 64
     7
 65
   257
 75
     1
175
     1
 42
1.0
 92
       12
 66
     7
 43
1.0
 76
     1
 77
     6
 78
     2
 67
     7
 79
     5
170
     0
171
     0
290
     0
174
     0
 93
        1
 44
0.0
173
     0
291
     1
 45
0.0
1001
ACAD
1000
AcDbSavedByObjectVersion
1070
     0
  0
DICTIONARYVAR
  5
165
102
{ACAD_REACTORS
330
162
102
}
330
162
100
DictionaryVariables
280
     0
  1
1:1
  0
ENDSEC
  0
EOF
