  0
SECTION
  2
HEADER
  9
$ACADVER
  1
AC1015
  9
$ACADMAINTVER
 70
     6
  9
$DWGCODEPAGE
  3
ANSI_1252
  9
$INSBASE
 10
0.0
 20
0.0
 30
0.0
  9
$EXTMIN
 10
78.2887048193
 20
242.8467898344777
 30
0.0
  9
$EXTMAX
 10
229.266008714293
 20
337.09457744354
 30
0.0
  9
$LIMMIN
 10
0.0
 20
0.0
  9
$LIMMAX
 10
12.0
 20
9.0
  9
$ORTHOMODE
 70
     0
  9
$REGENMODE
 70
     1
  9
$FILLMODE
 70
     1
  9
$QTEXTMODE
 70
     0
  9
$MIRRTEXT
 70
     1
  9
$LTSCALE
 40
1.0
  9
$ATTMODE
 70
     1
  9
$TEXTSIZE
 40
0.2
  9
$TRACEWID
 40
0.05
  9
$TEXTSTYLE
  7
Standard
  9
$CLAYER
  8
0
  9
$CELTYPE
  6
ByLayer
  9
$CECOLOR
 62
   256
  9
$CELTSCALE
 40
1.0
  9
$DISPSILH
 70
     0
  9
$DIMSCALE
 40
1.0
  9
$DIMASZ
 40
0.18
  9
$DIMEXO
 40
0.0625
  9
$DIMDLI
 40
0.38
  9
$DIMRND
 40
0.0
  9
$DIMDLE
 40
0.0
  9
$DIMEXE
 40
0.18
  9
$DIMTP
 40
0.0
  9
$DIMTM
 40
0.0
  9
$DIMTXT
 40
0.18
  9
$DIMCEN
 40
0.09
  9
$DIMTSZ
 40
0.0
  9
$DIMTOL
 70
     0
  9
$DIMLIM
 70
     0
  9
$DIMTIH
 70
     1
  9
$DIMTOH
 70
     1
  9
$DIMSE1
 70
     0
  9
$DIMSE2
 70
     0
  9
$DIMTAD
 70
     0
  9
$DIMZIN
 70
     0
  9
$DIMBLK
  1

  9
$DIMASO
 70
     1
  9
$DIMSHO
 70
     1
  9
$DIMPOST
  1

  9
$DIMAPOST
  1

  9
$DIMALT
 70
     0
  9
$DIMALTD
 70
     2
  9
$DIMALTF
 40
25.4
  9
$DIMLFAC
 40
1.0
  9
$DIMTOFL
 70
     0
  9
$DIMTVP
 40
0.0
  9
$DIMTIX
 70
     0
  9
$DIMSOXD
 70
     0
  9
$DIMSAH
 70
     0
  9
$DIMBLK1
  1

  9
$DIMBLK2
  1

  9
$DIMSTYLE
  2
Standard
  9
$DIMCLRD
 70
     0
  9
$DIMCLRE
 70
     0
  9
$DIMCLRT
 70
     0
  9
$DIMTFAC
 40
1.0
  9
$DIMGAP
 40
0.09
  9
$DIMJUST
 70
     0
  9
$DIMSD1
 70
     0
  9
$DIMSD2
 70
     0
  9
$DIMTOLJ
 70
     1
  9
$DIMTZIN
 70
     0
  9
$DIMALTZ
 70
     0
  9
$DIMALTTZ
 70
     0
  9
$DIMUPT
 70
     0
  9
$DIMDEC
 70
     4
  9
$DIMTDEC
 70
     4
  9
$DIMALTU
 70
     2
  9
$DIMALTTD
 70
     2
  9
$DIMTXSTY
  7
Standard
  9
$DIMAUNIT
 70
     0
  9
$DIMADEC
 70
     0
  9
$DIMALTRND
 40
0.0
  9
$DIMAZIN
 70
     0
  9
$DIMDSEP
 70
    46
  9
$DIMATFIT
 70
     3
  9
$DIMFRAC
 70
     0
  9
$DIMLDRBLK
  1

  9
$DIMLUNIT
 70
     2
  9
$DIMLWD
 70
    -2
  9
$DIMLWE
 70
    -2
  9
$DIMTMOVE
 70
     0
  9
$LUNITS
 70
     2
  9
$LUPREC
 70
     4
  9
$SKETCHINC
 40
0.1
  9
$FILLETRAD
 40
0.5
  9
$AUNITS
 70
     0
  9
$AUPREC
 70
     0
  9
$MENU
  1
.
  9
$ELEVATION
 40
0.0
  9
$PELEVATION
 40
0.0
  9
$THICKNESS
 40
0.0
  9
$LIMCHECK
 70
     0
  9
$CHAMFERA
 40
0.5
  9
$CHAMFERB
 40
0.5
  9
$CHAMFERC
 40
1.0
  9
$CHAMFERD
 40
0.0
  9
$SKPOLY
 70
     0
  9
$TDCREATE
 40
2456749.744780567
  9
$TDUCREATE
 40
2456749.661447234
  9
$TDUPDATE
 40
2456749.744780579
  9
$TDUUPDATE
 40
2456749.661447245
  9
$TDINDWG
 40
0.0000000116
  9
$TDUSRTIMER
 40
0.0000000116
  9
$USRTIMER
 70
     1
  9
$ANGBASE
 50
0.0
  9
$ANGDIR
 70
     0
  9
$PDMODE
 70
     0
  9
$PDSIZE
 40
0.0
  9
$PLINEWID
 40
0.0
  9
$SPLFRAME
 70
     0
  9
$SPLINETYPE
 70
     6
  9
$SPLINESEGS
 70
     8
  9
$HANDSEED
  5
169
  9
$SURFTAB1
 70
     6
  9
$SURFTAB2
 70
     6
  9
$SURFTYPE
 70
     6
  9
$SURFU
 70
     6
  9
$SURFV
 70
     6
  9
$UCSBASE
  2

  9
$UCSNAME
  2

  9
$UCSORG
 10
0.0
 20
0.0
 30
0.0
  9
$UCSXDIR
 10
1.0
 20
0.0
 30
0.0
  9
$UCSYDIR
 10
0.0
 20
1.0
 30
0.0
  9
$UCSORTHOREF
  2

  9
$UCSORTHOVIEW
 70
     0
  9
$UCSORGTOP
 10
0.0
 20
0.0
 30
0.0
  9
$UCSORGBOTTOM
 10
0.0
 20
0.0
 30
0.0
  9
$UCSORGLEFT
 10
0.0
 20
0.0
 30
0.0
  9
$UCSORGRIGHT
 10
0.0
 20
0.0
 30
0.0
  9
$UCSORGFRONT
 10
0.0
 20
0.0
 30
0.0
  9
$UCSORGBACK
 10
0.0
 20
0.0
 30
0.0
  9
$PUCSBASE
  2

  9
$PUCSNAME
  2

  9
$PUCSORG
 10
0.0
 20
0.0
 30
0.0
  9
$PUCSXDIR
 10
1.0
 20
0.0
 30
0.0
  9
$PUCSYDIR
 10
0.0
 20
1.0
 30
0.0
  9
$PUCSORTHOREF
  2

  9
$PUCSORTHOVIEW
 70
     0
  9
$PUCSORGTOP
 10
0.0
 20
0.0
 30
0.0
  9
$PUCSORGBOTTOM
 10
0.0
 20
0.0
 30
0.0
  9
$PUCSORGLEFT
 10
0.0
 20
0.0
 30
0.0
  9
$PUCSORGRIGHT
 10
0.0
 20
0.0
 30
0.0
  9
$PUCSORGFRONT
 10
0.0
 20
0.0
 30
0.0
  9
$PUCSORGBACK
 10
0.0
 20
0.0
 30
0.0
  9
$USERI1
 70
     0
  9
$USERI2
 70
     0
  9
$USERI3
 70
     0
  9
$USERI4
 70
     0
  9
$USERI5
 70
     0
  9
$USERR1
 40
16.5
  9
$USERR2
 40
0.0
  9
$USERR3
 40
0.0
  9
$USERR4
 40
0.0
  9
$USERR5
 40
0.0
  9
$WORLDVIEW
 70
     1
  9
$SHADEDGE
 70
     3
  9
$SHADEDIF
 70
    70
  9
$TILEMODE
 70
     1
  9
$MAXACTVP
 70
    64
  9
$PINSBASE
 10
0.0
 20
0.0
 30
0.0
  9
$PLIMCHECK
 70
     0
  9
$PEXTMIN
 10
1.00000000000000E+20
 20
1.00000000000000E+20
 30
1.00000000000000E+20
  9
$PEXTMAX
 10
-1.00000000000000E+20
 20
-1.00000000000000E+20
 30
-1.00000000000000E+20
  9
$PLIMMIN
 10
0.0
 20
0.0
  9
$PLIMMAX
 10
12.0
 20
9.0
  9
$UNITMODE
 70
     0
  9
$VISRETAIN
 70
     1
  9
$PLINEGEN
 70
     0
  9
$PSLTSCALE
 70
     1
  9
$TREEDEPTH
 70
  3020
  9
$CMLSTYLE
  2
Standard
  9
$CMLJUST
 70
     0
  9
$CMLSCALE
 40
1.0
  9
$PROXYGRAPHICS
 70
     1
  9
$MEASUREMENT
 70
     1
  9
$CELWEIGHT
370
    -1
  9
$ENDCAPS
280
     0
  9
$JOINSTYLE
280
     0
  9
$LWDISPLAY
290
     0
  9
$INSUNITS
 70
     1
  9
$HYPERLINKBASE
  1

  9
$STYLESHEET
  1

  9
$XEDIT
290
     1
  9
$CEPSNTYPE
380
     0
  9
$PSTYLEMODE
290
     1
  9
$FINGERPRINTGUID
  2
{BE35DD4D-8D88-4118-A6EA-490FFE7C0691}
  9
$VERSIONGUID
  2
{FAEB1C32-E019-11D5-929B-00C0DF256EC4}
  9
$EXTNAMES
290
     1
  9
$PSVPSCALE
 40
0.0
  9
$OLESTARTUP
290
     0
  0
ENDSEC
  0
SECTION
  2
CLASSES
  0
CLASS
  1
ACDBDICTIONARYWDFLT
  2
AcDbDictionaryWithDefault
  3
ObjectDBX Classes
 90
        0
280
     0
281
     0
  0
CLASS
  1
VISUALSTYLE
  2
AcDbVisualStyle
  3
ObjectDBX Classes
 90
     4095
280
     0
281
     0
  0
CLASS
  1
SCALE
  2
AcDbScale
  3
ObjectDBX Classes
 90
     1153
280
     0
281
     0
  0
CLASS
  1

  2
exOdDbPolyline
  3

 90
        0
280
     0
281
     1
  0
CLASS
  1

  2
exOdDbCircle
  3

 90
        0
280
     0
281
     1
  0
CLASS
  1

  2
exOdDbSpline
  3

 90
        0
280
     0
281
     1
  0
CLASS
  1
DICTIONARYVAR
  2
AcDbDictionaryVar
  3
ObjectDBX Classes
 90
        0
280
     0
281
     0
  0
CLASS
  1
ACDBPLACEHOLDER
  2
AcDbPlaceHolder
  3
ObjectDBX Classes
 90
        0
280
     0
281
     0
  0
CLASS
  1
LAYOUT
  2
AcDbLayout
  3
ObjectDBX Classes
 90
        0
280
     0
281
     0
  0
ENDSEC
  0
SECTION
  2
TABLES
  0
TABLE
  2
VPORT
  5
8
330
0
100
AcDbSymbolTable
 70
     1
  0
VPORT
  5
29
330
8
100
AcDbSymbolTableRecord
100
AcDbViewportTableRecord
  2
*Active
 70
     0
 10
0.0
 20
0.0
 11
1.0
 21
1.0
 12
153.7773567667965
 22
289.9706836390088
 13
0.0
 23
0.0
 14
0.5
 24
0.5
 15
0.5
 25
0.5
 16
0.0
 26
0.0
 36
1.0
 17
0.0
 27
0.0
 37
0.0
 40
103.6725663699685
 41
1.60267857142857
 42
50.0
 43
0.0
 44
0.0
 50
0.0
 51
0.0
 71
     0
 72
   100
 73
     1
 74
     3
 75
     0
 76
     0
 77
     0
 78
     0
281
     0
 65
     1
110
0.0
120
0.0
130
0.0
111
1.0
121
0.0
131
0.0
112
0.0
122
1.0
132
0.0
 79
     0
146
0.0
  0
ENDTAB
  0
TABLE
  2
LTYPE
  5
5
330
0
100
AcDbSymbolTable
 70
     8
  0
LTYPE
  5
14
330
5
100
AcDbSymbolTableRecord
100
AcDbLinetypeTableRecord
  2
ByBlock
 70
     0
  3

 72
    65
 73
     0
 40
0.0
  0
LTYPE
  5
15
330
5
100
AcDbSymbolTableRecord
100
AcDbLinetypeTableRecord
  2
ByLayer
 70
     0
  3

 72
    65
 73
     0
 40
0.0
  0
LTYPE
  5
16
330
5
100
AcDbSymbolTableRecord
100
AcDbLinetypeTableRecord
  2
Continuous
 70
     0
  3
Solid line
 72
    65
 73
     0
 40
0.0
  0
LTYPE
  5
3B
330
5
100
AcDbSymbolTableRecord
100
AcDbLinetypeTableRecord
  2
DASHED
 70
     0
  3
Dashed
 72
    65
 73
     2
 40
15.0
 49
7.0
 74
     0
 49
-8.0
 74
     0
  0
LTYPE
  5
3C
330
5
100
AcDbSymbolTableRecord
100
AcDbLinetypeTableRecord
  2
DOTTED
 70
     0
  3
Dotted
 72
    65
 73
     2
 40
1.0
 49
0.0
 74
     0
 49
-1.0
 74
     0
  0
LTYPE
  5
3D
330
5
100
AcDbSymbolTableRecord
100
AcDbLinetypeTableRecord
  2
DOT_CENTER
 70
     0
  3
Dot_Center
 72
    65
 73
     4
 40
14.0
 49
12.0
 74
     0
 49
-1.0
 74
     0
 49
0.0
 74
     0
 49
-1.0
 74
     0
  0
LTYPE
  5
3E
330
5
100
AcDbSymbolTableRecord
100
AcDbLinetypeTableRecord
  2
LONG_DASHED
 70
     0
  3
Long_Dashed
 72
    65
 73
     2
 40
15.0
 49
10.0
 74
     0
 49
-5.0
 74
     0
  0
LTYPE
  5
3F
330
5
100
AcDbSymbolTableRecord
100
AcDbLinetypeTableRecord
  2
DASH_CENTER
 70
     0
  3
Dash_Center
 72
    65
 73
     4
 40
14.0
 49
11.0
 74
     0
 49
-1.0
 74
     0
 49
1.0
 74
     0
 49
-1.0
 74
     0
  0
LTYPE
  5
40
330
5
100
AcDbSymbolTableRecord
100
AcDbLinetypeTableRecord
  2
PHANTOM
 70
     0
  3
Phantom
 72
    65
 73
     6
 40
13.0
 49
10.0
 74
     0
 49
-1.0
 74
     0
 49
0.0
 74
     0
 49
-1.0
 74
     0
 49
0.0
 74
     0
 49
-1.0
 74
     0
  0
LTYPE
  5
41
330
5
100
AcDbSymbolTableRecord
100
AcDbLinetypeTableRecord
  2
CENTER_DASH_DASH
 70
     0
  3
Center_Dash_Dash
 72
    65
 73
     6
 40
14.0
 49
9.0
 74
     0
 49
-1.0
 74
     0
 49
1.0
 74
     0
 49
-1.0
 74
     0
 49
1.0
 74
     0
 49
-1.0
 74
     0
  0
ENDTAB
  0
TABLE
  2
LAYER
  5
2
330
0
100
AcDbSymbolTable
 70
     7
  0
LAYER
  5
10
330
2
100
AcDbSymbolTableRecord
100
AcDbLayerTableRecord
  2
0
 70
     0
 62
     7
  6
Continuous
370
    -3
390
F
  0
LAYER
  5
42
330
2
100
AcDbSymbolTableRecord
100
AcDbLayerTableRecord
  2
1
 70
     0
 62
     7
  6
Continuous
370
    -3
390
F
  0
LAYER
  5
43
330
2
100
AcDbSymbolTableRecord
100
AcDbLayerTableRecord
  2
BEZUGSACHSEN
 70
     0
 62
     7
  6
Continuous
370
    -3
390
F
  0
LAYER
  5
44
330
2
100
AcDbSymbolTableRecord
100
AcDbLayerTableRecord
  2
BOHRUNGEN
 70
     0
 62
     7
  6
Continuous
370
    -3
390
F
  0
LAYER
  5
45
330
2
100
AcDbSymbolTableRecord
100
AcDbLayerTableRecord
  2
FASEN
 70
     0
 62
     7
  6
Continuous
370
    -3
390
F
  0
LAYER
  5
46
330
2
100
AcDbSymbolTableRecord
100
AcDbLayerTableRecord
  2
RUNDUNGEN
 70
     0
 62
     7
  6
Continuous
370
    -3
390
F
  0
LAYER
  5
47
330
2
100
AcDbSymbolTableRecord
100
AcDbLayerTableRecord
  2
TEIL_STARTBEZUEGE
 70
     0
 62
     7
  6
Continuous
370
    -3
390
F
  0
ENDTAB
  0
TABLE
  2
STYLE
  5
3
330
0
100
AcDbSymbolTable
 70
     2
  0
STYLE
  5
11
330
3
100
AcDbSymbolTableRecord
100
AcDbTextStyleTableRecord
  2
Standard
 70
     0
 40
0.0
 41
1.0
 50
0.0
 71
     0
 42
0.2
  3
txt
  4

  0
STYLE
  5
6E
330
3
100
AcDbSymbolTableRecord
100
AcDbTextStyleTableRecord
  2
CONVERTER_11
 70
     0
 40
0.0
 41
0.72
 50
0.0
 71
     0
 42
0.2
  3
txt.shx
  4

  0
ENDTAB
  0
TABLE
  2
VIEW
  5
6
330
0
100
AcDbSymbolTable
 70
     0
  0
ENDTAB
  0
TABLE
  2
UCS
  5
7
330
0
100
AcDbSymbolTable
 70
     0
  0
ENDTAB
  0
TABLE
  2
APPID
  5
9
330
0
100
AcDbSymbolTable
 70
     1
  0
APPID
  5
12
330
9
100
AcDbSymbolTableRecord
100
AcDbRegAppTableRecord
  2
ACAD
 70
     0
  0
ENDTAB
  0
TABLE
  2
DIMSTYLE
  5
A
330
0
100
AcDbSymbolTable
 70
     8
100
AcDbDimStyleTable
  0
DIMSTYLE
105
27
330
A
100
AcDbSymbolTableRecord
100
AcDbDimStyleTableRecord
  2
Standard
 70
     0
340
11
  0
DIMSTYLE
105
11A
102
{ACAD_REACTORS
330
11B
102
}
330
A
100
AcDbSymbolTableRecord
100
AcDbDimStyleTableRecord
  2
ME10_DIM_10
 70
     0
  3
\U+2300<>
 41
3.5
 42
2.0
 44
2.0
 71
     1
 73
     0
 74
     0
 77
     1
 78
     8
140
3.5
146
0.7
147
2.0
172
     1
173
     1
176
     2
177
     2
178
     3
271
     2
272
     0
340
6E
  0
DIMSTYLE
105
125
102
{ACAD_REACTORS
330
126
102
}
330
A
100
AcDbSymbolTableRecord
100
AcDbDimStyleTableRecord
  2
ME10_DIM_11
 70
     0
  3
\U+2300<>
 41
3.5
 42
2.0
 44
2.0
 71
     1
 73
     0
 74
     0
 77
     1
 78
     8
140
3.5
146
0.7
147
2.0
172
     1
173
     1
176
     2
177
     2
178
     3
271
     2
272
     0
340
6E
  0
DIMSTYLE
105
130
102
{ACAD_REACTORS
330
131
102
}
330
A
100
AcDbSymbolTableRecord
100
AcDbDimStyleTableRecord
  2
ME10_DIM_12
 70
     0
  3
\U+2300<>
 41
3.5
 42
2.0
 44
2.0
 71
     1
 73
     0
 74
     0
 77
     1
 78
     8
140
3.5
146
0.7
147
2.0
172
     1
173
     1
176
     2
177
     2
178
     3
271
     2
272
     0
340
6E
  0
DIMSTYLE
105
13B
102
{ACAD_REACTORS
330
13C
102
}
330
A
100
AcDbSymbolTableRecord
100
AcDbDimStyleTableRecord
  2
ME10_DIM_13
 70
     0
  3
<>
 41
3.5
 42
2.0
 44
2.0
 71
     1
 73
     0
 74
     0
 77
     1
 78
     8
140
3.5
146
0.7
147
2.0
172
     1
173
     1
176
     2
177
     2
178
     3
271
     0
272
     0
340
6E
  0
DIMSTYLE
105
146
102
{ACAD_REACTORS
330
147
102
}
330
A
100
AcDbSymbolTableRecord
100
AcDbDimStyleTableRecord
  2
ME10_DIM_14
 70
     0
  3
<>
 41
3.5
 42
2.0
 44
2.0
 71
     1
 73
     0
 74
     0
 77
     1
 78
     8
140
3.5
146
0.7
147
2.0
172
     1
173
     1
176
     2
177
     2
178
     3
271
     2
272
     0
340
6E
  0
DIMSTYLE
105
151
102
{ACAD_REACTORS
330
152
102
}
330
A
100
AcDbSymbolTableRecord
100
AcDbDimStyleTableRecord
  2
ME10_DIM_15
 70
     0
  3
<>
 41
3.5
 42
2.0
 44
2.0
 71
     1
 73
     0
 74
     0
 77
     1
 78
     8
140
3.5
146
0.7
147
2.0
172
     1
173
     1
176
     2
177
     2
178
     3
271
     0
272
     0
340
6E
  0
DIMSTYLE
105
163
102
{ACAD_REACTORS
330
164
102
}
330
A
100
AcDbSymbolTableRecord
100
AcDbDimStyleTableRecord
  2
ME10_DIM_16
 70
     0
  3
<>
 41
3.5
 42
2.0
 44
2.0
 71
     1
 73
     0
 74
     0
 77
     1
 78
     8
140
3.5
146
0.7
147
2.0
172
     1
173
     1
176
     2
177
     2
178
     3
271
     2
272
     0
340
6E
  0
ENDTAB
  0
TABLE
  2
BLOCK_RECORD
  5
1
330
0
100
AcDbSymbolTable
 70
    10
  0
BLOCK_RECORD
  5
1F
330
1
100
AcDbSymbolTableRecord
100
AcDbBlockTableRecord
  2
*Model_Space
340
22
  0
BLOCK_RECORD
  5
1B
330
1
100
AcDbSymbolTableRecord
100
AcDbBlockTableRecord
  2
*Paper_Space
340
1E
  0
BLOCK_RECORD
  5
23
330
1
100
AcDbSymbolTableRecord
100
AcDbBlockTableRecord
  2
*Paper_Space0
340
26
  0
BLOCK_RECORD
  5
48
330
1
100
AcDbSymbolTableRecord
100
AcDbBlockTableRecord
  2
Urheberrecht_DE-EN_horizontal
340
0
102
{BLKREFS
331
6D
102
}
  0
BLOCK_RECORD
  5
111
330
1
100
AcDbSymbolTableRecord
100
AcDbBlockTableRecord
  2
*D2
340
0
  0
BLOCK_RECORD
  5
11C
330
1
100
AcDbSymbolTableRecord
100
AcDbBlockTableRecord
  2
*D3
340
0
  0
BLOCK_RECORD
  5
127
330
1
100
AcDbSymbolTableRecord
100
AcDbBlockTableRecord
  2
*D4
340
0
  0
BLOCK_RECORD
  5
132
330
1
100
AcDbSymbolTableRecord
100
AcDbBlockTableRecord
  2
*D5
340
0
  0
BLOCK_RECORD
  5
13D
330
1
100
AcDbSymbolTableRecord
100
AcDbBlockTableRecord
  2
*D6
340
0
  0
BLOCK_RECORD
  5
148
330
1
100
AcDbSymbolTableRecord
100
AcDbBlockTableRecord
  2
*D7
340
0
  0
BLOCK_RECORD
  5
153
330
1
100
AcDbSymbolTableRecord
100
AcDbBlockTableRecord
  2
*D8
340
0
102
{BLKREFS
331
159
102
}
  0
BLOCK_RECORD
  5
15A
330
1
100
AcDbSymbolTableRecord
100
AcDbBlockTableRecord
  2
*D9
340
0
  0
ENDTAB
  0
ENDSEC
  0
SECTION
  2
BLOCKS
  0
BLOCK
  5
20
330
1F
100
AcDbEntity
  8
0
100
AcDbBlockBegin
  2
*Model_Space
 70
     0
 10
0.0
 20
0.0
 30
0.0
  3
*Model_Space
  1

  0
ENDBLK
  5
21
330
1F
100
AcDbEntity
  8
0
100
AcDbBlockEnd
  0
BLOCK
  5
1C
330
1B
100
AcDbEntity
 67
     1
  8
0
100
AcDbBlockBegin
  2
*Paper_Space
 70
     0
 10
0.0
 20
0.0
 30
0.0
  3
*Paper_Space
  1

  0
ENDBLK
  5
1D
330
1B
100
AcDbEntity
 67
     1
  8
0
100
AcDbBlockEnd
  0
BLOCK
  5
24
330
23
100
AcDbEntity
  8
0
100
AcDbBlockBegin
  2
*Paper_Space0
 70
     0
 10
0.0
 20
0.0
 30
0.0
  3
*Paper_Space0
  1

  0
ENDBLK
  5
25
330
23
100
AcDbEntity
  8
0
100
AcDbBlockEnd
  0
BLOCK
  5
49
330
48
100
AcDbEntity
  8
0
100
AcDbBlockBegin
  2
Urheberrecht_DE-EN_horizontal
 70
     0
 10
151.219518810137
 20
250.244797844382
 30
0.0
  3
Urheberrecht_DE-EN_horizontal
  1

  0
MTEXT
  5
6F
330
48
100
AcDbEntity
  8
1
 62
     1
100
AcDbMText
 10
97.76573642077777
 20
243.4467898344777
 30
0.0
 40
2.0
 41
0.0
 71
     7
 72
     1
  1
F\U+00fcr diese Unterlage behalten wir das Ur-\Pheberrecht. Sie darf nur f\U+00fcr den von uns \Pbestimmten Zweck benutzt und ohne unsere \PZustimmung weder vervielf\U+00e4ltigt noch\PDritten zug\U+00e4nglich gemacht werden.
  7
CONVERTER_11
 73
     1
 44
0.90036014405762
  0
MTEXT
  5
70
330
48
100
AcDbEntity
  8
1
 62
     1
100
AcDbMText
 10
154.0551233380839
 20
243.4467898344777
 30
0.0
 40
2.0
 41
0.0
 71
     7
 72
     1
  1
We own the copyright of this document. It \Pdetermined and may neither be copied or \Pmade accessible to outsiders without our\Ppermission.
  7
CONVERTER_11
 73
     1
 44
0.90036014405762
  0
ENDBLK
  5
4A
330
48
100
AcDbEntity
  8
0
100
AcDbBlockEnd
  0
BLOCK
  5
118
330
111
100
AcDbEntity
  8
0
100
AcDbBlockBegin
  2
*D2
 70
     1
 10
0.0
 20
0.0
 30
0.0
  3
*D2
  1

  0
LINE
  5
112
330
111
100
AcDbEntity
  8
1
  6
Continuous
 62
     2
100
AcDbLine
 10
211.618881407583
 20
292.7196159639
 30
0.0
 11
211.618881407583
 21
276.7196159639
 31
0.0
  0
LINE
  5
113
330
111
100
AcDbEntity
  8
1
  6
Continuous
 62
     2
100
AcDbLine
 10
203.3137048193
 20
292.7196159639
 30
0.0
 11
213.618881407583
 21
292.7196159639
 31
0.0
  0
LINE
  5
114
330
111
100
AcDbEntity
  8
1
  6
Continuous
 62
     2
100
AcDbLine
 10
203.3137048193
 20
276.7196159639
 30
0.0
 11
213.618881407583
 21
276.7196159639
 31
0.0
  0
SOLID
  5
115
330
111
100
AcDbEntity
  8
1
 62
     2
100
AcDbTrace
 10
212.0796651491389
 20
289.2196159639
 30
0.0
 11
211.1580976660271
 21
289.2196159639
 31
0.0
 12
211.618881407583
 22
292.7196159639
 32
0.0
 13
211.618881407583
 23
292.7196159639
 33
0.0
  0
SOLID
  5
116
330
111
100
AcDbEntity
  8
1
 62
     2
100
AcDbTrace
 10
211.1580976660271
 20
280.2196159639
 30
0.0
 11
212.0796651491389
 21
280.2196159639
 31
0.0
 12
211.618881407583
 22
276.7196159639
 32
0.0
 13
211.618881407583
 23
276.7196159639
 33
0.0
  0
MTEXT
  5
117
330
111
100
AcDbEntity
  8
1
 62
     3
100
AcDbMText
 10
209.618881407583
 20
276.261673073539
 30
0.0
 40
3.5
 41
0.0
 71
     7
 72
     1
  1
\C3;%%c\C3;\C3;16\C2;\H2.45;\S^ ;\C3;
  7
CONVERTER_11
 11
0.0
 21
1.0
 31
0.0
 73
     1
 44
0.60024009603842
  0
ENDBLK
  5
119
330
111
100
AcDbEntity
  8
0
100
AcDbBlockEnd
  0
BLOCK
  5
123
330
11C
100
AcDbEntity
  8
0
100
AcDbBlockBegin
  2
*D3
 70
     1
 10
0.0
 20
0.0
 30
0.0
  3
*D3
  1

  0
LINE
  5
11D
330
11C
100
AcDbEntity
  8
1
  6
Continuous
 62
     2
100
AcDbLine
 10
220.085941638487
 20
298.2196159638466
 30
0.0
 11
220.085941638487
 21
271.2196159638486
 31
0.0
  0
LINE
  5
11E
330
11C
100
AcDbEntity
  8
1
  6
Continuous
 62
     2
100
AcDbLine
 10
203.3137048193
 20
298.2196159638466
 30
0.0
 11
222.085941638487
 21
298.2196159638466
 31
0.0
  0
LINE
  5
11F
330
11C
100
AcDbEntity
  8
1
  6
Continuous
 62
     2
100
AcDbLine
 10
203.3137048193
 20
271.2196159638486
 30
0.0
 11
222.085941638487
 21
271.2196159638486
 31
0.0
  0
SOLID
  5
120
330
11C
100
AcDbEntity
  8
1
 62
     2
100
AcDbTrace
 10
220.5467253800429
 20
294.7196159638466
 30
0.0
 11
219.6251578969311
 21
294.7196159638466
 31
0.0
 12
220.085941638487
 22
298.2196159638466
 32
0.0
 13
220.085941638487
 23
298.2196159638466
 33
0.0
  0
SOLID
  5
121
330
11C
100
AcDbEntity
  8
1
 62
     2
100
AcDbTrace
 10
219.6251578969311
 20
274.7196159638486
 30
0.0
 11
220.5467253800429
 21
274.7196159638486
 31
0.0
 12
220.085941638487
 22
271.2196159638486
 32
0.0
 13
220.085941638487
 23
271.2196159638486
 33
0.0
  0
MTEXT
  5
122
330
11C
100
AcDbEntity
  8
1
 62
     3
100
AcDbMText
 10
218.085941638487
 20
276.180355482776
 30
0.0
 40
3.5
 41
0.0
 71
     7
 72
     1
  1
\C3;%%c\C3;\C3;27\C2;\H2.45;\S^ ;\C3;
  7
CONVERTER_11
 11
0.0
 21
1.0
 31
0.0
 73
     1
 44
0.60024009603842
  0
ENDBLK
  5
124
330
11C
100
AcDbEntity
  8
0
100
AcDbBlockEnd
  0
BLOCK
  5
12E
330
127
100
AcDbEntity
  8
0
100
AcDbBlockBegin
  2
*D4
 70
     1
 10
0.0
 20
0.0
 30
0.0
  3
*D4
  1

  0
LINE
  5
128
330
127
100
AcDbEntity
  8
1
  6
Continuous
 62
     2
100
AcDbLine
 10
227.266008714293
 20
301.7196159639
 30
0.0
 11
227.266008714293
 21
267.7196159639
 31
0.0
  0
LINE
  5
129
330
127
100
AcDbEntity
  8
1
  6
Continuous
 62
     2
100
AcDbLine
 10
158.8419882427
 20
301.7196159639
 30
0.0
 11
229.266008714293
 21
301.7196159639
 31
0.0
  0
LINE
  5
12A
330
127
100
AcDbEntity
  8
1
  6
Continuous
 62
     2
100
AcDbLine
 10
158.8419882427
 20
267.7196159639
 30
0.0
 11
229.266008714293
 21
267.7196159639
 31
0.0
  0
SOLID
  5
12B
330
127
100
AcDbEntity
  8
1
 62
     2
100
AcDbTrace
 10
227.7267924558489
 20
298.2196159639
 30
0.0
 11
226.8052249727371
 21
298.2196159639
 31
0.0
 12
227.266008714293
 22
301.7196159639
 32
0.0
 13
227.266008714293
 23
301.7196159639
 33
0.0
  0
SOLID
  5
12C
330
127
100
AcDbEntity
  8
1
 62
     2
100
AcDbTrace
 10
226.8052249727371
 20
271.2196159639
 30
0.0
 11
227.7267924558489
 21
271.2196159639
 31
0.0
 12
227.266008714293
 22
267.7196159639
 32
0.0
 13
227.266008714293
 23
267.7196159639
 33
0.0
  0
MTEXT
  5
12D
330
127
100
AcDbEntity
  8
1
 62
     3
100
AcDbMText
 10
225.266008714293
 20
276.586774373859
 30
0.0
 40
3.5
 41
0.0
 71
     7
 72
     1
  1
\C3;%%c\C3;\C3;34\C2;\H2.45;\S^ ;\C3;
  7
CONVERTER_11
 11
0.0
 21
1.0
 31
0.0
 73
     1
 44
0.60024009603842
  0
ENDBLK
  5
12F
330
127
100
AcDbEntity
  8
0
100
AcDbBlockEnd
  0
BLOCK
  5
139
330
132
100
AcDbEntity
  8
0
100
AcDbBlockBegin
  2
*D5
 70
     1
 10
0.0
 20
0.0
 30
0.0
  3
*D5
  1

  0
LINE
  5
133
330
132
100
AcDbEntity
  8
1
  6
Continuous
 62
     2
100
AcDbLine
 10
201.3137048193
 20
317.581749921852
 30
0.0
 11
132.2637048193
 21
317.581749921852
 31
0.0
  0
LINE
  5
134
330
132
100
AcDbEntity
  8
1
  6
Continuous
 62
     2
100
AcDbLine
 10
201.3137048193
 20
299.2952254722
 30
0.0
 11
201.3137048193
 21
319.581749921852
 31
0.0
  0
LINE
  5
135
330
132
100
AcDbEntity
  8
1
  6
Continuous
 62
     2
100
AcDbLine
 10
132.2637048193
 20
311.7195659454
 30
0.0
 11
132.2637048193
 21
319.581749921852
 31
0.0
  0
SOLID
  5
136
330
132
100
AcDbEntity
  8
1
 62
     2
100
AcDbTrace
 10
197.8137048193
 20
317.1209661802961
 30
0.0
 11
197.8137048193
 21
318.0425336634079
 31
0.0
 12
201.3137048193
 22
317.581749921852
 32
0.0
 13
201.3137048193
 23
317.581749921852
 33
0.0
  0
SOLID
  5
137
330
132
100
AcDbEntity
  8
1
 62
     2
100
AcDbTrace
 10
135.7637048193
 20
318.0425336634079
 30
0.0
 11
135.7637048193
 21
317.1209661802961
 31
0.0
 12
132.2637048193
 22
317.581749921852
 32
0.0
 13
132.2637048193
 23
317.581749921852
 33
0.0
  0
MTEXT
  5
138
330
132
100
AcDbEntity
  8
1
 62
     3
100
AcDbMText
 10
164.843498439709
 20
319.581749921852
 30
0.0
 40
3.5
 41
0.0
 71
     7
 72
     1
  1
\C3;\C3;\C3;69\C2;\H2.45;\S^ ;\C3;
  7
CONVERTER_11
 11
0.9999999999970619
 21
2.424068405545306E-6
 31
0.0
 73
     1
 44
0.60024009603842
  0
ENDBLK
  5
13A
330
132
100
AcDbEntity
  8
0
100
AcDbBlockEnd
  0
BLOCK
  5
144
330
13D
100
AcDbEntity
  8
0
100
AcDbBlockBegin
  2
*D6
 70
     1
 10
0.0
 20
0.0
 30
0.0
  3
*D6
  1

  0
LINE
  5
13E
330
13D
100
AcDbEntity
  8
1
  6
Continuous
 62
     2
100
AcDbLine
 10
201.3137048193
 20
324.633366352121
 30
0.0
 11
106.3137048193
 21
324.633366352121
 31
0.0
  0
LINE
  5
13F
330
13D
100
AcDbEntity
  8
1
  6
Continuous
 62
     2
100
AcDbLine
 10
201.3137048193
 20
299.2952254722
 30
0.0
 11
201.3137048193
 21
326.633366352121
 31
0.0
  0
LINE
  5
140
330
13D
100
AcDbEntity
  8
1
  6
Continuous
 62
     2
100
AcDbLine
 10
106.3137048193
 20
311.7196159639
 30
0.0
 11
106.3137048193
 21
326.633366352121
 31
0.0
  0
SOLID
  5
141
330
13D
100
AcDbEntity
  8
1
 62
     2
100
AcDbTrace
 10
197.8137048193
 20
324.1725826105651
 30
0.0
 11
197.8137048193
 21
325.0941500936769
 31
0.0
 12
201.3137048193
 22
324.633366352121
 32
0.0
 13
201.3137048193
 23
324.633366352121
 33
0.0
  0
SOLID
  5
142
330
13D
100
AcDbEntity
  8
1
 62
     2
100
AcDbTrace
 10
109.8137048193
 20
325.0941500936769
 30
0.0
 11
109.8137048193
 21
324.1725826105651
 31
0.0
 12
106.3137048193
 22
324.633366352121
 32
0.0
 13
106.3137048193
 23
324.633366352121
 33
0.0
  0
MTEXT
  5
143
330
13D
100
AcDbEntity
  8
1
 62
     3
100
AcDbMText
 10
151.463508289969
 20
326.633366352121
 30
0.0
 40
3.5
 41
0.0
 71
     7
 72
     1
  1
\C3;\C3;\C3;95\C2;\H2.45;\S^ ;\C3;
  7
CONVERTER_11
 11
0.9999999999970619
 21
2.424068405545306E-6
 31
0.0
 73
     1
 44
0.60024009603842
  0
ENDBLK
  5
145
330
13D
100
AcDbEntity
  8
0
100
AcDbBlockEnd
  0
BLOCK
  5
14F
330
148
100
AcDbEntity
  8
0
100
AcDbBlockBegin
  2
*D7
 70
     1
 10
0.0
 20
0.0
 30
0.0
  3
*D7
  1

  0
LINE
  5
149
330
148
100
AcDbEntity
  8
1
  6
Continuous
 62
     2
100
AcDbLine
 10
81.4137048193
 20
331.59457744354
 30
0.0
 11
201.3137048193
 21
331.59457744354
 31
0.0
  0
LINE
  5
14A
330
148
100
AcDbEntity
  8
1
  6
Continuous
 62
     2
100
AcDbLine
 10
81.4137048193
 20
303.775971745
 30
0.0
 11
81.4137048193
 21
333.59457744354
 31
0.0
  0
LINE
  5
14B
330
148
100
AcDbEntity
  8
1
  6
Continuous
 62
     2
100
AcDbLine
 10
201.3137048193
 20
299.2952254722
 30
0.0
 11
201.3137048193
 21
333.59457744354
 31
0.0
  0
SOLID
  5
14C
330
148
100
AcDbEntity
  8
1
 62
     2
100
AcDbTrace
 10
84.9137048193
 20
332.0553611850959
 30
0.0
 11
84.9137048193
 21
331.1337937019841
 31
0.0
 12
81.4137048193
 22
331.59457744354
 32
0.0
 13
81.4137048193
 23
331.59457744354
 33
0.0
  0
SOLID
  5
14D
330
148
100
AcDbEntity
  8
1
 62
     2
100
AcDbTrace
 10
197.8137048193
 20
331.1337937019841
 30
0.0
 11
197.8137048193
 21
332.0553611850959
 31
0.0
 12
201.3137048193
 22
331.59457744354
 32
0.0
 13
201.3137048193
 23
331.59457744354
 33
0.0
  0
MTEXT
  5
14E
330
148
100
AcDbEntity
  8
1
 62
     3
100
AcDbMText
 10
140.769326355362
 20
333.59457744354
 30
0.0
 40
3.5
 41
0.0
 71
     7
 72
     1
  1
\C3;\C3;\C3;120\C2;\H2.45;\S^ ;\C3;
  7
CONVERTER_11
 11
0.9999999999970619
 21
2.424068405545306E-6
 31
0.0
 73
     1
 44
0.60024009603842
  0
ENDBLK
  5
150
330
148
100
AcDbEntity
  8
0
100
AcDbBlockEnd
  0
BLOCK
  5
157
330
153
100
AcDbEntity
  8
0
100
AcDbBlockBegin
  2
*D8
 70
     1
 10
0.0
 20
0.0
 30
0.0
  3
*D8
  1

  0
LINE
  5
154
330
153
100
AcDbEntity
  8
1
  6
Continuous
 62
     2
100
AcDbLine
 10
142.1049696479371
 20
310.8333468719272
 30
0.0
 11
132.7824440611322
 21
302.3757906157569
 31
0.0
  0
SOLID
  5
155
330
153
100
AcDbEntity
  8
1
 62
     2
100
AcDbTrace
 10
135.0650439519684
 20
305.0687554121916
 30
0.0
 11
135.6842568238834
 21
304.3862145378232
 31
0.0
 12
132.7824440611322
 22
302.3757906157569
 32
0.0
 13
132.7824440611322
 23
302.3757906157569
 33
0.0
  0
MTEXT
  5
156
330
153
100
AcDbEntity
  8
1
 62
     3
100
AcDbMText
 10
135.2656668869914
 20
307.3290155884838
 30
0.0
 40
3.5
 41
0.0
 71
     7
 72
     1
  1
\C3; R\C3;\C3;2\C2;\H2.45;\S^ ;\C3;
  7
CONVERTER_11
 11
0.7406303790839081
 21
0.6719126740715839
 31
0.0
 73
     1
 44
0.60024009603842
  0
ENDBLK
  5
158
330
153
100
AcDbEntity
  8
0
100
AcDbBlockEnd
  0
BLOCK
  5
161
330
15A
100
AcDbEntity
  8
0
100
AcDbBlockBegin
  2
*D9
 70
     1
 10
0.0
 20
0.0
 30
0.0
  3
*D9
  1

  0
LINE
  5
15B
330
15A
100
AcDbEntity
  8
1
  6
Continuous
 62
     2
100
AcDbLine
 10
187.0406681914783
 20
301.7196159639
 30
0.0
 11
189.0406681914783
 21
301.7196159639
 31
0.0
  0
LINE
  5
15C
330
15A
100
AcDbEntity
  8
1
  6
Continuous
 62
     2
100
AcDbLine
 10
158.8419882427
 20
301.7196159639
 30
0.0
 11
187.0406681914783
 21
301.7196159639
 31
0.0
  0
ARC
  5
15D
330
15A
100
AcDbEntity
  8
1
  6
Continuous
 62
     2
100
AcDbCircle
 10
156.8419882427
 20
301.7196159639
 30
0.0
 40
30.19867994877837
100
AcDbArc
 50
345.5392055892188
 51
18.26623444538378
  0
SOLID
  5
15E
330
15A
100
AcDbEntity
  8
1
 62
     2
100
AcDbTrace
 10
186.9278431628831
 20
295.8201086303517
 30
0.0
 11
186.0148464623246
 21
295.9455026122581
 31
0.0
 12
186.947575739492
 22
299.3502548428906
 32
0.0
 13
186.947575739492
 23
299.3502548428906
 33
0.0
  0
SOLID
  5
15F
330
15A
100
AcDbEntity
  8
1
 62
     2
100
AcDbTrace
 10
186.3779479885888
 20
305.1870535753307
 30
0.0
 11
187.2979685234469
 21
305.240428113909
 31
0.0
 12
187.0406681914783
 22
301.7196159639
 32
0.0
 13
187.0406681914783
 23
301.7196159639
 33
0.0
  0
MTEXT
  5
160
330
15A
100
AcDbEntity
  8
1
 62
     3
100
AcDbMText
 10
187.6019068620691
 20
311.8723802167353
 30
0.0
 40
3.5
 41
0.0
 71
     7
 72
     1
  1
\C3;\C3;\C3;4.5%%d\C2;\H2.45;\S^ ;\C3;
  7
CONVERTER_11
 11
0.2079285601405562
 21
-0.9781440148965157
 31
0.0
 73
     1
 44
0.60024009603842
  0
ENDBLK
  5
162
330
15A
100
AcDbEntity
  8
0
100
AcDbBlockEnd
  0
ENDSEC
  0
SECTION
  2
ENTITIES
  0
INSERT
  5
6D
330
1F
100
AcDbEntity
  8
0
100
AcDbBlockReference
  2
Urheberrecht_DE-EN_horizontal
 10
151.219518810137
 20
250.244797844382
 30
0.0
  0
LINE
  5
71
330
1F
100
AcDbEntity
  8
0
  6
Continuous
 62
     7
100
AcDbLine
 10
81.4137048193
 20
267.6632601824
 30
0.0
 11
81.4137048193
 21
278.2996159639
 31
0.0
  0
LINE
  5
72
330
1F
100
AcDbEntity
  8
0
  6
Continuous
 62
     7
100
AcDbLine
 10
81.4137048193
 20
291.1396159639
 30
0.0
 11
81.4137048193
 21
301.775971745
 31
0.0
  0
LINE
  5
73
330
1F
100
AcDbEntity
  8
0
  6
Continuous
 62
     9
100
AcDbLine
 10
82.3636675769
 20
302.774719098
 30
0.0
 11
82.3636675769
 21
292.5681285099
 31
0.0
  0
LINE
  5
74
330
1F
100
AcDbEntity
  8
0
  6
Continuous
 62
     9
100
AcDbLine
 10
82.3636675769
 20
276.8711034178
 30
0.0
 11
82.3636675769
 21
266.6645128297
 31
0.0
  0
LINE
  5
75
330
1F
100
AcDbEntity
  8
0
  6
Continuous
 62
     7
100
AcDbLine
 10
82.5637048193
 20
278.4102562044
 30
0.0
 11
82.5637048193
 21
279.4496159639
 31
0.0
  0
LINE
  5
76
330
1F
100
AcDbEntity
  8
0
  6
Continuous
 62
     7
100
AcDbLine
 10
82.5637048193
 20
289.9896159639
 30
0.0
 11
82.5637048193
 21
291.0289757233
 31
0.0
  0
LINE
  5
77
330
1F
100
AcDbEntity
  8
RUNDUNGEN
  6
Continuous
 62
     9
100
AcDbLine
 10
84.6137048193
 20
276.6151451663
 30
0.0
 11
84.6137048193
 21
279.4496159639
 31
0.0
  0
LINE
  5
78
330
1F
100
AcDbEntity
  8
RUNDUNGEN
  6
Continuous
 62
     9
100
AcDbLine
 10
84.6137048193
 20
289.9896159639
 30
0.0
 11
84.6137048193
 21
292.8240867614
 31
0.0
  0
LINE
  5
79
330
1F
100
AcDbEntity
  8
RUNDUNGEN
  6
Continuous
 62
     7
100
AcDbLine
 10
86.0137048193
 20
290.6507662106
 30
0.0
 11
86.0137048193
 21
278.7884657171
 31
0.0
  0
LINE
  5
7A
330
1F
100
AcDbEntity
  8
0
  6
Continuous
 62
     7
100
AcDbLine
 10
82.1501950291
 20
277.0696159639
 30
0.0
 11
82.1017755503
 21
276.9836582578
 31
0.0
  0
LINE
  5
7B
330
1F
100
AcDbEntity
  8
0
  6
Continuous
 62
     7
100
AcDbLine
 10
82.1017755503
 20
292.4555736699
 30
0.0
 11
82.1501950291
 21
292.3696159639
 31
0.0
  0
LWPOLYLINE
  5
7C
330
1F
100
AcDbEntity
  8
BEZUGSACHSEN
  6
DOT_CENTER
 62
     7
100
AcDbPolyline
 90
        2
 70
     0
 43
0.25
 10
98.8137048193
 20
278.7196159639
 10
98.8137048193
 20
290.7196159639
  0
LINE
  5
7D
330
1F
100
AcDbEntity
  8
0
  6
Continuous
 62
     7
100
AcDbLine
 10
81.4137048193
 20
278.2996159639
 30
0.0
 11
82.5637048193
 21
279.4496159639
 31
0.0
  0
LINE
  5
7E
330
1F
100
AcDbEntity
  8
0
  6
Continuous
 62
     7
100
AcDbLine
 10
104.3137048193
 20
303.8744159639
 30
0.0
 11
104.3137048193
 21
265.5648159639
 31
0.0
  0
LINE
  5
7F
330
1F
100
AcDbEntity
  8
0
  6
Continuous
 62
     9
100
AcDbLine
 10
104.9838150523
 20
265.7443714596
 30
0.0
 11
104.9838150523
 21
303.6948604681
 31
0.0
  0
LINE
  5
80
330
1F
100
AcDbEntity
  8
0
  6
Continuous
 62
     9
100
AcDbLine
 10
105.1391064793
 20
265.7648159639
 30
0.0
 11
105.1391064793
 21
303.6744159639
 31
0.0
  0
LINE
  5
81
330
1F
100
AcDbEntity
  8
0
  6
Continuous
 62
     9
100
AcDbLine
 10
106.0115351888
 20
265.7648159639
 30
0.0
 11
106.0115351888
 21
303.6744159639
 31
0.0
  0
LINE
  5
82
330
1F
100
AcDbEntity
  8
0
  6
Continuous
 62
     7
100
AcDbLine
 10
106.3137048193
 20
309.7196159639
 30
0.0
 11
106.3137048193
 21
259.7196159639
 31
0.0
  0
LINE
  5
83
330
1F
100
AcDbEntity
  8
0
  6
Continuous
 62
     7
100
AcDbLine
 10
82.5637048193
 20
289.9896159639
 30
0.0
 11
81.4137048193
 21
291.1396159639
 31
0.0
  0
LWPOLYLINE
  5
84
330
1F
100
AcDbEntity
  8
BEZUGSACHSEN
  6
DOT_CENTER
 62
     7
100
AcDbPolyline
 90
        2
 70
     0
 43
0.25
 10
113.3137048193
 20
315.6145133917
 10
113.3137048193
 20
301.6145133917
  0
LINE
  5
85
330
1F
100
AcDbEntity
  8
FASEN
  6
Continuous
 62
     9
100
AcDbLine
 10
119.0073910922
 20
268.9696159639
 30
0.0
 11
119.0073910922
 21
269.3696159639
 31
0.0
  0
LINE
  5
86
330
1F
100
AcDbEntity
  8
FASEN
  6
Continuous
 62
     9
100
AcDbLine
 10
119.2812048193
 20
279.1021159639
 30
0.0
 11
119.2812048193
 21
278.7021159639
 31
0.0
  0
LINE
  5
87
330
1F
100
AcDbEntity
  8
FASEN
  6
Continuous
 62
     9
100
AcDbLine
 10
119.2812048193
 20
290.3371159639
 30
0.0
 11
119.2812048193
 21
290.7371159639
 31
0.0
  0
LINE
  5
88
330
1F
100
AcDbEntity
  8
0
  6
Continuous
 62
     7
100
AcDbLine
 10
126.2262048193
 20
307.1571631333
 30
0.0
 11
127.7056376508
 21
309.7196159639
 31
0.0
  0
LINE
  5
89
330
1F
100
AcDbEntity
  8
0
  6
Continuous
 62
     9
100
AcDbLine
 10
81.4137048193
 20
277.7624678529
 30
0.0
 11
82.5637048193
 21
278.4102562044
 31
0.0
  0
LINE
  5
8A
330
1F
100
AcDbEntity
  8
0
  6
Continuous
 62
     7
100
AcDbLine
 10
120.9217719878
 20
259.7196159639
 30
0.0
 11
106.3137048193
 21
259.7196159639
 31
0.0
  0
LINE
  5
8B
330
1F
100
AcDbEntity
  8
0
  6
Continuous
 62
     7
100
AcDbLine
 10
127.7056376508
 20
259.7196159639
 30
0.0
 11
132.2637048193
 21
259.7196159639
 31
0.0
  0
LINE
  5
8C
330
1F
100
AcDbEntity
  8
0
  6
Continuous
 62
     9
100
AcDbLine
 10
82.5637048193
 20
291.0289757233
 30
0.0
 11
81.4137048193
 21
291.6767640749
 31
0.0
  0
LINE
  5
8D
330
1F
100
AcDbEntity
  8
0
  6
Continuous
 62
     7
100
AcDbLine
 10
126.2262048193
 20
262.2820687944
 30
0.0
 11
127.7056376508
 21
259.7196159639
 31
0.0
  0
LINE
  5
8E
330
1F
100
AcDbEntity
  8
0
  6
Continuous
 62
     7
100
AcDbLine
 10
120.9217719878
 20
309.7196159639
 30
0.0
 11
120.9217719878
 21
290.7371159639
 31
0.0
  0
LINE
  5
8F
330
1F
100
AcDbEntity
  8
0
  6
Continuous
 62
     7
100
AcDbLine
 10
120.9217719878
 20
278.7021159639
 30
0.0
 11
120.9217719878
 21
269.3696159639
 31
0.0
  0
LINE
  5
90
330
1F
100
AcDbEntity
  8
0
  6
Continuous
 62
     7
100
AcDbLine
 10
120.9217719878
 20
264.9869653563
 30
0.0
 11
120.9217719878
 21
259.7196159639
 31
0.0
  0
LINE
  5
91
330
1F
100
AcDbEntity
  8
0
  6
Continuous
 62
     7
100
AcDbLine
 10
122.4012048193
 20
307.1571085211
 30
0.0
 11
122.4012048193
 21
290.7371159639
 31
0.0
  0
LINE
  5
92
330
1F
100
AcDbEntity
  8
0
  6
Continuous
 62
     7
100
AcDbLine
 10
122.4012048193
 20
278.7021159639
 30
0.0
 11
122.4012048193
 21
269.3696159639
 31
0.0
  0
LINE
  5
93
330
1F
100
AcDbEntity
  8
0
  6
Continuous
 62
     7
100
AcDbLine
 10
122.4012048193
 20
262.2820826356
 30
0.0
 11
122.4012048193
 21
268.6470267201
 31
0.0
  0
LINE
  5
94
330
1F
100
AcDbEntity
  8
0
  6
Continuous
 62
     9
100
AcDbLine
 10
123.1512048193
 20
263.2446159639
 30
0.0
 11
123.1512048193
 21
279.7834610838
 31
0.0
  0
LINE
  5
95
330
1F
100
AcDbEntity
  8
0
  6
Continuous
 62
     9
100
AcDbLine
 10
123.1512048193
 20
289.6557708439
 30
0.0
 11
123.1512048193
 21
306.1946159639
 31
0.0
  0
LINE
  5
96
330
1F
100
AcDbEntity
  8
RUNDUNGEN
  6
Continuous
 62
     7
100
AcDbLine
 10
200.392163915
 20
271.1470891218
 30
0.0
 11
156.8419882427
 21
267.7196159639
 31
0.0
  0
LINE
  5
97
330
1F
100
AcDbEntity
  8
0
  6
Continuous
 62
     7
100
AcDbLine
 10
156.8419882427
 20
267.7196159639
 30
0.0
 11
200.392163915
 21
271.1470891218
 31
0.0
  0
LINE
  5
98
330
1F
100
AcDbEntity
  8
0
  6
Continuous
 62
     7
100
AcDbLine
 10
123.1512048193
 20
263.2446159639
 30
0.0
 11
125.4762048193
 21
263.2446159639
 31
0.0
  0
LINE
  5
99
330
1F
100
AcDbEntity
  8
0
  6
Continuous
 62
     7
100
AcDbLine
 10
113.6460311021
 20
264.9869653563
 30
0.0
 11
120.9217719878
 21
264.9869653563
 31
0.0
  0
LINE
  5
9A
330
1F
100
AcDbEntity
  8
0
  6
Continuous
 62
     7
100
AcDbLine
 10
127.7056376508
 20
264.9869653563
 30
0.0
 11
132.2637048193
 21
264.9869653563
 31
0.0
  0
LINE
  5
9B
330
1F
100
AcDbEntity
  8
0
  6
Continuous
 62
     7
100
AcDbLine
 10
106.0115351888
 20
265.7648159639
 30
0.0
 11
105.1391064793
 21
265.7648159639
 31
0.0
  0
LINE
  5
9C
330
1F
100
AcDbEntity
  8
0
  6
Continuous
 62
     7
100
AcDbLine
 10
104.3137048193
 20
265.5648159639
 30
0.0
 11
82.3636675769
 21
266.6645128297
 31
0.0
  0
LINE
  5
9D
330
1F
100
AcDbEntity
  8
0
  6
Continuous
 62
     9
100
AcDbLine
 10
125.4762048193
 20
263.2446159639
 30
0.0
 11
125.4762048193
 21
279.7834610838
 31
0.0
  0
LINE
  5
9E
330
1F
100
AcDbEntity
  8
0
  6
Continuous
 62
     9
100
AcDbLine
 10
125.4762048193
 20
289.6557708439
 30
0.0
 11
125.4762048193
 21
306.1946159639
 31
0.0
  0
LINE
  5
9F
330
1F
100
AcDbEntity
  8
0
  6
Continuous
 62
     7
100
AcDbLine
 10
126.2262048193
 20
278.7021159639
 30
0.0
 11
126.2262048193
 21
269.3696159639
 31
0.0
  0
LINE
  5
A0
330
1F
100
AcDbEntity
  8
0
  6
Continuous
 62
     7
100
AcDbLine
 10
126.2262048193
 20
262.2820826356
 30
0.0
 11
126.2262048193
 21
268.6470267201
 31
0.0
  0
LINE
  5
A1
330
1F
100
AcDbEntity
  8
0
  6
Continuous
 62
     7
100
AcDbLine
 10
126.2262048193
 20
290.7371159639
 30
0.0
 11
126.2262048193
 21
307.1571085211
 31
0.0
  0
LINE
  5
A2
330
1F
100
AcDbEntity
  8
0
  6
Continuous
 62
     7
100
AcDbLine
 10
127.7056376508
 20
278.7021159639
 30
0.0
 11
127.7056376508
 21
269.3696159639
 31
0.0
  0
LINE
  5
A3
330
1F
100
AcDbEntity
  8
0
  6
Continuous
 62
     7
100
AcDbLine
 10
127.7056376508
 20
259.7196159639
 30
0.0
 11
127.7056376508
 21
264.9869653563
 31
0.0
  0
LINE
  5
A4
330
1F
100
AcDbEntity
  8
0
  6
Continuous
 62
     7
100
AcDbLine
 10
127.7056376508
 20
290.7371159639
 30
0.0
 11
127.7056376508
 21
309.7196159639
 31
0.0
  0
LINE
  5
A5
330
1F
100
AcDbEntity
  8
RUNDUNGEN
  6
Continuous
 62
     7
100
AcDbLine
 10
156.8419882427
 20
267.7196159639
 30
0.0
 11
134.2637048193
 21
267.7196159639
 31
0.0
  0
LINE
  5
A6
330
1F
100
AcDbEntity
  8
0
  6
Continuous
 62
     7
100
AcDbLine
 10
134.2637048193
 20
267.7196159639
 30
0.0
 11
156.8419882427
 21
267.7196159639
 31
0.0
  0
LINE
  5
A7
330
1F
100
AcDbEntity
  8
0
  6
Continuous
 62
     7
100
AcDbLine
 10
119.0073910922
 20
268.9696159639
 30
0.0
 11
122.4380417135
 21
268.9696159639
 31
0.0
  0
LINE
  5
A8
330
1F
100
AcDbEntity
  8
0
  6
Continuous
 62
     7
100
AcDbLine
 10
126.1893679251
 20
268.9696159639
 30
0.0
 11
132.2637048193
 21
268.9696159639
 31
0.0
  0
LINE
  5
A9
330
1F
100
AcDbEntity
  8
0
  6
Continuous
 62
     7
100
AcDbLine
 10
119.0073910922
 20
269.3696159639
 30
0.0
 11
122.4380417135
 21
269.3696159639
 31
0.0
  0
LINE
  5
AA
330
1F
100
AcDbEntity
  8
0
  6
Continuous
 62
     7
100
AcDbLine
 10
126.1893679251
 20
269.3696159639
 30
0.0
 11
132.2637048193
 21
269.3696159639
 31
0.0
  0
LINE
  5
AB
330
1F
100
AcDbEntity
  8
0
  6
Continuous
 62
     7
100
AcDbLine
 10
132.2637048193
 20
309.7195659454
 30
0.0
 11
132.2637048193
 21
290.7371159639
 31
0.0
  0
LINE
  5
AC
330
1F
100
AcDbEntity
  8
0
  6
Continuous
 62
     7
100
AcDbLine
 10
132.2637048193
 20
278.7021159639
 30
0.0
 11
132.2637048193
 21
269.3696159639
 31
0.0
  0
LINE
  5
AD
330
1F
100
AcDbEntity
  8
0
  6
Continuous
 62
     7
100
AcDbLine
 10
132.2637048193
 20
264.9869653563
 30
0.0
 11
132.2637048193
 21
259.719629508
 31
0.0
  0
LINE
  5
AE
330
1F
100
AcDbEntity
  8
FASEN
  6
Continuous
 62
     7
100
AcDbLine
 10
132.2637048193
 20
264.9869653563
 30
0.0
 11
132.2637048193
 21
269.3696159639
 31
0.0
  0
LINE
  5
AF
330
1F
100
AcDbEntity
  8
FASEN
  6
Continuous
 62
     7
100
AcDbLine
 10
132.2637048193
 20
278.7021159639
 30
0.0
 11
132.2637048193
 21
290.7371159639
 31
0.0
  0
LINE
  5
B0
330
1F
100
AcDbEntity
  8
RUNDUNGEN
  6
Continuous
 62
     9
100
AcDbLine
 10
134.2637048193
 20
301.7196159639
 30
0.0
 11
134.2637048193
 21
267.7196159639
 31
0.0
  0
LINE
  5
B1
330
1F
100
AcDbEntity
  8
0
  6
Continuous
 62
     7
100
AcDbLine
 10
120.9217719878
 20
259.7196159639
 30
0.0
 11
122.4012048193
 21
262.2820687944
 31
0.0
  0
LINE
  5
B2
330
1F
100
AcDbEntity
  8
0
  6
Continuous
 62
     7
100
AcDbLine
 10
104.9838150523
 20
265.7443714596
 30
0.0
 11
104.3137048193
 21
265.5648159639
 31
0.0
  0
LWPOLYLINE
  5
B3
330
1F
100
AcDbEntity
  8
BOHRUNGEN
  6
DASHED
 62
     8
100
AcDbPolyline
 90
        2
 70
     0
 43
0.35
 10
201.3137048193
 20
276.7196159639
 10
151.3137048193
 20
276.7196159639
  0
LINE
  5
B4
330
1F
100
AcDbEntity
  8
RUNDUNGEN
  6
Continuous
 62
     9
100
AcDbLine
 10
85.4317629955
 20
277.0696159639
 30
0.0
 11
84.6137048193
 21
277.0696159639
 31
0.0
  0
LINE
  5
B5
330
1F
100
AcDbEntity
  8
0
  6
Continuous
 62
     9
100
AcDbLine
 10
84.6137048193
 20
277.0696159639
 30
0.0
 11
82.1501950291
 21
277.0696159639
 31
0.0
  0
LINE
  5
B6
330
1F
100
AcDbEntity
  8
0
  6
Continuous
 62
     7
100
AcDbLine
 10
119.2812048193
 20
278.7021159639
 30
0.0
 11
122.4012048193
 21
278.7021159639
 31
0.0
  0
LINE
  5
B7
330
1F
100
AcDbEntity
  8
0
  6
Continuous
 62
     7
100
AcDbLine
 10
126.2262048193
 20
278.7021159639
 30
0.0
 11
132.2637048193
 21
278.7021159639
 31
0.0
  0
LINE
  5
B8
330
1F
100
AcDbEntity
  8
0
  6
Continuous
 62
     7
100
AcDbLine
 10
132.2637048193
 20
279.1021159639
 30
0.0
 11
125.9477399665
 21
279.1021159639
 31
0.0
  0
LINE
  5
B9
330
1F
100
AcDbEntity
  8
0
  6
Continuous
 62
     7
100
AcDbLine
 10
122.679669672
 20
279.1021159639
 30
0.0
 11
119.2812048193
 21
279.1021159639
 31
0.0
  0
LINE
  5
BA
330
1F
100
AcDbEntity
  8
0
  6
Continuous
 62
     7
100
AcDbLine
 10
84.6137048193
 20
279.4496159639
 30
0.0
 11
82.5637048193
 21
279.4496159639
 31
0.0
  0
LINE
  5
BB
330
1F
100
AcDbEntity
  8
0
  6
Continuous
 62
     7
100
AcDbLine
 10
120.9217719878
 20
309.7196159639
 30
0.0
 11
122.4012048193
 21
307.1571631333
 31
0.0
  0
LINE
  5
BC
330
1F
100
AcDbEntity
  8
0
  6
Continuous
 62
     7
100
AcDbLine
 10
123.1512048193
 20
279.7834610838
 30
0.0
 11
125.4762048193
 21
279.7834610838
 31
0.0
  0
LWPOLYLINE
  5
BD
330
1F
100
AcDbEntity
  8
TEIL_STARTBEZUEGE
  6
DOT_CENTER
 62
     7
100
AcDbPolyline
 90
        2
 70
     0
 43
0.25
 10
204.3137048193
 20
284.7196159639
 10
78.4137048193
 20
284.7196159639
  0
LINE
  5
BE
330
1F
100
AcDbEntity
  8
0
  6
Continuous
 62
     7
100
AcDbLine
 10
125.4762048193
 20
289.6557708439
 30
0.0
 11
123.1512048193
 21
289.6557708439
 31
0.0
  0
LINE
  5
BF
330
1F
100
AcDbEntity
  8
0
  6
Continuous
 62
     7
100
AcDbLine
 10
84.6137048193
 20
289.9896159639
 30
0.0
 11
82.5637048193
 21
289.9896159639
 31
0.0
  0
LINE
  5
C0
330
1F
100
AcDbEntity
  8
0
  6
Continuous
 62
     7
100
AcDbLine
 10
119.2812048193
 20
290.3371159639
 30
0.0
 11
122.679669672
 21
290.3371159639
 31
0.0
  0
LINE
  5
C1
330
1F
100
AcDbEntity
  8
0
  6
Continuous
 62
     7
100
AcDbLine
 10
125.9477399665
 20
290.3371159639
 30
0.0
 11
132.2637048193
 21
290.3371159639
 31
0.0
  0
LINE
  5
C2
330
1F
100
AcDbEntity
  8
0
  6
Continuous
 62
     7
100
AcDbLine
 10
119.2812048193
 20
290.7371159639
 30
0.0
 11
122.4012048193
 21
290.7371159639
 31
0.0
  0
LINE
  5
C3
330
1F
100
AcDbEntity
  8
0
  6
Continuous
 62
     7
100
AcDbLine
 10
126.2262048193
 20
290.7371159639
 30
0.0
 11
132.2637048193
 21
290.7371159639
 31
0.0
  0
LINE
  5
C4
330
1F
100
AcDbEntity
  8
0
  6
Continuous
 62
     9
100
AcDbLine
 10
84.6137048193
 20
292.3696159639
 30
0.0
 11
82.1501950291
 21
292.3696159639
 31
0.0
  0
LINE
  5
C5
330
1F
100
AcDbEntity
  8
RUNDUNGEN
  6
Continuous
 62
     9
100
AcDbLine
 10
84.6137048193
 20
292.3696159639
 30
0.0
 11
85.4317629955
 21
292.3696159639
 31
0.0
  0
LWPOLYLINE
  5
C6
330
1F
100
AcDbEntity
  8
BOHRUNGEN
  6
DASHED
 62
     8
100
AcDbPolyline
 90
        2
 70
     0
 43
0.35
 10
201.3137048193
 20
292.7196159639
 10
151.3137048193
 20
292.7196159639
  0
LWPOLYLINE
  5
C7
330
1F
100
AcDbEntity
  8
BOHRUNGEN
  6
DASHED
 62
     8
100
AcDbPolyline
 90
        2
 70
     0
 43
0.35
 10
151.3137048193
 20
276.7196159639
 10
151.3137048193
 20
292.7196159639
  0
LINE
  5
C8
330
1F
100
AcDbEntity
  8
0
  6
Continuous
 62
     7
100
AcDbLine
 10
104.9838150523
 20
303.6948604681
 30
0.0
 11
104.3137048193
 21
303.8744159639
 31
0.0
  0
LINE
  5
C9
330
1F
100
AcDbEntity
  8
0
  6
Continuous
 62
     7
100
AcDbLine
 10
156.8419882427
 20
301.7196159639
 30
0.0
 11
156.8419882427
 21
267.7196159639
 31
0.0
  0
LINE
  5
CA
330
1F
100
AcDbEntity
  8
0
  6
Continuous
 62
     7
100
AcDbLine
 10
104.3137048193
 20
303.8744159639
 30
0.0
 11
82.3636675769
 21
302.774719098
 31
0.0
  0
LINE
  5
CB
330
1F
100
AcDbEntity
  8
RUNDUNGEN
  6
Continuous
 62
     7
100
AcDbLine
 10
156.8419882427
 20
301.7196159639
 30
0.0
 11
134.2637048193
 21
301.7196159639
 31
0.0
  0
LINE
  5
CC
330
1F
100
AcDbEntity
  8
0
  6
Continuous
 62
     7
100
AcDbLine
 10
134.2637048193
 20
301.7196159639
 30
0.0
 11
156.8419882427
 21
301.7196159639
 31
0.0
  0
LINE
  5
CD
330
1F
100
AcDbEntity
  8
0
  6
Continuous
 62
     7
100
AcDbLine
 10
106.0115351888
 20
303.6744159639
 30
0.0
 11
105.1391064793
 21
303.6744159639
 31
0.0
  0
LINE
  5
CE
330
1F
100
AcDbEntity
  8
RUNDUNGEN
  6
Continuous
 62
     7
100
AcDbLine
 10
200.392163915
 20
298.2921428059
 30
0.0
 11
156.8419882427
 21
301.7196159639
 31
0.0
  0
LINE
  5
CF
330
1F
100
AcDbEntity
  8
0
  6
Continuous
 62
     7
100
AcDbLine
 10
156.8419882427
 20
301.7196159639
 30
0.0
 11
200.392163915
 21
298.2921428059
 31
0.0
  0
LINE
  5
D0
330
1F
100
AcDbEntity
  8
0
  6
Continuous
 62
     7
100
AcDbLine
 10
123.1512048193
 20
306.1946159639
 30
0.0
 11
125.4762048193
 21
306.1946159639
 31
0.0
  0
LINE
  5
D1
330
1F
100
AcDbEntity
  8
BEZUGSACHSEN
  6
Continuous
 62
     7
100
AcDbLine
 10
120.9217719878
 20
309.7196159639
 30
0.0
 11
118.3137048193
 21
309.7196159639
 31
0.0
  0
LINE
  5
D2
330
1F
100
AcDbEntity
  8
BEZUGSACHSEN
  6
Continuous
 62
     7
100
AcDbLine
 10
108.3137048193
 20
309.7196159639
 30
0.0
 11
106.3137048193
 21
309.7196159639
 31
0.0
  0
LINE
  5
D3
330
1F
100
AcDbEntity
  8
0
  6
Continuous
 62
     7
100
AcDbLine
 10
106.3137048193
 20
309.7196159639
 30
0.0
 11
108.3137048193
 21
309.7196159639
 31
0.0
  0
LINE
  5
D4
330
1F
100
AcDbEntity
  8
0
  6
Continuous
 62
     7
100
AcDbLine
 10
118.3137048193
 20
309.7196159639
 30
0.0
 11
120.9217719878
 21
309.7196159639
 31
0.0
  0
LINE
  5
D5
330
1F
100
AcDbEntity
  8
0
  6
Continuous
 62
     7
100
AcDbLine
 10
127.7056376508
 20
309.7196159639
 30
0.0
 11
132.2637048193
 21
309.7196159639
 31
0.0
  0
LINE
  5
D6
330
1F
100
AcDbEntity
  8
RUNDUNGEN
  6
Continuous
 62
     9
100
AcDbLine
 10
200.392163915
 20
271.1470891218
 30
0.0
 11
200.392163915
 21
298.2921428059
 31
0.0
  0
LINE
  5
D7
330
1F
100
AcDbEntity
  8
RUNDUNGEN
  6
Continuous
 62
     7
100
AcDbLine
 10
201.3137048193
 20
297.2952254722
 30
0.0
 11
201.3137048193
 21
272.1440064555
 31
0.0
  0
LWPOLYLINE
  5
D8
330
1F
100
AcDbEntity
  8
1
  6
Continuous
 62
     7
100
AcDbPolyline
 90
        2
 70
     0
 43
0.25
 10
201.3137048193
 20
297.2952254722
 10
201.3137048193
 20
298.2196159638467
  0
LWPOLYLINE
  5
D9
330
1F
100
AcDbEntity
  8
1
  6
Continuous
 62
     7
100
AcDbPolyline
 90
        2
 70
     0
 43
0.25
 10
200.392163915
 20
298.2921428059
 10
201.3137048192949
 20
298.2196159638467
  0
LWPOLYLINE
  5
DA
330
1F
100
AcDbEntity
  8
1
  6
Continuous
 62
     7
100
AcDbPolyline
 90
        2
 70
     0
 43
0.25
 10
200.392163915
 20
271.1470891218
 10
201.3137048193
 20
271.2196159638486
  0
LWPOLYLINE
  5
DB
330
1F
100
AcDbEntity
  8
1
  6
Continuous
 62
     7
100
AcDbPolyline
 90
        2
 70
     0
 43
0.25
 10
201.3137048193
 20
272.1440064555
 10
201.3137048193
 20
271.2196159638486
  0
ARC
  5
DC
330
1F
100
AcDbEntity
  8
0
  6
Continuous
 62
     7
100
AcDbCircle
 10
88.658316416
 20
269.1696159639
 30
0.0
 40
33.78031736343756
100
AcDbArc
 50
359.660772196785
 51
0.33922780321496
  0
ARC
  5
DD
330
1F
100
AcDbEntity
  8
FASEN
  6
Continuous
 62
     7
100
AcDbCircle
 10
121.488060167
 20
273.1530077724
 30
0.0
 40
11.32173434580035
100
AcDbArc
 50
223.8842578162989
 51
226.1595439822723
  0
ARC
  5
DE
330
1F
100
AcDbEntity
  8
FASEN
  6
Continuous
 62
     7
100
AcDbCircle
 10
119.0073910922
 20
263.3696159639
 30
0.0
 40
6.0
100
AcDbArc
 50
90.0
 51
161.1845969504034
  0
ARC
  5
DF
330
1F
100
AcDbEntity
  8
FASEN
  6
Continuous
 62
     7
100
AcDbCircle
 10
119.0073910922
 20
263.3696159639
 30
0.0
 40
5.599990644599984
100
AcDbArc
 50
90.0
 51
163.2131310087987
  0
ARC
  5
E0
330
1F
100
AcDbEntity
  8
0
  6
Continuous
 62
     7
100
AcDbCircle
 10
123.8265452096
 20
268.6476630567
 30
0.0
 40
1.425340532341817
100
AcDbArc
 50
166.945493584537
 51
180.0255794330663
  0
ARC
  5
E1
330
1F
100
AcDbEntity
  8
RUNDUNGEN
  6
Continuous
 62
     7
100
AcDbCircle
 10
84.6137048193
 20
280.8496159639
 30
0.0
 40
1.400000000000034
100
AcDbArc
 50
270.0
 51
353.9429041005092
  0
ARC
  5
E2
330
1F
100
AcDbEntity
  8
0
  6
Continuous
 62
     7
100
AcDbCircle
 10
82.4137048193
 20
267.6632601823
 30
0.0
 40
1.0
100
AcDbArc
 50
179.9999999942711
 51
267.1318795106976
  0
ARC
  5
E3
330
1F
100
AcDbEntity
  8
0
  6
Continuous
 62
     7
100
AcDbCircle
 10
123.1512048193
 20
262.4946159639
 30
0.0
 40
0.75
100
AcDbArc
 50
90.0
 51
180.0
  0
ARC
  5
E4
330
1F
100
AcDbEntity
  8
0
  6
Continuous
 62
     7
100
AcDbCircle
 10
105.1391064793
 20
265.1648159639
 30
0.0
 40
0.5999999999999659
100
AcDbArc
 50
90.0
 51
104.999999996141
  0
ARC
  5
E5
330
1F
100
AcDbEntity
  8
0
  6
Continuous
 62
     7
100
AcDbCircle
 10
106.0115351888
 20
265.1648159639
 30
0.0
 40
0.5999999999998945
100
AcDbArc
 50
59.70317838175824
 51
90.0
  0
ARC
  5
E6
330
1F
100
AcDbEntity
  8
0
  6
Continuous
 62
     7
100
AcDbCircle
 10
122.9048247733
 20
278.6266208309
 30
0.0
 40
0.5037304978999786
100
AcDbArc
 50
166.1596109369583
 51
171.3804870338136
  0
ARC
  5
E7
330
1F
100
AcDbEntity
  8
0
  6
Continuous
 62
     7
100
AcDbCircle
 10
5.6472612313
 20
317.6401514735
 30
0.0
 40
126.7303074976264
100
AcDbArc
 50
335.4508108779187
 51
337.1137532296999
  0
ARC
  5
E8
330
1F
100
AcDbEntity
  8
0
  6
Continuous
 62
     7
100
AcDbCircle
 10
119.2812048193
 20
284.7196159639
 30
0.0
 40
6.017499999999984
100
AcDbArc
 50
90.0
 51
270.0
  0
ARC
  5
E9
330
1F
100
AcDbEntity
  8
FASEN
  6
Continuous
 62
     7
100
AcDbCircle
 10
119.2812048193
 20
284.7196159639
 30
0.0
 40
5.617499842999962
100
AcDbArc
 50
90.0
 51
270.0
  0
ARC
  5
EA
330
1F
100
AcDbEntity
  8
RUNDUNGEN
  6
Continuous
 62
     7
100
AcDbCircle
 10
84.6137048193
 20
288.5896159639
 30
0.0
 40
1.400000000000061
100
AcDbArc
 50
6.05709561601257
 51
90.0
  0
ARC
  5
EB
330
1F
100
AcDbEntity
  8
0
  6
Continuous
 62
     7
100
AcDbCircle
 10
82.4137048193
 20
301.7759717454
 30
0.0
 40
0.999999999976244
100
AcDbArc
 50
92.86812048930244
 51
180.0000000229187
  0
ARC
  5
EC
330
1F
100
AcDbEntity
  8
0
  6
Continuous
 62
     7
100
AcDbCircle
 10
123.1512048193
 20
306.9446159639
 30
0.0
 40
0.75
100
AcDbArc
 50
180.0
 51
270.0
  0
ARC
  5
ED
330
1F
100
AcDbEntity
  8
0
  6
Continuous
 62
     7
100
AcDbCircle
 10
105.1391064793
 20
304.2744159639
 30
0.0
 40
0.6000000000097674
100
AcDbArc
 50
255.0000000063317
 51
270.0
  0
ARC
  5
EE
330
1F
100
AcDbEntity
  8
0
  6
Continuous
 62
     7
100
AcDbCircle
 10
106.0115351888
 20
304.2744159639
 30
0.0
 40
0.6000000000000227
100
AcDbArc
 50
270.0
 51
300.2968216182418
  0
ARC
  5
EF
330
1F
100
AcDbEntity
  8
RUNDUNGEN
  6
Continuous
 62
     7
100
AcDbCircle
 10
171.5837753618
 20
-481.7162439012
 30
0.0
 40
779.4077989045003
100
AcDbArc
 50
96.40668094319999
 51
96.57315239320002
  0
ARC
  5
F0
330
1F
100
AcDbEntity
  8
0
  6
Continuous
 62
     7
100
AcDbCircle
 10
159.9690932226
 20
269.1696159639
 30
0.0
 40
33.78031736343758
100
AcDbArc
 50
179.660772196785
 51
180.339227803215
  0
ARC
  5
F1
330
1F
100
AcDbEntity
  8
RUNDUNGEN
  6
Continuous
 62
     7
100
AcDbCircle
 10
134.2637048193
 20
265.7196159639
 30
0.0
 40
2.0
100
AcDbArc
 50
90.0
 51
180.0
  0
ARC
  5
F2
330
1F
100
AcDbEntity
  8
0
  6
Continuous
 62
     7
100
AcDbCircle
 10
124.800864429
 20
268.6476630567
 30
0.0
 40
1.425340532344747
100
AcDbArc
 50
359.9744205669336
 51
13.05450641546304
  0
ARC
  5
F3
330
1F
100
AcDbEntity
  8
RUNDUNGEN
  6
Continuous
 62
     7
100
AcDbCircle
 10
200.3137048193
 20
272.1440064555
 30
0.0
 40
0.9999999999648148
100
AcDbArc
 50
274.4999999985582
 51
0.0
  0
ARC
  5
F4
330
1F
100
AcDbEntity
  8
0
  6
Continuous
 62
     7
100
AcDbCircle
 10
125.4762048193
 20
262.4946159639
 30
0.0
 40
0.75
100
AcDbArc
 50
0.0
 51
90.0
  0
ARC
  5
F5
330
1F
100
AcDbEntity
  8
RUNDUNGEN
  6
Continuous
 62
     7
100
AcDbCircle
 10
171.583775351
 20
1051.1554757341
 30
0.0
 40
779.4077988091002
100
AcDbArc
 50
263.4268476068
 51
263.5933190568001
  0
ARC
  5
F6
330
1F
100
AcDbEntity
  8
0
  6
Continuous
 62
     7
100
AcDbCircle
 10
242.9801484072
 20
317.6401514735
 30
0.0
 40
126.7303074975999
100
AcDbArc
 50
202.8862467703001
 51
204.5491891221
  0
ARC
  5
F7
330
1F
100
AcDbEntity
  8
RUNDUNGEN
  6
Continuous
 62
     7
100
AcDbCircle
 10
134.2637048193
 20
303.7196159639
 30
0.0
 40
2.0
100
AcDbArc
 50
180.0
 51
270.0
  0
ARC
  5
F8
330
1F
100
AcDbEntity
  8
RUNDUNGEN
  6
Continuous
 62
     7
100
AcDbCircle
 10
200.3137048193
 20
297.2952254722
 30
0.0
 40
1.0
100
AcDbArc
 50
0.0
 51
85.50000000144182
  0
ARC
  5
F9
330
1F
100
AcDbEntity
  8
0
  6
Continuous
 62
     7
100
AcDbCircle
 10
125.4762048193
 20
306.9446159639
 30
0.0
 40
0.75
100
AcDbArc
 50
270.0
 51
0.0
  0
CIRCLE
  5
FA
330
1F
100
AcDbEntity
  8
FASEN
  6
Continuous
 62
     7
100
AcDbCircle
 10
98.8137048193
 20
284.7196159639
 30
0.0
 40
3.0
  0
SPLINE
  5
FB
330
1F
100
AcDbEntity
  8
BEZUGSACHSEN
  6
Continuous
 62
     7
100
AcDbSpline
210
0.0
220
0.0
230
1.0
 70
     8
 71
     3
 72
    15
 73
    11
 74
     9
 42
0.0000000001
 43
0.0000000001
 44
0.00000001
 40
0.0
 40
0.0
 40
0.0
 40
0.0
 40
0.9592794728029136
 40
1.918698757760568
 40
2.733413612643354
 40
3.548061682638978
 40
4.096465872428848
 40
4.644852383039791
 40
4.839161107616432
 40
5.03346490927446
 40
5.03346490927446
 40
5.03346490927446
 40
5.03346490927446
 10
113.3137048193
 20
309.2145133917
 30
0.0
 10
112.9939254535004
 20
309.2181415546586
 30
0.0
 10
112.3543201150015
 20
309.22539840937
 30
0.0
 10
111.4445099932581
 20
309.2808126457298
 30
0.0
 10
110.5852661232227
 20
309.3615351018792
 30
0.0
 10
109.8649946753055
 20
309.4530797499325
 30
0.0
 10
109.2351941435129
 20
309.5498043269898
 30
0.0
 10
108.8112388672405
 20
309.6240057662225
 30
0.0
 10
108.5043150655719
 20
309.6818971659487
 30
0.0
 10
108.3772410314687
 20
309.7070431374322
 30
0.0
 10
108.3137048193
 20
309.7196159639
 30
0.0
 11
113.3137048193
 21
309.2145133917
 31
0.0
 11
112.3546094588351
 21
309.2333069138749
 31
0.0
 11
111.3968316928209
 21
309.2894060696393
 31
0.0
 11
110.5857213754457
 21
309.3659589782338
 31
0.0
 11
109.7775453076831
 21
309.4684427400857
 31
0.0
 11
109.2354961576995
 21
309.5516886071372
 31
0.0
 11
108.6952980336514
 21
309.6461012746928
 31
0.0
 11
108.5043684668396
 21
309.6821814765165
 31
0.0
 11
108.3137048193
 21
309.7196159639
 31
0.0
  0
SPLINE
  5
FC
330
1F
100
AcDbEntity
  8
BEZUGSACHSEN
  6
Continuous
 62
     7
100
AcDbSpline
210
0.0
220
0.0
230
1.0
 70
     8
 71
     3
 72
    15
 73
    11
 74
     9
 42
0.0000000001
 43
0.0000000001
 44
0.00000001
 40
0.0
 40
0.0
 40
0.0
 40
0.0
 40
0.1942981503602215
 40
0.3886012246070234
 40
0.9369792400626076
 40
1.485374928924178
 40
2.300027372215262
 40
3.114746618678623
 40
4.074175664741114
 40
5.033464878728269
 40
5.033464878728269
 40
5.033464878728269
 40
5.033464878728269
 10
118.3137048193
 20
309.7196159639
 30
0.0
 10
118.2501704533687
 20
309.7070435118752
 30
0.0
 10
118.1231001114237
 20
309.6818982892154
 30
0.0
 10
117.8161828131193
 20
309.6240080152125
 30
0.0
 10
117.3922350301412
 20
309.5498075601872
 30
0.0
 10
116.7624387574389
 20
309.4530829729785
 30
0.0
 10
116.0421672740187
 20
309.3615378629692
 30
0.0
 10
115.1829172975238
 20
309.2808144264661
 30
0.0
 10
114.2730992730331
 20
309.2253988223177
 30
0.0
 10
113.6334874326976
 20
309.2181416922778
 30
0.0
 10
113.3137048193
 20
309.2145133917
 30
0.0
 11
118.3137048193
 21
309.7196159639
 31
0.0
 11
118.1230467148659
 21
309.6821825771045
 31
0.0
 11
117.9321227106129
 21
309.6461033689403
 31
0.0
 11
117.3919330210769
 21
309.5516917851489
 31
0.0
 11
116.8498923544711
 21
309.4684466813438
 31
0.0
 11
116.041712022285
 21
309.3659617847599
 31
0.0
 11
115.2305973775406
 21
309.2894079890408
 31
0.0
 11
114.2728099111068
 21
309.2333075115856
 31
0.0
 11
113.3137048193
 21
309.2145133917
 31
0.0
  0
SPLINE
  5
FD
330
1F
100
AcDbEntity
  8
0
  6
Continuous
 62
     7
100
AcDbSpline
210
0.0
220
0.0
230
1.0
 70
     8
 71
     3
 72
    11
 73
     7
 74
     5
 42
0.0000000001
 43
0.0000000001
 44
0.00000001
 40
0.0
 40
0.0
 40
0.0
 40
0.0
 40
0.0720335617160895
 40
0.1441734620423427
 40
0.2163593593606815
 40
0.2883296529021622
 40
0.2883296529021622
 40
0.2883296529021622
 40
0.2883296529021622
 10
82.1017755503
 20
292.4555736699
 30
0.0
 10
82.12128160378055
 20
292.4696261399451
 30
0.0
 10
82.16032250629985
 20
292.497751824812
 30
0.0
 10
82.22456443099036
 20
292.5309778177241
 30
0.0
 10
82.29242762770504
 20
292.5564090113328
 30
0.0
 10
82.33994461638618
 20
292.5642259074291
 30
0.0
 10
82.3636675769
 20
292.5681285099
 30
0.0
 11
82.1017755503
 21
292.4555736699
 31
0.0
 11
82.16123417624992
 21
292.496236992608
 31
0.0
 11
82.2251576029955
 21
292.5296729123977
 31
0.0
 11
82.293068932082
 21
292.5541444295832
 31
0.0
 11
82.3636675769
 21
292.5681285099
 31
0.0
  0
SPLINE
  5
FE
330
1F
100
AcDbEntity
  8
RUNDUNGEN
  6
Continuous
 62
     7
100
AcDbSpline
210
0.0
220
0.0
230
1.0
 70
     8
 71
     3
 72
    15
 73
    11
 74
     9
 42
0.0000000001
 43
0.0000000001
 44
0.00000001
 40
0.0
 40
0.0
 40
0.0
 40
0.0
 40
0.2286533797624606
 40
0.4574173648876849
 40
0.6866651597805242
 40
0.915864049160271
 40
1.146314057934746
 40
1.376831724061333
 40
1.609554238674131
 40
1.842048835129333
 40
1.842048835129333
 40
1.842048835129333
 40
1.842048835129333
 10
85.4317629955
 20
292.3696159639
 30
0.0
 10
85.47416776395868
 20
292.3062518231247
 30
0.0
 10
85.55899781312385
 20
292.1794928907534
 30
0.0
 10
85.67047458824099
 20
291.9793114374214
 30
0.0
 10
85.76962284080798
 20
291.7726558452438
 30
0.0
 10
85.85412294969004
 20
291.5589197165946
 30
0.0
 10
85.92289856314582
 20
291.3391261601404
 30
0.0
 10
85.97387561758211
 20
291.1133941133874
 30
0.0
 10
86.00721489992384
 20
290.883412579071
 30
0.0
 10
86.0115422195183
 20
290.728289667597
 30
0.0
 10
86.0137048193
 20
290.6507662106
 30
0.0
 11
85.4317629955
 21
292.3696159639
 31
0.0
 11
85.55633594189942
 21
292.1778766901396
 31
0.0
 11
85.66833147999728
 21
291.9784024804368
 31
0.0
 11
85.76715188793709
 21
291.7715472691468
 31
0.0
 11
85.85133981017755
 21
291.5583700549757
 31
0.0
 11
85.91987751969813
 21
291.33834780856
 31
0.0
 11
85.9707807653309
 21
291.1135206438746
 31
0.0
 11
86.00273000349593
 21
290.8830016316687
 31
0.0
 11
86.0137048193
 21
290.6507662106
 31
0.0
  0
SPLINE
  5
FF
330
1F
100
AcDbEntity
  8
RUNDUNGEN
  6
Continuous
 62
     7
100
AcDbSpline
210
0.0
220
0.0
230
1.0
 70
     8
 71
     3
 72
    15
 73
    11
 74
     9
 42
0.0000000001
 43
0.0000000001
 44
0.00000001
 40
0.0
 40
0.0
 40
0.0
 40
0.0
 40
0.1273079847571004
 40
0.2549893803970693
 40
0.3793073350931933
 40
0.5035989687233794
 40
0.6245667031641006
 40
0.7455591721792636
 40
0.8645937372610469
 40
0.9835510381103092
 40
0.9835510381103092
 40
0.9835510381103092
 40
0.9835510381103092
 10
84.6137048193
 20
292.8240867614
 30
0.0
 10
84.65618398893001
 20
292.8265334055443
 30
0.0
 10
84.74126692512134
 20
292.8314338701583
 30
0.0
 10
84.8669132767951
 20
292.8097696826893
 30
0.0
 10
84.98569929403244
 20
292.7681302102415
 30
0.0
 10
85.0944659427037
 20
292.7092587214022
 30
0.0
 10
85.1933161479147
 20
292.6370846848157
 30
0.0
 10
85.28170179208064
 20
292.5551312728412
 30
0.0
 10
85.36174667216827
 20
292.4658925769688
 30
0.0
 10
85.40842927290285
 20
292.4017012216661
 30
0.0
 10
85.4317629955
 20
292.3696159639
 30
0.0
 11
84.6137048193
 21
292.8240867614
 31
0.0
 11
84.74098848770443
 21
292.8265748812574
 31
0.0
 11
84.86701975973247
 21
292.806113765365
 31
0.0
 11
84.98437876169515
 21
292.7651037846512
 31
0.0
 11
85.09390705039297
 21
292.7063503663218
 31
0.0
 11
85.19179404107345
 21
292.63527765826
 31
0.0
 11
85.28084773604867
 21
292.5533715109348
 31
0.0
 11
85.36016689723301
 21
292.4646151119924
 31
0.0
 11
85.4317629955
 21
292.3696159639
 31
0.0
  0
SPLINE
  5
100
330
1F
100
AcDbEntity
  8
RUNDUNGEN
  6
Continuous
 62
     7
100
AcDbSpline
210
0.0
220
0.0
230
1.0
 70
     8
 71
     3
 72
    15
 73
    11
 74
     9
 42
0.0000000001
 43
0.0000000001
 44
0.00000001
 40
0.0
 40
0.0
 40
0.0
 40
0.0
 40
0.2324947531022461
 40
0.4652174309838195
 40
0.6957353317384827
 40
0.9261855606494644
 40
1.155384407784657
 40
1.384632178808556
 40
1.613395801729689
 40
1.842048806074963
 40
1.842048806074963
 40
1.842048806074963
 40
1.842048806074963
 10
86.0137048193
 20
278.7884657171
 30
0.0
 10
86.01154221233153
 20
278.7109422078719
 30
0.0
 10
86.00721487829637
 20
278.5558191897275
 30
0.0
 10
85.9738755399149
 20
278.3258374775354
 30
0.0
 10
85.92289848112637
 20
278.1001052211334
 30
0.0
 10
85.85412278475427
 20
277.8803115408699
 30
0.0
 10
85.76962241013604
 20
277.6665754584577
 30
0.0
 10
85.67047403493123
 20
277.4599200909927
 30
0.0
 10
85.5589975296243
 20
277.2597387821756
 30
0.0
 10
85.47416766864615
 20
277.1329800184949
 30
0.0
 10
85.4317629955
 20
277.0696159639
 30
0.0
 11
86.0137048193
 21
278.7884657171
 31
0.0
 11
86.00272997691731
 21
278.5562301404655
 31
0.0
 11
85.97078070123597
 21
278.3257109686298
 31
0.0
 11
85.91987741964635
 21
278.1008835715188
 31
0.0
 11
85.85133958056885
 21
277.8808611348908
 31
0.0
 11
85.76715147039809
 21
277.6676840403567
 31
0.0
 11
85.66833093165165
 21
277.4608289180095
 31
0.0
 11
85.55633564888434
 21
277.2613549803388
 31
0.0
 11
85.4317629955
 21
277.0696159639
 31
0.0
  0
SPLINE
  5
101
330
1F
100
AcDbEntity
  8
RUNDUNGEN
  6
Continuous
 62
     7
100
AcDbSpline
210
0.0
220
0.0
230
1.0
 70
     8
 71
     3
 72
    17
 73
    13
 74
    11
 42
0.0000000001
 43
0.0000000001
 44
0.00000001
 40
0.0
 40
0.0
 40
0.0
 40
0.0
 40
0.119005919381231
 40
0.2380814744605365
 40
0.359069191563094
 40
0.4800850748110577
 40
0.6044906461111217
 40
0.7286521944786767
 40
0.7922003882095615
 40
0.8557409872320902
 40
0.9198158322067839
 40
0.9838416202323139
 40
0.9838416202323139
 40
0.9838416202323139
 40
0.9838416202323139
 10
85.4317629955
 20
277.0696159639
 30
0.0
 10
85.40841729476517
 20
277.0375194328413
 30
0.0
 10
85.36171223267952
 20
276.9733075896048
 30
0.0
 10
85.28164577017245
 20
276.884049795474
 30
0.0
 10
85.19327484119711
 20
276.8020481025654
 30
0.0
 10
85.09435008313966
 20
276.7298414302407
 30
0.0
 10
84.98551601027191
 20
276.6712274872492
 30
0.0
 10
84.88695395829774
 20
276.6363475304103
 30
0.0
 10
84.80490742913119
 20
276.6190005804803
 30
0.0
 10
84.74154450992637
 20
276.6116075179584
 30
0.0
 10
84.6775572076636
 20
276.6096741864721
 30
0.0
 10
84.63498351413264
 20
276.6133219720049
 30
0.0
 10
84.6137048193
 20
276.6151451663
 30
0.0
 11
85.4317629955
 21
277.0696159639
 31
0.0
 11
85.36013103911554
 21
276.974582960831
 31
0.0
 11
85.28078705938773
 21
276.8857937683671
 31
0.0
 11
85.19175485133503
 21
276.8038712829376
 31
0.0
 11
85.09380365654604
 21
276.732805064256
 31
0.0
 11
84.98411735339383
 21
276.674105310668
 31
0.0
 11
84.86692888072595
 21
276.6330815131012
 31
0.0
 11
84.80474905122354
 21
276.6199650452265
 31
0.0
 11
84.74164464725533
 21
276.612532554126
 31
0.0
 11
84.67759035791474
 21
276.6109096630012
 31
0.0
 11
84.6137048193
 21
276.6151451663
 31
0.0
  0
SPLINE
  5
102
330
1F
100
AcDbEntity
  8
0
  6
Continuous
 62
     7
100
AcDbSpline
210
0.0
220
0.0
230
1.0
 70
     8
 71
     3
 72
    27
 73
    23
 74
    21
 42
0.0000000001
 43
0.0000000001
 44
0.00000001
 40
0.0
 40
0.0
 40
0.0
 40
0.0
 40
0.0679422773192236
 40
0.1359904672160548
 40
0.1960311417935339
 40
0.2558288644253595
 40
0.2829045759128076
 40
0.3099751665532695
 40
0.3357621418671097
 40
0.361545007714134
 40
0.3868874812851362
 40
0.4122310012300259
 40
0.4380221513058869
 40
0.4638182097712916
 40
0.5190828347072576
 40
0.5745822154431091
 40
0.6366003188090784
 40
0.6985580375405676
 40
0.7666673009069735
 40
0.8347923375965756
 40
0.9078434200502379
 40
0.9808740974226382
 40
0.9808740974226382
 40
0.9808740974226382
 40
0.9808740974226382
 10
81.4137048193
 20
292.2643998557
 30
0.0
 10
81.41417257935747
 20
292.2870565967947
 30
0.0
 10
81.41510882864543
 20
292.3324053976979
 30
0.0
 10
81.42422575008901
 20
292.3972934722576
 30
0.0
 10
81.43996830803637
 20
292.4580579635791
 30
0.0
 10
81.45953555185454
 20
292.5032787372035
 30
0.0
 10
81.47955607627465
 20
292.5356164478725
 30
0.0
 10
81.4958576606584
 20
292.5567615531791
 30
0.0
 10
81.51412722297934
 20
292.5756356395943
 30
0.0
 10
81.53400057241802
 20
292.5919291258011
 30
0.0
 10
81.55557162174878
 20
292.6056217044161
 30
0.0
 10
81.57859000104193
 20
292.6167095668006
 30
0.0
 10
81.60288241589454
 20
292.6250971226404
 30
0.0
 10
81.63765755646452
 20
292.6330579773476
 30
0.0
 10
81.68337653610071
 20
292.6362258642453
 30
0.0
 10
81.74088309845142
 20
292.6307144390883
 30
0.0
 10
81.79932646071086
 20
292.6171982271196
 30
0.0
 10
81.85981629982844
 20
292.5959330317434
 30
0.0
 10
81.92013762740834
 20
292.5688133881121
 30
0.0
 10
81.98150488626219
 20
292.5355454906534
 30
0.0
 10
82.04227289005175
 20
292.4979536162816
 30
0.0
 10
82.08194317730033
 20
292.4696990031346
 30
0.0
 10
82.1017755503
 20
292.4555736699
 30
0.0
 11
81.4137048193
 21
292.2643998557
 31
0.0
 11
81.41645308439263
 21
292.3322865266031
 31
0.0
 11
81.42594587500923
 21
292.3996693365366
 31
0.0
 11
81.44147469866998
 21
292.4576670799361
 31
0.0
 11
81.4656437522284
 21
292.512362824579
 31
0.0
 11
81.47993925338953
 21
292.5353570151302
 31
0.0
 11
81.49651287033164
 21
292.5567610357591
 31
0.0
 11
81.51446436371177
 21
292.5752735175284
 31
0.0
 11
81.53442251928122
 21
292.5915961459182
 31
0.0
 11
81.55581073760303
 21
292.6051897136513
 31
0.0
 11
81.57864099872995
 21
292.6161930395155
 31
0.0
 11
81.6030057089829
 21
292.6246514268633
 31
0.0
 11
81.62814361227849
 21
292.6304412843963
 31
0.0
 11
81.68324380946724
 21
292.6347012185594
 31
0.0
 11
81.7385249775152
 21
292.6297845406854
 31
0.0
 11
81.7990134503001
 21
292.616095501082
 31
0.0
 11
81.85756762811283
 21
292.5958429167757
 31
0.0
 11
81.91975366736206
 21
292.5680621990238
 31
0.0
 11
81.97974702446142
 21
292.5357849976596
 31
0.0
 11
82.04183569816378
 21
292.4972952945491
 31
0.0
 11
82.1017755503
 21
292.4555736699
 31
0.0
  0
SPLINE
  5
103
330
1F
100
AcDbEntity
  8
FASEN
  6
Continuous
 62
     7
100
AcDbSpline
210
0.0
220
0.0
230
1.0
 70
     8
 71
     3
 72
    43
 73
    39
 74
    37
 42
0.0000000001
 43
0.0000000001
 44
0.00000001
 40
0.0
 40
0.0
 40
0.0
 40
0.0
 40
0.3536627137675736
 40
0.7077087110085024
 40
1.061386016557087
 40
1.414940912920368
 40
1.768273600872735
 40
2.121679340751284
 40
2.474990473712287
 40
2.828124790671068
 40
3.004861640049367
 40
3.181542282367154
 40
3.358289604683137
 40
3.535092627963883
 40
3.888693190951547
 40
4.242467023543695
 40
4.596379402905761
 40
4.950247373430522
 40
5.303947628022792
 40
5.657661399088969
 40
6.010712555468396
 40
6.363747200665507
 40
6.7158060910299
 40
7.067909115882911
 40
7.419215040226709
 40
7.770346273740461
 40
7.945854779213994
 40
8.121308710056539
 40
8.296759233390187
 40
8.472264989799317
 40
8.823345921676857
 40
9.174601594834332
 40
9.52672124197047
 40
9.878775142244509
 40
10.23179857975548
 40
10.58493613215407
 40
10.93889559957596
 40
11.29248564899105
 40
11.29248564899105
 40
11.29248564899105
 40
11.29248564899105
 10
95.2144564077
 20
284.7196159639
 30
0.0
 10
95.21778623452303
 20
284.8375532736128
 30
0.0
 10
95.22444949688315
 20
285.0735557081004
 30
0.0
 10
95.27878545214642
 20
285.4240400153113
 30
0.0
 10
95.3647286776745
 20
285.7676524815155
 30
0.0
 10
95.4846158224728
 20
286.1008899845281
 30
0.0
 10
95.63666468388685
 20
286.420561474737
 30
0.0
 10
95.81947860032268
 20
286.7236292801941
 30
0.0
 10
96.03134179601642
 20
287.0070360291545
 30
0.0
 10
96.23027623519995
 20
287.2247506282523
 30
0.0
 10
96.40165671034259
 20
287.3864121973059
 30
0.0
 10
96.53608323411265
 20
287.5012428469678
 30
0.0
 10
96.67600150107955
 20
287.6093501690085
 30
0.0
 10
96.86945585310245
 20
287.744165776696
 30
0.0
 10
97.12350065171756
 20
287.8945952829879
 30
0.0
 10
97.44452906628467
 20
288.0445238015108
 30
0.0
 10
97.77878792947699
 20
288.1623534812376
 30
0.0
 10
98.1228887383117
 20
288.2471137161382
 30
0.0
 10
98.47354054246011
 20
288.2979577318056
 30
0.0
 10
98.82719707154389
 20
288.3145718411658
 30
0.0
 10
99.18056905664932
 20
288.2967105785612
 30
0.0
 10
99.53000112460298
 20
288.2447502570986
 30
0.0
 10
99.87239186261465
 20
288.1590367204645
 30
0.0
 10
100.2042782743532
 20
288.0405905104324
 30
0.0
 10
100.5226657890494
 20
287.8903353804061
 30
0.0
 10
100.7743021652124
 20
287.7399237322746
 30
0.0
 10
100.9657980586181
 20
287.6052506643402
 30
0.0
 10
101.1042489911862
 20
287.4973296286244
 30
0.0
 10
101.2372471050164
 20
287.3827573436375
 30
0.0
 10
101.4068778176796
 20
287.221437901743
 30
0.0
 10
101.6037486227196
 20
287.004258230576
 30
0.0
 10
101.8134753632463
 20
286.7215104889312
 30
0.0
 10
101.994435706593
 20
286.4191320812793
 30
0.0
 10
102.1450675248391
 20
286.0999414120817
 30
0.0
 10
102.2638993238019
 20
285.7671677461529
 30
0.0
 10
102.3491444629627
 20
285.4237831197
 30
0.0
 10
102.402979622936
 20
285.0734723541951
 30
0.0
 10
102.4096298522936
 20
284.8375270309355
 30
0.0
 10
102.4129532309
 20
284.7196159639
 30
0.0
 11
95.2144564077
 21
284.7196159639
 31
0.0
 11
95.23182957148808
 21
285.0728517042908
 31
0.0
 11
95.2840801405626
 21
285.4230208722564
 31
0.0
 11
95.37040901451135
 21
285.7660004080641
 31
0.0
 11
95.49000990994568
 21
286.0987115298406
 31
0.0
 11
95.6417867633138
 21
286.4177848367111
 31
0.0
 11
95.8243444875101
 21
286.7203873719209
 31
0.0
 11
96.03585618215313
 21
287.003391894329
 31
0.0
 11
96.27408354448073
 21
287.2640671130445
 31
0.0
 11
96.40264229814962
 21
287.385345968511
 31
0.0
 11
96.53697832360129
 21
287.5001060732324
 31
0.0
 11
96.6768427409731
 21
287.60816883601
 31
0.0
 11
96.82190020924028
 21
287.7092511783904
 31
0.0
 11
97.12613164538853
 21
287.8894638067059
 31
0.0
 11
97.446677841386
 21
288.0391503487145
 31
0.0
 11
97.78044659894813
 21
288.156846520025
 31
0.0
 11
98.1240462657928
 21
288.2414739949226
 31
0.0
 11
98.47408216049497
 21
288.2922553154912
 31
0.0
 11
98.82740759706314
 21
288.3088254004568
 31
0.0
 11
99.18000932286466
 21
288.2910169198186
 31
0.0
 11
99.52919839993885
 21
288.2390510737125
 31
0.0
 11
99.87071915125966
 21
288.1535581576207
 31
0.0
 11
100.2023215275875
 21
288.0351672621754
 31
0.0
 11
100.5200301673792
 21
287.8852437060517
 31
0.0
 11
100.8213919815607
 21
287.7050377125271
 31
0.0
 11
100.9649579471704
 21
287.6040820340733
 31
0.0
 11
101.103341279526
 21
287.496220385772
 31
0.0
 11
101.236266157226
 21
287.3817046094505
 31
0.0
 11
101.3634387817415
 21
287.2607525771957
 31
0.0
 11
101.5992568935752
 21
287.0006609801396
 31
0.0
 11
101.8084903907594
 21
286.7185229083
 31
0.0
 11
101.9893452800002
 21
286.4163975122523
 31
0.0
 11
102.1396228446546
 21
286.0980288544675
 31
0.0
 11
102.2582595584271
 21
285.7655369333967
 31
0.0
 11
102.3438481674751
 21
285.4229282339811
 31
0.0
 11
102.3956753723642
 21
285.0727836275526
 31
0.0
 11
102.4129532309
 21
284.7196159639
 31
0.0
  0
SPLINE
  5
104
330
1F
100
AcDbEntity
  8
0
  6
Continuous
 62
     7
100
AcDbSpline
210
0.0
220
0.0
230
1.0
 70
     8
 71
     3
 72
    27
 73
    23
 74
    21
 42
0.0000000001
 43
0.0000000001
 44
0.00000001
 40
0.0
 40
0.0
 40
0.0
 40
0.0
 40
0.0730306819695748
 40
0.1460817688492755
 40
0.2142068182869476
 40
0.282316095400389
 40
0.3442738269293777
 40
0.4062919406310513
 40
0.4617913416866349
 40
0.5170559905157249
 40
0.5428520622957541
 40
0.5686432246297357
 40
0.5939867602332786
 40
0.6193292497785149
 40
0.645112120636464
 40
0.6708991014907528
 40
0.6979696845250585
 40
0.7250453874195322
 40
0.7848430773394082
 40
0.8448837206007405
 40
0.9129318640996558
 40
0.9808740945203889
 40
0.9808740945203889
 40
0.9808740945203889
 40
0.9808740945203889
 10
82.1017755503
 20
276.9836582578
 30
0.0
 10
82.0819431760373
 20
276.9695329236965
 30
0.0
 10
82.04227288630909
 20
276.9412783088443
 30
0.0
 10
81.98150487619714
 20
276.903686430875
 30
0.0
 10
81.92013760775384
 20
276.8704185294156
 30
0.0
 10
81.85981626785613
 20
276.8432988813225
 30
0.0
 10
81.79932641734268
 20
276.8220336811876
 30
0.0
 10
81.74088303853338
 20
276.8085174731449
 30
0.0
 10
81.68337645487517
 20
276.8030060724163
 30
0.0
 10
81.63765745837702
 20
276.8061739771708
 30
0.0
 10
81.60288230161902
 20
276.8141348343787
 30
0.0
 10
81.57858987440683
 20
276.8225223979347
 30
0.0
 10
81.55557148903587
 20
276.8336102826514
 30
0.0
 10
81.53400044344353
 20
276.8473028905458
 30
0.0
 10
81.51412710732131
 20
276.8635964070459
 30
0.0
 10
81.49585756496688
 20
276.8824705135916
 30
0.0
 10
81.47955599387988
 20
276.9036156239997
 30
0.0
 10
81.45953548587892
 20
276.9359533256045
 30
0.0
 10
81.43996826568079
 20
276.9811740830658
 30
0.0
 10
81.4242257336455
 20
277.0419385427089
 30
0.0
 10
81.41510882662148
 20
277.1068265767996
 30
0.0
 10
81.41417257868187
 20
277.1521753465602
 30
0.0
 10
81.4137048193
 20
277.174832072
 30
0.0
 11
82.1017755503
 21
276.9836582578
 31
0.0
 11
82.04183569432867
 21
276.9419366306137
 31
0.0
 11
81.97974701668544
 21
276.9034469254599
 31
0.0
 11
81.91975364795564
 21
276.8711697188067
 31
0.0
 11
81.85756759587035
 21
276.8433889960846
 31
0.0
 11
81.79901340563215
 21
276.823136408552
 31
0.0
 11
81.73852492058464
 21
276.8094473763082
 31
0.0
 11
81.68324373040414
 21
276.8045307179149
 31
0.0
 11
81.62814351061652
 21
276.8087906697408
 31
0.0
 11
81.603005594552
 21
276.8145805311565
 31
0.0
 11
81.57864087435195
 21
276.8230389272285
 31
0.0
 11
81.55581060628226
 21
276.8340422747535
 31
0.0
 11
81.53442238836834
 21
276.8476358729091
 31
0.0
 11
81.5144642482558
 21
276.8639585281136
 31
0.0
 11
81.49651276986326
 21
276.8824710321339
 31
0.0
 11
81.47993916973854
 21
276.903875056165
 31
0.0
 11
81.4656436799322
 21
276.9268692436572
 31
0.0
 11
81.44147465546502
 21
276.9815649653917
 31
0.0
 11
81.42594585487682
 21
277.0395626825496
 31
0.0
 11
81.41645308011458
 21
277.1069454478607
 31
0.0
 11
81.4137048193
 21
277.174832072
 31
0.0
  0
SPLINE
  5
105
330
1F
100
AcDbEntity
  8
0
  6
Continuous
 62
     7
100
AcDbSpline
210
0.0
220
0.0
230
1.0
 70
     8
 71
     3
 72
    11
 73
     7
 74
     5
 42
0.0000000001
 43
0.0000000001
 44
0.00000001
 40
0.0
 40
0.0
 40
0.0
 40
0.0
 40
0.0719820116952484
 40
0.1441794862810855
 40
0.2163078795456592
 40
0.2883301028005285
 40
0.2883301028005285
 40
0.2883301028005285
 40
0.2883301028005285
 10
82.3636675769
 20
276.8711034178
 30
0.0
 10
82.33994074370044
 20
276.875006605006
 30
0.0
 10
82.29241605605662
 20
276.8828246627812
 30
0.0
 10
82.22454938783557
 20
276.9082583865422
 30
0.0
 10
82.16031257053365
 20
276.9414859166852
 30
0.0
 10
82.12127830718816
 20
276.9696077148635
 30
0.0
 10
82.1017755503
 20
276.9836582578
 30
0.0
 11
82.3636675769
 21
276.8711034178
 31
0.0
 11
82.2930574503552
 21
276.8850898411106
 31
0.0
 11
82.22513576794134
 21
276.9095667770839
 31
0.0
 11
82.16122395946357
 21
276.9430000816174
 31
0.0
 11
82.1017755503
 21
276.9836582578
 31
0.0
  0
SPLINE
  5
106
330
1F
100
AcDbEntity
  8
0
  6
Continuous
 62
     7
100
AcDbSpline
210
0.0
220
0.0
230
1.0
 70
     8
 71
     3
 72
    25
 73
    21
 74
    19
 42
0.0000000001
 43
0.0000000001
 44
0.00000001
 40
0.0
 40
0.0
 40
0.0
 40
0.0
 40
0.0272067661451663
 40
0.0544881809714387
 40
0.0817226175712976
 40
0.1089430470115098
 40
0.1361366761208571
 40
0.1633351632427697
 40
0.1904968256734044
 40
0.2176561384467786
 40
0.2719142874126698
 40
0.3262206322661538
 40
0.3804997303696044
 40
0.4347596646266771
 40
0.4890233385845369
 40
0.5432903873231926
 40
0.5975530058735578
 40
0.6518162746558811
 40
0.7603346281903826
 40
0.8688546603806195
 40
0.8688546603806195
 40
0.8688546603806195
 40
0.8688546603806195
 10
123.1512048193
 20
289.6557708439
 30
0.0
 10
123.1421283629691
 20
289.6562078341876
 30
0.0
 10
123.1239505467415
 20
289.6570830137568
 30
0.0
 10
123.097349144785
 20
289.6636219362972
 30
0.0
 10
123.0718749053189
 20
289.6734304578254
 30
0.0
 10
123.047805404263
 20
289.6862689587205
 30
0.0
 10
123.025182551753
 20
289.7014435794441
 30
0.0
 10
123.00395785449
 20
289.7184726185362
 30
0.0
 10
122.9839726562947
 20
289.7369106652025
 30
0.0
 10
122.958856706641
 20
289.7629930339599
 30
0.0
 10
122.9299239095103
 20
289.7978584157642
 30
0.0
 10
122.8985545175474
 20
289.8422012501904
 30
0.0
 10
122.8697310965264
 20
289.8882258821749
 30
0.0
 10
122.8431141045311
 20
289.9355359270577
 30
0.0
 10
122.8183031112678
 20
289.9838072654848
 30
0.0
 10
122.7950756501814
 20
290.032857941282
 30
0.0
 10
122.7731928119408
 20
290.0825213372895
 30
0.0
 10
122.7456480388283
 20
290.1494247966883
 30
0.0
 10
122.7136759182756
 20
290.2340534049799
 30
0.0
 10
122.6910051458733
 20
290.302761600455
 30
0.0
 10
122.679669672
 20
290.3371159639
 30
0.0
 11
123.1512048193
 21
289.6557708439
 31
0.0
 11
123.1240855114468
 21
289.6579505837108
 31
0.0
 11
123.0975228665028
 21
289.664171635752
 31
0.0
 11
123.0721003161306
 21
289.6739393616635
 31
0.0
 11
123.0480371063877
 21
289.6866638937092
 31
0.0
 11
123.0254142652204
 21
289.7017536426023
 31
0.0
 11
123.0041536956715
 21
289.7187167167393
 31
0.0
 11
122.9841600999489
 21
289.7371018203854
 31
0.0
 11
122.9652894174557
 21
289.7566345010146
 31
0.0
 11
122.9304911396259
 21
289.7982641369641
 31
0.0
 11
122.8989739531684
 21
289.8424890852302
 31
0.0
 11
122.8700943265189
 21
289.8884476280217
 31
0.0
 11
122.8434153569945
 21
289.9356956232246
 31
0.0
 11
122.8185676038649
 21
289.9839360157999
 31
0.0
 11
122.7952991327015
 21
290.0329614258289
 31
0.0
 11
122.7733967284899
 21
290.0826073366545
 31
0.0
 11
122.7526973830867
 21
290.1327674746011
 31
0.0
 11
122.7144027493149
 21
290.2343044337742
 31
0.0
 11
122.679669672
 21
290.3371159639
 31
0.0
  0
SPLINE
  5
107
330
1F
100
AcDbEntity
  8
0
  6
Continuous
 62
     7
100
AcDbSpline
210
0.0
220
0.0
230
1.0
 70
     8
 71
     3
 72
    25
 73
    21
 74
    19
 42
0.0000000001
 43
0.0000000001
 44
0.00000001
 40
0.0
 40
0.0
 40
0.0
 40
0.0
 40
0.1085285491016602
 40
0.2170554557470762
 40
0.2713241333535255
 40
0.3255921109977224
 40
0.3798650579907504
 40
0.4341347749273993
 40
0.4884007825130222
 40
0.5426855352001021
 40
0.5969918906890735
 40
0.651251125331716
 40
0.6784124281539783
 40
0.7055751105133728
 40
0.7327602081082831
 40
0.7599421722492585
 40
0.7871532997662494
 40
0.8143760192030464
 40
0.8416525758394624
 40
0.868856323667578
 40
0.868856323667578
 40
0.868856323667578
 40
0.868856323667578
 10
125.9477399665
 20
290.3371159639
 30
0.0
 10
125.9364035430961
 20
290.3027589233207
 30
0.0
 10
125.9137308678522
 20
290.2340453621166
 30
0.0
 10
125.8817558479881
 20
290.149409840879
 30
0.0
 10
125.854208789564
 20
290.0825003584335
 30
0.0
 10
125.8323236781957
 20
290.0328318886501
 30
0.0
 10
125.8090932540514
 20
289.9837762294546
 30
0.0
 10
125.7842790219558
 20
289.9354998101444
 30
0.0
 10
125.7576591061164
 20
289.8881846087725
 30
0.0
 10
125.7288317503827
 20
289.8421577360581
 30
0.0
 10
125.6974553359038
 20
289.7978170195153
 30
0.0
 10
125.6685184007577
 20
289.76295394461
 30
0.0
 10
125.6434016807544
 20
289.7368704398489
 30
0.0
 10
125.6234160042771
 20
289.7184377025567
 30
0.0
 10
125.6021881371939
 20
289.701425190353
 30
0.0
 10
125.5795697937594
 20
289.6862653530037
 30
0.0
 10
125.555515747896
 20
289.6734223889852
 30
0.0
 10
125.5300532791134
 20
289.6636054107952
 30
0.0
 10
125.5034554890611
 20
289.6570774603468
 30
0.0
 10
125.4852802792891
 20
289.6562059944995
 30
0.0
 10
125.4762048193
 20
289.6557708439
 30
0.0
 11
125.9477399665
 21
290.3371159639
 31
0.0
 11
125.9130039635846
 21
290.2342964323334
 31
0.0
 11
125.8747061583204
 21
290.1327515280892
 31
0.0
 11
125.8540048199824
 21
290.0825863612882
 31
0.0
 11
125.8321001701737
 21
290.0329355837077
 31
0.0
 11
125.8088287539857
 21
289.9839050425735
 31
0.0
 11
125.7839778198411
 21
289.9356594909804
 31
0.0
 11
125.7572954589739
 21
289.8884064360756
 31
0.0
 11
125.7284106056996
 21
289.8424444993712
 31
0.0
 11
125.6968885746127
 21
289.7982229909996
 31
0.0
 11
125.6620861725371
 21
289.7565953877324
 31
0.0
 11
125.6432134697697
 21
289.7370618918534
 31
0.0
 11
125.6232155034209
 21
289.7186800351771
 31
0.0
 11
125.6019577287757
 21
289.7017349312123
 31
0.0
 11
125.5793406651066
 21
289.6866575439867
 31
0.0
 11
125.5552893394136
 21
289.6739304393216
 31
0.0
 11
125.5298807204223
 21
289.6641591275115
 31
0.0
 11
125.5033216012123
 21
289.6579443283413
 31
0.0
 11
125.4762048193
 21
289.6557708439
 31
0.0
  0
SPLINE
  5
108
330
1F
100
AcDbEntity
  8
0
  6
Continuous
 62
     7
100
AcDbSpline
210
0.0
220
0.0
230
1.0
 70
     8
 71
     3
 72
    25
 73
    21
 74
    19
 42
0.0000000001
 43
0.0000000001
 44
0.00000001
 40
0.0
 40
0.0
 40
0.0
 40
0.0
 40
0.0272074181306897
 40
0.0544897103862181
 40
0.0817252615900452
 40
0.1089465264600089
 40
0.1361394923491012
 40
0.1633375027754772
 40
0.1904999127968512
 40
0.2176598700925983
 40
0.2719180516676926
 40
0.3262245621063502
 40
0.3805032120140767
 40
0.4347626393474239
 40
0.4890258447007352
 40
0.5432924465099557
 40
0.5975546789233096
 40
0.6518175541949695
 40
0.7603351297086144
 40
0.8688543878040366
 40
0.8688543878040366
 40
0.8688543878040366
 40
0.8688543878040366
 10
125.4762048193
 20
279.7834610838
 30
0.0
 10
125.4852814921623
 20
279.7830238433161
 30
0.0
 10
125.5034598166606
 20
279.7821481590738
 30
0.0
 10
125.5300616898905
 20
279.7756076172187
 30
0.0
 10
125.5555371466094
 20
279.7657998786657
 30
0.0
 10
125.5796076701933
 20
279.7529622494286
 30
0.0
 10
125.6022300419237
 20
279.7377870108604
 30
0.0
 10
125.6234538974921
 20
279.7207571619518
 30
0.0
 10
125.6434392528388
 20
279.7023188630914
 30
0.0
 10
125.6685557566728
 20
279.6762363609104
 30
0.0
 10
125.6974883538799
 20
279.6413704113651
 30
0.0
 10
125.7288569470389
 20
279.597027127911
 30
0.0
 10
125.7576800980898
 20
279.5510026509457
 30
0.0
 10
125.784296977615
 20
279.5036930863849
 30
0.0
 10
125.8091077076587
 20
279.455422143526
 30
0.0
 10
125.8323348832548
 20
279.4063718131637
 30
0.0
 10
125.8542175197684
 20
279.3567087757224
 30
0.0
 10
125.8817620874904
 20
279.2898057933655
 30
0.0
 10
125.9137339671229
 20
279.2051777876281
 30
0.0
 10
125.9364045747895
 20
279.1364700826953
 30
0.0
 10
125.9477399665
 20
279.1021159639
 30
0.0
 11
125.4762048193
 21
279.7834610838
 31
0.0
 11
125.5033247103246
 21
279.7812804618362
 31
0.0
 11
125.5298880066723
 21
279.7750583433977
 31
0.0
 11
125.5553118635872
 21
279.7652909103189
 31
0.0
 11
125.5793762227253
 21
279.7525667647527
 31
0.0
 11
125.6019982259228
 21
279.7374769547744
 31
0.0
 11
125.6232578577647
 21
279.7205134697227
 31
0.0
 11
125.6432518682237
 21
279.7021277126283
 31
0.0
 11
125.6621230808302
 21
279.6825946479669
 31
0.0
 11
125.6969210467364
 21
279.640964708781
 31
0.0
 11
125.7284377293087
 21
279.5967391980925
 31
0.0
 11
125.7573169230692
 21
279.5507809126202
 31
0.0
 11
125.7839956940166
 21
279.503533387444
 31
0.0
 11
125.8088432052012
 21
279.4552933973616
 31
0.0
 11
125.8321114045166
 21
279.4062683530216
 31
0.0
 11
125.8540136108249
 21
279.3566227769315
 31
0.0
 11
125.8747127950212
 21
279.3064629981606
 31
0.0
 11
125.9130071425182
 21
279.2049267625343
 31
0.0
 11
125.9477399665
 21
279.1021159639
 31
0.0
  0
SPLINE
  5
109
330
1F
100
AcDbEntity
  8
0
  6
Continuous
 62
     7
100
AcDbSpline
210
0.0
220
0.0
230
1.0
 70
     8
 71
     3
 72
    25
 73
    21
 74
    19
 42
0.0000000001
 43
0.0000000001
 44
0.00000001
 40
0.0
 40
0.0
 40
0.0
 40
0.0
 40
0.1085025556015527
 40
0.2170033619559361
 40
0.271258315702963
 40
0.3255127642077734
 40
0.379771917828908
 40
0.4340272285756722
 40
0.4882788892271617
 40
0.5425511685921068
 40
0.5968541104861408
 40
0.6511051289762594
 40
0.6782579264166273
 40
0.7054161157731617
 40
0.7326228692790949
 40
0.7598194768130523
 40
0.7870692643001205
 40
0.8143404776029024
 40
0.8416356458476418
 40
0.8688504929666495
 40
0.8688504929666495
 40
0.8688504929666495
 40
0.8688504929666495
 10
122.679669672
 20
279.1021159639
 30
0.0
 10
122.6910033225273
 20
279.1364647937206
 30
0.0
 10
122.7136704408639
 20
279.2051618995998
 30
0.0
 10
122.7456371652306
 20
279.2897770902928
 30
0.0
 10
122.7731770494696
 20
279.3566702911448
 30
0.0
 10
122.7950556696523
 20
279.4063266557286
 30
0.0
 10
122.8182778332365
 20
279.4553708203511
 30
0.0
 10
122.8430834669986
 20
279.5036357370159
 30
0.0
 10
122.8696962998811
 20
279.550939145308
 30
0.0
 10
122.8985113711647
 20
279.5969614923407
 30
0.0
 10
122.9298618883245
 20
279.6413103713111
 30
0.0
 10
122.9587867238863
 20
279.6761760125074
 30
0.0
 10
122.9839087043985
 20
279.7022447760095
 30
0.0
 10
123.0038911451426
 20
279.7206839749615
 30
0.0
 10
123.0250929982442
 20
279.7377446259885
 30
0.0
 10
123.0477125444313
 20
279.7529510171395
 30
0.0
 10
123.071819380587
 20
279.7657724961852
 30
0.0
 10
123.0973290329182
 20
279.7755572852939
 30
0.0
 10
123.1239406671484
 20
279.7821314929953
 30
0.0
 10
123.1421257005338
 20
279.7830183224495
 30
0.0
 10
123.1512048193
 20
279.7834610838
 30
0.0
 11
122.679669672
 21
279.1021159639
 31
0.0
 11
122.7143971036367
 21
279.2049109543615
 31
0.0
 11
122.7526851429666
 21
279.3064316469509
 31
0.0
 11
122.7733808305459
 21
279.3565842991411
 31
0.0
 11
122.7952789357468
 21
279.4062231767591
 31
0.0
 11
122.8185423872179
 21
279.4552422299663
 31
0.0
 11
122.8433848752367
 21
279.5034759270387
 31
0.0
 11
122.8700584398233
 21
279.5507174726917
 31
0.0
 11
122.898928394408
 21
279.5966740394667
 31
0.0
 11
122.930431540815
 21
279.6409048122929
 31
0.0
 11
122.9652228571793
 21
279.6825309736923
 31
0.0
 11
122.9840937500388
 21
279.7020543906967
 31
0.0
 11
123.004080291553
 21
279.7204420334882
 31
0.0
 11
123.0253278991234
 21
279.7374345791734
 31
0.0
 11
123.047942096275
 21
279.7525426415424
 31
0.0
 11
123.072041739844
 21
279.7652610572432
 31
0.0
 11
123.0975070353408
 21
279.7750200428598
 31
0.0
 11
123.1240789984361
 21
279.7812615960936
 31
0.0
 11
123.1512048193
 21
279.7834610838
 31
0.0
  0
SPLINE
  5
10A
330
1F
100
AcDbEntity
  8
0
  6
Continuous
 62
     7
100
AcDbSpline
210
0.0
220
0.0
230
1.0
 70
     8
 71
     3
 72
    13
 73
     9
 74
     7
 42
0.0000000001
 43
0.0000000001
 44
0.00000001
 40
0.0
 40
0.0
 40
0.0
 40
0.0
 40
0.1312848067672566
 40
0.2626131914525155
 40
0.322700071068323
 40
0.3827285902806482
 40
0.4404671081819036
 40
0.4981359434476191
 40
0.4981359434476191
 40
0.4981359434476191
 40
0.4981359434476191
 10
122.679669672
 20
290.3371159639
 30
0.0
 10
122.6443448596935
 20
290.3631454110998
 30
0.0
 10
122.5736835095671
 20
290.4152129455633
 30
0.0
 10
122.5041767492125
 20
290.4988884472459
 30
0.0
 10
122.460919619963
 20
290.5707811556523
 30
0.0
 10
122.4361988562101
 20
290.6247884128661
 30
0.0
 10
122.4173579850931
 20
290.6803370611114
 30
0.0
 10
122.4103070501194
 20
290.7181972829356
 30
0.0
 10
122.4067837113
 20
290.7371159639
 30
0.0
 11
122.679669672
 21
290.3371159639
 31
0.0
 11
122.5772182595141
 21
290.4192098648157
 31
0.0
 11
122.4927384931213
 21
290.5197599204809
 31
0.0
 11
122.4619027042264
 21
290.5713311064784
 31
0.0
 11
122.4368474555165
 21
290.6258806952111
 31
0.0
 11
122.4186879139815
 21
290.6806891571551
 31
0.0
 11
122.4067837113
 21
290.7371159639
 31
0.0
  0
SPLINE
  5
10B
330
1F
100
AcDbEntity
  8
0
  6
Continuous
 62
     7
100
AcDbSpline
210
0.0
220
0.0
230
1.0
 70
     8
 71
     3
 72
    13
 73
     9
 74
     7
 42
0.0000000001
 43
0.0000000001
 44
0.00000001
 40
0.0
 40
0.0
 40
0.0
 40
0.0
 40
0.0576631897544548
 40
0.1153961316233042
 40
0.1754242232566734
 40
0.2355105401274354
 40
0.366844911250894
 40
0.4981360904945188
 40
0.4981360904945188
 40
0.4981360904945188
 40
0.4981360904945188
 10
126.2206259273
 20
290.7371159639
 30
0.0
 10
126.2171028895316
 20
290.7181991436632
 30
0.0
 10
126.2100525523621
 20
290.6803426205116
 30
0.0
 10
126.1912133377395
 20
290.6247975842105
 30
0.0
 10
126.1664954299249
 20
290.5707914752256
 30
0.0
 10
126.1232402805974
 20
290.4988955922339
 30
0.0
 10
126.0537314304291
 20
290.4152162901432
 30
0.0
 10
125.9830665805861
 20
290.3631465514862
 30
0.0
 10
125.9477399665
 20
290.3371159639
 30
0.0
 11
126.2206259273
 21
290.7371159639
 31
0.0
 11
126.2087228477802
 21
290.6806946899814
 31
0.0
 11
126.1905656570641
 21
290.625891323277
 31
0.0
 11
126.1655123431592
 21
290.5713413164253
 31
0.0
 11
126.1346787106878
 21
290.5197694967588
 31
0.0
 11
126.0501964728288
 21
290.4192136986925
 31
0.0
 11
125.9477399665
 21
290.3371159639
 31
0.0
  0
SPLINE
  5
10C
330
1F
100
AcDbEntity
  8
0
  6
Continuous
 62
     7
100
AcDbSpline
210
0.0
220
0.0
230
1.0
 70
     8
 71
     3
 72
    11
 73
     7
 74
     5
 42
0.0000000001
 43
0.0000000001
 44
0.00000001
 40
0.0
 40
0.0
 40
0.0
 40
0.0
 40
0.106845660081389
 40
0.2142571944368063
 40
0.3333679115760818
 40
0.4521343114490042
 40
0.4521343114490042
 40
0.4521343114490042
 40
0.4521343114490042
 10
122.41571964152
 20
278.747122219195
 30
0.0
 10
122.4264058901113
 20
278.7812309104318
 30
0.0
 10
122.4478349836325
 20
278.8496289388098
 30
0.0
 10
122.5068338191966
 20
278.9448823244428
 30
0.0
 10
122.5832497598293
 20
279.0320208158524
 30
0.0
 10
122.6475607304312
 20
279.0787734720614
 30
0.0
 10
122.679669672
 20
279.1021159639
 30
0.0
 11
122.41571964152
 21
278.747122219195
 31
0.0
 11
122.4518790775101
 21
278.8476632071905
 31
0.0
 11
122.5070212467458
 21
278.9398400962927
 31
0.0
 11
122.5862509878052
 21
279.0287783392992
 31
0.0
 11
122.679669672
 21
279.1021159639
 31
0.0
  0
SPLINE
  5
10D
330
1F
100
AcDbEntity
  8
0
  6
Continuous
 62
     7
100
AcDbSpline
210
0.0
220
0.0
230
1.0
 70
     8
 71
     3
 72
    13
 73
     9
 74
     7
 42
0.0000000001
 43
0.0000000001
 44
0.00000001
 40
0.0
 40
0.0
 40
0.0
 40
0.0
 40
0.1312911944544428
 40
0.2626255806797733
 40
0.3227118843922199
 40
0.3827399628678093
 40
0.4404729026890489
 40
0.4981360903605585
 40
0.4981360903605585
 40
0.4981360903605585
 40
0.4981360903605585
 10
125.9477399665
 20
279.1021159639
 30
0.0
 10
125.9830665845265
 20
279.0760853730494
 30
0.0
 10
126.053731442221
 20
279.024015627885
 30
0.0
 10
126.1232402932693
 20
278.9403363185511
 30
0.0
 10
126.1664954376399
 20
278.8684404370192
 30
0.0
 10
126.1912133404245
 20
278.8144343362034
 30
0.0
 10
126.2100525528146
 20
278.7588893052576
 30
0.0
 10
126.2171028896832
 20
278.721032783456
 30
0.0
 10
126.2206259273
 20
278.7021159639
 30
0.0
 11
125.9477399665
 21
279.1021159639
 31
0.0
 11
126.0501964837441
 21
279.0200182184042
 31
0.0
 11
126.1346787276671
 21
278.9194624057084
 31
0.0
 11
126.1655123512689
 21
278.8678905960697
 31
0.0
 11
126.1905656586115
 21
278.8133406006833
 31
0.0
 11
126.2087228483332
 21
278.7585372358065
 31
0.0
 11
126.2206259273
 21
278.7021159639
 31
0.0
  0
SPLINE
  5
10E
330
1F
100
AcDbEntity
  8
FASEN
  6
Continuous
 62
     7
100
AcDbSpline
210
0.0
220
0.0
230
1.0
 70
     8
 71
     3
 72
    41
 73
    37
 74
    35
 42
0.0000000001
 43
0.0000000001
 44
0.00000001
 40
0.0
 40
0.0
 40
0.0
 40
0.0
 40
0.3535888544411102
 40
0.7075507290320842
 40
1.060684841002926
 40
1.413709983456055
 40
1.765779918108097
 40
2.11787600524496
 40
2.469055569706433
 40
2.820227711317446
 40
3.171084425301392
 40
3.521941346675388
 40
3.873160085285859
 40
4.224381765488081
 40
4.576461723144397
 40
4.928542604244869
 40
5.281581803892461
 40
5.634626310535399
 40
5.988339657508796
 40
6.342041478580492
 40
6.695908397088705
 40
7.049820838131857
 40
7.403595216349424
 40
7.757194007978788
 40
7.933994428179348
 40
8.110739696235665
 40
8.287420502985565
 40
8.46415745673706
 40
8.817287503391814
 40
9.170592253489136
 40
9.523997521748461
 40
9.877334047614985
 40
10.23089310709664
 40
10.5845679153591
 40
10.93860935651463
 40
11.29227461529486
 40
11.29227461529486
 40
11.29227461529486
 40
11.29227461529486
 10
102.4129532309
 20
284.7196159639
 30
0.0
 10
102.40964462069
 20
284.601704371706
 30
0.0
 10
102.4030239098369
 20
284.3657567959544
 30
0.0
 10
102.3491470769377
 20
284.015451851633
 30
0.0
 10
102.2639137887911
 20
283.6720658279085
 30
0.0
 10
102.1450853230915
 20
283.3392846210045
 30
0.0
 10
101.9944226380121
 20
283.0201091021514
 30
0.0
 10
101.8134726911187
 20
282.7177633570087
 30
0.0
 10
101.6037715304727
 20
282.4349837985512
 30
0.0
 10
101.3676103556016
 20
282.1744500818999
 30
0.0
 10
101.1069909214291
 20
281.9385469063305
 30
0.0
 10
100.8244891678701
 20
281.7293189530056
 30
0.0
 10
100.5226471501955
 20
281.5488747344856
 30
0.0
 10
100.2042489223309
 20
281.3986243759686
 30
0.0
 10
99.87238925386526
 20
281.2802002051885
 30
0.0
 10
99.52999829814871
 20
281.1944797248117
 30
0.0
 10
99.18055970359545
 20
281.1425176274937
 30
0.0
 10
98.82718830665118
 20
281.1246607896351
 30
0.0
 10
98.47353377313001
 20
281.1412748473595
 30
0.0
 10
98.12288175942318
 20
281.1921188971813
 30
0.0
 10
97.7787823614373
 20
281.276886251945
 30
0.0
 10
97.44452489945877
 20
281.3947178555997
 30
0.0
 10
97.12349015545189
 20
281.5446311334968
 30
0.0
 10
96.86944386613575
 20
281.6950576151165
 30
0.0
 10
96.6760022547237
 20
281.8298880337665
 30
0.0
 10
96.53609379735778
 20
281.9380053710328
 30
0.0
 10
96.4016690501216
 20
282.0528368980853
 30
0.0
 10
96.23028429478535
 20
282.2144918159725
 30
0.0
 10
96.03133835650044
 20
282.4321908343891
 30
0.0
 10
95.8194646529889
 20
282.7155861592789
 30
0.0
 10
95.6366656289478
 20
283.0186626869714
 30
0.0
 10
95.48463244885555
 20
283.3383436745825
 30
0.0
 10
95.36473296506745
 20
283.671577576742
 30
0.0
 10
95.27878253322672
 20
284.015189725403
 30
0.0
 10
95.22450509424307
 20
284.365679616138
 30
0.0
 10
95.21780478269471
 20
284.6016789965673
 30
0.0
 10
95.2144564077
 20
284.7196159639
 30
0.0
 11
102.4129532309
 21
284.7196159639
 31
0.0
 11
102.3957054035727
 21
284.3664480287226
 31
0.0
 11
102.34385934308
 21
284.0163037803401
 31
0.0
 11
102.2582733753235
 21
283.6736979672537
 31
0.0
 11
102.1396362149737
 21
283.3412043953035
 31
0.0
 11
101.9893306715274
 21
283.0228312141227
 31
0.0
 11
101.8084833209331
 21
282.7207287640166
 31
0.0
 11
101.5993175294002
 21
282.4386352367109
 31
0.0
 11
101.3634469059947
 21
282.1784681326067
 31
0.0
 11
101.1033470969646
 21
281.9429930318208
 31
0.0
 11
100.8213830500457
 21
281.7341944314397
 31
0.0
 11
100.519949263464
 21
281.553938295183
 31
0.0
 11
100.202314140723
 21
281.404056350155
 31
0.0
 11
99.87073109109984
 21
281.2856799260416
 31
0.0
 11
99.52918968410474
 21
281.2001789661389
 31
0.0
 11
99.17999620437335
 21
281.1482117630113
 31
0.0
 11
98.82740097679212
 21
281.1304064503857
 31
0.0
 11
98.47407599636652
 21
281.1469772087985
 31
0.0
 11
98.12403872678283
 21
281.1977599630742
 31
0.0
 11
97.78044132830287
 21
281.2823922487121
 31
0.0
 11
97.44667250143134
 21
281.4000884089465
 31
0.0
 11
97.12612105554452
 21
281.5497649977074
 31
0.0
 11
96.82189181115189
 21
281.7299778504623
 31
0.0
 11
96.6768436966433
 21
281.8310690620516
 31
0.0
 11
96.5369882401177
 21
281.939140062141
 31
0.0
 11
96.40265374666994
 21
282.053902213323
 31
0.0
 11
96.27409137501124
 21
282.1751773856166
 31
0.0
 11
96.03585288153779
 21
282.4358366461041
 31
0.0
 11
95.82433611142733
 21
282.7188294064415
 31
0.0
 11
95.64178881193982
 21
283.0214376797641
 31
0.0
 11
95.49002189221864
 21
283.3405199616128
 31
0.0
 11
95.37041338390955
 21
283.6732327706262
 31
0.0
 11
95.28408798068551
 21
284.0162106048338
 31
0.0
 11
95.23186638051776
 21
284.3663794877052
 31
0.0
 11
95.2144564077
 21
284.7196159639
 31
0.0
  0
SPLINE
  5
10F
330
1F
100
AcDbEntity
  8
0
  6
Continuous
 62
     7
100
AcDbSpline
210
0.0
220
0.0
230
1.0
 70
     8
 71
     3
 72
    11
 73
     7
 74
     5
 42
0.0000000001
 43
0.0000000001
 44
0.00000001
 40
0.0
 40
0.0
 40
0.0
 40
0.0
 40
0.4419689634229215
 40
0.8839020538983715
 40
1.150518561921203
 40
1.416734593101676
 40
1.416734593101676
 40
1.416734593101676
 40
1.416734593101676
 10
82.1501950291
 20
277.0696159639
 30
0.0
 10
82.21889512926295
 20
277.2001402080897
 30
0.0
 10
82.35628975346178
 20
277.4611781023103
 30
0.0
 10
82.48121592503867
 20
277.8253471338895
 30
0.0
 10
82.55125229042586
 20
278.143732864756
 30
0.0
 10
82.5595560567117
 20
278.3214596176507
 30
0.0
 10
82.5637048193
 20
278.4102562044
 30
0.0
 11
82.1501950291
 21
277.0696159639
 31
0.0
 11
82.34593990478352
 21
277.4658740972837
 31
0.0
 11
82.49012712558937
 21
277.8836239049599
 31
0.0
 11
82.54377480534339
 21
278.1447872423702
 31
0.0
 11
82.5637048193
 21
278.4102562044
 31
0.0
  0
SPLINE
  5
110
330
1F
100
AcDbEntity
  8
0
  6
Continuous
 62
     7
100
AcDbSpline
210
0.0
220
0.0
230
1.0
 70
     8
 71
     3
 72
    11
 73
     7
 74
     5
 42
0.0000000001
 43
0.0000000001
 44
0.00000001
 40
0.0
 40
0.0
 40
0.0
 40
0.0
 40
0.384757905417237
 40
0.769665974732817
 40
1.09318324415778
 40
1.416570809452166
 40
1.416570809452166
 40
1.416570809452166
 40
1.416570809452166
 10
82.5637048193
 20
291.0289757233
 30
0.0
 10
82.55507678151585
 20
291.1573222956466
 30
0.0
 10
82.53781733858392
 20
291.4140655316347
 30
0.0
 10
82.43196942058961
 20
291.7651598101813
 30
0.0
 10
82.30319127570917
 20
292.0843524766253
 30
0.0
 10
82.20118696069652
 20
292.2745408457028
 30
0.0
 10
82.1501950291
 20
292.3696159639
 30
0.0
 11
82.5637048193
 21
291.0289757233
 31
0.0
 11
82.52351034602023
 21
291.4116283727078
 31
0.0
 11
82.42017325682899
 21
291.7824054861085
 31
0.0
 11
82.29785654501784
 21
292.0819084838028
 31
0.0
 11
82.1501950291
 21
292.3696159639
 31
0.0
  0
DIMENSION
  5
11B
330
1F
100
AcDbEntity
  8
1
100
AcDbDimension
  2
*D2
 10
211.618881407583
 20
292.7196159639
 30
0.0
 11
207.868881407583
 21
284.696673073539
 31
0.0
 70
    32
  1
<>
 71
     5
 42
-1.0
 53
90.0
  3
ME10_DIM_10
100
AcDbAlignedDimension
 13
201.3137048193
 23
276.7196159639
 33
0.0
 14
201.3137048193
 24
292.7196159639
 34
0.0
 50
90.0
100
AcDbRotatedDimension
  0
DIMENSION
  5
126
330
1F
100
AcDbEntity
  8
1
100
AcDbDimension
  2
*D3
 10
220.085941638487
 20
298.2196159638466
 30
0.0
 11
216.335941638487
 21
285.035355482776
 31
0.0
 70
    32
  1
<>
 71
     5
 42
-1.0
 53
90.0
  3
ME10_DIM_11
100
AcDbAlignedDimension
 13
201.3137048193
 23
271.2196159638486
 33
0.0
 14
201.3137048193
 24
298.2196159638467
 34
0.0
 50
90.0
100
AcDbRotatedDimension
  0
DIMENSION
  5
131
330
1F
100
AcDbEntity
  8
1
100
AcDbDimension
  2
*D4
 10
227.266008714293
 20
301.7196159639
 30
0.0
 11
223.516008714293
 21
285.441774373859
 31
0.0
 70
    32
  1
<>
 71
     5
 42
-1.0
 53
90.0
  3
ME10_DIM_12
100
AcDbAlignedDimension
 13
156.8419882427
 23
267.7196159639
 33
0.0
 14
156.8419882427
 24
301.7196159639
 34
0.0
 50
90.0
100
AcDbRotatedDimension
  0
DIMENSION
  5
13C
330
1F
100
AcDbEntity
  8
1
100
AcDbDimension
  2
*D5
 10
201.3137048193
 20
317.581749921852
 30
0.0
 11
166.943498439709
 21
321.331749921852
 31
0.0
 70
    32
  1
<>
 71
     5
 42
-1.0
 53
0.00013888888889
  3
ME10_DIM_13
100
AcDbAlignedDimension
 13
132.2637048193
 23
309.7195659454
 33
0.0
 14
201.3137048193
 24
297.2952254722
 34
0.0
100
AcDbRotatedDimension
  0
DIMENSION
  5
147
330
1F
100
AcDbEntity
  8
1
100
AcDbDimension
  2
*D6
 10
201.3137048193
 20
324.633366352121
 30
0.0
 11
153.563508289969
 21
328.383366352121
 31
0.0
 70
    32
  1
<>
 71
     5
 42
-1.0
 53
0.00013888888889
  3
ME10_DIM_14
100
AcDbAlignedDimension
 13
106.3137048193
 23
309.7196159639
 33
0.0
 14
201.3137048193
 24
297.2952254722
 34
0.0
100
AcDbRotatedDimension
  0
DIMENSION
  5
152
330
1F
100
AcDbEntity
  8
1
100
AcDbDimension
  2
*D7
 10
81.4137048193
 20
331.59457744354
 30
0.0
 11
143.709326355362
 21
335.34457744354
 31
0.0
 70
    32
  1
<>
 71
     5
 42
-1.0
 53
0.00013888888889
  3
ME10_DIM_15
100
AcDbAlignedDimension
 13
201.3137048193
 23
297.2952254722
 33
0.0
 14
81.4137048193
 24
301.775971745
 34
0.0
100
AcDbRotatedDimension
  0
INSERT
  5
159
330
1F
100
AcDbEntity
  8
1
100
AcDbBlockReference
  2
*D8
 10
0.0
 20
0.0
 30
0.0
  0
DIMENSION
  5
164
330
1F
100
AcDbEntity
  8
1
100
AcDbDimension
  2
*D9
 10
187.0173861036588
 20
300.534021352917
 30
0.0
 11
190.0486863482349
 21
308.7785161043221
 31
0.0
 70
    37
  1
<>
 71
     5
 42
-1.0
  3
ME10_DIM_16
100
AcDb3PointAngularDimension
 13
186.947575739492
 23
299.3502548428906
 33
0.0
 14
159.8618562375778
 24
301.7196159639
 34
0.0
 15
156.8419882427
 25
301.7196159639
 35
0.0
  0
ENDSEC
  0
SECTION
  2
OBJECTS
  0
DICTIONARY
  5
C
330
0
100
AcDbDictionary
281
     1
  3
ACAD_GROUP
350
D
  3
ACAD_LAYOUT
350
1A
  3
ACAD_MLEADERSTYLE
350
167
  3
ACAD_MLINESTYLE
350
17
  3
ACAD_PLOTSETTINGS
350
19
  3
ACAD_PLOTSTYLENAME
350
E
  3
ACAD_SCALELIST
350
4B
  3
ACAD_VISUALSTYLE
350
2A
  3
AcDbVariableDictionary
350
165
  0
DICTIONARY
  5
D
102
{ACAD_REACTORS
330
C
102
}
330
C
100
AcDbDictionary
281
     1
  0
DICTIONARY
  5
1A
102
{ACAD_REACTORS
330
C
102
}
330
C
100
AcDbDictionary
281
     1
  3
Layout1
350
1E
  3
Layout2
350
26
  3
Model
350
22
  0
DICTIONARY
  5
167
102
{ACAD_REACTORS
330
C
102
}
330
C
100
AcDbDictionary
281
     1
  0
DICTIONARY
  5
17
102
{ACAD_REACTORS
330
C
102
}
330
C
100
AcDbDictionary
281
     1
  3
Standard
350
18
  0
DICTIONARY
  5
19
102
{ACAD_REACTORS
330
C
102
}
330
C
100
AcDbDictionary
281
     1
  0
ACDBDICTIONARYWDFLT
  5
E
102
{ACAD_REACTORS
330
C
102
}
330
C
100
AcDbDictionary
281
     1
  3
Normal
350
F
100
AcDbDictionaryWithDefault
340
F
  0
DICTIONARY
  5
4B
102
{ACAD_REACTORS
330
C
102
}
330
C
100
AcDbDictionary
281
     1
  3
A0
350
4C
  3
A1
350
4D
  3
A2
350
4E
  3
A3
350
4F
  3
A4
350
50
  3
A5
350
51
  3
A6
350
52
  3
A7
350
53
  3
A8
350
54
  3
A9
350
55
  3
B0
350
56
  3
B1
350
57
  3
B2
350
58
  3
B3
350
59
  3
B4
350
5A
  3
B5
350
5B
  3
B6
350
5C
  3
B7
350
5D
  3
B8
350
5E
  3
B9
350
5F
  3
C0
350
60
  3
C1
350
61
  3
C2
350
62
  3
C3
350
63
  3
C4
350
64
  3
C5
350
65
  3
C6
350
66
  3
C7
350
67
  3
C8
350
68
  3
C9
350
69
  3
D0
350
6A
  3
D1
350
6B
  3
D2
350
6C
  0
DICTIONARY
  5
2A
102
{ACAD_REACTORS
330
C
102
}
330
C
100
AcDbDictionary
281
     1
  3
2dWireframe
350
2F
  3
3D Hidden
350
31
  3
3dWireframe
350
30
  3
Basic
350
32
  3
Brighten
350
36
  3
ColorChange
350
3A
  3
Conceptual
350
34
  3
Dim
350
35
  3
Facepattern
350
39
  3
Flat
350
2B
  3
FlatWithEdges
350
2C
  3
Gouraud
350
2D
  3
GouraudWithEdges
350
2E
  3
Linepattern
350
38
  3
Realistic
350
33
  3
Thicken
350
37
  0
DICTIONARY
  5
165
102
{ACAD_REACTORS
330
C
102
}
330
C
100
AcDbDictionary
281
     1
  3
CANNOSCALE
350
168
  0
LAYOUT
  5
1E
102
{ACAD_REACTORS
330
1A
102
}
330
1A
100
AcDbPlotSettings
  1

  2
none_device
  4

  6

 40
0.0
 41
0.0
 42
0.0
 43
0.0
 44
0.0
 45
0.0
 46
0.0
 47
0.0
 48
0.0
 49
0.0
140
0.0
141
0.0
142
1.0
143
1.0
 70
   688
 72
     0
 73
     0
 74
     5
  7

 75
    16
147
1.0
148
0.0
149
0.0
100
AcDbLayout
  1
Layout1
 70
     1
 71
     1
 10
0.0
 20
0.0
 11
12.0
 21
9.0
 12
0.0
 22
0.0
 32
0.0
 14
1.00000000000000E+20
 24
1.00000000000000E+20
 34
1.00000000000000E+20
 15
-1.00000000000000E+20
 25
-1.00000000000000E+20
 35
-1.00000000000000E+20
146
0.0
 13
0.0
 23
0.0
 33
0.0
 16
1.0
 26
0.0
 36
0.0
 17
0.0
 27
1.0
 37
0.0
 76
     0
330
1B
  0
LAYOUT
  5
26
102
{ACAD_REACTORS
330
1A
102
}
330
1A
100
AcDbPlotSettings
  1

  2
none_device
  4

  6

 40
0.0
 41
0.0
 42
0.0
 43
0.0
 44
0.0
 45
0.0
 46
0.0
 47
0.0
 48
0.0
 49
0.0
140
0.0
141
0.0
142
1.0
143
1.0
 70
   688
 72
     0
 73
     0
 74
     5
  7

 75
    16
147
1.0
148
0.0
149
0.0
100
AcDbLayout
  1
Layout2
 70
     1
 71
     2
 10
0.0
 20
0.0
 11
0.0
 21
0.0
 12
0.0
 22
0.0
 32
0.0
 14
0.0
 24
0.0
 34
0.0
 15
0.0
 25
0.0
 35
0.0
146
0.0
 13
0.0
 23
0.0
 33
0.0
 16
1.0
 26
0.0
 36
0.0
 17
0.0
 27
1.0
 37
0.0
 76
     0
330
23
  0
LAYOUT
  5
22
102
{ACAD_REACTORS
330
1A
102
}
330
1A
100
AcDbPlotSettings
  1

  2
none_device
  4

  6

 40
0.0
 41
0.0
 42
0.0
 43
0.0
 44
0.0
 45
0.0
 46
0.0
 47
0.0
 48
0.0
 49
0.0
140
0.0
141
0.0
142
1.0
143
1.0
 70
  1712
 72
     0
 73
     0
 74
     0
  7

 75
     0
147
1.0
148
0.0
149
0.0
100
AcDbLayout
  1
Model
 70
     1
 71
     0
 10
0.0
 20
0.0
 11
12.0
 21
9.0
 12
0.0
 22
0.0
 32
0.0
 14
78.2887048193
 24
242.8467898344777
 34
0.0
 15
229.266008714293
 25
337.09457744354
 35
0.0
146
0.0
 13
0.0
 23
0.0
 33
0.0
 16
1.0
 26
0.0
 36
0.0
 17
0.0
 27
1.0
 37
0.0
 76
     0
330
1F
331
29
  0
MLINESTYLE
  5
18
102
{ACAD_REACTORS
330
17
102
}
330
17
100
AcDbMlineStyle
  2
Standard
 70
     0
  3

 62
   256
 51
90.0
 52
90.0
 71
     2
 49
0.5
 62
   256
  6
BYLAYER
 49
-0.5
 62
   256
  6
BYLAYER
  0
ACDBPLACEHOLDER
  5
F
102
{ACAD_REACTORS
330
E
102
}
330
E
  0
SCALE
  5
4C
102
{ACAD_REACTORS
330
4B
102
}
330
4B
100
AcDbScale
 70
     0
300
1:1
140
1.0
141
1.0
290
     1
  0
SCALE
  5
4D
102
{ACAD_REACTORS
330
4B
102
}
330
4B
100
AcDbScale
 70
     0
300
1:2
140
1.0
141
2.0
290
     0
  0
SCALE
  5
4E
102
{ACAD_REACTORS
330
4B
102
}
330
4B
100
AcDbScale
 70
     0
300
1:4
140
1.0
141
4.0
290
     0
  0
SCALE
  5
4F
102
{ACAD_REACTORS
330
4B
102
}
330
4B
100
AcDbScale
 70
     0
300
1:5
140
1.0
141
5.0
290
     0
  0
SCALE
  5
50
102
{ACAD_REACTORS
330
4B
102
}
330
4B
100
AcDbScale
 70
     0
300
1:8
140
1.0
141
8.0
290
     0
  0
SCALE
  5
51
102
{ACAD_REACTORS
330
4B
102
}
330
4B
100
AcDbScale
 70
     0
300
1:10
140
1.0
141
10.0
290
     0
  0
SCALE
  5
52
102
{ACAD_REACTORS
330
4B
102
}
330
4B
100
AcDbScale
 70
     0
300
1:16
140
1.0
141
16.0
290
     0
  0
SCALE
  5
53
102
{ACAD_REACTORS
330
4B
102
}
330
4B
100
AcDbScale
 70
     0
300
1:20
140
1.0
141
20.0
290
     0
  0
SCALE
  5
54
102
{ACAD_REACTORS
330
4B
102
}
330
4B
100
AcDbScale
 70
     0
300
1:30
140
1.0
141
30.0
290
     0
  0
SCALE
  5
55
102
{ACAD_REACTORS
330
4B
102
}
330
4B
100
AcDbScale
 70
     0
300
1:40
140
1.0
141
40.0
290
     0
  0
SCALE
  5
56
102
{ACAD_REACTORS
330
4B
102
}
330
4B
100
AcDbScale
 70
     0
300
1:50
140
1.0
141
50.0
290
     0
  0
SCALE
  5
57
102
{ACAD_REACTORS
330
4B
102
}
330
4B
100
AcDbScale
 70
     0
300
1:100
140
1.0
141
100.0
290
     0
  0
SCALE
  5
58
102
{ACAD_REACTORS
330
4B
102
}
330
4B
100
AcDbScale
 70
     0
300
2:1
140
2.0
141
1.0
290
     0
  0
SCALE
  5
59
102
{ACAD_REACTORS
330
4B
102
}
330
4B
100
AcDbScale
 70
     0
300
4:1
140
4.0
141
1.0
290
     0
  0
SCALE
  5
5A
102
{ACAD_REACTORS
330
4B
102
}
330
4B
100
AcDbScale
 70
     0
300
8:1
140
8.0
141
1.0
290
     0
  0
SCALE
  5
5B
102
{ACAD_REACTORS
330
4B
102
}
330
4B
100
AcDbScale
 70
     0
300
10:1
140
10.0
141
1.0
290
     0
  0
SCALE
  5
5C
102
{ACAD_REACTORS
330
4B
102
}
330
4B
100
AcDbScale
 70
     0
300
100:1
140
100.0
141
1.0
290
     0
  0
SCALE
  5
5D
102
{ACAD_REACTORS
330
4B
102
}
330
4B
100
AcDbScale
 70
     0
300
1/128" = 1'-0"
140
0.0078125
141
12.0
290
     0
  0
SCALE
  5
5E
102
{ACAD_REACTORS
330
4B
102
}
330
4B
100
AcDbScale
 70
     0
300
1/64" = 1'-0"
140
0.015625
141
12.0
290
     0
  0
SCALE
  5
5F
102
{ACAD_REACTORS
330
4B
102
}
330
4B
100
AcDbScale
 70
     0
300
1/32" = 1'-0"
140
0.03125
141
12.0
290
     0
  0
SCALE
  5
60
102
{ACAD_REACTORS
330
4B
102
}
330
4B
100
AcDbScale
 70
     0
300
1/16" = 1'-0"
140
0.0625
141
12.0
290
     0
  0
SCALE
  5
61
102
{ACAD_REACTORS
330
4B
102
}
330
4B
100
AcDbScale
 70
     0
300
3/32" = 1'-0"
140
0.09375
141
12.0
290
     0
  0
SCALE
  5
62
102
{ACAD_REACTORS
330
4B
102
}
330
4B
100
AcDbScale
 70
     0
300
1/8" = 1'-0"
140
0.125
141
12.0
290
     0
  0
SCALE
  5
63
102
{ACAD_REACTORS
330
4B
102
}
330
4B
100
AcDbScale
 70
     0
300
3/16" = 1'-0"
140
0.1875
141
12.0
290
     0
  0
SCALE
  5
64
102
{ACAD_REACTORS
330
4B
102
}
330
4B
100
AcDbScale
 70
     0
300
1/4" = 1'-0"
140
0.25
141
12.0
290
     0
  0
SCALE
  5
65
102
{ACAD_REACTORS
330
4B
102
}
330
4B
100
AcDbScale
 70
     0
300
3/8" = 1'-0"
140
0.375
141
12.0
290
     0
  0
SCALE
  5
66
102
{ACAD_REACTORS
330
4B
102
}
330
4B
100
AcDbScale
 70
     0
300
1/2" = 1'-0"
140
0.5
141
12.0
290
     0
  0
SCALE
  5
67
102
{ACAD_REACTORS
330
4B
102
}
330
4B
100
AcDbScale
 70
     0
300
3/4" = 1'-0"
140
0.75
141
12.0
290
     0
  0
SCALE
  5
68
102
{ACAD_REACTORS
330
4B
102
}
330
4B
100
AcDbScale
 70
     0
300
1" = 1'-0"
140
1.0
141
12.0
290
     0
  0
SCALE
  5
69
102
{ACAD_REACTORS
330
4B
102
}
330
4B
100
AcDbScale
 70
     0
300
1-1/2" = 1'-0"
140
1.5
141
12.0
290
     0
  0
SCALE
  5
6A
102
{ACAD_REACTORS
330
4B
102
}
330
4B
100
AcDbScale
 70
     0
300
3" = 1'-0"
140
3.0
141
12.0
290
     0
  0
SCALE
  5
6B
102
{ACAD_REACTORS
330
4B
102
}
330
4B
100
AcDbScale
 70
     0
300
6" = 1'-0"
140
6.0
141
12.0
290
     0
  0
SCALE
  5
6C
102
{ACAD_REACTORS
330
4B
102
}
330
4B
100
AcDbScale
 70
     0
300
1'-0" = 1'-0"
140
12.0
141
12.0
290
     0
  0
VISUALSTYLE
  5
2F
102
{ACAD_REACTORS
330
2A
102
}
330
2A
100
AcDbVisualStyle
  2
2dWireframe
 70
     4
 71
     0
 72
     2
 73
     0
 90
        0
 40
-0.6
 41
-30.0
 62
     5
 63
     7
 74
     1
 91
        4
 64
     7
 65
   257
 75
     1
175
     1
 42
1.0
 92
        0
 66
   257
 43
1.0
 76
     1
 77
     6
 78
     2
 67
     7
 79
     5
170
     0
171
     0
290
     0
174
     0
 93
        1
 44
0.0
173
     0
291
     0
 45
0.0
1001
ACAD
1000
AcDbSavedByObjectVersion
1070
     0
  0
VISUALSTYLE
  5
31
102
{ACAD_REACTORS
330
2A
102
}
330
2A
100
AcDbVisualStyle
  2
3D Hidden
 70
     6
 71
     1
 72
     2
 73
     2
 90
        0
 40
-0.6
 41
-30.0
 62
     5
 63
     7
 74
     2
 91
        2
 64
     7
 65
   257
 75
     2
175
     1
 42
40.0
 92
        0
 66
   257
 43
1.0
 76
     1
 77
     6
 78
     2
 67
     7
 79
     3
170
     0
171
     0
290
     0
174
     0
 93
        1
 44
0.0
173
     0
291
     0
 45
0.0
1001
ACAD
1000
AcDbSavedByObjectVersion
1070
     0
  0
VISUALSTYLE
  5
30
102
{ACAD_REACTORS
330
2A
102
}
330
2A
100
AcDbVisualStyle
  2
3dWireframe
 70
     5
 71
     0
 72
     2
 73
     0
 90
        0
 40
-0.6
 41
-30.0
 62
     5
 63
     7
 74
     1
 91
        4
 64
     7
 65
   257
 75
     1
175
     1
 42
1.0
 92
        0
 66
   257
 43
1.0
 76
     1
 77
     6
 78
     2
 67
     7
 79
     5
170
     0
171
     0
290
     0
174
     0
 93
        1
 44
0.0
173
     0
291
     0
 45
0.0
1001
ACAD
1000
AcDbSavedByObjectVersion
1070
     0
  0
VISUALSTYLE
  5
32
102
{ACAD_REACTORS
330
2A
102
}
330
2A
100
AcDbVisualStyle
  2
Basic
 70
     7
 71
     1
 72
     0
 73
     1
 90
        0
 40
-0.6
 41
-30.0
 62
     5
 63
     7
 74
     0
 91
        4
 64
     7
 65
   257
 75
     1
175
     1
 42
1.0
 92
        8
 66
     7
 43
1.0
 76
     1
 77
     6
 78
     2
 67
     7
 79
     5
170
     0
171
     0
290
     0
174
     0
 93
        1
 44
0.0
173
     0
291
     1
 45
0.0
1001
ACAD
1000
AcDbSavedByObjectVersion
1070
     0
  0
VISUALSTYLE
  5
36
102
{ACAD_REACTORS
330
2A
102
}
330
2A
100
AcDbVisualStyle
  2
Brighten
 70
    12
 71
     2
 72
     2
 73
     0
 90
        0
 40
-0.6
 41
-30.0
 62
     5
 63
     7
 74
     1
 91
        4
 64
     7
 65
   257
 75
     1
175
     1
 42
1.0
 92
        8
 66
     7
 43
1.0
 76
     1
 77
     6
 78
     2
 67
     7
 79
     5
170
     0
171
     0
290
     0
174
     0
 93
        1
 44
50.0
173
     0
291
     1
 45
0.0
1001
ACAD
1000
AcDbSavedByObjectVersion
1070
     0
  0
VISUALSTYLE
  5
3A
102
{ACAD_REACTORS
330
2A
102
}
330
2A
100
AcDbVisualStyle
  2
ColorChange
 70
    16
 71
     2
 72
     2
 73
     3
 90
        0
 40
-0.6
 41
-30.0
 62
     5
 63
     8
 74
     1
 91
        4
 64
     7
 65
   257
 75
     1
175
     1
 42
1.0
 92
        8
 66
     8
 43
1.0
 76
     1
 77
     6
 78
     2
 67
     7
 79
     5
170
     0
171
     0
290
     0
174
     0
 93
        1
 44
0.0
173
     0
291
     1
 45
0.0
1001
ACAD
1000
AcDbSavedByObjectVersion
1070
     0
  0
VISUALSTYLE
  5
34
102
{ACAD_REACTORS
330
2A
102
}
330
2A
100
AcDbVisualStyle
  2
Conceptual
 70
     9
 71
     3
 72
     2
 73
     0
 90
        0
 40
-0.6
 41
-30.0
 62
     5
 63
     7
 74
     2
 91
        2
 64
     7
 65
   257
 75
     1
175
     1
 42
40.0
 92
        8
 66
     7
 43
1.0
 76
     1
 77
     6
 78
     2
 67
     7
 79
     3
170
     0
171
     0
290
     0
174
     0
 93
        1
 44
0.0
173
     0
291
     0
 45
0.0
1001
ACAD
1000
AcDbSavedByObjectVersion
1070
     0
  0
VISUALSTYLE
  5
35
102
{ACAD_REACTORS
330
2A
102
}
330
2A
100
AcDbVisualStyle
  2
Dim
 70
    11
 71
     2
 72
     2
 73
     0
 90
        0
 40
-0.6
 41
-30.0
 62
     5
 63
     7
 74
     1
 91
        4
 64
     7
 65
   257
 75
     1
175
     1
 42
1.0
 92
        8
 66
     7
 43
1.0
 76
     1
 77
     6
 78
     2
 67
     7
 79
     5
170
     0
171
     0
290
     0
174
     0
 93
        1
 44
-50.0
173
     0
291
     1
 45
0.0
1001
ACAD
1000
AcDbSavedByObjectVersion
1070
     0
  0
VISUALSTYLE
  5
39
102
{ACAD_REACTORS
330
2A
102
}
330
2A
100
AcDbVisualStyle
  2
Facepattern
 70
    15
 71
     2
 72
     2
 73
     0
 90
        0
 40
-0.6
 41
-30.0
 62
     5
 63
     7
 74
     1
 91
        4
 64
     7
 65
   257
 75
     1
175
     1
 42
1.0
 92
        8
 66
     7
 43
1.0
 76
     1
 77
     6
 78
     2
 67
     7
 79
     5
170
     0
171
     0
290
     0
174
     0
 93
        1
 44
0.0
173
     0
291
     1
 45
0.0
1001
ACAD
1000
AcDbSavedByObjectVersion
1070
     0
  0
VISUALSTYLE
  5
2B
102
{ACAD_REACTORS
330
2A
102
}
330
2A
100
AcDbVisualStyle
  2
Flat
 70
     0
 71
     2
 72
     1
 73
     1
 90
        2
 40
-0.6
 41
30.0
 62
     5
 63
     7
 74
     0
 91
        4
 64
     7
 65
   257
 75
     1
175
     1
 42
1.0
 92
        8
 66
     7
 43
1.0
 76
     1
 77
     6
 78
     2
 67
     7
 79
     5
170
     0
171
     0
290
     0
174
     0
 93
       13
 44
0.0
173
     0
291
     1
 45
0.0
1001
ACAD
1000
AcDbSavedByObjectVersion
1070
     0
  0
VISUALSTYLE
  5
2C
102
{ACAD_REACTORS
330
2A
102
}
330
2A
100
AcDbVisualStyle
  2
FlatWithEdges
 70
     1
 71
     2
 72
     1
 73
     1
 90
        2
 40
-0.6
 41
30.0
 62
     5
 63
     7
 74
     1
 91
        4
 64
     7
 65
   257
 75
     1
175
     1
 42
1.0
 92
        0
 66
   257
 43
1.0
 76
     1
 77
     6
 78
     2
 67
     7
 79
     5
170
     0
171
     0
290
     0
174
     0
 93
       13
 44
0.0
173
     0
291
     1
 45
0.0
1001
ACAD
1000
AcDbSavedByObjectVersion
1070
     0
  0
VISUALSTYLE
  5
2D
102
{ACAD_REACTORS
330
2A
102
}
330
2A
100
AcDbVisualStyle
  2
Gouraud
 70
     2
 71
     2
 72
     2
 73
     1
 90
        2
 40
-0.6
 41
30.0
 62
     5
 63
     7
 74
     0
 91
        4
 64
     7
 65
   257
 75
     1
175
     1
 42
1.0
 92
        0
 66
     7
 43
1.0
 76
     1
 77
     6
 78
     2
 67
     7
 79
     5
170
     0
171
     0
290
     0
174
     0
 93
       13
 44
0.0
173
     0
291
     1
 45
0.0
1001
ACAD
1000
AcDbSavedByObjectVersion
1070
     0
  0
VISUALSTYLE
  5
2E
102
{ACAD_REACTORS
330
2A
102
}
330
2A
100
AcDbVisualStyle
  2
GouraudWithEdges
 70
     3
 71
     2
 72
     2
 73
     1
 90
        2
 40
-0.6
 41
30.0
 62
     5
 63
     7
 74
     1
 91
        4
 64
     7
 65
   257
 75
     1
175
     1
 42
1.0
 92
        0
 66
   257
 43
1.0
 76
     1
 77
     6
 78
     2
 67
     7
 79
     5
170
     0
171
     0
290
     0
174
     0
 93
       13
 44
0.0
173
     0
291
     1
 45
0.0
1001
ACAD
1000
AcDbSavedByObjectVersion
1070
     0
  0
VISUALSTYLE
  5
38
102
{ACAD_REACTORS
330
2A
102
}
330
2A
100
AcDbVisualStyle
  2
Linepattern
 70
    14
 71
     2
 72
     2
 73
     0
 90
        0
 40
-0.6
 41
-30.0
 62
     5
 63
     7
 74
     1
 91
        4
 64
     7
 65
   257
 75
     7
175
     7
 42
1.0
 92
        8
 66
     7
 43
1.0
 76
     1
 77
     6
 78
     2
 67
     7
 79
     5
170
     0
171
     0
290
     0
174
     0
 93
        1
 44
0.0
173
     0
291
     1
 45
0.0
1001
ACAD
1000
AcDbSavedByObjectVersion
1070
     0
  0
VISUALSTYLE
  5
33
102
{ACAD_REACTORS
330
2A
102
}
330
2A
100
AcDbVisualStyle
  2
Realistic
 70
     8
 71
     2
 72
     2
 73
     0
 90
        0
 40
-0.6
 41
-30.0
 62
     5
 63
     7
 74
     1
 91
        0
 64
     7
 65
   257
 75
     1
175
     1
 42
1.0
 92
        8
 66
     8
 43
1.0
 76
     1
 77
     6
 78
     2
 67
     7
 79
     5
170
     0
171
     0
290
     0
174
     0
 93
       13
 44
0.0
173
     0
291
     0
 45
0.0
1001
ACAD
1000
AcDbSavedByObjectVersion
1070
     0
  0
VISUALSTYLE
  5
37
102
{ACAD_REACTORS
330
2A
102
}
330
2A
100
AcDbVisualStyle
  2
Thicken
 70
    13
 71
     2
 72
     2
 73
     0
 90
        0
 40
-0.6
 41
-30.0
 62
     5
 63
     7
 74
     1
 91
        4
 64
     7
 65
   257
 75
     1
175
     1
 42
1.0
 92
       12
 66
     7
 43
1.0
 76
     1
 77
     6
 78
     2
 67
     7
 79
     5
170
     0
171
     0
290
     0
174
     0
 93
        1
 44
0.0
173
     0
291
     1
 45
0.0
1001
ACAD
1000
AcDbSavedByObjectVersion
1070
     0
  0
DICTIONARYVAR
  5
168
102
{ACAD_REACTORS
330
165
102
}
330
165
100
DictionaryVariables
280
     0
  1
1:1
  0
ENDSEC
  0
EOF
