  0
SECTION
  2
HEADER
  9
$ACADVER
  1
AC1015
  9
$ACADMAINTVER
 70
     6
  9
$DWGCODEPAGE
  3
ANSI_1252
  9
$INSBASE
 10
0.0
 20
0.0
 30
0.0
  9
$EXTMIN
 10
64.5948042169
 20
267.2610481952737
 30
0.0
  9
$EXTMAX
 10
210.424825926789
 20
361.833041623638
 30
0.0
  9
$LIMMIN
 10
0.0
 20
0.0
  9
$LIMMAX
 10
12.0
 20
9.0
  9
$ORTHOMODE
 70
     0
  9
$REGENMODE
 70
     1
  9
$FILLMODE
 70
     1
  9
$QTEXTMODE
 70
     0
  9
$MIRRTEXT
 70
     1
  9
$LTSCALE
 40
1.0
  9
$ATTMODE
 70
     1
  9
$TEXTSIZE
 40
0.2
  9
$TRACEWID
 40
0.05
  9
$TEXTSTYLE
  7
Standard
  9
$CLAYER
  8
0
  9
$CELTYPE
  6
ByLayer
  9
$CECOLOR
 62
   256
  9
$CELTSCALE
 40
1.0
  9
$DISPSILH
 70
     0
  9
$DIMSCALE
 40
1.0
  9
$DIMASZ
 40
0.18
  9
$DIMEXO
 40
0.0625
  9
$DIMDLI
 40
0.38
  9
$DIMRND
 40
0.0
  9
$DIMDLE
 40
0.0
  9
$DIMEXE
 40
0.18
  9
$DIMTP
 40
0.0
  9
$DIMTM
 40
0.0
  9
$DIMTXT
 40
0.18
  9
$DIMCEN
 40
0.09
  9
$DIMTSZ
 40
0.0
  9
$DIMTOL
 70
     0
  9
$DIMLIM
 70
     0
  9
$DIMTIH
 70
     1
  9
$DIMTOH
 70
     1
  9
$DIMSE1
 70
     0
  9
$DIMSE2
 70
     0
  9
$DIMTAD
 70
     0
  9
$DIMZIN
 70
     0
  9
$DIMBLK
  1

  9
$DIMASO
 70
     1
  9
$DIMSHO
 70
     1
  9
$DIMPOST
  1

  9
$DIMAPOST
  1

  9
$DIMALT
 70
     0
  9
$DIMALTD
 70
     2
  9
$DIMALTF
 40
25.4
  9
$DIMLFAC
 40
1.0
  9
$DIMTOFL
 70
     0
  9
$DIMTVP
 40
0.0
  9
$DIMTIX
 70
     0
  9
$DIMSOXD
 70
     0
  9
$DIMSAH
 70
     0
  9
$DIMBLK1
  1

  9
$DIMBLK2
  1

  9
$DIMSTYLE
  2
Standard
  9
$DIMCLRD
 70
     0
  9
$DIMCLRE
 70
     0
  9
$DIMCLRT
 70
     0
  9
$DIMTFAC
 40
1.0
  9
$DIMGAP
 40
0.09
  9
$DIMJUST
 70
     0
  9
$DIMSD1
 70
     0
  9
$DIMSD2
 70
     0
  9
$DIMTOLJ
 70
     1
  9
$DIMTZIN
 70
     0
  9
$DIMALTZ
 70
     0
  9
$DIMALTTZ
 70
     0
  9
$DIMUPT
 70
     0
  9
$DIMDEC
 70
     4
  9
$DIMTDEC
 70
     4
  9
$DIMALTU
 70
     2
  9
$DIMALTTD
 70
     2
  9
$DIMTXSTY
  7
Standard
  9
$DIMAUNIT
 70
     0
  9
$DIMADEC
 70
     0
  9
$DIMALTRND
 40
0.0
  9
$DIMAZIN
 70
     0
  9
$DIMDSEP
 70
    46
  9
$DIMATFIT
 70
     3
  9
$DIMFRAC
 70
     0
  9
$DIMLDRBLK
  1

  9
$DIMLUNIT
 70
     2
  9
$DIMLWD
 70
    -2
  9
$DIMLWE
 70
    -2
  9
$DIMTMOVE
 70
     0
  9
$LUNITS
 70
     2
  9
$LUPREC
 70
     4
  9
$SKETCHINC
 40
0.1
  9
$FILLETRAD
 40
0.5
  9
$AUNITS
 70
     0
  9
$AUPREC
 70
     0
  9
$MENU
  1
.
  9
$ELEVATION
 40
0.0
  9
$PELEVATION
 40
0.0
  9
$THICKNESS
 40
0.0
  9
$LIMCHECK
 70
     0
  9
$CHAMFERA
 40
0.5
  9
$CHAMFERB
 40
0.5
  9
$CHAMFERC
 40
1.0
  9
$CHAMFERD
 40
0.0
  9
$SKPOLY
 70
     0
  9
$TDCREATE
 40
2456749.744852176
  9
$TDUCREATE
 40
2456749.661518842
  9
$TDUPDATE
 40
2456749.744852188
  9
$TDUUPDATE
 40
2456749.661518854
  9
$TDINDWG
 40
0.0000000116
  9
$TDUSRTIMER
 40
0.0000000116
  9
$USRTIMER
 70
     1
  9
$ANGBASE
 50
0.0
  9
$ANGDIR
 70
     0
  9
$PDMODE
 70
     0
  9
$PDSIZE
 40
0.0
  9
$PLINEWID
 40
0.0
  9
$SPLFRAME
 70
     0
  9
$SPLINETYPE
 70
     6
  9
$SPLINESEGS
 70
     8
  9
$HANDSEED
  5
169
  9
$SURFTAB1
 70
     6
  9
$SURFTAB2
 70
     6
  9
$SURFTYPE
 70
     6
  9
$SURFU
 70
     6
  9
$SURFV
 70
     6
  9
$UCSBASE
  2

  9
$UCSNAME
  2

  9
$UCSORG
 10
0.0
 20
0.0
 30
0.0
  9
$UCSXDIR
 10
1.0
 20
0.0
 30
0.0
  9
$UCSYDIR
 10
0.0
 20
1.0
 30
0.0
  9
$UCSORTHOREF
  2

  9
$UCSORTHOVIEW
 70
     0
  9
$UCSORGTOP
 10
0.0
 20
0.0
 30
0.0
  9
$UCSORGBOTTOM
 10
0.0
 20
0.0
 30
0.0
  9
$UCSORGLEFT
 10
0.0
 20
0.0
 30
0.0
  9
$UCSORGRIGHT
 10
0.0
 20
0.0
 30
0.0
  9
$UCSORGFRONT
 10
0.0
 20
0.0
 30
0.0
  9
$UCSORGBACK
 10
0.0
 20
0.0
 30
0.0
  9
$PUCSBASE
  2

  9
$PUCSNAME
  2

  9
$PUCSORG
 10
0.0
 20
0.0
 30
0.0
  9
$PUCSXDIR
 10
1.0
 20
0.0
 30
0.0
  9
$PUCSYDIR
 10
0.0
 20
1.0
 30
0.0
  9
$PUCSORTHOREF
  2

  9
$PUCSORTHOVIEW
 70
     0
  9
$PUCSORGTOP
 10
0.0
 20
0.0
 30
0.0
  9
$PUCSORGBOTTOM
 10
0.0
 20
0.0
 30
0.0
  9
$PUCSORGLEFT
 10
0.0
 20
0.0
 30
0.0
  9
$PUCSORGRIGHT
 10
0.0
 20
0.0
 30
0.0
  9
$PUCSORGFRONT
 10
0.0
 20
0.0
 30
0.0
  9
$PUCSORGBACK
 10
0.0
 20
0.0
 30
0.0
  9
$USERI1
 70
     0
  9
$USERI2
 70
     0
  9
$USERI3
 70
     0
  9
$USERI4
 70
     0
  9
$USERI5
 70
     0
  9
$USERR1
 40
16.5
  9
$USERR2
 40
0.0
  9
$USERR3
 40
0.0
  9
$USERR4
 40
0.0
  9
$USERR5
 40
0.0
  9
$WORLDVIEW
 70
     1
  9
$SHADEDGE
 70
     3
  9
$SHADEDIF
 70
    70
  9
$TILEMODE
 70
     1
  9
$MAXACTVP
 70
    64
  9
$PINSBASE
 10
0.0
 20
0.0
 30
0.0
  9
$PLIMCHECK
 70
     0
  9
$PEXTMIN
 10
1.00000000000000E+20
 20
1.00000000000000E+20
 30
1.00000000000000E+20
  9
$PEXTMAX
 10
-1.00000000000000E+20
 20
-1.00000000000000E+20
 30
-1.00000000000000E+20
  9
$PLIMMIN
 10
0.0
 20
0.0
  9
$PLIMMAX
 10
12.0
 20
9.0
  9
$UNITMODE
 70
     0
  9
$VISRETAIN
 70
     1
  9
$PLINEGEN
 70
     0
  9
$PSLTSCALE
 70
     1
  9
$TREEDEPTH
 70
  3020
  9
$CMLSTYLE
  2
Standard
  9
$CMLJUST
 70
     0
  9
$CMLSCALE
 40
1.0
  9
$PROXYGRAPHICS
 70
     1
  9
$MEASUREMENT
 70
     1
  9
$CELWEIGHT
370
    -1
  9
$ENDCAPS
280
     0
  9
$JOINSTYLE
280
     0
  9
$LWDISPLAY
290
     0
  9
$INSUNITS
 70
     1
  9
$HYPERLINKBASE
  1

  9
$STYLESHEET
  1

  9
$XEDIT
290
     1
  9
$CEPSNTYPE
380
     0
  9
$PSTYLEMODE
290
     1
  9
$FINGERPRINTGUID
  2
{76ADB1DD-3681-4CE1-990C-578C89084432}
  9
$VERSIONGUID
  2
{FAEB1C32-E019-11D5-929B-00C0DF256EC4}
  9
$EXTNAMES
290
     1
  9
$PSVPSCALE
 40
0.0
  9
$OLESTARTUP
290
     0
  0
ENDSEC
  0
SECTION
  2
CLASSES
  0
CLASS
  1
ACDBDICTIONARYWDFLT
  2
AcDbDictionaryWithDefault
  3
ObjectDBX Classes
 90
        0
280
     0
281
     0
  0
CLASS
  1
VISUALSTYLE
  2
AcDbVisualStyle
  3
ObjectDBX Classes
 90
     4095
280
     0
281
     0
  0
CLASS
  1
SCALE
  2
AcDbScale
  3
ObjectDBX Classes
 90
     1153
280
     0
281
     0
  0
CLASS
  1

  2
exOdDbPolyline
  3

 90
        0
280
     0
281
     1
  0
CLASS
  1

  2
exOdDbCircle
  3

 90
        0
280
     0
281
     1
  0
CLASS
  1

  2
exOdDbSpline
  3

 90
        0
280
     0
281
     1
  0
CLASS
  1
DICTIONARYVAR
  2
AcDbDictionaryVar
  3
ObjectDBX Classes
 90
        0
280
     0
281
     0
  0
CLASS
  1
ACDBPLACEHOLDER
  2
AcDbPlaceHolder
  3
ObjectDBX Classes
 90
        0
280
     0
281
     0
  0
CLASS
  1
LAYOUT
  2
AcDbLayout
  3
ObjectDBX Classes
 90
        0
280
     0
281
     0
  0
ENDSEC
  0
SECTION
  2
TABLES
  0
TABLE
  2
VPORT
  5
8
330
0
100
AcDbSymbolTable
 70
     1
  0
VPORT
  5
29
330
8
100
AcDbSymbolTableRecord
100
AcDbViewportTableRecord
  2
*Active
 70
     0
 10
0.0
 20
0.0
 11
1.0
 21
1.0
 12
137.5098150718445
 22
314.5470449094558
 13
0.0
 23
0.0
 14
0.5
 24
0.5
 15
0.5
 25
0.5
 16
0.0
 26
0.0
 36
1.0
 17
0.0
 27
0.0
 37
0.0
 40
104.0291927712007
 41
1.60267857142857
 42
50.0
 43
0.0
 44
0.0
 50
0.0
 51
0.0
 71
     0
 72
   100
 73
     1
 74
     3
 75
     0
 76
     0
 77
     0
 78
     0
281
     0
 65
     1
110
0.0
120
0.0
130
0.0
111
1.0
121
0.0
131
0.0
112
0.0
122
1.0
132
0.0
 79
     0
146
0.0
  0
ENDTAB
  0
TABLE
  2
LTYPE
  5
5
330
0
100
AcDbSymbolTable
 70
     8
  0
LTYPE
  5
14
330
5
100
AcDbSymbolTableRecord
100
AcDbLinetypeTableRecord
  2
ByBlock
 70
     0
  3

 72
    65
 73
     0
 40
0.0
  0
LTYPE
  5
15
330
5
100
AcDbSymbolTableRecord
100
AcDbLinetypeTableRecord
  2
ByLayer
 70
     0
  3

 72
    65
 73
     0
 40
0.0
  0
LTYPE
  5
16
330
5
100
AcDbSymbolTableRecord
100
AcDbLinetypeTableRecord
  2
Continuous
 70
     0
  3
Solid line
 72
    65
 73
     0
 40
0.0
  0
LTYPE
  5
3B
330
5
100
AcDbSymbolTableRecord
100
AcDbLinetypeTableRecord
  2
DASHED
 70
     0
  3
Dashed
 72
    65
 73
     2
 40
15.0
 49
7.0
 74
     0
 49
-8.0
 74
     0
  0
LTYPE
  5
3C
330
5
100
AcDbSymbolTableRecord
100
AcDbLinetypeTableRecord
  2
DOTTED
 70
     0
  3
Dotted
 72
    65
 73
     2
 40
1.0
 49
0.0
 74
     0
 49
-1.0
 74
     0
  0
LTYPE
  5
3D
330
5
100
AcDbSymbolTableRecord
100
AcDbLinetypeTableRecord
  2
DOT_CENTER
 70
     0
  3
Dot_Center
 72
    65
 73
     4
 40
14.0
 49
12.0
 74
     0
 49
-1.0
 74
     0
 49
0.0
 74
     0
 49
-1.0
 74
     0
  0
LTYPE
  5
3E
330
5
100
AcDbSymbolTableRecord
100
AcDbLinetypeTableRecord
  2
LONG_DASHED
 70
     0
  3
Long_Dashed
 72
    65
 73
     2
 40
15.0
 49
10.0
 74
     0
 49
-5.0
 74
     0
  0
LTYPE
  5
3F
330
5
100
AcDbSymbolTableRecord
100
AcDbLinetypeTableRecord
  2
DASH_CENTER
 70
     0
  3
Dash_Center
 72
    65
 73
     4
 40
14.0
 49
11.0
 74
     0
 49
-1.0
 74
     0
 49
1.0
 74
     0
 49
-1.0
 74
     0
  0
LTYPE
  5
40
330
5
100
AcDbSymbolTableRecord
100
AcDbLinetypeTableRecord
  2
PHANTOM
 70
     0
  3
Phantom
 72
    65
 73
     6
 40
13.0
 49
10.0
 74
     0
 49
-1.0
 74
     0
 49
0.0
 74
     0
 49
-1.0
 74
     0
 49
0.0
 74
     0
 49
-1.0
 74
     0
  0
LTYPE
  5
41
330
5
100
AcDbSymbolTableRecord
100
AcDbLinetypeTableRecord
  2
CENTER_DASH_DASH
 70
     0
  3
Center_Dash_Dash
 72
    65
 73
     6
 40
14.0
 49
9.0
 74
     0
 49
-1.0
 74
     0
 49
1.0
 74
     0
 49
-1.0
 74
     0
 49
1.0
 74
     0
 49
-1.0
 74
     0
  0
ENDTAB
  0
TABLE
  2
LAYER
  5
2
330
0
100
AcDbSymbolTable
 70
     7
  0
LAYER
  5
10
330
2
100
AcDbSymbolTableRecord
100
AcDbLayerTableRecord
  2
0
 70
     0
 62
     7
  6
Continuous
370
    -3
390
F
  0
LAYER
  5
42
330
2
100
AcDbSymbolTableRecord
100
AcDbLayerTableRecord
  2
1
 70
     0
 62
     7
  6
Continuous
370
    -3
390
F
  0
LAYER
  5
43
330
2
100
AcDbSymbolTableRecord
100
AcDbLayerTableRecord
  2
BEZUGSACHSEN
 70
     0
 62
     7
  6
Continuous
370
    -3
390
F
  0
LAYER
  5
44
330
2
100
AcDbSymbolTableRecord
100
AcDbLayerTableRecord
  2
BOHRUNGEN
 70
     0
 62
     7
  6
Continuous
370
    -3
390
F
  0
LAYER
  5
45
330
2
100
AcDbSymbolTableRecord
100
AcDbLayerTableRecord
  2
FASEN
 70
     0
 62
     7
  6
Continuous
370
    -3
390
F
  0
LAYER
  5
46
330
2
100
AcDbSymbolTableRecord
100
AcDbLayerTableRecord
  2
RUNDUNGEN
 70
     0
 62
     7
  6
Continuous
370
    -3
390
F
  0
LAYER
  5
47
330
2
100
AcDbSymbolTableRecord
100
AcDbLayerTableRecord
  2
TEIL_STARTBEZUEGE
 70
     0
 62
     7
  6
Continuous
370
    -3
390
F
  0
ENDTAB
  0
TABLE
  2
STYLE
  5
3
330
0
100
AcDbSymbolTable
 70
     2
  0
STYLE
  5
11
330
3
100
AcDbSymbolTableRecord
100
AcDbTextStyleTableRecord
  2
Standard
 70
     0
 40
0.0
 41
1.0
 50
0.0
 71
     0
 42
0.2
  3
txt
  4

  0
STYLE
  5
6E
330
3
100
AcDbSymbolTableRecord
100
AcDbTextStyleTableRecord
  2
CONVERTER_11
 70
     0
 40
0.0
 41
0.72
 50
0.0
 71
     0
 42
0.2
  3
txt.shx
  4

  0
ENDTAB
  0
TABLE
  2
VIEW
  5
6
330
0
100
AcDbSymbolTable
 70
     0
  0
ENDTAB
  0
TABLE
  2
UCS
  5
7
330
0
100
AcDbSymbolTable
 70
     0
  0
ENDTAB
  0
TABLE
  2
APPID
  5
9
330
0
100
AcDbSymbolTable
 70
     1
  0
APPID
  5
12
330
9
100
AcDbSymbolTableRecord
100
AcDbRegAppTableRecord
  2
ACAD
 70
     0
  0
ENDTAB
  0
TABLE
  2
DIMSTYLE
  5
A
330
0
100
AcDbSymbolTable
 70
     8
100
AcDbDimStyleTable
  0
DIMSTYLE
105
27
330
A
100
AcDbSymbolTableRecord
100
AcDbDimStyleTableRecord
  2
Standard
 70
     0
340
11
  0
DIMSTYLE
105
11A
102
{ACAD_REACTORS
330
11B
102
}
330
A
100
AcDbSymbolTableRecord
100
AcDbDimStyleTableRecord
  2
ME10_DIM_10
 70
     0
  3
\U+2300<>
 41
3.5
 42
2.0
 44
2.0
 71
     1
 73
     0
 74
     0
 77
     1
 78
     8
140
3.5
146
0.7
147
2.0
172
     1
173
     1
176
     2
177
     2
178
     3
271
     2
272
     0
340
6E
  0
DIMSTYLE
105
125
102
{ACAD_REACTORS
330
126
102
}
330
A
100
AcDbSymbolTableRecord
100
AcDbDimStyleTableRecord
  2
ME10_DIM_11
 70
     0
  3
\U+2300<>
 41
3.5
 42
2.0
 44
2.0
 71
     1
 73
     0
 74
     0
 77
     1
 78
     8
140
3.5
146
0.7
147
2.0
172
     1
173
     1
176
     2
177
     2
178
     3
271
     2
272
     0
340
6E
  0
DIMSTYLE
105
130
102
{ACAD_REACTORS
330
131
102
}
330
A
100
AcDbSymbolTableRecord
100
AcDbDimStyleTableRecord
  2
ME10_DIM_12
 70
     0
  3
\U+2300<>
 41
3.5
 42
2.0
 44
2.0
 71
     1
 73
     0
 74
     0
 77
     1
 78
     8
140
3.5
146
0.7
147
2.0
172
     1
173
     1
176
     2
177
     2
178
     3
271
     2
272
     0
340
6E
  0
DIMSTYLE
105
13B
102
{ACAD_REACTORS
330
13C
102
}
330
A
100
AcDbSymbolTableRecord
100
AcDbDimStyleTableRecord
  2
ME10_DIM_13
 70
     0
  3
<>
 41
3.5
 42
2.0
 44
2.0
 71
     1
 73
     0
 74
     0
 77
     1
 78
     8
140
3.5
146
0.7
147
2.0
172
     1
173
     1
176
     2
177
     2
178
     3
271
     0
272
     0
340
6E
  0
DIMSTYLE
105
146
102
{ACAD_REACTORS
330
147
102
}
330
A
100
AcDbSymbolTableRecord
100
AcDbDimStyleTableRecord
  2
ME10_DIM_14
 70
     0
  3
<>
 41
3.5
 42
2.0
 44
2.0
 71
     1
 73
     0
 74
     0
 77
     1
 78
     8
140
3.5
146
0.7
147
2.0
172
     1
173
     1
176
     2
177
     2
178
     3
271
     2
272
     0
340
6E
  0
DIMSTYLE
105
151
102
{ACAD_REACTORS
330
152
102
}
330
A
100
AcDbSymbolTableRecord
100
AcDbDimStyleTableRecord
  2
ME10_DIM_15
 70
     0
  3
<>
 41
3.5
 42
2.0
 44
2.0
 71
     1
 73
     0
 74
     0
 77
     1
 78
     8
140
3.5
146
0.7
147
2.0
172
     1
173
     1
176
     2
177
     2
178
     3
271
     0
272
     0
340
6E
  0
DIMSTYLE
105
163
102
{ACAD_REACTORS
330
164
102
}
330
A
100
AcDbSymbolTableRecord
100
AcDbDimStyleTableRecord
  2
ME10_DIM_16
 70
     0
  3
<>
 41
3.5
 42
2.0
 44
2.0
 71
     1
 73
     0
 74
     0
 77
     1
 78
     8
140
3.5
146
0.7
147
2.0
172
     1
173
     1
176
     2
177
     2
178
     3
271
     2
272
     0
340
6E
  0
ENDTAB
  0
TABLE
  2
BLOCK_RECORD
  5
1
330
0
100
AcDbSymbolTable
 70
    10
  0
BLOCK_RECORD
  5
1F
330
1
100
AcDbSymbolTableRecord
100
AcDbBlockTableRecord
  2
*Model_Space
340
22
  0
BLOCK_RECORD
  5
1B
330
1
100
AcDbSymbolTableRecord
100
AcDbBlockTableRecord
  2
*Paper_Space
340
1E
  0
BLOCK_RECORD
  5
23
330
1
100
AcDbSymbolTableRecord
100
AcDbBlockTableRecord
  2
*Paper_Space0
340
26
  0
BLOCK_RECORD
  5
48
330
1
100
AcDbSymbolTableRecord
100
AcDbBlockTableRecord
  2
Urheberrecht_DE-EN_horizontal
340
0
102
{BLKREFS
331
6D
102
}
  0
BLOCK_RECORD
  5
111
330
1
100
AcDbSymbolTableRecord
100
AcDbBlockTableRecord
  2
*D2
340
0
  0
BLOCK_RECORD
  5
11C
330
1
100
AcDbSymbolTableRecord
100
AcDbBlockTableRecord
  2
*D3
340
0
  0
BLOCK_RECORD
  5
127
330
1
100
AcDbSymbolTableRecord
100
AcDbBlockTableRecord
  2
*D4
340
0
  0
BLOCK_RECORD
  5
132
330
1
100
AcDbSymbolTableRecord
100
AcDbBlockTableRecord
  2
*D5
340
0
  0
BLOCK_RECORD
  5
13D
330
1
100
AcDbSymbolTableRecord
100
AcDbBlockTableRecord
  2
*D6
340
0
  0
BLOCK_RECORD
  5
148
330
1
100
AcDbSymbolTableRecord
100
AcDbBlockTableRecord
  2
*D7
340
0
  0
BLOCK_RECORD
  5
153
330
1
100
AcDbSymbolTableRecord
100
AcDbBlockTableRecord
  2
*D8
340
0
102
{BLKREFS
331
159
102
}
  0
BLOCK_RECORD
  5
15A
330
1
100
AcDbSymbolTableRecord
100
AcDbBlockTableRecord
  2
*D9
340
0
  0
ENDTAB
  0
ENDSEC
  0
SECTION
  2
BLOCKS
  0
BLOCK
  5
20
330
1F
100
AcDbEntity
  8
0
100
AcDbBlockBegin
  2
*Model_Space
 70
     0
 10
0.0
 20
0.0
 30
0.0
  3
*Model_Space
  1

  0
ENDBLK
  5
21
330
1F
100
AcDbEntity
  8
0
100
AcDbBlockEnd
  0
BLOCK
  5
1C
330
1B
100
AcDbEntity
 67
     1
  8
0
100
AcDbBlockBegin
  2
*Paper_Space
 70
     0
 10
0.0
 20
0.0
 30
0.0
  3
*Paper_Space
  1

  0
ENDBLK
  5
1D
330
1B
100
AcDbEntity
 67
     1
  8
0
100
AcDbBlockEnd
  0
BLOCK
  5
24
330
23
100
AcDbEntity
  8
0
100
AcDbBlockBegin
  2
*Paper_Space0
 70
     0
 10
0.0
 20
0.0
 30
0.0
  3
*Paper_Space0
  1

  0
ENDBLK
  5
25
330
23
100
AcDbEntity
  8
0
100
AcDbBlockEnd
  0
BLOCK
  5
49
330
48
100
AcDbEntity
  8
0
100
AcDbBlockBegin
  2
Urheberrecht_DE-EN_horizontal
 70
     0
 10
135.626455052593
 20
274.659056205178
 30
0.0
  3
Urheberrecht_DE-EN_horizontal
  1

  0
MTEXT
  5
6F
330
48
100
AcDbEntity
  8
1
 62
     1
100
AcDbMText
 10
82.17267266323377
 20
267.8610481952737
 30
0.0
 40
2.0
 41
0.0
 71
     7
 72
     1
  1
F\U+00fcr diese Unterlage behalten wir das Ur-\Pheberrecht. Sie darf nur f\U+00fcr den von uns \Pbestimmten Zweck benutzt und ohne unsere \PZustimmung weder vervielf\U+00e4ltigt noch\PDritten zug\U+00e4nglich gemacht werden.
  7
CONVERTER_11
 73
     1
 44
0.90036014405762
  0
MTEXT
  5
70
330
48
100
AcDbEntity
  8
1
 62
     1
100
AcDbMText
 10
138.4620595805399
 20
267.8610481952737
 30
0.0
 40
2.0
 41
0.0
 71
     7
 72
     1
  1
We own the copyright of this document. It \Pdetermined and may neither be copied or \Pmade accessible to outsiders without our\Ppermission.
  7
CONVERTER_11
 73
     1
 44
0.90036014405762
  0
ENDBLK
  5
4A
330
48
100
AcDbEntity
  8
0
100
AcDbBlockEnd
  0
BLOCK
  5
118
330
111
100
AcDbEntity
  8
0
100
AcDbBlockBegin
  2
*D2
 70
     1
 10
0.0
 20
0.0
 30
0.0
  3
*D2
  1

  0
LINE
  5
112
330
111
100
AcDbEntity
  8
1
  6
Continuous
 62
     2
100
AcDbLine
 10
192.420730667848
 20
316.6966490964
 30
0.0
 11
192.420730667848
 21
302.6966490964
 31
0.0
  0
LINE
  5
113
330
111
100
AcDbEntity
  8
1
  6
Continuous
 62
     2
100
AcDbLine
 10
184.6198042169
 20
316.6966490964
 30
0.0
 11
194.420730667848
 21
316.6966490964
 31
0.0
  0
LINE
  5
114
330
111
100
AcDbEntity
  8
1
  6
Continuous
 62
     2
100
AcDbLine
 10
184.6198042169
 20
302.6966490964
 30
0.0
 11
194.420730667848
 21
302.6966490964
 31
0.0
  0
SOLID
  5
115
330
111
100
AcDbEntity
  8
1
 62
     2
100
AcDbTrace
 10
192.8815144094039
 20
313.1966490964
 30
0.0
 11
191.9599469262921
 21
313.1966490964
 31
0.0
 12
192.420730667848
 22
316.6966490964
 32
0.0
 13
192.420730667848
 23
316.6966490964
 33
0.0
  0
SOLID
  5
116
330
111
100
AcDbEntity
  8
1
 62
     2
100
AcDbTrace
 10
191.9599469262921
 20
306.1966490964
 30
0.0
 11
192.8815144094039
 21
306.1966490964
 31
0.0
 12
192.420730667848
 22
302.6966490964
 32
0.0
 13
192.420730667848
 23
302.6966490964
 33
0.0
  0
MTEXT
  5
117
330
111
100
AcDbEntity
  8
1
 62
     3
100
AcDbMText
 10
190.420730667848
 20
300.885488804418
 30
0.0
 40
3.5
 41
0.0
 71
     7
 72
     1
  1
\C3;%%c\C3;\C3;14\C2;\H2.45;\S^ ;\C3;
  7
CONVERTER_11
 11
0.0
 21
1.0
 31
0.0
 73
     1
 44
0.60024009603842
  0
ENDBLK
  5
119
330
111
100
AcDbEntity
  8
0
100
AcDbBlockEnd
  0
BLOCK
  5
123
330
11C
100
AcDbEntity
  8
0
100
AcDbBlockBegin
  2
*D3
 70
     1
 10
0.0
 20
0.0
 30
0.0
  3
*D3
  1

  0
LINE
  5
11D
330
11C
100
AcDbEntity
  8
1
  6
Continuous
 62
     2
100
AcDbLine
 10
200.749999575847
 20
323.1966490964527
 30
0.0
 11
200.749999575847
 21
296.1966490963487
 31
0.0
  0
LINE
  5
11E
330
11C
100
AcDbEntity
  8
1
  6
Continuous
 62
     2
100
AcDbLine
 10
184.6198042169094
 20
323.1966490964527
 30
0.0
 11
202.749999575847
 21
323.1966490964527
 31
0.0
  0
LINE
  5
11F
330
11C
100
AcDbEntity
  8
1
  6
Continuous
 62
     2
100
AcDbLine
 10
184.6198042169
 20
296.1966490963487
 30
0.0
 11
202.749999575847
 21
296.1966490963487
 31
0.0
  0
SOLID
  5
120
330
11C
100
AcDbEntity
  8
1
 62
     2
100
AcDbTrace
 10
201.2107833174029
 20
319.6966490964527
 30
0.0
 11
200.2892158342911
 21
319.6966490964527
 31
0.0
 12
200.749999575847
 22
323.1966490964527
 32
0.0
 13
200.749999575847
 23
323.1966490964527
 33
0.0
  0
SOLID
  5
121
330
11C
100
AcDbEntity
  8
1
 62
     2
100
AcDbTrace
 10
200.2892158342911
 20
299.6966490963487
 30
0.0
 11
201.2107833174029
 21
299.6966490963487
 31
0.0
 12
200.749999575847
 22
296.1966490963487
 32
0.0
 13
200.749999575847
 23
296.1966490963487
 33
0.0
  0
MTEXT
  5
122
330
11C
100
AcDbEntity
  8
1
 62
     3
100
AcDbMText
 10
198.749999575847
 20
300.703467916075
 30
0.0
 40
3.5
 41
0.0
 71
     7
 72
     1
  1
\C3;%%c\C3;\C3;27\C2;\H2.45;\S^ ;\C3;
  7
CONVERTER_11
 11
0.0
 21
1.0
 31
0.0
 73
     1
 44
0.60024009603842
  0
ENDBLK
  5
124
330
11C
100
AcDbEntity
  8
0
100
AcDbBlockEnd
  0
BLOCK
  5
12E
330
127
100
AcDbEntity
  8
0
100
AcDbBlockBegin
  2
*D4
 70
     1
 10
0.0
 20
0.0
 30
0.0
  3
*D4
  1

  0
LINE
  5
128
330
127
100
AcDbEntity
  8
1
  6
Continuous
 62
     2
100
AcDbLine
 10
208.424825926789
 20
326.6966490964
 30
0.0
 11
208.424825926789
 21
292.6966490964
 31
0.0
  0
LINE
  5
129
330
127
100
AcDbEntity
  8
1
  6
Continuous
 62
     2
100
AcDbLine
 10
140.1480876403
 20
326.6966490964
 30
0.0
 11
210.424825926789
 21
326.6966490964
 31
0.0
  0
LINE
  5
12A
330
127
100
AcDbEntity
  8
1
  6
Continuous
 62
     2
100
AcDbLine
 10
140.1480876403
 20
292.6966490964
 30
0.0
 11
210.424825926789
 21
292.6966490964
 31
0.0
  0
SOLID
  5
12B
330
127
100
AcDbEntity
  8
1
 62
     2
100
AcDbTrace
 10
208.8856096683449
 20
323.1966490964
 30
0.0
 11
207.9640421852331
 21
323.1966490964
 31
0.0
 12
208.424825926789
 22
326.6966490964
 32
0.0
 13
208.424825926789
 23
326.6966490964
 33
0.0
  0
SOLID
  5
12C
330
127
100
AcDbEntity
  8
1
 62
     2
100
AcDbTrace
 10
207.9640421852331
 20
296.1966490964
 30
0.0
 11
208.8856096683449
 21
296.1966490964
 31
0.0
 12
208.424825926789
 22
292.6966490964
 32
0.0
 13
208.424825926789
 23
292.6966490964
 33
0.0
  0
MTEXT
  5
12D
330
127
100
AcDbEntity
  8
1
 62
     3
100
AcDbMText
 10
206.424825926789
 20
301.000941805646
 30
0.0
 40
3.5
 41
0.0
 71
     7
 72
     1
  1
\C3;%%c\C3;\C3;34\C2;\H2.45;\S^ ;\C3;
  7
CONVERTER_11
 11
0.0
 21
1.0
 31
0.0
 73
     1
 44
0.60024009603842
  0
ENDBLK
  5
12F
330
127
100
AcDbEntity
  8
0
100
AcDbBlockEnd
  0
BLOCK
  5
139
330
132
100
AcDbEntity
  8
0
100
AcDbBlockBegin
  2
*D5
 70
     1
 10
0.0
 20
0.0
 30
0.0
  3
*D5
  1

  0
LINE
  5
133
330
132
100
AcDbEntity
  8
1
  6
Continuous
 62
     2
100
AcDbLine
 10
182.6198042169
 20
342.237552786115
 30
0.0
 11
118.5698042169
 21
342.237552786115
 31
0.0
  0
LINE
  5
134
330
132
100
AcDbEntity
  8
1
  6
Continuous
 62
     2
100
AcDbLine
 10
182.6198042169
 20
324.2722586047
 30
0.0
 11
182.6198042169
 21
344.237552786115
 31
0.0
  0
LINE
  5
135
330
132
100
AcDbEntity
  8
1
  6
Continuous
 62
     2
100
AcDbLine
 10
118.5698042169
 20
336.6965990779
 30
0.0
 11
118.5698042169
 21
344.237552786115
 31
0.0
  0
SOLID
  5
136
330
132
100
AcDbEntity
  8
1
 62
     2
100
AcDbTrace
 10
179.1198042169
 20
341.7767690445591
 30
0.0
 11
179.1198042169
 21
342.6983365276708
 31
0.0
 12
182.6198042169
 22
342.237552786115
 32
0.0
 13
182.6198042169
 23
342.237552786115
 33
0.0
  0
SOLID
  5
137
330
132
100
AcDbEntity
  8
1
 62
     2
100
AcDbTrace
 10
122.0698042169
 20
342.6983365276708
 30
0.0
 11
122.0698042169
 21
341.7767690445591
 31
0.0
 12
118.5698042169
 22
342.237552786115
 32
0.0
 13
118.5698042169
 23
342.237552786115
 33
0.0
  0
MTEXT
  5
138
330
132
100
AcDbEntity
  8
1
 62
     3
100
AcDbMText
 10
147.455086551169
 20
344.237552786115
 30
0.0
 40
3.5
 41
0.0
 71
     7
 72
     1
  1
\C3;\C3;\C3;64\C2;\H2.45;\S^ ;\C3;
  7
CONVERTER_11
 11
0.9999999999970619
 21
2.424068405545306E-6
 31
0.0
 73
     1
 44
0.60024009603842
  0
ENDBLK
  5
13A
330
132
100
AcDbEntity
  8
0
100
AcDbBlockEnd
  0
BLOCK
  5
144
330
13D
100
AcDbEntity
  8
0
100
AcDbBlockBegin
  2
*D6
 70
     1
 10
0.0
 20
0.0
 30
0.0
  3
*D6
  1

  0
LINE
  5
13E
330
13D
100
AcDbEntity
  8
1
  6
Continuous
 62
     2
100
AcDbLine
 10
182.6198042169
 20
349.131313038416
 30
0.0
 11
92.6198042169
 21
349.131313038416
 31
0.0
  0
LINE
  5
13F
330
13D
100
AcDbEntity
  8
1
  6
Continuous
 62
     2
100
AcDbLine
 10
182.6198042169
 20
324.2722586047
 30
0.0
 11
182.6198042169
 21
351.131313038416
 31
0.0
  0
LINE
  5
140
330
13D
100
AcDbEntity
  8
1
  6
Continuous
 62
     2
100
AcDbLine
 10
92.6198042169
 20
336.6966490964
 30
0.0
 11
92.6198042169
 21
351.131313038416
 31
0.0
  0
SOLID
  5
141
330
13D
100
AcDbEntity
  8
1
 62
     2
100
AcDbTrace
 10
179.1198042169
 20
348.6705292968601
 30
0.0
 11
179.1198042169
 21
349.5920967799719
 31
0.0
 12
182.6198042169
 22
349.131313038416
 32
0.0
 13
182.6198042169
 23
349.131313038416
 33
0.0
  0
SOLID
  5
142
330
13D
100
AcDbEntity
  8
1
 62
     2
100
AcDbTrace
 10
96.1198042169
 20
349.5920967799719
 30
0.0
 11
96.1198042169
 21
348.6705292968601
 31
0.0
 12
92.6198042169
 22
349.131313038416
 32
0.0
 13
92.6198042169
 23
349.131313038416
 33
0.0
  0
MTEXT
  5
143
330
13D
100
AcDbEntity
  8
1
 62
     3
100
AcDbMText
 10
133.902580600622
 20
351.131313038416
 30
0.0
 40
3.5
 41
0.0
 71
     7
 72
     1
  1
\C3;\C3;\C3;90\C2;\H2.45;\S^ ;\C3;
  7
CONVERTER_11
 11
0.9999999999970619
 21
2.424068405545306E-6
 31
0.0
 73
     1
 44
0.60024009603842
  0
ENDBLK
  5
145
330
13D
100
AcDbEntity
  8
0
100
AcDbBlockEnd
  0
BLOCK
  5
14F
330
148
100
AcDbEntity
  8
0
100
AcDbBlockBegin
  2
*D7
 70
     1
 10
0.0
 20
0.0
 30
0.0
  3
*D7
  1

  0
LINE
  5
149
330
148
100
AcDbEntity
  8
1
  6
Continuous
 62
     2
100
AcDbLine
 10
182.6198042169
 20
356.333041623638
 30
0.0
 11
67.7198042169
 21
356.333041623638
 31
0.0
  0
LINE
  5
14A
330
148
100
AcDbEntity
  8
1
  6
Continuous
 62
     2
100
AcDbLine
 10
182.6198042169
 20
324.2722586047
 30
0.0
 11
182.6198042169
 21
358.333041623638
 31
0.0
  0
LINE
  5
14B
330
148
100
AcDbEntity
  8
1
  6
Continuous
 62
     2
100
AcDbLine
 10
67.7198042169
 20
328.7530048776
 30
0.0
 11
67.7198042169
 21
358.333041623638
 31
0.0
  0
SOLID
  5
14C
330
148
100
AcDbEntity
  8
1
 62
     2
100
AcDbTrace
 10
179.1198042169
 20
355.8722578820821
 30
0.0
 11
179.1198042169
 21
356.7938253651939
 31
0.0
 12
182.6198042169
 22
356.333041623638
 32
0.0
 13
182.6198042169
 23
356.333041623638
 33
0.0
  0
SOLID
  5
14D
330
148
100
AcDbEntity
  8
1
 62
     2
100
AcDbTrace
 10
71.2198042169
 20
356.7938253651939
 30
0.0
 11
71.2198042169
 21
355.8722578820821
 31
0.0
 12
67.7198042169
 22
356.333041623638
 32
0.0
 13
67.7198042169
 23
356.333041623638
 33
0.0
  0
MTEXT
  5
14E
330
148
100
AcDbEntity
  8
1
 62
     3
100
AcDbMText
 10
124.107508263112
 20
358.333041623638
 30
0.0
 40
3.5
 41
0.0
 71
     7
 72
     1
  1
\C3;\C3;\C3;115\C2;\H2.45;\S^ ;\C3;
  7
CONVERTER_11
 11
0.9999999999970619
 21
2.424068405545306E-6
 31
0.0
 73
     1
 44
0.60024009603842
  0
ENDBLK
  5
150
330
148
100
AcDbEntity
  8
0
100
AcDbBlockEnd
  0
BLOCK
  5
157
330
153
100
AcDbEntity
  8
0
100
AcDbBlockBegin
  2
*D8
 70
     1
 10
0.0
 20
0.0
 30
0.0
  3
*D8
  1

  0
LINE
  5
154
330
153
100
AcDbEntity
  8
1
  6
Continuous
 62
     2
100
AcDbLine
 10
127.3506430431673
 20
332.9623750241843
 30
0.0
 11
118.876923171108
 21
327.6316825406819
 31
0.0
  0
SOLID
  5
155
330
153
100
AcDbEntity
  8
1
 62
     2
100
AcDbTrace
 10
121.5941053641562
 20
329.8854000443331
 30
0.0
 11
122.0848246383319
 21
329.105347982044
 31
0.0
 12
118.876923171108
 22
327.6316825406819
 32
0.0
 13
118.876923171108
 23
327.6316825406819
 33
0.0
  0
MTEXT
  5
156
330
153
100
AcDbEntity
  8
1
 62
     3
100
AcDbMText
 10
120.0050878075608
 20
330.704230148262
 30
0.0
 40
3.5
 41
0.0
 71
     7
 72
     1
  1
\C3; R\C3;\C3;2\C2;\H2.45;\S^ ;\C3;
  7
CONVERTER_11
 11
0.8464405228960094
 21
0.5324832778590612
 31
0.0
 73
     1
 44
0.60024009603842
  0
ENDBLK
  5
158
330
153
100
AcDbEntity
  8
0
100
AcDbBlockEnd
  0
BLOCK
  5
161
330
15A
100
AcDbEntity
  8
0
100
AcDbBlockBegin
  2
*D9
 70
     1
 10
0.0
 20
0.0
 30
0.0
  3
*D9
  1

  0
LINE
  5
15B
330
15A
100
AcDbEntity
  8
1
  6
Continuous
 62
     2
100
AcDbLine
 10
164.2968057320394
 20
326.6966490964001
 30
0.0
 11
166.2968057320394
 21
326.6966490964001
 31
0.0
  0
LINE
  5
15C
330
15A
100
AcDbEntity
  8
1
  6
Continuous
 62
     2
100
AcDbLine
 10
140.1480876403
 20
326.6966490964001
 30
0.0
 11
164.2968057320394
 21
326.6966490964001
 31
0.0
  0
ARC
  5
15D
330
15A
100
AcDbEntity
  8
1
  6
Continuous
 62
     2
100
AcDbCircle
 10
138.1480876403
 20
326.6966490964001
 30
0.0
 40
26.14871809173941
100
AcDbArc
 50
343.9964593144642
 51
18.76141180861827
  0
SOLID
  5
15E
330
15A
100
AcDbEntity
  8
1
 62
     2
100
AcDbTrace
 10
164.1647823630904
 20
321.1152173994118
 30
0.0
 11
163.2529478740088
 21
321.2488006710076
 31
0.0
 12
164.2161979608571
 22
324.6450443204929
 32
0.0
 13
164.2161979608571
 23
324.6450443204929
 33
0.0
  0
SOLID
  5
15F
330
15A
100
AcDbEntity
  8
1
 62
     2
100
AcDbTrace
 10
163.6029912293487
 20
330.1579989909265
 30
0.0
 11
164.5224956597036
 21
330.2196287604108
 31
0.0
 12
164.2968057320394
 22
326.6966490964001
 32
0.0
 13
164.2968057320394
 23
326.6966490964001
 33
0.0
  0
MTEXT
  5
160
330
15A
100
AcDbEntity
  8
1
 62
     3
100
AcDbMText
 10
165.0105059371039
 20
335.8211785886945
 30
0.0
 40
3.5
 41
0.0
 71
     7
 72
     1
  1
\C3;\C3;\C3;4.5%%d\C2;\H2.45;\S^ ;\C3;
  7
CONVERTER_11
 11
0.2011379171241856
 21
-0.9795629322789549
 31
0.0
 73
     1
 44
0.60024009603842
  0
ENDBLK
  5
162
330
15A
100
AcDbEntity
  8
0
100
AcDbBlockEnd
  0
ENDSEC
  0
SECTION
  2
ENTITIES
  0
INSERT
  5
6D
330
1F
100
AcDbEntity
  8
0
100
AcDbBlockReference
  2
Urheberrecht_DE-EN_horizontal
 10
135.626455052593
 20
274.659056205178
 30
0.0
  0
LINE
  5
71
330
1F
100
AcDbEntity
  8
0
  6
Continuous
 62
     7
100
AcDbLine
 10
67.7198042169
 20
292.640293315
 30
0.0
 11
67.7198042169
 21
303.2766490964
 31
0.0
  0
LINE
  5
72
330
1F
100
AcDbEntity
  8
0
  6
Continuous
 62
     7
100
AcDbLine
 10
67.7198042169
 20
316.1166490964
 30
0.0
 11
67.7198042169
 21
326.7530048776
 31
0.0
  0
LINE
  5
73
330
1F
100
AcDbEntity
  8
0
  6
Continuous
 62
     9
100
AcDbLine
 10
68.6697669745
 20
327.7517522305
 30
0.0
 11
68.6697669745
 21
317.5451616424
 31
0.0
  0
LINE
  5
74
330
1F
100
AcDbEntity
  8
0
  6
Continuous
 62
     9
100
AcDbLine
 10
68.6697669745
 20
301.8481365504
 30
0.0
 11
68.6697669745
 21
291.6415459622
 31
0.0
  0
LINE
  5
75
330
1F
100
AcDbEntity
  8
0
  6
Continuous
 62
     7
100
AcDbLine
 10
68.8698042169
 20
303.3872893369
 30
0.0
 11
68.8698042169
 21
304.4266490964
 31
0.0
  0
LINE
  5
76
330
1F
100
AcDbEntity
  8
0
  6
Continuous
 62
     7
100
AcDbLine
 10
68.8698042169
 20
314.9666490964
 30
0.0
 11
68.8698042169
 21
316.0060088559
 31
0.0
  0
LINE
  5
77
330
1F
100
AcDbEntity
  8
RUNDUNGEN
  6
Continuous
 62
     9
100
AcDbLine
 10
70.9198042169
 20
301.5921782988
 30
0.0
 11
70.9198042169
 21
304.4266490964
 31
0.0
  0
LINE
  5
78
330
1F
100
AcDbEntity
  8
RUNDUNGEN
  6
Continuous
 62
     9
100
AcDbLine
 10
70.9198042169
 20
314.9666490964
 30
0.0
 11
70.9198042169
 21
317.801119894
 31
0.0
  0
LINE
  5
79
330
1F
100
AcDbEntity
  8
RUNDUNGEN
  6
Continuous
 62
     7
100
AcDbLine
 10
72.3198042169
 20
315.6277993432
 30
0.0
 11
72.3198042169
 21
303.7654988496
 31
0.0
  0
LINE
  5
7A
330
1F
100
AcDbEntity
  8
0
  6
Continuous
 62
     7
100
AcDbLine
 10
68.4562944267
 20
302.0466490964
 30
0.0
 11
68.4078749479
 21
301.9606913904
 31
0.0
  0
LINE
  5
7B
330
1F
100
AcDbEntity
  8
0
  6
Continuous
 62
     7
100
AcDbLine
 10
68.4078749479
 20
317.4326068024
 30
0.0
 11
68.4562944267
 21
317.3466490964
 31
0.0
  0
LWPOLYLINE
  5
7C
330
1F
100
AcDbEntity
  8
BEZUGSACHSEN
  6
DOT_CENTER
 62
     7
100
AcDbPolyline
 90
        2
 70
     0
 43
0.25
 10
85.1198042169
 20
303.6966490964
 10
85.1198042169
 20
315.6966490964
  0
LINE
  5
7D
330
1F
100
AcDbEntity
  8
0
  6
Continuous
 62
     7
100
AcDbLine
 10
90.6198042169
 20
328.8514490964
 30
0.0
 11
90.6198042169
 21
290.5418490964
 31
0.0
  0
LINE
  5
7E
330
1F
100
AcDbEntity
  8
0
  6
Continuous
 62
     9
100
AcDbLine
 10
91.2899144499
 20
290.7214045922
 30
0.0
 11
91.2899144499
 21
328.6718936006
 31
0.0
  0
LINE
  5
7F
330
1F
100
AcDbEntity
  8
0
  6
Continuous
 62
     9
100
AcDbLine
 10
91.4452058769
 20
290.7418490964
 30
0.0
 11
91.4452058769
 21
328.6514490964
 31
0.0
  0
LINE
  5
80
330
1F
100
AcDbEntity
  8
0
  6
Continuous
 62
     7
100
AcDbLine
 10
67.7198042169
 20
303.2766490964
 30
0.0
 11
68.8698042169
 21
304.4266490964
 31
0.0
  0
LINE
  5
81
330
1F
100
AcDbEntity
  8
0
  6
Continuous
 62
     7
100
AcDbLine
 10
68.8698042169
 20
314.9666490964
 30
0.0
 11
67.7198042169
 21
316.1166490964
 31
0.0
  0
LINE
  5
82
330
1F
100
AcDbEntity
  8
0
  6
Continuous
 62
     9
100
AcDbLine
 10
92.3176345863
 20
290.7418490964
 30
0.0
 11
92.3176345863
 21
328.6514490964
 31
0.0
  0
LINE
  5
83
330
1F
100
AcDbEntity
  8
0
  6
Continuous
 62
     7
100
AcDbLine
 10
92.6198042169
 20
334.6966490964
 30
0.0
 11
92.6198042169
 21
284.6966490964
 31
0.0
  0
LWPOLYLINE
  5
84
330
1F
100
AcDbEntity
  8
BEZUGSACHSEN
  6
DOT_CENTER
 62
     7
100
AcDbPolyline
 90
        2
 70
     0
 43
0.25
 10
99.6198042169
 20
340.5915465242
 10
99.6198042169
 20
326.5915465242
  0
LINE
  5
85
330
1F
100
AcDbEntity
  8
0
  6
Continuous
 62
     7
100
AcDbLine
 10
112.5323042169
 20
332.1341962659
 30
0.0
 11
114.0117370484
 21
334.6966490964
 31
0.0
  0
LINE
  5
86
330
1F
100
AcDbEntity
  8
0
  6
Continuous
 62
     9
100
AcDbLine
 10
67.7198042169
 20
302.7395009854
 30
0.0
 11
68.8698042169
 21
303.3872893369
 31
0.0
  0
LINE
  5
87
330
1F
100
AcDbEntity
  8
0
  6
Continuous
 62
     7
100
AcDbLine
 10
107.2278713854
 20
284.6966490964
 30
0.0
 11
92.6198042169
 21
284.6966490964
 31
0.0
  0
LINE
  5
88
330
1F
100
AcDbEntity
  8
0
  6
Continuous
 62
     7
100
AcDbLine
 10
114.0117370484
 20
284.6966490964
 30
0.0
 11
118.5698042169
 21
284.6966490964
 31
0.0
  0
LINE
  5
89
330
1F
100
AcDbEntity
  8
0
  6
Continuous
 62
     9
100
AcDbLine
 10
68.8698042169
 20
316.0060088559
 30
0.0
 11
67.7198042169
 21
316.6537972074
 31
0.0
  0
LINE
  5
8A
330
1F
100
AcDbEntity
  8
0
  6
Continuous
 62
     7
100
AcDbLine
 10
112.5323042169
 20
287.2591019269
 30
0.0
 11
114.0117370484
 21
284.6966490964
 31
0.0
  0
LINE
  5
8B
330
1F
100
AcDbEntity
  8
FASEN
  6
Continuous
 62
     9
100
AcDbLine
 10
105.3134904898
 20
293.9466490964
 30
0.0
 11
105.3134904898
 21
294.3466490964
 31
0.0
  0
LINE
  5
8C
330
1F
100
AcDbEntity
  8
FASEN
  6
Continuous
 62
     9
100
AcDbLine
 10
105.5873042169
 20
304.0791490964
 30
0.0
 11
105.5873042169
 21
303.6791490964
 31
0.0
  0
LINE
  5
8D
330
1F
100
AcDbEntity
  8
FASEN
  6
Continuous
 62
     9
100
AcDbLine
 10
105.5873042169
 20
315.3141490964
 30
0.0
 11
105.5873042169
 21
315.7141490964
 31
0.0
  0
LINE
  5
8E
330
1F
100
AcDbEntity
  8
0
  6
Continuous
 62
     7
100
AcDbLine
 10
107.2278713854
 20
334.6966490964
 30
0.0
 11
107.2278713854
 21
315.7141490964
 31
0.0
  0
LINE
  5
8F
330
1F
100
AcDbEntity
  8
0
  6
Continuous
 62
     7
100
AcDbLine
 10
107.2278713854
 20
303.6791490964
 30
0.0
 11
107.2278713854
 21
294.3466490964
 31
0.0
  0
LINE
  5
90
330
1F
100
AcDbEntity
  8
0
  6
Continuous
 62
     7
100
AcDbLine
 10
107.2278713854
 20
289.9639984888
 30
0.0
 11
107.2278713854
 21
284.6966490964
 31
0.0
  0
LINE
  5
91
330
1F
100
AcDbEntity
  8
0
  6
Continuous
 62
     7
100
AcDbLine
 10
108.7073042169
 20
332.1341416537
 30
0.0
 11
108.7073042169
 21
315.7141490964
 31
0.0
  0
LINE
  5
92
330
1F
100
AcDbEntity
  8
0
  6
Continuous
 62
     7
100
AcDbLine
 10
108.7073042169
 20
303.6791490964
 30
0.0
 11
108.7073042169
 21
294.3466490964
 31
0.0
  0
LINE
  5
93
330
1F
100
AcDbEntity
  8
0
  6
Continuous
 62
     7
100
AcDbLine
 10
108.7073042169
 20
287.2591157681
 30
0.0
 11
108.7073042169
 21
293.6240598526
 31
0.0
  0
LINE
  5
94
330
1F
100
AcDbEntity
  8
RUNDUNGEN
  6
Continuous
 62
     7
100
AcDbLine
 10
181.6982633126
 20
296.1241222543
 30
0.0
 11
138.1480876403
 21
292.6966490964
 31
0.0
  0
LINE
  5
95
330
1F
100
AcDbEntity
  8
0
  6
Continuous
 62
     7
100
AcDbLine
 10
138.1480876403
 20
292.6966490964
 30
0.0
 11
181.6982633126
 21
296.1241222543
 31
0.0
  0
LINE
  5
96
330
1F
100
AcDbEntity
  8
0
  6
Continuous
 62
     7
100
AcDbLine
 10
109.4573042169
 20
288.2216490964
 30
0.0
 11
111.7823042169
 21
288.2216490964
 31
0.0
  0
LINE
  5
97
330
1F
100
AcDbEntity
  8
0
  6
Continuous
 62
     7
100
AcDbLine
 10
99.9521304997
 20
289.9639984888
 30
0.0
 11
107.2278713854
 21
289.9639984888
 31
0.0
  0
LINE
  5
98
330
1F
100
AcDbEntity
  8
0
  6
Continuous
 62
     7
100
AcDbLine
 10
114.0117370484
 20
289.9639984888
 30
0.0
 11
118.5698042169
 21
289.9639984888
 31
0.0
  0
LINE
  5
99
330
1F
100
AcDbEntity
  8
0
  6
Continuous
 62
     7
100
AcDbLine
 10
92.3176345863
 20
290.7418490964
 30
0.0
 11
91.4452058769
 21
290.7418490964
 31
0.0
  0
LINE
  5
9A
330
1F
100
AcDbEntity
  8
0
  6
Continuous
 62
     7
100
AcDbLine
 10
90.6198042169
 20
290.5418490964
 30
0.0
 11
68.6697669745
 21
291.6415459622
 31
0.0
  0
LINE
  5
9B
330
1F
100
AcDbEntity
  8
0
  6
Continuous
 62
     9
100
AcDbLine
 10
109.4573042169
 20
288.2216490964
 30
0.0
 11
109.4573042169
 21
304.7604942163
 31
0.0
  0
LINE
  5
9C
330
1F
100
AcDbEntity
  8
0
  6
Continuous
 62
     9
100
AcDbLine
 10
109.4573042169
 20
314.6328039765
 30
0.0
 11
109.4573042169
 21
331.1716490964
 31
0.0
  0
LINE
  5
9D
330
1F
100
AcDbEntity
  8
0
  6
Continuous
 62
     9
100
AcDbLine
 10
111.7823042169
 20
288.2216490964
 30
0.0
 11
111.7823042169
 21
304.7604942163
 31
0.0
  0
LINE
  5
9E
330
1F
100
AcDbEntity
  8
0
  6
Continuous
 62
     9
100
AcDbLine
 10
111.7823042169
 20
314.6328039765
 30
0.0
 11
111.7823042169
 21
331.1716490964
 31
0.0
  0
LINE
  5
9F
330
1F
100
AcDbEntity
  8
0
  6
Continuous
 62
     7
100
AcDbLine
 10
112.5323042169
 20
303.6791490964
 30
0.0
 11
112.5323042169
 21
294.3466490964
 31
0.0
  0
LINE
  5
A0
330
1F
100
AcDbEntity
  8
0
  6
Continuous
 62
     7
100
AcDbLine
 10
112.5323042169
 20
287.2591157681
 30
0.0
 11
112.5323042169
 21
293.6240598526
 31
0.0
  0
LINE
  5
A1
330
1F
100
AcDbEntity
  8
0
  6
Continuous
 62
     7
100
AcDbLine
 10
112.5323042169
 20
315.7141490964
 30
0.0
 11
112.5323042169
 21
332.1341416537
 31
0.0
  0
LINE
  5
A2
330
1F
100
AcDbEntity
  8
RUNDUNGEN
  6
Continuous
 62
     7
100
AcDbLine
 10
138.1480876403
 20
292.6966490964
 30
0.0
 11
120.5698042169
 21
292.6966490964
 31
0.0
  0
LINE
  5
A3
330
1F
100
AcDbEntity
  8
0
  6
Continuous
 62
     7
100
AcDbLine
 10
120.5698042169
 20
292.6966490964
 30
0.0
 11
138.1480876403
 21
292.6966490964
 31
0.0
  0
LINE
  5
A4
330
1F
100
AcDbEntity
  8
0
  6
Continuous
 62
     7
100
AcDbLine
 10
105.3134904898
 20
293.9466490964
 30
0.0
 11
108.7441411111
 21
293.9466490964
 31
0.0
  0
LINE
  5
A5
330
1F
100
AcDbEntity
  8
0
  6
Continuous
 62
     7
100
AcDbLine
 10
112.4954673227
 20
293.9466490964
 30
0.0
 11
118.5698042169
 21
293.9466490964
 31
0.0
  0
LINE
  5
A6
330
1F
100
AcDbEntity
  8
0
  6
Continuous
 62
     7
100
AcDbLine
 10
105.3134904898
 20
294.3466490964
 30
0.0
 11
108.7441411111
 21
294.3466490964
 31
0.0
  0
LINE
  5
A7
330
1F
100
AcDbEntity
  8
0
  6
Continuous
 62
     7
100
AcDbLine
 10
112.4954673227
 20
294.3466490964
 30
0.0
 11
118.5698042169
 21
294.3466490964
 31
0.0
  0
LINE
  5
A8
330
1F
100
AcDbEntity
  8
0
  6
Continuous
 62
     7
100
AcDbLine
 10
114.0117370484
 20
303.6791490964
 30
0.0
 11
114.0117370484
 21
294.3466490964
 31
0.0
  0
LINE
  5
A9
330
1F
100
AcDbEntity
  8
0
  6
Continuous
 62
     7
100
AcDbLine
 10
114.0117370484
 20
284.6966490964
 30
0.0
 11
114.0117370484
 21
289.9639984888
 31
0.0
  0
LINE
  5
AA
330
1F
100
AcDbEntity
  8
0
  6
Continuous
 62
     7
100
AcDbLine
 10
114.0117370484
 20
315.7141490964
 30
0.0
 11
114.0117370484
 21
334.6966490964
 31
0.0
  0
LINE
  5
AB
330
1F
100
AcDbEntity
  8
0
  6
Continuous
 62
     7
100
AcDbLine
 10
91.2899144499
 20
290.7214045922
 30
0.0
 11
90.6198042169
 21
290.5418490964
 31
0.0
  0
LINE
  5
AC
330
1F
100
AcDbEntity
  8
0
  6
Continuous
 62
     7
100
AcDbLine
 10
118.5698042169
 20
334.6965990779
 30
0.0
 11
118.5698042169
 21
315.7141490964
 31
0.0
  0
LINE
  5
AD
330
1F
100
AcDbEntity
  8
0
  6
Continuous
 62
     7
100
AcDbLine
 10
118.5698042169
 20
303.6791490964
 30
0.0
 11
118.5698042169
 21
294.3466490964
 31
0.0
  0
LINE
  5
AE
330
1F
100
AcDbEntity
  8
0
  6
Continuous
 62
     7
100
AcDbLine
 10
118.5698042169
 20
289.9639984888
 30
0.0
 11
118.5698042169
 21
284.6966626405
 31
0.0
  0
LINE
  5
AF
330
1F
100
AcDbEntity
  8
FASEN
  6
Continuous
 62
     7
100
AcDbLine
 10
118.5698042169
 20
289.9639984888
 30
0.0
 11
118.5698042169
 21
294.3466490964
 31
0.0
  0
LINE
  5
B0
330
1F
100
AcDbEntity
  8
FASEN
  6
Continuous
 62
     7
100
AcDbLine
 10
118.5698042169
 20
303.6791490964
 30
0.0
 11
118.5698042169
 21
315.7141490964
 31
0.0
  0
LINE
  5
B1
330
1F
100
AcDbEntity
  8
RUNDUNGEN
  6
Continuous
 62
     9
100
AcDbLine
 10
120.5698042169
 20
326.6966490964
 30
0.0
 11
120.5698042169
 21
292.6966490964
 31
0.0
  0
LINE
  5
B2
330
1F
100
AcDbEntity
  8
RUNDUNGEN
  6
Continuous
 62
     9
100
AcDbLine
 10
71.7378623931
 20
302.0466490964
 30
0.0
 11
70.9198042169
 21
302.0466490964
 31
0.0
  0
LINE
  5
B3
330
1F
100
AcDbEntity
  8
0
  6
Continuous
 62
     9
100
AcDbLine
 10
70.9198042169
 20
302.0466490964
 30
0.0
 11
68.4562944267
 21
302.0466490964
 31
0.0
  0
LWPOLYLINE
  5
B4
330
1F
100
AcDbEntity
  8
BOHRUNGEN
  6
DASHED
 62
     8
100
AcDbPolyline
 90
        2
 70
     0
 43
0.35
 10
182.6198042169
 20
302.6966490964
 10
135.6198042169
 20
302.6966490964
  0
LINE
  5
B5
330
1F
100
AcDbEntity
  8
0
  6
Continuous
 62
     7
100
AcDbLine
 10
105.5873042169
 20
303.6791490964
 30
0.0
 11
108.7073042169
 21
303.6791490964
 31
0.0
  0
LINE
  5
B6
330
1F
100
AcDbEntity
  8
0
  6
Continuous
 62
     7
100
AcDbLine
 10
112.5323042169
 20
303.6791490964
 30
0.0
 11
118.5698042169
 21
303.6791490964
 31
0.0
  0
LINE
  5
B7
330
1F
100
AcDbEntity
  8
0
  6
Continuous
 62
     7
100
AcDbLine
 10
118.5698042169
 20
304.0791490964
 30
0.0
 11
112.2538393641
 21
304.0791490964
 31
0.0
  0
LINE
  5
B8
330
1F
100
AcDbEntity
  8
0
  6
Continuous
 62
     7
100
AcDbLine
 10
108.9857690696
 20
304.0791490964
 30
0.0
 11
105.5873042169
 21
304.0791490964
 31
0.0
  0
LINE
  5
B9
330
1F
100
AcDbEntity
  8
0
  6
Continuous
 62
     7
100
AcDbLine
 10
70.9198042169
 20
304.4266490964
 30
0.0
 11
68.8698042169
 21
304.4266490964
 31
0.0
  0
LINE
  5
BA
330
1F
100
AcDbEntity
  8
0
  6
Continuous
 62
     7
100
AcDbLine
 10
109.4573042169
 20
304.7604942163
 30
0.0
 11
111.7823042169
 21
304.7604942163
 31
0.0
  0
LINE
  5
BB
330
1F
100
AcDbEntity
  8
0
  6
Continuous
 62
     7
100
AcDbLine
 10
107.2278713854
 20
284.6966490964
 30
0.0
 11
108.7073042169
 21
287.2591019269
 31
0.0
  0
LINE
  5
BC
330
1F
100
AcDbEntity
  8
0
  6
Continuous
 62
     7
100
AcDbLine
 10
107.2278713854
 20
334.6966490964
 30
0.0
 11
108.7073042169
 21
332.1341962659
 31
0.0
  0
LWPOLYLINE
  5
BD
330
1F
100
AcDbEntity
  8
TEIL_STARTBEZUEGE
  6
DOT_CENTER
 62
     7
100
AcDbPolyline
 90
        2
 70
     0
 43
0.25
 10
185.6198042169
 20
309.6966490964
 10
64.7198042169
 20
309.6966490964
  0
LINE
  5
BE
330
1F
100
AcDbEntity
  8
0
  6
Continuous
 62
     7
100
AcDbLine
 10
111.7823042169
 20
314.6328039765
 30
0.0
 11
109.4573042169
 21
314.6328039765
 31
0.0
  0
LINE
  5
BF
330
1F
100
AcDbEntity
  8
0
  6
Continuous
 62
     7
100
AcDbLine
 10
70.9198042169
 20
314.9666490964
 30
0.0
 11
68.8698042169
 21
314.9666490964
 31
0.0
  0
LINE
  5
C0
330
1F
100
AcDbEntity
  8
0
  6
Continuous
 62
     7
100
AcDbLine
 10
105.5873042169
 20
315.3141490964
 30
0.0
 11
108.9857690696
 21
315.3141490964
 31
0.0
  0
LINE
  5
C1
330
1F
100
AcDbEntity
  8
0
  6
Continuous
 62
     7
100
AcDbLine
 10
112.2538393641
 20
315.3141490964
 30
0.0
 11
118.5698042169
 21
315.3141490964
 31
0.0
  0
LINE
  5
C2
330
1F
100
AcDbEntity
  8
0
  6
Continuous
 62
     7
100
AcDbLine
 10
105.5873042169
 20
315.7141490964
 30
0.0
 11
108.7073042169
 21
315.7141490964
 31
0.0
  0
LINE
  5
C3
330
1F
100
AcDbEntity
  8
0
  6
Continuous
 62
     7
100
AcDbLine
 10
112.5323042169
 20
315.7141490964
 30
0.0
 11
118.5698042169
 21
315.7141490964
 31
0.0
  0
LWPOLYLINE
  5
C4
330
1F
100
AcDbEntity
  8
BOHRUNGEN
  6
DASHED
 62
     8
100
AcDbPolyline
 90
        2
 70
     0
 43
0.35
 10
182.6198042169
 20
316.6966490964
 10
135.6198042169
 20
316.6966490964
  0
LINE
  5
C5
330
1F
100
AcDbEntity
  8
0
  6
Continuous
 62
     9
100
AcDbLine
 10
70.9198042169
 20
317.3466490964
 30
0.0
 11
68.4562944267
 21
317.3466490964
 31
0.0
  0
LINE
  5
C6
330
1F
100
AcDbEntity
  8
RUNDUNGEN
  6
Continuous
 62
     9
100
AcDbLine
 10
70.9198042169
 20
317.3466490964
 30
0.0
 11
71.7378623931
 21
317.3466490964
 31
0.0
  0
LWPOLYLINE
  5
C7
330
1F
100
AcDbEntity
  8
BOHRUNGEN
  6
DASHED
 62
     8
100
AcDbPolyline
 90
        2
 70
     0
 43
0.35
 10
135.6198042169
 20
302.6966490964
 10
135.6198042169
 20
316.6966490964
  0
LINE
  5
C8
330
1F
100
AcDbEntity
  8
0
  6
Continuous
 62
     7
100
AcDbLine
 10
138.1480876403
 20
326.6966490964
 30
0.0
 11
138.1480876403
 21
292.6966490964
 31
0.0
  0
LINE
  5
C9
330
1F
100
AcDbEntity
  8
0
  6
Continuous
 62
     7
100
AcDbLine
 10
91.2899144499
 20
328.6718936006
 30
0.0
 11
90.6198042169
 21
328.8514490964
 31
0.0
  0
LINE
  5
CA
330
1F
100
AcDbEntity
  8
RUNDUNGEN
  6
Continuous
 62
     7
100
AcDbLine
 10
138.1480876403
 20
326.6966490964
 30
0.0
 11
120.5698042169
 21
326.6966490964
 31
0.0
  0
LINE
  5
CB
330
1F
100
AcDbEntity
  8
0
  6
Continuous
 62
     7
100
AcDbLine
 10
120.5698042169
 20
326.6966490964
 30
0.0
 11
138.1480876403
 21
326.6966490964
 31
0.0
  0
LINE
  5
CC
330
1F
100
AcDbEntity
  8
0
  6
Continuous
 62
     7
100
AcDbLine
 10
92.3176345863
 20
328.6514490964
 30
0.0
 11
91.4452058769
 21
328.6514490964
 31
0.0
  0
LINE
  5
CD
330
1F
100
AcDbEntity
  8
RUNDUNGEN
  6
Continuous
 62
     7
100
AcDbLine
 10
181.6982633126
 20
323.2691759385
 30
0.0
 11
138.1480876403
 21
326.6966490964
 31
0.0
  0
LINE
  5
CE
330
1F
100
AcDbEntity
  8
0
  6
Continuous
 62
     7
100
AcDbLine
 10
138.1480876403
 20
326.6966490964
 30
0.0
 11
181.6982633126
 21
323.2691759385
 31
0.0
  0
LINE
  5
CF
330
1F
100
AcDbEntity
  8
0
  6
Continuous
 62
     7
100
AcDbLine
 10
90.6198042169
 20
328.8514490964
 30
0.0
 11
68.6697669745
 21
327.7517522305
 31
0.0
  0
LINE
  5
D0
330
1F
100
AcDbEntity
  8
0
  6
Continuous
 62
     7
100
AcDbLine
 10
109.4573042169
 20
331.1716490964
 30
0.0
 11
111.7823042169
 21
331.1716490964
 31
0.0
  0
LINE
  5
D1
330
1F
100
AcDbEntity
  8
BEZUGSACHSEN
  6
Continuous
 62
     7
100
AcDbLine
 10
107.2278713854
 20
334.6966490964
 30
0.0
 11
104.6198042169
 21
334.6966490964
 31
0.0
  0
LINE
  5
D2
330
1F
100
AcDbEntity
  8
BEZUGSACHSEN
  6
Continuous
 62
     7
100
AcDbLine
 10
94.6198042169
 20
334.6966490964
 30
0.0
 11
92.6198042169
 21
334.6966490964
 31
0.0
  0
LINE
  5
D3
330
1F
100
AcDbEntity
  8
0
  6
Continuous
 62
     7
100
AcDbLine
 10
92.6198042169
 20
334.6966490964
 30
0.0
 11
94.6198042169
 21
334.6966490964
 31
0.0
  0
LINE
  5
D4
330
1F
100
AcDbEntity
  8
0
  6
Continuous
 62
     7
100
AcDbLine
 10
104.6198042169
 20
334.6966490964
 30
0.0
 11
107.2278713854
 21
334.6966490964
 31
0.0
  0
LINE
  5
D5
330
1F
100
AcDbEntity
  8
0
  6
Continuous
 62
     7
100
AcDbLine
 10
114.0117370484
 20
334.6966490964
 30
0.0
 11
118.5698042169
 21
334.6966490964
 31
0.0
  0
LINE
  5
D6
330
1F
100
AcDbEntity
  8
RUNDUNGEN
  6
Continuous
 62
     9
100
AcDbLine
 10
181.6982633126
 20
296.1241222543
 30
0.0
 11
181.6982633126
 21
323.2691759385
 31
0.0
  0
LINE
  5
D7
330
1F
100
AcDbEntity
  8
RUNDUNGEN
  6
Continuous
 62
     7
100
AcDbLine
 10
182.6198042169
 20
322.2722586047
 30
0.0
 11
182.6198042169
 21
297.121039588
 31
0.0
  0
LWPOLYLINE
  5
D8
330
1F
100
AcDbEntity
  8
1
  6
Continuous
 62
     7
100
AcDbPolyline
 90
        2
 70
     0
 43
0.25
 10
182.6198042169
 20
322.2722586047
 10
182.6198042169
 20
323.1966490964528
  0
LWPOLYLINE
  5
D9
330
1F
100
AcDbEntity
  8
1
  6
Continuous
 62
     7
100
AcDbPolyline
 90
        2
 70
     0
 43
0.25
 10
181.6982633126
 20
323.2691759385
 10
182.6198042169094
 20
323.1966490964528
  0
LWPOLYLINE
  5
DA
330
1F
100
AcDbEntity
  8
1
  6
Continuous
 62
     7
100
AcDbPolyline
 90
        2
 70
     0
 43
0.25
 10
181.6982633126
 20
296.1241222543
 10
182.6198042169
 20
296.1966490963487
  0
LWPOLYLINE
  5
DB
330
1F
100
AcDbEntity
  8
1
  6
Continuous
 62
     7
100
AcDbPolyline
 90
        2
 70
     0
 43
0.25
 10
182.6198042169
 20
297.121039588
 10
182.6198042169
 20
296.1966490963487
  0
ARC
  5
DC
330
1F
100
AcDbEntity
  8
0
  6
Continuous
 62
     7
100
AcDbCircle
 10
74.9644158135
 20
294.1466490964
 30
0.0
 40
33.78031736353757
100
AcDbArc
 50
359.6607721967861
 51
0.33922780321396
  0
ARC
  5
DD
330
1F
100
AcDbEntity
  8
FASEN
  6
Continuous
 62
     7
100
AcDbCircle
 10
107.7941595644
 20
298.1300409048
 30
0.0
 40
11.3217343455998
100
AcDbArc
 50
223.8842578162992
 51
226.1595439826521
  0
ARC
  5
DE
330
1F
100
AcDbEntity
  8
FASEN
  6
Continuous
 62
     7
100
AcDbCircle
 10
105.3134904898
 20
288.3466490964
 30
0.0
 40
6.0
100
AcDbArc
 50
90.0
 51
161.1845969504024
  0
ARC
  5
DF
330
1F
100
AcDbEntity
  8
FASEN
  6
Continuous
 62
     7
100
AcDbCircle
 10
105.3134904898
 20
288.3466490964
 30
0.0
 40
5.599990644600041
100
AcDbArc
 50
90.0
 51
163.2131310087998
  0
ARC
  5
E0
330
1F
100
AcDbEntity
  8
0
  6
Continuous
 62
     7
100
AcDbCircle
 10
110.1326446071
 20
293.6246961892
 30
0.0
 40
1.4253405322444
100
AcDbArc
 50
166.945493583629
 51
180.0255794330658
  0
ARC
  5
E1
330
1F
100
AcDbEntity
  8
RUNDUNGEN
  6
Continuous
 62
     7
100
AcDbCircle
 10
70.9198042169
 20
305.8266490964
 30
0.0
 40
1.399999999999977
100
AcDbArc
 50
270.0
 51
353.9429041005091
  0
ARC
  5
E2
330
1F
100
AcDbEntity
  8
0
  6
Continuous
 62
     7
100
AcDbCircle
 10
68.7198042169
 20
292.6402933149
 30
0.0
 40
1.0
100
AcDbArc
 50
179.9999999942711
 51
267.1318795109844
  0
ARC
  5
E3
330
1F
100
AcDbEntity
  8
0
  6
Continuous
 62
     7
100
AcDbCircle
 10
109.4573042169
 20
287.4716490964
 30
0.0
 40
0.75
100
AcDbArc
 50
90.0
 51
180.0
  0
ARC
  5
E4
330
1F
100
AcDbEntity
  8
0
  6
Continuous
 62
     7
100
AcDbCircle
 10
91.4452058769
 20
290.1418490964
 30
0.0
 40
0.6000000000000227
100
AcDbArc
 50
90.0
 51
104.999999993671
  0
ARC
  5
E5
330
1F
100
AcDbEntity
  8
0
  6
Continuous
 62
     7
100
AcDbCircle
 10
92.3176345863
 20
290.1418490964
 30
0.0
 40
0.5999999999997367
100
AcDbArc
 50
59.70317838178402
 51
90.0
  0
ARC
  5
E6
330
1F
100
AcDbEntity
  8
0
  6
Continuous
 62
     7
100
AcDbCircle
 10
109.2109241708
 20
303.6036539634
 30
0.0
 40
0.5037304978999648
100
AcDbArc
 50
166.1596109369579
 51
171.3804870339457
  0
ARC
  5
E7
330
1F
100
AcDbEntity
  8
0
  6
Continuous
 62
     7
100
AcDbCircle
 10
-8.0466393712
 20
342.6171846061
 30
0.0
 40
126.7303074977589
100
AcDbArc
 50
335.4508108778964
 51
337.1137532296997
  0
ARC
  5
E8
330
1F
100
AcDbEntity
  8
0
  6
Continuous
 62
     7
100
AcDbCircle
 10
105.5873042169
 20
309.6966490964
 30
0.0
 40
6.017499999999984
100
AcDbArc
 50
90.0
 51
270.0
  0
ARC
  5
E9
330
1F
100
AcDbEntity
  8
FASEN
  6
Continuous
 62
     7
100
AcDbCircle
 10
105.5873042169
 20
309.6966490964
 30
0.0
 40
5.617499843000019
100
AcDbArc
 50
90.0
 51
270.0
  0
ARC
  5
EA
330
1F
100
AcDbEntity
  8
RUNDUNGEN
  6
Continuous
 62
     7
100
AcDbCircle
 10
70.9198042169
 20
313.5666490964
 30
0.0
 40
1.400000000000061
100
AcDbArc
 50
6.05709561601257
 51
90.0
  0
ARC
  5
EB
330
1F
100
AcDbEntity
  8
0
  6
Continuous
 62
     7
100
AcDbCircle
 10
68.7198042169
 20
326.7530048779
 30
0.0
 40
0.999999999976244
100
AcDbArc
 50
92.86812048930244
 51
180.0000000171898
  0
ARC
  5
EC
330
1F
100
AcDbEntity
  8
0
  6
Continuous
 62
     7
100
AcDbCircle
 10
109.4573042169
 20
331.9216490964
 30
0.0
 40
0.75
100
AcDbArc
 50
180.0
 51
270.0
  0
ARC
  5
ED
330
1F
100
AcDbEntity
  8
0
  6
Continuous
 62
     7
100
AcDbCircle
 10
91.4452058769
 20
329.2514490964
 30
0.0
 40
0.6000000000097162
100
AcDbArc
 50
255.0000000063289
 51
270.0
  0
ARC
  5
EE
330
1F
100
AcDbEntity
  8
0
  6
Continuous
 62
     7
100
AcDbCircle
 10
92.3176345863
 20
329.2514490964
 30
0.0
 40
0.6000000000000227
100
AcDbArc
 50
270.0
 51
300.296821618216
  0
ARC
  5
EF
330
1F
100
AcDbEntity
  8
RUNDUNGEN
  6
Continuous
 62
     7
100
AcDbCircle
 10
157.8898747523
 20
-456.7392107063
 30
0.0
 40
779.4077988417997
100
AcDbArc
 50
96.40668094319999
 51
96.57315239320002
  0
ARC
  5
F0
330
1F
100
AcDbEntity
  8
0
  6
Continuous
 62
     7
100
AcDbCircle
 10
146.2751926202
 20
294.1466490964
 30
0.0
 40
33.78031736343756
100
AcDbArc
 50
179.660772196785
 51
180.339227803215
  0
ARC
  5
F1
330
1F
100
AcDbEntity
  8
RUNDUNGEN
  6
Continuous
 62
     7
100
AcDbCircle
 10
120.5698042169
 20
290.6966490964
 30
0.0
 40
2.0
100
AcDbArc
 50
90.0
 51
180.0
  0
ARC
  5
F2
330
1F
100
AcDbEntity
  8
0
  6
Continuous
 62
     7
100
AcDbCircle
 10
111.1069638266
 20
293.6246961892
 30
0.0
 40
1.425340532344761
100
AcDbArc
 50
359.9744205669359
 51
13.05450641546304
  0
ARC
  5
F3
330
1F
100
AcDbEntity
  8
RUNDUNGEN
  6
Continuous
 62
     7
100
AcDbCircle
 10
181.6198042169
 20
297.121039588
 30
0.0
 40
0.9999999999647582
100
AcDbArc
 50
274.4999999985585
 51
0.0
  0
ARC
  5
F4
330
1F
100
AcDbEntity
  8
0
  6
Continuous
 62
     7
100
AcDbCircle
 10
111.7823042169
 20
287.4716490964
 30
0.0
 40
0.75
100
AcDbArc
 50
0.0
 51
90.0
  0
ARC
  5
F5
330
1F
100
AcDbEntity
  8
RUNDUNGEN
  6
Continuous
 62
     7
100
AcDbCircle
 10
157.8898747522
 20
1076.1325088986
 30
0.0
 40
779.4077988412998
100
AcDbArc
 50
263.4268476068
 51
263.5933190568001
  0
ARC
  5
F6
330
1F
100
AcDbEntity
  8
0
  6
Continuous
 62
     7
100
AcDbCircle
 10
229.2862478049
 20
342.6171846061
 30
0.0
 40
126.7303074976999
100
AcDbArc
 50
202.8862467703002
 51
204.5491891221224
  0
ARC
  5
F7
330
1F
100
AcDbEntity
  8
RUNDUNGEN
  6
Continuous
 62
     7
100
AcDbCircle
 10
120.5698042169
 20
328.6966490964
 30
0.0
 40
2.0
100
AcDbArc
 50
180.0
 51
270.0
  0
ARC
  5
F8
330
1F
100
AcDbEntity
  8
RUNDUNGEN
  6
Continuous
 62
     7
100
AcDbCircle
 10
181.6198042169
 20
322.2722586047
 30
0.0
 40
1.0
100
AcDbArc
 50
0.0
 51
85.50000000189104
  0
ARC
  5
F9
330
1F
100
AcDbEntity
  8
0
  6
Continuous
 62
     7
100
AcDbCircle
 10
111.7823042169
 20
331.9216490964
 30
0.0
 40
0.75
100
AcDbArc
 50
270.0
 51
0.0
  0
CIRCLE
  5
FA
330
1F
100
AcDbEntity
  8
FASEN
  6
Continuous
 62
     7
100
AcDbCircle
 10
85.1198042169
 20
309.6966490964
 30
0.0
 40
3.0
  0
SPLINE
  5
FB
330
1F
100
AcDbEntity
  8
BEZUGSACHSEN
  6
Continuous
 62
     7
100
AcDbSpline
210
0.0
220
0.0
230
1.0
 70
     8
 71
     3
 72
    15
 73
    11
 74
     9
 42
0.0000000001
 43
0.0000000001
 44
0.00000001
 40
0.0
 40
0.0
 40
0.0
 40
0.0
 40
0.9592794728028994
 40
1.918698757760565
 40
2.733413612643734
 40
3.548061682642769
 40
4.09646587243726
 40
4.644852383044843
 40
4.83916110761645
 40
5.033464909271589
 40
5.033464909271589
 40
5.033464909271589
 40
5.033464909271589
 10
99.6198042169
 20
334.1915465242
 30
0.0
 10
99.30002485110037
 20
334.1951746871586
 30
0.0
 10
98.66041951260141
 20
334.2024315418698
 30
0.0
 10
97.75060939085803
 20
334.2578457782298
 30
0.0
 10
96.89136552082121
 20
334.3385682343794
 30
0.0
 10
96.17109407290349
 20
334.430112882454
 30
0.0
 10
95.54129354111653
 20
334.5268374595586
 30
0.0
 10
95.11733826484532
 20
334.601038898787
 30
0.0
 10
94.81041446317053
 20
334.6589302984604
 30
0.0
 10
94.68334042906847
 20
334.6840762699359
 30
0.0
 10
94.6198042169
 20
334.6966490964
 30
0.0
 11
99.6198042169
 21
334.1915465242
 31
0.0
 11
98.66070885643511
 21
334.2103400463749
 31
0.0
 11
97.70293109042088
 21
334.2664392021392
 31
0.0
 11
96.89182077304572
 21
334.3429921107377
 31
0.0
 11
96.08364470528312
 21
334.445475872617
 31
0.0
 11
95.54159555529952
 21
334.5287217396988
 31
0.0
 11
95.00139743125143
 21
334.6231344072349
 31
0.0
 11
94.81046786443957
 21
334.6592146090315
 31
0.0
 11
94.6198042169
 21
334.6966490964
 31
0.0
  0
SPLINE
  5
FC
330
1F
100
AcDbEntity
  8
BEZUGSACHSEN
  6
Continuous
 62
     7
100
AcDbSpline
210
0.0
220
0.0
230
1.0
 70
     8
 71
     3
 72
    15
 73
    11
 74
     9
 42
0.0000000001
 43
0.0000000001
 44
0.00000001
 40
0.0
 40
0.0
 40
0.0
 40
0.0
 40
0.1942981503602076
 40
0.3886012246070234
 40
0.9369792400625838
 40
1.485374928924154
 40
2.300027372215252
 40
3.114746618678622
 40
4.074175664741102
 40
5.033464878728258
 40
5.033464878728258
 40
5.033464878728258
 40
5.033464878728258
 10
104.6198042169
 20
334.6966490964
 30
0.0
 10
104.5562698509687
 20
334.6840766443752
 30
0.0
 10
104.4291995090237
 20
334.6589314217154
 30
0.0
 10
104.1222822107193
 20
334.6010411477125
 30
0.0
 10
103.6983344277412
 20
334.5268406926872
 30
0.0
 10
103.0685381550389
 20
334.4301161054785
 30
0.0
 10
102.3482666716187
 20
334.3385709954691
 30
0.0
 10
101.4890166951238
 20
334.2578475589663
 30
0.0
 10
100.5791986706331
 20
334.2024319548176
 30
0.0
 10
99.93958683029754
 20
334.1951748247778
 30
0.0
 10
99.6198042169
 20
334.1915465242
 30
0.0
 11
104.6198042169
 21
334.6966490964
 31
0.0
 11
104.4291461124659
 21
334.6592157096044
 31
0.0
 11
104.2382221082129
 21
334.6231365014402
 31
0.0
 11
103.6980324186769
 21
334.5287249176489
 31
0.0
 11
103.1559917520711
 21
334.4454798138439
 31
0.0
 11
102.347811419885
 21
334.3429949172599
 31
0.0
 11
101.5366967751406
 21
334.2664411215409
 31
0.0
 11
100.5789093087068
 21
334.2103406440856
 31
0.0
 11
99.6198042169
 21
334.1915465242
 31
0.0
  0
SPLINE
  5
FD
330
1F
100
AcDbEntity
  8
0
  6
Continuous
 62
     7
100
AcDbSpline
210
0.0
220
0.0
230
1.0
 70
     8
 71
     3
 72
    11
 73
     7
 74
     5
 42
0.0000000001
 43
0.0000000001
 44
0.00000001
 40
0.0
 40
0.0
 40
0.0
 40
0.0
 40
0.0720335617178223
 40
0.144173462054284
 40
0.2163593593842488
 40
0.2883296529141904
 40
0.2883296529141904
 40
0.2883296529141904
 40
0.2883296529141904
 10
68.4078749479
 20
317.4326068024
 30
0.0
 10
68.42738100138106
 20
317.4466592724457
 30
0.0
 10
68.46642190390365
 20
317.4747849573152
 30
0.0
 10
68.53066382859234
 20
317.5080109502405
 30
0.0
 10
68.5985270252916
 20
317.5334421439144
 30
0.0
 10
68.64604401398427
 20
317.5412590399567
 30
0.0
 10
68.6697669745
 20
317.5451616424
 30
0.0
 11
68.4078749479
 21
317.4326068024
 31
0.0
 11
68.46733357384991
 21
317.4732701251111
 31
0.0
 11
68.5312570005955
 21
317.5067060449228
 31
0.0
 11
68.59916832968199
 21
317.5311775621426
 31
0.0
 11
68.6697669745
 21
317.5451616424
 31
0.0
  0
SPLINE
  5
FE
330
1F
100
AcDbEntity
  8
RUNDUNGEN
  6
Continuous
 62
     7
100
AcDbSpline
210
0.0
220
0.0
230
1.0
 70
     8
 71
     3
 72
    15
 73
    11
 74
     9
 42
0.0000000001
 43
0.0000000001
 44
0.00000001
 40
0.0
 40
0.0
 40
0.0
 40
0.0
 40
0.2286533797624052
 40
0.45741736488758
 40
0.6866651597804254
 40
0.9158640491602726
 40
1.146314057934743
 40
1.376831724061333
 40
1.609554238661745
 40
1.842048835029505
 40
1.842048835029505
 40
1.842048835029505
 40
1.842048835029505
 10
71.7378623931
 20
317.3466490964
 30
0.0
 10
71.78026716155865
 20
317.2832849556247
 30
0.0
 10
71.86509721072383
 20
317.1565260232534
 30
0.0
 10
71.976573985841
 20
316.9563445699215
 30
0.0
 10
72.07572223840803
 20
316.7496889777439
 30
0.0
 10
72.16022234728996
 20
316.5359528490945
 30
0.0
 10
72.22899796074589
 20
316.3161592926402
 30
0.0
 10
72.27997501518074
 20
316.0904272458912
 30
0.0
 10
72.31331429752026
 20
315.8604457116084
 30
0.0
 10
72.31764161711732
 20
315.7053228001677
 30
0.0
 10
72.3198042169
 20
315.6277993432
 30
0.0
 11
71.7378623931
 21
317.3466490964
 31
0.0
 11
71.86243533949941
 21
317.1549098226396
 31
0.0
 11
71.97443087759727
 21
316.9554356129369
 31
0.0
 11
72.0732512855371
 21
316.7485804016469
 31
0.0
 11
72.15743920777754
 21
316.5354031874757
 31
0.0
 11
72.22597691729811
 21
316.31538094106
 31
0.0
 11
72.2768801629309
 21
316.0905537763745
 31
0.0
 11
72.30882940109592
 21
315.8600347641811
 31
0.0
 11
72.3198042169
 21
315.6277993432
 31
0.0
  0
SPLINE
  5
FF
330
1F
100
AcDbEntity
  8
RUNDUNGEN
  6
Continuous
 62
     7
100
AcDbSpline
210
0.0
220
0.0
230
1.0
 70
     8
 71
     3
 72
    15
 73
    11
 74
     9
 42
0.0000000001
 43
0.0000000001
 44
0.00000001
 40
0.0
 40
0.0
 40
0.0
 40
0.0
 40
0.1273079847291186
 40
0.2549893803394561
 40
0.3793073350463939
 40
0.503598968695956
 40
0.6245667031302711
 40
0.7455591721394926
 40
0.8645937372455199
 40
0.9835510381154823
 40
0.9835510381154823
 40
0.9835510381154823
 40
0.9835510381154823
 10
70.9198042169
 20
317.801119894
 30
0.0
 10
70.96228338652172
 20
317.803566538109
 30
0.0
 10
71.04736632269592
 20
317.8084670026524
 30
0.0
 10
71.17301267434884
 20
317.7868028151855
 30
0.0
 10
71.29179869158689
 20
317.7451633427381
 30
0.0
 10
71.40056534027862
 20
317.6862918539233
 30
0.0
 10
71.49941554551499
 20
317.6141178173668
 30
0.0
 10
71.58780118969351
 20
317.5321644053976
 30
0.0
 10
71.66784606976549
 20
317.4429257094933
 30
0.0
 10
71.71452867050218
 20
317.3787343541741
 30
0.0
 10
71.7378623931
 20
317.3466490964
 30
0.0
 11
70.9198042169
 21
317.801119894
 31
0.0
 11
71.04708788527816
 21
317.8036080137699
 31
0.0
 11
71.17311915727417
 21
317.7831468978651
 31
0.0
 11
71.290478159249
 21
317.7421369171532
 31
0.0
 11
71.40000644797692
 21
317.683383498839
 31
0.0
 11
71.49789343867144
 21
317.6123107908074
 31
0.0
 11
71.58694713364868
 21
317.5304046434932
 31
0.0
 11
71.66626629483302
 21
317.4416482445183
 31
0.0
 11
71.7378623931
 21
317.3466490964
 31
0.0
  0
SPLINE
  5
100
330
1F
100
AcDbEntity
  8
RUNDUNGEN
  6
Continuous
 62
     7
100
AcDbSpline
210
0.0
220
0.0
230
1.0
 70
     8
 71
     3
 72
    15
 73
    11
 74
     9
 42
0.0000000001
 43
0.0000000001
 44
0.00000001
 40
0.0
 40
0.0
 40
0.0
 40
0.0
 40
0.2324947530444142
 40
0.4652174309666729
 40
0.6957353317467736
 40
0.9261855606571372
 40
1.155384407780242
 40
1.384632178789743
 40
1.61339580170366
 40
1.842048806047859
 40
1.842048806047859
 40
1.842048806047859
 40
1.842048806047859
 10
72.3198042169
 20
303.7654988496
 30
0.0
 10
72.3176416099229
 20
303.6879753403913
 30
0.0
 10
72.31331427586953
 20
303.5328523222528
 30
0.0
 10
72.27997493743383
 20
303.3028706100657
 30
0.0
 10
72.2289978786304
 20
303.0771383536459
 30
0.0
 10
72.1602221822686
 20
302.8573446733751
 30
0.0
 10
72.07572180768682
 20
302.6436085909588
 30
0.0
 10
71.97657343251697
 20
302.4369532234891
 30
0.0
 10
71.86509692722262
 20
302.236771914673
 30
0.0
 10
71.78026706624595
 20
302.1100131509945
 30
0.0
 10
71.7378623931
 20
302.0466490964
 30
0.0
 11
72.3198042169
 21
303.7654988496
 31
0.0
 11
72.30882937448906
 21
303.5332632730248
 31
0.0
 11
72.27688009876073
 21
303.3027441011545
 31
0.0
 11
72.22597681715158
 21
303.0779167040218
 31
0.0
 11
72.15743897808564
 21
302.8578942673909
 31
0.0
 11
72.07325086794822
 21
302.6447171728566
 31
0.0
 11
71.97443032923506
 21
302.4378620505095
 31
0.0
 11
71.86243504648229
 21
302.2383881128388
 31
0.0
 11
71.7378623931
 21
302.0466490964
 31
0.0
  0
SPLINE
  5
101
330
1F
100
AcDbEntity
  8
RUNDUNGEN
  6
Continuous
 62
     7
100
AcDbSpline
210
0.0
220
0.0
230
1.0
 70
     8
 71
     3
 72
    17
 73
    13
 74
    11
 42
0.0000000001
 43
0.0000000001
 44
0.00000001
 40
0.0
 40
0.0
 40
0.0
 40
0.0
 40
0.1190059193336594
 40
0.2380814744384905
 40
0.3590691915544423
 40
0.4800850747943278
 40
0.6044906460778307
 40
0.728652194443427
 40
0.7922003881789675
 40
0.8557409872044359
 40
0.9198158321793989
 40
0.9838416202048237
 40
0.9838416202048237
 40
0.9838416202048237
 40
0.9838416202048237
 10
71.7378623931
 20
302.0466490964
 30
0.0
 10
71.71451669236066
 20
302.0145525653647
 30
0.0
 10
71.6678116302516
 20
301.9503407221554
 30
0.0
 10
71.58774516777979
 20
301.8610829279992
 30
0.0
 10
71.4993742388052
 20
301.7790812350723
 30
0.0
 10
71.40044948074384
 20
301.7068745627576
 30
0.0
 10
71.2916154078644
 20
301.6482606198048
 30
0.0
 10
71.19305335589301
 20
301.6133806629817
 30
0.0
 10
71.11100682673224
 20
301.5960337130188
 30
0.0
 10
71.04764390752783
 20
301.588640650468
 30
0.0
 10
70.98365660526369
 20
301.5867073189721
 30
0.0
 10
70.94108291173262
 20
301.5903551045049
 30
0.0
 10
70.9198042169
 20
301.5921782988
 30
0.0
 11
71.7378623931
 21
302.0466490964
 31
0.0
 11
71.66623043671555
 21
301.9516160933906
 31
0.0
 11
71.58688645698773
 21
301.8628269008925
 31
0.0
 11
71.49785424893503
 21
301.7809044154432
 31
0.0
 11
71.39990305414604
 21
301.7098381967754
 31
0.0
 11
71.29021675099384
 21
301.6511384432224
 31
0.0
 11
71.17302827832594
 21
301.6101146456616
 31
0.0
 11
71.11084844882355
 21
301.5969981777642
 31
0.0
 11
71.04774404485532
 21
301.5895656866388
 31
0.0
 11
70.98368975551475
 21
301.5879427955027
 31
0.0
 11
70.9198042169
 21
301.5921782988
 31
0.0
  0
SPLINE
  5
102
330
1F
100
AcDbEntity
  8
0
  6
Continuous
 62
     7
100
AcDbSpline
210
0.0
220
0.0
230
1.0
 70
     8
 71
     3
 72
    27
 73
    23
 74
    21
 42
0.0000000001
 43
0.0000000001
 44
0.00000001
 40
0.0
 40
0.0
 40
0.0
 40
0.0
 40
0.0679422773459755
 40
0.1359904672704982
 40
0.196031141828975
 40
0.2558288644337062
 40
0.2829045759171626
 40
0.3099751665570402
 40
0.3357621418708198
 40
0.3615450077178911
 40
0.3868874812896435
 40
0.4122310012390624
 40
0.4380221513227903
 40
0.4638182097933483
 40
0.5190828347292111
 40
0.5745822154680941
 40
0.636600318838091
 40
0.6985580375663842
 40
0.766667300920525
 40
0.8347923376037442
 40
0.9078434200739268
 40
0.9808740974615251
 40
0.9808740974615251
 40
0.9808740974615251
 40
0.9808740974615251
 10
67.7198042169
 20
317.2414329882
 30
0.0
 10
67.72027197695778
 20
317.2640897293036
 30
0.0
 10
67.72120822624633
 20
317.3094385302248
 30
0.0
 10
67.73032514768386
 20
317.3743266047973
 30
0.0
 10
67.7460677056342
 20
317.4350910961127
 30
0.0
 10
67.76563494945825
 20
317.4803118697156
 30
0.0
 10
67.78565547387569
 20
317.5126495803741
 30
0.0
 10
67.80195705825852
 20
317.5337946856792
 30
0.0
 10
67.82022662057935
 20
317.5526687720943
 30
0.0
 10
67.84009997001822
 20
317.5689622583014
 30
0.0
 10
67.8616710193505
 20
317.582654836917
 30
0.0
 10
67.88468939864364
 20
317.5937426993101
 30
0.0
 10
67.90898181349307
 20
317.602130255176
 30
0.0
 10
67.94375695405988
 20
317.6100911099191
 30
0.0
 10
67.98947593370355
 20
317.613258996808
 30
0.0
 10
68.04698249605156
 20
317.6077475716047
 30
0.0
 10
68.10542585830721
 20
317.5942313596207
 30
0.0
 10
68.16591569742417
 20
317.5729661642563
 30
0.0
 10
68.22623702501079
 20
317.5458465206584
 30
0.0
 10
68.28760428387378
 20
317.5125786232157
 30
0.0
 10
68.34837228764971
 20
317.4749867488052
 30
0.0
 10
68.38804257489974
 20
317.4467321356423
 30
0.0
 10
68.4078749479
 20
317.4326068024
 30
0.0
 11
67.7198042169
 21
317.2414329882
 31
0.0
 11
67.72255248199265
 21
317.3093196591299
 31
0.0
 11
67.73204527260924
 21
317.3767024690914
 31
0.0
 11
67.74757409626997
 21
317.4347002124712
 31
0.0
 11
67.77174314982838
 21
317.4893959570845
 31
0.0
 11
67.78603865098954
 21
317.512390147631
 31
0.0
 11
67.80261226793165
 21
317.5337941682591
 31
0.0
 11
67.82056376131175
 21
317.5523066500284
 31
0.0
 11
67.84052191688122
 21
317.5686292784182
 31
0.0
 11
67.861910135203
 21
317.5822228461528
 31
0.0
 11
67.88474039632995
 21
317.5932261720274
 31
0.0
 11
67.9091051065829
 21
317.6016845593991
 31
0.0
 11
67.93424300987847
 21
317.6074744169551
 31
0.0
 11
67.98934320706725
 21
317.6117343511165
 31
0.0
 11
68.0446243751152
 21
317.6068176732083
 31
0.0
 11
68.1051128479001
 21
317.5931286335867
 31
0.0
 11
68.16366702571284
 21
317.5728760492901
 31
0.0
 11
68.22585306496207
 21
317.5450953315683
 31
0.0
 11
68.28584642206143
 21
317.5128181302176
 31
0.0
 11
68.34793509576377
 21
317.4743284270757
 31
0.0
 11
68.4078749479
 21
317.4326068024
 31
0.0
  0
SPLINE
  5
103
330
1F
100
AcDbEntity
  8
FASEN
  6
Continuous
 62
     7
100
AcDbSpline
210
0.0
220
0.0
230
1.0
 70
     8
 71
     3
 72
    43
 73
    39
 74
    37
 42
0.0000000001
 43
0.0000000001
 44
0.00000001
 40
0.0
 40
0.0
 40
0.0
 40
0.0
 40
0.3536627138529054
 40
0.7077087110917561
 40
1.061386016608034
 40
1.414940912939862
 40
1.768273600879133
 40
2.121679340755889
 40
2.474990473716937
 40
2.828124790675728
 40
3.004861640054077
 40
3.18154228237179
 40
3.35828960468826
 40
3.535092627972407
 40
3.888693190976398
 40
4.242467023578949
 40
4.596379402935754
 40
4.950247373453119
 40
5.303947628043608
 40
5.657661399110373
 40
6.010712555488226
 40
6.363747200682585
 40
6.715806091051547
 40
7.067909115915057
 40
7.419215040263284
 40
7.770346273763108
 40
7.945854779221056
 40
8.121308710054608
 40
8.296759233397802
 40
8.47226498982557
 40
8.823345921724766
 40
9.17460159488552
 40
9.526721242021658
 40
9.878775142295742
 40
10.23179857980661
 40
10.58493613220531
 40
10.93889559962543
 40
11.29248564903625
 40
11.29248564903625
 40
11.29248564903625
 40
11.29248564903625
 10
81.5205558053
 20
309.6966490964
 30
0.0
 10
81.52388563212193
 20
309.8145864061413
 30
0.0
 10
81.53054889447898
 20
310.0505888406568
 30
0.0
 10
81.58488484974293
 20
310.4010731478852
 30
0.0
 10
81.67082807527447
 20
310.7446856140661
 30
0.0
 10
81.79071522007663
 20
311.0779231170499
 30
0.0
 10
81.94276408148961
 20
311.3975946072418
 30
0.0
 10
82.12557799792309
 20
311.7006624126946
 30
0.0
 10
82.3374411936164
 20
311.9840691616546
 30
0.0
 10
82.53637563279996
 20
312.2017837607524
 30
0.0
 10
82.70775610794259
 20
312.3634453298059
 30
0.0
 10
82.84218263171284
 20
312.478275979468
 30
0.0
 10
82.98210089868074
 20
312.5863833015092
 30
0.0
 10
83.17555525070591
 20
312.7211989092052
 30
0.0
 10
83.42960004931469
 20
312.8716284155261
 30
0.0
 10
83.7506284638765
 20
313.02155693408
 30
0.0
 10
84.08488732707632
 20
313.1393866137875
 30
0.0
 10
84.4289881359148
 20
313.2241468486515
 30
0.0
 10
84.7796399400613
 20
313.2749908643057
 30
0.0
 10
85.13329646914268
 20
313.2916049736783
 30
0.0
 10
85.48666845424839
 20
313.2737437111114
 30
0.0
 10
85.836100522207
 20
313.2217833896729
 30
0.0
 10
86.17849126021783
 20
313.1360698530133
 30
0.0
 10
86.5103776719502
 20
313.0176236429459
 30
0.0
 10
86.8287651866413
 20
312.8673685129102
 30
0.0
 10
87.08040156280586
 20
312.7169568647997
 30
0.0
 10
87.27189745622073
 20
312.5822837969009
 30
0.0
 10
87.41034838879408
 20
312.4743627611994
 30
0.0
 10
87.54334650261977
 20
312.3597904761968
 30
0.0
 10
87.71297721527418
 20
312.1984710342692
 30
0.0
 10
87.90984802031377
 20
311.9812913630833
 30
0.0
 10
88.11957476084581
 20
311.6985436214324
 30
0.0
 10
88.30053510419299
 20
311.3961652137793
 30
0.0
 10
88.45116692243894
 20
311.0769745445818
 30
0.0
 10
88.56999872140253
 20
310.744200878653
 30
0.0
 10
88.6552438605606
 20
310.4008162522009
 30
0.0
 10
88.70907902054273
 20
310.0505054866965
 30
0.0
 10
88.71572924982922
 20
309.8145601634356
 30
0.0
 10
88.7190526284
 20
309.6966490964
 30
0.0
 11
81.5205558053
 21
309.6966490964
 31
0.0
 11
81.53792896908807
 21
310.0498848368762
 31
0.0
 11
81.5901795381626
 21
310.4000540048397
 31
0.0
 11
81.67650841211135
 21
310.7430335406141
 31
0.0
 11
81.79610930754568
 21
311.0757446623571
 31
0.0
 11
81.94788616091378
 21
311.3948179692132
 31
0.0
 11
82.1304438851101
 21
311.6974205044208
 31
0.0
 11
82.34195557975312
 21
311.980425026829
 31
0.0
 11
82.58018294208074
 21
312.2411002455445
 31
0.0
 11
82.70874169574964
 21
312.3623791010111
 31
0.0
 11
82.84307772120131
 21
312.4771392057324
 31
0.0
 11
82.98294213857312
 21
312.5852019685107
 31
0.0
 11
83.12799960684029
 21
312.6862843108972
 31
0.0
 11
83.43223104298852
 21
312.8664969392447
 31
0.0
 11
83.75277723898601
 21
313.0161834812778
 31
0.0
 11
84.08654599654815
 21
313.1338796525725
 31
0.0
 11
84.43014566339279
 21
313.2185071274393
 31
0.0
 11
84.78018155809498
 21
313.2692884479953
 31
0.0
 11
85.13350699466315
 21
313.2858585329735
 31
0.0
 11
85.48610872046467
 21
313.2680500523666
 31
0.0
 11
85.83529779753886
 21
313.2160842062791
 31
0.0
 11
86.17681854885967
 21
313.1305912901685
 31
0.0
 11
86.50842092518754
 21
313.0122003946919
 31
0.0
 11
86.82612956497921
 21
312.8622768385579
 31
0.0
 11
87.12749137916065
 21
312.6820708450605
 31
0.0
 11
87.27105734477044
 21
312.5811151666337
 31
0.0
 11
87.40944067712601
 21
312.4732535183471
 31
0.0
 11
87.54236555482596
 21
312.358737742011
 31
0.0
 11
87.66953817934149
 21
312.2377857097291
 31
0.0
 11
87.90535629117521
 21
311.9776941126438
 31
0.0
 11
88.11458978835935
 21
311.6955560408001
 31
0.0
 11
88.29544467760014
 21
311.3934306447524
 31
0.0
 11
88.44572224225459
 21
311.0750619869675
 31
0.0
 11
88.56435895602712
 21
310.7425700658969
 31
0.0
 11
88.64994756507508
 21
310.3999613664811
 31
0.0
 11
88.7017747699517
 21
310.0498167600525
 31
0.0
 11
88.7190526284
 21
309.6966490964
 31
0.0
  0
SPLINE
  5
104
330
1F
100
AcDbEntity
  8
0
  6
Continuous
 62
     7
100
AcDbSpline
210
0.0
220
0.0
230
1.0
 70
     8
 71
     3
 72
    27
 73
    23
 74
    21
 42
0.0000000001
 43
0.0000000001
 44
0.00000001
 40
0.0
 40
0.0
 40
0.0
 40
0.0
 40
0.0730306820195523
 40
0.1460817689058179
 40
0.2142068183435419
 40
0.2823160954569602
 40
0.3442738269859303
 40
0.4062919406875762
 40
0.461791341743174
 40
0.5170559905722738
 40
0.542852062352303
 40
0.5686432246863031
 40
0.593986760289771
 40
0.6193292498350924
 40
0.6451121206939301
 40
0.6708991015552069
 40
0.6979696846081646
 40
0.7250453875223676
 40
0.7848430774418391
 40
0.8448837206701123
 40
0.9129318641488786
 40
0.980874094566601
 40
0.980874094566601
 40
0.980874094566601
 40
0.980874094566601
 10
68.4078749479
 20
301.9606913904
 30
0.0
 10
68.38804257364045
 20
301.9465660562628
 30
0.0
 10
68.3483722839304
 20
301.9183114413519
 30
0.0
 10
68.28760427379822
 20
301.8807195633769
 30
0.0
 10
68.22623700535411
 20
301.8474516619152
 30
0.0
 10
68.16591566545611
 20
301.8203320138227
 30
0.0
 10
68.10542581494268
 20
301.7990668136875
 30
0.0
 10
68.04698243613339
 20
301.7855506056449
 30
0.0
 10
67.98947585247518
 20
301.7800392049163
 30
0.0
 10
67.94375685597699
 20
301.7832071096708
 30
0.0
 10
67.90898169921903
 20
301.7911679668787
 30
0.0
 10
67.88468927200687
 20
301.7995555304348
 30
0.0
 10
67.86167088663584
 20
301.8106434151513
 30
0.0
 10
67.84009984104328
 20
301.8243360230459
 30
0.0
 10
67.82022650491908
 20
301.840629539548
 30
0.0
 10
67.80195696256283
 20
301.8595036461047
 30
0.0
 10
67.78565539147971
 20
301.8806487565352
 30
0.0
 10
67.76563488348827
 20
301.9129864581603
 30
0.0
 10
67.74606766328515
 20
301.9582072156125
 30
0.0
 10
67.73032513124303
 20
302.0189716752361
 30
0.0
 10
67.72120822422114
 20
302.0838597093084
 30
0.0
 10
67.7202719762818
 20
302.1292084790611
 30
0.0
 10
67.7198042169
 20
302.1518652045
 30
0.0
 11
68.4078749479
 21
301.9606913904
 31
0.0
 11
68.34793509192866
 21
301.9189697631261
 31
0.0
 11
68.28584641428546
 21
301.8804800579599
 31
0.0
 11
68.22585304555564
 21
301.8482028513066
 31
0.0
 11
68.16366699347034
 21
301.8204221285846
 31
0.0
 11
68.10511280323215
 21
301.800169541052
 31
0.0
 11
68.04462431818466
 21
301.7864805088083
 31
0.0
 11
67.98934312800415
 21
301.781563850415
 31
0.0
 11
67.93424290821652
 21
301.7858238022408
 31
0.0
 11
67.909104992152
 21
301.7916136636565
 31
0.0
 11
67.88474027195194
 21
301.8000720597286
 31
0.0
 11
67.86191000388229
 21
301.8110754072534
 31
0.0
 11
67.84052178596833
 21
301.8246690054091
 31
0.0
 11
67.82056364585581
 21
301.8409916606151
 31
0.0
 11
67.80261216746325
 21
301.8595041646451
 31
0.0
 11
67.78603856733854
 21
301.8809081886998
 31
0.0
 11
67.77174307753222
 21
301.9039023762152
 31
0.0
 11
67.74757405306501
 21
301.9585980979493
 31
0.0
 11
67.73204525247682
 21
302.0165958150729
 31
0.0
 11
67.72255247771457
 21
302.0839785803636
 31
0.0
 11
67.7198042169
 21
302.1518652045
 31
0.0
  0
SPLINE
  5
105
330
1F
100
AcDbEntity
  8
0
  6
Continuous
 62
     7
100
AcDbSpline
210
0.0
220
0.0
230
1.0
 70
     8
 71
     3
 72
    11
 73
     7
 74
     5
 42
0.0000000001
 43
0.0000000001
 44
0.00000001
 40
0.0
 40
0.0
 40
0.0
 40
0.0
 40
0.0719820116788467
 40
0.1441794862678769
 40
0.2163078795541491
 40
0.2883301028249144
 40
0.2883301028249144
 40
0.2883301028249144
 40
0.2883301028249144
 10
68.6697669745
 20
301.8481365504
 30
0.0
 10
68.64604014129924
 20
301.8520397375709
 30
0.0
 10
68.59851545364651
 20
301.8598577952769
 30
0.0
 10
68.53064878542611
 20
301.8852915190666
 30
0.0
 10
68.4664119681375
 20
301.9185190492608
 30
0.0
 10
68.42737770478894
 20
301.9466408474557
 30
0.0
 10
68.4078749479
 20
301.9606913904
 30
0.0
 11
68.6697669745
 21
301.8481365504
 31
0.0
 11
68.59915684795521
 21
301.8621229736262
 31
0.0
 11
68.53123516554133
 21
301.8865999096089
 31
0.0
 11
68.46732335706358
 21
301.9200332141892
 31
0.0
 11
68.4078749479
 21
301.9606913904
 31
0.0
  0
SPLINE
  5
106
330
1F
100
AcDbEntity
  8
0
  6
Continuous
 62
     7
100
AcDbSpline
210
0.0
220
0.0
230
1.0
 70
     8
 71
     3
 72
    25
 73
    21
 74
    19
 42
0.0000000001
 43
0.0000000001
 44
0.00000001
 40
0.0
 40
0.0
 40
0.0
 40
0.0
 40
0.0272067661449932
 40
0.0544881809679473
 40
0.0817226175558461
 40
0.1089430469804605
 40
0.1361366760817329
 40
0.1633351632023449
 40
0.1904968256335968
 40
0.217656138411039
 40
0.2719142873991052
 40
0.3262206322787541
 40
0.3804997304002379
 40
0.4347596646584824
 40
0.4890233385929521
 40
0.5432903873025132
 40
0.597553005840069
 40
0.6518162746241615
 40
0.7603346281728849
 40
0.8688546603467243
 40
0.8688546603467243
 40
0.8688546603467243
 40
0.8688546603467243
 10
109.4573042169
 20
314.6328039765
 30
0.0
 10
109.4482277605693
 20
314.6332409667876
 30
0.0
 10
109.4300499443429
 20
314.6341161463567
 30
0.0
 10
109.4034485423895
 20
314.6406550688832
 30
0.0
 10
109.3779743029208
 20
314.6504635903744
 30
0.0
 10
109.3539048018593
 20
314.6633020912352
 30
0.0
 10
109.3312819493503
 20
314.6784767119462
 30
0.0
 10
109.3100572520895
 20
314.6955057510366
 30
0.0
 10
109.2900720538934
 20
314.7139437977037
 30
0.0
 10
109.2649561042304
 20
314.7400261664642
 30
0.0
 10
109.2360233070694
 20
314.7748915482655
 30
0.0
 10
109.2046539150772
 20
314.8192343826994
 30
0.0
 10
109.1758304940806
 20
314.8652590147179
 30
0.0
 10
109.149213502125
 20
314.9125690596209
 30
0.0
 10
109.124402508869
 20
314.9608403980319
 30
0.0
 10
109.1011750477776
 20
315.0098910738029
 30
0.0
 10
109.0792922095377
 20
315.0595544697961
 30
0.0
 10
109.0517474364171
 20
315.1264579291924
 30
0.0
 10
109.0197753158039
 20
315.2110865374619
 30
0.0
 10
108.9971045434483
 20
315.2797947329522
 30
0.0
 10
108.9857690696
 20
315.3141490964
 30
0.0
 11
109.4573042169
 21
314.6328039765
 31
0.0
 11
109.4301849090468
 21
314.6349837163086
 31
0.0
 11
109.4036222641028
 21
314.6412047683353
 31
0.0
 11
109.3781997137306
 21
314.6509724942135
 31
0.0
 11
109.3541365039877
 21
314.6636970262259
 31
0.0
 11
109.3315136628205
 21
314.6787867751044
 31
0.0
 11
109.3102530932715
 21
314.6957498492392
 31
0.0
 11
109.2902594975481
 21
314.7141349528853
 31
0.0
 11
109.271388815049
 21
314.7336676335145
 31
0.0
 11
109.2365905371872
 21
314.7752972694661
 31
0.0
 11
109.205073350705
 21
314.8195222177469
 31
0.0
 11
109.1761937240714
 21
314.8654807605696
 31
0.0
 11
109.1495147545779
 21
314.9127287557913
 31
0.0
 11
109.1246670014629
 21
314.9609691483478
 31
0.0
 11
109.1013985303015
 21
315.0099945583456
 31
0.0
 11
109.0794961260885
 21
315.0596404691565
 31
0.0
 11
109.0587967806756
 21
315.109800607101
 31
0.0
 11
109.0205021468635
 21
315.2113375662742
 31
0.0
 11
108.9857690696
 21
315.3141490964
 31
0.0
  0
SPLINE
  5
107
330
1F
100
AcDbEntity
  8
0
  6
Continuous
 62
     7
100
AcDbSpline
210
0.0
220
0.0
230
1.0
 70
     8
 71
     3
 72
    25
 73
    21
 74
    19
 42
0.0000000001
 43
0.0000000001
 44
0.00000001
 40
0.0
 40
0.0
 40
0.0
 40
0.0
 40
0.1085285490977289
 40
0.2170554557158603
 40
0.271324133297713
 40
0.325592110931936
 40
0.3798650579451396
 40
0.4341347749101442
 40
0.4884007825063171
 40
0.5426855351802504
 40
0.5969918906406543
 40
0.6512511252795554
 40
0.6784124281181697
 40
0.7055751104942592
 40
0.7327602080947324
 40
0.7599421722284638
 40
0.7871532997298875
 40
0.8143760191547076
 40
0.841652575787808
 40
0.8688563236157556
 40
0.8688563236157556
 40
0.8688563236157556
 40
0.8688563236157556
 10
112.2538393641
 20
315.3141490964
 30
0.0
 10
112.2425029406966
 20
315.2797920558219
 30
0.0
 10
112.219830265456
 20
315.2110784946277
 30
0.0
 10
112.1878552455922
 20
315.1264429734099
 30
0.0
 10
112.1603081871612
 20
315.0595334909892
 30
0.0
 10
112.1384230757888
 20
315.0098650212131
 30
0.0
 10
112.1151926516495
 20
314.9608093620012
 30
0.0
 10
112.0903784195604
 20
314.9125329426654
 30
0.0
 10
112.0637585037224
 20
314.8652177412827
 30
0.0
 10
112.0349311479879
 20
314.8191908685806
 30
0.0
 10
112.0035547334964
 20
314.7748501520651
 30
0.0
 10
111.974617798347
 20
314.7399870771708
 30
0.0
 10
111.9495010783542
 20
314.7139035723865
 30
0.0
 10
111.9295154018816
 20
314.6954708350702
 30
0.0
 10
111.9082875347991
 20
314.6784583228568
 30
0.0
 10
111.8856691913633
 20
314.6632984855185
 30
0.0
 10
111.8616151454942
 20
314.6504555215341
 30
0.0
 10
111.8361526767088
 20
314.6406385433814
 30
0.0
 10
111.8095548866597
 20
314.6341105929467
 30
0.0
 10
111.791379676889
 20
314.6332391270995
 30
0.0
 10
111.7823042169
 20
314.6328039765
 30
0.0
 11
112.2538393641
 21
315.3141490964
 31
0.0
 11
112.2191033611846
 21
315.2113295648376
 31
0.0
 11
112.1808055559204
 21
315.1097846606225
 31
0.0
 11
112.1601042175825
 21
315.0596194938481
 31
0.0
 11
112.1381995677737
 21
315.0099687162785
 31
0.0
 11
112.1149281515857
 21
314.960938175122
 31
0.0
 11
112.0900772174411
 21
314.912692623497
 31
0.0
 11
112.0633948565739
 21
314.8654395685801
 31
0.0
 11
112.0345100032995
 21
314.8194776318912
 31
0.0
 11
112.0029879722127
 21
314.7752561235548
 31
0.0
 11
111.9681855701371
 21
314.7336285202924
 31
0.0
 11
111.9493128673697
 21
314.7140950243906
 31
0.0
 11
111.9293149010209
 21
314.6957131676897
 31
0.0
 11
111.9080571263757
 21
314.6787680637159
 31
0.0
 11
111.8854400627066
 21
314.6636906765033
 31
0.0
 11
111.8613887370136
 21
314.6509635718716
 31
0.0
 11
111.8359801180223
 21
314.6411922600948
 31
0.0
 11
111.8094209988123
 21
314.6349774609392
 31
0.0
 11
111.7823042169
 21
314.6328039765
 31
0.0
  0
SPLINE
  5
108
330
1F
100
AcDbEntity
  8
0
  6
Continuous
 62
     7
100
AcDbSpline
210
0.0
220
0.0
230
1.0
 70
     8
 71
     3
 72
    25
 73
    21
 74
    19
 42
0.0000000001
 43
0.0000000001
 44
0.00000001
 40
0.0
 40
0.0
 40
0.0
 40
0.0
 40
0.027207418128612
 40
0.0544897103699573
 40
0.0817252615438592
 40
0.1089465263904238
 40
0.1361394922774453
 40
0.1633375027142793
 40
0.190499912753273
 40
0.2176598700653325
 40
0.2719180516381934
 40
0.3262245620601943
 40
0.3805032119813718
 40
0.4347626393415822
 40
0.4890258447078937
 40
0.5432924465189568
 40
0.5975546789310683
 40
0.6518175541936849
 40
0.7603351296696156
 40
0.8688543878137795
 40
0.8688543878137795
 40
0.8688543878137795
 40
0.8688543878137795
 10
111.7823042169
 20
304.7604942163
 30
0.0
 10
111.7913808897617
 20
304.7600569758163
 30
0.0
 10
111.8095592142544
 20
304.7591812915743
 30
0.0
 10
111.8361610874695
 20
304.7526407497216
 30
0.0
 10
111.8616365441628
 20
304.7428330111645
 30
0.0
 10
111.8857070677284
 20
304.7299953819352
 30
0.0
 10
111.9083294394783
 20
304.7148201434067
 30
0.0
 10
111.9295532950825
 20
304.6977902945275
 30
0.0
 10
111.9495386504384
 20
304.6793519956539
 30
0.0
 10
111.9746551542625
 20
304.653269493449
 30
0.0
 10
112.0035877514756
 20
304.6184035439114
 30
0.0
 10
112.0349563446488
 20
304.574060260469
 30
0.0
 10
112.0637794956931
 20
304.5280357834896
 30
0.0
 10
112.0903963752112
 20
304.4807262189047
 30
0.0
 10
112.1152071052562
 20
304.4324552760309
 30
0.0
 10
112.1384342808544
 20
304.3834049456647
 30
0.0
 10
112.160316917367
 20
304.3337419082258
 30
0.0
 10
112.1878614850865
 20
304.2668389258855
 30
0.0
 10
112.2198333647409
 20
304.1822109201554
 30
0.0
 10
112.2425039723925
 20
304.1135032152134
 30
0.0
 10
112.2538393641
 20
304.0791490964
 30
0.0
 11
111.7823042169
 21
304.7604942163
 31
0.0
 11
111.8094241079226
 21
304.7583135943361
 31
0.0
 11
111.8359874042557
 21
304.7520914758977
 31
0.0
 11
111.8614112611393
 21
304.7423240428209
 31
0.0
 11
111.8854756202587
 21
304.7295998972693
 31
0.0
 11
111.9080976234749
 21
304.7145100873229
 31
0.0
 11
111.929357255348
 21
304.6975466022936
 31
0.0
 11
111.9493512658216
 21
304.679160845189
 31
0.0
 11
111.9682224784301
 21
304.6596277805069
 31
0.0
 11
112.0030204443364
 21
304.6179978413239
 31
0.0
 11
112.0345371269087
 21
304.5737723306558
 31
0.0
 11
112.0634163206692
 21
304.5278140451676
 31
0.0
 11
112.0900950916166
 21
304.4805665199606
 31
0.0
 11
112.1149426028012
 21
304.4323265298636
 31
0.0
 11
112.1382108021166
 21
304.3833014855215
 31
0.0
 11
112.1601130084249
 21
304.3336559094329
 31
0.0
 11
112.1808121926212
 21
304.2834961306717
 31
0.0
 11
112.2191065401181
 21
304.1819598950858
 31
0.0
 11
112.2538393641
 21
304.0791490964
 31
0.0
  0
SPLINE
  5
109
330
1F
100
AcDbEntity
  8
0
  6
Continuous
 62
     7
100
AcDbSpline
210
0.0
220
0.0
230
1.0
 70
     8
 71
     3
 72
    25
 73
    21
 74
    19
 42
0.0000000001
 43
0.0000000001
 44
0.00000001
 40
0.0
 40
0.0
 40
0.0
 40
0.0
 40
0.1085025556844913
 40
0.2170033620505757
 40
0.2712583157976027
 40
0.3255127643024073
 40
0.3797719179216931
 40
0.4340272286554765
 40
0.4882788892779105
 40
0.5425511686146417
 40
0.5968541105001564
 40
0.651105129011045
 40
0.6782579264720939
 40
0.7054161158458597
 40
0.7326228693586206
 40
0.7598194768934622
 40
0.7870692643791102
 40
0.8143404776740067
 40
0.8416356459080624
 40
0.8688504930247677
 40
0.8688504930247677
 40
0.8688504930247677
 40
0.8688504930247677
 10
108.9857690696
 20
304.0791490964
 30
0.0
 10
108.9971027201251
 20
304.1134979262505
 30
0.0
 10
109.0197698384499
 20
304.1821950321669
 30
0.0
 10
109.0517365628293
 20
304.2668102228891
 30
0.0
 10
109.0792764470695
 20
304.3337034237447
 30
0.0
 10
109.1011550672521
 20
304.3833597883281
 30
0.0
 10
109.124377230834
 20
304.4324039529462
 30
0.0
 10
109.1491828645944
 20
304.4806688695955
 30
0.0
 10
109.1757956974813
 20
304.5279722778585
 30
0.0
 10
109.2046107687702
 20
304.5739946248617
 30
0.0
 10
109.2359612859334
 20
304.6183435038229
 30
0.0
 10
109.2648861214925
 20
304.6532091450346
 30
0.0
 10
109.2900081019973
 20
304.6792779085707
 30
0.0
 10
109.3099905427383
 20
304.6977171075486
 30
0.0
 10
109.3311923958418
 20
304.7147777585868
 30
0.0
 10
109.3538119420307
 20
304.7299841497392
 30
0.0
 10
109.3779187781838
 20
304.7428056287835
 30
0.0
 10
109.4034284305163
 20
304.7525904178756
 30
0.0
 10
109.4300400647535
 20
304.7591646255178
 30
0.0
 10
109.4482250981345
 20
304.760051454957
 30
0.0
 10
109.4573042169
 20
304.7604942163
 30
0.0
 11
108.9857690696
 21
304.0791490964
 31
0.0
 11
109.0204965012367
 21
304.181944086949
 31
0.0
 11
109.0587845405666
 21
304.2834647795509
 31
0.0
 11
109.079480228146
 21
304.3336174317411
 31
0.0
 11
109.1013783333467
 21
304.3832563093591
 31
0.0
 11
109.1246417848179
 21
304.4322753625643
 31
0.0
 11
109.1494842728367
 21
304.480509059622
 31
0.0
 11
109.1761578374233
 21
304.5277506052417
 31
0.0
 11
109.205027792008
 21
304.5737071719834
 31
0.0
 11
109.236530938415
 21
304.6179379447991
 31
0.0
 11
109.2713222547793
 21
304.6595641062256
 31
0.0
 11
109.2901931476388
 21
304.6790875232587
 31
0.0
 11
109.310179689153
 21
304.6974751660757
 31
0.0
 11
109.3314272967234
 21
304.7144677117718
 31
0.0
 11
109.354041493875
 21
304.7295757741424
 31
0.0
 11
109.378141137444
 21
304.7422941898402
 31
0.0
 11
109.4036064329408
 21
304.7520531754348
 31
0.0
 11
109.4301783960361
 21
304.7582947286218
 31
0.0
 11
109.4573042169
 21
304.7604942163
 31
0.0
  0
SPLINE
  5
10A
330
1F
100
AcDbEntity
  8
0
  6
Continuous
 62
     7
100
AcDbSpline
210
0.0
220
0.0
230
1.0
 70
     8
 71
     3
 72
    13
 73
     9
 74
     7
 42
0.0000000001
 43
0.0000000001
 44
0.00000001
 40
0.0
 40
0.0
 40
0.0
 40
0.0
 40
0.131284806767221
 40
0.26261319145248
 40
0.3227000710711587
 40
0.3827285903040942
 40
0.4404671082375136
 40
0.4981359434446035
 40
0.4981359434446035
 40
0.4981359434446035
 40
0.4981359434446035
 10
108.9857690696
 20
315.3141490964
 30
0.0
 10
108.9504442572935
 20
315.3401785435999
 30
0.0
 10
108.8797829071671
 20
315.3922460780634
 30
0.0
 10
108.8102761468118
 20
315.4759215797466
 30
0.0
 10
108.7670190175587
 20
315.5478142881601
 30
0.0
 10
108.7422982538068
 20
315.6018215453954
 30
0.0
 10
108.7234573827069
 20
315.6573701936435
 30
0.0
 10
108.7164064477222
 20
315.6952304154563
 30
0.0
 10
108.7128831089
 20
315.7141490964
 30
0.0
 11
108.9857690696
 21
315.3141490964
 31
0.0
 11
108.8833176571141
 21
315.3962429973157
 31
0.0
 11
108.7988378907213
 21
315.4967930529808
 31
0.0
 11
108.7680021018264
 21
315.5483642389817
 31
0.0
 11
108.7429468531165
 21
315.6029138277371
 31
0.0
 11
108.7247873115815
 21
315.657722289715
 31
0.0
 11
108.7128831089
 21
315.7141490964
 31
0.0
  0
SPLINE
  5
10B
330
1F
100
AcDbEntity
  8
0
  6
Continuous
 62
     7
100
AcDbSpline
210
0.0
220
0.0
230
1.0
 70
     8
 71
     3
 72
    13
 73
     9
 74
     7
 42
0.0000000001
 43
0.0000000001
 44
0.00000001
 40
0.0
 40
0.0
 40
0.0
 40
0.0
 40
0.0576631896701302
 40
0.115396131536556
 40
0.1754242231922405
 40
0.235510540087104
 40
0.3668449112347083
 40
0.4981360904811522
 40
0.4981360904811522
 40
0.4981360904811522
 40
0.4981360904811522
 10
112.5267253249
 20
315.7141490964
 30
0.0
 10
112.5232022871294
 20
315.6952322761923
 30
0.0
 10
112.5161519499505
 20
315.6573757530722
 30
0.0
 10
112.4973127353351
 20
315.6018307167924
 30
0.0
 10
112.4725948275243
 20
315.5478246077896
 30
0.0
 10
112.4293396782041
 20
315.4759287247666
 30
0.0
 10
112.3598308280372
 20
315.3922494226497
 30
0.0
 10
112.2891659781869
 20
315.3401796839869
 30
0.0
 10
112.2538393641
 20
315.3141490964
 30
0.0
 11
112.5267253249
 21
315.7141490964
 31
0.0
 11
112.5148222453803
 21
315.6577278225675
 31
0.0
 11
112.4966650546641
 21
315.6029244558657
 31
0.0
 11
112.4716117407592
 21
315.5483744489894
 31
0.0
 11
112.4407781082878
 21
315.4968026292948
 31
0.0
 11
112.3562958704289
 21
315.3962468311971
 31
0.0
 11
112.2538393641
 21
315.3141490964
 31
0.0
  0
SPLINE
  5
10C
330
1F
100
AcDbEntity
  8
0
  6
Continuous
 62
     7
100
AcDbSpline
210
0.0
220
0.0
230
1.0
 70
     8
 71
     3
 72
    11
 73
     7
 74
     5
 42
0.0000000001
 43
0.0000000001
 44
0.00000001
 40
0.0
 40
0.0
 40
0.0
 40
0.0
 40
0.1068456601108979
 40
0.214257194472784
 40
0.3333679116120689
 40
0.4521343114849578
 40
0.4521343114849578
 40
0.4521343114849578
 40
0.4521343114849578
 10
108.72181903902
 20
303.724155351695
 30
0.0
 10
108.7325052876458
 20
303.7582640429301
 30
0.0
 10
108.7539343812339
 20
303.8266620712973
 30
0.0
 10
108.8129332167925
 20
303.9219154569412
 30
0.0
 10
108.8893491574301
 20
304.0090539483523
 30
0.0
 10
108.9536601280314
 20
304.0558066045613
 30
0.0
 10
108.9857690696
 20
304.0791490964
 30
0.0
 11
108.72181903902
 21
303.724155351695
 31
0.0
 11
108.7579784750976
 21
303.8246963396904
 31
0.0
 11
108.8131206443458
 21
303.9168732287927
 31
0.0
 11
108.8923503854053
 21
304.0058114717992
 31
0.0
 11
108.9857690696
 21
304.0791490964
 31
0.0
  0
SPLINE
  5
10D
330
1F
100
AcDbEntity
  8
0
  6
Continuous
 62
     7
100
AcDbSpline
210
0.0
220
0.0
230
1.0
 70
     8
 71
     3
 72
    13
 73
     9
 74
     7
 42
0.0000000001
 43
0.0000000001
 44
0.00000001
 40
0.0
 40
0.0
 40
0.0
 40
0.0
 40
0.1312911944312921
 40
0.262625580615973
 40
0.3227118843237359
 40
0.3827399628189029
 40
0.4404729026841775
 40
0.4981360903826594
 40
0.4981360903826594
 40
0.4981360903826594
 40
0.4981360903826594
 10
112.2538393641
 20
304.0791490964
 30
0.0
 10
112.2891659821251
 20
304.0531185055611
 30
0.0
 10
112.3598308398121
 20
304.0010487604236
 30
0.0
 10
112.4293396908761
 20
303.9173694511319
 30
0.0
 10
112.4725948352457
 20
303.8454735696085
 30
0.0
 10
112.4973127380298
 20
303.7914674687702
 30
0.0
 10
112.5161519504116
 20
303.73592243779
 30
0.0
 10
112.5232022872825
 20
303.6980659159649
 30
0.0
 10
112.5267253249
 20
303.6791490964
 30
0.0
 11
112.2538393641
 21
304.0791490964
 31
0.0
 11
112.3562958813441
 21
303.9970513509412
 31
0.0
 11
112.4407781252671
 21
303.8964955382985
 31
0.0
 11
112.4716117488689
 21
303.8449237286653
 31
0.0
 11
112.4966650562115
 21
303.7903737332572
 31
0.0
 11
112.5148222459332
 21
303.7355703683341
 31
0.0
 11
112.5267253249
 21
303.6791490964
 31
0.0
  0
SPLINE
  5
10E
330
1F
100
AcDbEntity
  8
FASEN
  6
Continuous
 62
     7
100
AcDbSpline
210
0.0
220
0.0
230
1.0
 70
     8
 71
     3
 72
    41
 73
    37
 74
    35
 42
0.0000000001
 43
0.0000000001
 44
0.00000001
 40
0.0
 40
0.0
 40
0.0
 40
0.0
 40
0.3535888544107821
 40
0.7075507289679834
 40
1.06068484095002
 40
1.413709983431632
 40
1.765779918096839
 40
2.117876005235443
 40
2.469055569696879
 40
2.820227711307943
 40
3.171084425291978
 40
3.521941346669043
 40
3.873160085290276
 40
4.224381765501497
 40
4.576461723146521
 40
4.928542604224243
 40
5.281581803859202
 40
5.634626310499423
 40
5.988339657474366
 40
6.342041478550861
 40
6.695908397061998
 40
7.049820838100013
 40
7.403595216302765
 40
7.75719400792955
 40
7.933994428142267
 40
8.110739696206995
 40
8.28742050294796
 40
8.464157456684866
 40
8.8172875033418
 40
9.17059225345547
 40
9.523997521701256
 40
9.877334047539959
 40
10.23089310700793
 40
10.58456791526829
 40
10.93860935642376
 40
11.29227461520399
 40
11.29227461520399
 40
11.29227461520399
 40
11.29227461520399
 10
88.7190526284
 20
309.6966490964
 30
0.0
 10
88.71574401822588
 20
309.5787375042145
 30
0.0
 10
88.70912330744451
 20
309.342789928481
 30
0.0
 10
88.655246474531
 20
308.9924849841765
 30
0.0
 10
88.57001318638859
 20
308.6490989604504
 30
0.0
 10
88.45118472069473
 20
308.3163177535254
 30
0.0
 10
88.30052203561495
 20
307.9971422346563
 30
0.0
 10
88.11957208871908
 20
307.694796489509
 30
0.0
 10
87.90987092807264
 20
307.4120169310513
 30
0.0
 10
87.67370975320162
 20
307.1514832143998
 30
0.0
 10
87.41309031902816
 20
306.9155800388298
 30
0.0
 10
87.13058856545405
 20
306.7063520855156
 30
0.0
 10
86.82874654774577
 20
306.525907867036
 30
0.0
 10
86.51034831986622
 20
306.375657508548
 30
0.0
 10
86.17848865142122
 20
306.25723333774
 30
0.0
 10
85.8360976957302
 20
306.171512857323
 30
0.0
 10
85.48665910119044
 20
306.1195507599932
 30
0.0
 10
85.13328770424928
 20
306.1016939221476
 30
0.0
 10
84.77963317072818
 20
306.1183079799096
 30
0.0
 10
84.42898115702414
 20
306.1691520297688
 30
0.0
 10
84.08488175904114
 20
306.253919384544
 30
0.0
 10
83.75062429706401
 20
306.3717509881825
 30
0.0
 10
83.42958955304678
 20
306.5216642660391
 30
0.0
 10
83.1755432637257
 20
306.6720907476507
 30
0.0
 10
82.98210165232517
 20
306.806921166328
 30
0.0
 10
82.84219319496535
 20
306.915038503608
 30
0.0
 10
82.70776844772368
 20
307.0298700306457
 30
0.0
 10
82.53638369237515
 20
307.1915249485098
 30
0.0
 10
82.33743775409607
 20
307.4092239669354
 30
0.0
 10
82.12556405059887
 20
307.6926192918369
 30
0.0
 10
81.94276502655089
 20
307.9956958195147
 30
0.0
 10
81.7907318464522
 20
308.3153768071028
 30
0.0
 10
81.67083236266583
 20
308.6486107092478
 30
0.0
 10
81.58488193082667
 20
308.9922228579038
 30
0.0
 10
81.53060449184306
 20
309.342712748638
 30
0.0
 10
81.52390418029472
 20
309.5787121290673
 30
0.0
 10
81.5205558053
 20
309.6966490964
 30
0.0
 11
88.7190526284
 21
309.6966490964
 31
0.0
 11
88.70180480116022
 21
309.3434811612487
 31
0.0
 11
88.64995874068
 21
308.9933369128985
 31
0.0
 11
88.5643727729235
 21
308.6507310998005
 31
0.0
 11
88.44573561257371
 21
308.3182375278201
 31
0.0
 11
88.29543006912742
 21
307.9998643466247
 31
0.0
 11
88.1145827185331
 21
307.6977618965166
 31
0.0
 11
87.90541692700025
 21
307.4156683692109
 31
0.0
 11
87.66954630359473
 21
307.1555012651066
 31
0.0
 11
87.40944649456252
 21
306.920026164323
 31
0.0
 11
87.12748244762902
 21
306.7112275639563
 31
0.0
 11
86.82604866101615
 21
306.5309714277309
 31
0.0
 11
86.50841353825632
 21
306.3810894827217
 31
0.0
 11
86.17683048865183
 21
306.2627130585896
 31
0.0
 11
85.83528908168799
 21
306.1772120986556
 31
0.0
 11
85.48609560197126
 21
306.1252448955154
 31
0.0
 11
85.13350037439211
 21
306.1074395829024
 31
0.0
 11
84.78017539396653
 21
306.1240103413484
 31
0.0
 11
84.43013812438284
 21
306.1747930956575
 31
0.0
 11
84.08654072590285
 21
306.2594253813076
 31
0.0
 11
83.75277189903133
 21
306.3771215415266
 31
0.0
 11
83.43222045314451
 21
306.5267981302525
 31
0.0
 11
83.12799120875188
 21
306.7070109830022
 31
0.0
 11
82.9829430942433
 21
306.8081021946128
 31
0.0
 11
82.84308763771769
 21
306.916173194716
 31
0.0
 11
82.70875314426993
 21
307.0309353458842
 31
0.0
 11
82.58019077261123
 21
307.1522105181566
 31
0.0
 11
82.34195227913779
 21
307.4128697786471
 31
0.0
 11
82.13043550902732
 21
307.6958625390048
 31
0.0
 11
81.94788820953983
 21
307.9984708123116
 31
0.0
 11
81.79612128981864
 21
308.3175530941295
 31
0.0
 11
81.67651278150953
 21
308.6502659031284
 31
0.0
 11
81.59018737828552
 21
308.9932437373338
 31
0.0
 11
81.53796577811777
 21
309.3434126202051
 31
0.0
 11
81.5205558053
 21
309.6966490964
 31
0.0
  0
SPLINE
  5
10F
330
1F
100
AcDbEntity
  8
0
  6
Continuous
 62
     7
100
AcDbSpline
210
0.0
220
0.0
230
1.0
 70
     8
 71
     3
 72
    11
 73
     7
 74
     5
 42
0.0000000001
 43
0.0000000001
 44
0.00000001
 40
0.0
 40
0.0
 40
0.0
 40
0.0
 40
0.4419689634229215
 40
0.8839020538983178
 40
1.150518561921149
 40
1.416734593101622
 40
1.416734593101622
 40
1.416734593101622
 40
1.416734593101622
 10
68.4562944267
 20
302.0466490964
 30
0.0
 10
68.52499452686294
 20
302.1771733405897
 30
0.0
 10
68.66238915106176
 20
302.4382112348103
 30
0.0
 10
68.78731532263865
 20
302.8023802663895
 30
0.0
 10
68.85735168802586
 20
303.1207659972559
 30
0.0
 10
68.8656554543117
 20
303.2984927501507
 30
0.0
 10
68.8698042169
 20
303.3872893369
 30
0.0
 11
68.4562944267
 21
302.0466490964
 31
0.0
 11
68.65203930238351
 21
302.4429072297838
 31
0.0
 11
68.79622652318936
 21
302.8606570374599
 31
0.0
 11
68.84987420294338
 21
303.1218203748702
 31
0.0
 11
68.8698042169
 21
303.3872893369
 31
0.0
  0
SPLINE
  5
110
330
1F
100
AcDbEntity
  8
0
  6
Continuous
 62
     7
100
AcDbSpline
210
0.0
220
0.0
230
1.0
 70
     8
 71
     3
 72
    11
 73
     7
 74
     5
 42
0.0000000001
 43
0.0000000001
 44
0.00000001
 40
0.0
 40
0.0
 40
0.0
 40
0.0
 40
0.3847579053302411
 40
0.7696659746337668
 40
1.093183244058677
 40
1.416570809353044
 40
1.416570809353044
 40
1.416570809353044
 40
1.416570809353044
 10
68.8698042169
 20
316.0060088559
 30
0.0
 10
68.86117617911387
 20
316.1343554282173
 30
0.0
 10
68.84391673617628
 20
316.3910986641716
 30
0.0
 10
68.73806881818743
 20
316.7421929426848
 30
0.0
 10
68.60929067330926
 20
317.0613856091254
 30
0.0
 10
68.50728635829654
 20
317.2515739782028
 30
0.0
 10
68.4562944267
 20
317.3466490964
 30
0.0
 11
68.8698042169
 21
316.0060088559
 31
0.0
 11
68.82960974362015
 21
316.3886615052203
 31
0.0
 11
68.72627265442894
 21
316.7594386186085
 31
0.0
 11
68.60395594261779
 21
317.0589416163028
 31
0.0
 11
68.4562944267
 21
317.3466490964
 31
0.0
  0
DIMENSION
  5
11B
330
1F
100
AcDbEntity
  8
1
100
AcDbDimension
  2
*D2
 10
192.420730667848
 20
316.6966490964
 30
0.0
 11
188.670730667848
 21
309.320488804418
 31
0.0
 70
    32
  1
<>
 71
     5
 42
-1.0
 53
90.0
  3
ME10_DIM_10
100
AcDbAlignedDimension
 13
182.6198042169
 23
302.6966490964
 33
0.0
 14
182.6198042169
 24
316.6966490964
 34
0.0
 50
90.0
100
AcDbRotatedDimension
  0
DIMENSION
  5
126
330
1F
100
AcDbEntity
  8
1
100
AcDbDimension
  2
*D3
 10
200.749999575847
 20
323.1966490964527
 30
0.0
 11
196.999999575847
 21
309.558467916075
 31
0.0
 70
    32
  1
<>
 71
     5
 42
-1.0
 53
90.0
  3
ME10_DIM_11
100
AcDbAlignedDimension
 13
182.6198042169
 23
296.1966490963487
 33
0.0
 14
182.6198042169094
 24
323.1966490964528
 34
0.0
 50
90.0
100
AcDbRotatedDimension
  0
DIMENSION
  5
131
330
1F
100
AcDbEntity
  8
1
100
AcDbDimension
  2
*D4
 10
208.424825926789
 20
326.6966490964
 30
0.0
 11
204.674825926789
 21
309.855941805646
 31
0.0
 70
    32
  1
<>
 71
     5
 42
-1.0
 53
90.0
  3
ME10_DIM_12
100
AcDbAlignedDimension
 13
138.1480876403
 23
292.6966490964
 33
0.0
 14
138.1480876403
 24
326.6966490964
 34
0.0
 50
90.0
100
AcDbRotatedDimension
  0
DIMENSION
  5
13C
330
1F
100
AcDbEntity
  8
1
100
AcDbDimension
  2
*D5
 10
182.6198042169
 20
342.237552786115
 30
0.0
 11
149.555086551169
 21
345.987552786115
 31
0.0
 70
    32
  1
<>
 71
     5
 42
-1.0
 53
0.00013888888889
  3
ME10_DIM_13
100
AcDbAlignedDimension
 13
118.5698042169
 23
334.6965990779
 33
0.0
 14
182.6198042169
 24
322.2722586047
 34
0.0
100
AcDbRotatedDimension
  0
DIMENSION
  5
147
330
1F
100
AcDbEntity
  8
1
100
AcDbDimension
  2
*D6
 10
182.6198042169
 20
349.131313038416
 30
0.0
 11
136.002580600622
 21
352.881313038416
 31
0.0
 70
    32
  1
<>
 71
     5
 42
-1.0
 53
0.00013888888889
  3
ME10_DIM_14
100
AcDbAlignedDimension
 13
92.6198042169
 23
334.6966490964
 33
0.0
 14
182.6198042169
 24
322.2722586047
 34
0.0
100
AcDbRotatedDimension
  0
DIMENSION
  5
152
330
1F
100
AcDbEntity
  8
1
100
AcDbDimension
  2
*D7
 10
182.6198042169
 20
356.333041623638
 30
0.0
 11
126.627508263112
 21
360.083041623638
 31
0.0
 70
    32
  1
<>
 71
     5
 42
-1.0
 53
0.00013888888889
  3
ME10_DIM_15
100
AcDbAlignedDimension
 13
67.7198042169
 23
326.7530048776
 33
0.0
 14
182.6198042169
 24
322.2722586047
 34
0.0
100
AcDbRotatedDimension
  0
INSERT
  5
159
330
1F
100
AcDbEntity
  8
1
100
AcDbBlockReference
  2
*D8
 10
0.0
 20
0.0
 30
0.0
  0
DIMENSION
  5
164
330
1F
100
AcDbEntity
  8
1
100
AcDbDimension
  2
*D9
 10
164.2766460180394
 20
325.6700552417891
 30
0.0
 11
167.4357636056261
 21
332.7104149780557
 31
0.0
 70
    37
  1
<>
 71
     5
 42
-1.0
  3
ME10_DIM_16
100
AcDb3PointAngularDimension
 13
164.2161979608571
 23
324.6450443204929
 33
0.0
 14
140.762959449474
 24
326.6966490964001
 34
0.0
 15
138.1480876403
 25
326.6966490964001
 35
0.0
  0
ENDSEC
  0
SECTION
  2
OBJECTS
  0
DICTIONARY
  5
C
330
0
100
AcDbDictionary
281
     1
  3
ACAD_GROUP
350
D
  3
ACAD_LAYOUT
350
1A
  3
ACAD_MLEADERSTYLE
350
167
  3
ACAD_MLINESTYLE
350
17
  3
ACAD_PLOTSETTINGS
350
19
  3
ACAD_PLOTSTYLENAME
350
E
  3
ACAD_SCALELIST
350
4B
  3
ACAD_VISUALSTYLE
350
2A
  3
AcDbVariableDictionary
350
165
  0
DICTIONARY
  5
D
102
{ACAD_REACTORS
330
C
102
}
330
C
100
AcDbDictionary
281
     1
  0
DICTIONARY
  5
1A
102
{ACAD_REACTORS
330
C
102
}
330
C
100
AcDbDictionary
281
     1
  3
Layout1
350
1E
  3
Layout2
350
26
  3
Model
350
22
  0
DICTIONARY
  5
167
102
{ACAD_REACTORS
330
C
102
}
330
C
100
AcDbDictionary
281
     1
  0
DICTIONARY
  5
17
102
{ACAD_REACTORS
330
C
102
}
330
C
100
AcDbDictionary
281
     1
  3
Standard
350
18
  0
DICTIONARY
  5
19
102
{ACAD_REACTORS
330
C
102
}
330
C
100
AcDbDictionary
281
     1
  0
ACDBDICTIONARYWDFLT
  5
E
102
{ACAD_REACTORS
330
C
102
}
330
C
100
AcDbDictionary
281
     1
  3
Normal
350
F
100
AcDbDictionaryWithDefault
340
F
  0
DICTIONARY
  5
4B
102
{ACAD_REACTORS
330
C
102
}
330
C
100
AcDbDictionary
281
     1
  3
A0
350
4C
  3
A1
350
4D
  3
A2
350
4E
  3
A3
350
4F
  3
A4
350
50
  3
A5
350
51
  3
A6
350
52
  3
A7
350
53
  3
A8
350
54
  3
A9
350
55
  3
B0
350
56
  3
B1
350
57
  3
B2
350
58
  3
B3
350
59
  3
B4
350
5A
  3
B5
350
5B
  3
B6
350
5C
  3
B7
350
5D
  3
B8
350
5E
  3
B9
350
5F
  3
C0
350
60
  3
C1
350
61
  3
C2
350
62
  3
C3
350
63
  3
C4
350
64
  3
C5
350
65
  3
C6
350
66
  3
C7
350
67
  3
C8
350
68
  3
C9
350
69
  3
D0
350
6A
  3
D1
350
6B
  3
D2
350
6C
  0
DICTIONARY
  5
2A
102
{ACAD_REACTORS
330
C
102
}
330
C
100
AcDbDictionary
281
     1
  3
2dWireframe
350
2F
  3
3D Hidden
350
31
  3
3dWireframe
350
30
  3
Basic
350
32
  3
Brighten
350
36
  3
ColorChange
350
3A
  3
Conceptual
350
34
  3
Dim
350
35
  3
Facepattern
350
39
  3
Flat
350
2B
  3
FlatWithEdges
350
2C
  3
Gouraud
350
2D
  3
GouraudWithEdges
350
2E
  3
Linepattern
350
38
  3
Realistic
350
33
  3
Thicken
350
37
  0
DICTIONARY
  5
165
102
{ACAD_REACTORS
330
C
102
}
330
C
100
AcDbDictionary
281
     1
  3
CANNOSCALE
350
168
  0
LAYOUT
  5
1E
102
{ACAD_REACTORS
330
1A
102
}
330
1A
100
AcDbPlotSettings
  1

  2
none_device
  4

  6

 40
0.0
 41
0.0
 42
0.0
 43
0.0
 44
0.0
 45
0.0
 46
0.0
 47
0.0
 48
0.0
 49
0.0
140
0.0
141
0.0
142
1.0
143
1.0
 70
   688
 72
     0
 73
     0
 74
     5
  7

 75
    16
147
1.0
148
0.0
149
0.0
100
AcDbLayout
  1
Layout1
 70
     1
 71
     1
 10
0.0
 20
0.0
 11
12.0
 21
9.0
 12
0.0
 22
0.0
 32
0.0
 14
1.00000000000000E+20
 24
1.00000000000000E+20
 34
1.00000000000000E+20
 15
-1.00000000000000E+20
 25
-1.00000000000000E+20
 35
-1.00000000000000E+20
146
0.0
 13
0.0
 23
0.0
 33
0.0
 16
1.0
 26
0.0
 36
0.0
 17
0.0
 27
1.0
 37
0.0
 76
     0
330
1B
  0
LAYOUT
  5
26
102
{ACAD_REACTORS
330
1A
102
}
330
1A
100
AcDbPlotSettings
  1

  2
none_device
  4

  6

 40
0.0
 41
0.0
 42
0.0
 43
0.0
 44
0.0
 45
0.0
 46
0.0
 47
0.0
 48
0.0
 49
0.0
140
0.0
141
0.0
142
1.0
143
1.0
 70
   688
 72
     0
 73
     0
 74
     5
  7

 75
    16
147
1.0
148
0.0
149
0.0
100
AcDbLayout
  1
Layout2
 70
     1
 71
     2
 10
0.0
 20
0.0
 11
0.0
 21
0.0
 12
0.0
 22
0.0
 32
0.0
 14
0.0
 24
0.0
 34
0.0
 15
0.0
 25
0.0
 35
0.0
146
0.0
 13
0.0
 23
0.0
 33
0.0
 16
1.0
 26
0.0
 36
0.0
 17
0.0
 27
1.0
 37
0.0
 76
     0
330
23
  0
LAYOUT
  5
22
102
{ACAD_REACTORS
330
1A
102
}
330
1A
100
AcDbPlotSettings
  1

  2
none_device
  4

  6

 40
0.0
 41
0.0
 42
0.0
 43
0.0
 44
0.0
 45
0.0
 46
0.0
 47
0.0
 48
0.0
 49
0.0
140
0.0
141
0.0
142
1.0
143
1.0
 70
  1712
 72
     0
 73
     0
 74
     0
  7

 75
     0
147
1.0
148
0.0
149
0.0
100
AcDbLayout
  1
Model
 70
     1
 71
     0
 10
0.0
 20
0.0
 11
12.0
 21
9.0
 12
0.0
 22
0.0
 32
0.0
 14
64.5948042169
 24
267.2610481952737
 34
0.0
 15
210.424825926789
 25
361.833041623638
 35
0.0
146
0.0
 13
0.0
 23
0.0
 33
0.0
 16
1.0
 26
0.0
 36
0.0
 17
0.0
 27
1.0
 37
0.0
 76
     0
330
1F
331
29
  0
MLINESTYLE
  5
18
102
{ACAD_REACTORS
330
17
102
}
330
17
100
AcDbMlineStyle
  2
Standard
 70
     0
  3

 62
   256
 51
90.0
 52
90.0
 71
     2
 49
0.5
 62
   256
  6
BYLAYER
 49
-0.5
 62
   256
  6
BYLAYER
  0
ACDBPLACEHOLDER
  5
F
102
{ACAD_REACTORS
330
E
102
}
330
E
  0
SCALE
  5
4C
102
{ACAD_REACTORS
330
4B
102
}
330
4B
100
AcDbScale
 70
     0
300
1:1
140
1.0
141
1.0
290
     1
  0
SCALE
  5
4D
102
{ACAD_REACTORS
330
4B
102
}
330
4B
100
AcDbScale
 70
     0
300
1:2
140
1.0
141
2.0
290
     0
  0
SCALE
  5
4E
102
{ACAD_REACTORS
330
4B
102
}
330
4B
100
AcDbScale
 70
     0
300
1:4
140
1.0
141
4.0
290
     0
  0
SCALE
  5
4F
102
{ACAD_REACTORS
330
4B
102
}
330
4B
100
AcDbScale
 70
     0
300
1:5
140
1.0
141
5.0
290
     0
  0
SCALE
  5
50
102
{ACAD_REACTORS
330
4B
102
}
330
4B
100
AcDbScale
 70
     0
300
1:8
140
1.0
141
8.0
290
     0
  0
SCALE
  5
51
102
{ACAD_REACTORS
330
4B
102
}
330
4B
100
AcDbScale
 70
     0
300
1:10
140
1.0
141
10.0
290
     0
  0
SCALE
  5
52
102
{ACAD_REACTORS
330
4B
102
}
330
4B
100
AcDbScale
 70
     0
300
1:16
140
1.0
141
16.0
290
     0
  0
SCALE
  5
53
102
{ACAD_REACTORS
330
4B
102
}
330
4B
100
AcDbScale
 70
     0
300
1:20
140
1.0
141
20.0
290
     0
  0
SCALE
  5
54
102
{ACAD_REACTORS
330
4B
102
}
330
4B
100
AcDbScale
 70
     0
300
1:30
140
1.0
141
30.0
290
     0
  0
SCALE
  5
55
102
{ACAD_REACTORS
330
4B
102
}
330
4B
100
AcDbScale
 70
     0
300
1:40
140
1.0
141
40.0
290
     0
  0
SCALE
  5
56
102
{ACAD_REACTORS
330
4B
102
}
330
4B
100
AcDbScale
 70
     0
300
1:50
140
1.0
141
50.0
290
     0
  0
SCALE
  5
57
102
{ACAD_REACTORS
330
4B
102
}
330
4B
100
AcDbScale
 70
     0
300
1:100
140
1.0
141
100.0
290
     0
  0
SCALE
  5
58
102
{ACAD_REACTORS
330
4B
102
}
330
4B
100
AcDbScale
 70
     0
300
2:1
140
2.0
141
1.0
290
     0
  0
SCALE
  5
59
102
{ACAD_REACTORS
330
4B
102
}
330
4B
100
AcDbScale
 70
     0
300
4:1
140
4.0
141
1.0
290
     0
  0
SCALE
  5
5A
102
{ACAD_REACTORS
330
4B
102
}
330
4B
100
AcDbScale
 70
     0
300
8:1
140
8.0
141
1.0
290
     0
  0
SCALE
  5
5B
102
{ACAD_REACTORS
330
4B
102
}
330
4B
100
AcDbScale
 70
     0
300
10:1
140
10.0
141
1.0
290
     0
  0
SCALE
  5
5C
102
{ACAD_REACTORS
330
4B
102
}
330
4B
100
AcDbScale
 70
     0
300
100:1
140
100.0
141
1.0
290
     0
  0
SCALE
  5
5D
102
{ACAD_REACTORS
330
4B
102
}
330
4B
100
AcDbScale
 70
     0
300
1/128" = 1'-0"
140
0.0078125
141
12.0
290
     0
  0
SCALE
  5
5E
102
{ACAD_REACTORS
330
4B
102
}
330
4B
100
AcDbScale
 70
     0
300
1/64" = 1'-0"
140
0.015625
141
12.0
290
     0
  0
SCALE
  5
5F
102
{ACAD_REACTORS
330
4B
102
}
330
4B
100
AcDbScale
 70
     0
300
1/32" = 1'-0"
140
0.03125
141
12.0
290
     0
  0
SCALE
  5
60
102
{ACAD_REACTORS
330
4B
102
}
330
4B
100
AcDbScale
 70
     0
300
1/16" = 1'-0"
140
0.0625
141
12.0
290
     0
  0
SCALE
  5
61
102
{ACAD_REACTORS
330
4B
102
}
330
4B
100
AcDbScale
 70
     0
300
3/32" = 1'-0"
140
0.09375
141
12.0
290
     0
  0
SCALE
  5
62
102
{ACAD_REACTORS
330
4B
102
}
330
4B
100
AcDbScale
 70
     0
300
1/8" = 1'-0"
140
0.125
141
12.0
290
     0
  0
SCALE
  5
63
102
{ACAD_REACTORS
330
4B
102
}
330
4B
100
AcDbScale
 70
     0
300
3/16" = 1'-0"
140
0.1875
141
12.0
290
     0
  0
SCALE
  5
64
102
{ACAD_REACTORS
330
4B
102
}
330
4B
100
AcDbScale
 70
     0
300
1/4" = 1'-0"
140
0.25
141
12.0
290
     0
  0
SCALE
  5
65
102
{ACAD_REACTORS
330
4B
102
}
330
4B
100
AcDbScale
 70
     0
300
3/8" = 1'-0"
140
0.375
141
12.0
290
     0
  0
SCALE
  5
66
102
{ACAD_REACTORS
330
4B
102
}
330
4B
100
AcDbScale
 70
     0
300
1/2" = 1'-0"
140
0.5
141
12.0
290
     0
  0
SCALE
  5
67
102
{ACAD_REACTORS
330
4B
102
}
330
4B
100
AcDbScale
 70
     0
300
3/4" = 1'-0"
140
0.75
141
12.0
290
     0
  0
SCALE
  5
68
102
{ACAD_REACTORS
330
4B
102
}
330
4B
100
AcDbScale
 70
     0
300
1" = 1'-0"
140
1.0
141
12.0
290
     0
  0
SCALE
  5
69
102
{ACAD_REACTORS
330
4B
102
}
330
4B
100
AcDbScale
 70
     0
300
1-1/2" = 1'-0"
140
1.5
141
12.0
290
     0
  0
SCALE
  5
6A
102
{ACAD_REACTORS
330
4B
102
}
330
4B
100
AcDbScale
 70
     0
300
3" = 1'-0"
140
3.0
141
12.0
290
     0
  0
SCALE
  5
6B
102
{ACAD_REACTORS
330
4B
102
}
330
4B
100
AcDbScale
 70
     0
300
6" = 1'-0"
140
6.0
141
12.0
290
     0
  0
SCALE
  5
6C
102
{ACAD_REACTORS
330
4B
102
}
330
4B
100
AcDbScale
 70
     0
300
1'-0" = 1'-0"
140
12.0
141
12.0
290
     0
  0
VISUALSTYLE
  5
2F
102
{ACAD_REACTORS
330
2A
102
}
330
2A
100
AcDbVisualStyle
  2
2dWireframe
 70
     4
 71
     0
 72
     2
 73
     0
 90
        0
 40
-0.6
 41
-30.0
 62
     5
 63
     7
 74
     1
 91
        4
 64
     7
 65
   257
 75
     1
175
     1
 42
1.0
 92
        0
 66
   257
 43
1.0
 76
     1
 77
     6
 78
     2
 67
     7
 79
     5
170
     0
171
     0
290
     0
174
     0
 93
        1
 44
0.0
173
     0
291
     0
 45
0.0
1001
ACAD
1000
AcDbSavedByObjectVersion
1070
     0
  0
VISUALSTYLE
  5
31
102
{ACAD_REACTORS
330
2A
102
}
330
2A
100
AcDbVisualStyle
  2
3D Hidden
 70
     6
 71
     1
 72
     2
 73
     2
 90
        0
 40
-0.6
 41
-30.0
 62
     5
 63
     7
 74
     2
 91
        2
 64
     7
 65
   257
 75
     2
175
     1
 42
40.0
 92
        0
 66
   257
 43
1.0
 76
     1
 77
     6
 78
     2
 67
     7
 79
     3
170
     0
171
     0
290
     0
174
     0
 93
        1
 44
0.0
173
     0
291
     0
 45
0.0
1001
ACAD
1000
AcDbSavedByObjectVersion
1070
     0
  0
VISUALSTYLE
  5
30
102
{ACAD_REACTORS
330
2A
102
}
330
2A
100
AcDbVisualStyle
  2
3dWireframe
 70
     5
 71
     0
 72
     2
 73
     0
 90
        0
 40
-0.6
 41
-30.0
 62
     5
 63
     7
 74
     1
 91
        4
 64
     7
 65
   257
 75
     1
175
     1
 42
1.0
 92
        0
 66
   257
 43
1.0
 76
     1
 77
     6
 78
     2
 67
     7
 79
     5
170
     0
171
     0
290
     0
174
     0
 93
        1
 44
0.0
173
     0
291
     0
 45
0.0
1001
ACAD
1000
AcDbSavedByObjectVersion
1070
     0
  0
VISUALSTYLE
  5
32
102
{ACAD_REACTORS
330
2A
102
}
330
2A
100
AcDbVisualStyle
  2
Basic
 70
     7
 71
     1
 72
     0
 73
     1
 90
        0
 40
-0.6
 41
-30.0
 62
     5
 63
     7
 74
     0
 91
        4
 64
     7
 65
   257
 75
     1
175
     1
 42
1.0
 92
        8
 66
     7
 43
1.0
 76
     1
 77
     6
 78
     2
 67
     7
 79
     5
170
     0
171
     0
290
     0
174
     0
 93
        1
 44
0.0
173
     0
291
     1
 45
0.0
1001
ACAD
1000
AcDbSavedByObjectVersion
1070
     0
  0
VISUALSTYLE
  5
36
102
{ACAD_REACTORS
330
2A
102
}
330
2A
100
AcDbVisualStyle
  2
Brighten
 70
    12
 71
     2
 72
     2
 73
     0
 90
        0
 40
-0.6
 41
-30.0
 62
     5
 63
     7
 74
     1
 91
        4
 64
     7
 65
   257
 75
     1
175
     1
 42
1.0
 92
        8
 66
     7
 43
1.0
 76
     1
 77
     6
 78
     2
 67
     7
 79
     5
170
     0
171
     0
290
     0
174
     0
 93
        1
 44
50.0
173
     0
291
     1
 45
0.0
1001
ACAD
1000
AcDbSavedByObjectVersion
1070
     0
  0
VISUALSTYLE
  5
3A
102
{ACAD_REACTORS
330
2A
102
}
330
2A
100
AcDbVisualStyle
  2
ColorChange
 70
    16
 71
     2
 72
     2
 73
     3
 90
        0
 40
-0.6
 41
-30.0
 62
     5
 63
     8
 74
     1
 91
        4
 64
     7
 65
   257
 75
     1
175
     1
 42
1.0
 92
        8
 66
     8
 43
1.0
 76
     1
 77
     6
 78
     2
 67
     7
 79
     5
170
     0
171
     0
290
     0
174
     0
 93
        1
 44
0.0
173
     0
291
     1
 45
0.0
1001
ACAD
1000
AcDbSavedByObjectVersion
1070
     0
  0
VISUALSTYLE
  5
34
102
{ACAD_REACTORS
330
2A
102
}
330
2A
100
AcDbVisualStyle
  2
Conceptual
 70
     9
 71
     3
 72
     2
 73
     0
 90
        0
 40
-0.6
 41
-30.0
 62
     5
 63
     7
 74
     2
 91
        2
 64
     7
 65
   257
 75
     1
175
     1
 42
40.0
 92
        8
 66
     7
 43
1.0
 76
     1
 77
     6
 78
     2
 67
     7
 79
     3
170
     0
171
     0
290
     0
174
     0
 93
        1
 44
0.0
173
     0
291
     0
 45
0.0
1001
ACAD
1000
AcDbSavedByObjectVersion
1070
     0
  0
VISUALSTYLE
  5
35
102
{ACAD_REACTORS
330
2A
102
}
330
2A
100
AcDbVisualStyle
  2
Dim
 70
    11
 71
     2
 72
     2
 73
     0
 90
        0
 40
-0.6
 41
-30.0
 62
     5
 63
     7
 74
     1
 91
        4
 64
     7
 65
   257
 75
     1
175
     1
 42
1.0
 92
        8
 66
     7
 43
1.0
 76
     1
 77
     6
 78
     2
 67
     7
 79
     5
170
     0
171
     0
290
     0
174
     0
 93
        1
 44
-50.0
173
     0
291
     1
 45
0.0
1001
ACAD
1000
AcDbSavedByObjectVersion
1070
     0
  0
VISUALSTYLE
  5
39
102
{ACAD_REACTORS
330
2A
102
}
330
2A
100
AcDbVisualStyle
  2
Facepattern
 70
    15
 71
     2
 72
     2
 73
     0
 90
        0
 40
-0.6
 41
-30.0
 62
     5
 63
     7
 74
     1
 91
        4
 64
     7
 65
   257
 75
     1
175
     1
 42
1.0
 92
        8
 66
     7
 43
1.0
 76
     1
 77
     6
 78
     2
 67
     7
 79
     5
170
     0
171
     0
290
     0
174
     0
 93
        1
 44
0.0
173
     0
291
     1
 45
0.0
1001
ACAD
1000
AcDbSavedByObjectVersion
1070
     0
  0
VISUALSTYLE
  5
2B
102
{ACAD_REACTORS
330
2A
102
}
330
2A
100
AcDbVisualStyle
  2
Flat
 70
     0
 71
     2
 72
     1
 73
     1
 90
        2
 40
-0.6
 41
30.0
 62
     5
 63
     7
 74
     0
 91
        4
 64
     7
 65
   257
 75
     1
175
     1
 42
1.0
 92
        8
 66
     7
 43
1.0
 76
     1
 77
     6
 78
     2
 67
     7
 79
     5
170
     0
171
     0
290
     0
174
     0
 93
       13
 44
0.0
173
     0
291
     1
 45
0.0
1001
ACAD
1000
AcDbSavedByObjectVersion
1070
     0
  0
VISUALSTYLE
  5
2C
102
{ACAD_REACTORS
330
2A
102
}
330
2A
100
AcDbVisualStyle
  2
FlatWithEdges
 70
     1
 71
     2
 72
     1
 73
     1
 90
        2
 40
-0.6
 41
30.0
 62
     5
 63
     7
 74
     1
 91
        4
 64
     7
 65
   257
 75
     1
175
     1
 42
1.0
 92
        0
 66
   257
 43
1.0
 76
     1
 77
     6
 78
     2
 67
     7
 79
     5
170
     0
171
     0
290
     0
174
     0
 93
       13
 44
0.0
173
     0
291
     1
 45
0.0
1001
ACAD
1000
AcDbSavedByObjectVersion
1070
     0
  0
VISUALSTYLE
  5
2D
102
{ACAD_REACTORS
330
2A
102
}
330
2A
100
AcDbVisualStyle
  2
Gouraud
 70
     2
 71
     2
 72
     2
 73
     1
 90
        2
 40
-0.6
 41
30.0
 62
     5
 63
     7
 74
     0
 91
        4
 64
     7
 65
   257
 75
     1
175
     1
 42
1.0
 92
        0
 66
     7
 43
1.0
 76
     1
 77
     6
 78
     2
 67
     7
 79
     5
170
     0
171
     0
290
     0
174
     0
 93
       13
 44
0.0
173
     0
291
     1
 45
0.0
1001
ACAD
1000
AcDbSavedByObjectVersion
1070
     0
  0
VISUALSTYLE
  5
2E
102
{ACAD_REACTORS
330
2A
102
}
330
2A
100
AcDbVisualStyle
  2
GouraudWithEdges
 70
     3
 71
     2
 72
     2
 73
     1
 90
        2
 40
-0.6
 41
30.0
 62
     5
 63
     7
 74
     1
 91
        4
 64
     7
 65
   257
 75
     1
175
     1
 42
1.0
 92
        0
 66
   257
 43
1.0
 76
     1
 77
     6
 78
     2
 67
     7
 79
     5
170
     0
171
     0
290
     0
174
     0
 93
       13
 44
0.0
173
     0
291
     1
 45
0.0
1001
ACAD
1000
AcDbSavedByObjectVersion
1070
     0
  0
VISUALSTYLE
  5
38
102
{ACAD_REACTORS
330
2A
102
}
330
2A
100
AcDbVisualStyle
  2
Linepattern
 70
    14
 71
     2
 72
     2
 73
     0
 90
        0
 40
-0.6
 41
-30.0
 62
     5
 63
     7
 74
     1
 91
        4
 64
     7
 65
   257
 75
     7
175
     7
 42
1.0
 92
        8
 66
     7
 43
1.0
 76
     1
 77
     6
 78
     2
 67
     7
 79
     5
170
     0
171
     0
290
     0
174
     0
 93
        1
 44
0.0
173
     0
291
     1
 45
0.0
1001
ACAD
1000
AcDbSavedByObjectVersion
1070
     0
  0
VISUALSTYLE
  5
33
102
{ACAD_REACTORS
330
2A
102
}
330
2A
100
AcDbVisualStyle
  2
Realistic
 70
     8
 71
     2
 72
     2
 73
     0
 90
        0
 40
-0.6
 41
-30.0
 62
     5
 63
     7
 74
     1
 91
        0
 64
     7
 65
   257
 75
     1
175
     1
 42
1.0
 92
        8
 66
     8
 43
1.0
 76
     1
 77
     6
 78
     2
 67
     7
 79
     5
170
     0
171
     0
290
     0
174
     0
 93
       13
 44
0.0
173
     0
291
     0
 45
0.0
1001
ACAD
1000
AcDbSavedByObjectVersion
1070
     0
  0
VISUALSTYLE
  5
37
102
{ACAD_REACTORS
330
2A
102
}
330
2A
100
AcDbVisualStyle
  2
Thicken
 70
    13
 71
     2
 72
     2
 73
     0
 90
        0
 40
-0.6
 41
-30.0
 62
     5
 63
     7
 74
     1
 91
        4
 64
     7
 65
   257
 75
     1
175
     1
 42
1.0
 92
       12
 66
     7
 43
1.0
 76
     1
 77
     6
 78
     2
 67
     7
 79
     5
170
     0
171
     0
290
     0
174
     0
 93
        1
 44
0.0
173
     0
291
     1
 45
0.0
1001
ACAD
1000
AcDbSavedByObjectVersion
1070
     0
  0
DICTIONARYVAR
  5
168
102
{ACAD_REACTORS
330
165
102
}
330
165
100
DictionaryVariables
280
     0
  1
1:1
  0
ENDSEC
  0
EOF
