  0
SECTION
  2
HEADER
  9
$ACADVER
  1
AC1015
  9
$ACADMAINTVER
 70
     6
  9
$DWGCODEPAGE
  3
ANSI_1252
  9
$INSBASE
 10
0.0
 20
0.0
 30
0.0
  9
$EXTMIN
 10
61.3011295181
 20
262.5325670920406
 30
0.0
  9
$EXTMAX
 10
208.13986076786
 20
358.86459268173
 30
0.0
  9
$LIMMIN
 10
0.0
 20
0.0
  9
$LIMMAX
 10
12.0
 20
9.0
  9
$ORTHOMODE
 70
     0
  9
$REGENMODE
 70
     1
  9
$FILLMODE
 70
     1
  9
$QTEXTMODE
 70
     0
  9
$MIRRTEXT
 70
     1
  9
$LTSCALE
 40
1.0
  9
$ATTMODE
 70
     1
  9
$TEXTSIZE
 40
0.2
  9
$TRACEWID
 40
0.05
  9
$TEXTSTYLE
  7
Standard
  9
$CLAYER
  8
0
  9
$CELTYPE
  6
ByLayer
  9
$CECOLOR
 62
   256
  9
$CELTSCALE
 40
1.0
  9
$DISPSILH
 70
     0
  9
$DIMSCALE
 40
1.0
  9
$DIMASZ
 40
0.18
  9
$DIMEXO
 40
0.0625
  9
$DIMDLI
 40
0.38
  9
$DIMRND
 40
0.0
  9
$DIMDLE
 40
0.0
  9
$DIMEXE
 40
0.18
  9
$DIMTP
 40
0.0
  9
$DIMTM
 40
0.0
  9
$DIMTXT
 40
0.18
  9
$DIMCEN
 40
0.09
  9
$DIMTSZ
 40
0.0
  9
$DIMTOL
 70
     0
  9
$DIMLIM
 70
     0
  9
$DIMTIH
 70
     1
  9
$DIMTOH
 70
     1
  9
$DIMSE1
 70
     0
  9
$DIMSE2
 70
     0
  9
$DIMTAD
 70
     0
  9
$DIMZIN
 70
     0
  9
$DIMBLK
  1

  9
$DIMASO
 70
     1
  9
$DIMSHO
 70
     1
  9
$DIMPOST
  1

  9
$DIMAPOST
  1

  9
$DIMALT
 70
     0
  9
$DIMALTD
 70
     2
  9
$DIMALTF
 40
25.4
  9
$DIMLFAC
 40
1.0
  9
$DIMTOFL
 70
     0
  9
$DIMTVP
 40
0.0
  9
$DIMTIX
 70
     0
  9
$DIMSOXD
 70
     0
  9
$DIMSAH
 70
     0
  9
$DIMBLK1
  1

  9
$DIMBLK2
  1

  9
$DIMSTYLE
  2
Standard
  9
$DIMCLRD
 70
     0
  9
$DIMCLRE
 70
     0
  9
$DIMCLRT
 70
     0
  9
$DIMTFAC
 40
1.0
  9
$DIMGAP
 40
0.09
  9
$DIMJUST
 70
     0
  9
$DIMSD1
 70
     0
  9
$DIMSD2
 70
     0
  9
$DIMTOLJ
 70
     1
  9
$DIMTZIN
 70
     0
  9
$DIMALTZ
 70
     0
  9
$DIMALTTZ
 70
     0
  9
$DIMUPT
 70
     0
  9
$DIMDEC
 70
     4
  9
$DIMTDEC
 70
     4
  9
$DIMALTU
 70
     2
  9
$DIMALTTD
 70
     2
  9
$DIMTXSTY
  7
Standard
  9
$DIMAUNIT
 70
     0
  9
$DIMADEC
 70
     0
  9
$DIMALTRND
 40
0.0
  9
$DIMAZIN
 70
     0
  9
$DIMDSEP
 70
    46
  9
$DIMATFIT
 70
     3
  9
$DIMFRAC
 70
     0
  9
$DIMLDRBLK
  1

  9
$DIMLUNIT
 70
     2
  9
$DIMLWD
 70
    -2
  9
$DIMLWE
 70
    -2
  9
$DIMTMOVE
 70
     0
  9
$LUNITS
 70
     2
  9
$LUPREC
 70
     4
  9
$SKETCHINC
 40
0.1
  9
$FILLETRAD
 40
0.5
  9
$AUNITS
 70
     0
  9
$AUPREC
 70
     0
  9
$MENU
  1
.
  9
$ELEVATION
 40
0.0
  9
$PELEVATION
 40
0.0
  9
$THICKNESS
 40
0.0
  9
$LIMCHECK
 70
     0
  9
$CHAMFERA
 40
0.5
  9
$CHAMFERB
 40
0.5
  9
$CHAMFERC
 40
1.0
  9
$CHAMFERD
 40
0.0
  9
$SKPOLY
 70
     0
  9
$TDCREATE
 40
2456749.744950197
  9
$TDUCREATE
 40
2456749.661616863
  9
$TDUPDATE
 40
2456749.744950208
  9
$TDUUPDATE
 40
2456749.661616875
  9
$TDINDWG
 40
0.0000000116
  9
$TDUSRTIMER
 40
0.0000000116
  9
$USRTIMER
 70
     1
  9
$ANGBASE
 50
0.0
  9
$ANGDIR
 70
     0
  9
$PDMODE
 70
     0
  9
$PDSIZE
 40
0.0
  9
$PLINEWID
 40
0.0
  9
$SPLFRAME
 70
     0
  9
$SPLINETYPE
 70
     6
  9
$SPLINESEGS
 70
     8
  9
$HANDSEED
  5
168
  9
$SURFTAB1
 70
     6
  9
$SURFTAB2
 70
     6
  9
$SURFTYPE
 70
     6
  9
$SURFU
 70
     6
  9
$SURFV
 70
     6
  9
$UCSBASE
  2

  9
$UCSNAME
  2

  9
$UCSORG
 10
0.0
 20
0.0
 30
0.0
  9
$UCSXDIR
 10
1.0
 20
0.0
 30
0.0
  9
$UCSYDIR
 10
0.0
 20
1.0
 30
0.0
  9
$UCSORTHOREF
  2

  9
$UCSORTHOVIEW
 70
     0
  9
$UCSORGTOP
 10
0.0
 20
0.0
 30
0.0
  9
$UCSORGBOTTOM
 10
0.0
 20
0.0
 30
0.0
  9
$UCSORGLEFT
 10
0.0
 20
0.0
 30
0.0
  9
$UCSORGRIGHT
 10
0.0
 20
0.0
 30
0.0
  9
$UCSORGFRONT
 10
0.0
 20
0.0
 30
0.0
  9
$UCSORGBACK
 10
0.0
 20
0.0
 30
0.0
  9
$PUCSBASE
  2

  9
$PUCSNAME
  2

  9
$PUCSORG
 10
0.0
 20
0.0
 30
0.0
  9
$PUCSXDIR
 10
1.0
 20
0.0
 30
0.0
  9
$PUCSYDIR
 10
0.0
 20
1.0
 30
0.0
  9
$PUCSORTHOREF
  2

  9
$PUCSORTHOVIEW
 70
     0
  9
$PUCSORGTOP
 10
0.0
 20
0.0
 30
0.0
  9
$PUCSORGBOTTOM
 10
0.0
 20
0.0
 30
0.0
  9
$PUCSORGLEFT
 10
0.0
 20
0.0
 30
0.0
  9
$PUCSORGRIGHT
 10
0.0
 20
0.0
 30
0.0
  9
$PUCSORGFRONT
 10
0.0
 20
0.0
 30
0.0
  9
$PUCSORGBACK
 10
0.0
 20
0.0
 30
0.0
  9
$USERI1
 70
     0
  9
$USERI2
 70
     0
  9
$USERI3
 70
     0
  9
$USERI4
 70
     0
  9
$USERI5
 70
     0
  9
$USERR1
 40
16.5
  9
$USERR2
 40
0.0
  9
$USERR3
 40
0.0
  9
$USERR4
 40
0.0
  9
$USERR5
 40
0.0
  9
$WORLDVIEW
 70
     1
  9
$SHADEDGE
 70
     3
  9
$SHADEDIF
 70
    70
  9
$TILEMODE
 70
     1
  9
$MAXACTVP
 70
    64
  9
$PINSBASE
 10
0.0
 20
0.0
 30
0.0
  9
$PLIMCHECK
 70
     0
  9
$PEXTMIN
 10
1.00000000000000E+20
 20
1.00000000000000E+20
 30
1.00000000000000E+20
  9
$PEXTMAX
 10
-1.00000000000000E+20
 20
-1.00000000000000E+20
 30
-1.00000000000000E+20
  9
$PLIMMIN
 10
0.0
 20
0.0
  9
$PLIMMAX
 10
12.0
 20
9.0
  9
$UNITMODE
 70
     0
  9
$VISRETAIN
 70
     1
  9
$PLINEGEN
 70
     0
  9
$PSLTSCALE
 70
     1
  9
$TREEDEPTH
 70
  3020
  9
$CMLSTYLE
  2
Standard
  9
$CMLJUST
 70
     0
  9
$CMLSCALE
 40
1.0
  9
$PROXYGRAPHICS
 70
     1
  9
$MEASUREMENT
 70
     1
  9
$CELWEIGHT
370
    -1
  9
$ENDCAPS
280
     0
  9
$JOINSTYLE
280
     0
  9
$LWDISPLAY
290
     0
  9
$INSUNITS
 70
     1
  9
$HYPERLINKBASE
  1

  9
$STYLESHEET
  1

  9
$XEDIT
290
     1
  9
$CEPSNTYPE
380
     0
  9
$PSTYLEMODE
290
     1
  9
$FINGERPRINTGUID
  2
{4CBBD2BC-13DF-432C-B972-12C4D64EC3F8}
  9
$VERSIONGUID
  2
{FAEB1C32-E019-11D5-929B-00C0DF256EC4}
  9
$EXTNAMES
290
     1
  9
$PSVPSCALE
 40
0.0
  9
$OLESTARTUP
290
     0
  0
ENDSEC
  0
SECTION
  2
CLASSES
  0
CLASS
  1
ACDBDICTIONARYWDFLT
  2
AcDbDictionaryWithDefault
  3
ObjectDBX Classes
 90
        0
280
     0
281
     0
  0
CLASS
  1
VISUALSTYLE
  2
AcDbVisualStyle
  3
ObjectDBX Classes
 90
     4095
280
     0
281
     0
  0
CLASS
  1
SCALE
  2
AcDbScale
  3
ObjectDBX Classes
 90
     1153
280
     0
281
     0
  0
CLASS
  1

  2
exOdDbPolyline
  3

 90
        0
280
     0
281
     1
  0
CLASS
  1

  2
exOdDbCircle
  3

 90
        0
280
     0
281
     1
  0
CLASS
  1

  2
exOdDbSpline
  3

 90
        0
280
     0
281
     1
  0
CLASS
  1
DICTIONARYVAR
  2
AcDbDictionaryVar
  3
ObjectDBX Classes
 90
        0
280
     0
281
     0
  0
CLASS
  1
ACDBPLACEHOLDER
  2
AcDbPlaceHolder
  3
ObjectDBX Classes
 90
        0
280
     0
281
     0
  0
CLASS
  1
LAYOUT
  2
AcDbLayout
  3
ObjectDBX Classes
 90
        0
280
     0
281
     0
  0
ENDSEC
  0
SECTION
  2
TABLES
  0
TABLE
  2
VPORT
  5
8
330
0
100
AcDbSymbolTable
 70
     1
  0
VPORT
  5
29
330
8
100
AcDbSymbolTableRecord
100
AcDbViewportTableRecord
  2
*Active
 70
     0
 10
0.0
 20
0.0
 11
1.0
 21
1.0
 12
134.72049514298
 22
310.6985798868853
 13
0.0
 23
0.0
 14
0.5
 24
0.5
 15
0.5
 25
0.5
 16
0.0
 26
0.0
 36
1.0
 17
0.0
 27
0.0
 37
0.0
 40
105.9652281486584
 41
1.60267857142857
 42
50.0
 43
0.0
 44
0.0
 50
0.0
 51
0.0
 71
     0
 72
   100
 73
     1
 74
     3
 75
     0
 76
     0
 77
     0
 78
     0
281
     0
 65
     1
110
0.0
120
0.0
130
0.0
111
1.0
121
0.0
131
0.0
112
0.0
122
1.0
132
0.0
 79
     0
146
0.0
  0
ENDTAB
  0
TABLE
  2
LTYPE
  5
5
330
0
100
AcDbSymbolTable
 70
     8
  0
LTYPE
  5
14
330
5
100
AcDbSymbolTableRecord
100
AcDbLinetypeTableRecord
  2
ByBlock
 70
     0
  3

 72
    65
 73
     0
 40
0.0
  0
LTYPE
  5
15
330
5
100
AcDbSymbolTableRecord
100
AcDbLinetypeTableRecord
  2
ByLayer
 70
     0
  3

 72
    65
 73
     0
 40
0.0
  0
LTYPE
  5
16
330
5
100
AcDbSymbolTableRecord
100
AcDbLinetypeTableRecord
  2
Continuous
 70
     0
  3
Solid line
 72
    65
 73
     0
 40
0.0
  0
LTYPE
  5
3B
330
5
100
AcDbSymbolTableRecord
100
AcDbLinetypeTableRecord
  2
DASHED
 70
     0
  3
Dashed
 72
    65
 73
     2
 40
15.0
 49
7.0
 74
     0
 49
-8.0
 74
     0
  0
LTYPE
  5
3C
330
5
100
AcDbSymbolTableRecord
100
AcDbLinetypeTableRecord
  2
DOTTED
 70
     0
  3
Dotted
 72
    65
 73
     2
 40
1.0
 49
0.0
 74
     0
 49
-1.0
 74
     0
  0
LTYPE
  5
3D
330
5
100
AcDbSymbolTableRecord
100
AcDbLinetypeTableRecord
  2
DOT_CENTER
 70
     0
  3
Dot_Center
 72
    65
 73
     4
 40
14.0
 49
12.0
 74
     0
 49
-1.0
 74
     0
 49
0.0
 74
     0
 49
-1.0
 74
     0
  0
LTYPE
  5
3E
330
5
100
AcDbSymbolTableRecord
100
AcDbLinetypeTableRecord
  2
LONG_DASHED
 70
     0
  3
Long_Dashed
 72
    65
 73
     2
 40
15.0
 49
10.0
 74
     0
 49
-5.0
 74
     0
  0
LTYPE
  5
3F
330
5
100
AcDbSymbolTableRecord
100
AcDbLinetypeTableRecord
  2
DASH_CENTER
 70
     0
  3
Dash_Center
 72
    65
 73
     4
 40
14.0
 49
11.0
 74
     0
 49
-1.0
 74
     0
 49
1.0
 74
     0
 49
-1.0
 74
     0
  0
LTYPE
  5
40
330
5
100
AcDbSymbolTableRecord
100
AcDbLinetypeTableRecord
  2
PHANTOM
 70
     0
  3
Phantom
 72
    65
 73
     6
 40
13.0
 49
10.0
 74
     0
 49
-1.0
 74
     0
 49
0.0
 74
     0
 49
-1.0
 74
     0
 49
0.0
 74
     0
 49
-1.0
 74
     0
  0
LTYPE
  5
41
330
5
100
AcDbSymbolTableRecord
100
AcDbLinetypeTableRecord
  2
CENTER_DASH_DASH
 70
     0
  3
Center_Dash_Dash
 72
    65
 73
     6
 40
14.0
 49
9.0
 74
     0
 49
-1.0
 74
     0
 49
1.0
 74
     0
 49
-1.0
 74
     0
 49
1.0
 74
     0
 49
-1.0
 74
     0
  0
ENDTAB
  0
TABLE
  2
LAYER
  5
2
330
0
100
AcDbSymbolTable
 70
     7
  0
LAYER
  5
10
330
2
100
AcDbSymbolTableRecord
100
AcDbLayerTableRecord
  2
0
 70
     0
 62
     7
  6
Continuous
370
    -3
390
F
  0
LAYER
  5
42
330
2
100
AcDbSymbolTableRecord
100
AcDbLayerTableRecord
  2
1
 70
     0
 62
     7
  6
Continuous
370
    -3
390
F
  0
LAYER
  5
43
330
2
100
AcDbSymbolTableRecord
100
AcDbLayerTableRecord
  2
BEZUGSACHSEN
 70
     0
 62
     7
  6
Continuous
370
    -3
390
F
  0
LAYER
  5
44
330
2
100
AcDbSymbolTableRecord
100
AcDbLayerTableRecord
  2
BOHRUNGEN
 70
     0
 62
     7
  6
Continuous
370
    -3
390
F
  0
LAYER
  5
45
330
2
100
AcDbSymbolTableRecord
100
AcDbLayerTableRecord
  2
FASEN
 70
     0
 62
     7
  6
Continuous
370
    -3
390
F
  0
LAYER
  5
46
330
2
100
AcDbSymbolTableRecord
100
AcDbLayerTableRecord
  2
RUNDUNGEN
 70
     0
 62
     7
  6
Continuous
370
    -3
390
F
  0
LAYER
  5
47
330
2
100
AcDbSymbolTableRecord
100
AcDbLayerTableRecord
  2
TEIL_STARTBEZUEGE
 70
     0
 62
     7
  6
Continuous
370
    -3
390
F
  0
ENDTAB
  0
TABLE
  2
STYLE
  5
3
330
0
100
AcDbSymbolTable
 70
     2
  0
STYLE
  5
11
330
3
100
AcDbSymbolTableRecord
100
AcDbTextStyleTableRecord
  2
Standard
 70
     0
 40
0.0
 41
1.0
 50
0.0
 71
     0
 42
0.2
  3
txt
  4

  0
STYLE
  5
6E
330
3
100
AcDbSymbolTableRecord
100
AcDbTextStyleTableRecord
  2
CONVERTER_11
 70
     0
 40
0.0
 41
0.72
 50
0.0
 71
     0
 42
0.2
  3
txt.shx
  4

  0
ENDTAB
  0
TABLE
  2
VIEW
  5
6
330
0
100
AcDbSymbolTable
 70
     0
  0
ENDTAB
  0
TABLE
  2
UCS
  5
7
330
0
100
AcDbSymbolTable
 70
     0
  0
ENDTAB
  0
TABLE
  2
APPID
  5
9
330
0
100
AcDbSymbolTable
 70
     1
  0
APPID
  5
12
330
9
100
AcDbSymbolTableRecord
100
AcDbRegAppTableRecord
  2
ACAD
 70
     0
  0
ENDTAB
  0
TABLE
  2
DIMSTYLE
  5
A
330
0
100
AcDbSymbolTable
 70
     8
100
AcDbDimStyleTable
  0
DIMSTYLE
105
27
330
A
100
AcDbSymbolTableRecord
100
AcDbDimStyleTableRecord
  2
Standard
 70
     0
340
11
  0
DIMSTYLE
105
119
102
{ACAD_REACTORS
330
11A
102
}
330
A
100
AcDbSymbolTableRecord
100
AcDbDimStyleTableRecord
  2
ME10_DIM_10
 70
     0
  3
\U+2300<>
 41
3.5
 42
2.0
 44
2.0
 71
     1
 73
     0
 74
     0
 77
     1
 78
     8
140
3.5
146
0.7
147
2.0
172
     1
173
     1
176
     2
177
     2
178
     3
271
     2
272
     0
340
6E
  0
DIMSTYLE
105
124
102
{ACAD_REACTORS
330
125
102
}
330
A
100
AcDbSymbolTableRecord
100
AcDbDimStyleTableRecord
  2
ME10_DIM_11
 70
     0
  3
\U+2300<>
 41
3.5
 42
2.0
 44
2.0
 71
     1
 73
     0
 74
     0
 77
     1
 78
     8
140
3.5
146
0.7
147
2.0
172
     1
173
     1
176
     2
177
     2
178
     3
271
     2
272
     0
340
6E
  0
DIMSTYLE
105
12F
102
{ACAD_REACTORS
330
130
102
}
330
A
100
AcDbSymbolTableRecord
100
AcDbDimStyleTableRecord
  2
ME10_DIM_12
 70
     0
  3
\U+2300<>
 41
3.5
 42
2.0
 44
2.0
 71
     1
 73
     0
 74
     0
 77
     1
 78
     8
140
3.5
146
0.7
147
2.0
172
     1
173
     1
176
     2
177
     2
178
     3
271
     2
272
     0
340
6E
  0
DIMSTYLE
105
13A
102
{ACAD_REACTORS
330
13B
102
}
330
A
100
AcDbSymbolTableRecord
100
AcDbDimStyleTableRecord
  2
ME10_DIM_13
 70
     0
  3
<>
 41
3.5
 42
2.0
 44
2.0
 71
     1
 73
     0
 74
     0
 77
     1
 78
     8
140
3.5
146
0.7
147
2.0
172
     1
173
     1
176
     2
177
     2
178
     3
271
     0
272
     0
340
6E
  0
DIMSTYLE
105
145
102
{ACAD_REACTORS
330
146
102
}
330
A
100
AcDbSymbolTableRecord
100
AcDbDimStyleTableRecord
  2
ME10_DIM_14
 70
     0
  3
<>
 41
3.5
 42
2.0
 44
2.0
 71
     1
 73
     0
 74
     0
 77
     1
 78
     8
140
3.5
146
0.7
147
2.0
172
     1
173
     1
176
     2
177
     2
178
     3
271
     2
272
     0
340
6E
  0
DIMSTYLE
105
150
102
{ACAD_REACTORS
330
151
102
}
330
A
100
AcDbSymbolTableRecord
100
AcDbDimStyleTableRecord
  2
ME10_DIM_15
 70
     0
  3
<>
 41
3.5
 42
2.0
 44
2.0
 71
     1
 73
     0
 74
     0
 77
     1
 78
     8
140
3.5
146
0.7
147
2.0
172
     1
173
     1
176
     2
177
     2
178
     3
271
     0
272
     0
340
6E
  0
DIMSTYLE
105
162
102
{ACAD_REACTORS
330
163
102
}
330
A
100
AcDbSymbolTableRecord
100
AcDbDimStyleTableRecord
  2
ME10_DIM_16
 70
     0
  3
<>
 41
3.5
 42
2.0
 44
2.0
 71
     1
 73
     0
 74
     0
 77
     1
 78
     8
140
3.5
146
0.7
147
2.0
172
     1
173
     1
176
     2
177
     2
178
     3
271
     2
272
     0
340
6E
  0
ENDTAB
  0
TABLE
  2
BLOCK_RECORD
  5
1
330
0
100
AcDbSymbolTable
 70
    10
  0
BLOCK_RECORD
  5
1F
330
1
100
AcDbSymbolTableRecord
100
AcDbBlockTableRecord
  2
*Model_Space
340
22
  0
BLOCK_RECORD
  5
1B
330
1
100
AcDbSymbolTableRecord
100
AcDbBlockTableRecord
  2
*Paper_Space
340
1E
  0
BLOCK_RECORD
  5
23
330
1
100
AcDbSymbolTableRecord
100
AcDbBlockTableRecord
  2
*Paper_Space0
340
26
  0
BLOCK_RECORD
  5
48
330
1
100
AcDbSymbolTableRecord
100
AcDbBlockTableRecord
  2
Urheberrecht_DE-EN_horizontal
340
0
102
{BLKREFS
331
6D
102
}
  0
BLOCK_RECORD
  5
110
330
1
100
AcDbSymbolTableRecord
100
AcDbBlockTableRecord
  2
*D2
340
0
  0
BLOCK_RECORD
  5
11B
330
1
100
AcDbSymbolTableRecord
100
AcDbBlockTableRecord
  2
*D3
340
0
  0
BLOCK_RECORD
  5
126
330
1
100
AcDbSymbolTableRecord
100
AcDbBlockTableRecord
  2
*D4
340
0
  0
BLOCK_RECORD
  5
131
330
1
100
AcDbSymbolTableRecord
100
AcDbBlockTableRecord
  2
*D5
340
0
  0
BLOCK_RECORD
  5
13C
330
1
100
AcDbSymbolTableRecord
100
AcDbBlockTableRecord
  2
*D6
340
0
  0
BLOCK_RECORD
  5
147
330
1
100
AcDbSymbolTableRecord
100
AcDbBlockTableRecord
  2
*D7
340
0
  0
BLOCK_RECORD
  5
152
330
1
100
AcDbSymbolTableRecord
100
AcDbBlockTableRecord
  2
*D8
340
0
102
{BLKREFS
331
158
102
}
  0
BLOCK_RECORD
  5
159
330
1
100
AcDbSymbolTableRecord
100
AcDbBlockTableRecord
  2
*D9
340
0
  0
ENDTAB
  0
ENDSEC
  0
SECTION
  2
BLOCKS
  0
BLOCK
  5
20
330
1F
100
AcDbEntity
  8
0
100
AcDbBlockBegin
  2
*Model_Space
 70
     0
 10
0.0
 20
0.0
 30
0.0
  3
*Model_Space
  1

  0
ENDBLK
  5
21
330
1F
100
AcDbEntity
  8
0
100
AcDbBlockEnd
  0
BLOCK
  5
1C
330
1B
100
AcDbEntity
 67
     1
  8
0
100
AcDbBlockBegin
  2
*Paper_Space
 70
     0
 10
0.0
 20
0.0
 30
0.0
  3
*Paper_Space
  1

  0
ENDBLK
  5
1D
330
1B
100
AcDbEntity
 67
     1
  8
0
100
AcDbBlockEnd
  0
BLOCK
  5
24
330
23
100
AcDbEntity
  8
0
100
AcDbBlockBegin
  2
*Paper_Space0
 70
     0
 10
0.0
 20
0.0
 30
0.0
  3
*Paper_Space0
  1

  0
ENDBLK
  5
25
330
23
100
AcDbEntity
  8
0
100
AcDbBlockEnd
  0
BLOCK
  5
49
330
48
100
AcDbEntity
  8
0
100
AcDbBlockBegin
  2
Urheberrecht_DE-EN_horizontal
 70
     0
 10
135.506464711107
 20
269.930575101945
 30
0.0
  3
Urheberrecht_DE-EN_horizontal
  1

  0
MTEXT
  5
6F
330
48
100
AcDbEntity
  8
1
 62
     1
100
AcDbMText
 10
82.05268232174775
 20
263.1325670920406
 30
0.0
 40
2.0
 41
0.0
 71
     7
 72
     1
  1
F\U+00fcr diese Unterlage behalten wir das Ur-\Pheberrecht. Sie darf nur f\U+00fcr den von uns \Pbestimmten Zweck benutzt und ohne unsere \PZustimmung weder vervielf\U+00e4ltigt noch\PDritten zug\U+00e4nglich gemacht werden.
  7
CONVERTER_11
 73
     1
 44
0.90036014405762
  0
MTEXT
  5
70
330
48
100
AcDbEntity
  8
1
 62
     1
100
AcDbMText
 10
138.3420692390539
 20
263.1325670920406
 30
0.0
 40
2.0
 41
0.0
 71
     7
 72
     1
  1
We own the copyright of this document. It \Pdetermined and may neither be copied or \Pmade accessible to outsiders without our\Ppermission.
  7
CONVERTER_11
 73
     1
 44
0.90036014405762
  0
ENDBLK
  5
4A
330
48
100
AcDbEntity
  8
0
100
AcDbBlockEnd
  0
BLOCK
  5
117
330
110
100
AcDbEntity
  8
0
100
AcDbBlockBegin
  2
*D2
 70
     1
 10
0.0
 20
0.0
 30
0.0
  3
*D2
  1

  0
LINE
  5
111
330
110
100
AcDbEntity
  8
1
  6
Continuous
 62
     2
100
AcDbLine
 10
189.953513534258
 20
310.7561370482
 30
0.0
 11
189.953513534258
 21
298.7561370482
 31
0.0
  0
LINE
  5
112
330
110
100
AcDbEntity
  8
1
  6
Continuous
 62
     2
100
AcDbLine
 10
181.3261295181
 20
310.7561370482
 30
0.0
 11
191.953513534258
 21
310.7561370482
 31
0.0
  0
LINE
  5
113
330
110
100
AcDbEntity
  8
1
  6
Continuous
 62
     2
100
AcDbLine
 10
181.3261295181
 20
298.7561370482
 30
0.0
 11
191.953513534258
 21
298.7561370482
 31
0.0
  0
SOLID
  5
114
330
110
100
AcDbEntity
  8
1
 62
     2
100
AcDbTrace
 10
190.4142972758139
 20
307.2561370482
 30
0.0
 11
189.4927297927021
 21
307.2561370482
 31
0.0
 12
189.953513534258
 22
310.7561370482
 32
0.0
 13
189.953513534258
 23
310.7561370482
 33
0.0
  0
SOLID
  5
115
330
110
100
AcDbEntity
  8
1
 62
     2
100
AcDbTrace
 10
189.4927297927021
 20
302.2561370482
 30
0.0
 11
190.4142972758139
 21
302.2561370482
 31
0.0
 12
189.953513534258
 22
298.7561370482
 32
0.0
 13
189.953513534258
 23
298.7561370482
 33
0.0
  0
MTEXT
  5
116
330
110
100
AcDbEntity
  8
1
 62
     3
100
AcDbMText
 10
187.953513534258
 20
296.716783007309
 30
0.0
 40
3.5
 41
0.0
 71
     7
 72
     1
  1
\C3;%%c\C3;\C3;12\C2;\H2.45;\S^ ;\C3;
  7
CONVERTER_11
 11
0.0
 21
1.0
 31
0.0
 73
     1
 44
0.60024009603842
  0
ENDBLK
  5
118
330
110
100
AcDbEntity
  8
0
100
AcDbBlockEnd
  0
BLOCK
  5
122
330
11B
100
AcDbEntity
  8
0
100
AcDbBlockBegin
  2
*D3
 70
     1
 10
0.0
 20
0.0
 30
0.0
  3
*D3
  1

  0
LINE
  5
11C
330
11B
100
AcDbEntity
  8
1
  6
Continuous
 62
     2
100
AcDbLine
 10
198.349640174148
 20
316.7561370482528
 30
0.0
 11
198.349640174148
 21
292.7561370481559
 31
0.0
  0
LINE
  5
11D
330
11B
100
AcDbEntity
  8
1
  6
Continuous
 62
     2
100
AcDbLine
 10
181.3261295181
 20
316.7561370482528
 30
0.0
 11
200.349640174148
 21
316.7561370482528
 31
0.0
  0
LINE
  5
11E
330
11B
100
AcDbEntity
  8
1
  6
Continuous
 62
     2
100
AcDbLine
 10
181.3261295181
 20
292.7561370481559
 30
0.0
 11
200.349640174148
 21
292.7561370481559
 31
0.0
  0
SOLID
  5
11F
330
11B
100
AcDbEntity
  8
1
 62
     2
100
AcDbTrace
 10
198.8104239157039
 20
313.2561370482528
 30
0.0
 11
197.8888564325921
 21
313.2561370482528
 31
0.0
 12
198.349640174148
 22
316.7561370482528
 32
0.0
 13
198.349640174148
 23
316.7561370482528
 33
0.0
  0
SOLID
  5
120
330
11B
100
AcDbEntity
  8
1
 62
     2
100
AcDbTrace
 10
197.8888564325921
 20
296.2561370481559
 30
0.0
 11
198.8104239157039
 21
296.2561370481559
 31
0.0
 12
198.349640174148
 22
292.7561370481559
 32
0.0
 13
198.349640174148
 23
292.7561370481559
 33
0.0
  0
MTEXT
  5
121
330
11B
100
AcDbEntity
  8
1
 62
     3
100
AcDbMText
 10
196.349640174148
 20
296.469899020503
 30
0.0
 40
3.5
 41
0.0
 71
     7
 72
     1
  1
\C3;%%c\C3;\C3;24\C2;\H2.45;\S^ ;\C3;
  7
CONVERTER_11
 11
0.0
 21
1.0
 31
0.0
 73
     1
 44
0.60024009603842
  0
ENDBLK
  5
123
330
11B
100
AcDbEntity
  8
0
100
AcDbBlockEnd
  0
BLOCK
  5
12D
330
126
100
AcDbEntity
  8
0
100
AcDbBlockBegin
  2
*D4
 70
     1
 10
0.0
 20
0.0
 30
0.0
  3
*D4
  1

  0
LINE
  5
127
330
126
100
AcDbEntity
  8
1
  6
Continuous
 62
     2
100
AcDbLine
 10
206.13986076786
 20
320.7561370482
 30
0.0
 11
206.13986076786
 21
288.7561370482
 31
0.0
  0
LINE
  5
128
330
126
100
AcDbEntity
  8
1
  6
Continuous
 62
     2
100
AcDbLine
 10
130.5013105734
 20
320.7561370482
 30
0.0
 11
208.13986076786
 21
320.7561370482
 31
0.0
  0
LINE
  5
129
330
126
100
AcDbEntity
  8
1
  6
Continuous
 62
     2
100
AcDbLine
 10
130.5013105734
 20
288.7561370482
 30
0.0
 11
208.13986076786
 21
288.7561370482
 31
0.0
  0
SOLID
  5
12A
330
126
100
AcDbEntity
  8
1
 62
     2
100
AcDbTrace
 10
206.6006445094159
 20
317.2561370482
 30
0.0
 11
205.6790770263041
 21
317.2561370482
 31
0.0
 12
206.13986076786
 22
320.7561370482
 32
0.0
 13
206.13986076786
 23
320.7561370482
 33
0.0
  0
SOLID
  5
12B
330
126
100
AcDbEntity
  8
1
 62
     2
100
AcDbTrace
 10
205.6790770263041
 20
292.2561370482
 30
0.0
 11
206.6006445094159
 21
292.2561370482
 31
0.0
 12
206.13986076786
 22
288.7561370482
 32
0.0
 13
206.13986076786
 23
288.7561370482
 33
0.0
  0
MTEXT
  5
12C
330
126
100
AcDbEntity
  8
1
 62
     3
100
AcDbMText
 10
204.13986076786
 20
296.383341013906
 30
0.0
 40
3.5
 41
0.0
 71
     7
 72
     1
  1
\C3;%%c\C3;\C3;32\C2;\H2.45;\S^ ;\C3;
  7
CONVERTER_11
 11
0.0
 21
1.0
 31
0.0
 73
     1
 44
0.60024009603842
  0
ENDBLK
  5
12E
330
126
100
AcDbEntity
  8
0
100
AcDbBlockEnd
  0
BLOCK
  5
138
330
131
100
AcDbEntity
  8
0
100
AcDbBlockBegin
  2
*D5
 70
     1
 10
0.0
 20
0.0
 30
0.0
  3
*D5
  1

  0
LINE
  5
132
330
131
100
AcDbEntity
  8
1
  6
Continuous
 62
     2
100
AcDbLine
 10
179.3261295181
 20
338.390057540483
 30
0.0
 11
115.2761295181
 21
338.390057540483
 31
0.0
  0
LINE
  5
133
330
131
100
AcDbEntity
  8
1
  6
Continuous
 62
     2
100
AcDbLine
 10
179.3261295181
 20
317.8317465565
 30
0.0
 11
179.3261295181
 21
340.390057540483
 31
0.0
  0
LINE
  5
134
330
131
100
AcDbEntity
  8
1
  6
Continuous
 62
     2
100
AcDbLine
 10
115.2761295181
 20
331.7560870297
 30
0.0
 11
115.2761295181
 21
340.390057540483
 31
0.0
  0
SOLID
  5
135
330
131
100
AcDbEntity
  8
1
 62
     2
100
AcDbTrace
 10
175.8261295181
 20
337.9292737989271
 30
0.0
 11
175.8261295181
 21
338.8508412820389
 31
0.0
 12
179.3261295181
 22
338.390057540483
 32
0.0
 13
179.3261295181
 23
338.390057540483
 33
0.0
  0
SOLID
  5
136
330
131
100
AcDbEntity
  8
1
 62
     2
100
AcDbTrace
 10
118.7761295181
 20
338.8508412820389
 30
0.0
 11
118.7761295181
 21
337.9292737989271
 31
0.0
 12
115.2761295181
 22
338.390057540483
 32
0.0
 13
115.2761295181
 23
338.390057540483
 33
0.0
  0
MTEXT
  5
137
330
131
100
AcDbEntity
  8
1
 62
     3
100
AcDbMText
 10
146.045996348002
 20
340.390057540483
 30
0.0
 40
3.5
 41
0.0
 71
     7
 72
     1
  1
\C3;\C3;\C3;64\C2;\H2.45;\S^ ;\C3;
  7
CONVERTER_11
 11
0.9999999999970619
 21
2.424068405545306E-6
 31
0.0
 73
     1
 44
0.60024009603842
  0
ENDBLK
  5
139
330
131
100
AcDbEntity
  8
0
100
AcDbBlockEnd
  0
BLOCK
  5
143
330
13C
100
AcDbEntity
  8
0
100
AcDbBlockBegin
  2
*D6
 70
     1
 10
0.0
 20
0.0
 30
0.0
  3
*D6
  1

  0
LINE
  5
13D
330
13C
100
AcDbEntity
  8
1
  6
Continuous
 62
     2
100
AcDbLine
 10
179.3261295181
 20
345.920604114405
 30
0.0
 11
89.3261295181
 21
345.920604114405
 31
0.0
  0
LINE
  5
13E
330
13C
100
AcDbEntity
  8
1
  6
Continuous
 62
     2
100
AcDbLine
 10
179.3261295181
 20
317.8317465565
 30
0.0
 11
179.3261295181
 21
347.920604114405
 31
0.0
  0
LINE
  5
13F
330
13C
100
AcDbEntity
  8
1
  6
Continuous
 62
     2
100
AcDbLine
 10
89.3261295181
 20
331.7561370482
 30
0.0
 11
89.3261295181
 21
347.920604114405
 31
0.0
  0
SOLID
  5
140
330
13C
100
AcDbEntity
  8
1
 62
     2
100
AcDbTrace
 10
175.8261295181
 20
345.4598203728492
 30
0.0
 11
175.8261295181
 21
346.3813878559609
 31
0.0
 12
179.3261295181
 22
345.920604114405
 32
0.0
 13
179.3261295181
 23
345.920604114405
 33
0.0
  0
SOLID
  5
141
330
13C
100
AcDbEntity
  8
1
 62
     2
100
AcDbTrace
 10
92.8261295181
 20
346.3813878559609
 30
0.0
 11
92.8261295181
 21
345.4598203728492
 31
0.0
 12
89.3261295181
 22
345.920604114405
 32
0.0
 13
89.3261295181
 23
345.920604114405
 33
0.0
  0
MTEXT
  5
142
330
13C
100
AcDbEntity
  8
1
 62
     3
100
AcDbMText
 10
130.984903200158
 20
347.920604114405
 30
0.0
 40
3.5
 41
0.0
 71
     7
 72
     1
  1
\C3;\C3;\C3;90\C2;\H2.45;\S^ ;\C3;
  7
CONVERTER_11
 11
0.9999999999970619
 21
2.424068405545306E-6
 31
0.0
 73
     1
 44
0.60024009603842
  0
ENDBLK
  5
144
330
13C
100
AcDbEntity
  8
0
100
AcDbBlockEnd
  0
BLOCK
  5
14E
330
147
100
AcDbEntity
  8
0
100
AcDbBlockBegin
  2
*D7
 70
     1
 10
0.0
 20
0.0
 30
0.0
  3
*D7
  1

  0
LINE
  5
148
330
147
100
AcDbEntity
  8
1
  6
Continuous
 62
     2
100
AcDbLine
 10
179.3261295181
 20
353.36459268173
 30
0.0
 11
64.4261295181
 21
353.36459268173
 31
0.0
  0
LINE
  5
149
330
147
100
AcDbEntity
  8
1
  6
Continuous
 62
     2
100
AcDbLine
 10
179.3261295181
 20
317.8317465565
 30
0.0
 11
179.3261295181
 21
355.36459268173
 31
0.0
  0
LINE
  5
14A
330
147
100
AcDbEntity
  8
1
  6
Continuous
 62
     2
100
AcDbLine
 10
64.4261295181
 20
323.8124928294
 30
0.0
 11
64.4261295181
 21
355.36459268173
 31
0.0
  0
SOLID
  5
14B
330
147
100
AcDbEntity
  8
1
 62
     2
100
AcDbTrace
 10
175.8261295181
 20
352.9038089401741
 30
0.0
 11
175.8261295181
 21
353.8253764232859
 31
0.0
 12
179.3261295181
 22
353.36459268173
 32
0.0
 13
179.3261295181
 23
353.36459268173
 33
0.0
  0
SOLID
  5
14C
330
147
100
AcDbEntity
  8
1
 62
     2
100
AcDbTrace
 10
67.9261295181
 20
353.8253764232859
 30
0.0
 11
67.9261295181
 21
352.9038089401741
 31
0.0
 12
64.4261295181
 22
353.36459268173
 32
0.0
 13
64.4261295181
 23
353.36459268173
 33
0.0
  0
MTEXT
  5
14D
330
147
100
AcDbEntity
  8
1
 62
     3
100
AcDbMText
 10
121.735986527284
 20
355.36459268173
 30
0.0
 40
3.5
 41
0.0
 71
     7
 72
     1
  1
\C3;\C3;\C3;115\C2;\H2.45;\S^ ;\C3;
  7
CONVERTER_11
 11
0.9999999999970619
 21
2.424068405545306E-6
 31
0.0
 73
     1
 44
0.60024009603842
  0
ENDBLK
  5
14F
330
147
100
AcDbEntity
  8
0
100
AcDbBlockEnd
  0
BLOCK
  5
156
330
152
100
AcDbEntity
  8
0
100
AcDbBlockBegin
  2
*D8
 70
     1
 10
0.0
 20
0.0
 30
0.0
  3
*D8
  1

  0
LINE
  5
153
330
152
100
AcDbEntity
  8
1
  6
Continuous
 62
     2
100
AcDbLine
 10
126.0334052925142
 20
328.6655711023512
 30
0.0
 11
115.6182805688055
 21
321.6374159653008
 31
0.0
  0
SOLID
  5
154
330
152
100
AcDbEntity
  8
1
 62
     2
100
AcDbTrace
 10
118.261771986903
 20
323.9771327812696
 30
0.0
 11
118.7772604732387
 21
323.2132229394792
 31
0.0
 12
115.6182805688055
 22
321.6374159653008
 32
0.0
 13
115.6182805688055
 23
321.6374159653008
 33
0.0
  0
MTEXT
  5
155
330
152
100
AcDbEntity
  8
1
 62
     3
100
AcDbMText
 10
118.7640646077325
 20
326.1729648340897
 30
0.0
 40
3.5
 41
0.0
 71
     7
 72
     1
  1
\C3; R\C3;\C3;2\C2;\H2.45;\S^ ;\C3;
  7
CONVERTER_11
 11
0.8289244746472451
 21
0.5593605414495995
 31
0.0
 73
     1
 44
0.60024009603842
  0
ENDBLK
  5
157
330
152
100
AcDbEntity
  8
0
100
AcDbBlockEnd
  0
BLOCK
  5
160
330
159
100
AcDbEntity
  8
0
100
AcDbBlockBegin
  2
*D9
 70
     1
 10
0.0
 20
0.0
 30
0.0
  3
*D9
  1

  0
LINE
  5
15A
330
159
100
AcDbEntity
  8
1
  6
Continuous
 62
     2
100
AcDbLine
 10
161.3914655417288
 20
320.7561370482
 30
0.0
 11
163.3914655417288
 21
320.7561370482
 31
0.0
  0
LINE
  5
15B
330
159
100
AcDbEntity
  8
1
  6
Continuous
 62
     2
100
AcDbLine
 10
130.5013105734
 20
320.7561370482
 30
0.0
 11
161.3914655417288
 21
320.7561370482
 31
0.0
  0
ARC
  5
15C
330
159
100
AcDbEntity
  8
1
  6
Continuous
 62
     2
100
AcDbCircle
 10
128.5013105734
 20
320.7561370482
 30
0.0
 40
32.89015496832884
100
AcDbArc
 50
346.3543196974148
 51
16.81921984706288
  0
SOLID
  5
15D
330
159
100
AcDbEntity
  8
1
 62
     2
100
AcDbTrace
 10
161.2870842064278
 20
314.6454051369159
 30
0.0
 11
160.3735031377463
 21
314.7664681654412
 31
0.0
 12
161.2900761704969
 22
318.1756052310512
 32
0.0
 13
161.2900761704969
 23
318.1756052310512
 33
0.0
  0
SOLID
  5
15E
330
159
100
AcDbEntity
  8
1
 62
     2
100
AcDbTrace
 10
160.7451958091258
 20
324.2266783732966
 30
0.0
 11
161.665459108009
 21
324.2756894603853
 31
0.0
 12
161.3914655417288
 22
320.7561370482
 32
0.0
 13
161.3914655417288
 23
320.7561370482
 33
0.0
  0
MTEXT
  5
15F
330
159
100
AcDbEntity
  8
1
 62
     3
100
AcDbMText
 10
162.0699327984689
 20
330.9033899091772
 30
0.0
 40
3.5
 41
0.0
 71
     7
 72
     1
  1
\C3;\C3;\C3;4.5%%d\C2;\H2.45;\S^ ;\C3;
  7
CONVERTER_11
 11
0.1913892359024609
 21
-0.981514218124563
 31
0.0
 73
     1
 44
0.60024009603842
  0
ENDBLK
  5
161
330
159
100
AcDbEntity
  8
0
100
AcDbBlockEnd
  0
ENDSEC
  0
SECTION
  2
ENTITIES
  0
INSERT
  5
6D
330
1F
100
AcDbEntity
  8
0
100
AcDbBlockReference
  2
Urheberrecht_DE-EN_horizontal
 10
135.506464711107
 20
269.930575101945
 30
0.0
  0
LINE
  5
71
330
1F
100
AcDbEntity
  8
0
  6
Continuous
 62
     7
100
AcDbLine
 10
64.4261295181
 20
287.6997812668
 30
0.0
 11
64.4261295181
 21
298.3361370482
 31
0.0
  0
LINE
  5
72
330
1F
100
AcDbEntity
  8
0
  6
Continuous
 62
     7
100
AcDbLine
 10
64.4261295181
 20
311.1761370482
 30
0.0
 11
64.4261295181
 21
321.8124928294
 31
0.0
  0
LINE
  5
73
330
1F
100
AcDbEntity
  8
0
  6
Continuous
 62
     9
100
AcDbLine
 10
65.3760922757
 20
322.8112401824
 30
0.0
 11
65.3760922757
 21
312.6046495942
 31
0.0
  0
LINE
  5
74
330
1F
100
AcDbEntity
  8
0
  6
Continuous
 62
     9
100
AcDbLine
 10
65.3760922757
 20
296.9076245022
 30
0.0
 11
65.3760922757
 21
286.701033914
 31
0.0
  0
LINE
  5
75
330
1F
100
AcDbEntity
  8
0
  6
Continuous
 62
     7
100
AcDbLine
 10
65.5761295181
 20
298.4467772887
 30
0.0
 11
65.5761295181
 21
299.4861370482
 31
0.0
  0
LINE
  5
76
330
1F
100
AcDbEntity
  8
0
  6
Continuous
 62
     7
100
AcDbLine
 10
65.5761295181
 20
310.0261370482
 30
0.0
 11
65.5761295181
 21
311.0654968077
 31
0.0
  0
LINE
  5
77
330
1F
100
AcDbEntity
  8
RUNDUNGEN
  6
Continuous
 62
     9
100
AcDbLine
 10
67.6261295181
 20
296.6516662506
 30
0.0
 11
67.6261295181
 21
299.4861370482
 31
0.0
  0
LINE
  5
78
330
1F
100
AcDbEntity
  8
RUNDUNGEN
  6
Continuous
 62
     9
100
AcDbLine
 10
67.6261295181
 20
310.0261370482
 30
0.0
 11
67.6261295181
 21
312.8606078458
 31
0.0
  0
LINE
  5
79
330
1F
100
AcDbEntity
  8
RUNDUNGEN
  6
Continuous
 62
     7
100
AcDbLine
 10
69.0261295181
 20
310.687287295
 30
0.0
 11
69.0261295181
 21
298.8249868014
 31
0.0
  0
LINE
  5
7A
330
1F
100
AcDbEntity
  8
0
  6
Continuous
 62
     7
100
AcDbLine
 10
65.1626197279
 20
297.1061370482
 30
0.0
 11
65.1142002491
 21
297.0201793422
 31
0.0
  0
LINE
  5
7B
330
1F
100
AcDbEntity
  8
0
  6
Continuous
 62
     7
100
AcDbLine
 10
65.1142002491
 20
312.4920947542
 30
0.0
 11
65.1626197279
 21
312.4061370482
 31
0.0
  0
LWPOLYLINE
  5
7C
330
1F
100
AcDbEntity
  8
BEZUGSACHSEN
  6
DOT_CENTER
 62
     7
100
AcDbPolyline
 90
        2
 70
     0
 43
0.25
 10
81.8261295181
 20
298.7561370482
 10
81.8261295181
 20
310.7561370482
  0
LINE
  5
7D
330
1F
100
AcDbEntity
  8
0
  6
Continuous
 62
     7
100
AcDbLine
 10
87.3261295181
 20
323.9109370482
 30
0.0
 11
87.3261295181
 21
285.6013370482
 31
0.0
  0
LINE
  5
7E
330
1F
100
AcDbEntity
  8
0
  6
Continuous
 62
     9
100
AcDbLine
 10
87.9962397511
 20
285.780892544
 30
0.0
 11
87.9962397511
 21
323.7313815524
 31
0.0
  0
LINE
  5
7F
330
1F
100
AcDbEntity
  8
0
  6
Continuous
 62
     9
100
AcDbLine
 10
88.1515311781
 20
285.8013370482
 30
0.0
 11
88.1515311781
 21
323.7109370482
 31
0.0
  0
LINE
  5
80
330
1F
100
AcDbEntity
  8
0
  6
Continuous
 62
     7
100
AcDbLine
 10
64.4261295181
 20
298.3361370482
 30
0.0
 11
65.5761295181
 21
299.4861370482
 31
0.0
  0
LINE
  5
81
330
1F
100
AcDbEntity
  8
0
  6
Continuous
 62
     7
100
AcDbLine
 10
65.5761295181
 20
310.0261370482
 30
0.0
 11
64.4261295181
 21
311.1761370482
 31
0.0
  0
LINE
  5
82
330
1F
100
AcDbEntity
  8
0
  6
Continuous
 62
     9
100
AcDbLine
 10
89.0239598875
 20
285.8013370482
 30
0.0
 11
89.0239598875
 21
323.7109370482
 31
0.0
  0
LINE
  5
83
330
1F
100
AcDbEntity
  8
0
  6
Continuous
 62
     7
100
AcDbLine
 10
89.3261295181
 20
329.7561370482
 30
0.0
 11
89.3261295181
 21
279.7561370482
 31
0.0
  0
LWPOLYLINE
  5
84
330
1F
100
AcDbEntity
  8
BEZUGSACHSEN
  6
DOT_CENTER
 62
     7
100
AcDbPolyline
 90
        2
 70
     0
 43
0.25
 10
96.3261295181
 20
333.251034476
 10
96.3261295181
 20
321.651034476
  0
LINE
  5
85
330
1F
100
AcDbEntity
  8
0
  6
Continuous
 62
     7
100
AcDbLine
 10
109.2386295181
 20
327.1936842177
 30
0.0
 11
110.7180623496
 21
329.7561370482
 31
0.0
  0
LINE
  5
86
330
1F
100
AcDbEntity
  8
0
  6
Continuous
 62
     9
100
AcDbLine
 10
64.4261295181
 20
297.7989889372
 30
0.0
 11
65.5761295181
 21
298.4467772887
 31
0.0
  0
LINE
  5
87
330
1F
100
AcDbEntity
  8
0
  6
Continuous
 62
     7
100
AcDbLine
 10
103.9341966866
 20
279.7561370482
 30
0.0
 11
89.3261295181
 21
279.7561370482
 31
0.0
  0
LINE
  5
88
330
1F
100
AcDbEntity
  8
0
  6
Continuous
 62
     7
100
AcDbLine
 10
110.7180623496
 20
279.7561370482
 30
0.0
 11
115.2761295181
 21
279.7561370482
 31
0.0
  0
LINE
  5
89
330
1F
100
AcDbEntity
  8
0
  6
Continuous
 62
     9
100
AcDbLine
 10
65.5761295181
 20
311.0654968077
 30
0.0
 11
64.4261295181
 21
311.7132851592
 31
0.0
  0
LINE
  5
8A
330
1F
100
AcDbEntity
  8
0
  6
Continuous
 62
     7
100
AcDbLine
 10
109.2386295181
 20
282.3185898787
 30
0.0
 11
110.7180623496
 21
279.7561370482
 31
0.0
  0
LINE
  5
8B
330
1F
100
AcDbEntity
  8
FASEN
  6
Continuous
 62
     9
100
AcDbLine
 10
102.019815791
 20
289.0061370482
 30
0.0
 11
102.019815791
 21
289.4061370482
 31
0.0
  0
LINE
  5
8C
330
1F
100
AcDbEntity
  8
FASEN
  6
Continuous
 62
     9
100
AcDbLine
 10
102.2936295181
 20
299.1386370482
 30
0.0
 11
102.2936295181
 21
298.7386370482
 31
0.0
  0
LINE
  5
8D
330
1F
100
AcDbEntity
  8
FASEN
  6
Continuous
 62
     9
100
AcDbLine
 10
102.2936295181
 20
310.3736370482
 30
0.0
 11
102.2936295181
 21
310.7736370482
 31
0.0
  0
LINE
  5
8E
330
1F
100
AcDbEntity
  8
0
  6
Continuous
 62
     7
100
AcDbLine
 10
103.9341966866
 20
329.7561370482
 30
0.0
 11
103.9341966866
 21
310.7736370482
 31
0.0
  0
LINE
  5
8F
330
1F
100
AcDbEntity
  8
0
  6
Continuous
 62
     7
100
AcDbLine
 10
103.9341966866
 20
298.7386370482
 30
0.0
 11
103.9341966866
 21
289.4061370482
 31
0.0
  0
LINE
  5
90
330
1F
100
AcDbEntity
  8
0
  6
Continuous
 62
     7
100
AcDbLine
 10
103.9341966866
 20
285.0234864406
 30
0.0
 11
103.9341966866
 21
279.7561370482
 31
0.0
  0
LINE
  5
91
330
1F
100
AcDbEntity
  8
0
  6
Continuous
 62
     7
100
AcDbLine
 10
105.4136295181
 20
327.1936296055
 30
0.0
 11
105.4136295181
 21
310.7736370482
 31
0.0
  0
LINE
  5
92
330
1F
100
AcDbEntity
  8
0
  6
Continuous
 62
     7
100
AcDbLine
 10
105.4136295181
 20
298.7386370482
 30
0.0
 11
105.4136295181
 21
289.4061370482
 31
0.0
  0
LINE
  5
93
330
1F
100
AcDbEntity
  8
0
  6
Continuous
 62
     7
100
AcDbLine
 10
105.4136295181
 20
282.3186037199
 30
0.0
 11
105.4136295181
 21
288.6835478044
 31
0.0
  0
LINE
  5
94
330
1F
100
AcDbEntity
  8
0
  6
Continuous
 62
     7
100
AcDbLine
 10
106.1636295181
 20
283.2811370482
 30
0.0
 11
108.4886295181
 21
283.2811370482
 31
0.0
  0
LINE
  5
95
330
1F
100
AcDbEntity
  8
0
  6
Continuous
 62
     7
100
AcDbLine
 10
96.6584558009
 20
285.0234864406
 30
0.0
 11
103.9341966866
 21
285.0234864406
 31
0.0
  0
LINE
  5
96
330
1F
100
AcDbEntity
  8
0
  6
Continuous
 62
     7
100
AcDbLine
 10
110.7180623496
 20
285.0234864406
 30
0.0
 11
115.2761295181
 21
285.0234864406
 31
0.0
  0
LINE
  5
97
330
1F
100
AcDbEntity
  8
0
  6
Continuous
 62
     7
100
AcDbLine
 10
89.0239598875
 20
285.8013370482
 30
0.0
 11
88.1515311781
 21
285.8013370482
 31
0.0
  0
LINE
  5
98
330
1F
100
AcDbEntity
  8
0
  6
Continuous
 62
     7
100
AcDbLine
 10
87.3261295181
 20
285.6013370482
 30
0.0
 11
65.3760922757
 21
286.701033914
 31
0.0
  0
LINE
  5
99
330
1F
100
AcDbEntity
  8
0
  6
Continuous
 62
     9
100
AcDbLine
 10
106.1636295181
 20
283.2811370482
 30
0.0
 11
106.1636295181
 21
299.8199821681
 31
0.0
  0
LINE
  5
9A
330
1F
100
AcDbEntity
  8
0
  6
Continuous
 62
     9
100
AcDbLine
 10
106.1636295181
 20
309.6922919283
 30
0.0
 11
106.1636295181
 21
326.2311370482
 31
0.0
  0
LINE
  5
9B
330
1F
100
AcDbEntity
  8
0
  6
Continuous
 62
     9
100
AcDbLine
 10
108.4886295181
 20
283.2811370482
 30
0.0
 11
108.4886295181
 21
299.8199821681
 31
0.0
  0
LINE
  5
9C
330
1F
100
AcDbEntity
  8
0
  6
Continuous
 62
     9
100
AcDbLine
 10
108.4886295181
 20
309.6922919283
 30
0.0
 11
108.4886295181
 21
326.2311370482
 31
0.0
  0
LINE
  5
9D
330
1F
100
AcDbEntity
  8
0
  6
Continuous
 62
     7
100
AcDbLine
 10
109.2386295181
 20
298.7386370482
 30
0.0
 11
109.2386295181
 21
289.4061370482
 31
0.0
  0
LINE
  5
9E
330
1F
100
AcDbEntity
  8
0
  6
Continuous
 62
     7
100
AcDbLine
 10
109.2386295181
 20
282.3186037199
 30
0.0
 11
109.2386295181
 21
288.6835478044
 31
0.0
  0
LINE
  5
9F
330
1F
100
AcDbEntity
  8
0
  6
Continuous
 62
     7
100
AcDbLine
 10
109.2386295181
 20
310.7736370482
 30
0.0
 11
109.2386295181
 21
327.1936296055
 31
0.0
  0
LINE
  5
A0
330
1F
100
AcDbEntity
  8
RUNDUNGEN
  6
Continuous
 62
     7
100
AcDbLine
 10
178.4045886138
 20
292.6836102061
 30
0.0
 11
128.5013105734
 21
288.7561370482
 31
0.0
  0
LINE
  5
A1
330
1F
100
AcDbEntity
  8
0
  6
Continuous
 62
     7
100
AcDbLine
 10
128.5013105734
 20
288.7561370482
 30
0.0
 11
178.4045886138
 21
292.6836102061
 31
0.0
  0
LINE
  5
A2
330
1F
100
AcDbEntity
  8
RUNDUNGEN
  6
Continuous
 62
     7
100
AcDbLine
 10
128.5013105734
 20
288.7561370482
 30
0.0
 11
117.2761295181
 21
288.7561370482
 31
0.0
  0
LINE
  5
A3
330
1F
100
AcDbEntity
  8
0
  6
Continuous
 62
     7
100
AcDbLine
 10
117.2761295181
 20
288.7561370482
 30
0.0
 11
128.5013105734
 21
288.7561370482
 31
0.0
  0
LINE
  5
A4
330
1F
100
AcDbEntity
  8
0
  6
Continuous
 62
     7
100
AcDbLine
 10
102.019815791
 20
289.0061370482
 30
0.0
 11
105.4504664123
 21
289.0061370482
 31
0.0
  0
LINE
  5
A5
330
1F
100
AcDbEntity
  8
0
  6
Continuous
 62
     7
100
AcDbLine
 10
109.2017926239
 20
289.0061370482
 30
0.0
 11
115.2761295181
 21
289.0061370482
 31
0.0
  0
LINE
  5
A6
330
1F
100
AcDbEntity
  8
0
  6
Continuous
 62
     7
100
AcDbLine
 10
102.019815791
 20
289.4061370482
 30
0.0
 11
105.4504664123
 21
289.4061370482
 31
0.0
  0
LINE
  5
A7
330
1F
100
AcDbEntity
  8
0
  6
Continuous
 62
     7
100
AcDbLine
 10
109.2017926239
 20
289.4061370482
 30
0.0
 11
115.2761295181
 21
289.4061370482
 31
0.0
  0
LINE
  5
A8
330
1F
100
AcDbEntity
  8
0
  6
Continuous
 62
     7
100
AcDbLine
 10
110.7180623496
 20
298.7386370482
 30
0.0
 11
110.7180623496
 21
289.4061370482
 31
0.0
  0
LINE
  5
A9
330
1F
100
AcDbEntity
  8
0
  6
Continuous
 62
     7
100
AcDbLine
 10
110.7180623496
 20
279.7561370482
 30
0.0
 11
110.7180623496
 21
285.0234864406
 31
0.0
  0
LINE
  5
AA
330
1F
100
AcDbEntity
  8
0
  6
Continuous
 62
     7
100
AcDbLine
 10
110.7180623496
 20
310.7736370482
 30
0.0
 11
110.7180623496
 21
329.7561370482
 31
0.0
  0
LINE
  5
AB
330
1F
100
AcDbEntity
  8
0
  6
Continuous
 62
     7
100
AcDbLine
 10
87.9962397511
 20
285.780892544
 30
0.0
 11
87.3261295181
 21
285.6013370482
 31
0.0
  0
LINE
  5
AC
330
1F
100
AcDbEntity
  8
0
  6
Continuous
 62
     7
100
AcDbLine
 10
115.2761295181
 20
329.7560870297
 30
0.0
 11
115.2761295181
 21
310.7736370482
 31
0.0
  0
LINE
  5
AD
330
1F
100
AcDbEntity
  8
0
  6
Continuous
 62
     7
100
AcDbLine
 10
115.2761295181
 20
298.7386370482
 30
0.0
 11
115.2761295181
 21
289.4061370482
 31
0.0
  0
LINE
  5
AE
330
1F
100
AcDbEntity
  8
0
  6
Continuous
 62
     7
100
AcDbLine
 10
115.2761295181
 20
285.0234864406
 30
0.0
 11
115.2761295181
 21
279.7561505923
 31
0.0
  0
LINE
  5
AF
330
1F
100
AcDbEntity
  8
FASEN
  6
Continuous
 62
     7
100
AcDbLine
 10
115.2761295181
 20
285.0234864406
 30
0.0
 11
115.2761295181
 21
289.4061370482
 31
0.0
  0
LINE
  5
B0
330
1F
100
AcDbEntity
  8
FASEN
  6
Continuous
 62
     7
100
AcDbLine
 10
115.2761295181
 20
298.7386370482
 30
0.0
 11
115.2761295181
 21
310.7736370482
 31
0.0
  0
LINE
  5
B1
330
1F
100
AcDbEntity
  8
RUNDUNGEN
  6
Continuous
 62
     9
100
AcDbLine
 10
117.2761295181
 20
320.7561370482
 30
0.0
 11
117.2761295181
 21
288.7561370482
 31
0.0
  0
LINE
  5
B2
330
1F
100
AcDbEntity
  8
RUNDUNGEN
  6
Continuous
 62
     9
100
AcDbLine
 10
68.4441876943
 20
297.1061370482
 30
0.0
 11
67.6261295181
 21
297.1061370482
 31
0.0
  0
LINE
  5
B3
330
1F
100
AcDbEntity
  8
0
  6
Continuous
 62
     9
100
AcDbLine
 10
67.6261295181
 20
297.1061370482
 30
0.0
 11
65.1626197279
 21
297.1061370482
 31
0.0
  0
LINE
  5
B4
330
1F
100
AcDbEntity
  8
0
  6
Continuous
 62
     7
100
AcDbLine
 10
102.2936295181
 20
298.7386370482
 30
0.0
 11
105.4136295181
 21
298.7386370482
 31
0.0
  0
LINE
  5
B5
330
1F
100
AcDbEntity
  8
0
  6
Continuous
 62
     7
100
AcDbLine
 10
109.2386295181
 20
298.7386370482
 30
0.0
 11
115.2761295181
 21
298.7386370482
 31
0.0
  0
LWPOLYLINE
  5
B6
330
1F
100
AcDbEntity
  8
BOHRUNGEN
  6
DASHED
 62
     8
100
AcDbPolyline
 90
        2
 70
     0
 43
0.35
 10
179.3261295181
 20
298.7561370482
 10
132.3261295181
 20
298.7561370482
  0
LINE
  5
B7
330
1F
100
AcDbEntity
  8
0
  6
Continuous
 62
     7
100
AcDbLine
 10
115.2761295181
 20
299.1386370482
 30
0.0
 11
108.9601646653
 21
299.1386370482
 31
0.0
  0
LINE
  5
B8
330
1F
100
AcDbEntity
  8
0
  6
Continuous
 62
     7
100
AcDbLine
 10
105.6920943708
 20
299.1386370482
 30
0.0
 11
102.2936295181
 21
299.1386370482
 31
0.0
  0
LINE
  5
B9
330
1F
100
AcDbEntity
  8
0
  6
Continuous
 62
     7
100
AcDbLine
 10
67.6261295181
 20
299.4861370482
 30
0.0
 11
65.5761295181
 21
299.4861370482
 31
0.0
  0
LINE
  5
BA
330
1F
100
AcDbEntity
  8
0
  6
Continuous
 62
     7
100
AcDbLine
 10
106.1636295181
 20
299.8199821681
 30
0.0
 11
108.4886295181
 21
299.8199821681
 31
0.0
  0
LINE
  5
BB
330
1F
100
AcDbEntity
  8
0
  6
Continuous
 62
     7
100
AcDbLine
 10
103.9341966866
 20
279.7561370482
 30
0.0
 11
105.4136295181
 21
282.3185898787
 31
0.0
  0
LINE
  5
BC
330
1F
100
AcDbEntity
  8
0
  6
Continuous
 62
     7
100
AcDbLine
 10
103.9341966866
 20
329.7561370482
 30
0.0
 11
105.4136295181
 21
327.1936842177
 31
0.0
  0
LWPOLYLINE
  5
BD
330
1F
100
AcDbEntity
  8
TEIL_STARTBEZUEGE
  6
DOT_CENTER
 62
     7
100
AcDbPolyline
 90
        2
 70
     0
 43
0.25
 10
182.3261295181
 20
304.7561370482
 10
61.4261295181
 20
304.7561370482
  0
LINE
  5
BE
330
1F
100
AcDbEntity
  8
0
  6
Continuous
 62
     7
100
AcDbLine
 10
128.5013105734
 20
320.7561370482
 30
0.0
 11
128.5013105734
 21
288.7561370482
 31
0.0
  0
LINE
  5
BF
330
1F
100
AcDbEntity
  8
0
  6
Continuous
 62
     7
100
AcDbLine
 10
108.4886295181
 20
309.6922919283
 30
0.0
 11
106.1636295181
 21
309.6922919283
 31
0.0
  0
LINE
  5
C0
330
1F
100
AcDbEntity
  8
0
  6
Continuous
 62
     7
100
AcDbLine
 10
67.6261295181
 20
310.0261370482
 30
0.0
 11
65.5761295181
 21
310.0261370482
 31
0.0
  0
LINE
  5
C1
330
1F
100
AcDbEntity
  8
0
  6
Continuous
 62
     7
100
AcDbLine
 10
102.2936295181
 20
310.3736370482
 30
0.0
 11
105.6920943708
 21
310.3736370482
 31
0.0
  0
LINE
  5
C2
330
1F
100
AcDbEntity
  8
0
  6
Continuous
 62
     7
100
AcDbLine
 10
108.9601646653
 20
310.3736370482
 30
0.0
 11
115.2761295181
 21
310.3736370482
 31
0.0
  0
LWPOLYLINE
  5
C3
330
1F
100
AcDbEntity
  8
BOHRUNGEN
  6
DASHED
 62
     8
100
AcDbPolyline
 90
        2
 70
     0
 43
0.35
 10
179.3261295181
 20
310.7561370482
 10
132.3261295181
 20
310.7561370482
  0
LINE
  5
C4
330
1F
100
AcDbEntity
  8
0
  6
Continuous
 62
     7
100
AcDbLine
 10
102.2936295181
 20
310.7736370482
 30
0.0
 11
105.4136295181
 21
310.7736370482
 31
0.0
  0
LINE
  5
C5
330
1F
100
AcDbEntity
  8
0
  6
Continuous
 62
     7
100
AcDbLine
 10
109.2386295181
 20
310.7736370482
 30
0.0
 11
115.2761295181
 21
310.7736370482
 31
0.0
  0
LINE
  5
C6
330
1F
100
AcDbEntity
  8
0
  6
Continuous
 62
     9
100
AcDbLine
 10
67.6261295181
 20
312.4061370482
 30
0.0
 11
65.1626197279
 21
312.4061370482
 31
0.0
  0
LINE
  5
C7
330
1F
100
AcDbEntity
  8
RUNDUNGEN
  6
Continuous
 62
     9
100
AcDbLine
 10
67.6261295181
 20
312.4061370482
 30
0.0
 11
68.4441876943
 21
312.4061370482
 31
0.0
  0
LWPOLYLINE
  5
C8
330
1F
100
AcDbEntity
  8
BOHRUNGEN
  6
DASHED
 62
     8
100
AcDbPolyline
 90
        2
 70
     0
 43
0.35
 10
132.3261295181
 20
298.7561370482
 10
132.3261295181
 20
310.7561370482
  0
LINE
  5
C9
330
1F
100
AcDbEntity
  8
0
  6
Continuous
 62
     7
100
AcDbLine
 10
87.9962397511
 20
323.7313815524
 30
0.0
 11
87.3261295181
 21
323.9109370482
 31
0.0
  0
LINE
  5
CA
330
1F
100
AcDbEntity
  8
RUNDUNGEN
  6
Continuous
 62
     7
100
AcDbLine
 10
128.5013105734
 20
320.7561370482
 30
0.0
 11
117.2761295181
 21
320.7561370482
 31
0.0
  0
LINE
  5
CB
330
1F
100
AcDbEntity
  8
0
  6
Continuous
 62
     7
100
AcDbLine
 10
89.0239598875
 20
323.7109370482
 30
0.0
 11
88.1515311781
 21
323.7109370482
 31
0.0
  0
LINE
  5
CC
330
1F
100
AcDbEntity
  8
RUNDUNGEN
  6
Continuous
 62
     7
100
AcDbLine
 10
178.4045886138
 20
316.8286638903
 30
0.0
 11
128.5013105734
 21
320.7561370482
 31
0.0
  0
LINE
  5
CD
330
1F
100
AcDbEntity
  8
0
  6
Continuous
 62
     7
100
AcDbLine
 10
128.5013105734
 20
320.7561370482
 30
0.0
 11
178.4045886138
 21
316.8286638903
 31
0.0
  0
LINE
  5
CE
330
1F
100
AcDbEntity
  8
0
  6
Continuous
 62
     7
100
AcDbLine
 10
87.3261295181
 20
323.9109370482
 30
0.0
 11
65.3760922757
 21
322.8112401824
 31
0.0
  0
LINE
  5
CF
330
1F
100
AcDbEntity
  8
0
  6
Continuous
 62
     7
100
AcDbLine
 10
106.1636295181
 20
326.2311370482
 30
0.0
 11
108.4886295181
 21
326.2311370482
 31
0.0
  0
LINE
  5
D0
330
1F
100
AcDbEntity
  8
BEZUGSACHSEN
  6
Continuous
 62
     7
100
AcDbLine
 10
103.9341966866
 20
329.7561370482
 30
0.0
 11
101.3261295181
 21
329.7561370482
 31
0.0
  0
LINE
  5
D1
330
1F
100
AcDbEntity
  8
BEZUGSACHSEN
  6
Continuous
 62
     7
100
AcDbLine
 10
91.3261295181
 20
329.7561370482
 30
0.0
 11
89.3261295181
 21
329.7561370482
 31
0.0
  0
LINE
  5
D2
330
1F
100
AcDbEntity
  8
0
  6
Continuous
 62
     7
100
AcDbLine
 10
89.3261295181
 20
329.7561370482
 30
0.0
 11
91.3261295181
 21
329.7561370482
 31
0.0
  0
LINE
  5
D3
330
1F
100
AcDbEntity
  8
0
  6
Continuous
 62
     7
100
AcDbLine
 10
101.3261295181
 20
329.7561370482
 30
0.0
 11
103.9341966866
 21
329.7561370482
 31
0.0
  0
LINE
  5
D4
330
1F
100
AcDbEntity
  8
0
  6
Continuous
 62
     7
100
AcDbLine
 10
110.7180623496
 20
329.7561370482
 30
0.0
 11
115.2761295181
 21
329.7561370482
 31
0.0
  0
LINE
  5
D5
330
1F
100
AcDbEntity
  8
RUNDUNGEN
  6
Continuous
 62
     9
100
AcDbLine
 10
178.4045886138
 20
292.6836102061
 30
0.0
 11
178.4045886138
 21
316.8286638903
 31
0.0
  0
LINE
  5
D6
330
1F
100
AcDbEntity
  8
RUNDUNGEN
  6
Continuous
 62
     7
100
AcDbLine
 10
179.3261295181
 20
293.6805275399
 30
0.0
 11
179.3261295181
 21
315.8317465565
 31
0.0
  0
LWPOLYLINE
  5
D7
330
1F
100
AcDbEntity
  8
1
  6
Continuous
 62
     7
100
AcDbPolyline
 90
        2
 70
     0
 43
0.25
 10
179.3261295181
 20
315.8317465565
 10
179.3261295181
 20
316.7561370482528
  0
LWPOLYLINE
  5
D8
330
1F
100
AcDbEntity
  8
1
  6
Continuous
 62
     7
100
AcDbPolyline
 90
        2
 70
     0
 43
0.25
 10
178.4045886138
 20
316.8286638903
 10
179.3261295181094
 20
316.7561370482528
  0
LWPOLYLINE
  5
D9
330
1F
100
AcDbEntity
  8
1
  6
Continuous
 62
     7
100
AcDbPolyline
 90
        2
 70
     0
 43
0.25
 10
178.4045886138
 20
292.6836102061
 10
179.3261295181
 20
292.7561370481559
  0
LWPOLYLINE
  5
DA
330
1F
100
AcDbEntity
  8
1
  6
Continuous
 62
     7
100
AcDbPolyline
 90
        2
 70
     0
 43
0.25
 10
179.3261295181
 20
293.6805275399
 10
179.3261295181
 20
292.7561370481559
  0
ARC
  5
DB
330
1F
100
AcDbEntity
  8
0
  6
Continuous
 62
     7
100
AcDbCircle
 10
71.6707411147
 20
289.2061370482
 30
0.0
 40
33.78031736353757
100
AcDbArc
 50
359.6607721967861
 51
0.33922780321396
  0
ARC
  5
DC
330
1F
100
AcDbEntity
  8
FASEN
  6
Continuous
 62
     7
100
AcDbCircle
 10
104.5004848658
 20
293.1895288568
 30
0.0
 40
11.32173434580007
100
AcDbArc
 50
223.8842578163003
 51
226.159543982623
  0
ARC
  5
DD
330
1F
100
AcDbEntity
  8
FASEN
  6
Continuous
 62
     7
100
AcDbCircle
 10
102.019815791
 20
283.4061370482
 30
0.0
 40
6.0
100
AcDbArc
 50
90.0
 51
161.1845969504023
  0
ARC
  5
DE
330
1F
100
AcDbEntity
  8
FASEN
  6
Continuous
 62
     7
100
AcDbCircle
 10
102.019815791
 20
283.4061370482
 30
0.0
 40
5.599990644600041
100
AcDbArc
 50
90.0
 51
163.2131310087998
  0
ARC
  5
DF
330
1F
100
AcDbEntity
  8
0
  6
Continuous
 62
     7
100
AcDbCircle
 10
106.8389699083
 20
288.684184141
 30
0.0
 40
1.4253405322444
100
AcDbArc
 50
166.945493583629
 51
180.0255794330658
  0
ARC
  5
E0
330
1F
100
AcDbEntity
  8
RUNDUNGEN
  6
Continuous
 62
     7
100
AcDbCircle
 10
67.6261295181
 20
300.8861370482
 30
0.0
 40
1.399999999999977
100
AcDbArc
 50
270.0
 51
353.9429041005092
  0
ARC
  5
E1
330
1F
100
AcDbEntity
  8
0
  6
Continuous
 62
     7
100
AcDbCircle
 10
65.4261295181
 20
287.6997812667
 30
0.0
 40
1.0
100
AcDbArc
 50
179.9999999942679
 51
267.1318795109842
  0
ARC
  5
E2
330
1F
100
AcDbEntity
  8
0
  6
Continuous
 62
     7
100
AcDbCircle
 10
106.1636295181
 20
282.5311370482
 30
0.0
 40
0.75
100
AcDbArc
 50
90.0
 51
180.0
  0
ARC
  5
E3
330
1F
100
AcDbEntity
  8
0
  6
Continuous
 62
     7
100
AcDbCircle
 10
88.1515311781
 20
285.2013370482
 30
0.0
 40
0.6000000000000227
100
AcDbArc
 50
90.0
 51
104.9999999936697
  0
ARC
  5
E4
330
1F
100
AcDbEntity
  8
0
  6
Continuous
 62
     7
100
AcDbCircle
 10
89.0239598875
 20
285.2013370482
 30
0.0
 40
0.599999999999744
100
AcDbArc
 50
59.70317838178284
 51
90.0
  0
ARC
  5
E5
330
1F
100
AcDbEntity
  8
0
  6
Continuous
 62
     7
100
AcDbCircle
 10
105.9172494721
 20
298.6631419152
 30
0.0
 40
0.50373049789972
100
AcDbArc
 50
166.1596109370709
 51
171.3804870337047
  0
ARC
  5
E6
330
1F
100
AcDbEntity
  8
0
  6
Continuous
 62
     7
100
AcDbCircle
 10
-11.3403140697
 20
337.6766725578
 30
0.0
 40
126.7303074974445
100
AcDbArc
 50
335.4508108778812
 51
337.1137532296999
  0
ARC
  5
E7
330
1F
100
AcDbEntity
  8
0
  6
Continuous
 62
     7
100
AcDbCircle
 10
102.2936295181
 20
304.7561370482
 30
0.0
 40
6.017499999999984
100
AcDbArc
 50
90.0
 51
270.0
  0
ARC
  5
E8
330
1F
100
AcDbEntity
  8
FASEN
  6
Continuous
 62
     7
100
AcDbCircle
 10
102.2936295181
 20
304.7561370482
 30
0.0
 40
5.617499843000019
100
AcDbArc
 50
90.0
 51
270.0
  0
ARC
  5
E9
330
1F
100
AcDbEntity
  8
RUNDUNGEN
  6
Continuous
 62
     7
100
AcDbCircle
 10
67.6261295181
 20
308.6261370482
 30
0.0
 40
1.400000000000061
100
AcDbArc
 50
6.05709561601257
 51
90.0
  0
ARC
  5
EA
330
1F
100
AcDbEntity
  8
0
  6
Continuous
 62
     7
100
AcDbCircle
 10
65.4261295181
 20
321.8124928297
 30
0.0
 40
1.000000000076163
100
AcDbArc
 50
92.86812048901561
 51
180.0000000171866
  0
ARC
  5
EB
330
1F
100
AcDbEntity
  8
0
  6
Continuous
 62
     7
100
AcDbCircle
 10
106.1636295181
 20
326.9811370482
 30
0.0
 40
0.75
100
AcDbArc
 50
180.0
 51
270.0
  0
ARC
  5
EC
330
1F
100
AcDbEntity
  8
0
  6
Continuous
 62
     7
100
AcDbCircle
 10
88.1515311781
 20
324.3109370482
 30
0.0
 40
0.6000000000097125
100
AcDbArc
 50
255.0000000063303
 51
270.0
  0
ARC
  5
ED
330
1F
100
AcDbEntity
  8
0
  6
Continuous
 62
     7
100
AcDbCircle
 10
89.0239598875
 20
324.3109370482
 30
0.0
 40
0.6000000000000227
100
AcDbArc
 50
270.0
 51
300.2968216182172
  0
ARC
  5
EE
330
1F
100
AcDbEntity
  8
RUNDUNGEN
  6
Continuous
 62
     7
100
AcDbCircle
 10
154.5962000607
 20
-461.6797228177
 30
0.0
 40
779.4077989054
100
AcDbArc
 50
96.40668094319999
 51
96.57315239320002
  0
ARC
  5
EF
330
1F
100
AcDbEntity
  8
0
  6
Continuous
 62
     7
100
AcDbCircle
 10
142.9815179214
 20
289.2061370482
 30
0.0
 40
33.78031736343758
100
AcDbArc
 50
179.660772196785
 51
180.339227803215
  0
ARC
  5
F0
330
1F
100
AcDbEntity
  8
RUNDUNGEN
  6
Continuous
 62
     7
100
AcDbCircle
 10
117.2761295181
 20
286.7561370482
 30
0.0
 40
2.0
100
AcDbArc
 50
90.0
 51
180.0
  0
ARC
  5
F1
330
1F
100
AcDbEntity
  8
0
  6
Continuous
 62
     7
100
AcDbCircle
 10
107.8132891278
 20
288.684184141
 30
0.0
 40
1.425340532344747
100
AcDbArc
 50
359.9744205669359
 51
13.05450641546304
  0
ARC
  5
F2
330
1F
100
AcDbEntity
  8
RUNDUNGEN
  6
Continuous
 62
     7
100
AcDbCircle
 10
178.3261295181
 20
293.6805275399
 30
0.0
 40
1.000000000064494
100
AcDbArc
 50
274.4999999981087
 51
0.0
  0
ARC
  5
F3
330
1F
100
AcDbEntity
  8
0
  6
Continuous
 62
     7
100
AcDbCircle
 10
108.4886295181
 20
282.5311370482
 30
0.0
 40
0.75
100
AcDbArc
 50
0.0
 51
90.0
  0
ARC
  5
F4
330
1F
100
AcDbEntity
  8
RUNDUNGEN
  6
Continuous
 62
     7
100
AcDbCircle
 10
154.5962000606
 20
1071.1919969136
 30
0.0
 40
779.4077989048998
100
AcDbArc
 50
263.4268476068
 51
263.5933190568001
  0
ARC
  5
F5
330
1F
100
AcDbEntity
  8
0
  6
Continuous
 62
     7
100
AcDbCircle
 10
225.9925731059
 20
337.6766725578
 30
0.0
 40
126.7303074975
100
AcDbArc
 50
202.8862467703001
 51
204.5491891221188
  0
ARC
  5
F6
330
1F
100
AcDbEntity
  8
RUNDUNGEN
  6
Continuous
 62
     7
100
AcDbCircle
 10
117.2761295181
 20
322.7561370482
 30
0.0
 40
2.0
100
AcDbArc
 50
180.0
 51
270.0
  0
ARC
  5
F7
330
1F
100
AcDbEntity
  8
RUNDUNGEN
  6
Continuous
 62
     7
100
AcDbCircle
 10
178.3261295181
 20
315.8317465565
 30
0.0
 40
1.0
100
AcDbArc
 50
0.0
 51
85.50000000189128
  0
ARC
  5
F8
330
1F
100
AcDbEntity
  8
0
  6
Continuous
 62
     7
100
AcDbCircle
 10
108.4886295181
 20
326.9811370482
 30
0.0
 40
0.75
100
AcDbArc
 50
270.0
 51
0.0
  0
CIRCLE
  5
F9
330
1F
100
AcDbEntity
  8
FASEN
  6
Continuous
 62
     7
100
AcDbCircle
 10
81.8261295181
 20
304.7561370482
 30
0.0
 40
3.0
  0
SPLINE
  5
FA
330
1F
100
AcDbEntity
  8
BEZUGSACHSEN
  6
Continuous
 62
     7
100
AcDbSpline
210
0.0
220
0.0
230
1.0
 70
     8
 71
     3
 72
    15
 73
    11
 74
     9
 42
0.0000000001
 43
0.0000000001
 44
0.00000001
 40
0.0
 40
0.0
 40
0.0
 40
0.0
 40
0.9592794728029136
 40
1.918698757760568
 40
2.733413612643751
 40
3.548061682642786
 40
4.096465872437286
 40
4.644852383044869
 40
4.839161107616465
 40
5.03346490927159
 40
5.03346490927159
 40
5.03346490927159
 40
5.03346490927159
 10
96.3261295181
 20
329.251034476
 30
0.0
 10
96.0063501523004
 20
329.2546626389586
 30
0.0
 10
95.36674481380145
 20
329.2619194936699
 30
0.0
 10
94.45693469205798
 20
329.3173337300297
 30
0.0
 10
93.59769082202118
 20
329.3980561861792
 30
0.0
 10
92.87741937410348
 20
329.4896008342539
 30
0.0
 10
92.24761884231653
 20
329.5863254113586
 30
0.0
 10
91.82366356604535
 20
329.6605268505872
 30
0.0
 10
91.5167397643705
 20
329.7184182502603
 30
0.0
 10
91.3896657302685
 20
329.7435642217359
 30
0.0
 10
91.3261295181
 20
329.7561370482
 30
0.0
 11
96.3261295181
 21
329.251034476
 31
0.0
 11
95.3670341576351
 21
329.2698279981749
 31
0.0
 11
94.40925639162089
 21
329.3259271539392
 31
0.0
 11
93.59814607424572
 21
329.4024800625377
 31
0.0
 11
92.78997000648312
 21
329.504963824417
 31
0.0
 11
92.24792085649952
 21
329.5882096914989
 31
0.0
 11
91.70772273245143
 21
329.682622359035
 31
0.0
 11
91.51679316563957
 21
329.7187025608315
 31
0.0
 11
91.3261295181
 21
329.7561370482
 31
0.0
  0
SPLINE
  5
FB
330
1F
100
AcDbEntity
  8
BEZUGSACHSEN
  6
Continuous
 62
     7
100
AcDbSpline
210
0.0
220
0.0
230
1.0
 70
     8
 71
     3
 72
    15
 73
    11
 74
     9
 42
0.0000000001
 43
0.0000000001
 44
0.00000001
 40
0.0
 40
0.0
 40
0.0
 40
0.0
 40
0.1942981503573194
 40
0.3886012245991005
 40
0.9369792400513139
 40
1.485374928917478
 40
2.300027372212015
 40
3.114746618675774
 40
4.074175664738251
 40
5.033464878725394
 40
5.033464878725394
 40
5.033464878725394
 40
5.033464878725394
 10
101.3261295181
 20
329.7561370482
 30
0.0
 10
101.2625951521689
 20
329.7435645961789
 30
0.0
 10
101.1355248102251
 20
329.718419373527
 30
0.0
 10
100.8286075119146
 20
329.660529099577
 30
0.0
 10
100.4046597289375
 20
329.586328644556
 30
0.0
 10
99.7748634562409
 20
329.4896040572999
 30
0.0
 10
99.05459197282015
 20
329.3980589472695
 30
0.0
 10
98.1953419963239
 20
329.3173355107662
 30
0.0
 10
97.28552397183304
 20
329.2619199066177
 30
0.0
 10
96.64591213149757
 20
329.2546627765778
 30
0.0
 10
96.3261295181
 20
329.251034476
 30
0.0
 11
101.3261295181
 21
329.7561370482
 31
0.0
 11
101.1354714136659
 21
329.7187036614195
 31
0.0
 11
100.9445474094128
 21
329.6826244532824
 31
0.0
 11
100.4043577198769
 21
329.5882128695105
 31
0.0
 11
99.86231705327108
 21
329.5049677656751
 31
0.0
 11
99.05413672108504
 21
329.4024828690639
 31
0.0
 11
98.24302207634062
 21
329.3259290733408
 31
0.0
 11
97.28523460990684
 21
329.2698285958856
 31
0.0
 11
96.3261295181
 21
329.251034476
 31
0.0
  0
SPLINE
  5
FC
330
1F
100
AcDbEntity
  8
0
  6
Continuous
 62
     7
100
AcDbSpline
210
0.0
220
0.0
230
1.0
 70
     8
 71
     3
 72
    11
 73
     7
 74
     5
 42
0.0000000001
 43
0.0000000001
 44
0.00000001
 40
0.0
 40
0.0
 40
0.0
 40
0.0
 40
0.0719820116788357
 40
0.1441794862678852
 40
0.2163078795541573
 40
0.2883301028249227
 40
0.2883301028249227
 40
0.2883301028249227
 40
0.2883301028249227
 10
65.3760922757
 20
296.9076245022
 30
0.0
 10
65.35236544249923
 20
296.9115276893708
 30
0.0
 10
65.30484075484648
 20
296.9193457470768
 30
0.0
 10
65.23697408662613
 20
296.9447794708667
 30
0.0
 10
65.17273726933749
 20
296.9780070010607
 30
0.0
 10
65.13370300598893
 20
297.0061287992557
 30
0.0
 10
65.1142002491
 20
297.0201793422
 30
0.0
 11
65.3760922757
 21
296.9076245022
 31
0.0
 11
65.30548214915521
 21
296.9216109254261
 31
0.0
 11
65.23756046674133
 21
296.9460878614089
 31
0.0
 11
65.17364865826357
 21
296.9795211659892
 31
0.0
 11
65.1142002491
 21
297.0201793422
 31
0.0
  0
SPLINE
  5
FD
330
1F
100
AcDbEntity
  8
RUNDUNGEN
  6
Continuous
 62
     7
100
AcDbSpline
210
0.0
220
0.0
230
1.0
 70
     8
 71
     3
 72
    15
 73
    11
 74
     9
 42
0.0000000001
 43
0.0000000001
 44
0.00000001
 40
0.0
 40
0.0
 40
0.0
 40
0.0
 40
0.2286533797624606
 40
0.4574173648876284
 40
0.6866651597804738
 40
0.9158640491602682
 40
1.146314057934747
 40
1.376831724061334
 40
1.609554238661802
 40
1.842048835029563
 40
1.842048835029563
 40
1.842048835029563
 40
1.842048835029563
 10
68.4441876943
 20
312.4061370482
 30
0.0
 10
68.48659246275867
 20
312.3427729074247
 30
0.0
 10
68.57142251192383
 20
312.2160139750533
 30
0.0
 10
68.68289928704101
 20
312.0158325217214
 30
0.0
 10
68.78204753960802
 20
311.8091769295439
 30
0.0
 10
68.86654764848998
 20
311.5954408008946
 30
0.0
 10
68.93532326194594
 20
311.3756472444403
 30
0.0
 10
68.98630031638078
 20
311.1499151976914
 30
0.0
 10
69.01963959872026
 20
310.9199336634083
 30
0.0
 10
69.02396691831733
 20
310.7648107519676
 30
0.0
 10
69.0261295181
 20
310.687287295
 30
0.0
 11
68.4441876943
 21
312.4061370482
 31
0.0
 11
68.56876064069942
 21
312.2143977744396
 31
0.0
 11
68.68075617879727
 21
312.0149235647369
 31
0.0
 11
68.7795765867371
 21
311.8080683534469
 31
0.0
 11
68.86376450897754
 21
311.5948911392757
 31
0.0
 11
68.93230221849814
 21
311.37486889286
 31
0.0
 11
68.9832054641309
 21
311.1500417281745
 31
0.0
 11
69.01515470229593
 21
310.9195227159811
 31
0.0
 11
69.0261295181
 21
310.687287295
 31
0.0
  0
SPLINE
  5
FE
330
1F
100
AcDbEntity
  8
RUNDUNGEN
  6
Continuous
 62
     7
100
AcDbSpline
210
0.0
220
0.0
230
1.0
 70
     8
 71
     3
 72
    15
 73
    11
 74
     9
 42
0.0000000001
 43
0.0000000001
 44
0.00000001
 40
0.0
 40
0.0
 40
0.0
 40
0.0
 40
0.1273079847291186
 40
0.2549893803394421
 40
0.3793073350463746
 40
0.5035989686959635
 40
0.6245667031302902
 40
0.7455591721395013
 40
0.8645937372455286
 40
0.9835510381154909
 40
0.9835510381154909
 40
0.9835510381154909
 40
0.9835510381154909
 10
67.6261295181
 20
312.8606078458
 30
0.0
 10
67.66860868772172
 20
312.863054489909
 30
0.0
 10
67.75369162389593
 20
312.8679549544524
 30
0.0
 10
67.87933797554878
 20
312.8462907669854
 30
0.0
 10
67.99812399278694
 20
312.8046512945382
 30
0.0
 10
68.10689064147857
 20
312.7457798057233
 30
0.0
 10
68.20574084671499
 20
312.6736057691667
 30
0.0
 10
68.29412649089355
 20
312.5916523571977
 30
0.0
 10
68.37417137096546
 20
312.5024136612933
 30
0.0
 10
68.42085397170216
 20
312.438222305974
 30
0.0
 10
68.4441876943
 20
312.4061370482
 30
0.0
 11
67.6261295181
 21
312.8606078458
 31
0.0
 11
67.75341318647816
 21
312.8630959655699
 31
0.0
 11
67.87944445847415
 21
312.8426348496651
 31
0.0
 11
67.996803460449
 21
312.8016248689533
 31
0.0
 11
68.10633174917692
 21
312.742871450639
 31
0.0
 11
68.20421873987145
 21
312.6717987426074
 31
0.0
 11
68.29327243484867
 21
312.5898925952932
 31
0.0
 11
68.37259159603302
 21
312.5011361963183
 31
0.0
 11
68.4441876943
 21
312.4061370482
 31
0.0
  0
SPLINE
  5
FF
330
1F
100
AcDbEntity
  8
RUNDUNGEN
  6
Continuous
 62
     7
100
AcDbSpline
210
0.0
220
0.0
230
1.0
 70
     8
 71
     3
 72
    15
 73
    11
 74
     9
 42
0.0000000001
 43
0.0000000001
 44
0.00000001
 40
0.0
 40
0.0
 40
0.0
 40
0.0
 40
0.2324947530444142
 40
0.4652174309666166
 40
0.6957353317467236
 40
0.9261855606571372
 40
1.155384407780195
 40
1.384632178789638
 40
1.613395801703661
 40
1.842048806047805
 40
1.842048806047805
 40
1.842048806047805
 40
1.842048806047805
 10
69.0261295181
 20
298.8249868014
 30
0.0
 10
69.02396691112293
 20
298.7474632921913
 30
0.0
 10
69.01963957706955
 20
298.5923402740528
 30
0.0
 10
68.98630023863385
 20
298.3623585618657
 30
0.0
 10
68.93532317983033
 20
298.1366263054458
 30
0.0
 10
68.86654748346864
 20
297.9168326251751
 30
0.0
 10
68.78204710888681
 20
297.7030965427588
 30
0.0
 10
68.68289873371691
 20
297.4964411752891
 30
0.0
 10
68.57142222842266
 20
297.2962598664732
 30
0.0
 10
68.48659236744598
 20
297.1695011027946
 30
0.0
 10
68.4441876943
 20
297.1061370482
 30
0.0
 11
69.0261295181
 21
298.8249868014
 31
0.0
 11
69.01515467568908
 21
298.5927512248247
 31
0.0
 11
68.98320539996074
 21
298.3622320529545
 31
0.0
 11
68.93230211835156
 21
298.1374046558218
 31
0.0
 11
68.86376427928563
 21
297.9173822191908
 31
0.0
 11
68.7795761691482
 21
297.7042051246567
 31
0.0
 11
68.68075563043506
 21
297.4973500023095
 31
0.0
 11
68.56876034768227
 21
297.2978760646388
 31
0.0
 11
68.4441876943
 21
297.1061370482
 31
0.0
  0
SPLINE
  5
100
330
1F
100
AcDbEntity
  8
RUNDUNGEN
  6
Continuous
 62
     7
100
AcDbSpline
210
0.0
220
0.0
230
1.0
 70
     8
 71
     3
 72
    17
 73
    13
 74
    11
 42
0.0000000001
 43
0.0000000001
 44
0.00000001
 40
0.0
 40
0.0
 40
0.0
 40
0.0
 40
0.1190059193336594
 40
0.2380814744384905
 40
0.3590691915544423
 40
0.4800850747943278
 40
0.6044906460778307
 40
0.728652194443427
 40
0.7922003881789675
 40
0.8557409872044218
 40
0.9198158321793976
 40
0.9838416202048186
 40
0.9838416202048186
 40
0.9838416202048186
 40
0.9838416202048186
 10
68.4441876943
 20
297.1061370482
 30
0.0
 10
68.42084199356066
 20
297.0740405171648
 30
0.0
 10
68.3741369314516
 20
297.0098286739554
 30
0.0
 10
68.29407046897978
 20
296.9205708797992
 30
0.0
 10
68.20569954000518
 20
296.8385691868724
 30
0.0
 10
68.10677478194384
 20
296.7663625145576
 30
0.0
 10
67.9979407090644
 20
296.7077485716048
 30
0.0
 10
67.899378657093
 20
296.6728686147817
 30
0.0
 10
67.81733212793225
 20
296.6555216648188
 30
0.0
 10
67.75396920872782
 20
296.6481286022679
 30
0.0
 10
67.68998190646371
 20
296.6461952707723
 30
0.0
 10
67.64740821293262
 20
296.6498430563049
 30
0.0
 10
67.6261295181
 20
296.6516662506
 30
0.0
 11
68.4441876943
 21
297.1061370482
 31
0.0
 11
68.37255573791555
 21
297.0111040451906
 31
0.0
 11
68.29321175818772
 21
296.9223148526925
 31
0.0
 11
68.20417955013502
 21
296.8403923672432
 31
0.0
 11
68.10622835534603
 21
296.7693261485754
 31
0.0
 11
67.99654205219383
 21
296.7106263950224
 31
0.0
 11
67.87935357952594
 21
296.6696025974616
 31
0.0
 11
67.81717375002354
 21
296.6564861295643
 31
0.0
 11
67.75406934605533
 21
296.6490536384388
 31
0.0
 11
67.69001505671474
 21
296.6474307473028
 31
0.0
 11
67.6261295181
 21
296.6516662506
 31
0.0
  0
SPLINE
  5
101
330
1F
100
AcDbEntity
  8
FASEN
  6
Continuous
 62
     7
100
AcDbSpline
210
0.0
220
0.0
230
1.0
 70
     8
 71
     3
 72
    41
 73
    37
 74
    35
 42
0.0000000001
 43
0.0000000001
 44
0.00000001
 40
0.0
 40
0.0
 40
0.0
 40
0.0
 40
0.3535888544108389
 40
0.7075507289680444
 40
1.060684840950022
 40
1.413709983431634
 40
1.765779918096783
 40
2.117876005235444
 40
2.469055569696825
 40
2.820227711307941
 40
3.171084425292014
 40
3.521941346669045
 40
3.87316008528924
 40
4.224381765494226
 40
4.576461723128744
 40
4.928542604201911
 40
5.281581803839606
 40
5.634626310481407
 40
5.988339657455668
 40
6.342041478531867
 40
6.695908397043602
 40
7.049820838087412
 40
7.403595216305003
 40
7.757194007934334
 40
7.933994428134017
 40
8.110739696183616
 40
8.287420502917456
 40
8.46415745665334
 40
8.817287503310242
 40
9.170592253423957
 40
9.523997521671488
 40
9.877334047523286
 40
10.23089310701976
 40
10.58456791529126
 40
10.9386093564148
 40
11.29227461516902
 40
11.29227461516902
 40
11.29227461516902
 40
11.29227461516902
 10
85.4253779296
 20
304.7561370482
 30
0.0
 10
85.42206931942587
 20
304.6382254560145
 30
0.0
 10
85.41544860864448
 20
304.4022778802808
 30
0.0
 10
85.361571775731
 20
304.0519729359766
 30
0.0
 10
85.2763384875886
 20
303.7085869122504
 30
0.0
 10
85.15751002189472
 20
303.3758057053254
 30
0.0
 10
85.00684733681493
 20
303.0566301864563
 30
0.0
 10
84.8258973899191
 20
302.7542844413091
 30
0.0
 10
84.6161962292726
 20
302.4715048828513
 30
0.0
 10
84.38003505440162
 20
302.2109711661999
 30
0.0
 10
84.11941562022818
 20
301.9750679906297
 30
0.0
 10
83.83691386665427
 20
301.7658400373158
 30
0.0
 10
83.53507184894819
 20
301.5853958188375
 30
0.0
 10
83.21667362106864
 20
301.4351454603614
 30
0.0
 10
82.88481395261806
 20
301.3167212895888
 30
0.0
 10
82.54242299692619
 20
301.2310008091972
 30
0.0
 10
82.1929844023914
 20
301.1790387118435
 30
0.0
 10
81.83961300545053
 20
301.16118187396
 30
0.0
 10
81.4859584719278
 20
301.1777959317097
 30
0.0
 10
81.13530645822388
 20
301.2286399815688
 30
0.0
 10
80.79120706023875
 20
301.3134073363445
 30
0.0
 10
80.45694959825896
 20
301.4312389399996
 30
0.0
 10
80.13591485425194
 20
301.581152217897
 30
0.0
 10
79.88186856493596
 20
301.7315786995161
 30
0.0
 10
79.68842695352599
 20
301.8664091181648
 30
0.0
 10
79.54851849616183
 20
301.9745264554201
 30
0.0
 10
79.41409374892139
 20
302.0893579824477
 30
0.0
 10
79.242708993575
 20
302.2510129003101
 30
0.0
 10
79.04376305529604
 20
302.4687119187353
 30
0.0
 10
78.83188935179851
 20
302.7521072436375
 30
0.0
 10
78.6490903277481
 20
303.0551837713197
 30
0.0
 10
78.49705714764872
 20
303.3748647589235
 30
0.0
 10
78.37715766386893
 20
303.7080986610898
 30
0.0
 10
78.29120723203137
 20
304.0517108097483
 30
0.0
 10
78.23692979304212
 20
304.4022007004658
 30
0.0
 10
78.23022948149443
 20
304.6382000808759
 30
0.0
 10
78.2268811065
 20
304.7561370482
 30
0.0
 11
85.4253779296
 21
304.7561370482
 31
0.0
 11
85.40813010236023
 21
304.4029691130486
 31
0.0
 11
85.35628404187999
 21
304.0528248646984
 31
0.0
 11
85.2706980741235
 21
303.7102190516005
 31
0.0
 11
85.15206091377371
 21
303.3777254796201
 31
0.0
 11
85.00175537032743
 21
303.0593522984248
 31
0.0
 11
84.8209080197331
 21
302.7572498483166
 31
0.0
 11
84.61174222820026
 21
302.475156321011
 31
0.0
 11
84.37587160479472
 21
302.2149892169066
 31
0.0
 11
84.11577179576251
 21
301.9795141161229
 31
0.0
 11
83.83380774882902
 21
301.7707155157563
 31
0.0
 11
83.53237396221613
 21
301.5904593795329
 31
0.0
 11
83.21473883945633
 21
301.4405774345383
 31
0.0
 11
82.88315578985186
 21
301.3222010104374
 31
0.0
 11
82.541614382888
 21
301.2367000505222
 31
0.0
 11
82.19242090317127
 21
301.1847328473635
 31
0.0
 11
81.83982567559212
 21
301.1669275347191
 31
0.0
 11
81.48650069516654
 21
301.1834982931506
 31
0.0
 11
81.13646342558283
 21
301.2342810474576
 31
0.0
 11
80.79286602710283
 21
301.3189133331101
 31
0.0
 11
80.45909720023134
 21
301.4366094933466
 31
0.0
 11
80.13854575434452
 21
301.5862860821075
 31
0.0
 11
79.83431650995186
 21
301.7664989348622
 31
0.0
 11
79.68926839544328
 21
301.86759014645
 31
0.0
 11
79.54941293891768
 21
301.9756611465284
 31
0.0
 11
79.41507844546993
 21
302.0904232976857
 31
0.0
 11
79.28651607381124
 21
302.2116984699566
 31
0.0
 11
79.04827758033778
 21
302.472357730447
 31
0.0
 11
78.83676081022732
 21
302.7553504908049
 31
0.0
 11
78.65421351073984
 21
303.0579587641137
 31
0.0
 11
78.50244659101864
 21
303.377041045946
 31
0.0
 11
78.38283808270953
 21
303.7097538549752
 31
0.0
 11
78.29651267948552
 21
304.0527316891921
 31
0.0
 11
78.24429107931778
 21
304.4029005720312
 31
0.0
 11
78.2268811065
 21
304.7561370482
 31
0.0
  0
SPLINE
  5
102
330
1F
100
AcDbEntity
  8
0
  6
Continuous
 62
     7
100
AcDbSpline
210
0.0
220
0.0
230
1.0
 70
     8
 71
     3
 72
    11
 73
     7
 74
     5
 42
0.0000000001
 43
0.0000000001
 44
0.00000001
 40
0.0
 40
0.0
 40
0.0
 40
0.0
 40
0.0720335617178223
 40
0.1441734620542577
 40
0.2163593593842358
 40
0.2883296529141746
 40
0.2883296529141746
 40
0.2883296529141746
 40
0.2883296529141746
 10
65.1142002491
 20
312.4920947542
 30
0.0
 10
65.13370630258106
 20
312.5061472242458
 30
0.0
 10
65.17274720510363
 20
312.5342729091152
 30
0.0
 10
65.2369891297923
 20
312.5674989020403
 30
0.0
 10
65.30485232649164
 20
312.5929300957145
 30
0.0
 10
65.35236931518426
 20
312.6007469917568
 30
0.0
 10
65.3760922757
 20
312.6046495942
 30
0.0
 11
65.1142002491
 21
312.4920947542
 31
0.0
 11
65.17365887504991
 21
312.5327580769111
 31
0.0
 11
65.2375823017955
 21
312.5661939967227
 31
0.0
 11
65.305493630882
 21
312.5906655139426
 31
0.0
 11
65.3760922757
 21
312.6046495942
 31
0.0
  0
SPLINE
  5
103
330
1F
100
AcDbEntity
  8
0
  6
Continuous
 62
     7
100
AcDbSpline
210
0.0
220
0.0
230
1.0
 70
     8
 71
     3
 72
    27
 73
    23
 74
    21
 42
0.0000000001
 43
0.0000000001
 44
0.00000001
 40
0.0
 40
0.0
 40
0.0
 40
0.0
 40
0.0679422773459749
 40
0.1359904672704996
 40
0.1960311418290313
 40
0.2558288644336643
 40
0.2829045759170649
 40
0.3099751665569874
 40
0.3357621418708178
 40
0.361545007717889
 40
0.3868874812896414
 40
0.4122310012390356
 40
0.4380221513227822
 40
0.4638182097933529
 40
0.5190828347291874
 40
0.5745822154680895
 40
0.6366003188380864
 40
0.698558037566361
 40
0.7666673009205482
 40
0.8347923376037405
 40
0.9078434200739232
 40
0.9808740974615213
 40
0.9808740974615213
 40
0.9808740974615213
 40
0.9808740974615213
 10
64.4261295181
 20
312.30092094
 30
0.0
 10
64.42659727815777
 20
312.3235776811035
 30
0.0
 10
64.42753352744629
 20
312.3689264820248
 30
0.0
 10
64.43665044888388
 20
312.4338145565973
 30
0.0
 10
64.45239300683417
 20
312.4945790479127
 30
0.0
 10
64.47196025065826
 20
312.5397998215157
 30
0.0
 10
64.4919807750757
 20
312.572137532174
 30
0.0
 10
64.50828235945852
 20
312.5932826374792
 30
0.0
 10
64.52655192177933
 20
312.6121567238943
 30
0.0
 10
64.54642527121823
 20
312.6284502101013
 30
0.0
 10
64.56799632055049
 20
312.642142788717
 30
0.0
 10
64.59101469984368
 20
312.6532306511101
 30
0.0
 10
64.61530711469307
 20
312.6616182069759
 30
0.0
 10
64.6500822552599
 20
312.6695790617193
 30
0.0
 10
64.69580123490353
 20
312.6727469486079
 30
0.0
 10
64.75330779725154
 20
312.6672355234047
 30
0.0
 10
64.81175115950721
 20
312.6537193114206
 30
0.0
 10
64.87224099862418
 20
312.6324541160564
 30
0.0
 10
64.93256232621073
 20
312.6053344724583
 30
0.0
 10
64.9939295850738
 20
312.5720665750158
 30
0.0
 10
65.05469758884969
 20
312.5344747006052
 30
0.0
 10
65.09436787609974
 20
312.5062200874423
 30
0.0
 10
65.1142002491
 20
312.4920947542
 30
0.0
 11
64.4261295181
 21
312.30092094
 31
0.0
 11
64.42887778319263
 21
312.3688076109299
 31
0.0
 11
64.43837057380924
 21
312.4361904208914
 31
0.0
 11
64.45389939746997
 21
312.4941881642713
 31
0.0
 11
64.47806845102839
 21
312.5488839088845
 31
0.0
 11
64.49236395218954
 21
312.5718780994309
 31
0.0
 11
64.50893756913165
 21
312.593282120059
 31
0.0
 11
64.52688906251176
 21
312.6117946018284
 31
0.0
 11
64.54684721808123
 21
312.6281172302182
 31
0.0
 11
64.56823543640301
 21
312.6417107979528
 31
0.0
 11
64.59106569752996
 21
312.6527141238273
 31
0.0
 11
64.61543040778291
 21
312.6611725111991
 31
0.0
 11
64.64056831107848
 21
312.6669623687552
 31
0.0
 11
64.69566850826723
 21
312.6712223029166
 31
0.0
 11
64.7509496763152
 21
312.6663056250083
 31
0.0
 11
64.8114381491001
 21
312.6526165853867
 31
0.0
 11
64.86999232691284
 21
312.6323640010902
 31
0.0
 11
64.93217836616206
 21
312.6045832833683
 31
0.0
 11
64.99217172326142
 21
312.5723060820176
 31
0.0
 11
65.05426039696377
 21
312.5338163788757
 31
0.0
 11
65.1142002491
 21
312.4920947542
 31
0.0
  0
SPLINE
  5
104
330
1F
100
AcDbEntity
  8
0
  6
Continuous
 62
     7
100
AcDbSpline
210
0.0
220
0.0
230
1.0
 70
     8
 71
     3
 72
    25
 73
    21
 74
    19
 42
0.0000000001
 43
0.0000000001
 44
0.00000001
 40
0.0
 40
0.0
 40
0.0
 40
0.0
 40
0.0272067661449932
 40
0.0544881809679603
 40
0.0817226175558051
 40
0.1089430469804976
 40
0.1361366760817188
 40
0.1633351632023441
 40
0.1904968256336449
 40
0.2176561384110265
 40
0.2719142873991018
 40
0.3262206322786962
 40
0.3804997304002357
 40
0.4347596646584872
 40
0.4890233385929504
 40
0.543290387302454
 40
0.5975530058400733
 40
0.6518162746241605
 40
0.7603346281728739
 40
0.8688546603467179
 40
0.8688546603467179
 40
0.8688546603467179
 40
0.8688546603467179
 10
106.1636295181
 20
309.6922919283
 30
0.0
 10
106.1545530617693
 20
309.6927289185876
 30
0.0
 10
106.1363752455429
 20
309.6936040981566
 30
0.0
 10
106.1097738435895
 20
309.7001430206834
 30
0.0
 10
106.0842996041208
 20
309.7099515421743
 30
0.0
 10
106.0602301030594
 20
309.7227900430352
 30
0.0
 10
106.0376072505502
 20
309.7379646637463
 30
0.0
 10
106.0163825532895
 20
309.7549937028366
 30
0.0
 10
105.9963973550934
 20
309.7734317495038
 30
0.0
 10
105.9712814054304
 20
309.7995141182642
 30
0.0
 10
105.9423486082694
 20
309.8343795000656
 30
0.0
 10
105.9109792162772
 20
309.8787223344994
 30
0.0
 10
105.8821557952806
 20
309.9247469665179
 30
0.0
 10
105.855538803325
 20
309.9720570114209
 30
0.0
 10
105.830727810069
 20
310.020328349832
 30
0.0
 10
105.8075003489776
 20
310.0693790256028
 30
0.0
 10
105.7856175107377
 20
310.1190424215961
 30
0.0
 10
105.7580727376171
 20
310.1859458809924
 30
0.0
 10
105.7261006170039
 20
310.2705744892619
 30
0.0
 10
105.7034298446483
 20
310.3392826847522
 30
0.0
 10
105.6920943708
 20
310.3736370482
 30
0.0
 11
106.1636295181
 21
309.6922919283
 31
0.0
 11
106.1365102102468
 21
309.6944716681086
 31
0.0
 11
106.1099475653028
 21
309.7006927201354
 31
0.0
 11
106.0845250149306
 21
309.7104604460135
 31
0.0
 11
106.0604618051877
 21
309.7231849780259
 31
0.0
 11
106.0378389640204
 21
309.7382747269044
 31
0.0
 11
106.0165783944715
 21
309.7552378010392
 31
0.0
 11
105.996584798748
 21
309.7736229046854
 31
0.0
 11
105.977714116249
 21
309.7931555853145
 31
0.0
 11
105.9429158383872
 21
309.8347852212661
 31
0.0
 11
105.911398651905
 21
309.8790101695469
 31
0.0
 11
105.8825190252714
 21
309.9249687123696
 31
0.0
 11
105.8558400557778
 21
309.9722167075913
 31
0.0
 11
105.8309923026628
 21
310.0204571001478
 31
0.0
 11
105.8077238315015
 21
310.0694825101456
 31
0.0
 11
105.7858214272885
 21
310.1191284209565
 31
0.0
 11
105.7651220818756
 21
310.169288558901
 31
0.0
 11
105.7268274480635
 21
310.2708255180742
 31
0.0
 11
105.6920943708
 21
310.3736370482
 31
0.0
  0
SPLINE
  5
105
330
1F
100
AcDbEntity
  8
0
  6
Continuous
 62
     7
100
AcDbSpline
210
0.0
220
0.0
230
1.0
 70
     8
 71
     3
 72
    25
 73
    21
 74
    19
 42
0.0000000001
 43
0.0000000001
 44
0.00000001
 40
0.0
 40
0.0
 40
0.0
 40
0.0
 40
0.1085285490977289
 40
0.2170554557158071
 40
0.2713241332977703
 40
0.3255921109319413
 40
0.3798650579452476
 40
0.4341347749101512
 40
0.4884007825063101
 40
0.542685535180251
 40
0.5969918906406929
 40
0.6512511252795504
 40
0.6784124281182365
 40
0.7055751104942981
 40
0.7327602080947713
 40
0.7599421722284829
 40
0.7871532997298675
 40
0.8143760191547418
 40
0.8416525757878163
 40
0.8688563236157684
 40
0.8688563236157684
 40
0.8688563236157684
 40
0.8688563236157684
 10
108.9601646653
 20
310.3736370482
 30
0.0
 10
108.9488282418966
 20
310.3392800076219
 30
0.0
 10
108.926155566656
 20
310.2705664464278
 30
0.0
 10
108.8941805467921
 20
310.1859309252098
 30
0.0
 10
108.8666334883613
 20
310.1190214427892
 30
0.0
 10
108.8447483769886
 20
310.0693529730131
 30
0.0
 10
108.8215179528495
 20
310.0202973138011
 30
0.0
 10
108.7967037207603
 20
309.9720208944653
 30
0.0
 10
108.7700838049225
 20
309.9247056930828
 30
0.0
 10
108.7412564491878
 20
309.8786788203806
 30
0.0
 10
108.7098800346965
 20
309.8343381038651
 30
0.0
 10
108.6809430995469
 20
309.7994750289708
 30
0.0
 10
108.6558263795543
 20
309.7733915241865
 30
0.0
 10
108.6358407030816
 20
309.75495878687
 30
0.0
 10
108.6146128359991
 20
309.7379462746568
 30
0.0
 10
108.5919944925634
 20
309.7227864373185
 30
0.0
 10
108.5679404466942
 20
309.7099434733342
 30
0.0
 10
108.5424779779088
 20
309.7001264951813
 30
0.0
 10
108.5158801878596
 20
309.6935985447467
 30
0.0
 10
108.497704978089
 20
309.6927270788996
 30
0.0
 10
108.4886295181
 20
309.6922919283
 30
0.0
 11
108.9601646653
 21
310.3736370482
 31
0.0
 11
108.9254286623846
 21
310.2708175166376
 31
0.0
 11
108.8871308571204
 21
310.1692726124226
 31
0.0
 11
108.8664295187825
 21
310.1191074456481
 31
0.0
 11
108.8445248689737
 21
310.0694566680785
 31
0.0
 11
108.8212534527857
 21
310.0204261269219
 31
0.0
 11
108.7964025186411
 21
309.972180575297
 31
0.0
 11
108.7697201577739
 21
309.9249275203801
 31
0.0
 11
108.7408353044995
 21
309.8789655836912
 31
0.0
 11
108.7093132734127
 21
309.8347440753547
 31
0.0
 11
108.6745108713371
 21
309.7931164720924
 31
0.0
 11
108.6556381685697
 21
309.7735829761905
 31
0.0
 11
108.6356402022209
 21
309.7552011194896
 31
0.0
 11
108.6143824275757
 21
309.7382560155159
 31
0.0
 11
108.5917653639066
 21
309.7231786283033
 31
0.0
 11
108.5677140382137
 21
309.7104515236716
 31
0.0
 11
108.5423054192223
 21
309.7006802118948
 31
0.0
 11
108.5157463000123
 21
309.6944654127392
 31
0.0
 11
108.4886295181
 21
309.6922919283
 31
0.0
  0
SPLINE
  5
106
330
1F
100
AcDbEntity
  8
0
  6
Continuous
 62
     7
100
AcDbSpline
210
0.0
220
0.0
230
1.0
 70
     8
 71
     3
 72
    25
 73
    21
 74
    19
 42
0.0000000001
 43
0.0000000001
 44
0.00000001
 40
0.0
 40
0.0
 40
0.0
 40
0.0
 40
0.0272074181286029
 40
0.0544897103699741
 40
0.0817252615438893
 40
0.1089465263904414
 40
0.1361394922774549
 40
0.1633375027143021
 40
0.1904999127532573
 40
0.2176598700653578
 40
0.2719180516381751
 40
0.3262245620602686
 40
0.3805032119813903
 40
0.4347626393416147
 40
0.4890258447079197
 40
0.5432924465189828
 40
0.5975546789310365
 40
0.6518175541937111
 40
0.760335129669695
 40
0.8688543878138051
 40
0.8688543878138051
 40
0.8688543878138051
 40
0.8688543878138051
 10
108.4886295181
 20
299.8199821681
 30
0.0
 10
108.4977061909616
 20
299.8195449276163
 30
0.0
 10
108.5158845154545
 20
299.8186692433745
 30
0.0
 10
108.5424863886695
 20
299.8121287015215
 30
0.0
 10
108.5679618453628
 20
299.8023209629645
 30
0.0
 10
108.5920323689283
 20
299.7894833337351
 30
0.0
 10
108.6146547406783
 20
299.7743080952067
 30
0.0
 10
108.6358785962825
 20
299.7572782463276
 30
0.0
 10
108.6558639516385
 20
299.738839947454
 30
0.0
 10
108.6809804554624
 20
299.7127574452491
 30
0.0
 10
108.7099130526756
 20
299.6778914957114
 30
0.0
 10
108.7412816458487
 20
299.6335482122689
 30
0.0
 10
108.7701047968931
 20
299.5875237352897
 30
0.0
 10
108.7967216764112
 20
299.5402141707048
 30
0.0
 10
108.8215324064562
 20
299.4919432278309
 30
0.0
 10
108.8447595820544
 20
299.4428928974647
 30
0.0
 10
108.8666422185669
 20
299.3932298600258
 30
0.0
 10
108.8941867862865
 20
299.3263268776855
 30
0.0
 10
108.9261586659408
 20
299.2416988719553
 30
0.0
 10
108.9488292735925
 20
299.1729911670134
 30
0.0
 10
108.9601646653
 20
299.1386370482
 30
0.0
 11
108.4886295181
 21
299.8199821681
 31
0.0
 11
108.5157494091226
 21
299.8178015461363
 31
0.0
 11
108.5423127054557
 21
299.8115794276977
 31
0.0
 11
108.5677365623393
 21
299.8018119946209
 31
0.0
 11
108.5918009214587
 21
299.7890878490693
 31
0.0
 11
108.6144229246749
 21
299.7739980391229
 31
0.0
 11
108.635682556548
 21
299.7570345540936
 31
0.0
 11
108.6556765670216
 21
299.7386487969891
 31
0.0
 11
108.6745477796301
 21
299.7191157323069
 31
0.0
 11
108.7093457455364
 21
299.6774857931239
 31
0.0
 11
108.7408624281087
 21
299.6332602824558
 31
0.0
 11
108.7697416218692
 21
299.5873019969677
 31
0.0
 11
108.7964203928166
 21
299.5400544717606
 31
0.0
 11
108.8212679040012
 21
299.4918144816636
 31
0.0
 11
108.8445361033166
 21
299.4427894373216
 31
0.0
 11
108.8664383096249
 21
299.3931438612329
 31
0.0
 11
108.8871374938212
 21
299.3429840824717
 31
0.0
 11
108.9254318413181
 21
299.2414478468857
 31
0.0
 11
108.9601646653
 21
299.1386370482
 31
0.0
  0
SPLINE
  5
107
330
1F
100
AcDbEntity
  8
0
  6
Continuous
 62
     7
100
AcDbSpline
210
0.0
220
0.0
230
1.0
 70
     8
 71
     3
 72
    25
 73
    21
 74
    19
 42
0.0000000001
 43
0.0000000001
 44
0.00000001
 40
0.0
 40
0.0
 40
0.0
 40
0.0
 40
0.1085025556844868
 40
0.2170033620505711
 40
0.2712583157975873
 40
0.3255127643024034
 40
0.3797719179216892
 40
0.4340272286554726
 40
0.4882788892800845
 40
0.5425511686316333
 40
0.5968541105456688
 40
0.6511051290604575
 40
0.6782579265050254
 40
0.7054161158620985
 40
0.7326228693679963
 40
0.7598194769019851
 40
0.7870692643876206
 40
0.8143404776825172
 40
0.8416356459165598
 40
0.8688504930332839
 40
0.8688504930332839
 40
0.8688504930332839
 40
0.8688504930332839
 10
105.6920943708
 20
299.1386370482
 30
0.0
 10
105.7034280213251
 20
299.1729858780505
 30
0.0
 10
105.72609513965
 20
299.2416829839671
 30
0.0
 10
105.7580618640293
 20
299.326298174689
 30
0.0
 10
105.7856017482696
 20
299.3931913755449
 30
0.0
 10
105.8074803684521
 20
299.442847740128
 30
0.0
 10
105.8307025320341
 20
299.4918919047462
 30
0.0
 10
105.8555081657946
 20
299.5401568213962
 30
0.0
 10
105.8821209986844
 20
299.587460229664
 30
0.0
 10
105.910936069975
 20
299.6334825766838
 30
0.0
 10
105.942286587126
 20
299.6778314556726
 30
0.0
 10
105.9712114226817
 20
299.7126970968956
 30
0.0
 10
105.9963334031972
 20
299.7387658604083
 30
0.0
 10
106.0163158439425
 20
299.7572050593614
 30
0.0
 10
106.0375176970443
 20
299.7742657103885
 30
0.0
 10
106.0601372432309
 20
299.7894721015393
 30
0.0
 10
106.0842440793839
 20
299.8022935805836
 30
0.0
 10
106.1097537317163
 20
299.8120783696756
 30
0.0
 10
106.1363653659534
 20
299.8186525773177
 30
0.0
 10
106.1545503993345
 20
299.819539406757
 30
0.0
 10
106.1636295181
 20
299.8199821681
 30
0.0
 11
105.6920943708
 21
299.1386370482
 31
0.0
 11
105.7268218024367
 21
299.2414320387491
 31
0.0
 11
105.7651098417666
 21
299.3429527313509
 31
0.0
 11
105.7858055293459
 21
299.3931053835411
 31
0.0
 11
105.8077036345467
 21
299.4427442611591
 31
0.0
 11
105.8309670860179
 21
299.4917633143643
 31
0.0
 11
105.8558095740367
 21
299.539997011422
 31
0.0
 11
105.8824831386233
 21
299.5872385570442
 31
0.0
 11
105.911353093208
 21
299.6331951238034
 31
0.0
 11
105.942856239615
 21
299.6774258966541
 31
0.0
 11
105.9776475559794
 21
299.7190520580857
 31
0.0
 11
105.9965184488388
 21
299.7385754750959
 31
0.0
 11
106.016504990353
 21
299.7569631178882
 31
0.0
 11
106.0377525979234
 21
299.7739556635734
 31
0.0
 11
106.060366795075
 21
299.7890637259424
 31
0.0
 11
106.084466438644
 21
299.8017821416402
 31
0.0
 11
106.1099317341408
 21
299.8115411272348
 31
0.0
 11
106.1365036972361
 21
299.8177826804217
 31
0.0
 11
106.1636295181
 21
299.8199821681
 31
0.0
  0
SPLINE
  5
108
330
1F
100
AcDbEntity
  8
FASEN
  6
Continuous
 62
     7
100
AcDbSpline
210
0.0
220
0.0
230
1.0
 70
     8
 71
     3
 72
    43
 73
    39
 74
    37
 42
0.0000000001
 43
0.0000000001
 44
0.00000001
 40
0.0
 40
0.0
 40
0.0
 40
0.0
 40
0.3536627138529054
 40
0.7077087110917561
 40
1.061386016608034
 40
1.414940912939916
 40
1.768273600879084
 40
2.121679340755896
 40
2.474990473720214
 40
2.828124790700573
 40
3.00486164009745
 40
3.181542282424688
 40
3.358289604732261
 40
3.535092628000873
 40
3.888693190990015
 40
4.242467023590811
 40
4.596379402947576
 40
4.950247373464996
 40
5.303947628055456
 40
5.657661399122224
 40
6.010712555500091
 40
6.36374720069445
 40
6.715806091063412
 40
7.067909115926973
 40
7.419215040275176
 40
7.770346273774988
 40
7.945854779232936
 40
8.121308710066499
 40
8.296759233409164
 40
8.472264989832935
 40
8.823345921708304
 40
9.174601594849333
 40
9.526721241998974
 40
9.878775142300977
 40
10.23179857982566
 40
10.5849361322264
 40
10.9388955996464
 40
11.29248564905728
 40
11.29248564905728
 40
11.29248564905728
 40
11.29248564905728
 10
78.2268811065
 20
304.7561370482
 30
0.0
 10
78.23021093332193
 20
304.8740743579413
 30
0.0
 10
78.23687419567898
 20
305.1100767924568
 30
0.0
 10
78.2912101509429
 20
305.4605610996852
 30
0.0
 10
78.37715337647447
 20
305.8041735658661
 30
0.0
 10
78.49704052127659
 20
306.1374110688499
 30
0.0
 10
78.64908938268968
 20
306.4570825590419
 30
0.0
 10
78.83190329912358
 20
306.7601503644955
 30
0.0
 10
79.04376649482222
 20
307.0435571134618
 30
0.0
 10
79.24270093400531
 20
307.2612717125785
 30
0.0
 10
79.41408140913921
 20
307.422933281665
 30
0.0
 10
79.548507932905
 20
307.5377639313428
 30
0.0
 10
79.6884261998781
 20
307.64587125337
 30
0.0
 10
79.88188055191216
 20
307.7806868610299
 30
0.0
 10
80.13592535052035
 20
307.9311163673287
 30
0.0
 10
80.45695376507703
 20
308.0810448858802
 30
0.0
 10
80.79121262827636
 20
308.1988745655875
 30
0.0
 10
81.13531343711476
 20
308.2836348004514
 30
0.0
 10
81.48596524126135
 20
308.3344788161057
 30
0.0
 10
81.83962177034262
 20
308.3510929254784
 30
0.0
 10
82.1929937554484
 20
308.3332316629114
 30
0.0
 10
82.54242582340697
 20
308.2812713414729
 30
0.0
 10
82.88481656141788
 20
308.1955578048133
 30
0.0
 10
83.21670297315015
 20
308.0771115947459
 30
0.0
 10
83.53509048784136
 20
307.9268564647102
 30
0.0
 10
83.78672686400583
 20
307.7764448165997
 30
0.0
 10
83.97822275742077
 20
307.641771748701
 30
0.0
 10
84.11667368999392
 20
307.5338507129994
 30
0.0
 10
84.24967180381847
 20
307.419278427998
 30
0.0
 10
84.41930251646937
 20
307.2579589860804
 30
0.0
 10
84.6161733215153
 20
307.0407793149225
 30
0.0
 10
84.82590006205625
 20
306.7580315732893
 30
0.0
 10
85.00686040539613
 20
306.4556531656226
 30
0.0
 10
85.15749222363556
 20
306.1364624964021
 30
0.0
 10
85.27632402260096
 20
305.8036888304587
 30
0.0
 10
85.36156916176054
 20
305.4603042040017
 30
0.0
 10
85.41540432174267
 20
305.1099934384964
 30
0.0
 10
85.42205455102922
 20
304.8740481152357
 30
0.0
 10
85.4253779296
 20
304.7561370482
 30
0.0
 11
78.2268811065
 21
304.7561370482
 31
0.0
 11
78.24425427028807
 21
305.1093727886762
 31
0.0
 11
78.2965048393626
 21
305.4595419566397
 31
0.0
 11
78.38283371331134
 21
305.8025214924141
 31
0.0
 11
78.50243460874567
 21
306.1352326141572
 31
0.0
 11
78.65421146211378
 21
306.4543059210131
 31
0.0
 11
78.83676918631011
 21
306.7569084562209
 31
0.0
 11
79.04828088095312
 21
307.0399129786331
 31
0.0
 11
79.28650824328074
 21
307.3005881973778
 31
0.0
 11
79.41506699694963
 21
307.4218670528714
 31
0.0
 11
79.54940302240131
 21
307.5366271576074
 31
0.0
 11
79.68926743977312
 21
307.6446899203711
 31
0.0
 11
79.83432490804029
 21
307.7457722627304
 31
0.0
 11
80.13855634418853
 21
307.9259848910488
 31
0.0
 11
80.45910254018602
 21
308.0756714330778
 31
0.0
 11
80.79287129774812
 21
308.1933676043724
 31
0.0
 11
81.1364709645928
 21
308.2779950792393
 31
0.0
 11
81.48650685929496
 21
308.3287763997953
 31
0.0
 11
81.83983229586313
 21
308.3453464847736
 31
0.0
 11
82.19243402166467
 21
308.3275380041666
 31
0.0
 11
82.54162309873885
 21
308.2755721580792
 31
0.0
 11
82.88314385005967
 21
308.1900792419686
 31
0.0
 11
83.21474622638755
 21
308.0716883464919
 31
0.0
 11
83.53245486617922
 21
307.9217647903579
 31
0.0
 11
83.83381668036064
 21
307.7415587968605
 31
0.0
 11
83.97738264597044
 21
307.6406031184337
 31
0.0
 11
84.11576597832602
 21
307.5327414701471
 31
0.0
 11
84.24869085602596
 21
307.4182256938118
 31
0.0
 11
84.37586348054148
 21
307.2972736615357
 31
0.0
 11
84.61168159237522
 21
307.0371820644826
 31
0.0
 11
84.82091508955936
 21
306.7550439926634
 31
0.0
 11
85.00176997880014
 21
306.4529185965999
 31
0.0
 11
85.1520475434546
 21
306.1345499387842
 31
0.0
 11
85.27068425722713
 21
305.8020580176989
 31
0.0
 11
85.3562728662751
 21
305.459449318281
 31
0.0
 11
85.40810007115168
 21
305.1093047118526
 31
0.0
 11
85.4253779296
 21
304.7561370482
 31
0.0
  0
SPLINE
  5
109
330
1F
100
AcDbEntity
  8
0
  6
Continuous
 62
     7
100
AcDbSpline
210
0.0
220
0.0
230
1.0
 70
     8
 71
     3
 72
    13
 73
     9
 74
     7
 42
0.0000000001
 43
0.0000000001
 44
0.00000001
 40
0.0
 40
0.0
 40
0.0
 40
0.0
 40
0.1312848067672321
 40
0.2626131914524911
 40
0.322700071071121
 40
0.3827285903040565
 40
0.4404671082375253
 40
0.4981359434446182
 40
0.4981359434446182
 40
0.4981359434446182
 40
0.4981359434446182
 10
105.6920943708
 20
310.3736370482
 30
0.0
 10
105.6567695584935
 20
310.3996664953999
 30
0.0
 10
105.5861082083671
 20
310.4517340298634
 30
0.0
 10
105.5166014480118
 20
310.5354095315467
 30
0.0
 10
105.4733443187586
 20
310.6073022399599
 30
0.0
 10
105.4486235550068
 20
310.6613094971955
 30
0.0
 10
105.4297826839069
 20
310.7168581454435
 30
0.0
 10
105.4227317489222
 20
310.7547183672564
 30
0.0
 10
105.4192084101
 20
310.7736370482
 30
0.0
 11
105.6920943708
 21
310.3736370482
 31
0.0
 11
105.5896429583141
 21
310.4557309491157
 31
0.0
 11
105.5051631919213
 21
310.5562810047808
 31
0.0
 11
105.4743274030264
 21
310.6078521907817
 31
0.0
 11
105.4492721543165
 21
310.662401779537
 31
0.0
 11
105.4311126127815
 21
310.717210241515
 31
0.0
 11
105.4192084101
 21
310.7736370482
 31
0.0
  0
SPLINE
  5
10A
330
1F
100
AcDbEntity
  8
0
  6
Continuous
 62
     7
100
AcDbSpline
210
0.0
220
0.0
230
1.0
 70
     8
 71
     3
 72
    13
 73
     9
 74
     7
 42
0.0000000001
 43
0.0000000001
 44
0.00000001
 40
0.0
 40
0.0
 40
0.0
 40
0.0
 40
0.0576631896701859
 40
0.1153961315365576
 40
0.1754242231922481
 40
0.2355105400871043
 40
0.3668449112346742
 40
0.4981360904811426
 40
0.4981360904811426
 40
0.4981360904811426
 40
0.4981360904811426
 10
109.2330506261
 20
310.7736370482
 30
0.0
 10
109.2295275883294
 20
310.7547202279924
 30
0.0
 10
109.2224772511505
 20
310.7168637048722
 30
0.0
 10
109.2036380365351
 20
310.6613186685922
 30
0.0
 10
109.1789201287244
 20
310.6073125595897
 30
0.0
 10
109.1356649794041
 20
310.5354166765665
 30
0.0
 10
109.0661561292371
 20
310.4517373744497
 30
0.0
 10
108.9954912793868
 20
310.3996676357869
 30
0.0
 10
108.9601646653
 20
310.3736370482
 30
0.0
 11
109.2330506261
 21
310.7736370482
 31
0.0
 11
109.2211475465803
 21
310.7172157743674
 31
0.0
 11
109.2029903558641
 21
310.6624124076657
 31
0.0
 11
109.1779370419592
 21
310.6078624007894
 31
0.0
 11
109.1471034094878
 21
310.5562905810949
 31
0.0
 11
109.0626211716288
 21
310.4557347829971
 31
0.0
 11
108.9601646653
 21
310.3736370482
 31
0.0
  0
SPLINE
  5
10B
330
1F
100
AcDbEntity
  8
0
  6
Continuous
 62
     7
100
AcDbSpline
210
0.0
220
0.0
230
1.0
 70
     8
 71
     3
 72
    27
 73
    23
 74
    21
 42
0.0000000001
 43
0.0000000001
 44
0.00000001
 40
0.0
 40
0.0
 40
0.0
 40
0.0
 40
0.0730306820195523
 40
0.1460817689058179
 40
0.214206818343515
 40
0.2823160954569435
 40
0.344273826985927
 40
0.4062919406875868
 40
0.4617913417431755
 40
0.517055990572284
 40
0.5428520623523004
 40
0.5686432246863006
 40
0.5939867602897813
 40
0.6193292498350906
 40
0.6451121206938814
 40
0.670899101555199
 40
0.6979696846081654
 40
0.7250453875224242
 40
0.784843077441838
 40
0.8448837206701112
 40
0.9129318641487649
 40
0.9808740945666009
 40
0.9808740945666009
 40
0.9808740945666009
 40
0.9808740945666009
 10
65.1142002491
 20
297.0201793422
 30
0.0
 10
65.09436787484044
 20
297.0060540080628
 30
0.0
 10
65.0546975851304
 20
296.9777993931518
 30
0.0
 10
64.99392957499823
 20
296.9402075151769
 30
0.0
 10
64.93256230655406
 20
296.9069396137155
 30
0.0
 10
64.8722409666561
 20
296.8798199656225
 30
0.0
 10
64.8117511161427
 20
296.8585547654877
 30
0.0
 10
64.75330773733337
 20
296.8450385574449
 30
0.0
 10
64.69580115367516
 20
296.8395271567163
 30
0.0
 10
64.65008215717702
 20
296.842695061471
 30
0.0
 10
64.615307000419
 20
296.8506559186786
 30
0.0
 10
64.59101457320686
 20
296.8590434822348
 30
0.0
 10
64.56799618783582
 20
296.8701313669513
 30
0.0
 10
64.54642514224332
 20
296.8838239748459
 30
0.0
 10
64.52655180611902
 20
296.9001174913479
 30
0.0
 10
64.50828226376288
 20
296.9189915979048
 30
0.0
 10
64.49198069267966
 20
296.9401367083352
 30
0.0
 10
64.47196018468833
 20
296.9724744099604
 30
0.0
 10
64.45239296448509
 20
297.0176951674124
 30
0.0
 10
64.43665043244306
 20
297.0784596270361
 30
0.0
 10
64.42753352542113
 20
297.1433476611083
 30
0.0
 10
64.42659727748176
 20
297.188696430861
 30
0.0
 10
64.4261295181
 20
297.2113531563
 30
0.0
 11
65.1142002491
 21
297.0201793422
 31
0.0
 11
65.05426039312866
 21
296.9784577149262
 31
0.0
 11
64.99217171548545
 21
296.9399680097599
 31
0.0
 11
64.93217834675563
 21
296.9076908031067
 31
0.0
 11
64.86999229467035
 21
296.8799100803846
 31
0.0
 11
64.81143810443214
 21
296.859657492852
 31
0.0
 11
64.75094961938464
 21
296.8459684606083
 31
0.0
 11
64.69566842920415
 21
296.8410518022149
 31
0.0
 11
64.64056820941651
 21
296.8453117540408
 31
0.0
 11
64.61543029335199
 21
296.8511016154565
 31
0.0
 11
64.59106557315194
 21
296.8595600115286
 31
0.0
 11
64.56823530508227
 21
296.8705633590534
 31
0.0
 11
64.54684708716833
 21
296.8841569572091
 31
0.0
 11
64.52688894705582
 21
296.900479612415
 31
0.0
 11
64.50893746866326
 21
296.9189921164451
 31
0.0
 11
64.49236386853853
 21
296.9403961404998
 31
0.0
 11
64.4780683787322
 21
296.9633903280153
 31
0.0
 11
64.453899354265
 21
297.0180860497493
 31
0.0
 11
64.43837055367682
 21
297.076083766873
 31
0.0
 11
64.42887777891457
 21
297.1434665321635
 31
0.0
 11
64.4261295181
 21
297.2113531563
 31
0.0
  0
SPLINE
  5
10C
330
1F
100
AcDbEntity
  8
0
  6
Continuous
 62
     7
100
AcDbSpline
210
0.0
220
0.0
230
1.0
 70
     8
 71
     3
 72
    11
 73
     7
 74
     5
 42
0.0000000001
 43
0.0000000001
 44
0.00000001
 40
0.0
 40
0.0
 40
0.0
 40
0.0
 40
0.1068456601619438
 40
0.2142571945113123
 40
0.3333679116146045
 40
0.4521343114693688
 40
0.4521343114693688
 40
0.4521343114693688
 40
0.4521343114693688
 10
105.42814434032
 20
298.783643303494
 30
0.0
 10
105.4388305889075
 20
298.8177519947607
 30
0.0
 10
105.4602596824125
 20
298.8861500231706
 30
0.0
 10
105.5192585179872
 20
298.9814034088163
 30
0.0
 10
105.595674458638
 20
299.068541900183
 30
0.0
 10
105.6599854292324
 20
299.1152945563705
 30
0.0
 10
105.6920943708
 20
299.1386370482
 30
0.0
 11
105.42814434032
 21
298.783643303494
 31
0.0
 11
105.4643037763101
 21
298.8841842915751
 31
0.0
 11
105.5194459455458
 21
298.9763611806703
 31
0.0
 11
105.5986756866052
 21
299.0652994236286
 31
0.0
 11
105.6920943708
 21
299.1386370482
 31
0.0
  0
SPLINE
  5
10D
330
1F
100
AcDbEntity
  8
0
  6
Continuous
 62
     7
100
AcDbSpline
210
0.0
220
0.0
230
1.0
 70
     8
 71
     3
 72
    13
 73
     9
 74
     7
 42
0.0000000001
 43
0.0000000001
 44
0.00000001
 40
0.0
 40
0.0
 40
0.0
 40
0.0
 40
0.1312911944312921
 40
0.2626255806159295
 40
0.3227118843237973
 40
0.3827399628189067
 40
0.4404729026841812
 40
0.4981360903826632
 40
0.4981360903826632
 40
0.4981360903826632
 40
0.4981360903826632
 10
108.9601646653
 20
299.1386370482
 30
0.0
 10
108.9954912833251
 20
299.1126064573611
 30
0.0
 10
109.0661561410122
 20
299.0605367122237
 30
0.0
 10
109.1356649920761
 20
298.9768574029319
 30
0.0
 10
109.1789201364456
 20
298.9049615214086
 30
0.0
 10
109.2036380392298
 20
298.8509554205702
 30
0.0
 10
109.2224772516116
 20
298.7954103895901
 30
0.0
 10
109.2295275884825
 20
298.757553867765
 30
0.0
 10
109.2330506261
 20
298.7386370482
 30
0.0
 11
108.9601646653
 21
299.1386370482
 31
0.0
 11
109.062621182544
 21
299.0565393027412
 31
0.0
 11
109.1471034264671
 21
298.9559834900986
 31
0.0
 11
109.1779370500689
 21
298.9044116804652
 31
0.0
 11
109.2029903574115
 21
298.8498616850572
 31
0.0
 11
109.2211475471332
 21
298.7950583201341
 31
0.0
 11
109.2330506261
 21
298.7386370482
 31
0.0
  0
SPLINE
  5
10E
330
1F
100
AcDbEntity
  8
0
  6
Continuous
 62
     7
100
AcDbSpline
210
0.0
220
0.0
230
1.0
 70
     8
 71
     3
 72
    11
 73
     7
 74
     5
 42
0.0000000001
 43
0.0000000001
 44
0.00000001
 40
0.0
 40
0.0
 40
0.0
 40
0.0
 40
0.4419689634229788
 40
0.8839020538987113
 40
1.150518561921768
 40
1.416734593101614
 40
1.416734593101614
 40
1.416734593101614
 40
1.416734593101614
 10
65.1626197279
 20
297.1061370482
 30
0.0
 10
65.23131982806294
 20
297.2366612923897
 30
0.0
 10
65.36871445226184
 20
297.4976991866105
 30
0.0
 10
65.49364062383869
 20
297.8618682181899
 30
0.0
 10
65.56367698922588
 20
298.1802539490564
 30
0.0
 10
65.57198075551173
 20
298.3579807019509
 30
0.0
 10
65.5761295181
 20
298.4467772887
 30
0.0
 11
65.1626197279
 21
297.1061370482
 31
0.0
 11
65.35836460358352
 21
297.5023951815838
 31
0.0
 11
65.50255182438941
 21
297.9201449892603
 31
0.0
 11
65.55619950414345
 21
298.1813083266708
 31
0.0
 11
65.5761295181
 21
298.4467772887
 31
0.0
  0
SPLINE
  5
10F
330
1F
100
AcDbEntity
  8
0
  6
Continuous
 62
     7
100
AcDbSpline
210
0.0
220
0.0
230
1.0
 70
     8
 71
     3
 72
    11
 73
     7
 74
     5
 42
0.0000000001
 43
0.0000000001
 44
0.00000001
 40
0.0
 40
0.0
 40
0.0
 40
0.0
 40
0.3847579053310831
 40
0.7696659746344561
 40
1.093183244058956
 40
1.416570809353121
 40
1.416570809353121
 40
1.416570809353121
 40
1.416570809353121
 10
65.5761295181
 20
311.0654968077
 30
0.0
 10
65.56750148031394
 20
311.1938433800176
 30
0.0
 10
65.55024203737648
 20
311.4505866159722
 30
0.0
 10
65.44439411938754
 20
311.8016808944855
 30
0.0
 10
65.31561597450917
 20
312.1208735609256
 30
0.0
 10
65.21361165949651
 20
312.3110619300028
 30
0.0
 10
65.1626197279
 20
312.4061370482
 30
0.0
 11
65.5761295181
 21
311.0654968077
 31
0.0
 11
65.53593504482022
 21
311.4481494570212
 31
0.0
 11
65.43259795562896
 21
311.8189265704092
 31
0.0
 11
65.31028124381778
 21
312.118429568103
 31
0.0
 11
65.1626197279
 21
312.4061370482
 31
0.0
  0
DIMENSION
  5
11A
330
1F
100
AcDbEntity
  8
1
100
AcDbDimension
  2
*D2
 10
189.953513534258
 20
310.7561370482
 30
0.0
 11
186.203513534258
 21
305.151783007309
 31
0.0
 70
    32
  1
<>
 71
     5
 42
-1.0
 53
90.0
  3
ME10_DIM_10
100
AcDbAlignedDimension
 13
179.3261295181
 23
298.7561370482
 33
0.0
 14
179.3261295181
 24
310.7561370482
 34
0.0
 50
90.0
100
AcDbRotatedDimension
  0
DIMENSION
  5
125
330
1F
100
AcDbEntity
  8
1
100
AcDbDimension
  2
*D3
 10
198.349640174148
 20
316.7561370482528
 30
0.0
 11
194.599640174148
 21
305.324899020503
 31
0.0
 70
    32
  1
<>
 71
     5
 42
-1.0
 53
90.0
  3
ME10_DIM_11
100
AcDbAlignedDimension
 13
179.3261295181
 23
292.7561370481559
 33
0.0
 14
179.3261295181
 24
316.7561370482528
 34
0.0
 50
90.0
100
AcDbRotatedDimension
  0
DIMENSION
  5
130
330
1F
100
AcDbEntity
  8
1
100
AcDbDimension
  2
*D4
 10
206.13986076786
 20
320.7561370482
 30
0.0
 11
202.38986076786
 21
305.238341013906
 31
0.0
 70
    32
  1
<>
 71
     5
 42
-1.0
 53
90.0
  3
ME10_DIM_12
100
AcDbAlignedDimension
 13
128.5013105734
 23
288.7561370482
 33
0.0
 14
128.5013105734
 24
320.7561370482
 34
0.0
 50
90.0
100
AcDbRotatedDimension
  0
DIMENSION
  5
13B
330
1F
100
AcDbEntity
  8
1
100
AcDbDimension
  2
*D5
 10
179.3261295181
 20
338.390057540483
 30
0.0
 11
148.145996348002
 21
342.140057540483
 31
0.0
 70
    32
  1
<>
 71
     5
 42
-1.0
 53
0.00013888888889
  3
ME10_DIM_13
100
AcDbAlignedDimension
 13
115.2761295181
 23
329.7560870297
 33
0.0
 14
179.3261295181
 24
315.8317465565
 34
0.0
100
AcDbRotatedDimension
  0
DIMENSION
  5
146
330
1F
100
AcDbEntity
  8
1
100
AcDbDimension
  2
*D6
 10
179.3261295181
 20
345.920604114405
 30
0.0
 11
133.084903200158
 21
349.670604114405
 31
0.0
 70
    32
  1
<>
 71
     5
 42
-1.0
 53
0.00013888888889
  3
ME10_DIM_14
100
AcDbAlignedDimension
 13
89.3261295181
 23
329.7561370482
 33
0.0
 14
179.3261295181
 24
315.8317465565
 34
0.0
100
AcDbRotatedDimension
  0
DIMENSION
  5
151
330
1F
100
AcDbEntity
  8
1
100
AcDbDimension
  2
*D7
 10
179.3261295181
 20
353.36459268173
 30
0.0
 11
124.255986527284
 21
357.11459268173
 31
0.0
 70
    32
  1
<>
 71
     5
 42
-1.0
 53
0.00013888888889
  3
ME10_DIM_15
100
AcDbAlignedDimension
 13
64.4261295181
 23
321.8124928294
 33
0.0
 14
179.3261295181
 24
315.8317465565
 34
0.0
100
AcDbRotatedDimension
  0
INSERT
  5
158
330
1F
100
AcDbEntity
  8
1
100
AcDbBlockReference
  2
*D8
 10
0.0
 20
0.0
 30
0.0
  0
DIMENSION
  5
163
330
1F
100
AcDbEntity
  8
1
100
AcDbDimension
  2
*D9
 10
161.3661084242115
 20
319.4648756238637
 30
0.0
 11
164.4641436291021
 21
327.7686683109362
 31
0.0
 70
    37
  1
<>
 71
     5
 42
-1.0
  3
ME10_DIM_16
100
AcDb3PointAngularDimension
 13
161.2900761704969
 23
318.1756052310512
 33
0.0
 14
131.7903260702329
 24
320.7561370482
 34
0.0
 15
128.5013105734
 25
320.7561370482
 35
0.0
  0
ENDSEC
  0
SECTION
  2
OBJECTS
  0
DICTIONARY
  5
C
330
0
100
AcDbDictionary
281
     1
  3
ACAD_GROUP
350
D
  3
ACAD_LAYOUT
350
1A
  3
ACAD_MLEADERSTYLE
350
166
  3
ACAD_MLINESTYLE
350
17
  3
ACAD_PLOTSETTINGS
350
19
  3
ACAD_PLOTSTYLENAME
350
E
  3
ACAD_SCALELIST
350
4B
  3
ACAD_VISUALSTYLE
350
2A
  3
AcDbVariableDictionary
350
164
  0
DICTIONARY
  5
D
102
{ACAD_REACTORS
330
C
102
}
330
C
100
AcDbDictionary
281
     1
  0
DICTIONARY
  5
1A
102
{ACAD_REACTORS
330
C
102
}
330
C
100
AcDbDictionary
281
     1
  3
Layout1
350
1E
  3
Layout2
350
26
  3
Model
350
22
  0
DICTIONARY
  5
166
102
{ACAD_REACTORS
330
C
102
}
330
C
100
AcDbDictionary
281
     1
  0
DICTIONARY
  5
17
102
{ACAD_REACTORS
330
C
102
}
330
C
100
AcDbDictionary
281
     1
  3
Standard
350
18
  0
DICTIONARY
  5
19
102
{ACAD_REACTORS
330
C
102
}
330
C
100
AcDbDictionary
281
     1
  0
ACDBDICTIONARYWDFLT
  5
E
102
{ACAD_REACTORS
330
C
102
}
330
C
100
AcDbDictionary
281
     1
  3
Normal
350
F
100
AcDbDictionaryWithDefault
340
F
  0
DICTIONARY
  5
4B
102
{ACAD_REACTORS
330
C
102
}
330
C
100
AcDbDictionary
281
     1
  3
A0
350
4C
  3
A1
350
4D
  3
A2
350
4E
  3
A3
350
4F
  3
A4
350
50
  3
A5
350
51
  3
A6
350
52
  3
A7
350
53
  3
A8
350
54
  3
A9
350
55
  3
B0
350
56
  3
B1
350
57
  3
B2
350
58
  3
B3
350
59
  3
B4
350
5A
  3
B5
350
5B
  3
B6
350
5C
  3
B7
350
5D
  3
B8
350
5E
  3
B9
350
5F
  3
C0
350
60
  3
C1
350
61
  3
C2
350
62
  3
C3
350
63
  3
C4
350
64
  3
C5
350
65
  3
C6
350
66
  3
C7
350
67
  3
C8
350
68
  3
C9
350
69
  3
D0
350
6A
  3
D1
350
6B
  3
D2
350
6C
  0
DICTIONARY
  5
2A
102
{ACAD_REACTORS
330
C
102
}
330
C
100
AcDbDictionary
281
     1
  3
2dWireframe
350
2F
  3
3D Hidden
350
31
  3
3dWireframe
350
30
  3
Basic
350
32
  3
Brighten
350
36
  3
ColorChange
350
3A
  3
Conceptual
350
34
  3
Dim
350
35
  3
Facepattern
350
39
  3
Flat
350
2B
  3
FlatWithEdges
350
2C
  3
Gouraud
350
2D
  3
GouraudWithEdges
350
2E
  3
Linepattern
350
38
  3
Realistic
350
33
  3
Thicken
350
37
  0
DICTIONARY
  5
164
102
{ACAD_REACTORS
330
C
102
}
330
C
100
AcDbDictionary
281
     1
  3
CANNOSCALE
350
167
  0
LAYOUT
  5
1E
102
{ACAD_REACTORS
330
1A
102
}
330
1A
100
AcDbPlotSettings
  1

  2
none_device
  4

  6

 40
0.0
 41
0.0
 42
0.0
 43
0.0
 44
0.0
 45
0.0
 46
0.0
 47
0.0
 48
0.0
 49
0.0
140
0.0
141
0.0
142
1.0
143
1.0
 70
   688
 72
     0
 73
     0
 74
     5
  7

 75
    16
147
1.0
148
0.0
149
0.0
100
AcDbLayout
  1
Layout1
 70
     1
 71
     1
 10
0.0
 20
0.0
 11
12.0
 21
9.0
 12
0.0
 22
0.0
 32
0.0
 14
1.00000000000000E+20
 24
1.00000000000000E+20
 34
1.00000000000000E+20
 15
-1.00000000000000E+20
 25
-1.00000000000000E+20
 35
-1.00000000000000E+20
146
0.0
 13
0.0
 23
0.0
 33
0.0
 16
1.0
 26
0.0
 36
0.0
 17
0.0
 27
1.0
 37
0.0
 76
     0
330
1B
  0
LAYOUT
  5
26
102
{ACAD_REACTORS
330
1A
102
}
330
1A
100
AcDbPlotSettings
  1

  2
none_device
  4

  6

 40
0.0
 41
0.0
 42
0.0
 43
0.0
 44
0.0
 45
0.0
 46
0.0
 47
0.0
 48
0.0
 49
0.0
140
0.0
141
0.0
142
1.0
143
1.0
 70
   688
 72
     0
 73
     0
 74
     5
  7

 75
    16
147
1.0
148
0.0
149
0.0
100
AcDbLayout
  1
Layout2
 70
     1
 71
     2
 10
0.0
 20
0.0
 11
0.0
 21
0.0
 12
0.0
 22
0.0
 32
0.0
 14
0.0
 24
0.0
 34
0.0
 15
0.0
 25
0.0
 35
0.0
146
0.0
 13
0.0
 23
0.0
 33
0.0
 16
1.0
 26
0.0
 36
0.0
 17
0.0
 27
1.0
 37
0.0
 76
     0
330
23
  0
LAYOUT
  5
22
102
{ACAD_REACTORS
330
1A
102
}
330
1A
100
AcDbPlotSettings
  1

  2
none_device
  4

  6

 40
0.0
 41
0.0
 42
0.0
 43
0.0
 44
0.0
 45
0.0
 46
0.0
 47
0.0
 48
0.0
 49
0.0
140
0.0
141
0.0
142
1.0
143
1.0
 70
  1712
 72
     0
 73
     0
 74
     0
  7

 75
     0
147
1.0
148
0.0
149
0.0
100
AcDbLayout
  1
Model
 70
     1
 71
     0
 10
0.0
 20
0.0
 11
12.0
 21
9.0
 12
0.0
 22
0.0
 32
0.0
 14
61.3011295181
 24
262.5325670920406
 34
0.0
 15
208.13986076786
 25
358.86459268173
 35
0.0
146
0.0
 13
0.0
 23
0.0
 33
0.0
 16
1.0
 26
0.0
 36
0.0
 17
0.0
 27
1.0
 37
0.0
 76
     0
330
1F
331
29
  0
MLINESTYLE
  5
18
102
{ACAD_REACTORS
330
17
102
}
330
17
100
AcDbMlineStyle
  2
Standard
 70
     0
  3

 62
   256
 51
90.0
 52
90.0
 71
     2
 49
0.5
 62
   256
  6
BYLAYER
 49
-0.5
 62
   256
  6
BYLAYER
  0
ACDBPLACEHOLDER
  5
F
102
{ACAD_REACTORS
330
E
102
}
330
E
  0
SCALE
  5
4C
102
{ACAD_REACTORS
330
4B
102
}
330
4B
100
AcDbScale
 70
     0
300
1:1
140
1.0
141
1.0
290
     1
  0
SCALE
  5
4D
102
{ACAD_REACTORS
330
4B
102
}
330
4B
100
AcDbScale
 70
     0
300
1:2
140
1.0
141
2.0
290
     0
  0
SCALE
  5
4E
102
{ACAD_REACTORS
330
4B
102
}
330
4B
100
AcDbScale
 70
     0
300
1:4
140
1.0
141
4.0
290
     0
  0
SCALE
  5
4F
102
{ACAD_REACTORS
330
4B
102
}
330
4B
100
AcDbScale
 70
     0
300
1:5
140
1.0
141
5.0
290
     0
  0
SCALE
  5
50
102
{ACAD_REACTORS
330
4B
102
}
330
4B
100
AcDbScale
 70
     0
300
1:8
140
1.0
141
8.0
290
     0
  0
SCALE
  5
51
102
{ACAD_REACTORS
330
4B
102
}
330
4B
100
AcDbScale
 70
     0
300
1:10
140
1.0
141
10.0
290
     0
  0
SCALE
  5
52
102
{ACAD_REACTORS
330
4B
102
}
330
4B
100
AcDbScale
 70
     0
300
1:16
140
1.0
141
16.0
290
     0
  0
SCALE
  5
53
102
{ACAD_REACTORS
330
4B
102
}
330
4B
100
AcDbScale
 70
     0
300
1:20
140
1.0
141
20.0
290
     0
  0
SCALE
  5
54
102
{ACAD_REACTORS
330
4B
102
}
330
4B
100
AcDbScale
 70
     0
300
1:30
140
1.0
141
30.0
290
     0
  0
SCALE
  5
55
102
{ACAD_REACTORS
330
4B
102
}
330
4B
100
AcDbScale
 70
     0
300
1:40
140
1.0
141
40.0
290
     0
  0
SCALE
  5
56
102
{ACAD_REACTORS
330
4B
102
}
330
4B
100
AcDbScale
 70
     0
300
1:50
140
1.0
141
50.0
290
     0
  0
SCALE
  5
57
102
{ACAD_REACTORS
330
4B
102
}
330
4B
100
AcDbScale
 70
     0
300
1:100
140
1.0
141
100.0
290
     0
  0
SCALE
  5
58
102
{ACAD_REACTORS
330
4B
102
}
330
4B
100
AcDbScale
 70
     0
300
2:1
140
2.0
141
1.0
290
     0
  0
SCALE
  5
59
102
{ACAD_REACTORS
330
4B
102
}
330
4B
100
AcDbScale
 70
     0
300
4:1
140
4.0
141
1.0
290
     0
  0
SCALE
  5
5A
102
{ACAD_REACTORS
330
4B
102
}
330
4B
100
AcDbScale
 70
     0
300
8:1
140
8.0
141
1.0
290
     0
  0
SCALE
  5
5B
102
{ACAD_REACTORS
330
4B
102
}
330
4B
100
AcDbScale
 70
     0
300
10:1
140
10.0
141
1.0
290
     0
  0
SCALE
  5
5C
102
{ACAD_REACTORS
330
4B
102
}
330
4B
100
AcDbScale
 70
     0
300
100:1
140
100.0
141
1.0
290
     0
  0
SCALE
  5
5D
102
{ACAD_REACTORS
330
4B
102
}
330
4B
100
AcDbScale
 70
     0
300
1/128" = 1'-0"
140
0.0078125
141
12.0
290
     0
  0
SCALE
  5
5E
102
{ACAD_REACTORS
330
4B
102
}
330
4B
100
AcDbScale
 70
     0
300
1/64" = 1'-0"
140
0.015625
141
12.0
290
     0
  0
SCALE
  5
5F
102
{ACAD_REACTORS
330
4B
102
}
330
4B
100
AcDbScale
 70
     0
300
1/32" = 1'-0"
140
0.03125
141
12.0
290
     0
  0
SCALE
  5
60
102
{ACAD_REACTORS
330
4B
102
}
330
4B
100
AcDbScale
 70
     0
300
1/16" = 1'-0"
140
0.0625
141
12.0
290
     0
  0
SCALE
  5
61
102
{ACAD_REACTORS
330
4B
102
}
330
4B
100
AcDbScale
 70
     0
300
3/32" = 1'-0"
140
0.09375
141
12.0
290
     0
  0
SCALE
  5
62
102
{ACAD_REACTORS
330
4B
102
}
330
4B
100
AcDbScale
 70
     0
300
1/8" = 1'-0"
140
0.125
141
12.0
290
     0
  0
SCALE
  5
63
102
{ACAD_REACTORS
330
4B
102
}
330
4B
100
AcDbScale
 70
     0
300
3/16" = 1'-0"
140
0.1875
141
12.0
290
     0
  0
SCALE
  5
64
102
{ACAD_REACTORS
330
4B
102
}
330
4B
100
AcDbScale
 70
     0
300
1/4" = 1'-0"
140
0.25
141
12.0
290
     0
  0
SCALE
  5
65
102
{ACAD_REACTORS
330
4B
102
}
330
4B
100
AcDbScale
 70
     0
300
3/8" = 1'-0"
140
0.375
141
12.0
290
     0
  0
SCALE
  5
66
102
{ACAD_REACTORS
330
4B
102
}
330
4B
100
AcDbScale
 70
     0
300
1/2" = 1'-0"
140
0.5
141
12.0
290
     0
  0
SCALE
  5
67
102
{ACAD_REACTORS
330
4B
102
}
330
4B
100
AcDbScale
 70
     0
300
3/4" = 1'-0"
140
0.75
141
12.0
290
     0
  0
SCALE
  5
68
102
{ACAD_REACTORS
330
4B
102
}
330
4B
100
AcDbScale
 70
     0
300
1" = 1'-0"
140
1.0
141
12.0
290
     0
  0
SCALE
  5
69
102
{ACAD_REACTORS
330
4B
102
}
330
4B
100
AcDbScale
 70
     0
300
1-1/2" = 1'-0"
140
1.5
141
12.0
290
     0
  0
SCALE
  5
6A
102
{ACAD_REACTORS
330
4B
102
}
330
4B
100
AcDbScale
 70
     0
300
3" = 1'-0"
140
3.0
141
12.0
290
     0
  0
SCALE
  5
6B
102
{ACAD_REACTORS
330
4B
102
}
330
4B
100
AcDbScale
 70
     0
300
6" = 1'-0"
140
6.0
141
12.0
290
     0
  0
SCALE
  5
6C
102
{ACAD_REACTORS
330
4B
102
}
330
4B
100
AcDbScale
 70
     0
300
1'-0" = 1'-0"
140
12.0
141
12.0
290
     0
  0
VISUALSTYLE
  5
2F
102
{ACAD_REACTORS
330
2A
102
}
330
2A
100
AcDbVisualStyle
  2
2dWireframe
 70
     4
 71
     0
 72
     2
 73
     0
 90
        0
 40
-0.6
 41
-30.0
 62
     5
 63
     7
 74
     1
 91
        4
 64
     7
 65
   257
 75
     1
175
     1
 42
1.0
 92
        0
 66
   257
 43
1.0
 76
     1
 77
     6
 78
     2
 67
     7
 79
     5
170
     0
171
     0
290
     0
174
     0
 93
        1
 44
0.0
173
     0
291
     0
 45
0.0
1001
ACAD
1000
AcDbSavedByObjectVersion
1070
     0
  0
VISUALSTYLE
  5
31
102
{ACAD_REACTORS
330
2A
102
}
330
2A
100
AcDbVisualStyle
  2
3D Hidden
 70
     6
 71
     1
 72
     2
 73
     2
 90
        0
 40
-0.6
 41
-30.0
 62
     5
 63
     7
 74
     2
 91
        2
 64
     7
 65
   257
 75
     2
175
     1
 42
40.0
 92
        0
 66
   257
 43
1.0
 76
     1
 77
     6
 78
     2
 67
     7
 79
     3
170
     0
171
     0
290
     0
174
     0
 93
        1
 44
0.0
173
     0
291
     0
 45
0.0
1001
ACAD
1000
AcDbSavedByObjectVersion
1070
     0
  0
VISUALSTYLE
  5
30
102
{ACAD_REACTORS
330
2A
102
}
330
2A
100
AcDbVisualStyle
  2
3dWireframe
 70
     5
 71
     0
 72
     2
 73
     0
 90
        0
 40
-0.6
 41
-30.0
 62
     5
 63
     7
 74
     1
 91
        4
 64
     7
 65
   257
 75
     1
175
     1
 42
1.0
 92
        0
 66
   257
 43
1.0
 76
     1
 77
     6
 78
     2
 67
     7
 79
     5
170
     0
171
     0
290
     0
174
     0
 93
        1
 44
0.0
173
     0
291
     0
 45
0.0
1001
ACAD
1000
AcDbSavedByObjectVersion
1070
     0
  0
VISUALSTYLE
  5
32
102
{ACAD_REACTORS
330
2A
102
}
330
2A
100
AcDbVisualStyle
  2
Basic
 70
     7
 71
     1
 72
     0
 73
     1
 90
        0
 40
-0.6
 41
-30.0
 62
     5
 63
     7
 74
     0
 91
        4
 64
     7
 65
   257
 75
     1
175
     1
 42
1.0
 92
        8
 66
     7
 43
1.0
 76
     1
 77
     6
 78
     2
 67
     7
 79
     5
170
     0
171
     0
290
     0
174
     0
 93
        1
 44
0.0
173
     0
291
     1
 45
0.0
1001
ACAD
1000
AcDbSavedByObjectVersion
1070
     0
  0
VISUALSTYLE
  5
36
102
{ACAD_REACTORS
330
2A
102
}
330
2A
100
AcDbVisualStyle
  2
Brighten
 70
    12
 71
     2
 72
     2
 73
     0
 90
        0
 40
-0.6
 41
-30.0
 62
     5
 63
     7
 74
     1
 91
        4
 64
     7
 65
   257
 75
     1
175
     1
 42
1.0
 92
        8
 66
     7
 43
1.0
 76
     1
 77
     6
 78
     2
 67
     7
 79
     5
170
     0
171
     0
290
     0
174
     0
 93
        1
 44
50.0
173
     0
291
     1
 45
0.0
1001
ACAD
1000
AcDbSavedByObjectVersion
1070
     0
  0
VISUALSTYLE
  5
3A
102
{ACAD_REACTORS
330
2A
102
}
330
2A
100
AcDbVisualStyle
  2
ColorChange
 70
    16
 71
     2
 72
     2
 73
     3
 90
        0
 40
-0.6
 41
-30.0
 62
     5
 63
     8
 74
     1
 91
        4
 64
     7
 65
   257
 75
     1
175
     1
 42
1.0
 92
        8
 66
     8
 43
1.0
 76
     1
 77
     6
 78
     2
 67
     7
 79
     5
170
     0
171
     0
290
     0
174
     0
 93
        1
 44
0.0
173
     0
291
     1
 45
0.0
1001
ACAD
1000
AcDbSavedByObjectVersion
1070
     0
  0
VISUALSTYLE
  5
34
102
{ACAD_REACTORS
330
2A
102
}
330
2A
100
AcDbVisualStyle
  2
Conceptual
 70
     9
 71
     3
 72
     2
 73
     0
 90
        0
 40
-0.6
 41
-30.0
 62
     5
 63
     7
 74
     2
 91
        2
 64
     7
 65
   257
 75
     1
175
     1
 42
40.0
 92
        8
 66
     7
 43
1.0
 76
     1
 77
     6
 78
     2
 67
     7
 79
     3
170
     0
171
     0
290
     0
174
     0
 93
        1
 44
0.0
173
     0
291
     0
 45
0.0
1001
ACAD
1000
AcDbSavedByObjectVersion
1070
     0
  0
VISUALSTYLE
  5
35
102
{ACAD_REACTORS
330
2A
102
}
330
2A
100
AcDbVisualStyle
  2
Dim
 70
    11
 71
     2
 72
     2
 73
     0
 90
        0
 40
-0.6
 41
-30.0
 62
     5
 63
     7
 74
     1
 91
        4
 64
     7
 65
   257
 75
     1
175
     1
 42
1.0
 92
        8
 66
     7
 43
1.0
 76
     1
 77
     6
 78
     2
 67
     7
 79
     5
170
     0
171
     0
290
     0
174
     0
 93
        1
 44
-50.0
173
     0
291
     1
 45
0.0
1001
ACAD
1000
AcDbSavedByObjectVersion
1070
     0
  0
VISUALSTYLE
  5
39
102
{ACAD_REACTORS
330
2A
102
}
330
2A
100
AcDbVisualStyle
  2
Facepattern
 70
    15
 71
     2
 72
     2
 73
     0
 90
        0
 40
-0.6
 41
-30.0
 62
     5
 63
     7
 74
     1
 91
        4
 64
     7
 65
   257
 75
     1
175
     1
 42
1.0
 92
        8
 66
     7
 43
1.0
 76
     1
 77
     6
 78
     2
 67
     7
 79
     5
170
     0
171
     0
290
     0
174
     0
 93
        1
 44
0.0
173
     0
291
     1
 45
0.0
1001
ACAD
1000
AcDbSavedByObjectVersion
1070
     0
  0
VISUALSTYLE
  5
2B
102
{ACAD_REACTORS
330
2A
102
}
330
2A
100
AcDbVisualStyle
  2
Flat
 70
     0
 71
     2
 72
     1
 73
     1
 90
        2
 40
-0.6
 41
30.0
 62
     5
 63
     7
 74
     0
 91
        4
 64
     7
 65
   257
 75
     1
175
     1
 42
1.0
 92
        8
 66
     7
 43
1.0
 76
     1
 77
     6
 78
     2
 67
     7
 79
     5
170
     0
171
     0
290
     0
174
     0
 93
       13
 44
0.0
173
     0
291
     1
 45
0.0
1001
ACAD
1000
AcDbSavedByObjectVersion
1070
     0
  0
VISUALSTYLE
  5
2C
102
{ACAD_REACTORS
330
2A
102
}
330
2A
100
AcDbVisualStyle
  2
FlatWithEdges
 70
     1
 71
     2
 72
     1
 73
     1
 90
        2
 40
-0.6
 41
30.0
 62
     5
 63
     7
 74
     1
 91
        4
 64
     7
 65
   257
 75
     1
175
     1
 42
1.0
 92
        0
 66
   257
 43
1.0
 76
     1
 77
     6
 78
     2
 67
     7
 79
     5
170
     0
171
     0
290
     0
174
     0
 93
       13
 44
0.0
173
     0
291
     1
 45
0.0
1001
ACAD
1000
AcDbSavedByObjectVersion
1070
     0
  0
VISUALSTYLE
  5
2D
102
{ACAD_REACTORS
330
2A
102
}
330
2A
100
AcDbVisualStyle
  2
Gouraud
 70
     2
 71
     2
 72
     2
 73
     1
 90
        2
 40
-0.6
 41
30.0
 62
     5
 63
     7
 74
     0
 91
        4
 64
     7
 65
   257
 75
     1
175
     1
 42
1.0
 92
        0
 66
     7
 43
1.0
 76
     1
 77
     6
 78
     2
 67
     7
 79
     5
170
     0
171
     0
290
     0
174
     0
 93
       13
 44
0.0
173
     0
291
     1
 45
0.0
1001
ACAD
1000
AcDbSavedByObjectVersion
1070
     0
  0
VISUALSTYLE
  5
2E
102
{ACAD_REACTORS
330
2A
102
}
330
2A
100
AcDbVisualStyle
  2
GouraudWithEdges
 70
     3
 71
     2
 72
     2
 73
     1
 90
        2
 40
-0.6
 41
30.0
 62
     5
 63
     7
 74
     1
 91
        4
 64
     7
 65
   257
 75
     1
175
     1
 42
1.0
 92
        0
 66
   257
 43
1.0
 76
     1
 77
     6
 78
     2
 67
     7
 79
     5
170
     0
171
     0
290
     0
174
     0
 93
       13
 44
0.0
173
     0
291
     1
 45
0.0
1001
ACAD
1000
AcDbSavedByObjectVersion
1070
     0
  0
VISUALSTYLE
  5
38
102
{ACAD_REACTORS
330
2A
102
}
330
2A
100
AcDbVisualStyle
  2
Linepattern
 70
    14
 71
     2
 72
     2
 73
     0
 90
        0
 40
-0.6
 41
-30.0
 62
     5
 63
     7
 74
     1
 91
        4
 64
     7
 65
   257
 75
     7
175
     7
 42
1.0
 92
        8
 66
     7
 43
1.0
 76
     1
 77
     6
 78
     2
 67
     7
 79
     5
170
     0
171
     0
290
     0
174
     0
 93
        1
 44
0.0
173
     0
291
     1
 45
0.0
1001
ACAD
1000
AcDbSavedByObjectVersion
1070
     0
  0
VISUALSTYLE
  5
33
102
{ACAD_REACTORS
330
2A
102
}
330
2A
100
AcDbVisualStyle
  2
Realistic
 70
     8
 71
     2
 72
     2
 73
     0
 90
        0
 40
-0.6
 41
-30.0
 62
     5
 63
     7
 74
     1
 91
        0
 64
     7
 65
   257
 75
     1
175
     1
 42
1.0
 92
        8
 66
     8
 43
1.0
 76
     1
 77
     6
 78
     2
 67
     7
 79
     5
170
     0
171
     0
290
     0
174
     0
 93
       13
 44
0.0
173
     0
291
     0
 45
0.0
1001
ACAD
1000
AcDbSavedByObjectVersion
1070
     0
  0
VISUALSTYLE
  5
37
102
{ACAD_REACTORS
330
2A
102
}
330
2A
100
AcDbVisualStyle
  2
Thicken
 70
    13
 71
     2
 72
     2
 73
     0
 90
        0
 40
-0.6
 41
-30.0
 62
     5
 63
     7
 74
     1
 91
        4
 64
     7
 65
   257
 75
     1
175
     1
 42
1.0
 92
       12
 66
     7
 43
1.0
 76
     1
 77
     6
 78
     2
 67
     7
 79
     5
170
     0
171
     0
290
     0
174
     0
 93
        1
 44
0.0
173
     0
291
     1
 45
0.0
1001
ACAD
1000
AcDbSavedByObjectVersion
1070
     0
  0
DICTIONARYVAR
  5
167
102
{ACAD_REACTORS
330
164
102
}
330
164
100
DictionaryVariables
280
     0
  1
1:1
  0
ENDSEC
  0
EOF
