  0
SECTION
  2
HEADER
  9
$ACADVER
  1
AC1015
  9
$ACADMAINTVER
 70
     6
  9
$DWGCODEPAGE
  3
ANSI_1252
  9
$INSBASE
 10
0.0
 20
0.0
 30
0.0
  9
$EXTMIN
 10
73.956626506
 20
268.6384276302727
 30
0.0
  9
$EXTMAX
 10
216.198006587473
 20
362.125239330422
 30
0.0
  9
$LIMMIN
 10
0.0
 20
0.0
  9
$LIMMAX
 10
12.0
 20
9.0
  9
$ORTHOMODE
 70
     0
  9
$REGENMODE
 70
     1
  9
$FILLMODE
 70
     1
  9
$QTEXTMODE
 70
     0
  9
$MIRRTEXT
 70
     1
  9
$LTSCALE
 40
1.0
  9
$ATTMODE
 70
     1
  9
$TEXTSIZE
 40
0.2
  9
$TRACEWID
 40
0.05
  9
$TEXTSTYLE
  7
Standard
  9
$CLAYER
  8
0
  9
$CELTYPE
  6
ByLayer
  9
$CECOLOR
 62
   256
  9
$CELTSCALE
 40
1.0
  9
$DISPSILH
 70
     0
  9
$DIMSCALE
 40
1.0
  9
$DIMASZ
 40
0.18
  9
$DIMEXO
 40
0.0625
  9
$DIMDLI
 40
0.38
  9
$DIMRND
 40
0.0
  9
$DIMDLE
 40
0.0
  9
$DIMEXE
 40
0.18
  9
$DIMTP
 40
0.0
  9
$DIMTM
 40
0.0
  9
$DIMTXT
 40
0.18
  9
$DIMCEN
 40
0.09
  9
$DIMTSZ
 40
0.0
  9
$DIMTOL
 70
     0
  9
$DIMLIM
 70
     0
  9
$DIMTIH
 70
     1
  9
$DIMTOH
 70
     1
  9
$DIMSE1
 70
     0
  9
$DIMSE2
 70
     0
  9
$DIMTAD
 70
     0
  9
$DIMZIN
 70
     0
  9
$DIMBLK
  1

  9
$DIMASO
 70
     1
  9
$DIMSHO
 70
     1
  9
$DIMPOST
  1

  9
$DIMAPOST
  1

  9
$DIMALT
 70
     0
  9
$DIMALTD
 70
     2
  9
$DIMALTF
 40
25.4
  9
$DIMLFAC
 40
1.0
  9
$DIMTOFL
 70
     0
  9
$DIMTVP
 40
0.0
  9
$DIMTIX
 70
     0
  9
$DIMSOXD
 70
     0
  9
$DIMSAH
 70
     0
  9
$DIMBLK1
  1

  9
$DIMBLK2
  1

  9
$DIMSTYLE
  2
Standard
  9
$DIMCLRD
 70
     0
  9
$DIMCLRE
 70
     0
  9
$DIMCLRT
 70
     0
  9
$DIMTFAC
 40
1.0
  9
$DIMGAP
 40
0.09
  9
$DIMJUST
 70
     0
  9
$DIMSD1
 70
     0
  9
$DIMSD2
 70
     0
  9
$DIMTOLJ
 70
     1
  9
$DIMTZIN
 70
     0
  9
$DIMALTZ
 70
     0
  9
$DIMALTTZ
 70
     0
  9
$DIMUPT
 70
     0
  9
$DIMDEC
 70
     4
  9
$DIMTDEC
 70
     4
  9
$DIMALTU
 70
     2
  9
$DIMALTTD
 70
     2
  9
$DIMTXSTY
  7
Standard
  9
$DIMAUNIT
 70
     0
  9
$DIMADEC
 70
     0
  9
$DIMALTRND
 40
0.0
  9
$DIMAZIN
 70
     0
  9
$DIMDSEP
 70
    46
  9
$DIMATFIT
 70
     3
  9
$DIMFRAC
 70
     0
  9
$DIMLDRBLK
  1

  9
$DIMLUNIT
 70
     2
  9
$DIMLWD
 70
    -2
  9
$DIMLWE
 70
    -2
  9
$DIMTMOVE
 70
     0
  9
$LUNITS
 70
     2
  9
$LUPREC
 70
     4
  9
$SKETCHINC
 40
0.1
  9
$FILLETRAD
 40
0.5
  9
$AUNITS
 70
     0
  9
$AUPREC
 70
     0
  9
$MENU
  1
.
  9
$ELEVATION
 40
0.0
  9
$PELEVATION
 40
0.0
  9
$THICKNESS
 40
0.0
  9
$LIMCHECK
 70
     0
  9
$CHAMFERA
 40
0.5
  9
$CHAMFERB
 40
0.5
  9
$CHAMFERC
 40
1.0
  9
$CHAMFERD
 40
0.0
  9
$SKPOLY
 70
     0
  9
$TDCREATE
 40
2456749.74503375
  9
$TDUCREATE
 40
2456749.661700417
  9
$TDUPDATE
 40
2456749.745033761
  9
$TDUUPDATE
 40
2456749.661700428
  9
$TDINDWG
 40
0.0000000116
  9
$TDUSRTIMER
 40
0.0000000116
  9
$USRTIMER
 70
     1
  9
$ANGBASE
 50
0.0
  9
$ANGDIR
 70
     0
  9
$PDMODE
 70
     0
  9
$PDSIZE
 40
0.0
  9
$PLINEWID
 40
0.0
  9
$SPLFRAME
 70
     0
  9
$SPLINETYPE
 70
     6
  9
$SPLINESEGS
 70
     8
  9
$HANDSEED
  5
16B
  9
$SURFTAB1
 70
     6
  9
$SURFTAB2
 70
     6
  9
$SURFTYPE
 70
     6
  9
$SURFU
 70
     6
  9
$SURFV
 70
     6
  9
$UCSBASE
  2

  9
$UCSNAME
  2

  9
$UCSORG
 10
0.0
 20
0.0
 30
0.0
  9
$UCSXDIR
 10
1.0
 20
0.0
 30
0.0
  9
$UCSYDIR
 10
0.0
 20
1.0
 30
0.0
  9
$UCSORTHOREF
  2

  9
$UCSORTHOVIEW
 70
     0
  9
$UCSORGTOP
 10
0.0
 20
0.0
 30
0.0
  9
$UCSORGBOTTOM
 10
0.0
 20
0.0
 30
0.0
  9
$UCSORGLEFT
 10
0.0
 20
0.0
 30
0.0
  9
$UCSORGRIGHT
 10
0.0
 20
0.0
 30
0.0
  9
$UCSORGFRONT
 10
0.0
 20
0.0
 30
0.0
  9
$UCSORGBACK
 10
0.0
 20
0.0
 30
0.0
  9
$PUCSBASE
  2

  9
$PUCSNAME
  2

  9
$PUCSORG
 10
0.0
 20
0.0
 30
0.0
  9
$PUCSXDIR
 10
1.0
 20
0.0
 30
0.0
  9
$PUCSYDIR
 10
0.0
 20
1.0
 30
0.0
  9
$PUCSORTHOREF
  2

  9
$PUCSORTHOVIEW
 70
     0
  9
$PUCSORGTOP
 10
0.0
 20
0.0
 30
0.0
  9
$PUCSORGBOTTOM
 10
0.0
 20
0.0
 30
0.0
  9
$PUCSORGLEFT
 10
0.0
 20
0.0
 30
0.0
  9
$PUCSORGRIGHT
 10
0.0
 20
0.0
 30
0.0
  9
$PUCSORGFRONT
 10
0.0
 20
0.0
 30
0.0
  9
$PUCSORGBACK
 10
0.0
 20
0.0
 30
0.0
  9
$USERI1
 70
     0
  9
$USERI2
 70
     0
  9
$USERI3
 70
     0
  9
$USERI4
 70
     0
  9
$USERI5
 70
     0
  9
$USERR1
 40
16.5
  9
$USERR2
 40
0.0
  9
$USERR3
 40
0.0
  9
$USERR4
 40
0.0
  9
$USERR5
 40
0.0
  9
$WORLDVIEW
 70
     1
  9
$SHADEDGE
 70
     3
  9
$SHADEDIF
 70
    70
  9
$TILEMODE
 70
     1
  9
$MAXACTVP
 70
    64
  9
$PINSBASE
 10
0.0
 20
0.0
 30
0.0
  9
$PLIMCHECK
 70
     0
  9
$PEXTMIN
 10
1.00000000000000E+20
 20
1.00000000000000E+20
 30
1.00000000000000E+20
  9
$PEXTMAX
 10
-1.00000000000000E+20
 20
-1.00000000000000E+20
 30
-1.00000000000000E+20
  9
$PLIMMIN
 10
0.0
 20
0.0
  9
$PLIMMAX
 10
12.0
 20
9.0
  9
$UNITMODE
 70
     0
  9
$VISRETAIN
 70
     1
  9
$PLINEGEN
 70
     0
  9
$PSLTSCALE
 70
     1
  9
$TREEDEPTH
 70
  3020
  9
$CMLSTYLE
  2
Standard
  9
$CMLJUST
 70
     0
  9
$CMLSCALE
 40
1.0
  9
$PROXYGRAPHICS
 70
     1
  9
$MEASUREMENT
 70
     1
  9
$CELWEIGHT
370
    -1
  9
$ENDCAPS
280
     0
  9
$JOINSTYLE
280
     0
  9
$LWDISPLAY
290
     0
  9
$INSUNITS
 70
     1
  9
$HYPERLINKBASE
  1

  9
$STYLESHEET
  1

  9
$XEDIT
290
     1
  9
$CEPSNTYPE
380
     0
  9
$PSTYLEMODE
290
     1
  9
$FINGERPRINTGUID
  2
{A02556CB-47AB-4CBC-A23A-A58801D3E6CE}
  9
$VERSIONGUID
  2
{FAEB1C32-E019-11D5-929B-00C0DF256EC4}
  9
$EXTNAMES
290
     1
  9
$PSVPSCALE
 40
0.0
  9
$OLESTARTUP
290
     0
  0
ENDSEC
  0
SECTION
  2
CLASSES
  0
CLASS
  1
ACDBDICTIONARYWDFLT
  2
AcDbDictionaryWithDefault
  3
ObjectDBX Classes
 90
        0
280
     0
281
     0
  0
CLASS
  1
VISUALSTYLE
  2
AcDbVisualStyle
  3
ObjectDBX Classes
 90
     4095
280
     0
281
     0
  0
CLASS
  1
SCALE
  2
AcDbScale
  3
ObjectDBX Classes
 90
     1153
280
     0
281
     0
  0
CLASS
  1

  2
exOdDbPolyline
  3

 90
        0
280
     0
281
     1
  0
CLASS
  1

  2
exOdDbCircle
  3

 90
        0
280
     0
281
     1
  0
CLASS
  1

  2
exOdDbSpline
  3

 90
        0
280
     0
281
     1
  0
CLASS
  1
DICTIONARYVAR
  2
AcDbDictionaryVar
  3
ObjectDBX Classes
 90
        0
280
     0
281
     0
  0
CLASS
  1
ACDBPLACEHOLDER
  2
AcDbPlaceHolder
  3
ObjectDBX Classes
 90
        0
280
     0
281
     0
  0
CLASS
  1
LAYOUT
  2
AcDbLayout
  3
ObjectDBX Classes
 90
        0
280
     0
281
     0
  0
ENDSEC
  0
SECTION
  2
TABLES
  0
TABLE
  2
VPORT
  5
8
330
0
100
AcDbSymbolTable
 70
     1
  0
VPORT
  5
29
330
8
100
AcDbSymbolTableRecord
100
AcDbViewportTableRecord
  2
*Active
 70
     0
 10
0.0
 20
0.0
 11
1.0
 21
1.0
 12
145.0773165467365
 22
315.3818334803474
 13
0.0
 23
0.0
 14
0.5
 24
0.5
 15
0.5
 25
0.5
 16
0.0
 26
0.0
 36
1.0
 17
0.0
 27
0.0
 37
0.0
 40
102.8354928701642
 41
1.60267857142857
 42
50.0
 43
0.0
 44
0.0
 50
0.0
 51
0.0
 71
     0
 72
   100
 73
     1
 74
     3
 75
     0
 76
     0
 77
     0
 78
     0
281
     0
 65
     1
110
0.0
120
0.0
130
0.0
111
1.0
121
0.0
131
0.0
112
0.0
122
1.0
132
0.0
 79
     0
146
0.0
  0
ENDTAB
  0
TABLE
  2
LTYPE
  5
5
330
0
100
AcDbSymbolTable
 70
     9
  0
LTYPE
  5
14
330
5
100
AcDbSymbolTableRecord
100
AcDbLinetypeTableRecord
  2
ByBlock
 70
     0
  3

 72
    65
 73
     0
 40
0.0
  0
LTYPE
  5
15
330
5
100
AcDbSymbolTableRecord
100
AcDbLinetypeTableRecord
  2
ByLayer
 70
     0
  3

 72
    65
 73
     0
 40
0.0
  0
LTYPE
  5
16
330
5
100
AcDbSymbolTableRecord
100
AcDbLinetypeTableRecord
  2
Continuous
 70
     0
  3
Solid line
 72
    65
 73
     0
 40
0.0
  0
LTYPE
  5
3B
330
5
100
AcDbSymbolTableRecord
100
AcDbLinetypeTableRecord
  2
DASHED
 70
     0
  3
Dashed
 72
    65
 73
     2
 40
15.0
 49
7.0
 74
     0
 49
-8.0
 74
     0
  0
LTYPE
  5
3C
330
5
100
AcDbSymbolTableRecord
100
AcDbLinetypeTableRecord
  2
DOTTED
 70
     0
  3
Dotted
 72
    65
 73
     2
 40
1.0
 49
0.0
 74
     0
 49
-1.0
 74
     0
  0
LTYPE
  5
3D
330
5
100
AcDbSymbolTableRecord
100
AcDbLinetypeTableRecord
  2
DOT_CENTER
 70
     0
  3
Dot_Center
 72
    65
 73
     4
 40
14.0
 49
12.0
 74
     0
 49
-1.0
 74
     0
 49
0.0
 74
     0
 49
-1.0
 74
     0
  0
LTYPE
  5
3E
330
5
100
AcDbSymbolTableRecord
100
AcDbLinetypeTableRecord
  2
LONG_DASHED
 70
     0
  3
Long_Dashed
 72
    65
 73
     2
 40
15.0
 49
10.0
 74
     0
 49
-5.0
 74
     0
  0
LTYPE
  5
3F
330
5
100
AcDbSymbolTableRecord
100
AcDbLinetypeTableRecord
  2
DASH_CENTER
 70
     0
  3
Dash_Center
 72
    65
 73
     4
 40
14.0
 49
11.0
 74
     0
 49
-1.0
 74
     0
 49
1.0
 74
     0
 49
-1.0
 74
     0
  0
LTYPE
  5
40
330
5
100
AcDbSymbolTableRecord
100
AcDbLinetypeTableRecord
  2
PHANTOM
 70
     0
  3
Phantom
 72
    65
 73
     6
 40
13.0
 49
10.0
 74
     0
 49
-1.0
 74
     0
 49
0.0
 74
     0
 49
-1.0
 74
     0
 49
0.0
 74
     0
 49
-1.0
 74
     0
  0
LTYPE
  5
41
330
5
100
AcDbSymbolTableRecord
100
AcDbLinetypeTableRecord
  2
CENTER_DASH_DASH
 70
     0
  3
Center_Dash_Dash
 72
    65
 73
     6
 40
14.0
 49
9.0
 74
     0
 49
-1.0
 74
     0
 49
1.0
 74
     0
 49
-1.0
 74
     0
 49
1.0
 74
     0
 49
-1.0
 74
     0
  0
LTYPE
  5
42
330
5
100
AcDbSymbolTableRecord
100
AcDbLinetypeTableRecord
  2
CENTER
 70
     0
  3
CENTER
 72
    65
 73
     4
 40
13.0
 49
7.0
 74
     0
 49
-2.0
 74
     0
 49
2.0
 74
     0
 49
-2.0
 74
     0
  0
ENDTAB
  0
TABLE
  2
LAYER
  5
2
330
0
100
AcDbSymbolTable
 70
     7
  0
LAYER
  5
10
330
2
100
AcDbSymbolTableRecord
100
AcDbLayerTableRecord
  2
0
 70
     0
 62
     7
  6
Continuous
370
    -3
390
F
  0
LAYER
  5
43
330
2
100
AcDbSymbolTableRecord
100
AcDbLayerTableRecord
  2
1
 70
     0
 62
     7
  6
Continuous
370
    -3
390
F
  0
LAYER
  5
44
330
2
100
AcDbSymbolTableRecord
100
AcDbLayerTableRecord
  2
BEZUGSACHSEN
 70
     0
 62
     7
  6
Continuous
370
    -3
390
F
  0
LAYER
  5
45
330
2
100
AcDbSymbolTableRecord
100
AcDbLayerTableRecord
  2
BOHRUNGEN
 70
     0
 62
     7
  6
Continuous
370
    -3
390
F
  0
LAYER
  5
46
330
2
100
AcDbSymbolTableRecord
100
AcDbLayerTableRecord
  2
FASEN
 70
     0
 62
     7
  6
Continuous
370
    -3
390
F
  0
LAYER
  5
47
330
2
100
AcDbSymbolTableRecord
100
AcDbLayerTableRecord
  2
RUNDUNGEN
 70
     0
 62
     7
  6
Continuous
370
    -3
390
F
  0
LAYER
  5
48
330
2
100
AcDbSymbolTableRecord
100
AcDbLayerTableRecord
  2
TEIL_STARTBEZUEGE
 70
     0
 62
     7
  6
Continuous
370
    -3
390
F
  0
ENDTAB
  0
TABLE
  2
STYLE
  5
3
330
0
100
AcDbSymbolTable
 70
     2
  0
STYLE
  5
11
330
3
100
AcDbSymbolTableRecord
100
AcDbTextStyleTableRecord
  2
Standard
 70
     0
 40
0.0
 41
1.0
 50
0.0
 71
     0
 42
0.2
  3
txt
  4

  0
STYLE
  5
6F
330
3
100
AcDbSymbolTableRecord
100
AcDbTextStyleTableRecord
  2
CONVERTER_11
 70
     0
 40
0.0
 41
0.72
 50
0.0
 71
     0
 42
0.2
  3
txt.shx
  4

  0
ENDTAB
  0
TABLE
  2
VIEW
  5
6
330
0
100
AcDbSymbolTable
 70
     0
  0
ENDTAB
  0
TABLE
  2
UCS
  5
7
330
0
100
AcDbSymbolTable
 70
     0
  0
ENDTAB
  0
TABLE
  2
APPID
  5
9
330
0
100
AcDbSymbolTable
 70
     1
  0
APPID
  5
12
330
9
100
AcDbSymbolTableRecord
100
AcDbRegAppTableRecord
  2
ACAD
 70
     0
  0
ENDTAB
  0
TABLE
  2
DIMSTYLE
  5
A
330
0
100
AcDbSymbolTable
 70
     8
100
AcDbDimStyleTable
  0
DIMSTYLE
105
27
330
A
100
AcDbSymbolTableRecord
100
AcDbDimStyleTableRecord
  2
Standard
 70
     0
340
11
  0
DIMSTYLE
105
11C
102
{ACAD_REACTORS
330
11D
102
}
330
A
100
AcDbSymbolTableRecord
100
AcDbDimStyleTableRecord
  2
ME10_DIM_10
 70
     0
  3
\U+2300<>
 41
3.5
 42
2.0
 44
2.0
 71
     1
 73
     0
 74
     0
 77
     1
 78
     8
140
3.5
146
0.7
147
2.0
172
     1
173
     1
176
     2
177
     2
178
     3
271
     2
272
     0
340
6F
  0
DIMSTYLE
105
127
102
{ACAD_REACTORS
330
128
102
}
330
A
100
AcDbSymbolTableRecord
100
AcDbDimStyleTableRecord
  2
ME10_DIM_11
 70
     0
  3
\U+2300<>
 41
3.5
 42
2.0
 44
2.0
 71
     1
 73
     0
 74
     0
 77
     1
 78
     8
140
3.5
146
0.7
147
2.0
172
     1
173
     1
176
     2
177
     2
178
     3
271
     2
272
     0
340
6F
  0
DIMSTYLE
105
132
102
{ACAD_REACTORS
330
133
102
}
330
A
100
AcDbSymbolTableRecord
100
AcDbDimStyleTableRecord
  2
ME10_DIM_12
 70
     0
  3
\U+2300<>
 41
3.5
 42
2.0
 44
2.0
 71
     1
 73
     0
 74
     0
 77
     1
 78
     8
140
3.5
146
0.7
147
2.0
172
     1
173
     1
176
     2
177
     2
178
     3
271
     2
272
     0
340
6F
  0
DIMSTYLE
105
13D
102
{ACAD_REACTORS
330
13E
102
}
330
A
100
AcDbSymbolTableRecord
100
AcDbDimStyleTableRecord
  2
ME10_DIM_13
 70
     0
  3
<>
 41
3.5
 42
2.0
 44
2.0
 71
     1
 73
     0
 74
     0
 77
     1
 78
     8
140
3.5
146
0.7
147
2.0
172
     1
173
     1
176
     2
177
     2
178
     3
271
     0
272
     0
340
6F
  0
DIMSTYLE
105
148
102
{ACAD_REACTORS
330
149
102
}
330
A
100
AcDbSymbolTableRecord
100
AcDbDimStyleTableRecord
  2
ME10_DIM_14
 70
     0
  3
<>
 41
3.5
 42
2.0
 44
2.0
 71
     1
 73
     0
 74
     0
 77
     1
 78
     8
140
3.5
146
0.7
147
2.0
172
     1
173
     1
176
     2
177
     2
178
     3
271
     2
272
     0
340
6F
  0
DIMSTYLE
105
153
102
{ACAD_REACTORS
330
154
102
}
330
A
100
AcDbSymbolTableRecord
100
AcDbDimStyleTableRecord
  2
ME10_DIM_15
 70
     0
  3
<>
 41
3.5
 42
2.0
 44
2.0
 71
     1
 73
     0
 74
     0
 77
     1
 78
     8
140
3.5
146
0.7
147
2.0
172
     1
173
     1
176
     2
177
     2
178
     3
271
     0
272
     0
340
6F
  0
DIMSTYLE
105
165
102
{ACAD_REACTORS
330
166
102
}
330
A
100
AcDbSymbolTableRecord
100
AcDbDimStyleTableRecord
  2
ME10_DIM_16
 70
     0
  3
<>
 41
3.5
 42
2.0
 44
2.0
 71
     1
 73
     0
 74
     0
 77
     1
 78
     8
140
3.5
146
0.7
147
2.0
172
     1
173
     1
176
     2
177
     2
178
     3
271
     2
272
     0
340
6F
  0
ENDTAB
  0
TABLE
  2
BLOCK_RECORD
  5
1
330
0
100
AcDbSymbolTable
 70
    10
  0
BLOCK_RECORD
  5
1F
330
1
100
AcDbSymbolTableRecord
100
AcDbBlockTableRecord
  2
*Model_Space
340
22
  0
BLOCK_RECORD
  5
1B
330
1
100
AcDbSymbolTableRecord
100
AcDbBlockTableRecord
  2
*Paper_Space
340
1E
  0
BLOCK_RECORD
  5
23
330
1
100
AcDbSymbolTableRecord
100
AcDbBlockTableRecord
  2
*Paper_Space0
340
26
  0
BLOCK_RECORD
  5
49
330
1
100
AcDbSymbolTableRecord
100
AcDbBlockTableRecord
  2
Urheberrecht_DE-EN_horizontal
340
0
102
{BLKREFS
331
6E
102
}
  0
BLOCK_RECORD
  5
113
330
1
100
AcDbSymbolTableRecord
100
AcDbBlockTableRecord
  2
*D2
340
0
  0
BLOCK_RECORD
  5
11E
330
1
100
AcDbSymbolTableRecord
100
AcDbBlockTableRecord
  2
*D3
340
0
  0
BLOCK_RECORD
  5
129
330
1
100
AcDbSymbolTableRecord
100
AcDbBlockTableRecord
  2
*D4
340
0
  0
BLOCK_RECORD
  5
134
330
1
100
AcDbSymbolTableRecord
100
AcDbBlockTableRecord
  2
*D5
340
0
  0
BLOCK_RECORD
  5
13F
330
1
100
AcDbSymbolTableRecord
100
AcDbBlockTableRecord
  2
*D6
340
0
  0
BLOCK_RECORD
  5
14A
330
1
100
AcDbSymbolTableRecord
100
AcDbBlockTableRecord
  2
*D7
340
0
  0
BLOCK_RECORD
  5
155
330
1
100
AcDbSymbolTableRecord
100
AcDbBlockTableRecord
  2
*D8
340
0
102
{BLKREFS
331
15B
102
}
  0
BLOCK_RECORD
  5
15C
330
1
100
AcDbSymbolTableRecord
100
AcDbBlockTableRecord
  2
*D9
340
0
  0
ENDTAB
  0
ENDSEC
  0
SECTION
  2
BLOCKS
  0
BLOCK
  5
20
330
1F
100
AcDbEntity
  8
0
100
AcDbBlockBegin
  2
*Model_Space
 70
     0
 10
0.0
 20
0.0
 30
0.0
  3
*Model_Space
  1

  0
ENDBLK
  5
21
330
1F
100
AcDbEntity
  8
0
100
AcDbBlockEnd
  0
BLOCK
  5
1C
330
1B
100
AcDbEntity
 67
     1
  8
0
100
AcDbBlockBegin
  2
*Paper_Space
 70
     0
 10
0.0
 20
0.0
 30
0.0
  3
*Paper_Space
  1

  0
ENDBLK
  5
1D
330
1B
100
AcDbEntity
 67
     1
  8
0
100
AcDbBlockEnd
  0
BLOCK
  5
24
330
23
100
AcDbEntity
  8
0
100
AcDbBlockBegin
  2
*Paper_Space0
 70
     0
 10
0.0
 20
0.0
 30
0.0
  3
*Paper_Space0
  1

  0
ENDBLK
  5
25
330
23
100
AcDbEntity
  8
0
100
AcDbBlockEnd
  0
BLOCK
  5
4A
330
49
100
AcDbEntity
  8
0
100
AcDbBlockBegin
  2
Urheberrecht_DE-EN_horizontal
 70
     0
 10
145.342403477017
 20
276.036435640177
 30
0.0
  3
Urheberrecht_DE-EN_horizontal
  1

  0
MTEXT
  5
70
330
49
100
AcDbEntity
  8
1
 62
     1
100
AcDbMText
 10
91.88862108765777
 20
269.2384276302727
 30
0.0
 40
2.0
 41
0.0
 71
     7
 72
     1
  1
F\U+00fcr diese Unterlage behalten wir das Ur-\Pheberrecht. Sie darf nur f\U+00fcr den von uns \Pbestimmten Zweck benutzt und ohne unsere \PZustimmung weder vervielf\U+00e4ltigt noch\PDritten zug\U+00e4nglich gemacht werden.
  7
CONVERTER_11
 73
     1
 44
0.90036014405762
  0
MTEXT
  5
71
330
49
100
AcDbEntity
  8
1
 62
     1
100
AcDbMText
 10
148.1780080049639
 20
269.2384276302727
 30
0.0
 40
2.0
 41
0.0
 71
     7
 72
     1
  1
We own the copyright of this document. It \Pdetermined and may neither be copied or \Pmade accessible to outsiders without our\Ppermission.
  7
CONVERTER_11
 73
     1
 44
0.90036014405762
  0
ENDBLK
  5
4B
330
49
100
AcDbEntity
  8
0
100
AcDbBlockEnd
  0
BLOCK
  5
11A
330
113
100
AcDbEntity
  8
0
100
AcDbBlockBegin
  2
*D2
 70
     1
 10
0.0
 20
0.0
 30
0.0
  3
*D2
  1

  0
LINE
  5
114
330
113
100
AcDbEntity
  8
1
  6
Continuous
 62
     2
100
AcDbLine
 10
197.472573529677
 20
315.2455948795
 30
0.0
 11
197.472573529677
 21
305.2455948795
 31
0.0
  0
LINE
  5
115
330
113
100
AcDbEntity
  8
1
  6
Continuous
 62
     2
100
AcDbLine
 10
188.981626506
 20
315.2455948795
 30
0.0
 11
199.472573529677
 21
315.2455948795
 31
0.0
  0
LINE
  5
116
330
113
100
AcDbEntity
  8
1
  6
Continuous
 62
     2
100
AcDbLine
 10
188.981626506
 20
305.2455948795
 30
0.0
 11
199.472573529677
 21
305.2455948795
 31
0.0
  0
SOLID
  5
117
330
113
100
AcDbEntity
  8
1
 62
     2
100
AcDbTrace
 10
197.9333572712329
 20
311.7455948795
 30
0.0
 11
197.0117897881211
 21
311.7455948795
 31
0.0
 12
197.472573529677
 22
315.2455948795
 32
0.0
 13
197.472573529677
 23
315.2455948795
 33
0.0
  0
SOLID
  5
118
330
113
100
AcDbEntity
  8
1
 62
     2
100
AcDbTrace
 10
197.0117897881211
 20
308.7455948795
 30
0.0
 11
197.9333572712329
 21
308.7455948795
 31
0.0
 12
197.472573529677
 22
305.2455948795
 32
0.0
 13
197.472573529677
 23
305.2455948795
 33
0.0
  0
MTEXT
  5
119
330
113
100
AcDbEntity
  8
1
 62
     3
100
AcDbMText
 10
195.472573529677
 20
301.746842344443
 30
0.0
 40
3.5
 41
0.0
 71
     7
 72
     1
  1
\C3;%%c\C3;\C3;10\C2;\H2.45;\S^ ;\C3;
  7
CONVERTER_11
 11
0.0
 21
1.0
 31
0.0
 73
     1
 44
0.60024009603842
  0
ENDBLK
  5
11B
330
113
100
AcDbEntity
  8
0
100
AcDbBlockEnd
  0
BLOCK
  5
125
330
11E
100
AcDbEntity
  8
0
100
AcDbBlockBegin
  2
*D3
 70
     1
 10
0.0
 20
0.0
 30
0.0
  3
*D3
  1

  0
LINE
  5
11F
330
11E
100
AcDbEntity
  8
1
  6
Continuous
 62
     2
100
AcDbLine
 10
206.523132543636
 20
322.2455948794619
 30
0.0
 11
206.523132543636
 21
298.2455948795417
 31
0.0
  0
LINE
  5
120
330
11E
100
AcDbEntity
  8
1
  6
Continuous
 62
     2
100
AcDbLine
 10
188.981626506
 20
322.2455948794619
 30
0.0
 11
208.523132543636
 21
322.2455948794619
 31
0.0
  0
LINE
  5
121
330
11E
100
AcDbEntity
  8
1
  6
Continuous
 62
     2
100
AcDbLine
 10
188.981626506
 20
298.2455948795417
 30
0.0
 11
208.523132543636
 21
298.2455948795417
 31
0.0
  0
SOLID
  5
122
330
11E
100
AcDbEntity
  8
1
 62
     2
100
AcDbTrace
 10
206.9839162851919
 20
318.7455948794619
 30
0.0
 11
206.0623488020801
 21
318.7455948794619
 31
0.0
 12
206.523132543636
 22
322.2455948794619
 32
0.0
 13
206.523132543636
 23
322.2455948794619
 33
0.0
  0
SOLID
  5
123
330
11E
100
AcDbEntity
  8
1
 62
     2
100
AcDbTrace
 10
206.0623488020801
 20
301.7455948795417
 30
0.0
 11
206.9839162851919
 21
301.7455948795417
 31
0.0
 12
206.523132543636
 22
298.2455948795417
 32
0.0
 13
206.523132543636
 23
298.2455948795417
 33
0.0
  0
MTEXT
  5
124
330
11E
100
AcDbEntity
  8
1
 62
     3
100
AcDbMText
 10
204.523132543636
 20
301.978482593448
 30
0.0
 40
3.5
 41
0.0
 71
     7
 72
     1
  1
\C3;%%c\C3;\C3;24\C2;\H2.45;\S^ ;\C3;
  7
CONVERTER_11
 11
0.0
 21
1.0
 31
0.0
 73
     1
 44
0.60024009603842
  0
ENDBLK
  5
126
330
11E
100
AcDbEntity
  8
0
100
AcDbBlockEnd
  0
BLOCK
  5
130
330
129
100
AcDbEntity
  8
0
100
AcDbBlockBegin
  2
*D4
 70
     1
 10
0.0
 20
0.0
 30
0.0
  3
*D4
  1

  0
LINE
  5
12A
330
129
100
AcDbEntity
  8
1
  6
Continuous
 62
     2
100
AcDbLine
 10
214.198006587473
 20
326.2455948795
 30
0.0
 11
214.198006587473
 21
294.2455948795
 31
0.0
  0
LINE
  5
12B
330
129
100
AcDbEntity
  8
1
  6
Continuous
 62
     2
100
AcDbLine
 10
138.1568075613
 20
326.2455948795
 30
0.0
 11
216.198006587473
 21
326.2455948795
 31
0.0
  0
LINE
  5
12C
330
129
100
AcDbEntity
  8
1
  6
Continuous
 62
     2
100
AcDbLine
 10
138.1568075613
 20
294.2455948795
 30
0.0
 11
216.198006587473
 21
294.2455948795
 31
0.0
  0
SOLID
  5
12D
330
129
100
AcDbEntity
  8
1
 62
     2
100
AcDbTrace
 10
214.6587903290289
 20
322.7455948795
 30
0.0
 11
213.7372228459171
 21
322.7455948795
 31
0.0
 12
214.198006587473
 22
326.2455948795
 32
0.0
 13
214.198006587473
 23
326.2455948795
 33
0.0
  0
SOLID
  5
12E
330
129
100
AcDbEntity
  8
1
 62
     2
100
AcDbTrace
 10
213.7372228459171
 20
297.7455948795
 30
0.0
 11
214.6587903290289
 21
297.7455948795
 31
0.0
 12
214.198006587473
 22
294.2455948795
 32
0.0
 13
214.198006587473
 23
294.2455948795
 33
0.0
  0
MTEXT
  5
12F
330
129
100
AcDbEntity
  8
1
 62
     3
100
AcDbMText
 10
212.198006587473
 20
301.833673649225
 30
0.0
 40
3.5
 41
0.0
 71
     7
 72
     1
  1
\C3;%%c\C3;\C3;32\C2;\H2.45;\S^ ;\C3;
  7
CONVERTER_11
 11
0.0
 21
1.0
 31
0.0
 73
     1
 44
0.60024009603842
  0
ENDBLK
  5
131
330
129
100
AcDbEntity
  8
0
100
AcDbBlockEnd
  0
BLOCK
  5
13B
330
134
100
AcDbEntity
  8
0
100
AcDbBlockBegin
  2
*D5
 70
     1
 10
0.0
 20
0.0
 30
0.0
  3
*D5
  1

  0
LINE
  5
135
330
134
100
AcDbEntity
  8
1
  6
Continuous
 62
     2
100
AcDbLine
 10
186.981626506
 20
342.515409932602
 30
0.0
 11
127.931626506
 21
342.515409932602
 31
0.0
  0
LINE
  5
136
330
134
100
AcDbEntity
  8
1
  6
Continuous
 62
     2
100
AcDbLine
 10
186.981626506
 20
323.3212043879
 30
0.0
 11
186.981626506
 21
344.515409932602
 31
0.0
  0
LINE
  5
137
330
134
100
AcDbEntity
  8
1
  6
Continuous
 62
     2
100
AcDbLine
 10
127.931626506
 20
337.245544861
 30
0.0
 11
127.931626506
 21
344.515409932602
 31
0.0
  0
SOLID
  5
138
330
134
100
AcDbEntity
  8
1
 62
     2
100
AcDbTrace
 10
183.481626506
 20
342.0546261910461
 30
0.0
 11
183.481626506
 21
342.9761936741579
 31
0.0
 12
186.981626506
 22
342.515409932602
 32
0.0
 13
186.981626506
 23
342.515409932602
 33
0.0
  0
SOLID
  5
139
330
134
100
AcDbEntity
  8
1
 62
     2
100
AcDbTrace
 10
131.431626506
 20
342.9761936741579
 30
0.0
 11
131.431626506
 21
342.0546261910461
 31
0.0
 12
127.931626506
 22
342.515409932602
 32
0.0
 13
127.931626506
 23
342.515409932602
 33
0.0
  0
MTEXT
  5
13A
330
134
100
AcDbEntity
  8
1
 62
     3
100
AcDbMText
 10
155.830193471943
 20
344.515409932602
 30
0.0
 40
3.5
 41
0.0
 71
     7
 72
     1
  1
\C3;\C3;\C3;59\C2;\H2.45;\S^ ;\C3;
  7
CONVERTER_11
 11
0.9999999999970619
 21
2.424068405545306E-6
 31
0.0
 73
     1
 44
0.60024009603842
  0
ENDBLK
  5
13C
330
134
100
AcDbEntity
  8
0
100
AcDbBlockEnd
  0
BLOCK
  5
146
330
13F
100
AcDbEntity
  8
0
100
AcDbBlockBegin
  2
*D6
 70
     1
 10
0.0
 20
0.0
 30
0.0
  3
*D6
  1

  0
LINE
  5
140
330
13F
100
AcDbEntity
  8
1
  6
Continuous
 62
     2
100
AcDbLine
 10
186.981626506
 20
349.570324631512
 30
0.0
 11
101.981626506
 21
349.570324631512
 31
0.0
  0
LINE
  5
141
330
13F
100
AcDbEntity
  8
1
  6
Continuous
 62
     2
100
AcDbLine
 10
186.981626506
 20
323.3212043879
 30
0.0
 11
186.981626506
 21
351.570324631512
 31
0.0
  0
LINE
  5
142
330
13F
100
AcDbEntity
  8
1
  6
Continuous
 62
     2
100
AcDbLine
 10
101.981626506
 20
337.2455948795
 30
0.0
 11
101.981626506
 21
351.570324631512
 31
0.0
  0
SOLID
  5
143
330
13F
100
AcDbEntity
  8
1
 62
     2
100
AcDbTrace
 10
183.481626506
 20
349.1095408899561
 30
0.0
 11
183.481626506
 21
350.0311083730679
 31
0.0
 12
186.981626506
 22
349.570324631512
 32
0.0
 13
186.981626506
 23
349.570324631512
 33
0.0
  0
SOLID
  5
144
330
13F
100
AcDbEntity
  8
1
 62
     2
100
AcDbTrace
 10
105.481626506
 20
350.0311083730679
 30
0.0
 11
105.481626506
 21
349.1095408899561
 31
0.0
 12
101.981626506
 22
349.570324631512
 32
0.0
 13
101.981626506
 23
349.570324631512
 33
0.0
  0
MTEXT
  5
145
330
13F
100
AcDbEntity
  8
1
 62
     3
100
AcDbMText
 10
142.292384184846
 20
351.570324631512
 30
0.0
 40
3.5
 41
0.0
 71
     7
 72
     1
  1
\C3;\C3;\C3;85\C2;\H2.45;\S^ ;\C3;
  7
CONVERTER_11
 11
0.9999999999970619
 21
2.424068405545306E-6
 31
0.0
 73
     1
 44
0.60024009603842
  0
ENDBLK
  5
147
330
13F
100
AcDbEntity
  8
0
100
AcDbBlockEnd
  0
BLOCK
  5
151
330
14A
100
AcDbEntity
  8
0
100
AcDbBlockBegin
  2
*D7
 70
     1
 10
0.0
 20
0.0
 30
0.0
  3
*D7
  1

  0
LINE
  5
14B
330
14A
100
AcDbEntity
  8
1
  6
Continuous
 62
     2
100
AcDbLine
 10
186.981626506
 20
356.625239330422
 30
0.0
 11
77.081626506
 21
356.625239330422
 31
0.0
  0
LINE
  5
14C
330
14A
100
AcDbEntity
  8
1
  6
Continuous
 62
     2
100
AcDbLine
 10
186.981626506
 20
323.3212043879
 30
0.0
 11
186.981626506
 21
358.625239330422
 31
0.0
  0
LINE
  5
14D
330
14A
100
AcDbEntity
  8
1
  6
Continuous
 62
     2
100
AcDbLine
 10
77.081626506
 20
329.3019506607
 30
0.0
 11
77.081626506
 21
358.625239330422
 31
0.0
  0
SOLID
  5
14E
330
14A
100
AcDbEntity
  8
1
 62
     2
100
AcDbTrace
 10
183.481626506
 20
356.1644555888661
 30
0.0
 11
183.481626506
 21
357.0860230719779
 31
0.0
 12
186.981626506
 22
356.625239330422
 32
0.0
 13
186.981626506
 23
356.625239330422
 33
0.0
  0
SOLID
  5
14F
330
14A
100
AcDbEntity
  8
1
 62
     2
100
AcDbTrace
 10
80.581626506
 20
357.0860230719779
 30
0.0
 11
80.581626506
 21
356.1644555888661
 31
0.0
 12
77.081626506
 22
356.625239330422
 32
0.0
 13
77.081626506
 23
356.625239330422
 33
0.0
  0
MTEXT
  5
150
330
14A
100
AcDbEntity
  8
1
 62
     3
100
AcDbMText
 10
130.241308600157
 20
358.625239330422
 30
0.0
 40
3.5
 41
0.0
 71
     7
 72
     1
  1
\C3;\C3;\C3;110\C2;\H2.45;\S^ ;\C3;
  7
CONVERTER_11
 11
0.9999999999970619
 21
2.424068405545306E-6
 31
0.0
 73
     1
 44
0.60024009603842
  0
ENDBLK
  5
152
330
14A
100
AcDbEntity
  8
0
100
AcDbBlockEnd
  0
BLOCK
  5
159
330
155
100
AcDbEntity
  8
0
100
AcDbBlockBegin
  2
*D8
 70
     1
 10
0.0
 20
0.0
 30
0.0
  3
*D8
  1

  0
LINE
  5
156
330
155
100
AcDbEntity
  8
1
  6
Continuous
 62
     2
100
AcDbLine
 10
138.4866276234672
 20
334.0833829223292
 30
0.0
 11
128.2796063093761
 21
327.1182842435408
 31
0.0
  0
SOLID
  5
157
330
155
100
AcDbEntity
  8
1
 62
     2
100
AcDbTrace
 10
130.9109184471015
 20
329.4716898801325
 30
0.0
 11
131.4303648598345
 21
328.7104658328062
 31
0.0
 12
128.2796063093761
 22
327.1182842435408
 32
0.0
 13
128.2796063093761
 23
327.1182842435408
 33
0.0
  0
MTEXT
  5
158
330
155
100
AcDbEntity
  8
1
 62
     3
100
AcDbMText
 10
131.2303220580333
 20
331.5530806595445
 30
0.0
 40
3.5
 41
0.0
 71
     7
 72
     1
  1
\C3; R\C3;\C3;2\C2;\H2.45;\S^ ;\C3;
  7
CONVERTER_11
 11
0.826010098311956
 21
0.56365531797959
 31
0.0
 73
     1
 44
0.60024009603842
  0
ENDBLK
  5
15A
330
155
100
AcDbEntity
  8
0
100
AcDbBlockEnd
  0
BLOCK
  5
163
330
15C
100
AcDbEntity
  8
0
100
AcDbBlockBegin
  2
*D9
 70
     1
 10
0.0
 20
0.0
 30
0.0
  3
*D9
  1

  0
LINE
  5
15D
330
15C
100
AcDbEntity
  8
1
  6
Continuous
 62
     2
100
AcDbLine
 10
168.965600928778
 20
326.2455948795
 30
0.0
 11
170.965600928778
 21
326.2455948795
 31
0.0
  0
LINE
  5
15E
330
15C
100
AcDbEntity
  8
1
  6
Continuous
 62
     2
100
AcDbLine
 10
138.1568075613
 20
326.2455948795
 30
0.0
 11
168.965600928778
 21
326.2455948795
 31
0.0
  0
ARC
  5
15F
330
15C
100
AcDbEntity
  8
1
  6
Continuous
 62
     2
100
AcDbCircle
 10
136.1568075613
 20
326.2455948795
 30
0.0
 40
32.80879336747795
100
AcDbArc
 50
346.3316395829204
 51
16.28905754703662
  0
SOLID
  5
160
330
15C
100
AcDbEntity
  8
1
 62
     2
100
AcDbTrace
 10
168.8610046028873
 20
320.1412469513637
 30
0.0
 11
167.9474395161295
 21
320.2624305236253
 31
0.0
 12
168.8644623682088
 22
323.6714466199861
 32
0.0
 13
168.8644623682088
 23
323.6714466199861
 33
0.0
  0
SOLID
  5
161
330
15C
100
AcDbEntity
  8
1
 62
     2
100
AcDbTrace
 10
168.3188732723507
 20
329.7160509006728
 30
0.0
 11
169.2391300963297
 21
329.7651834138291
 31
0.0
 12
168.965600928778
 22
326.2455948795
 32
0.0
 13
168.965600928778
 23
326.2455948795
 33
0.0
  0
MTEXT
  5
162
330
15C
100
AcDbEntity
  8
1
 62
     3
100
AcDbMText
 10
169.7401877594658
 20
336.059100632554
 30
0.0
 40
3.5
 41
0.0
 71
     7
 72
     1
  1
\C3;\C3;\C3;4.5%%d\C2;\H2.45;\S^ ;\C3;
  7
CONVERTER_11
 11
0.1820686604713804
 21
-0.9832858195225624
 31
0.0
 73
     1
 44
0.60024009603842
  0
ENDBLK
  5
164
330
15C
100
AcDbEntity
  8
0
100
AcDbBlockEnd
  0
ENDSEC
  0
SECTION
  2
ENTITIES
  0
INSERT
  5
6E
330
1F
100
AcDbEntity
  8
0
100
AcDbBlockReference
  2
Urheberrecht_DE-EN_horizontal
 10
145.342403477017
 20
276.036435640177
 30
0.0
  0
LINE
  5
72
330
1F
100
AcDbEntity
  8
0
  6
Continuous
 62
     7
100
AcDbLine
 10
77.081626506
 20
293.1892390981
 30
0.0
 11
77.081626506
 21
303.8255948795
 31
0.0
  0
LINE
  5
73
330
1F
100
AcDbEntity
  8
0
  6
Continuous
 62
     7
100
AcDbLine
 10
77.081626506
 20
316.6655948795
 30
0.0
 11
77.081626506
 21
327.3019506607
 31
0.0
  0
LINE
  5
74
330
1F
100
AcDbEntity
  8
0
  6
Continuous
 62
     9
100
AcDbLine
 10
78.0315892637
 20
328.3006980137
 30
0.0
 11
78.0315892637
 21
318.0941074255
 31
0.0
  0
LINE
  5
75
330
1F
100
AcDbEntity
  8
0
  6
Continuous
 62
     9
100
AcDbLine
 10
78.0315892637
 20
302.3970823335
 30
0.0
 11
78.0315892637
 21
292.1904917454
 31
0.0
  0
LINE
  5
76
330
1F
100
AcDbEntity
  8
0
  6
Continuous
 62
     7
100
AcDbLine
 10
78.231626506
 20
303.93623512
 30
0.0
 11
78.231626506
 21
304.9755948795
 31
0.0
  0
LINE
  5
77
330
1F
100
AcDbEntity
  8
0
  6
Continuous
 62
     7
100
AcDbLine
 10
78.231626506
 20
315.5155948795
 30
0.0
 11
78.231626506
 21
316.554954639
 31
0.0
  0
LINE
  5
78
330
1F
100
AcDbEntity
  8
RUNDUNGEN
  6
Continuous
 62
     9
100
AcDbLine
 10
80.281626506
 20
302.1411240819
 30
0.0
 11
80.281626506
 21
304.9755948795
 31
0.0
  0
LINE
  5
79
330
1F
100
AcDbEntity
  8
RUNDUNGEN
  6
Continuous
 62
     9
100
AcDbLine
 10
80.281626506
 20
315.5155948795
 30
0.0
 11
80.281626506
 21
318.3500656771
 31
0.0
  0
LINE
  5
7A
330
1F
100
AcDbEntity
  8
RUNDUNGEN
  6
Continuous
 62
     7
100
AcDbLine
 10
81.681626506
 20
316.1767451263
 30
0.0
 11
81.681626506
 21
304.3144446327
 31
0.0
  0
LINE
  5
7B
330
1F
100
AcDbEntity
  8
0
  6
Continuous
 62
     7
100
AcDbLine
 10
77.8181167159
 20
302.5955948795
 30
0.0
 11
77.769697237
 21
302.5096371735
 31
0.0
  0
LINE
  5
7C
330
1F
100
AcDbEntity
  8
0
  6
Continuous
 62
     7
100
AcDbLine
 10
77.769697237
 20
317.9815525855
 30
0.0
 11
77.8181167159
 21
317.8955948795
 31
0.0
  0
LINE
  5
7D
330
1F
100
AcDbEntity
  8
BEZUGSACHSEN
  6
CENTER
 62
     7
100
AcDbLine
 10
94.481626506
 20
310.2455948795
 30
0.0
 11
94.481626506
 21
304.2455948795
 31
0.0
  0
LWPOLYLINE
  5
7E
330
1F
100
AcDbEntity
  8
BEZUGSACHSEN
  6
DOT_CENTER
 62
     7
100
AcDbPolyline
 90
        2
 70
     0
 43
0.25
 10
94.481626506
 20
310.2455948795
 10
94.481626506
 20
316.2455948795
  0
LINE
  5
7F
330
1F
100
AcDbEntity
  8
0
  6
Continuous
 62
     7
100
AcDbLine
 10
99.981626506
 20
329.4003948795
 30
0.0
 11
99.981626506
 21
291.0907948795
 31
0.0
  0
LINE
  5
80
330
1F
100
AcDbEntity
  8
0
  6
Continuous
 62
     7
100
AcDbLine
 10
77.081626506
 20
303.8255948795
 30
0.0
 11
78.231626506
 21
304.9755948795
 31
0.0
  0
LINE
  5
81
330
1F
100
AcDbEntity
  8
0
  6
Continuous
 62
     7
100
AcDbLine
 10
78.231626506
 20
315.5155948795
 30
0.0
 11
77.081626506
 21
316.6655948795
 31
0.0
  0
LINE
  5
82
330
1F
100
AcDbEntity
  8
0
  6
Continuous
 62
     9
100
AcDbLine
 10
100.651736739
 20
291.2703503753
 30
0.0
 11
100.651736739
 21
329.2208393837
 31
0.0
  0
LINE
  5
83
330
1F
100
AcDbEntity
  8
0
  6
Continuous
 62
     9
100
AcDbLine
 10
100.8070281661
 20
291.2907948795
 30
0.0
 11
100.8070281661
 21
329.2003948795
 31
0.0
  0
LINE
  5
84
330
1F
100
AcDbEntity
  8
0
  6
Continuous
 62
     9
100
AcDbLine
 10
101.6794568755
 20
291.2907948795
 30
0.0
 11
101.6794568755
 21
329.2003948795
 31
0.0
  0
LINE
  5
85
330
1F
100
AcDbEntity
  8
0
  6
Continuous
 62
     7
100
AcDbLine
 10
101.981626506
 20
335.2455948795
 30
0.0
 11
101.981626506
 21
285.2455948795
 31
0.0
  0
LINE
  5
86
330
1F
100
AcDbEntity
  8
0
  6
Continuous
 62
     7
100
AcDbLine
 10
116.5896936745
 20
285.2455948795
 30
0.0
 11
101.981626506
 21
285.2455948795
 31
0.0
  0
LINE
  5
87
330
1F
100
AcDbEntity
  8
0
  6
Continuous
 62
     7
100
AcDbLine
 10
123.3735593375
 20
285.2455948795
 30
0.0
 11
127.931626506
 21
285.2455948795
 31
0.0
  0
LWPOLYLINE
  5
88
330
1F
100
AcDbEntity
  8
BEZUGSACHSEN
  6
DOT_CENTER
 62
     7
100
AcDbPolyline
 90
        2
 70
     0
 43
0.25
 10
108.981626506
 20
341.1404923073
 10
108.981626506
 20
327.1404923073
  0
LINE
  5
89
330
1F
100
AcDbEntity
  8
0
  6
Continuous
 62
     7
100
AcDbLine
 10
121.894126506
 20
332.683142049
 30
0.0
 11
123.3735593375
 21
335.2455948795
 31
0.0
  0
LINE
  5
8A
330
1F
100
AcDbEntity
  8
0
  6
Continuous
 62
     9
100
AcDbLine
 10
77.081626506
 20
303.2884467685
 30
0.0
 11
78.231626506
 21
303.93623512
 31
0.0
  0
LINE
  5
8B
330
1F
100
AcDbEntity
  8
0
  6
Continuous
 62
     7
100
AcDbLine
 10
118.819126506
 20
288.7705948795
 30
0.0
 11
121.144126506
 21
288.7705948795
 31
0.0
  0
LINE
  5
8C
330
1F
100
AcDbEntity
  8
0
  6
Continuous
 62
     9
100
AcDbLine
 10
78.231626506
 20
316.554954639
 30
0.0
 11
77.081626506
 21
317.2027429905
 31
0.0
  0
LINE
  5
8D
330
1F
100
AcDbEntity
  8
FASEN
  6
Continuous
 62
     9
100
AcDbLine
 10
114.6753127789
 20
294.4955948795
 30
0.0
 11
114.6753127789
 21
294.8955948795
 31
0.0
  0
LINE
  5
8E
330
1F
100
AcDbEntity
  8
FASEN
  6
Continuous
 62
     9
100
AcDbLine
 10
114.949126506
 20
304.6280948795
 30
0.0
 11
114.949126506
 21
304.2280948795
 31
0.0
  0
LINE
  5
8F
330
1F
100
AcDbEntity
  8
FASEN
  6
Continuous
 62
     9
100
AcDbLine
 10
114.949126506
 20
315.8630948795
 30
0.0
 11
114.949126506
 21
316.2630948795
 31
0.0
  0
LINE
  5
90
330
1F
100
AcDbEntity
  8
0
  6
Continuous
 62
     7
100
AcDbLine
 10
109.3139527889
 20
290.512944272
 30
0.0
 11
116.5896936745
 21
290.512944272
 31
0.0
  0
LINE
  5
91
330
1F
100
AcDbEntity
  8
0
  6
Continuous
 62
     7
100
AcDbLine
 10
123.3735593375
 20
290.512944272
 30
0.0
 11
127.931626506
 21
290.512944272
 31
0.0
  0
LINE
  5
92
330
1F
100
AcDbEntity
  8
0
  6
Continuous
 62
     7
100
AcDbLine
 10
101.6794568755
 20
291.2907948795
 30
0.0
 11
100.8070281661
 21
291.2907948795
 31
0.0
  0
LINE
  5
93
330
1F
100
AcDbEntity
  8
0
  6
Continuous
 62
     7
100
AcDbLine
 10
99.981626506
 20
291.0907948795
 30
0.0
 11
78.0315892637
 21
292.1904917454
 31
0.0
  0
LINE
  5
94
330
1F
100
AcDbEntity
  8
0
  6
Continuous
 62
     7
100
AcDbLine
 10
121.894126506
 20
287.80804771
 30
0.0
 11
123.3735593375
 21
285.2455948795
 31
0.0
  0
LINE
  5
95
330
1F
100
AcDbEntity
  8
0
  6
Continuous
 62
     7
100
AcDbLine
 10
116.5896936745
 20
335.2455948795
 30
0.0
 11
116.5896936745
 21
316.2630948795
 31
0.0
  0
LINE
  5
96
330
1F
100
AcDbEntity
  8
0
  6
Continuous
 62
     7
100
AcDbLine
 10
116.5896936745
 20
304.2280948795
 30
0.0
 11
116.5896936745
 21
294.8955948795
 31
0.0
  0
LINE
  5
97
330
1F
100
AcDbEntity
  8
0
  6
Continuous
 62
     7
100
AcDbLine
 10
116.5896936745
 20
290.512944272
 30
0.0
 11
116.5896936745
 21
285.2455948795
 31
0.0
  0
LINE
  5
98
330
1F
100
AcDbEntity
  8
0
  6
Continuous
 62
     7
100
AcDbLine
 10
118.069126506
 20
332.6830874368
 30
0.0
 11
118.069126506
 21
316.2630948795
 31
0.0
  0
LINE
  5
99
330
1F
100
AcDbEntity
  8
0
  6
Continuous
 62
     7
100
AcDbLine
 10
118.069126506
 20
304.2280948795
 30
0.0
 11
118.069126506
 21
294.8955948795
 31
0.0
  0
LINE
  5
9A
330
1F
100
AcDbEntity
  8
0
  6
Continuous
 62
     7
100
AcDbLine
 10
118.069126506
 20
287.8080615513
 30
0.0
 11
118.069126506
 21
294.1730056357
 31
0.0
  0
LINE
  5
9B
330
1F
100
AcDbEntity
  8
0
  6
Continuous
 62
     9
100
AcDbLine
 10
118.819126506
 20
288.7705948795
 30
0.0
 11
118.819126506
 21
305.3094399995
 31
0.0
  0
LINE
  5
9C
330
1F
100
AcDbEntity
  8
0
  6
Continuous
 62
     9
100
AcDbLine
 10
118.819126506
 20
315.1817497596
 30
0.0
 11
118.819126506
 21
331.7205948795
 31
0.0
  0
LINE
  5
9D
330
1F
100
AcDbEntity
  8
RUNDUNGEN
  6
Continuous
 62
     7
100
AcDbLine
 10
186.0600856018
 20
298.1730680374
 30
0.0
 11
136.1568075613
 21
294.2455948795
 31
0.0
  0
LINE
  5
9E
330
1F
100
AcDbEntity
  8
0
  6
Continuous
 62
     7
100
AcDbLine
 10
136.1568075613
 20
294.2455948795
 30
0.0
 11
186.0600856018
 21
298.1730680374
 31
0.0
  0
LINE
  5
9F
330
1F
100
AcDbEntity
  8
RUNDUNGEN
  6
Continuous
 62
     7
100
AcDbLine
 10
136.1568075613
 20
294.2455948795
 30
0.0
 11
129.931626506
 21
294.2455948795
 31
0.0
  0
LINE
  5
A0
330
1F
100
AcDbEntity
  8
0
  6
Continuous
 62
     7
100
AcDbLine
 10
129.931626506
 20
294.2455948795
 30
0.0
 11
136.1568075613
 21
294.2455948795
 31
0.0
  0
LINE
  5
A1
330
1F
100
AcDbEntity
  8
0
  6
Continuous
 62
     7
100
AcDbLine
 10
114.6753127789
 20
294.4955948795
 30
0.0
 11
118.1059634002
 21
294.4955948795
 31
0.0
  0
LINE
  5
A2
330
1F
100
AcDbEntity
  8
0
  6
Continuous
 62
     7
100
AcDbLine
 10
121.8572896118
 20
294.4955948795
 30
0.0
 11
127.931626506
 21
294.4955948795
 31
0.0
  0
LINE
  5
A3
330
1F
100
AcDbEntity
  8
0
  6
Continuous
 62
     7
100
AcDbLine
 10
114.6753127789
 20
294.8955948795
 30
0.0
 11
118.1059634002
 21
294.8955948795
 31
0.0
  0
LINE
  5
A4
330
1F
100
AcDbEntity
  8
0
  6
Continuous
 62
     7
100
AcDbLine
 10
121.8572896118
 20
294.8955948795
 30
0.0
 11
127.931626506
 21
294.8955948795
 31
0.0
  0
LINE
  5
A5
330
1F
100
AcDbEntity
  8
0
  6
Continuous
 62
     9
100
AcDbLine
 10
121.144126506
 20
288.7705948795
 30
0.0
 11
121.144126506
 21
305.3094399995
 31
0.0
  0
LINE
  5
A6
330
1F
100
AcDbEntity
  8
0
  6
Continuous
 62
     9
100
AcDbLine
 10
121.144126506
 20
315.1817497596
 30
0.0
 11
121.144126506
 21
331.7205948795
 31
0.0
  0
LINE
  5
A7
330
1F
100
AcDbEntity
  8
0
  6
Continuous
 62
     7
100
AcDbLine
 10
121.894126506
 20
304.2280948795
 30
0.0
 11
121.894126506
 21
294.8955948795
 31
0.0
  0
LINE
  5
A8
330
1F
100
AcDbEntity
  8
0
  6
Continuous
 62
     7
100
AcDbLine
 10
121.894126506
 20
287.8080615513
 30
0.0
 11
121.894126506
 21
294.1730056357
 31
0.0
  0
LINE
  5
A9
330
1F
100
AcDbEntity
  8
0
  6
Continuous
 62
     7
100
AcDbLine
 10
121.894126506
 20
316.2630948795
 30
0.0
 11
121.894126506
 21
332.6830874368
 31
0.0
  0
LINE
  5
AA
330
1F
100
AcDbEntity
  8
0
  6
Continuous
 62
     7
100
AcDbLine
 10
123.3735593375
 20
304.2280948795
 30
0.0
 11
123.3735593375
 21
294.8955948795
 31
0.0
  0
LINE
  5
AB
330
1F
100
AcDbEntity
  8
0
  6
Continuous
 62
     7
100
AcDbLine
 10
123.3735593375
 20
285.2455948795
 30
0.0
 11
123.3735593375
 21
290.512944272
 31
0.0
  0
LINE
  5
AC
330
1F
100
AcDbEntity
  8
0
  6
Continuous
 62
     7
100
AcDbLine
 10
123.3735593375
 20
316.2630948795
 30
0.0
 11
123.3735593375
 21
335.2455948795
 31
0.0
  0
LINE
  5
AD
330
1F
100
AcDbEntity
  8
0
  6
Continuous
 62
     7
100
AcDbLine
 10
100.651736739
 20
291.2703503753
 30
0.0
 11
99.981626506
 21
291.0907948795
 31
0.0
  0
LINE
  5
AE
330
1F
100
AcDbEntity
  8
0
  6
Continuous
 62
     7
100
AcDbLine
 10
127.931626506
 20
335.245544861
 30
0.0
 11
127.931626506
 21
316.2630948795
 31
0.0
  0
LINE
  5
AF
330
1F
100
AcDbEntity
  8
0
  6
Continuous
 62
     7
100
AcDbLine
 10
127.931626506
 20
304.2280948795
 30
0.0
 11
127.931626506
 21
294.8955948795
 31
0.0
  0
LINE
  5
B0
330
1F
100
AcDbEntity
  8
0
  6
Continuous
 62
     7
100
AcDbLine
 10
127.931626506
 20
290.512944272
 30
0.0
 11
127.931626506
 21
285.2456084236
 31
0.0
  0
LINE
  5
B1
330
1F
100
AcDbEntity
  8
FASEN
  6
Continuous
 62
     7
100
AcDbLine
 10
127.931626506
 20
290.512944272
 30
0.0
 11
127.931626506
 21
294.8955948795
 31
0.0
  0
LINE
  5
B2
330
1F
100
AcDbEntity
  8
FASEN
  6
Continuous
 62
     7
100
AcDbLine
 10
127.931626506
 20
304.2280948795
 30
0.0
 11
127.931626506
 21
316.2630948795
 31
0.0
  0
LINE
  5
B3
330
1F
100
AcDbEntity
  8
RUNDUNGEN
  6
Continuous
 62
     9
100
AcDbLine
 10
81.0996846822
 20
302.5955948795
 30
0.0
 11
80.281626506
 21
302.5955948795
 31
0.0
  0
LINE
  5
B4
330
1F
100
AcDbEntity
  8
0
  6
Continuous
 62
     9
100
AcDbLine
 10
80.281626506
 20
302.5955948795
 30
0.0
 11
77.8181167159
 21
302.5955948795
 31
0.0
  0
LINE
  5
B5
330
1F
100
AcDbEntity
  8
0
  6
Continuous
 62
     7
100
AcDbLine
 10
114.949126506
 20
304.2280948795
 30
0.0
 11
118.069126506
 21
304.2280948795
 31
0.0
  0
LINE
  5
B6
330
1F
100
AcDbEntity
  8
0
  6
Continuous
 62
     7
100
AcDbLine
 10
121.894126506
 20
304.2280948795
 30
0.0
 11
127.931626506
 21
304.2280948795
 31
0.0
  0
LINE
  5
B7
330
1F
100
AcDbEntity
  8
0
  6
Continuous
 62
     7
100
AcDbLine
 10
127.931626506
 20
304.6280948795
 30
0.0
 11
121.6156616533
 21
304.6280948795
 31
0.0
  0
LINE
  5
B8
330
1F
100
AcDbEntity
  8
0
  6
Continuous
 62
     7
100
AcDbLine
 10
118.3475913588
 20
304.6280948795
 30
0.0
 11
114.949126506
 21
304.6280948795
 31
0.0
  0
LINE
  5
B9
330
1F
100
AcDbEntity
  8
0
  6
Continuous
 62
     7
100
AcDbLine
 10
80.281626506
 20
304.9755948795
 30
0.0
 11
78.231626506
 21
304.9755948795
 31
0.0
  0
LWPOLYLINE
  5
BA
330
1F
100
AcDbEntity
  8
BOHRUNGEN
  6
DASHED
 62
     8
100
AcDbPolyline
 90
        2
 70
     0
 43
0.35
 10
186.981626506
 20
305.2455948795
 10
144.981626506
 20
305.2455948795
  0
LINE
  5
BB
330
1F
100
AcDbEntity
  8
0
  6
Continuous
 62
     7
100
AcDbLine
 10
118.819126506
 20
305.3094399995
 30
0.0
 11
121.144126506
 21
305.3094399995
 31
0.0
  0
LINE
  5
BC
330
1F
100
AcDbEntity
  8
RUNDUNGEN
  6
Continuous
 62
     9
100
AcDbLine
 10
129.931626506
 20
326.2455948795
 30
0.0
 11
129.931626506
 21
294.2455948795
 31
0.0
  0
LINE
  5
BD
330
1F
100
AcDbEntity
  8
0
  6
Continuous
 62
     7
100
AcDbLine
 10
116.5896936745
 20
285.2455948795
 30
0.0
 11
118.069126506
 21
287.80804771
 31
0.0
  0
LINE
  5
BE
330
1F
100
AcDbEntity
  8
0
  6
Continuous
 62
     7
100
AcDbLine
 10
116.5896936745
 20
335.2455948795
 30
0.0
 11
118.069126506
 21
332.683142049
 31
0.0
  0
LINE
  5
BF
330
1F
100
AcDbEntity
  8
0
  6
Continuous
 62
     7
100
AcDbLine
 10
136.1568075613
 20
326.2455948795
 30
0.0
 11
136.1568075613
 21
294.2455948795
 31
0.0
  0
LWPOLYLINE
  5
C0
330
1F
100
AcDbEntity
  8
TEIL_STARTBEZUEGE
  6
DOT_CENTER
 62
     7
100
AcDbPolyline
 90
        2
 70
     0
 43
0.25
 10
189.981626506
 20
310.2455948795
 10
74.081626506
 20
310.2455948795
  0
LINE
  5
C1
330
1F
100
AcDbEntity
  8
0
  6
Continuous
 62
     7
100
AcDbLine
 10
121.144126506
 20
315.1817497596
 30
0.0
 11
118.819126506
 21
315.1817497596
 31
0.0
  0
LWPOLYLINE
  5
C2
330
1F
100
AcDbEntity
  8
BOHRUNGEN
  6
DASHED
 62
     8
100
AcDbPolyline
 90
        2
 70
     0
 43
0.35
 10
186.981626506
 20
315.2455948795
 10
144.981626506
 20
315.2455948795
  0
LINE
  5
C3
330
1F
100
AcDbEntity
  8
0
  6
Continuous
 62
     7
100
AcDbLine
 10
80.281626506
 20
315.5155948795
 30
0.0
 11
78.231626506
 21
315.5155948795
 31
0.0
  0
LINE
  5
C4
330
1F
100
AcDbEntity
  8
0
  6
Continuous
 62
     7
100
AcDbLine
 10
114.949126506
 20
315.8630948795
 30
0.0
 11
118.3475913588
 21
315.8630948795
 31
0.0
  0
LINE
  5
C5
330
1F
100
AcDbEntity
  8
0
  6
Continuous
 62
     7
100
AcDbLine
 10
121.6156616533
 20
315.8630948795
 30
0.0
 11
127.931626506
 21
315.8630948795
 31
0.0
  0
LINE
  5
C6
330
1F
100
AcDbEntity
  8
0
  6
Continuous
 62
     7
100
AcDbLine
 10
114.949126506
 20
316.2630948795
 30
0.0
 11
118.069126506
 21
316.2630948795
 31
0.0
  0
LINE
  5
C7
330
1F
100
AcDbEntity
  8
0
  6
Continuous
 62
     7
100
AcDbLine
 10
121.894126506
 20
316.2630948795
 30
0.0
 11
127.931626506
 21
316.2630948795
 31
0.0
  0
LINE
  5
C8
330
1F
100
AcDbEntity
  8
0
  6
Continuous
 62
     9
100
AcDbLine
 10
80.281626506
 20
317.8955948795
 30
0.0
 11
77.8181167159
 21
317.8955948795
 31
0.0
  0
LINE
  5
C9
330
1F
100
AcDbEntity
  8
RUNDUNGEN
  6
Continuous
 62
     9
100
AcDbLine
 10
80.281626506
 20
317.8955948795
 30
0.0
 11
81.0996846822
 21
317.8955948795
 31
0.0
  0
LINE
  5
CA
330
1F
100
AcDbEntity
  8
0
  6
Continuous
 62
     7
100
AcDbLine
 10
100.651736739
 20
329.2208393837
 30
0.0
 11
99.981626506
 21
329.4003948795
 31
0.0
  0
LWPOLYLINE
  5
CB
330
1F
100
AcDbEntity
  8
BOHRUNGEN
  6
DASHED
 62
     8
100
AcDbPolyline
 90
        2
 70
     0
 43
0.35
 10
144.981626506
 20
305.2455948795
 10
144.981626506
 20
315.2455948795
  0
LINE
  5
CC
330
1F
100
AcDbEntity
  8
RUNDUNGEN
  6
Continuous
 62
     7
100
AcDbLine
 10
136.1568075613
 20
326.2455948795
 30
0.0
 11
129.931626506
 21
326.2455948795
 31
0.0
  0
LINE
  5
CD
330
1F
100
AcDbEntity
  8
0
  6
Continuous
 62
     7
100
AcDbLine
 10
129.931626506
 20
326.2455948795
 30
0.0
 11
136.1568075613
 21
326.2455948795
 31
0.0
  0
LINE
  5
CE
330
1F
100
AcDbEntity
  8
0
  6
Continuous
 62
     7
100
AcDbLine
 10
101.6794568755
 20
329.2003948795
 30
0.0
 11
100.8070281661
 21
329.2003948795
 31
0.0
  0
LINE
  5
CF
330
1F
100
AcDbEntity
  8
RUNDUNGEN
  6
Continuous
 62
     7
100
AcDbLine
 10
186.0600856018
 20
322.3181217216
 30
0.0
 11
136.1568075613
 21
326.2455948795
 31
0.0
  0
LINE
  5
D0
330
1F
100
AcDbEntity
  8
0
  6
Continuous
 62
     7
100
AcDbLine
 10
136.1568075613
 20
326.2455948795
 30
0.0
 11
186.0600856018
 21
322.3181217216
 31
0.0
  0
LINE
  5
D1
330
1F
100
AcDbEntity
  8
0
  6
Continuous
 62
     7
100
AcDbLine
 10
99.981626506
 20
329.4003948795
 30
0.0
 11
78.0315892637
 21
328.3006980137
 31
0.0
  0
LINE
  5
D2
330
1F
100
AcDbEntity
  8
0
  6
Continuous
 62
     7
100
AcDbLine
 10
118.819126506
 20
331.7205948795
 30
0.0
 11
121.144126506
 21
331.7205948795
 31
0.0
  0
LINE
  5
D3
330
1F
100
AcDbEntity
  8
BEZUGSACHSEN
  6
Continuous
 62
     7
100
AcDbLine
 10
116.5896936745
 20
335.2455948795
 30
0.0
 11
113.981626506
 21
335.2455948795
 31
0.0
  0
LINE
  5
D4
330
1F
100
AcDbEntity
  8
BEZUGSACHSEN
  6
Continuous
 62
     7
100
AcDbLine
 10
103.981626506
 20
335.2455948795
 30
0.0
 11
101.981626506
 21
335.2455948795
 31
0.0
  0
LINE
  5
D5
330
1F
100
AcDbEntity
  8
0
  6
Continuous
 62
     7
100
AcDbLine
 10
101.981626506
 20
335.2455948795
 30
0.0
 11
103.981626506
 21
335.2455948795
 31
0.0
  0
LINE
  5
D6
330
1F
100
AcDbEntity
  8
0
  6
Continuous
 62
     7
100
AcDbLine
 10
113.981626506
 20
335.2455948795
 30
0.0
 11
116.5896936745
 21
335.2455948795
 31
0.0
  0
LINE
  5
D7
330
1F
100
AcDbEntity
  8
0
  6
Continuous
 62
     7
100
AcDbLine
 10
123.3735593375
 20
335.2455948795
 30
0.0
 11
127.931626506
 21
335.2455948795
 31
0.0
  0
LINE
  5
D8
330
1F
100
AcDbEntity
  8
RUNDUNGEN
  6
Continuous
 62
     9
100
AcDbLine
 10
186.0600856018
 20
298.1730680374
 30
0.0
 11
186.0600856018
 21
322.3181217216
 31
0.0
  0
LINE
  5
D9
330
1F
100
AcDbEntity
  8
RUNDUNGEN
  6
Continuous
 62
     7
100
AcDbLine
 10
186.981626506
 20
299.1699853712
 30
0.0
 11
186.981626506
 21
321.3212043879
 31
0.0
  0
LWPOLYLINE
  5
DA
330
1F
100
AcDbEntity
  8
1
  6
Continuous
 62
     7
100
AcDbPolyline
 90
        2
 70
     0
 43
0.25
 10
186.981626506
 20
321.3212043879
 10
186.981626506
 20
322.2455948794619
  0
LWPOLYLINE
  5
DB
330
1F
100
AcDbEntity
  8
1
  6
Continuous
 62
     7
100
AcDbPolyline
 90
        2
 70
     0
 43
0.25
 10
186.0600856018
 20
322.3181217216
 10
186.981626505996
 20
322.2455948794619
  0
LWPOLYLINE
  5
DC
330
1F
100
AcDbEntity
  8
1
  6
Continuous
 62
     7
100
AcDbPolyline
 90
        2
 70
     0
 43
0.25
 10
186.0600856018
 20
298.1730680374
 10
186.981626506
 20
298.2455948795417
  0
LWPOLYLINE
  5
DD
330
1F
100
AcDbEntity
  8
1
  6
Continuous
 62
     7
100
AcDbPolyline
 90
        2
 70
     0
 43
0.25
 10
186.981626506
 20
299.1699853712
 10
186.981626506
 20
298.2455948795417
  0
ARC
  5
DE
330
1F
100
AcDbEntity
  8
0
  6
Continuous
 62
     7
100
AcDbCircle
 10
84.3262381027
 20
294.6955948795
 30
0.0
 40
33.78031736343756
100
AcDbArc
 50
359.660772196785
 51
0.33922780321496
  0
ARC
  5
DF
330
1F
100
AcDbEntity
  8
FASEN
  6
Continuous
 62
     7
100
AcDbCircle
 10
117.1559818536
 20
298.678986688
 30
0.0
 40
11.3217343455995
100
AcDbArc
 50
223.8842578163006
 51
226.1595439826519
  0
ARC
  5
E0
330
1F
100
AcDbEntity
  8
FASEN
  6
Continuous
 62
     7
100
AcDbCircle
 10
114.6753127789
 20
288.8955948795
 30
0.0
 40
6.0
100
AcDbArc
 50
90.0
 51
161.1845969504029
  0
ARC
  5
E1
330
1F
100
AcDbEntity
  8
FASEN
  6
Continuous
 62
     7
100
AcDbCircle
 10
114.6753127789
 20
288.8955948795
 30
0.0
 40
5.599990644600041
100
AcDbArc
 50
90.0
 51
163.2131310087986
  0
ARC
  5
E2
330
1F
100
AcDbEntity
  8
0
  6
Continuous
 62
     7
100
AcDbCircle
 10
119.4944668963
 20
294.1736419723
 30
0.0
 40
1.425340532341817
100
AcDbArc
 50
166.945493584537
 51
180.0255794330641
  0
ARC
  5
E3
330
1F
100
AcDbEntity
  8
RUNDUNGEN
  6
Continuous
 62
     7
100
AcDbCircle
 10
80.281626506
 20
306.3755948795
 30
0.0
 40
1.399999999999977
100
AcDbArc
 50
270.0
 51
353.9429041005092
  0
ARC
  5
E4
330
1F
100
AcDbEntity
  8
0
  6
Continuous
 62
     7
100
AcDbCircle
 10
78.081626506
 20
293.189239098
 30
0.0
 40
1.0
100
AcDbArc
 50
179.9999999942679
 51
267.1318795164192
  0
ARC
  5
E5
330
1F
100
AcDbEntity
  8
0
  6
Continuous
 62
     7
100
AcDbCircle
 10
118.819126506
 20
288.0205948795
 30
0.0
 40
0.75
100
AcDbArc
 50
90.0
 51
180.0
  0
ARC
  5
E6
330
1F
100
AcDbEntity
  8
0
  6
Continuous
 62
     7
100
AcDbCircle
 10
100.8070281661
 20
290.6907948795
 30
0.0
 40
0.6000000000000227
100
AcDbArc
 50
90.0
 51
105.0000000028938
  0
ARC
  5
E7
330
1F
100
AcDbEntity
  8
0
  6
Continuous
 62
     7
100
AcDbCircle
 10
101.6794568755
 20
290.6907948795
 30
0.0
 40
0.5999999999998945
100
AcDbArc
 50
59.70317838175824
 51
90.0
  0
ARC
  5
E8
330
1F
100
AcDbEntity
  8
0
  6
Continuous
 62
     7
100
AcDbCircle
 10
118.57274646
 20
304.1525997465
 30
0.0
 40
0.5037304978997338
100
AcDbArc
 50
166.1596109370713
 51
171.3804870338136
  0
ARC
  5
E9
330
1F
100
AcDbEntity
  8
0
  6
Continuous
 62
     7
100
AcDbCircle
 10
1.315182918
 20
343.1661303893
 30
0.0
 40
126.7303074976679
100
AcDbArc
 50
335.4508108778776
 51
337.1137532296997
  0
ARC
  5
EA
330
1F
100
AcDbEntity
  8
0
  6
Continuous
 62
     7
100
AcDbCircle
 10
114.949126506
 20
310.2455948795
 30
0.0
 40
6.017499999999984
100
AcDbArc
 50
90.0
 51
270.0
  0
ARC
  5
EB
330
1F
100
AcDbEntity
  8
FASEN
  6
Continuous
 62
     7
100
AcDbCircle
 10
114.949126506
 20
310.2455948795
 30
0.0
 40
5.617499843000019
100
AcDbArc
 50
90.0
 51
270.0
  0
ARC
  5
EC
330
1F
100
AcDbEntity
  8
RUNDUNGEN
  6
Continuous
 62
     7
100
AcDbCircle
 10
80.281626506
 20
314.1155948795
 30
0.0
 40
1.400000000000075
100
AcDbArc
 50
6.05709561601251
 51
90.0
  0
ARC
  5
ED
330
1F
100
AcDbEntity
  8
0
  6
Continuous
 62
     7
100
AcDbCircle
 10
78.081626506
 20
327.3019506611
 30
0.0
 40
0.9999999999712409
100
AcDbArc
 50
92.86812048358074
 51
180.0000000229187
  0
ARC
  5
EE
330
1F
100
AcDbEntity
  8
0
  6
Continuous
 62
     7
100
AcDbCircle
 10
118.819126506
 20
332.4705948795
 30
0.0
 40
0.75
100
AcDbArc
 50
180.0
 51
270.0
  0
ARC
  5
EF
330
1F
100
AcDbEntity
  8
0
  6
Continuous
 62
     7
100
AcDbCircle
 10
100.8070281661
 20
329.8003948795
 30
0.0
 40
0.6000000000355948
100
AcDbArc
 50
254.9999999971062
 51
270.0
  0
ARC
  5
F0
330
1F
100
AcDbEntity
  8
0
  6
Continuous
 62
     7
100
AcDbCircle
 10
101.6794568755
 20
329.8003948795
 30
0.0
 40
0.6000000000000227
100
AcDbArc
 50
270.0
 51
300.2968216182418
  0
ARC
  5
F1
330
1F
100
AcDbEntity
  8
RUNDUNGEN
  6
Continuous
 62
     7
100
AcDbCircle
 10
167.2516970414
 20
-456.1902649223
 30
0.0
 40
779.4077988409
100
AcDbArc
 50
96.40668094319999
 51
96.57315239320002
  0
ARC
  5
F2
330
1F
100
AcDbEntity
  8
0
  6
Continuous
 62
     7
100
AcDbCircle
 10
155.6370149094
 20
294.6955948795
 30
0.0
 40
33.78031736353756
100
AcDbArc
 50
179.660772196786
 51
180.339227803214
  0
ARC
  5
F3
330
1F
100
AcDbEntity
  8
RUNDUNGEN
  6
Continuous
 62
     7
100
AcDbCircle
 10
129.931626506
 20
292.2455948795
 30
0.0
 40
2.0
100
AcDbArc
 50
90.0
 51
180.0
  0
ARC
  5
F4
330
1F
100
AcDbEntity
  8
0
  6
Continuous
 62
     7
100
AcDbCircle
 10
120.4687861157
 20
294.1736419723
 30
0.0
 40
1.425340532344761
100
AcDbArc
 50
359.9744205669359
 51
13.05450641546304
  0
ARC
  5
F5
330
1F
100
AcDbEntity
  8
RUNDUNGEN
  6
Continuous
 62
     7
100
AcDbCircle
 10
185.981626506
 20
299.1699853712
 30
0.0
 40
1.000000000072341
100
AcDbArc
 50
274.5000000038215
 51
0.0
  0
ARC
  5
F6
330
1F
100
AcDbEntity
  8
0
  6
Continuous
 62
     7
100
AcDbCircle
 10
121.144126506
 20
288.0205948795
 30
0.0
 40
0.75
100
AcDbArc
 50
0.0
 51
90.0
  0
ARC
  5
F7
330
1F
100
AcDbEntity
  8
RUNDUNGEN
  6
Continuous
 62
     7
100
AcDbCircle
 10
167.2516970414
 20
1076.6814546813
 30
0.0
 40
779.4077988407996
100
AcDbArc
 50
263.4268476068
 51
263.5933190568001
  0
ARC
  5
F8
330
1F
100
AcDbEntity
  8
0
  6
Continuous
 62
     7
100
AcDbCircle
 10
238.6480700941
 20
343.1661303893
 30
0.0
 40
126.7303074976999
100
AcDbArc
 50
202.8862467703002
 51
204.5491891221036
  0
ARC
  5
F9
330
1F
100
AcDbEntity
  8
RUNDUNGEN
  6
Continuous
 62
     7
100
AcDbCircle
 10
129.931626506
 20
328.2455948795
 30
0.0
 40
1.999999999999986
100
AcDbArc
 50
180.0
 51
270.0
  0
ARC
  5
FA
330
1F
100
AcDbEntity
  8
RUNDUNGEN
  6
Continuous
 62
     7
100
AcDbCircle
 10
185.981626506
 20
321.3212043879
 30
0.0
 40
1.0
100
AcDbArc
 50
0.0
 51
85.49999999572873
  0
ARC
  5
FB
330
1F
100
AcDbEntity
  8
0
  6
Continuous
 62
     7
100
AcDbCircle
 10
121.144126506
 20
332.4705948795
 30
0.0
 40
0.75
100
AcDbArc
 50
270.0
 51
0.0
  0
CIRCLE
  5
FC
330
1F
100
AcDbEntity
  8
FASEN
  6
Continuous
 62
     7
100
AcDbCircle
 10
94.481626506
 20
310.2455948795
 30
0.0
 40
3.0
  0
SPLINE
  5
FD
330
1F
100
AcDbEntity
  8
BEZUGSACHSEN
  6
Continuous
 62
     7
100
AcDbSpline
210
0.0
220
0.0
230
1.0
 70
     8
 71
     3
 72
    15
 73
    11
 74
     9
 42
0.0000000001
 43
0.0000000001
 44
0.00000001
 40
0.0
 40
0.0
 40
0.0
 40
0.0
 40
0.959279472746091
 40
1.918698757741661
 40
2.733413612637673
 40
3.548061682608493
 40
4.096465872364953
 40
4.644852382944469
 40
4.839161107525547
 40
5.033464909266138
 40
5.033464909266138
 40
5.033464909266138
 40
5.033464909266138
 10
108.981626506
 20
334.7404923073
 30
0.0
 10
108.6618471402194
 20
334.7441204702669
 30
0.0
 10
108.0222418017267
 20
334.7513773249952
 30
0.0
 10
107.1124316799883
 20
334.8067915613974
 30
0.0
 10
106.2531878099418
 20
334.8875140175178
 30
0.0
 10
105.5329163620376
 20
334.9790586655602
 30
0.0
 10
104.9031158302816
 20
335.0757832426597
 30
0.0
 10
104.4791605540295
 20
335.1499846818882
 30
0.0
 10
104.1722367523335
 20
335.2078760815688
 30
0.0
 10
104.0451627181977
 20
335.233022053037
 30
0.0
 10
103.981626506
 20
335.2455948795
 30
0.0
 11
108.981626506
 21
334.7404923073
 31
0.0
 11
108.0225311455925
 21
334.7592858295022
 31
0.0
 11
107.064753379542
 21
334.8153849852959
 31
0.0
 11
106.2536430621523
 21
334.8919378938768
 31
0.0
 11
105.4454669944144
 21
334.9944216557265
 31
0.0
 11
104.903417844468
 21
335.0776675228
 31
0.0
 11
104.3632197204482
 21
335.172080190335
 31
0.0
 11
104.1722901536267
 21
335.2081603921315
 31
0.0
 11
103.981626506
 21
335.2455948795
 31
0.0
  0
SPLINE
  5
FE
330
1F
100
AcDbEntity
  8
BEZUGSACHSEN
  6
Continuous
 62
     7
100
AcDbSpline
210
0.0
220
0.0
230
1.0
 70
     8
 71
     3
 72
    15
 73
    11
 74
     9
 42
0.0000000001
 43
0.0000000001
 44
0.00000001
 40
0.0
 40
0.0
 40
0.0
 40
0.0
 40
0.1942981503281397
 40
0.38860122454317
 40
0.9369792399517649
 40
1.485374928806579
 40
2.3000273721006
 40
3.114746618584104
 40
4.074175664698124
 40
5.033464878716005
 40
5.033464878716005
 40
5.033464878716005
 40
5.033464878716005
 10
113.981626506
 20
335.2455948795
 30
0.0
 10
113.9180921400726
 20
335.2330224275107
 30
0.0
 10
113.7910217981354
 20
335.207877204922
 30
0.0
 10
113.4841044998717
 20
335.1499869309037
 30
0.0
 10
113.0601567169209
 20
335.0757864758859
 30
0.0
 10
112.4303604442359
 20
334.9790618886774
 30
0.0
 10
111.7100889608101
 20
334.8875167786682
 30
0.0
 10
110.8508389842922
 20
334.8067933421491
 30
0.0
 10
109.9410209597708
 20
334.7513777379415
 30
0.0
 10
109.3014091194078
 20
334.7441206078858
 30
0.0
 10
108.981626506
 20
334.7404923073
 30
0.0
 11
113.981626506
 21
335.2455948795
 31
0.0
 11
113.7909684015814
 21
335.2081614927919
 31
0.0
 11
113.6000443973583
 21
335.1720822846402
 31
0.0
 11
113.05985470787
 21
335.0776707008489
 31
0.0
 11
112.5178140412711
 21
334.9944255970439
 31
0.0
 11
111.7096337090824
 21
334.8919407004573
 31
0.0
 11
110.8985190643195
 21
334.8153869047197
 31
0.0
 11
109.940731597837
 21
334.7592864272157
 31
0.0
 11
108.981626506
 21
334.7404923073
 31
0.0
  0
SPLINE
  5
FF
330
1F
100
AcDbEntity
  8
RUNDUNGEN
  6
Continuous
 62
     7
100
AcDbSpline
210
0.0
220
0.0
230
1.0
 70
     8
 71
     3
 72
    15
 73
    11
 74
     9
 42
0.0000000001
 43
0.0000000001
 44
0.00000001
 40
0.0
 40
0.0
 40
0.0
 40
0.0
 40
0.2286533797279477
 40
0.4574173649059909
 40
0.686665159826189
 40
0.9158640491966159
 40
1.146314057938366
 40
1.376831724027732
 40
1.609554238619441
 40
1.842048835071209
 40
1.842048835071209
 40
1.842048835071209
 40
1.842048835071209
 10
81.0996846822
 20
317.8955948795
 30
0.0
 10
81.14208945066981
 20
317.8322307387458
 30
0.0
 10
81.2269194998735
 20
317.7054718063924
 30
0.0
 10
81.33839627501311
 20
317.5052903530546
 30
0.0
 10
81.43754452760102
 20
317.2986347608608
 30
0.0
 10
81.52204463648617
 20
317.0848986322181
 30
0.0
 10
81.59082024994515
 20
316.8651050757926
 30
0.0
 10
81.64179730436616
 20
316.639373029066
 30
0.0
 10
81.67513658664622
 20
316.4093914947615
 30
0.0
 10
81.67946390622569
 20
316.2542685832957
 30
0.0
 10
81.681626506
 20
316.1767451263
 30
0.0
 11
81.0996846822
 21
317.8955948795
 31
0.0
 11
81.22425762862751
 21
317.703855605799
 31
0.0
 11
81.33625316677221
 21
317.5043813960619
 31
0.0
 11
81.43507357473396
 21
317.2975261847521
 31
0.0
 11
81.51926149697755
 21
317.0843489705923
 31
0.0
 11
81.58779920649503
 21
316.8643267242098
 31
0.0
 11
81.63870245210612
 21
316.6394995595576
 31
0.0
 11
81.67065169022416
 21
316.4089805473665
 31
0.0
 11
81.681626506
 21
316.1767451263
 31
0.0
  0
SPLINE
  5
100
330
1F
100
AcDbEntity
  8
RUNDUNGEN
  6
Continuous
 62
     7
100
AcDbSpline
210
0.0
220
0.0
230
1.0
 70
     8
 71
     3
 72
    15
 73
    11
 74
     9
 42
0.0000000001
 43
0.0000000001
 44
0.00000001
 40
0.0
 40
0.0
 40
0.0
 40
0.0
 40
0.1273079847575913
 40
0.254989380412048
 40
0.3793073351267404
 40
0.5035989687571778
 40
0.6245667031765854
 40
0.7455591721837489
 40
0.8645937372882133
 40
0.9835510381703153
 40
0.9835510381703153
 40
0.9835510381703153
 40
0.9835510381703153
 10
80.281626506
 20
318.3500656771
 30
0.0
 10
80.32410567563107
 20
318.3525123212085
 30
0.0
 10
80.40918861182924
 20
318.3574127857513
 30
0.0
 10
80.53483496351049
 20
318.3357485983028
 30
0.0
 10
80.65362098077436
 20
318.2941091258955
 30
0.0
 10
80.76238762946798
 20
318.235237637097
 30
0.0
 10
80.86123783467075
 20
318.1630636005117
 30
0.0
 10
80.94962347882093
 20
318.0811101885272
 30
0.0
 10
81.029668358956
 20
317.991871492672
 30
0.0
 10
81.07635095963143
 20
317.9276801373014
 30
0.0
 10
81.0996846822
 20
317.8955948795
 30
0.0
 11
80.281626506
 21
318.3500656771
 31
0.0
 11
80.40891017440659
 21
318.3525537968721
 31
0.0
 11
80.53494144644975
 21
318.3320926809824
 31
0.0
 11
80.65230044844378
 21
318.291082700302
 31
0.0
 11
80.76182873715966
 21
318.2323292820057
 31
0.0
 11
80.85971572782395
 21
318.1612565739579
 31
0.0
 11
80.94876942279029
 21
318.0793504266349
 31
0.0
 11
81.02808858399462
 21
317.9905940276799
 31
0.0
 11
81.0996846822
 21
317.8955948795
 31
0.0
  0
SPLINE
  5
101
330
1F
100
AcDbEntity
  8
RUNDUNGEN
  6
Continuous
 62
     7
100
AcDbSpline
210
0.0
220
0.0
230
1.0
 70
     8
 71
     3
 72
    15
 73
    11
 74
     9
 42
0.0000000001
 43
0.0000000001
 44
0.00000001
 40
0.0
 40
0.0
 40
0.0
 40
0.0
 40
0.2324947530409237
 40
0.4652174309420932
 40
0.6957353316873839
 40
0.9261855605834953
 40
1.155384407735246
 40
1.384632178777806
 40
1.613395801694706
 40
1.842048806074106
 40
1.842048806074106
 40
1.842048806074106
 40
1.842048806074106
 10
81.681626506
 20
304.3144446327
 30
0.0
 10
81.67946389903031
 20
304.2369211234924
 30
0.0
 10
81.67513656499193
 20
304.0817981053622
 30
0.0
 10
81.64179722661785
 20
303.8518163931864
 30
0.0
 10
81.5908201678278
 20
303.6260841367859
 30
0.0
 10
81.52204447144793
 20
303.4062904565276
 30
0.0
 10
81.4375440968357
 20
303.1925543741063
 30
0.0
 10
81.33839572165527
 20
302.9858990066197
 30
0.0
 10
81.22691921639668
 20
302.7857176977547
 30
0.0
 10
81.14208935537263
 20
302.6589589340914
 30
0.0
 10
81.0996846822
 20
302.5955948795
 30
0.0
 11
81.681626506
 21
304.3144446327
 31
0.0
 11
81.6706516636173
 21
304.0822090561269
 31
0.0
 11
81.63870238793595
 21
303.8516898842714
 31
0.0
 11
81.58779910634635
 21
303.6268624871699
 31
0.0
 11
81.51926126726885
 21
303.4068400505575
 31
0.0
 11
81.43507315710123
 21
303.1936629560045
 31
0.0
 11
81.3362526183767
 21
302.9868078336261
 31
0.0
 11
81.22425733564376
 21
302.7873338959409
 31
0.0
 11
81.0996846822
 21
302.5955948795
 31
0.0
  0
SPLINE
  5
102
330
1F
100
AcDbEntity
  8
RUNDUNGEN
  6
Continuous
 62
     7
100
AcDbSpline
210
0.0
220
0.0
230
1.0
 70
     8
 71
     3
 72
    17
 73
    13
 74
    11
 42
0.0000000001
 43
0.0000000001
 44
0.00000001
 40
0.0
 40
0.0
 40
0.0
 40
0.0
 40
0.1190059192966327
 40
0.2380814744147351
 40
0.3590691915226836
 40
0.4800850747380931
 40
0.6044906460082772
 40
0.7286521943718348
 40
0.792200388109787
 40
0.8557409871542524
 40
0.9198158321753075
 40
0.9838416202249853
 40
0.9838416202249853
 40
0.9838416202249853
 40
0.9838416202249853
 10
81.0996846822
 20
302.5955948795
 30
0.0
 10
81.07633898148575
 20
302.5634983484612
 30
0.0
 10
81.02963391941702
 20
302.4992865052309
 30
0.0
 10
80.94956745691846
 20
302.410028711111
 30
0.0
 10
80.86119652796208
 20
302.3280270181772
 30
0.0
 10
80.76227176992496
 20
302.2558203458536
 30
0.0
 10
80.65343769705909
 20
302.1972064029028
 30
0.0
 10
80.55487564509156
 20
302.1623264460809
 30
0.0
 10
80.47282911592447
 20
302.1449794961179
 30
0.0
 10
80.40946619669313
 20
302.1375864335831
 30
0.0
 10
80.3454788944002
 20
302.135653102157
 30
0.0
 10
80.30290520084236
 20
302.1393008876333
 30
0.0
 10
80.281626506
 20
302.1411240819
 30
0.0
 11
81.0996846822
 21
302.5955948795
 31
0.0
 11
81.02805272587715
 21
302.5005618764906
 31
0.0
 11
80.94870874612934
 21
302.4117726839925
 31
0.0
 11
80.85967653808757
 21
302.3298501985431
 31
0.0
 11
80.76172534332878
 21
302.2587839798754
 31
0.0
 11
80.65203904019168
 21
302.2000842263224
 31
0.0
 11
80.53485056752595
 21
302.1590604287616
 31
0.0
 11
80.47267073802044
 21
302.1459439608673
 31
0.0
 11
80.40956633403053
 21
302.1385114697636
 31
0.0
 11
80.34551204464297
 21
302.136888578662
 31
0.0
 11
80.281626506
 21
302.1411240819
 31
0.0
  0
SPLINE
  5
103
330
1F
100
AcDbEntity
  8
FASEN
  6
Continuous
 62
     7
100
AcDbSpline
210
0.0
220
0.0
230
1.0
 70
     8
 71
     3
 72
    41
 73
    37
 74
    35
 42
0.0000000001
 43
0.0000000001
 44
0.00000001
 40
0.0
 40
0.0
 40
0.0
 40
0.0
 40
0.3535888544086814
 40
0.70755072895149
 40
1.060684840903195
 40
1.413709983367192
 40
1.765779918047506
 40
2.117876005200366
 40
2.469055569646634
 40
2.82022771123457
 40
3.17108442521026
 40
3.521941346594733
 40
3.873160085232012
 40
4.224381765451237
 40
4.576461723091927
 40
4.928542604176173
 40
5.281581803842236
 40
5.634626310516396
 40
5.988339657502326
 40
6.342041478561661
 40
6.695908397039945
 40
7.049820838068178
 40
7.403595216304224
 40
7.757194007936077
 40
7.933994428119228
 40
8.110739696164638
 40
8.287420502925034
 40
8.464157456691954
 40
8.817287503341802
 40
9.17059225340647
 40
9.52399752163008
 40
9.877334047478538
 40
10.23089310697785
 40
10.58456791527064
 40
10.93860935642998
 40
11.29227461512923
 40
11.29227461512923
 40
11.29227461512923
 40
11.29227461512923
 10
98.0808749176
 20
310.2455948795
 30
0.0
 10
98.07756630742594
 20
310.1276832873152
 30
0.0
 10
98.07094559664483
 20
309.8917357115871
 30
0.0
 10
98.017068763733
 20
309.5414307672983
 30
0.0
 10
97.93183547558718
 20
309.1980447435941
 30
0.0
 10
97.81300700988749
 20
308.8652635366832
 30
0.0
 10
97.66234432481477
 20
308.5460880178071
 30
0.0
 10
97.4813943779284
 20
308.243742272648
 30
0.0
 10
97.27169321727533
 20
307.9609627142041
 30
0.0
 10
97.03553204239589
 20
307.7004289975814
 30
0.0
 10
96.77491260822198
 20
307.4645258220249
 30
0.0
 10
96.49241085464998
 20
307.2552978687007
 30
0.0
 10
96.19056883694952
 20
307.0748536501883
 30
0.0
 10
95.8721706090731
 20
306.9246032916757
 30
0.0
 10
95.54031094061583
 20
306.806179120888
 30
0.0
 10
95.1979199849043
 20
306.7204586405077
 30
0.0
 10
94.84848139033903
 20
306.6684965431934
 30
0.0
 10
94.49510999337416
 20
306.6506397053353
 30
0.0
 10
94.14145545984243
 20
306.6672537630583
 30
0.0
 10
93.79080344614536
 20
306.7180978128793
 30
0.0
 10
93.44670404817975
 20
306.8028651676466
 30
0.0
 10
93.11244658621317
 20
306.9206967713075
 30
0.0
 10
92.7914118421997
 20
307.0706100491936
 30
0.0
 10
92.53736555287726
 20
307.2210365308068
 30
0.0
 10
92.34392394148341
 20
307.3558669494685
 30
0.0
 10
92.20401548412967
 20
307.4639842867403
 30
0.0
 10
92.06959073688246
 20
307.5788158137871
 30
0.0
 10
91.89820598152413
 20
307.7404707316612
 30
0.0
 10
91.69926004324866
 20
307.9581697500785
 30
0.0
 10
91.48738633977453
 20
308.241565074965
 30
0.0
 10
91.30458731574353
 20
308.5446416026289
 30
0.0
 10
91.1525541356479
 20
308.8643225902256
 30
0.0
 10
91.03265465186632
 20
309.1975564923982
 30
0.0
 10
90.94670422002818
 20
309.5411686410785
 30
0.0
 10
90.89242678105379
 20
309.8916585317958
 30
0.0
 10
90.88572646943135
 20
310.127657912196
 30
0.0
 10
90.8823780944
 20
310.2455948795
 30
0.0
 11
98.0808749176
 21
310.2455948795
 31
0.0
 11
98.06362709036023
 21
309.8924269443508
 31
0.0
 11
98.01178102988
 21
309.5422826960151
 31
0.0
 11
97.9261950621235
 21
309.1996768829484
 31
0.0
 11
97.8075579017737
 21
308.8671833109867
 31
0.0
 11
97.65725235832743
 21
308.5488101297746
 31
0.0
 11
97.47640500773308
 21
308.2467076796499
 31
0.0
 11
97.26723921620024
 21
307.9646141523631
 31
0.0
 11
97.03136859279473
 21
307.70444704829
 31
0.0
 11
96.77126878376251
 21
307.4689719475188
 31
0.0
 11
96.48930473682901
 21
307.2601733471397
 31
0.0
 11
96.18787095021614
 21
307.079917210883
 31
0.0
 11
95.87023582745634
 21
306.930035265855
 31
0.0
 11
95.53865277784978
 21
306.8116588417416
 31
0.0
 11
95.1971113708714
 21
306.7261578818388
 31
0.0
 11
94.84791789112134
 21
306.6741906787113
 31
0.0
 11
94.49532266350884
 21
306.6563853660858
 31
0.0
 11
94.1419976830707
 21
306.6729561244985
 31
0.0
 11
93.7919604134995
 21
306.7237388787742
 31
0.0
 11
93.44836301505035
 21
306.8083711644121
 31
0.0
 11
93.11459418819467
 21
306.9260673246466
 31
0.0
 11
92.79404274228743
 21
307.0757439134075
 31
0.0
 11
92.48981349789187
 21
307.2559567661622
 31
0.0
 11
92.34476538340455
 21
307.3570479777516
 31
0.0
 11
92.20490992689268
 21
307.4651189778409
 31
0.0
 11
92.07057543343117
 21
307.579881129023
 31
0.0
 11
91.94201306175121
 21
307.7011563013166
 31
0.0
 11
91.7037745682828
 21
307.961815561802
 31
0.0
 11
91.49225779820733
 21
308.2448083221248
 31
0.0
 11
91.30971049873733
 21
308.5474165954162
 31
0.0
 11
91.15794357901865
 21
308.8664988772461
 31
0.0
 11
91.03833507070954
 21
309.1992116862783
 31
0.0
 11
90.9520096674855
 21
309.5421895205171
 31
0.0
 11
90.89978806730525
 21
309.8923584033905
 31
0.0
 11
90.8823780944
 21
310.2455948795
 31
0.0
  0
SPLINE
  5
104
330
1F
100
AcDbEntity
  8
0
  6
Continuous
 62
     7
100
AcDbSpline
210
0.0
220
0.0
230
1.0
 70
     8
 71
     3
 72
    11
 73
     7
 74
     5
 42
0.0000000001
 43
0.0000000001
 44
0.00000001
 40
0.0
 40
0.0
 40
0.0
 40
0.0
 40
0.0720335617525657
 40
0.1441734621227319
 40
0.2163593594324987
 40
0.2883296530188748
 40
0.2883296530188748
 40
0.2883296530188748
 40
0.2883296530188748
 10
77.769697237
 20
317.9815525855
 30
0.0
 10
77.78920329048967
 20
317.9956050555533
 30
0.0
 10
77.82824419302918
 20
318.0237307404378
 30
0.0
 10
77.8924861177224
 20
318.0569567333905
 30
0.0
 10
77.96034931445425
 20
318.0823879270494
 30
0.0
 10
78.00786630316341
 20
318.0902048230671
 30
0.0
 10
78.0315892637
 20
318.0941074255
 30
0.0
 11
77.769697237
 21
317.9815525855
 31
0.0
 11
77.82915586297494
 21
318.022215908236
 31
0.0
 11
77.89307928974549
 21
318.0556518280728
 31
0.0
 11
77.9609906188195
 21
318.0801233452676
 31
0.0
 11
78.0315892637
 21
318.0941074255
 31
0.0
  0
SPLINE
  5
105
330
1F
100
AcDbEntity
  8
0
  6
Continuous
 62
     7
100
AcDbSpline
210
0.0
220
0.0
230
1.0
 70
     8
 71
     3
 72
    27
 73
    23
 74
    21
 42
0.0000000001
 43
0.0000000001
 44
0.00000001
 40
0.0
 40
0.0
 40
0.0
 40
0.0
 40
0.0679422772597665
 40
0.135990467178656
 40
0.196031141742146
 40
0.2558288643478818
 40
0.2829045758332133
 40
0.3099751664853521
 40
0.3357621418216367
 40
0.3615450076801156
 40
0.3868874812416842
 40
0.4122310011775787
 40
0.4380221512557885
 40
0.4638182097209987
 40
0.5190828346243119
 40
0.5745822153246276
 40
0.636600318676843
 40
0.6985580374144114
 40
0.7666673007986357
 40
0.8347923375117378
 40
0.9078434199851332
 40
0.9808740973028318
 40
0.9808740973028318
 40
0.9808740973028318
 40
0.9808740973028318
 10
77.081626506
 20
317.7903787714
 30
0.0
 10
77.08209426606646
 20
317.8130355124749
 30
0.0
 10
77.08303051537291
 20
317.8583843133657
 30
0.0
 10
77.09214743686896
 20
317.9232723879003
 30
0.0
 10
77.10788999483313
 20
317.9840368792107
 30
0.0
 10
77.1274572386583
 20
318.0292576528159
 30
0.0
 10
77.14747776307857
 20
318.0615953634784
 30
0.0
 10
77.16377934746296
 20
318.0827404687972
 30
0.0
 10
77.18204890977523
 20
318.1016145552412
 30
0.0
 10
77.2019222592084
 20
318.1179080414695
 30
0.0
 10
77.2234933085492
 20
318.1316006200668
 30
0.0
 10
77.24651168784816
 20
318.1426884824245
 30
0.0
 10
77.27080410269308
 20
318.1510760382757
 30
0.0
 10
77.30557924324506
 20
318.1590368930176
 30
0.0
 10
77.35129822286319
 20
318.1622047799087
 30
0.0
 10
77.4088047851814
 20
318.1566933547027
 30
0.0
 10
77.46724814742021
 20
318.1431771427167
 30
0.0
 10
77.52773798654448
 20
318.1219119473526
 30
0.0
 10
77.58805931415796
 20
318.0947923037584
 30
0.0
 10
77.64942657304779
 20
318.0615244063215
 30
0.0
 10
77.71019457682159
 20
318.0239325319286
 30
0.0
 10
77.74986486403034
 20
317.9956779187454
 30
0.0
 10
77.769697237
 20
317.9815525855
 30
0.0
 11
77.081626506
 21
317.7903787714
 31
0.0
 11
77.08437477112236
 21
317.8582654422424
 31
0.0
 11
77.09386756178733
 21
317.9256482521914
 31
0.0
 11
77.10939638546724
 21
317.9836459955713
 31
0.0
 11
77.13356543902839
 21
318.0383417401845
 31
0.0
 11
77.14786094018953
 21
318.0613359307332
 31
0.0
 11
77.16443455713163
 21
318.0827399513768
 31
0.0
 11
77.18238605051175
 21
318.1012524331774
 31
0.0
 11
77.20234420608122
 21
318.1175750615852
 31
0.0
 11
77.22373242440301
 21
318.1311686293008
 31
0.0
 11
77.24656268552995
 21
318.1421719551442
 31
0.0
 11
77.2709273957822
 21
318.1506303425012
 31
0.0
 11
77.29606529907275
 21
318.1564202000552
 31
0.0
 11
77.35116549622889
 21
318.1606801342165
 31
0.0
 11
77.40644666423812
 21
318.1557634563083
 31
0.0
 11
77.4669351370048
 21
318.1420744166867
 31
0.0
 11
77.52548931482737
 21
318.1218218323902
 31
0.0
 11
77.58767535410949
 21
318.0940411146683
 31
0.0
 11
77.64766871124282
 21
318.0617639133176
 31
0.0
 11
77.70975738494894
 21
318.0232742101757
 31
0.0
 11
77.769697237
 21
317.9815525855
 31
0.0
  0
SPLINE
  5
106
330
1F
100
AcDbEntity
  8
FASEN
  6
Continuous
 62
     7
100
AcDbSpline
210
0.0
220
0.0
230
1.0
 70
     8
 71
     3
 72
    43
 73
    39
 74
    37
 42
0.0000000001
 43
0.0000000001
 44
0.00000001
 40
0.0
 40
0.0
 40
0.0
 40
0.0
 40
0.3536627138593056
 40
0.7077087111144487
 40
1.06138601666099
 40
1.414940913010577
 40
1.768273600935007
 40
2.121679340800041
 40
2.47499047378075
 40
2.828124790763258
 40
3.004861640145576
 40
3.181542282463853
 40
3.358289604779825
 40
3.535092628060604
 40
3.888693191045399
 40
4.242467023618155
 40
4.596379402938396
 40
4.950247373426286
 40
5.303947628008896
 40
5.657661399089086
 40
6.010712555501199
 40
6.363747200733127
 40
6.715806091116677
 40
7.067909115960414
 40
7.419215040258315
 40
7.770346273726293
 40
7.945854779192587
 40
8.1213087100407
 40
8.296759233390452
 40
8.47226498981532
 40
8.823345921689166
 40
9.174601594818498
 40
9.526721241941377
 40
9.878775142226308
 40
10.23179857976971
 40
10.58493613220602
 40
10.93889559964734
 40
11.29248564906169
 40
11.29248564906169
 40
11.29248564906169
 40
11.29248564906169
 10
90.8823780944
 20
310.2455948795
 30
0.0
 10
90.88570792125756
 20
310.3635321892418
 30
0.0
 10
90.89237118368601
 20
310.5995346237617
 30
0.0
 10
90.94670713894288
 20
310.9500189310059
 30
0.0
 10
91.03265036447357
 20
311.2936313972099
 30
0.0
 10
91.15253750926924
 20
311.6268689002079
 30
0.0
 10
91.30458637068996
 20
311.9465403903936
 30
0.0
 10
91.48740028713321
 20
312.249608195837
 30
0.0
 10
91.69926348281786
 20
312.5330149448155
 30
0.0
 10
91.89819792199518
 20
312.7507295439409
 30
0.0
 10
92.06957839714127
 20
312.9123911130048
 30
0.0
 10
92.20400492091257
 20
313.0272217626676
 30
0.0
 10
92.34392318787957
 20
313.1353290847085
 30
0.0
 10
92.53737753990167
 20
313.2701446923954
 30
0.0
 10
92.79142233851029
 20
313.4205741986838
 30
0.0
 10
93.1124507530604
 20
313.5705027171936
 30
0.0
 10
93.44670961622961
 20
313.6883323968888
 30
0.0
 10
93.79081042503856
 20
313.773092631766
 30
0.0
 10
94.14146222917162
 20
313.8239366474569
 30
0.0
 10
94.49511875826634
 20
313.8405507568532
 30
0.0
 10
94.84849074340045
 20
313.8226894942608
 30
0.0
 10
95.19792281138255
 20
313.7707291727876
 30
0.0
 10
95.54031354940136
 20
313.6850156361182
 30
0.0
 10
95.87219996111939
 20
313.5665694260678
 30
0.0
 10
96.19058747578953
 20
313.4163142960667
 30
0.0
 10
96.44222385192967
 20
313.2659026479608
 30
0.0
 10
96.63371974532325
 20
313.1312295800365
 30
0.0
 10
96.77217067789056
 20
313.0233085443116
 30
0.0
 10
96.90516879171626
 20
312.9087362593
 30
0.0
 10
97.07479950436873
 20
312.7474168173811
 30
0.0
 10
97.27167030941203
 20
312.5302371462262
 30
0.0
 10
97.48139704995145
 20
312.2474894046092
 30
0.0
 10
97.66235739329872
 20
311.9451109969685
 30
0.0
 10
97.81298921154314
 20
311.6259203277589
 30
0.0
 10
97.93182101050333
 20
311.2931466618002
 30
0.0
 10
98.01706614967648
 20
310.9497620353222
 30
0.0
 10
98.07090130972034
 20
310.599451269806
 30
0.0
 10
98.07755153902184
 20
310.3635059465369
 30
0.0
 10
98.0808749176
 20
310.2455948795
 30
0.0
 11
90.8823780944
 21
310.2455948795
 31
0.0
 11
90.89975125827559
 21
310.5988306199783
 31
0.0
 11
90.95200182736261
 21
310.9489997879564
 31
0.0
 11
91.03833070131135
 21
311.291979323762
 31
0.0
 11
91.15793159674568
 21
311.6246904455239
 31
0.0
 11
91.30970845011377
 21
311.9437637523636
 31
0.0
 11
91.4922661743101
 21
312.2463662875575
 31
0.0
 11
91.70377786895311
 21
312.5293708099902
 31
0.0
 11
91.94200523128075
 21
312.7900460287378
 31
0.0
 11
92.07056398494963
 21
312.9113248842102
 31
0.0
 11
92.20490001040132
 21
313.0260849889324
 31
0.0
 11
92.34476442777311
 21
313.1341477517099
 31
0.0
 11
92.4898218960403
 21
313.2352300940905
 31
0.0
 11
92.79405333218645
 21
313.4154427224038
 31
0.0
 11
93.11459952816935
 21
313.5651292643978
 31
0.0
 11
93.44836828569815
 21
313.682825435677
 31
0.0
 11
93.79196795250945
 21
313.767452910556
 31
0.0
 11
94.14200384719913
 21
313.8182342311433
 31
0.0
 11
94.49532928377987
 21
313.8348043161402
 31
0.0
 11
94.84793100961474
 21
313.8169958355144
 31
0.0
 11
95.19712008672226
 21
313.7650299893958
 31
0.0
 11
95.5386408380551
 21
313.6795370732731
 31
0.0
 11
95.87024321436749
 21
313.561146177812
 31
0.0
 11
96.18795185412002
 21
313.4112226217129
 31
0.0
 11
96.4893136682673
 21
313.2310166282205
 31
0.0
 11
96.63287963387127
 21
313.1300609497709
 31
0.0
 11
96.77126296622603
 21
313.0221993014595
 31
0.0
 11
96.90418784392597
 21
312.9076835251134
 31
0.0
 11
97.03136046844149
 21
312.7867314928357
 31
0.0
 11
97.26717858027521
 21
312.5266398957846
 31
0.0
 11
97.47641207745934
 21
312.24450182398
 31
0.0
 11
97.65726696670015
 21
311.9423764279477
 31
0.0
 11
97.8075445313546
 21
311.6240077701509
 31
0.0
 11
97.92618124513025
 21
311.2915158490468
 31
0.0
 11
98.01176985420005
 21
310.9489071495977
 31
0.0
 11
98.06359705912354
 21
310.5987625431547
 31
0.0
 11
98.0808749176
 21
310.2455948795
 31
0.0
  0
SPLINE
  5
107
330
1F
100
AcDbEntity
  8
0
  6
Continuous
 62
     7
100
AcDbSpline
210
0.0
220
0.0
230
1.0
 70
     8
 71
     3
 72
    25
 73
    21
 74
    19
 42
0.0000000001
 43
0.0000000001
 44
0.00000001
 40
0.0
 40
0.0
 40
0.0
 40
0.0
 40
0.0272067661190426
 40
0.0544881809105464
 40
0.0817226175091372
 40
0.1089430469604862
 40
0.1361366760738685
 40
0.1633351631960912
 40
0.1904968256267853
 40
0.2176561384001187
 40
0.2719142873675798
 40
0.3262206322329905
 40
0.3804997303629123
 40
0.4347596646362768
 40
0.489023338577467
 40
0.5432903872878725
 40
0.5975530058261721
 40
0.6518162746155366
 40
0.7603346281833392
 40
0.8688546602969379
 40
0.8688546602969379
 40
0.8688546602969379
 40
0.8688546602969379
 10
118.819126506
 20
315.1817497596
 30
0.0
 10
118.8100500496778
 20
315.1821867498871
 30
0.0
 10
118.7918722334703
 20
315.1830619294552
 30
0.0
 10
118.7652708315351
 20
315.1896008519905
 30
0.0
 10
118.739796592064
 20
315.1994093734783
 30
0.0
 10
118.7157270909794
 20
315.2122478743308
 30
0.0
 10
118.6931042384543
 20
315.227422495043
 30
0.0
 10
118.6718795411901
 20
315.2444515341361
 30
0.0
 10
118.6518943429947
 20
315.2628895808024
 30
0.0
 10
118.6267783933406
 20
315.2889719495603
 30
0.0
 10
118.5978455962071
 20
315.3238373313681
 30
0.0
 10
118.5664762042427
 20
315.36818016581
 30
0.0
 10
118.5376527832291
 20
315.4142047978207
 30
0.0
 10
118.5110357912398
 20
315.4615148427165
 30
0.0
 10
118.4862247979703
 20
315.5097861811294
 30
0.0
 10
118.4629973368775
 20
315.5588368569028
 30
0.0
 10
118.441114498637
 20
315.6085002528983
 30
0.0
 10
118.4135697255256
 20
315.6754037123076
 30
0.0
 10
118.3815976049914
 20
315.7600323205941
 30
0.0
 10
118.3589268326414
 20
315.8287405160713
 30
0.0
 10
118.3475913588
 20
315.8630948795
 30
0.0
 11
118.819126506
 21
315.1817497596
 31
0.0
 11
118.7920071981729
 21
315.1839294994086
 31
0.0
 11
118.7654445532611
 21
315.1901505514353
 31
0.0
 11
118.7400220028775
 21
315.1999182773135
 31
0.0
 11
118.7159587931044
 21
315.2126428093259
 31
0.0
 11
118.6933359519225
 21
315.2277325582044
 31
0.0
 11
118.6720753823715
 21
315.2446956323392
 31
0.0
 11
118.6520817866489
 21
315.2630807359854
 31
0.0
 11
118.6332111041557
 21
315.2826134166145
 31
0.0
 11
118.5984128263259
 21
315.3242430525661
 31
0.0
 11
118.5668956398684
 21
315.3684680008469
 31
0.0
 11
118.5380160132189
 21
315.4144265436696
 31
0.0
 11
118.5113370436945
 21
315.4616745388913
 31
0.0
 11
118.4864892905649
 21
315.5099149314478
 31
0.0
 11
118.4632208194015
 21
315.5589403414456
 31
0.0
 11
118.4413184151899
 21
315.6085862522579
 31
0.0
 11
118.4206190697867
 21
315.6587463902121
 31
0.0
 11
118.3823244360274
 21
315.7602833494255
 31
0.0
 11
118.3475913588
 21
315.8630948795
 31
0.0
  0
SPLINE
  5
108
330
1F
100
AcDbEntity
  8
0
  6
Continuous
 62
     7
100
AcDbSpline
210
0.0
220
0.0
230
1.0
 70
     8
 71
     3
 72
    25
 73
    21
 74
    19
 42
0.0000000001
 43
0.0000000001
 44
0.00000001
 40
0.0
 40
0.0
 40
0.0
 40
0.0
 40
0.1085285490187801
 40
0.2170554556524901
 40
0.2713241332608835
 40
0.3255921109184577
 40
0.3798650579415723
 40
0.4341347749078909
 40
0.4884007825040003
 40
0.5426855351780374
 40
0.5969918906374329
 40
0.6512511252726132
 40
0.678412428110653
 40
0.7055751104882227
 40
0.7327602080917361
 40
0.7599421722339808
 40
0.7871532997509716
 40
0.8143760191877553
 40
0.8416525758241574
 40
0.8688563236522872
 40
0.8688563236522872
 40
0.8688563236522872
 40
0.8688563236522872
 10
121.6156616533
 20
315.8630948795
 30
0.0
 10
121.6043252298939
 20
315.8287378389506
 30
0.0
 10
121.5816525546383
 20
315.7600242777839
 30
0.0
 10
121.5496775347866
 20
315.6753887565748
 30
0.0
 10
121.5221304763618
 20
315.6084792741282
 30
0.0
 10
121.5002453649918
 20
315.5588108043291
 30
0.0
 10
121.4770149408514
 20
315.5097551451049
 30
0.0
 10
121.4522007087605
 20
315.4614787257657
 30
0.0
 10
121.4255807929224
 20
315.4141635243827
 30
0.0
 10
121.3967534371881
 20
315.368136651681
 30
0.0
 10
121.3653770226975
 20
315.3237959351663
 30
0.0
 10
121.3364400875255
 20
315.2889328602912
 30
0.0
 10
121.3113233674909
 20
315.2628493555479
 30
0.0
 10
121.2913376909906
 20
315.2444166182603
 30
0.0
 10
121.270109823897
 20
315.2274041060551
 30
0.0
 10
121.2474914804598
 20
315.212244268704
 30
0.0
 10
121.223437434596
 20
315.1994013046851
 30
0.0
 10
121.1979749658134
 20
315.1895843264952
 30
0.0
 10
121.1713771757611
 20
315.1830563760469
 30
0.0
 10
121.1532019659891
 20
315.1821849101995
 30
0.0
 10
121.144126506
 20
315.1817497596
 30
0.0
 11
121.6156616533
 21
315.8630948795
 31
0.0
 11
121.5809256503846
 21
315.7602753480209
 31
0.0
 11
121.5426278451204
 21
315.6587304437892
 31
0.0
 11
121.5219265067825
 21
315.6085652769861
 31
0.0
 11
121.5000218569737
 21
315.558914499391
 31
0.0
 11
121.4767504407857
 21
315.5098839582235
 31
0.0
 11
121.4518995066411
 21
315.461638406597
 31
0.0
 11
121.4252171457739
 21
315.4143853516802
 31
0.0
 11
121.3963322924996
 21
315.3684234149912
 31
0.0
 11
121.3648102614086
 21
315.3242019066589
 31
0.0
 11
121.3300078593038
 21
315.2825743034258
 31
0.0
 11
121.3111351565078
 21
315.2630408075525
 31
0.0
 11
121.2911371901334
 21
315.2446589508771
 31
0.0
 11
121.2698794154772
 21
315.2277138469123
 31
0.0
 11
121.2472623518066
 21
315.2126364596867
 31
0.0
 11
121.2232110261136
 21
315.1999093550216
 31
0.0
 11
121.1978024071224
 21
315.1901380432115
 31
0.0
 11
121.1712432879123
 21
315.1839232440413
 31
0.0
 11
121.144126506
 21
315.1817497596
 31
0.0
  0
SPLINE
  5
109
330
1F
100
AcDbEntity
  8
0
  6
Continuous
 62
     7
100
AcDbSpline
210
0.0
220
0.0
230
1.0
 70
     8
 71
     3
 72
    25
 73
    21
 74
    19
 42
0.0000000001
 43
0.0000000001
 44
0.00000001
 40
0.0
 40
0.0
 40
0.0
 40
0.0
 40
0.0272074181921223
 40
0.0544897104249017
 40
0.0817252616173574
 40
0.108946526492092
 40
0.1361394923903912
 40
0.1633375028219579
 40
0.1904999128442529
 40
0.2176598701399389
 40
0.271918051715298
 40
0.3262245621573909
 40
0.3805032120756062
 40
0.4347626394216162
 40
0.4890258447819475
 40
0.5432924465968129
 40
0.597554679019232
 40
0.6518175542927662
 40
0.7603351297790505
 40
0.8688543879244887
 40
0.8688543879244887
 40
0.8688543879244887
 40
0.8688543879244887
 10
121.144126506
 20
305.3094399995
 30
0.0
 10
121.1532031788832
 20
305.3090027590109
 30
0.0
 10
121.1713815033951
 20
305.3081270747595
 30
0.0
 10
121.1979833766184
 20
305.3015865328347
 30
0.0
 10
121.2234588333164
 20
305.2917787942623
 30
0.0
 10
121.2475293569077
 20
305.27894116504
 30
0.0
 10
121.2701517286718
 20
305.2637659265116
 30
0.0
 10
121.2913755842779
 20
305.2467360776409
 30
0.0
 10
121.3113609396386
 20
305.2282977787916
 30
0.0
 10
121.3364774434729
 20
305.2022152766103
 30
0.0
 10
121.3654100406808
 20
305.1673493270639
 30
0.0
 10
121.3967786338285
 20
305.1230060435953
 30
0.0
 10
121.4256017848404
 20
305.0769815665945
 30
0.0
 10
121.452218664326
 20
305.0296720020004
 30
0.0
 10
121.4770293943583
 20
304.9814010591265
 30
0.0
 10
121.5002565699652
 20
304.9323507287616
 30
0.0
 10
121.5221392065045
 20
304.8826876913256
 30
0.0
 10
121.5496837742638
 20
304.81578470899
 30
0.0
 10
121.5816556539395
 20
304.7311567032596
 30
0.0
 10
121.6043262615924
 20
304.6624489983138
 30
0.0
 10
121.6156616533
 20
304.6280948795
 30
0.0
 11
121.144126506
 21
305.3094399995
 31
0.0
 11
121.171246397084
 21
305.3072593775081
 31
0.0
 11
121.1978096933973
 21
305.3010372590227
 31
0.0
 11
121.2232335502924
 21
305.2912698259241
 31
0.0
 11
121.247297909442
 21
305.2785456803693
 31
0.0
 11
121.2699199126728
 21
305.2634558704244
 31
0.0
 11
121.291179544548
 21
305.2464923854062
 31
0.0
 11
121.3111735550216
 21
305.2281066283263
 31
0.0
 11
121.3300447676302
 21
305.2085735636669
 31
0.0
 11
121.3648427335343
 21
305.1669436244789
 31
0.0
 11
121.3963594160921
 21
305.1227181137758
 31
0.0
 11
121.4252386098192
 21
305.0767598282702
 31
0.0
 11
121.4519173807333
 21
305.0295123030606
 31
0.0
 11
121.4767648919048
 21
304.9812723129636
 31
0.0
 11
121.5000330912291
 21
304.9322472686216
 31
0.0
 11
121.5219352975629
 21
304.8826016925329
 31
0.0
 11
121.5426344817879
 21
304.8324419137717
 31
0.0
 11
121.580928829314
 21
304.7309056781857
 31
0.0
 11
121.6156616533
 21
304.6280948795
 31
0.0
  0
SPLINE
  5
10A
330
1F
100
AcDbEntity
  8
0
  6
Continuous
 62
     7
100
AcDbSpline
210
0.0
220
0.0
230
1.0
 70
     8
 71
     3
 72
    25
 73
    21
 74
    19
 42
0.0000000001
 43
0.0000000001
 44
0.00000001
 40
0.0
 40
0.0
 40
0.0
 40
0.0
 40
0.1085025556844868
 40
0.2170033620505762
 40
0.2712583157975977
 40
0.3255127643024081
 40
0.379771917921694
 40
0.4340272286554773
 40
0.4882788892801317
 40
0.5425511686315918
 40
0.5968541105456355
 40
0.6511051290604495
 40
0.6782579265035754
 40
0.7054161158499289
 40
0.7326228693298125
 40
0.7598194768360997
 40
0.7870692643102605
 40
0.8143404776110246
 40
0.8416356458558046
 40
0.8688504929747981
 40
0.8688504929747981
 40
0.8688504929747981
 40
0.8688504929747981
 10
118.3475913588
 20
304.6280948795
 30
0.0
 10
118.3589250093251
 20
304.6624437093505
 30
0.0
 10
118.38159212765
 20
304.731140815267
 30
0.0
 10
118.4135588520293
 20
304.815756005989
 30
0.0
 10
118.4410987362696
 20
304.8826492068449
 30
0.0
 10
118.4629773564521
 20
304.9323055714279
 30
0.0
 10
118.4861995200341
 20
304.9813497360462
 30
0.0
 10
118.5110051537947
 20
305.0296146526962
 30
0.0
 10
118.5376179866844
 20
305.0769180609641
 30
0.0
 10
118.5664330579751
 20
305.1229404079838
 30
0.0
 10
118.597783575126
 20
305.1672892869724
 30
0.0
 10
118.6267084106814
 20
305.2021549281952
 30
0.0
 10
118.651830391194
 20
305.228223691705
 30
0.0
 10
118.6718128319236
 20
305.246662890656
 30
0.0
 10
118.6930146849934
 20
305.2637235416881
 30
0.0
 10
118.7156342311509
 20
305.2789299328439
 30
0.0
 10
118.7397410672921
 20
305.2917514118875
 30
0.0
 10
118.7652507196189
 20
305.301536200994
 30
0.0
 10
118.7918623538483
 20
305.3081104086954
 30
0.0
 10
118.8100473872338
 20
305.3089972381495
 30
0.0
 10
118.819126506
 20
305.3094399995
 30
0.0
 11
118.3475913588
 21
304.6280948795
 31
0.0
 11
118.3823187904367
 21
304.7308898700491
 31
0.0
 11
118.4206068297667
 21
304.8324105626509
 31
0.0
 11
118.4413025173459
 21
304.8825632148411
 31
0.0
 11
118.4632006225468
 21
304.9322020924591
 31
0.0
 11
118.4864640740179
 21
304.9812211456643
 31
0.0
 11
118.5113065620367
 21
305.029454842722
 31
0.0
 11
118.5379801266233
 21
305.0766963883443
 31
0.0
 11
118.566850081208
 21
305.1226529551033
 31
0.0
 11
118.598353227615
 21
305.1668837279541
 31
0.0
 11
118.6331445439794
 21
305.2085098893857
 31
0.0
 11
118.6520154368367
 21
305.2280333063959
 31
0.0
 11
118.6720019783363
 21
305.2464209491882
 31
0.0
 11
118.6932495858735
 21
305.2634134948734
 31
0.0
 11
118.7158637829917
 21
305.2785215572425
 31
0.0
 11
118.7399634265461
 21
305.2912399729433
 31
0.0
 11
118.7654287220408
 21
305.3009989585598
 31
0.0
 11
118.7920006851361
 21
305.3072405117936
 31
0.0
 11
118.819126506
 21
305.3094399995
 31
0.0
  0
SPLINE
  5
10B
330
1F
100
AcDbEntity
  8
0
  6
Continuous
 62
     7
100
AcDbSpline
210
0.0
220
0.0
230
1.0
 70
     8
 71
     3
 72
    27
 73
    23
 74
    21
 42
0.0000000001
 43
0.0000000001
 44
0.00000001
 40
0.0
 40
0.0
 40
0.0
 40
0.0
 40
0.0730306819962959
 40
0.1460817688472907
 40
0.2142068182787583
 40
0.2823160953907874
 40
0.3442738268991189
 40
0.4062919405942433
 40
0.4617913416795987
 40
0.5170559905369619
 40
0.5428520623207302
 40
0.5686432246551913
 40
0.593986760258672
 40
0.6193292498039934
 40
0.6451121206617421
 40
0.6708991015162226
 40
0.6979696845543301
 40
0.7250453874537337
 40
0.7848430773613788
 40
0.8448837205933718
 40
0.9129318640912696
 40
0.9808740945976612
 40
0.9808740945976612
 40
0.9808740945976612
 40
0.9808740945976612
 10
77.769697237
 20
302.5096371735
 30
0.0
 10
77.7498648627494
 20
302.4955118393637
 30
0.0
 10
77.71019457306048
 20
302.4672572244568
 30
0.0
 10
77.64942656295293
 20
302.4296653464819
 30
0.0
 10
77.58805929449855
 20
302.3963974450673
 30
0.0
 10
77.5277379545933
 20
302.3692777970161
 30
0.0
 10
77.46724810408956
 20
302.3480125968849
 30
0.0
 10
77.4088047252843
 20
302.3344963888247
 30
0.0
 10
77.35129814161382
 20
302.3289849880546
 30
0.0
 10
77.30557914509129
 20
302.3321528927753
 30
0.0
 10
77.27080398832052
 20
302.3401137499781
 30
0.0
 10
77.24651156110701
 20
302.3485013135347
 30
0.0
 10
77.22349317573581
 20
302.3595891982513
 30
0.0
 10
77.20192213014363
 20
302.3732818061458
 30
0.0
 10
77.18204879402128
 20
302.389575322646
 30
0.0
 10
77.16377925167404
 20
302.4084494292016
 30
0.0
 10
77.1474776806144
 20
302.4295945396354
 30
0.0
 10
77.12745717266152
 20
302.4619322412678
 30
0.0
 10
77.10788995248299
 20
302.5071529987197
 30
0.0
 10
77.09214742042525
 20
302.5679174583411
 30
0.0
 10
77.08303051334117
 20
302.6328054924423
 30
0.0
 10
77.08209426538863
 20
302.6781542622314
 30
0.0
 10
77.081626506
 20
302.7008109877
 30
0.0
 11
77.769697237
 21
302.5096371735
 31
0.0
 11
77.70975738105534
 21
302.4679155462285
 31
0.0
 11
77.64766870344356
 21
302.4294258410786
 31
0.0
 11
77.58767533470255
 21
302.3971486344593
 31
0.0
 11
77.52548928260413
 21
302.36936791177
 31
0.0
 11
77.46693509238435
 21
302.3491153242474
 31
0.0
 11
77.40644660734769
 21
302.3354262919853
 31
0.0
 11
77.35116541714075
 21
302.3305096335533
 31
0.0
 11
77.29606519732225
 21
302.3347695853465
 31
0.0
 11
77.27092728125272
 21
302.3405594467572
 31
0.0
 11
77.24656256105195
 21
302.3490178428286
 31
0.0
 11
77.22373229298228
 21
302.3600211903534
 31
0.0
 11
77.20234407506832
 21
302.3736147885091
 31
0.0
 11
77.18238593495721
 21
302.3899374437151
 31
0.0
 11
77.16443445657441
 21
302.4084499477451
 31
0.0
 11
77.14786085647403
 21
302.4298539717998
 31
0.0
 11
77.13356536669565
 21
302.4528481593152
 31
0.0
 11
77.1093963422577
 21
302.5075438810493
 31
0.0
 11
77.09386754165492
 21
302.5655415981729
 31
0.0
 11
77.08437476684429
 21
302.6329243634761
 31
0.0
 11
77.081626506
 21
302.7008109877
 31
0.0
  0
SPLINE
  5
10C
330
1F
100
AcDbEntity
  8
0
  6
Continuous
 62
     7
100
AcDbSpline
210
0.0
220
0.0
230
1.0
 70
     8
 71
     3
 72
    13
 73
     9
 74
     7
 42
0.0000000001
 43
0.0000000001
 44
0.00000001
 40
0.0
 40
0.0
 40
0.0
 40
0.0
 40
0.1312848068297716
 40
0.2626131915295695
 40
0.3227000711484002
 40
0.3827285903612881
 40
0.4404671082546642
 40
0.4981359434527846
 40
0.4981359434527846
 40
0.4981359434527846
 40
0.4981359434527846
 10
118.3475913588
 20
315.8630948795
 30
0.0
 10
118.3122665464705
 20
315.8891243267063
 30
0.0
 10
118.2416051963108
 20
315.9411918611735
 30
0.0
 10
118.1720984360038
 20
316.0248673629344
 30
0.0
 10
118.1288413067641
 20
316.0967600713509
 30
0.0
 10
118.1041205430094
 20
316.1507673285637
 30
0.0
 10
118.0852796719085
 20
316.2063159767839
 30
0.0
 10
118.0782287368567
 20
316.2441761985663
 30
0.0
 10
118.074705398
 20
316.2630948795
 30
0.0
 11
118.3475913588
 21
315.8630948795
 31
0.0
 11
118.2451399462636
 21
315.9451887804527
 31
0.0
 11
118.1606601799114
 21
316.0457388361709
 31
0.0
 11
118.1298243910252
 21
316.0973100221772
 31
0.0
 11
118.1047691423165
 21
316.1518596109111
 31
0.0
 11
118.086609600769
 21
316.2066680728427
 31
0.0
 11
118.074705398
 21
316.2630948795
 31
0.0
  0
SPLINE
  5
10D
330
1F
100
AcDbEntity
  8
0
  6
Continuous
 62
     7
100
AcDbSpline
210
0.0
220
0.0
230
1.0
 70
     8
 71
     3
 72
    13
 73
     9
 74
     7
 42
0.0000000001
 43
0.0000000001
 44
0.00000001
 40
0.0
 40
0.0
 40
0.0
 40
0.0
 40
0.0576631896509718
 40
0.1153961315071502
 40
0.1754242231518869
 40
0.2355105400445502
 40
0.3668449112209787
 40
0.4981360904229075
 40
0.4981360904229075
 40
0.4981360904229075
 40
0.4981360904229075
 10
121.888547614
 20
316.2630948795
 30
0.0
 10
121.8850245762646
 20
316.2441780592915
 30
0.0
 10
121.8779742391558
 20
316.2063215361669
 30
0.0
 10
121.8591350245249
 20
316.1507764999021
 30
0.0
 10
121.8344171166877
 20
316.0967703909208
 30
0.0
 10
121.7911619673169
 20
316.0248745079219
 30
0.0
 10
121.7216531171645
 20
315.9411952058121
 30
0.0
 10
121.650988267356
 20
315.8891254671028
 30
0.0
 10
121.6156616533
 20
315.8630948795
 30
0.0
 11
121.888547614
 21
316.2630948795
 31
0.0
 11
121.8766445345663
 21
316.2066736056689
 31
0.0
 11
121.8584873438527
 21
316.1518702389771
 31
0.0
 11
121.8334340299233
 21
316.0973202321241
 31
0.0
 11
121.8026003974239
 21
316.0457484124489
 31
0.0
 11
121.7181181595458
 21
315.9451926143295
 31
0.0
 11
121.6156616533
 21
315.8630948795
 31
0.0
  0
SPLINE
  5
10E
330
1F
100
AcDbEntity
  8
0
  6
Continuous
 62
     7
100
AcDbSpline
210
0.0
220
0.0
230
1.0
 70
     8
 71
     3
 72
    11
 73
     7
 74
     5
 42
0.0000000001
 43
0.0000000001
 44
0.00000001
 40
0.0
 40
0.0
 40
0.0
 40
0.0
 40
0.1068456601645113
 40
0.214257194530758
 40
0.3333679116689812
 40
0.4521343115567302
 40
0.4521343115567302
 40
0.4521343115567302
 40
0.4521343115567302
 10
118.08364132822
 20
304.273101134794
 30
0.0
 10
118.0943275768078
 20
304.3072098260615
 30
0.0
 10
118.115756670315
 20
304.3756078544782
 30
0.0
 10
118.1747555058943
 20
304.4708612401379
 30
0.0
 10
118.2511714465298
 20
304.5579997315655
 30
0.0
 10
118.3154824171966
 20
304.6047523876981
 30
0.0
 10
118.3475913588
 20
304.6280948795
 30
0.0
 11
118.08364132822
 21
304.273101134794
 31
0.0
 11
118.1198007642101
 21
304.3736421228778
 31
0.0
 11
118.1749429334458
 21
304.4658190119927
 31
0.0
 11
118.2541726745177
 21
304.5547572549866
 31
0.0
 11
118.3475913588
 21
304.6280948795
 31
0.0
  0
SPLINE
  5
10F
330
1F
100
AcDbEntity
  8
0
  6
Continuous
 62
     7
100
AcDbSpline
210
0.0
220
0.0
230
1.0
 70
     8
 71
     3
 72
    13
 73
     9
 74
     7
 42
0.0000000001
 43
0.0000000001
 44
0.00000001
 40
0.0
 40
0.0
 40
0.0
 40
0.0
 40
0.1312911943314483
 40
0.2626255805391597
 40
0.3227118842560718
 40
0.3827399627618192
 40
0.4404729026377442
 40
0.4981360903238645
 40
0.4981360903238645
 40
0.4981360903238645
 40
0.4981360903238645
 10
121.6156616533
 20
304.6280948795
 30
0.0
 10
121.6509882712968
 20
304.602064288678
 30
0.0
 10
121.7216531289603
 20
304.5499945435498
 30
0.0
 10
121.7911619799722
 20
304.4663152342441
 30
0.0
 10
121.8344171243473
 20
304.394419352708
 30
0.0
 10
121.8591350271465
 20
304.3404132518684
 30
0.0
 10
121.8779742395936
 20
304.2848682209035
 30
0.0
 10
121.8850245764103
 20
304.2470116990668
 30
0.0
 10
121.888547614
 20
304.2280948795
 30
0.0
 11
121.6156616533
 21
304.6280948795
 31
0.0
 11
121.7181181704565
 21
304.5459971340917
 31
0.0
 11
121.8026004143671
 21
304.4454413214084
 31
0.0
 11
121.8334340379721
 21
304.3938695117665
 31
0.0
 11
121.8584873453376
 21
304.3393195163572
 31
0.0
 11
121.8766445350931
 21
304.2845161514341
 31
0.0
 11
121.888547614
 21
304.2280948795
 31
0.0
  0
SPLINE
  5
110
330
1F
100
AcDbEntity
  8
0
  6
Continuous
 62
     7
100
AcDbSpline
210
0.0
220
0.0
230
1.0
 70
     8
 71
     3
 72
    11
 73
     7
 74
     5
 42
0.0000000001
 43
0.0000000001
 44
0.00000001
 40
0.0
 40
0.0
 40
0.0
 40
0.0
 40
0.0719820116836954
 40
0.1441794862812051
 40
0.2163078795669787
 40
0.2883301028958457
 40
0.2883301028958457
 40
0.2883301028958457
 40
0.2883301028958457
 10
78.0315892637
 20
302.3970823335
 30
0.0
 10
78.0078624304986
 20
302.4009855206784
 30
0.0
 10
77.96033774284345
 20
302.4088035783999
 30
0.0
 10
77.89247107463298
 20
302.4342373022258
 30
0.0
 10
77.82823425731362
 20
302.4674648324011
 30
0.0
 10
77.7891999939196
 20
302.4955866305654
 30
0.0
 10
77.769697237
 20
302.5096371735
 30
0.0
 11
78.0315892637
 21
302.3970823335
 31
0.0
 11
77.9609791371552
 21
302.4110687567511
 31
0.0
 11
77.89305745474132
 21
302.4355456927589
 31
0.0
 11
77.82914564625108
 21
302.4689789973143
 31
0.0
 11
77.769697237
 21
302.5096371735
 31
0.0
  0
SPLINE
  5
111
330
1F
100
AcDbEntity
  8
0
  6
Continuous
 62
     7
100
AcDbSpline
210
0.0
220
0.0
230
1.0
 70
     8
 71
     3
 72
    11
 73
     7
 74
     5
 42
0.0000000001
 43
0.0000000001
 44
0.00000001
 40
0.0
 40
0.0
 40
0.0
 40
0.0
 40
0.4419689633842147
 40
0.883902053855858
 40
1.150518561878979
 40
1.416734593058768
 40
1.416734593058768
 40
1.416734593058768
 40
1.416734593058768
 10
77.8181167159
 20
302.5955948795
 30
0.0
 10
77.88681681602831
 20
302.7261191236926
 30
0.0
 10
78.02421144016334
 20
302.9871570179293
 30
0.0
 10
78.14913761173949
 20
303.3513260494906
 30
0.0
 10
78.21917397712576
 20
303.6697117803564
 30
0.0
 10
78.2274777434117
 20
303.847438533251
 30
0.0
 10
78.231626506
 20
303.93623512
 30
0.0
 11
77.8181167159
 21
302.5955948795
 31
0.0
 11
78.01386159149601
 21
302.9918530128838
 31
0.0
 11
78.15804881228937
 21
303.4096028205603
 31
0.0
 11
78.21169649204344
 21
303.6707661579709
 31
0.0
 11
78.231626506
 21
303.93623512
 31
0.0
  0
SPLINE
  5
112
330
1F
100
AcDbEntity
  8
0
  6
Continuous
 62
     7
100
AcDbSpline
210
0.0
220
0.0
230
1.0
 70
     8
 71
     3
 72
    11
 73
     7
 74
     5
 42
0.0000000001
 43
0.0000000001
 44
0.00000001
 40
0.0
 40
0.0
 40
0.0
 40
0.0
 40
0.3847579053301845
 40
0.7696659746337575
 40
1.093183244053876
 40
1.416570809308368
 40
1.416570809308368
 40
1.416570809308368
 40
1.416570809308368
 10
78.231626506
 20
316.554954639
 30
0.0
 10
78.22299846821375
 20
316.6833012113171
 30
0.0
 10
78.20573902527595
 20
316.9400444472713
 30
0.0
 10
78.09989110728921
 20
317.2911387257844
 30
0.0
 10
77.97111296241152
 20
317.6103313922065
 30
0.0
 10
77.86910864746213
 20
317.8005197612999
 30
0.0
 10
77.8181167159
 20
317.8955948795
 30
0.0
 11
78.231626506
 21
316.554954639
 31
0.0
 11
78.19143203272016
 21
316.9376072883203
 31
0.0
 11
78.08809494352897
 21
317.3083844017085
 31
0.0
 11
77.96577823173035
 21
317.6078873994027
 31
0.0
 11
77.8181167159
 21
317.8955948795
 31
0.0
  0
DIMENSION
  5
11D
330
1F
100
AcDbEntity
  8
1
100
AcDbDimension
  2
*D2
 10
197.472573529677
 20
315.2455948795
 30
0.0
 11
193.722573529677
 21
310.181842344443
 31
0.0
 70
    32
  1
<>
 71
     5
 42
-1.0
 53
90.0
  3
ME10_DIM_10
100
AcDbAlignedDimension
 13
186.981626506
 23
305.2455948795
 33
0.0
 14
186.981626506
 24
315.2455948795
 34
0.0
 50
90.0
100
AcDbRotatedDimension
  0
DIMENSION
  5
128
330
1F
100
AcDbEntity
  8
1
100
AcDbDimension
  2
*D3
 10
206.523132543636
 20
322.2455948794619
 30
0.0
 11
202.773132543636
 21
310.833482593448
 31
0.0
 70
    32
  1
<>
 71
     5
 42
-1.0
 53
90.0
  3
ME10_DIM_11
100
AcDbAlignedDimension
 13
186.981626506
 23
298.2455948795417
 33
0.0
 14
186.981626506
 24
322.2455948794619
 34
0.0
 50
90.0
100
AcDbRotatedDimension
  0
DIMENSION
  5
133
330
1F
100
AcDbEntity
  8
1
100
AcDbDimension
  2
*D4
 10
214.198006587473
 20
326.2455948795
 30
0.0
 11
210.448006587473
 21
310.688673649225
 31
0.0
 70
    32
  1
<>
 71
     5
 42
-1.0
 53
90.0
  3
ME10_DIM_12
100
AcDbAlignedDimension
 13
136.1568075613
 23
294.2455948795
 33
0.0
 14
136.1568075613
 24
326.2455948795
 34
0.0
 50
90.0
100
AcDbRotatedDimension
  0
DIMENSION
  5
13E
330
1F
100
AcDbEntity
  8
1
100
AcDbDimension
  2
*D5
 10
186.981626506
 20
342.515409932602
 30
0.0
 11
157.930193471943
 21
346.265409932602
 31
0.0
 70
    32
  1
<>
 71
     5
 42
-1.0
 53
0.00013888888889
  3
ME10_DIM_13
100
AcDbAlignedDimension
 13
127.931626506
 23
335.245544861
 33
0.0
 14
186.981626506
 24
321.3212043879
 34
0.0
100
AcDbRotatedDimension
  0
DIMENSION
  5
149
330
1F
100
AcDbEntity
  8
1
100
AcDbDimension
  2
*D6
 10
186.981626506
 20
349.570324631512
 30
0.0
 11
144.392384184846
 21
353.320324631512
 31
0.0
 70
    32
  1
<>
 71
     5
 42
-1.0
 53
0.00013888888889
  3
ME10_DIM_14
100
AcDbAlignedDimension
 13
101.981626506
 23
335.2455948795
 33
0.0
 14
186.981626506
 24
321.3212043879
 34
0.0
100
AcDbRotatedDimension
  0
DIMENSION
  5
154
330
1F
100
AcDbEntity
  8
1
100
AcDbDimension
  2
*D7
 10
186.981626506
 20
356.625239330422
 30
0.0
 11
132.761308600157
 21
360.375239330422
 31
0.0
 70
    32
  1
<>
 71
     5
 42
-1.0
 53
0.00013888888889
  3
ME10_DIM_15
100
AcDbAlignedDimension
 13
77.081626506
 23
327.3019506607
 33
0.0
 14
186.981626506
 24
321.3212043879
 34
0.0
100
AcDbRotatedDimension
  0
INSERT
  5
15B
330
1F
100
AcDbEntity
  8
1
100
AcDbBlockReference
  2
*D8
 10
0.0
 20
0.0
 30
0.0
  0
DIMENSION
  5
166
330
1F
100
AcDbEntity
  8
1
100
AcDbDimension
  2
*D9
 10
168.9403065381064
 20
324.9575276966255
 30
0.0
 11
172.1045506583966
 21
332.9018054163667
 31
0.0
 70
    37
  1
<>
 71
     5
 42
-1.0
  3
ME10_DIM_16
100
AcDb3PointAngularDimension
 13
168.8644623682088
 23
323.6714466199861
 33
0.0
 14
139.4376868980478
 24
326.2455948795
 34
0.0
 15
136.1568075613
 25
326.2455948795
 35
0.0
  0
ENDSEC
  0
SECTION
  2
OBJECTS
  0
DICTIONARY
  5
C
330
0
100
AcDbDictionary
281
     1
  3
ACAD_GROUP
350
D
  3
ACAD_LAYOUT
350
1A
  3
ACAD_MLEADERSTYLE
350
169
  3
ACAD_MLINESTYLE
350
17
  3
ACAD_PLOTSETTINGS
350
19
  3
ACAD_PLOTSTYLENAME
350
E
  3
ACAD_SCALELIST
350
4C
  3
ACAD_VISUALSTYLE
350
2A
  3
AcDbVariableDictionary
350
167
  0
DICTIONARY
  5
D
102
{ACAD_REACTORS
330
C
102
}
330
C
100
AcDbDictionary
281
     1
  0
DICTIONARY
  5
1A
102
{ACAD_REACTORS
330
C
102
}
330
C
100
AcDbDictionary
281
     1
  3
Layout1
350
1E
  3
Layout2
350
26
  3
Model
350
22
  0
DICTIONARY
  5
169
102
{ACAD_REACTORS
330
C
102
}
330
C
100
AcDbDictionary
281
     1
  0
DICTIONARY
  5
17
102
{ACAD_REACTORS
330
C
102
}
330
C
100
AcDbDictionary
281
     1
  3
Standard
350
18
  0
DICTIONARY
  5
19
102
{ACAD_REACTORS
330
C
102
}
330
C
100
AcDbDictionary
281
     1
  0
ACDBDICTIONARYWDFLT
  5
E
102
{ACAD_REACTORS
330
C
102
}
330
C
100
AcDbDictionary
281
     1
  3
Normal
350
F
100
AcDbDictionaryWithDefault
340
F
  0
DICTIONARY
  5
4C
102
{ACAD_REACTORS
330
C
102
}
330
C
100
AcDbDictionary
281
     1
  3
A0
350
4D
  3
A1
350
4E
  3
A2
350
4F
  3
A3
350
50
  3
A4
350
51
  3
A5
350
52
  3
A6
350
53
  3
A7
350
54
  3
A8
350
55
  3
A9
350
56
  3
B0
350
57
  3
B1
350
58
  3
B2
350
59
  3
B3
350
5A
  3
B4
350
5B
  3
B5
350
5C
  3
B6
350
5D
  3
B7
350
5E
  3
B8
350
5F
  3
B9
350
60
  3
C0
350
61
  3
C1
350
62
  3
C2
350
63
  3
C3
350
64
  3
C4
350
65
  3
C5
350
66
  3
C6
350
67
  3
C7
350
68
  3
C8
350
69
  3
C9
350
6A
  3
D0
350
6B
  3
D1
350
6C
  3
D2
350
6D
  0
DICTIONARY
  5
2A
102
{ACAD_REACTORS
330
C
102
}
330
C
100
AcDbDictionary
281
     1
  3
2dWireframe
350
2F
  3
3D Hidden
350
31
  3
3dWireframe
350
30
  3
Basic
350
32
  3
Brighten
350
36
  3
ColorChange
350
3A
  3
Conceptual
350
34
  3
Dim
350
35
  3
Facepattern
350
39
  3
Flat
350
2B
  3
FlatWithEdges
350
2C
  3
Gouraud
350
2D
  3
GouraudWithEdges
350
2E
  3
Linepattern
350
38
  3
Realistic
350
33
  3
Thicken
350
37
  0
DICTIONARY
  5
167
102
{ACAD_REACTORS
330
C
102
}
330
C
100
AcDbDictionary
281
     1
  3
CANNOSCALE
350
16A
  0
LAYOUT
  5
1E
102
{ACAD_REACTORS
330
1A
102
}
330
1A
100
AcDbPlotSettings
  1

  2
none_device
  4

  6

 40
0.0
 41
0.0
 42
0.0
 43
0.0
 44
0.0
 45
0.0
 46
0.0
 47
0.0
 48
0.0
 49
0.0
140
0.0
141
0.0
142
1.0
143
1.0
 70
   688
 72
     0
 73
     0
 74
     5
  7

 75
    16
147
1.0
148
0.0
149
0.0
100
AcDbLayout
  1
Layout1
 70
     1
 71
     1
 10
0.0
 20
0.0
 11
12.0
 21
9.0
 12
0.0
 22
0.0
 32
0.0
 14
1.00000000000000E+20
 24
1.00000000000000E+20
 34
1.00000000000000E+20
 15
-1.00000000000000E+20
 25
-1.00000000000000E+20
 35
-1.00000000000000E+20
146
0.0
 13
0.0
 23
0.0
 33
0.0
 16
1.0
 26
0.0
 36
0.0
 17
0.0
 27
1.0
 37
0.0
 76
     0
330
1B
  0
LAYOUT
  5
26
102
{ACAD_REACTORS
330
1A
102
}
330
1A
100
AcDbPlotSettings
  1

  2
none_device
  4

  6

 40
0.0
 41
0.0
 42
0.0
 43
0.0
 44
0.0
 45
0.0
 46
0.0
 47
0.0
 48
0.0
 49
0.0
140
0.0
141
0.0
142
1.0
143
1.0
 70
   688
 72
     0
 73
     0
 74
     5
  7

 75
    16
147
1.0
148
0.0
149
0.0
100
AcDbLayout
  1
Layout2
 70
     1
 71
     2
 10
0.0
 20
0.0
 11
0.0
 21
0.0
 12
0.0
 22
0.0
 32
0.0
 14
0.0
 24
0.0
 34
0.0
 15
0.0
 25
0.0
 35
0.0
146
0.0
 13
0.0
 23
0.0
 33
0.0
 16
1.0
 26
0.0
 36
0.0
 17
0.0
 27
1.0
 37
0.0
 76
     0
330
23
  0
LAYOUT
  5
22
102
{ACAD_REACTORS
330
1A
102
}
330
1A
100
AcDbPlotSettings
  1

  2
none_device
  4

  6

 40
0.0
 41
0.0
 42
0.0
 43
0.0
 44
0.0
 45
0.0
 46
0.0
 47
0.0
 48
0.0
 49
0.0
140
0.0
141
0.0
142
1.0
143
1.0
 70
  1712
 72
     0
 73
     0
 74
     0
  7

 75
     0
147
1.0
148
0.0
149
0.0
100
AcDbLayout
  1
Model
 70
     1
 71
     0
 10
0.0
 20
0.0
 11
12.0
 21
9.0
 12
0.0
 22
0.0
 32
0.0
 14
73.956626506
 24
268.6384276302727
 34
0.0
 15
216.198006587473
 25
362.125239330422
 35
0.0
146
0.0
 13
0.0
 23
0.0
 33
0.0
 16
1.0
 26
0.0
 36
0.0
 17
0.0
 27
1.0
 37
0.0
 76
     0
330
1F
331
29
  0
MLINESTYLE
  5
18
102
{ACAD_REACTORS
330
17
102
}
330
17
100
AcDbMlineStyle
  2
Standard
 70
     0
  3

 62
   256
 51
90.0
 52
90.0
 71
     2
 49
0.5
 62
   256
  6
BYLAYER
 49
-0.5
 62
   256
  6
BYLAYER
  0
ACDBPLACEHOLDER
  5
F
102
{ACAD_REACTORS
330
E
102
}
330
E
  0
SCALE
  5
4D
102
{ACAD_REACTORS
330
4C
102
}
330
4C
100
AcDbScale
 70
     0
300
1:1
140
1.0
141
1.0
290
     1
  0
SCALE
  5
4E
102
{ACAD_REACTORS
330
4C
102
}
330
4C
100
AcDbScale
 70
     0
300
1:2
140
1.0
141
2.0
290
     0
  0
SCALE
  5
4F
102
{ACAD_REACTORS
330
4C
102
}
330
4C
100
AcDbScale
 70
     0
300
1:4
140
1.0
141
4.0
290
     0
  0
SCALE
  5
50
102
{ACAD_REACTORS
330
4C
102
}
330
4C
100
AcDbScale
 70
     0
300
1:5
140
1.0
141
5.0
290
     0
  0
SCALE
  5
51
102
{ACAD_REACTORS
330
4C
102
}
330
4C
100
AcDbScale
 70
     0
300
1:8
140
1.0
141
8.0
290
     0
  0
SCALE
  5
52
102
{ACAD_REACTORS
330
4C
102
}
330
4C
100
AcDbScale
 70
     0
300
1:10
140
1.0
141
10.0
290
     0
  0
SCALE
  5
53
102
{ACAD_REACTORS
330
4C
102
}
330
4C
100
AcDbScale
 70
     0
300
1:16
140
1.0
141
16.0
290
     0
  0
SCALE
  5
54
102
{ACAD_REACTORS
330
4C
102
}
330
4C
100
AcDbScale
 70
     0
300
1:20
140
1.0
141
20.0
290
     0
  0
SCALE
  5
55
102
{ACAD_REACTORS
330
4C
102
}
330
4C
100
AcDbScale
 70
     0
300
1:30
140
1.0
141
30.0
290
     0
  0
SCALE
  5
56
102
{ACAD_REACTORS
330
4C
102
}
330
4C
100
AcDbScale
 70
     0
300
1:40
140
1.0
141
40.0
290
     0
  0
SCALE
  5
57
102
{ACAD_REACTORS
330
4C
102
}
330
4C
100
AcDbScale
 70
     0
300
1:50
140
1.0
141
50.0
290
     0
  0
SCALE
  5
58
102
{ACAD_REACTORS
330
4C
102
}
330
4C
100
AcDbScale
 70
     0
300
1:100
140
1.0
141
100.0
290
     0
  0
SCALE
  5
59
102
{ACAD_REACTORS
330
4C
102
}
330
4C
100
AcDbScale
 70
     0
300
2:1
140
2.0
141
1.0
290
     0
  0
SCALE
  5
5A
102
{ACAD_REACTORS
330
4C
102
}
330
4C
100
AcDbScale
 70
     0
300
4:1
140
4.0
141
1.0
290
     0
  0
SCALE
  5
5B
102
{ACAD_REACTORS
330
4C
102
}
330
4C
100
AcDbScale
 70
     0
300
8:1
140
8.0
141
1.0
290
     0
  0
SCALE
  5
5C
102
{ACAD_REACTORS
330
4C
102
}
330
4C
100
AcDbScale
 70
     0
300
10:1
140
10.0
141
1.0
290
     0
  0
SCALE
  5
5D
102
{ACAD_REACTORS
330
4C
102
}
330
4C
100
AcDbScale
 70
     0
300
100:1
140
100.0
141
1.0
290
     0
  0
SCALE
  5
5E
102
{ACAD_REACTORS
330
4C
102
}
330
4C
100
AcDbScale
 70
     0
300
1/128" = 1'-0"
140
0.0078125
141
12.0
290
     0
  0
SCALE
  5
5F
102
{ACAD_REACTORS
330
4C
102
}
330
4C
100
AcDbScale
 70
     0
300
1/64" = 1'-0"
140
0.015625
141
12.0
290
     0
  0
SCALE
  5
60
102
{ACAD_REACTORS
330
4C
102
}
330
4C
100
AcDbScale
 70
     0
300
1/32" = 1'-0"
140
0.03125
141
12.0
290
     0
  0
SCALE
  5
61
102
{ACAD_REACTORS
330
4C
102
}
330
4C
100
AcDbScale
 70
     0
300
1/16" = 1'-0"
140
0.0625
141
12.0
290
     0
  0
SCALE
  5
62
102
{ACAD_REACTORS
330
4C
102
}
330
4C
100
AcDbScale
 70
     0
300
3/32" = 1'-0"
140
0.09375
141
12.0
290
     0
  0
SCALE
  5
63
102
{ACAD_REACTORS
330
4C
102
}
330
4C
100
AcDbScale
 70
     0
300
1/8" = 1'-0"
140
0.125
141
12.0
290
     0
  0
SCALE
  5
64
102
{ACAD_REACTORS
330
4C
102
}
330
4C
100
AcDbScale
 70
     0
300
3/16" = 1'-0"
140
0.1875
141
12.0
290
     0
  0
SCALE
  5
65
102
{ACAD_REACTORS
330
4C
102
}
330
4C
100
AcDbScale
 70
     0
300
1/4" = 1'-0"
140
0.25
141
12.0
290
     0
  0
SCALE
  5
66
102
{ACAD_REACTORS
330
4C
102
}
330
4C
100
AcDbScale
 70
     0
300
3/8" = 1'-0"
140
0.375
141
12.0
290
     0
  0
SCALE
  5
67
102
{ACAD_REACTORS
330
4C
102
}
330
4C
100
AcDbScale
 70
     0
300
1/2" = 1'-0"
140
0.5
141
12.0
290
     0
  0
SCALE
  5
68
102
{ACAD_REACTORS
330
4C
102
}
330
4C
100
AcDbScale
 70
     0
300
3/4" = 1'-0"
140
0.75
141
12.0
290
     0
  0
SCALE
  5
69
102
{ACAD_REACTORS
330
4C
102
}
330
4C
100
AcDbScale
 70
     0
300
1" = 1'-0"
140
1.0
141
12.0
290
     0
  0
SCALE
  5
6A
102
{ACAD_REACTORS
330
4C
102
}
330
4C
100
AcDbScale
 70
     0
300
1-1/2" = 1'-0"
140
1.5
141
12.0
290
     0
  0
SCALE
  5
6B
102
{ACAD_REACTORS
330
4C
102
}
330
4C
100
AcDbScale
 70
     0
300
3" = 1'-0"
140
3.0
141
12.0
290
     0
  0
SCALE
  5
6C
102
{ACAD_REACTORS
330
4C
102
}
330
4C
100
AcDbScale
 70
     0
300
6" = 1'-0"
140
6.0
141
12.0
290
     0
  0
SCALE
  5
6D
102
{ACAD_REACTORS
330
4C
102
}
330
4C
100
AcDbScale
 70
     0
300
1'-0" = 1'-0"
140
12.0
141
12.0
290
     0
  0
VISUALSTYLE
  5
2F
102
{ACAD_REACTORS
330
2A
102
}
330
2A
100
AcDbVisualStyle
  2
2dWireframe
 70
     4
 71
     0
 72
     2
 73
     0
 90
        0
 40
-0.6
 41
-30.0
 62
     5
 63
     7
 74
     1
 91
        4
 64
     7
 65
   257
 75
     1
175
     1
 42
1.0
 92
        0
 66
   257
 43
1.0
 76
     1
 77
     6
 78
     2
 67
     7
 79
     5
170
     0
171
     0
290
     0
174
     0
 93
        1
 44
0.0
173
     0
291
     0
 45
0.0
1001
ACAD
1000
AcDbSavedByObjectVersion
1070
     0
  0
VISUALSTYLE
  5
31
102
{ACAD_REACTORS
330
2A
102
}
330
2A
100
AcDbVisualStyle
  2
3D Hidden
 70
     6
 71
     1
 72
     2
 73
     2
 90
        0
 40
-0.6
 41
-30.0
 62
     5
 63
     7
 74
     2
 91
        2
 64
     7
 65
   257
 75
     2
175
     1
 42
40.0
 92
        0
 66
   257
 43
1.0
 76
     1
 77
     6
 78
     2
 67
     7
 79
     3
170
     0
171
     0
290
     0
174
     0
 93
        1
 44
0.0
173
     0
291
     0
 45
0.0
1001
ACAD
1000
AcDbSavedByObjectVersion
1070
     0
  0
VISUALSTYLE
  5
30
102
{ACAD_REACTORS
330
2A
102
}
330
2A
100
AcDbVisualStyle
  2
3dWireframe
 70
     5
 71
     0
 72
     2
 73
     0
 90
        0
 40
-0.6
 41
-30.0
 62
     5
 63
     7
 74
     1
 91
        4
 64
     7
 65
   257
 75
     1
175
     1
 42
1.0
 92
        0
 66
   257
 43
1.0
 76
     1
 77
     6
 78
     2
 67
     7
 79
     5
170
     0
171
     0
290
     0
174
     0
 93
        1
 44
0.0
173
     0
291
     0
 45
0.0
1001
ACAD
1000
AcDbSavedByObjectVersion
1070
     0
  0
VISUALSTYLE
  5
32
102
{ACAD_REACTORS
330
2A
102
}
330
2A
100
AcDbVisualStyle
  2
Basic
 70
     7
 71
     1
 72
     0
 73
     1
 90
        0
 40
-0.6
 41
-30.0
 62
     5
 63
     7
 74
     0
 91
        4
 64
     7
 65
   257
 75
     1
175
     1
 42
1.0
 92
        8
 66
     7
 43
1.0
 76
     1
 77
     6
 78
     2
 67
     7
 79
     5
170
     0
171
     0
290
     0
174
     0
 93
        1
 44
0.0
173
     0
291
     1
 45
0.0
1001
ACAD
1000
AcDbSavedByObjectVersion
1070
     0
  0
VISUALSTYLE
  5
36
102
{ACAD_REACTORS
330
2A
102
}
330
2A
100
AcDbVisualStyle
  2
Brighten
 70
    12
 71
     2
 72
     2
 73
     0
 90
        0
 40
-0.6
 41
-30.0
 62
     5
 63
     7
 74
     1
 91
        4
 64
     7
 65
   257
 75
     1
175
     1
 42
1.0
 92
        8
 66
     7
 43
1.0
 76
     1
 77
     6
 78
     2
 67
     7
 79
     5
170
     0
171
     0
290
     0
174
     0
 93
        1
 44
50.0
173
     0
291
     1
 45
0.0
1001
ACAD
1000
AcDbSavedByObjectVersion
1070
     0
  0
VISUALSTYLE
  5
3A
102
{ACAD_REACTORS
330
2A
102
}
330
2A
100
AcDbVisualStyle
  2
ColorChange
 70
    16
 71
     2
 72
     2
 73
     3
 90
        0
 40
-0.6
 41
-30.0
 62
     5
 63
     8
 74
     1
 91
        4
 64
     7
 65
   257
 75
     1
175
     1
 42
1.0
 92
        8
 66
     8
 43
1.0
 76
     1
 77
     6
 78
     2
 67
     7
 79
     5
170
     0
171
     0
290
     0
174
     0
 93
        1
 44
0.0
173
     0
291
     1
 45
0.0
1001
ACAD
1000
AcDbSavedByObjectVersion
1070
     0
  0
VISUALSTYLE
  5
34
102
{ACAD_REACTORS
330
2A
102
}
330
2A
100
AcDbVisualStyle
  2
Conceptual
 70
     9
 71
     3
 72
     2
 73
     0
 90
        0
 40
-0.6
 41
-30.0
 62
     5
 63
     7
 74
     2
 91
        2
 64
     7
 65
   257
 75
     1
175
     1
 42
40.0
 92
        8
 66
     7
 43
1.0
 76
     1
 77
     6
 78
     2
 67
     7
 79
     3
170
     0
171
     0
290
     0
174
     0
 93
        1
 44
0.0
173
     0
291
     0
 45
0.0
1001
ACAD
1000
AcDbSavedByObjectVersion
1070
     0
  0
VISUALSTYLE
  5
35
102
{ACAD_REACTORS
330
2A
102
}
330
2A
100
AcDbVisualStyle
  2
Dim
 70
    11
 71
     2
 72
     2
 73
     0
 90
        0
 40
-0.6
 41
-30.0
 62
     5
 63
     7
 74
     1
 91
        4
 64
     7
 65
   257
 75
     1
175
     1
 42
1.0
 92
        8
 66
     7
 43
1.0
 76
     1
 77
     6
 78
     2
 67
     7
 79
     5
170
     0
171
     0
290
     0
174
     0
 93
        1
 44
-50.0
173
     0
291
     1
 45
0.0
1001
ACAD
1000
AcDbSavedByObjectVersion
1070
     0
  0
VISUALSTYLE
  5
39
102
{ACAD_REACTORS
330
2A
102
}
330
2A
100
AcDbVisualStyle
  2
Facepattern
 70
    15
 71
     2
 72
     2
 73
     0
 90
        0
 40
-0.6
 41
-30.0
 62
     5
 63
     7
 74
     1
 91
        4
 64
     7
 65
   257
 75
     1
175
     1
 42
1.0
 92
        8
 66
     7
 43
1.0
 76
     1
 77
     6
 78
     2
 67
     7
 79
     5
170
     0
171
     0
290
     0
174
     0
 93
        1
 44
0.0
173
     0
291
     1
 45
0.0
1001
ACAD
1000
AcDbSavedByObjectVersion
1070
     0
  0
VISUALSTYLE
  5
2B
102
{ACAD_REACTORS
330
2A
102
}
330
2A
100
AcDbVisualStyle
  2
Flat
 70
     0
 71
     2
 72
     1
 73
     1
 90
        2
 40
-0.6
 41
30.0
 62
     5
 63
     7
 74
     0
 91
        4
 64
     7
 65
   257
 75
     1
175
     1
 42
1.0
 92
        8
 66
     7
 43
1.0
 76
     1
 77
     6
 78
     2
 67
     7
 79
     5
170
     0
171
     0
290
     0
174
     0
 93
       13
 44
0.0
173
     0
291
     1
 45
0.0
1001
ACAD
1000
AcDbSavedByObjectVersion
1070
     0
  0
VISUALSTYLE
  5
2C
102
{ACAD_REACTORS
330
2A
102
}
330
2A
100
AcDbVisualStyle
  2
FlatWithEdges
 70
     1
 71
     2
 72
     1
 73
     1
 90
        2
 40
-0.6
 41
30.0
 62
     5
 63
     7
 74
     1
 91
        4
 64
     7
 65
   257
 75
     1
175
     1
 42
1.0
 92
        0
 66
   257
 43
1.0
 76
     1
 77
     6
 78
     2
 67
     7
 79
     5
170
     0
171
     0
290
     0
174
     0
 93
       13
 44
0.0
173
     0
291
     1
 45
0.0
1001
ACAD
1000
AcDbSavedByObjectVersion
1070
     0
  0
VISUALSTYLE
  5
2D
102
{ACAD_REACTORS
330
2A
102
}
330
2A
100
AcDbVisualStyle
  2
Gouraud
 70
     2
 71
     2
 72
     2
 73
     1
 90
        2
 40
-0.6
 41
30.0
 62
     5
 63
     7
 74
     0
 91
        4
 64
     7
 65
   257
 75
     1
175
     1
 42
1.0
 92
        0
 66
     7
 43
1.0
 76
     1
 77
     6
 78
     2
 67
     7
 79
     5
170
     0
171
     0
290
     0
174
     0
 93
       13
 44
0.0
173
     0
291
     1
 45
0.0
1001
ACAD
1000
AcDbSavedByObjectVersion
1070
     0
  0
VISUALSTYLE
  5
2E
102
{ACAD_REACTORS
330
2A
102
}
330
2A
100
AcDbVisualStyle
  2
GouraudWithEdges
 70
     3
 71
     2
 72
     2
 73
     1
 90
        2
 40
-0.6
 41
30.0
 62
     5
 63
     7
 74
     1
 91
        4
 64
     7
 65
   257
 75
     1
175
     1
 42
1.0
 92
        0
 66
   257
 43
1.0
 76
     1
 77
     6
 78
     2
 67
     7
 79
     5
170
     0
171
     0
290
     0
174
     0
 93
       13
 44
0.0
173
     0
291
     1
 45
0.0
1001
ACAD
1000
AcDbSavedByObjectVersion
1070
     0
  0
VISUALSTYLE
  5
38
102
{ACAD_REACTORS
330
2A
102
}
330
2A
100
AcDbVisualStyle
  2
Linepattern
 70
    14
 71
     2
 72
     2
 73
     0
 90
        0
 40
-0.6
 41
-30.0
 62
     5
 63
     7
 74
     1
 91
        4
 64
     7
 65
   257
 75
     7
175
     7
 42
1.0
 92
        8
 66
     7
 43
1.0
 76
     1
 77
     6
 78
     2
 67
     7
 79
     5
170
     0
171
     0
290
     0
174
     0
 93
        1
 44
0.0
173
     0
291
     1
 45
0.0
1001
ACAD
1000
AcDbSavedByObjectVersion
1070
     0
  0
VISUALSTYLE
  5
33
102
{ACAD_REACTORS
330
2A
102
}
330
2A
100
AcDbVisualStyle
  2
Realistic
 70
     8
 71
     2
 72
     2
 73
     0
 90
        0
 40
-0.6
 41
-30.0
 62
     5
 63
     7
 74
     1
 91
        0
 64
     7
 65
   257
 75
     1
175
     1
 42
1.0
 92
        8
 66
     8
 43
1.0
 76
     1
 77
     6
 78
     2
 67
     7
 79
     5
170
     0
171
     0
290
     0
174
     0
 93
       13
 44
0.0
173
     0
291
     0
 45
0.0
1001
ACAD
1000
AcDbSavedByObjectVersion
1070
     0
  0
VISUALSTYLE
  5
37
102
{ACAD_REACTORS
330
2A
102
}
330
2A
100
AcDbVisualStyle
  2
Thicken
 70
    13
 71
     2
 72
     2
 73
     0
 90
        0
 40
-0.6
 41
-30.0
 62
     5
 63
     7
 74
     1
 91
        4
 64
     7
 65
   257
 75
     1
175
     1
 42
1.0
 92
       12
 66
     7
 43
1.0
 76
     1
 77
     6
 78
     2
 67
     7
 79
     5
170
     0
171
     0
290
     0
174
     0
 93
        1
 44
0.0
173
     0
291
     1
 45
0.0
1001
ACAD
1000
AcDbSavedByObjectVersion
1070
     0
  0
DICTIONARYVAR
  5
16A
102
{ACAD_REACTORS
330
167
102
}
330
167
100
DictionaryVariables
280
     0
  1
1:1
  0
ENDSEC
  0
EOF
