  0
SECTION
  2
HEADER
  9
$ACADVER
  1
AC1015
  9
$ACADMAINTVER
 70
     6
  9
$DWGCODEPAGE
  3
ANSI_1252
  9
$INSBASE
 10
0.0
 20
0.0
 30
0.0
  9
$EXTMIN
 10
72.1336784639
 20
276.4745922488697
 30
0.0
  9
$EXTMAX
 10
211.718398256845
 20
370.277572824391
 30
0.0
  9
$LIMMIN
 10
0.0
 20
0.0
  9
$LIMMAX
 10
12.0
 20
9.0
  9
$ORTHOMODE
 70
     0
  9
$REGENMODE
 70
     1
  9
$FILLMODE
 70
     1
  9
$QTEXTMODE
 70
     0
  9
$MIRRTEXT
 70
     1
  9
$LTSCALE
 40
1.0
  9
$ATTMODE
 70
     1
  9
$TEXTSIZE
 40
0.2
  9
$TRACEWID
 40
0.05
  9
$TEXTSTYLE
  7
Standard
  9
$CLAYER
  8
0
  9
$CELTYPE
  6
ByLayer
  9
$CECOLOR
 62
   256
  9
$CELTSCALE
 40
1.0
  9
$DISPSILH
 70
     0
  9
$DIMSCALE
 40
1.0
  9
$DIMASZ
 40
0.18
  9
$DIMEXO
 40
0.0625
  9
$DIMDLI
 40
0.38
  9
$DIMRND
 40
0.0
  9
$DIMDLE
 40
0.0
  9
$DIMEXE
 40
0.18
  9
$DIMTP
 40
0.0
  9
$DIMTM
 40
0.0
  9
$DIMTXT
 40
0.18
  9
$DIMCEN
 40
0.09
  9
$DIMTSZ
 40
0.0
  9
$DIMTOL
 70
     0
  9
$DIMLIM
 70
     0
  9
$DIMTIH
 70
     1
  9
$DIMTOH
 70
     1
  9
$DIMSE1
 70
     0
  9
$DIMSE2
 70
     0
  9
$DIMTAD
 70
     0
  9
$DIMZIN
 70
     0
  9
$DIMBLK
  1

  9
$DIMASO
 70
     1
  9
$DIMSHO
 70
     1
  9
$DIMPOST
  1

  9
$DIMAPOST
  1

  9
$DIMALT
 70
     0
  9
$DIMALTD
 70
     2
  9
$DIMALTF
 40
25.4
  9
$DIMLFAC
 40
1.0
  9
$DIMTOFL
 70
     0
  9
$DIMTVP
 40
0.0
  9
$DIMTIX
 70
     0
  9
$DIMSOXD
 70
     0
  9
$DIMSAH
 70
     0
  9
$DIMBLK1
  1

  9
$DIMBLK2
  1

  9
$DIMSTYLE
  2
Standard
  9
$DIMCLRD
 70
     0
  9
$DIMCLRE
 70
     0
  9
$DIMCLRT
 70
     0
  9
$DIMTFAC
 40
1.0
  9
$DIMGAP
 40
0.09
  9
$DIMJUST
 70
     0
  9
$DIMSD1
 70
     0
  9
$DIMSD2
 70
     0
  9
$DIMTOLJ
 70
     1
  9
$DIMTZIN
 70
     0
  9
$DIMALTZ
 70
     0
  9
$DIMALTTZ
 70
     0
  9
$DIMUPT
 70
     0
  9
$DIMDEC
 70
     4
  9
$DIMTDEC
 70
     4
  9
$DIMALTU
 70
     2
  9
$DIMALTTD
 70
     2
  9
$DIMTXSTY
  7
Standard
  9
$DIMAUNIT
 70
     0
  9
$DIMADEC
 70
     0
  9
$DIMALTRND
 40
0.0
  9
$DIMAZIN
 70
     0
  9
$DIMDSEP
 70
    46
  9
$DIMATFIT
 70
     3
  9
$DIMFRAC
 70
     0
  9
$DIMLDRBLK
  1

  9
$DIMLUNIT
 70
     2
  9
$DIMLWD
 70
    -2
  9
$DIMLWE
 70
    -2
  9
$DIMTMOVE
 70
     0
  9
$LUNITS
 70
     2
  9
$LUPREC
 70
     4
  9
$SKETCHINC
 40
0.1
  9
$FILLETRAD
 40
0.5
  9
$AUNITS
 70
     0
  9
$AUPREC
 70
     0
  9
$MENU
  1
.
  9
$ELEVATION
 40
0.0
  9
$PELEVATION
 40
0.0
  9
$THICKNESS
 40
0.0
  9
$LIMCHECK
 70
     0
  9
$CHAMFERA
 40
0.5
  9
$CHAMFERB
 40
0.5
  9
$CHAMFERC
 40
1.0
  9
$CHAMFERD
 40
0.0
  9
$SKPOLY
 70
     0
  9
$TDCREATE
 40
2456749.745101389
  9
$TDUCREATE
 40
2456749.661768056
  9
$TDUPDATE
 40
2456749.745101401
  9
$TDUUPDATE
 40
2456749.661768067
  9
$TDINDWG
 40
0.0000000116
  9
$TDUSRTIMER
 40
0.0000000116
  9
$USRTIMER
 70
     1
  9
$ANGBASE
 50
0.0
  9
$ANGDIR
 70
     0
  9
$PDMODE
 70
     0
  9
$PDSIZE
 40
0.0
  9
$PLINEWID
 40
0.0
  9
$SPLFRAME
 70
     0
  9
$SPLINETYPE
 70
     6
  9
$SPLINESEGS
 70
     8
  9
$HANDSEED
  5
16A
  9
$SURFTAB1
 70
     6
  9
$SURFTAB2
 70
     6
  9
$SURFTYPE
 70
     6
  9
$SURFU
 70
     6
  9
$SURFV
 70
     6
  9
$UCSBASE
  2

  9
$UCSNAME
  2

  9
$UCSORG
 10
0.0
 20
0.0
 30
0.0
  9
$UCSXDIR
 10
1.0
 20
0.0
 30
0.0
  9
$UCSYDIR
 10
0.0
 20
1.0
 30
0.0
  9
$UCSORTHOREF
  2

  9
$UCSORTHOVIEW
 70
     0
  9
$UCSORGTOP
 10
0.0
 20
0.0
 30
0.0
  9
$UCSORGBOTTOM
 10
0.0
 20
0.0
 30
0.0
  9
$UCSORGLEFT
 10
0.0
 20
0.0
 30
0.0
  9
$UCSORGRIGHT
 10
0.0
 20
0.0
 30
0.0
  9
$UCSORGFRONT
 10
0.0
 20
0.0
 30
0.0
  9
$UCSORGBACK
 10
0.0
 20
0.0
 30
0.0
  9
$PUCSBASE
  2

  9
$PUCSNAME
  2

  9
$PUCSORG
 10
0.0
 20
0.0
 30
0.0
  9
$PUCSXDIR
 10
1.0
 20
0.0
 30
0.0
  9
$PUCSYDIR
 10
0.0
 20
1.0
 30
0.0
  9
$PUCSORTHOREF
  2

  9
$PUCSORTHOVIEW
 70
     0
  9
$PUCSORGTOP
 10
0.0
 20
0.0
 30
0.0
  9
$PUCSORGBOTTOM
 10
0.0
 20
0.0
 30
0.0
  9
$PUCSORGLEFT
 10
0.0
 20
0.0
 30
0.0
  9
$PUCSORGRIGHT
 10
0.0
 20
0.0
 30
0.0
  9
$PUCSORGFRONT
 10
0.0
 20
0.0
 30
0.0
  9
$PUCSORGBACK
 10
0.0
 20
0.0
 30
0.0
  9
$USERI1
 70
     0
  9
$USERI2
 70
     0
  9
$USERI3
 70
     0
  9
$USERI4
 70
     0
  9
$USERI5
 70
     0
  9
$USERR1
 40
16.5
  9
$USERR2
 40
0.0
  9
$USERR3
 40
0.0
  9
$USERR4
 40
0.0
  9
$USERR5
 40
0.0
  9
$WORLDVIEW
 70
     1
  9
$SHADEDGE
 70
     3
  9
$SHADEDIF
 70
    70
  9
$TILEMODE
 70
     1
  9
$MAXACTVP
 70
    64
  9
$PINSBASE
 10
0.0
 20
0.0
 30
0.0
  9
$PLIMCHECK
 70
     0
  9
$PEXTMIN
 10
1.00000000000000E+20
 20
1.00000000000000E+20
 30
1.00000000000000E+20
  9
$PEXTMAX
 10
-1.00000000000000E+20
 20
-1.00000000000000E+20
 30
-1.00000000000000E+20
  9
$PLIMMIN
 10
0.0
 20
0.0
  9
$PLIMMAX
 10
12.0
 20
9.0
  9
$UNITMODE
 70
     0
  9
$VISRETAIN
 70
     1
  9
$PLINEGEN
 70
     0
  9
$PSLTSCALE
 70
     1
  9
$TREEDEPTH
 70
  3020
  9
$CMLSTYLE
  2
Standard
  9
$CMLJUST
 70
     0
  9
$CMLSCALE
 40
1.0
  9
$PROXYGRAPHICS
 70
     1
  9
$MEASUREMENT
 70
     1
  9
$CELWEIGHT
370
    -1
  9
$ENDCAPS
280
     0
  9
$JOINSTYLE
280
     0
  9
$LWDISPLAY
290
     0
  9
$INSUNITS
 70
     1
  9
$HYPERLINKBASE
  1

  9
$STYLESHEET
  1

  9
$XEDIT
290
     1
  9
$CEPSNTYPE
380
     0
  9
$PSTYLEMODE
290
     1
  9
$FINGERPRINTGUID
  2
{0409362D-57BF-4B8E-98FB-35CC8EEE9B64}
  9
$VERSIONGUID
  2
{FAEB1C32-E019-11D5-929B-00C0DF256EC4}
  9
$EXTNAMES
290
     1
  9
$PSVPSCALE
 40
0.0
  9
$OLESTARTUP
290
     0
  0
ENDSEC
  0
SECTION
  2
CLASSES
  0
CLASS
  1
ACDBDICTIONARYWDFLT
  2
AcDbDictionaryWithDefault
  3
ObjectDBX Classes
 90
        0
280
     0
281
     0
  0
CLASS
  1
VISUALSTYLE
  2
AcDbVisualStyle
  3
ObjectDBX Classes
 90
     4095
280
     0
281
     0
  0
CLASS
  1
SCALE
  2
AcDbScale
  3
ObjectDBX Classes
 90
     1153
280
     0
281
     0
  0
CLASS
  1

  2
exOdDbPolyline
  3

 90
        0
280
     0
281
     1
  0
CLASS
  1

  2
exOdDbCircle
  3

 90
        0
280
     0
281
     1
  0
CLASS
  1

  2
exOdDbSpline
  3

 90
        0
280
     0
281
     1
  0
CLASS
  1
DICTIONARYVAR
  2
AcDbDictionaryVar
  3
ObjectDBX Classes
 90
        0
280
     0
281
     0
  0
CLASS
  1
ACDBPLACEHOLDER
  2
AcDbPlaceHolder
  3
ObjectDBX Classes
 90
        0
280
     0
281
     0
  0
CLASS
  1
LAYOUT
  2
AcDbLayout
  3
ObjectDBX Classes
 90
        0
280
     0
281
     0
  0
ENDSEC
  0
SECTION
  2
TABLES
  0
TABLE
  2
VPORT
  5
8
330
0
100
AcDbSymbolTable
 70
     1
  0
VPORT
  5
29
330
8
100
AcDbSymbolTableRecord
100
AcDbViewportTableRecord
  2
*Active
 70
     0
 10
0.0
 20
0.0
 11
1.0
 21
1.0
 12
141.9260383603725
 22
323.3760825366303
 13
0.0
 23
0.0
 14
0.5
 24
0.5
 15
0.5
 25
0.5
 16
0.0
 26
0.0
 36
1.0
 17
0.0
 27
0.0
 37
0.0
 40
103.1832786330734
 41
1.60267857142857
 42
50.0
 43
0.0
 44
0.0
 50
0.0
 51
0.0
 71
     0
 72
   100
 73
     1
 74
     3
 75
     0
 76
     0
 77
     0
 78
     0
281
     0
 65
     1
110
0.0
120
0.0
130
0.0
111
1.0
121
0.0
131
0.0
112
0.0
122
1.0
132
0.0
 79
     0
146
0.0
  0
ENDTAB
  0
TABLE
  2
LTYPE
  5
5
330
0
100
AcDbSymbolTable
 70
     8
  0
LTYPE
  5
14
330
5
100
AcDbSymbolTableRecord
100
AcDbLinetypeTableRecord
  2
ByBlock
 70
     0
  3

 72
    65
 73
     0
 40
0.0
  0
LTYPE
  5
15
330
5
100
AcDbSymbolTableRecord
100
AcDbLinetypeTableRecord
  2
ByLayer
 70
     0
  3

 72
    65
 73
     0
 40
0.0
  0
LTYPE
  5
16
330
5
100
AcDbSymbolTableRecord
100
AcDbLinetypeTableRecord
  2
Continuous
 70
     0
  3
Solid line
 72
    65
 73
     0
 40
0.0
  0
LTYPE
  5
3B
330
5
100
AcDbSymbolTableRecord
100
AcDbLinetypeTableRecord
  2
DASHED
 70
     0
  3
Dashed
 72
    65
 73
     2
 40
15.0
 49
7.0
 74
     0
 49
-8.0
 74
     0
  0
LTYPE
  5
3C
330
5
100
AcDbSymbolTableRecord
100
AcDbLinetypeTableRecord
  2
DOTTED
 70
     0
  3
Dotted
 72
    65
 73
     2
 40
1.0
 49
0.0
 74
     0
 49
-1.0
 74
     0
  0
LTYPE
  5
3D
330
5
100
AcDbSymbolTableRecord
100
AcDbLinetypeTableRecord
  2
DOT_CENTER
 70
     0
  3
Dot_Center
 72
    65
 73
     4
 40
14.0
 49
12.0
 74
     0
 49
-1.0
 74
     0
 49
0.0
 74
     0
 49
-1.0
 74
     0
  0
LTYPE
  5
3E
330
5
100
AcDbSymbolTableRecord
100
AcDbLinetypeTableRecord
  2
LONG_DASHED
 70
     0
  3
Long_Dashed
 72
    65
 73
     2
 40
15.0
 49
10.0
 74
     0
 49
-5.0
 74
     0
  0
LTYPE
  5
3F
330
5
100
AcDbSymbolTableRecord
100
AcDbLinetypeTableRecord
  2
DASH_CENTER
 70
     0
  3
Dash_Center
 72
    65
 73
     4
 40
14.0
 49
11.0
 74
     0
 49
-1.0
 74
     0
 49
1.0
 74
     0
 49
-1.0
 74
     0
  0
LTYPE
  5
40
330
5
100
AcDbSymbolTableRecord
100
AcDbLinetypeTableRecord
  2
PHANTOM
 70
     0
  3
Phantom
 72
    65
 73
     6
 40
13.0
 49
10.0
 74
     0
 49
-1.0
 74
     0
 49
0.0
 74
     0
 49
-1.0
 74
     0
 49
0.0
 74
     0
 49
-1.0
 74
     0
  0
LTYPE
  5
41
330
5
100
AcDbSymbolTableRecord
100
AcDbLinetypeTableRecord
  2
CENTER_DASH_DASH
 70
     0
  3
Center_Dash_Dash
 72
    65
 73
     6
 40
14.0
 49
9.0
 74
     0
 49
-1.0
 74
     0
 49
1.0
 74
     0
 49
-1.0
 74
     0
 49
1.0
 74
     0
 49
-1.0
 74
     0
  0
ENDTAB
  0
TABLE
  2
LAYER
  5
2
330
0
100
AcDbSymbolTable
 70
     7
  0
LAYER
  5
10
330
2
100
AcDbSymbolTableRecord
100
AcDbLayerTableRecord
  2
0
 70
     0
 62
     7
  6
Continuous
370
    -3
390
F
  0
LAYER
  5
42
330
2
100
AcDbSymbolTableRecord
100
AcDbLayerTableRecord
  2
1
 70
     0
 62
     7
  6
Continuous
370
    -3
390
F
  0
LAYER
  5
43
330
2
100
AcDbSymbolTableRecord
100
AcDbLayerTableRecord
  2
BEZUGSACHSEN
 70
     0
 62
     7
  6
Continuous
370
    -3
390
F
  0
LAYER
  5
44
330
2
100
AcDbSymbolTableRecord
100
AcDbLayerTableRecord
  2
BOHRUNGEN
 70
     0
 62
     7
  6
Continuous
370
    -3
390
F
  0
LAYER
  5
45
330
2
100
AcDbSymbolTableRecord
100
AcDbLayerTableRecord
  2
FASEN
 70
     0
 62
     7
  6
Continuous
370
    -3
390
F
  0
LAYER
  5
46
330
2
100
AcDbSymbolTableRecord
100
AcDbLayerTableRecord
  2
RUNDUNGEN
 70
     0
 62
     7
  6
Continuous
370
    -3
390
F
  0
LAYER
  5
47
330
2
100
AcDbSymbolTableRecord
100
AcDbLayerTableRecord
  2
TEIL_STARTBEZUEGE
 70
     0
 62
     7
  6
Continuous
370
    -3
390
F
  0
ENDTAB
  0
TABLE
  2
STYLE
  5
3
330
0
100
AcDbSymbolTable
 70
     2
  0
STYLE
  5
11
330
3
100
AcDbSymbolTableRecord
100
AcDbTextStyleTableRecord
  2
Standard
 70
     0
 40
0.0
 41
1.0
 50
0.0
 71
     0
 42
0.2
  3
txt
  4

  0
STYLE
  5
6E
330
3
100
AcDbSymbolTableRecord
100
AcDbTextStyleTableRecord
  2
CONVERTER_11
 70
     0
 40
0.0
 41
0.72
 50
0.0
 71
     0
 42
0.2
  3
txt.shx
  4

  0
ENDTAB
  0
TABLE
  2
VIEW
  5
6
330
0
100
AcDbSymbolTable
 70
     0
  0
ENDTAB
  0
TABLE
  2
UCS
  5
7
330
0
100
AcDbSymbolTable
 70
     0
  0
ENDTAB
  0
TABLE
  2
APPID
  5
9
330
0
100
AcDbSymbolTable
 70
     1
  0
APPID
  5
12
330
9
100
AcDbSymbolTableRecord
100
AcDbRegAppTableRecord
  2
ACAD
 70
     0
  0
ENDTAB
  0
TABLE
  2
DIMSTYLE
  5
A
330
0
100
AcDbSymbolTable
 70
     8
100
AcDbDimStyleTable
  0
DIMSTYLE
105
27
330
A
100
AcDbSymbolTableRecord
100
AcDbDimStyleTableRecord
  2
Standard
 70
     0
340
11
  0
DIMSTYLE
105
11B
102
{ACAD_REACTORS
330
11C
102
}
330
A
100
AcDbSymbolTableRecord
100
AcDbDimStyleTableRecord
  2
ME10_DIM_10
 70
     0
  3
\U+2300<>
 41
3.5
 42
2.0
 44
2.0
 71
     1
 73
     0
 74
     0
 77
     1
 78
     8
140
3.5
146
0.7
147
2.0
172
     1
173
     1
176
     2
177
     2
178
     3
271
     2
272
     0
340
6E
  0
DIMSTYLE
105
126
102
{ACAD_REACTORS
330
127
102
}
330
A
100
AcDbSymbolTableRecord
100
AcDbDimStyleTableRecord
  2
ME10_DIM_11
 70
     0
  3
\U+2300<>
 41
3.5
 42
2.0
 44
2.0
 71
     1
 73
     0
 74
     0
 77
     1
 78
     8
140
3.5
146
0.7
147
2.0
172
     1
173
     1
176
     2
177
     2
178
     3
271
     2
272
     0
340
6E
  0
DIMSTYLE
105
131
102
{ACAD_REACTORS
330
132
102
}
330
A
100
AcDbSymbolTableRecord
100
AcDbDimStyleTableRecord
  2
ME10_DIM_12
 70
     0
  3
\U+2300<>
 41
3.5
 42
2.0
 44
2.0
 71
     1
 73
     0
 74
     0
 77
     1
 78
     8
140
3.5
146
0.7
147
2.0
172
     1
173
     1
176
     2
177
     2
178
     3
271
     2
272
     0
340
6E
  0
DIMSTYLE
105
13C
102
{ACAD_REACTORS
330
13D
102
}
330
A
100
AcDbSymbolTableRecord
100
AcDbDimStyleTableRecord
  2
ME10_DIM_13
 70
     0
  3
<>
 41
3.5
 42
2.0
 44
2.0
 71
     1
 73
     0
 74
     0
 77
     1
 78
     8
140
3.5
146
0.7
147
2.0
172
     1
173
     1
176
     2
177
     2
178
     3
271
     0
272
     0
340
6E
  0
DIMSTYLE
105
147
102
{ACAD_REACTORS
330
148
102
}
330
A
100
AcDbSymbolTableRecord
100
AcDbDimStyleTableRecord
  2
ME10_DIM_14
 70
     0
  3
<>
 41
3.5
 42
2.0
 44
2.0
 71
     1
 73
     0
 74
     0
 77
     1
 78
     8
140
3.5
146
0.7
147
2.0
172
     1
173
     1
176
     2
177
     2
178
     3
271
     2
272
     0
340
6E
  0
DIMSTYLE
105
152
102
{ACAD_REACTORS
330
153
102
}
330
A
100
AcDbSymbolTableRecord
100
AcDbDimStyleTableRecord
  2
ME10_DIM_15
 70
     0
  3
<>
 41
3.5
 42
2.0
 44
2.0
 71
     1
 73
     0
 74
     0
 77
     1
 78
     8
140
3.5
146
0.7
147
2.0
172
     1
173
     1
176
     2
177
     2
178
     3
271
     0
272
     0
340
6E
  0
DIMSTYLE
105
164
102
{ACAD_REACTORS
330
165
102
}
330
A
100
AcDbSymbolTableRecord
100
AcDbDimStyleTableRecord
  2
ME10_DIM_16
 70
     0
  3
<>
 41
3.5
 42
2.0
 44
2.0
 71
     1
 73
     0
 74
     0
 77
     1
 78
     8
140
3.5
146
0.7
147
2.0
172
     1
173
     1
176
     2
177
     2
178
     3
271
     2
272
     0
340
6E
  0
ENDTAB
  0
TABLE
  2
BLOCK_RECORD
  5
1
330
0
100
AcDbSymbolTable
 70
    10
  0
BLOCK_RECORD
  5
1F
330
1
100
AcDbSymbolTableRecord
100
AcDbBlockTableRecord
  2
*Model_Space
340
22
  0
BLOCK_RECORD
  5
1B
330
1
100
AcDbSymbolTableRecord
100
AcDbBlockTableRecord
  2
*Paper_Space
340
1E
  0
BLOCK_RECORD
  5
23
330
1
100
AcDbSymbolTableRecord
100
AcDbBlockTableRecord
  2
*Paper_Space0
340
26
  0
BLOCK_RECORD
  5
48
330
1
100
AcDbSymbolTableRecord
100
AcDbBlockTableRecord
  2
Urheberrecht_DE-EN_horizontal
340
0
102
{BLKREFS
331
6D
102
}
  0
BLOCK_RECORD
  5
110
330
1
100
AcDbSymbolTableRecord
100
AcDbBlockTableRecord
  2
*D2
340
0
  0
BLOCK_RECORD
  5
11D
330
1
100
AcDbSymbolTableRecord
100
AcDbBlockTableRecord
  2
*D3
340
0
  0
BLOCK_RECORD
  5
128
330
1
100
AcDbSymbolTableRecord
100
AcDbBlockTableRecord
  2
*D4
340
0
  0
BLOCK_RECORD
  5
133
330
1
100
AcDbSymbolTableRecord
100
AcDbBlockTableRecord
  2
*D5
340
0
  0
BLOCK_RECORD
  5
13E
330
1
100
AcDbSymbolTableRecord
100
AcDbBlockTableRecord
  2
*D6
340
0
  0
BLOCK_RECORD
  5
149
330
1
100
AcDbSymbolTableRecord
100
AcDbBlockTableRecord
  2
*D7
340
0
  0
BLOCK_RECORD
  5
154
330
1
100
AcDbSymbolTableRecord
100
AcDbBlockTableRecord
  2
*D8
340
0
102
{BLKREFS
331
15A
102
}
  0
BLOCK_RECORD
  5
15B
330
1
100
AcDbSymbolTableRecord
100
AcDbBlockTableRecord
  2
*D9
340
0
  0
ENDTAB
  0
ENDSEC
  0
SECTION
  2
BLOCKS
  0
BLOCK
  5
20
330
1F
100
AcDbEntity
  8
0
100
AcDbBlockBegin
  2
*Model_Space
 70
     0
 10
0.0
 20
0.0
 30
0.0
  3
*Model_Space
  1

  0
ENDBLK
  5
21
330
1F
100
AcDbEntity
  8
0
100
AcDbBlockEnd
  0
BLOCK
  5
1C
330
1B
100
AcDbEntity
 67
     1
  8
0
100
AcDbBlockBegin
  2
*Paper_Space
 70
     0
 10
0.0
 20
0.0
 30
0.0
  3
*Paper_Space
  1

  0
ENDBLK
  5
1D
330
1B
100
AcDbEntity
 67
     1
  8
0
100
AcDbBlockEnd
  0
BLOCK
  5
24
330
23
100
AcDbEntity
  8
0
100
AcDbBlockBegin
  2
*Paper_Space0
 70
     0
 10
0.0
 20
0.0
 30
0.0
  3
*Paper_Space0
  1

  0
ENDBLK
  5
25
330
23
100
AcDbEntity
  8
0
100
AcDbBlockEnd
  0
BLOCK
  5
49
330
48
100
AcDbEntity
  8
0
100
AcDbBlockBegin
  2
Urheberrecht_DE-EN_horizontal
 70
     0
 10
142.033075775632
 20
283.872600258774
 30
0.0
  3
Urheberrecht_DE-EN_horizontal
  1

  0
MTEXT
  5
6F
330
48
100
AcDbEntity
  8
1
 62
     1
100
AcDbMText
 10
88.57929338627277
 20
277.0745922488697
 30
0.0
 40
2.0
 41
0.0
 71
     7
 72
     1
  1
F\U+00fcr diese Unterlage behalten wir das Ur-\Pheberrecht. Sie darf nur f\U+00fcr den von uns \Pbestimmten Zweck benutzt und ohne unsere \PZustimmung weder vervielf\U+00e4ltigt noch\PDritten zug\U+00e4nglich gemacht werden.
  7
CONVERTER_11
 73
     1
 44
0.90036014405762
  0
MTEXT
  5
70
330
48
100
AcDbEntity
  8
1
 62
     1
100
AcDbMText
 10
144.8686803035789
 20
277.0745922488697
 30
0.0
 40
2.0
 41
0.0
 71
     7
 72
     1
  1
We own the copyright of this document. It \Pdetermined and may neither be copied or \Pmade accessible to outsiders without our\Ppermission.
  7
CONVERTER_11
 73
     1
 44
0.90036014405762
  0
ENDBLK
  5
4A
330
48
100
AcDbEntity
  8
0
100
AcDbBlockEnd
  0
BLOCK
  5
119
330
110
100
AcDbEntity
  8
0
100
AcDbBlockBegin
  2
*D2
 70
     1
 10
0.0
 20
0.0
 30
0.0
  3
*D2
  1

  0
LINE
  5
111
330
110
100
AcDbEntity
  8
1
  6
Continuous
 62
     2
100
AcDbLine
 10
190.915240194326
 20
330.3203548569
 30
0.0
 11
190.915240194326
 21
323.3203548569
 31
0.0
  0
LINE
  5
112
330
110
100
AcDbEntity
  8
1
  6
Continuous
 62
     2
100
AcDbLine
 10
190.915240194326
 20
323.3203548569
 30
0.0
 11
190.915240194326
 21
315.3203548569
 31
0.0
  0
LINE
  5
113
330
110
100
AcDbEntity
  8
1
  6
Continuous
 62
     2
100
AcDbLine
 10
190.915240194326
 20
315.3203548569
 30
0.0
 11
190.915240194326
 21
308.3203548569
 31
0.0
  0
LINE
  5
114
330
110
100
AcDbEntity
  8
1
  6
Continuous
 62
     2
100
AcDbLine
 10
182.1586784639
 20
323.3203548569
 30
0.0
 11
192.915240194326
 21
323.3203548569
 31
0.0
  0
LINE
  5
115
330
110
100
AcDbEntity
  8
1
  6
Continuous
 62
     2
100
AcDbLine
 10
182.1586784639
 20
315.3203548569
 30
0.0
 11
192.915240194326
 21
315.3203548569
 31
0.0
  0
SOLID
  5
116
330
110
100
AcDbEntity
  8
1
 62
     2
100
AcDbTrace
 10
190.4544564527701
 20
326.8203548569
 30
0.0
 11
191.3760239358819
 21
326.8203548569
 31
0.0
 12
190.915240194326
 22
323.3203548569
 32
0.0
 13
190.915240194326
 23
323.3203548569
 33
0.0
  0
SOLID
  5
117
330
110
100
AcDbEntity
  8
1
 62
     2
100
AcDbTrace
 10
191.3760239358819
 20
311.8203548569
 30
0.0
 11
190.4544564527701
 21
311.8203548569
 31
0.0
 12
190.915240194326
 22
315.3203548569
 32
0.0
 13
190.915240194326
 23
315.3203548569
 33
0.0
  0
MTEXT
  5
118
330
110
100
AcDbEntity
  8
1
 62
     3
100
AcDbMText
 10
188.915240194326
 20
311.750691169242
 30
0.0
 40
3.5
 41
0.0
 71
     7
 72
     1
  1
\C3;%%c\C3;\C3;8\C2;\H2.45;\S^ ;\C3;
  7
CONVERTER_11
 11
0.0
 21
1.0
 31
0.0
 73
     1
 44
0.60024009603842
  0
ENDBLK
  5
11A
330
110
100
AcDbEntity
  8
0
100
AcDbBlockEnd
  0
BLOCK
  5
124
330
11D
100
AcDbEntity
  8
0
100
AcDbBlockBegin
  2
*D3
 70
     1
 10
0.0
 20
0.0
 30
0.0
  3
*D3
  1

  0
LINE
  5
11E
330
11D
100
AcDbEntity
  8
1
  6
Continuous
 62
     2
100
AcDbLine
 10
201.26968196524
 20
329.8203548569466
 30
0.0
 11
201.26968196524
 21
308.8203548569486
 31
0.0
  0
LINE
  5
11F
330
11D
100
AcDbEntity
  8
1
  6
Continuous
 62
     2
100
AcDbLine
 10
182.1586784639
 20
329.8203548569466
 30
0.0
 11
203.26968196524
 21
329.8203548569466
 31
0.0
  0
LINE
  5
120
330
11D
100
AcDbEntity
  8
1
  6
Continuous
 62
     2
100
AcDbLine
 10
182.1586784639
 20
308.8203548569486
 30
0.0
 11
203.26968196524
 21
308.8203548569486
 31
0.0
  0
SOLID
  5
121
330
11D
100
AcDbEntity
  8
1
 62
     2
100
AcDbTrace
 10
201.7304657067959
 20
326.3203548569466
 30
0.0
 11
200.8088982236841
 21
326.3203548569466
 31
0.0
 12
201.26968196524
 22
329.8203548569466
 32
0.0
 13
201.26968196524
 23
329.8203548569466
 33
0.0
  0
SOLID
  5
122
330
11D
100
AcDbEntity
  8
1
 62
     2
100
AcDbTrace
 10
200.8088982236841
 20
312.3203548569486
 30
0.0
 11
201.7304657067959
 21
312.3203548569486
 31
0.0
 12
201.26968196524
 22
308.8203548569486
 32
0.0
 13
201.26968196524
 23
308.8203548569486
 33
0.0
  0
MTEXT
  5
123
330
11D
100
AcDbEntity
  8
1
 62
     3
100
AcDbMText
 10
199.26968196524
 20
311.418884630392
 30
0.0
 40
3.5
 41
0.0
 71
     7
 72
     1
  1
\C3;%%c\C3;\C3;21\C2;\H2.45;\S^ ;\C3;
  7
CONVERTER_11
 11
0.0
 21
1.0
 31
0.0
 73
     1
 44
0.60024009603842
  0
ENDBLK
  5
125
330
11D
100
AcDbEntity
  8
0
100
AcDbBlockEnd
  0
BLOCK
  5
12F
330
128
100
AcDbEntity
  8
0
100
AcDbBlockBegin
  2
*D4
 70
     1
 10
0.0
 20
0.0
 30
0.0
  3
*D4
  1

  0
LINE
  5
129
330
128
100
AcDbEntity
  8
1
  6
Continuous
 62
     2
100
AcDbLine
 10
209.718398256845
 20
332.8203548569
 30
0.0
 11
209.718398256845
 21
305.8203548569
 31
0.0
  0
LINE
  5
12A
330
128
100
AcDbEntity
  8
1
  6
Continuous
 62
     2
100
AcDbLine
 10
144.0400642553
 20
332.8203548569
 30
0.0
 11
211.718398256845
 21
332.8203548569
 31
0.0
  0
LINE
  5
12B
330
128
100
AcDbEntity
  8
1
  6
Continuous
 62
     2
100
AcDbLine
 10
144.0400642553
 20
305.8203548569
 30
0.0
 11
211.718398256845
 21
305.8203548569
 31
0.0
  0
SOLID
  5
12C
330
128
100
AcDbEntity
  8
1
 62
     2
100
AcDbTrace
 10
210.1791819984009
 20
329.3203548569
 30
0.0
 11
209.2576145152891
 21
329.3203548569
 31
0.0
 12
209.718398256845
 22
332.8203548569
 32
0.0
 13
209.718398256845
 23
332.8203548569
 33
0.0
  0
SOLID
  5
12D
330
128
100
AcDbEntity
  8
1
 62
     2
100
AcDbTrace
 10
209.2576145152891
 20
309.3203548569
 30
0.0
 11
210.1791819984009
 21
309.3203548569
 31
0.0
 12
209.718398256845
 22
305.8203548569
 32
0.0
 13
209.718398256845
 23
305.8203548569
 33
0.0
  0
MTEXT
  5
12E
330
128
100
AcDbEntity
  8
1
 62
     3
100
AcDbMText
 10
207.718398256845
 20
311.189457178322
 30
0.0
 40
3.5
 41
0.0
 71
     7
 72
     1
  1
\C3;%%c\C3;\C3;27\C2;\H2.45;\S^ ;\C3;
  7
CONVERTER_11
 11
0.0
 21
1.0
 31
0.0
 73
     1
 44
0.60024009603842
  0
ENDBLK
  5
130
330
128
100
AcDbEntity
  8
0
100
AcDbBlockEnd
  0
BLOCK
  5
13A
330
133
100
AcDbEntity
  8
0
100
AcDbBlockBegin
  2
*D5
 70
     1
 10
0.0
 20
0.0
 30
0.0
  3
*D5
  1

  0
LINE
  5
134
330
133
100
AcDbEntity
  8
1
  6
Continuous
 62
     2
100
AcDbLine
 10
180.1586784639
 20
349.240861014928
 30
0.0
 11
126.1086784639
 21
349.240861014928
 31
0.0
  0
LINE
  5
135
330
133
100
AcDbEntity
  8
1
  6
Continuous
 62
     2
100
AcDbLine
 10
180.1586784639
 20
330.8959643653
 30
0.0
 11
180.1586784639
 21
351.240861014928
 31
0.0
  0
LINE
  5
136
330
133
100
AcDbEntity
  8
1
  6
Continuous
 62
     2
100
AcDbLine
 10
126.1086784639
 20
346.3203048384
 30
0.0
 11
126.1086784639
 21
351.240861014928
 31
0.0
  0
SOLID
  5
137
330
133
100
AcDbEntity
  8
1
 62
     2
100
AcDbTrace
 10
176.6586784639
 20
348.7800772733721
 30
0.0
 11
176.6586784639
 21
349.7016447564839
 31
0.0
 12
180.1586784639
 22
349.240861014928
 32
0.0
 13
180.1586784639
 23
349.240861014928
 33
0.0
  0
SOLID
  5
138
330
133
100
AcDbEntity
  8
1
 62
     2
100
AcDbTrace
 10
129.6086784639
 20
349.7016447564839
 30
0.0
 11
129.6086784639
 21
348.7800772733721
 31
0.0
 12
126.1086784639
 22
349.240861014928
 32
0.0
 13
126.1086784639
 23
349.240861014928
 33
0.0
  0
MTEXT
  5
139
330
133
100
AcDbEntity
  8
1
 62
     3
100
AcDbMText
 10
150.98673750341
 20
351.240861014928
 30
0.0
 40
3.5
 41
0.0
 71
     7
 72
     1
  1
\C3;\C3;\C3;54\C2;\H2.45;\S^ ;\C3;
  7
CONVERTER_11
 11
0.9999999999970619
 21
2.424068405545306E-6
 31
0.0
 73
     1
 44
0.60024009603842
  0
ENDBLK
  5
13B
330
133
100
AcDbEntity
  8
0
100
AcDbBlockEnd
  0
BLOCK
  5
145
330
13E
100
AcDbEntity
  8
0
100
AcDbBlockBegin
  2
*D6
 70
     1
 10
0.0
 20
0.0
 30
0.0
  3
*D6
  1

  0
LINE
  5
13F
330
13E
100
AcDbEntity
  8
1
  6
Continuous
 62
     2
100
AcDbLine
 10
100.1586784639
 20
357.364631895693
 30
0.0
 11
180.1586784639
 21
357.364631895693
 31
0.0
  0
LINE
  5
140
330
13E
100
AcDbEntity
  8
1
  6
Continuous
 62
     2
100
AcDbLine
 10
100.1586784639
 20
346.3203548569
 30
0.0
 11
100.1586784639
 21
359.364631895693
 31
0.0
  0
LINE
  5
141
330
13E
100
AcDbEntity
  8
1
  6
Continuous
 62
     2
100
AcDbLine
 10
180.1586784639
 20
330.8959643653
 30
0.0
 11
180.1586784639
 21
359.364631895693
 31
0.0
  0
SOLID
  5
142
330
13E
100
AcDbEntity
  8
1
 62
     2
100
AcDbTrace
 10
103.6586784639
 20
357.8254156372489
 30
0.0
 11
103.6586784639
 21
356.9038481541371
 31
0.0
 12
100.1586784639
 22
357.364631895693
 32
0.0
 13
100.1586784639
 23
357.364631895693
 33
0.0
  0
SOLID
  5
143
330
13E
100
AcDbEntity
  8
1
 62
     2
100
AcDbTrace
 10
176.6586784639
 20
356.9038481541371
 30
0.0
 11
176.6586784639
 21
357.8254156372489
 31
0.0
 12
180.1586784639
 22
357.364631895693
 32
0.0
 13
180.1586784639
 23
357.364631895693
 33
0.0
  0
MTEXT
  5
144
330
13E
100
AcDbEntity
  8
1
 62
     3
100
AcDbMText
 10
138.293345502215
 20
359.364631895693
 30
0.0
 40
3.5
 41
0.0
 71
     7
 72
     1
  1
\C3;\C3;\C3;80\C2;\H2.45;\S^ ;\C3;
  7
CONVERTER_11
 11
0.9999999999970619
 21
2.424068405545306E-6
 31
0.0
 73
     1
 44
0.60024009603842
  0
ENDBLK
  5
146
330
13E
100
AcDbEntity
  8
0
100
AcDbBlockEnd
  0
BLOCK
  5
150
330
149
100
AcDbEntity
  8
0
100
AcDbBlockBegin
  2
*D7
 70
     1
 10
0.0
 20
0.0
 30
0.0
  3
*D7
  1

  0
LINE
  5
14A
330
149
100
AcDbEntity
  8
1
  6
Continuous
 62
     2
100
AcDbLine
 10
180.1586784639
 20
364.777572824391
 30
0.0
 11
75.2586784639
 21
364.777572824391
 31
0.0
  0
LINE
  5
14B
330
149
100
AcDbEntity
  8
1
  6
Continuous
 62
     2
100
AcDbLine
 10
180.1586784639
 20
330.8959643653
 30
0.0
 11
180.1586784639
 21
366.777572824391
 31
0.0
  0
LINE
  5
14C
330
149
100
AcDbEntity
  8
1
  6
Continuous
 62
     2
100
AcDbLine
 10
75.2586784639
 20
338.3767106381
 30
0.0
 11
75.2586784639
 21
366.777572824391
 31
0.0
  0
SOLID
  5
14D
330
149
100
AcDbEntity
  8
1
 62
     2
100
AcDbTrace
 10
176.6586784639
 20
364.3167890828351
 30
0.0
 11
176.6586784639
 21
365.2383565659468
 31
0.0
 12
180.1586784639
 22
364.777572824391
 32
0.0
 13
180.1586784639
 23
364.777572824391
 33
0.0
  0
SOLID
  5
14E
330
149
100
AcDbEntity
  8
1
 62
     2
100
AcDbTrace
 10
78.7586784639
 20
365.2383565659468
 30
0.0
 11
78.7586784639
 21
364.3167890828351
 31
0.0
 12
75.2586784639
 22
364.777572824391
 32
0.0
 13
75.2586784639
 23
364.777572824391
 33
0.0
  0
MTEXT
  5
14F
330
149
100
AcDbEntity
  8
1
 62
     3
100
AcDbMText
 10
126.486254813181
 20
366.777572824391
 30
0.0
 40
3.5
 41
0.0
 71
     7
 72
     1
  1
\C3;\C3;\C3;105\C2;\H2.45;\S^ ;\C3;
  7
CONVERTER_11
 11
0.9999999999970619
 21
2.424068405545306E-6
 31
0.0
 73
     1
 44
0.60024009603842
  0
ENDBLK
  5
151
330
149
100
AcDbEntity
  8
0
100
AcDbBlockEnd
  0
BLOCK
  5
158
330
154
100
AcDbEntity
  8
0
100
AcDbBlockBegin
  2
*D8
 70
     1
 10
0.0
 20
0.0
 30
0.0
  3
*D8
  1

  0
LINE
  5
155
330
154
100
AcDbEntity
  8
1
  6
Continuous
 62
     2
100
AcDbLine
 10
134.9837724931179
 20
339.6562539661268
 30
0.0
 11
126.4728271319435
 21
333.669707030788
 31
0.0
  0
SOLID
  5
156
330
154
100
AcDbEntity
  8
1
 62
     2
100
AcDbTrace
 10
129.0704670576027
 20
336.0602275751681
 30
0.0
 11
129.6006668681318
 21
335.3064538778001
 31
0.0
 12
126.4728271319435
 22
333.669707030788
 32
0.0
 13
126.4728271319435
 23
333.669707030788
 33
0.0
  0
MTEXT
  5
157
330
154
100
AcDbEntity
  8
1
 62
     3
100
AcDbMText
 10
127.7641162254475
 20
337.0232018632076
 30
0.0
 40
3.5
 41
0.0
 71
     7
 72
     1
  1
\C3; R\C3;\C3;2\C2;\H2.45;\S^ ;\C3;
  7
CONVERTER_11
 11
0.8179256659782144
 21
0.5753239130560232
 31
0.0
 73
     1
 44
0.60024009603842
  0
ENDBLK
  5
159
330
154
100
AcDbEntity
  8
0
100
AcDbBlockEnd
  0
BLOCK
  5
162
330
15B
100
AcDbEntity
  8
0
100
AcDbBlockBegin
  2
*D9
 70
     1
 10
0.0
 20
0.0
 30
0.0
  3
*D9
  1

  0
LINE
  5
15C
330
15B
100
AcDbEntity
  8
1
  6
Continuous
 62
     2
100
AcDbLine
 10
166.2471934786473
 20
332.8203548569
 30
0.0
 11
168.2471934786473
 21
332.8203548569
 31
0.0
  0
LINE
  5
15D
330
15B
100
AcDbEntity
  8
1
  6
Continuous
 62
     2
100
AcDbLine
 10
144.0400642553
 20
332.8203548569
 30
0.0
 11
166.2471934786473
 21
332.8203548569
 31
0.0
  0
ARC
  5
15E
330
15B
100
AcDbEntity
  8
1
  6
Continuous
 62
     2
100
AcDbCircle
 10
142.0400642553
 20
332.8203548569
 30
0.0
 40
24.20712922334737
100
AcDbArc
 50
343.0737911890644
 51
21.19539637416454
  0
SOLID
  5
15F
330
15B
100
AcDbEntity
  8
1
 62
     2
100
AcDbTrace
 10
166.1022085755673
 20
327.3915853115582
 30
0.0
 11
165.1911042768447
 21
327.5300612400739
 31
0.0
 12
166.1725709779742
 22
330.9210853878877
 32
0.0
 13
166.1725709779742
 23
330.9210853878877
 33
0.0
  0
SOLID
  5
160
330
15B
100
AcDbEntity
  8
1
 62
     2
100
AcDbTrace
 10
165.5348090000355
 20
336.2779305988202
 30
0.0
 11
166.4539693644021
 21
336.3444952328715
 31
0.0
 12
166.2471934786473
 22
332.8203548569
 32
0.0
 13
166.2471934786473
 23
332.8203548569
 33
0.0
  0
MTEXT
  5
161
330
15B
100
AcDbEntity
  8
1
 62
     3
100
AcDbMText
 10
166.6956387551382
 20
342.3813429445483
 30
0.0
 40
3.5
 41
0.0
 71
     7
 72
     1
  1
\C3;\C3;\C3;4.5%%d\C2;\H2.45;\S^ ;\C3;
  7
CONVERTER_11
 11
0.2336712333306516
 21
-0.9723156661875464
 31
0.0
 73
     1
 44
0.60024009603842
  0
ENDBLK
  5
163
330
15B
100
AcDbEntity
  8
0
100
AcDbBlockEnd
  0
ENDSEC
  0
SECTION
  2
ENTITIES
  0
INSERT
  5
6D
330
1F
100
AcDbEntity
  8
0
100
AcDbBlockReference
  2
Urheberrecht_DE-EN_horizontal
 10
142.033075775632
 20
283.872600258774
 30
0.0
  0
LINE
  5
71
330
1F
100
AcDbEntity
  8
0
  6
Continuous
 62
     7
100
AcDbLine
 10
75.2586784639
 20
302.2639990755
 30
0.0
 11
75.2586784639
 21
312.9003548569
 31
0.0
  0
LINE
  5
72
330
1F
100
AcDbEntity
  8
0
  6
Continuous
 62
     7
100
AcDbLine
 10
75.2586784639
 20
325.7403548569
 30
0.0
 11
75.2586784639
 21
336.3767106381
 31
0.0
  0
LINE
  5
73
330
1F
100
AcDbEntity
  8
0
  6
Continuous
 62
     9
100
AcDbLine
 10
76.2086412215
 20
337.3754579911
 30
0.0
 11
76.2086412215
 21
327.1688674029
 31
0.0
  0
LINE
  5
74
330
1F
100
AcDbEntity
  8
0
  6
Continuous
 62
     9
100
AcDbLine
 10
76.2086412215
 20
311.4718423109
 30
0.0
 11
76.2086412215
 21
301.2652517228
 31
0.0
  0
LINE
  5
75
330
1F
100
AcDbEntity
  8
0
  6
Continuous
 62
     7
100
AcDbLine
 10
76.4086784639
 20
313.0109950974
 30
0.0
 11
76.4086784639
 21
314.0503548569
 31
0.0
  0
LINE
  5
76
330
1F
100
AcDbEntity
  8
0
  6
Continuous
 62
     7
100
AcDbLine
 10
76.4086784639
 20
324.5903548569
 30
0.0
 11
76.4086784639
 21
325.6297146164
 31
0.0
  0
LINE
  5
77
330
1F
100
AcDbEntity
  8
RUNDUNGEN
  6
Continuous
 62
     9
100
AcDbLine
 10
78.4586784639
 20
311.2158840593
 30
0.0
 11
78.4586784639
 21
314.0503548569
 31
0.0
  0
LINE
  5
78
330
1F
100
AcDbEntity
  8
RUNDUNGEN
  6
Continuous
 62
     9
100
AcDbLine
 10
78.4586784639
 20
324.5903548569
 30
0.0
 11
78.4586784639
 21
327.4248256545
 31
0.0
  0
LINE
  5
79
330
1F
100
AcDbEntity
  8
RUNDUNGEN
  6
Continuous
 62
     7
100
AcDbLine
 10
79.8586784639
 20
325.2515051037
 30
0.0
 11
79.8586784639
 21
313.3892046101
 31
0.0
  0
LINE
  5
7A
330
1F
100
AcDbEntity
  8
0
  6
Continuous
 62
     7
100
AcDbLine
 10
75.9951686737
 20
311.6703548569
 30
0.0
 11
75.9467491949
 21
311.5843971509
 31
0.0
  0
LINE
  5
7B
330
1F
100
AcDbEntity
  8
0
  6
Continuous
 62
     7
100
AcDbLine
 10
75.9467491949
 20
327.056312563
 30
0.0
 11
75.9951686737
 21
326.9703548569
 31
0.0
  0
LWPOLYLINE
  5
7C
330
1F
100
AcDbEntity
  8
BEZUGSACHSEN
  6
DOT_CENTER
 62
     7
100
AcDbPolyline
 90
        2
 70
     0
 43
0.25
 10
92.6586784639
 20
313.3203548569
 10
92.6586784639
 20
325.3203548569
  0
LINE
  5
7D
330
1F
100
AcDbEntity
  8
0
  6
Continuous
 62
     7
100
AcDbLine
 10
75.2586784639
 20
312.9003548569
 30
0.0
 11
76.4086784639
 21
314.0503548569
 31
0.0
  0
LINE
  5
7E
330
1F
100
AcDbEntity
  8
0
  6
Continuous
 62
     7
100
AcDbLine
 10
76.4086784639
 20
324.5903548569
 30
0.0
 11
75.2586784639
 21
325.7403548569
 31
0.0
  0
LINE
  5
7F
330
1F
100
AcDbEntity
  8
0
  6
Continuous
 62
     7
100
AcDbLine
 10
98.1586784639
 20
338.4751548569
 30
0.0
 11
98.1586784639
 21
300.1655548569
 31
0.0
  0
LINE
  5
80
330
1F
100
AcDbEntity
  8
0
  6
Continuous
 62
     9
100
AcDbLine
 10
98.8287886969
 20
300.3451103527
 30
0.0
 11
98.8287886969
 21
338.2955993612
 31
0.0
  0
LINE
  5
81
330
1F
100
AcDbEntity
  8
0
  6
Continuous
 62
     9
100
AcDbLine
 10
98.9840801239
 20
300.3655548569
 30
0.0
 11
98.9840801239
 21
338.2751548569
 31
0.0
  0
LINE
  5
82
330
1F
100
AcDbEntity
  8
0
  6
Continuous
 62
     9
100
AcDbLine
 10
99.8565088333
 20
300.3655548569
 30
0.0
 11
99.8565088333
 21
338.2751548569
 31
0.0
  0
LINE
  5
83
330
1F
100
AcDbEntity
  8
0
  6
Continuous
 62
     7
100
AcDbLine
 10
100.1586784639
 20
344.3203548569
 30
0.0
 11
100.1586784639
 21
294.3203548569
 31
0.0
  0
LINE
  5
84
330
1F
100
AcDbEntity
  8
0
  6
Continuous
 62
     7
100
AcDbLine
 10
114.7667456324
 20
294.3203548569
 30
0.0
 11
100.1586784639
 21
294.3203548569
 31
0.0
  0
LINE
  5
85
330
1F
100
AcDbEntity
  8
0
  6
Continuous
 62
     7
100
AcDbLine
 10
121.5506112953
 20
294.3203548569
 30
0.0
 11
126.1086784639
 21
294.3203548569
 31
0.0
  0
LWPOLYLINE
  5
86
330
1F
100
AcDbEntity
  8
BEZUGSACHSEN
  6
DOT_CENTER
 62
     7
100
AcDbPolyline
 90
        2
 70
     0
 43
0.25
 10
107.1586784639
 20
350.2152522848
 10
107.1586784639
 20
336.2152522848
  0
LINE
  5
87
330
1F
100
AcDbEntity
  8
0
  6
Continuous
 62
     9
100
AcDbLine
 10
75.2586784639
 20
312.3632067459
 30
0.0
 11
76.4086784639
 21
313.0109950974
 31
0.0
  0
LINE
  5
88
330
1F
100
AcDbEntity
  8
0
  6
Continuous
 62
     7
100
AcDbLine
 10
116.9961784639
 20
297.8453548569
 30
0.0
 11
119.3211784639
 21
297.8453548569
 31
0.0
  0
LINE
  5
89
330
1F
100
AcDbEntity
  8
0
  6
Continuous
 62
     7
100
AcDbLine
 10
98.1586784639
 20
300.1655548569
 30
0.0
 11
76.2086412215
 21
301.2652517228
 31
0.0
  0
LINE
  5
8A
330
1F
100
AcDbEntity
  8
0
  6
Continuous
 62
     7
100
AcDbLine
 10
120.0711784639
 20
341.7579020264
 30
0.0
 11
121.5506112953
 21
344.3203548569
 31
0.0
  0
LINE
  5
8B
330
1F
100
AcDbEntity
  8
0
  6
Continuous
 62
     7
100
AcDbLine
 10
107.4910047467
 20
299.5877042494
 30
0.0
 11
114.7667456324
 21
299.5877042494
 31
0.0
  0
LINE
  5
8C
330
1F
100
AcDbEntity
  8
0
  6
Continuous
 62
     7
100
AcDbLine
 10
121.5506112953
 20
299.5877042494
 30
0.0
 11
126.1086784639
 21
299.5877042494
 31
0.0
  0
LINE
  5
8D
330
1F
100
AcDbEntity
  8
0
  6
Continuous
 62
     7
100
AcDbLine
 10
99.8565088333
 20
300.3655548569
 30
0.0
 11
98.9840801239
 21
300.3655548569
 31
0.0
  0
LINE
  5
8E
330
1F
100
AcDbEntity
  8
0
  6
Continuous
 62
     9
100
AcDbLine
 10
76.4086784639
 20
325.6297146164
 30
0.0
 11
75.2586784639
 21
326.2775029679
 31
0.0
  0
LINE
  5
8F
330
1F
100
AcDbEntity
  8
0
  6
Continuous
 62
     7
100
AcDbLine
 10
120.0711784639
 20
296.8828076875
 30
0.0
 11
121.5506112953
 21
294.3203548569
 31
0.0
  0
LINE
  5
90
330
1F
100
AcDbEntity
  8
FASEN
  6
Continuous
 62
     9
100
AcDbLine
 10
112.8523647367
 20
303.5703548569
 30
0.0
 11
112.8523647367
 21
303.9703548569
 31
0.0
  0
LINE
  5
91
330
1F
100
AcDbEntity
  8
FASEN
  6
Continuous
 62
     9
100
AcDbLine
 10
113.1261784639
 20
313.7028548569
 30
0.0
 11
113.1261784639
 21
313.3028548569
 31
0.0
  0
LINE
  5
92
330
1F
100
AcDbEntity
  8
FASEN
  6
Continuous
 62
     9
100
AcDbLine
 10
113.1261784639
 20
324.9378548569
 30
0.0
 11
113.1261784639
 21
325.3378548569
 31
0.0
  0
LINE
  5
93
330
1F
100
AcDbEntity
  8
0
  6
Continuous
 62
     7
100
AcDbLine
 10
114.7667456324
 20
344.3203548569
 30
0.0
 11
114.7667456324
 21
325.3378548569
 31
0.0
  0
LINE
  5
94
330
1F
100
AcDbEntity
  8
0
  6
Continuous
 62
     7
100
AcDbLine
 10
114.7667456324
 20
313.3028548569
 30
0.0
 11
114.7667456324
 21
303.9703548569
 31
0.0
  0
LINE
  5
95
330
1F
100
AcDbEntity
  8
0
  6
Continuous
 62
     7
100
AcDbLine
 10
114.7667456324
 20
299.5877042494
 30
0.0
 11
114.7667456324
 21
294.3203548569
 31
0.0
  0
LINE
  5
96
330
1F
100
AcDbEntity
  8
0
  6
Continuous
 62
     7
100
AcDbLine
 10
116.2461784639
 20
341.7578474142
 30
0.0
 11
116.2461784639
 21
325.3378548569
 31
0.0
  0
LINE
  5
97
330
1F
100
AcDbEntity
  8
0
  6
Continuous
 62
     7
100
AcDbLine
 10
116.2461784639
 20
313.3028548569
 30
0.0
 11
116.2461784639
 21
303.9703548569
 31
0.0
  0
LINE
  5
98
330
1F
100
AcDbEntity
  8
0
  6
Continuous
 62
     7
100
AcDbLine
 10
116.2461784639
 20
296.8828215287
 30
0.0
 11
116.2461784639
 21
303.2477656131
 31
0.0
  0
LINE
  5
99
330
1F
100
AcDbEntity
  8
RUNDUNGEN
  6
Continuous
 62
     7
100
AcDbLine
 10
179.2371375596
 20
308.7478280149
 30
0.0
 11
142.0400642553
 21
305.8203548569
 31
0.0
  0
LINE
  5
9A
330
1F
100
AcDbEntity
  8
0
  6
Continuous
 62
     7
100
AcDbLine
 10
142.0400642553
 20
305.8203548569
 30
0.0
 11
179.2371375596
 21
308.7478280149
 31
0.0
  0
LINE
  5
9B
330
1F
100
AcDbEntity
  8
0
  6
Continuous
 62
     7
100
AcDbLine
 10
112.8523647367
 20
303.5703548569
 30
0.0
 11
116.2830153581
 21
303.5703548569
 31
0.0
  0
LINE
  5
9C
330
1F
100
AcDbEntity
  8
0
  6
Continuous
 62
     7
100
AcDbLine
 10
120.0343415697
 20
303.5703548569
 30
0.0
 11
126.1086784639
 21
303.5703548569
 31
0.0
  0
LINE
  5
9D
330
1F
100
AcDbEntity
  8
0
  6
Continuous
 62
     7
100
AcDbLine
 10
112.8523647367
 20
303.9703548569
 30
0.0
 11
116.2830153581
 21
303.9703548569
 31
0.0
  0
LINE
  5
9E
330
1F
100
AcDbEntity
  8
0
  6
Continuous
 62
     7
100
AcDbLine
 10
120.0343415697
 20
303.9703548569
 30
0.0
 11
126.1086784639
 21
303.9703548569
 31
0.0
  0
LINE
  5
9F
330
1F
100
AcDbEntity
  8
RUNDUNGEN
  6
Continuous
 62
     7
100
AcDbLine
 10
142.0400642553
 20
305.8203548569
 30
0.0
 11
128.1086784639
 21
305.8203548569
 31
0.0
  0
LINE
  5
A0
330
1F
100
AcDbEntity
  8
0
  6
Continuous
 62
     7
100
AcDbLine
 10
128.1086784639
 20
305.8203548569
 30
0.0
 11
142.0400642553
 21
305.8203548569
 31
0.0
  0
LINE
  5
A1
330
1F
100
AcDbEntity
  8
0
  6
Continuous
 62
     9
100
AcDbLine
 10
116.9961784639
 20
297.8453548569
 30
0.0
 11
116.9961784639
 21
314.3841999769
 31
0.0
  0
LINE
  5
A2
330
1F
100
AcDbEntity
  8
0
  6
Continuous
 62
     9
100
AcDbLine
 10
116.9961784639
 20
324.256509737
 30
0.0
 11
116.9961784639
 21
340.7953548569
 31
0.0
  0
LINE
  5
A3
330
1F
100
AcDbEntity
  8
0
  6
Continuous
 62
     9
100
AcDbLine
 10
119.3211784639
 20
297.8453548569
 30
0.0
 11
119.3211784639
 21
314.3841999769
 31
0.0
  0
LINE
  5
A4
330
1F
100
AcDbEntity
  8
0
  6
Continuous
 62
     9
100
AcDbLine
 10
119.3211784639
 20
324.256509737
 30
0.0
 11
119.3211784639
 21
340.7953548569
 31
0.0
  0
LINE
  5
A5
330
1F
100
AcDbEntity
  8
0
  6
Continuous
 62
     7
100
AcDbLine
 10
120.0711784639
 20
313.3028548569
 30
0.0
 11
120.0711784639
 21
303.9703548569
 31
0.0
  0
LINE
  5
A6
330
1F
100
AcDbEntity
  8
0
  6
Continuous
 62
     7
100
AcDbLine
 10
120.0711784639
 20
296.8828215287
 30
0.0
 11
120.0711784639
 21
303.2477656131
 31
0.0
  0
LINE
  5
A7
330
1F
100
AcDbEntity
  8
0
  6
Continuous
 62
     7
100
AcDbLine
 10
120.0711784639
 20
325.3378548569
 30
0.0
 11
120.0711784639
 21
341.7578474142
 31
0.0
  0
LINE
  5
A8
330
1F
100
AcDbEntity
  8
0
  6
Continuous
 62
     7
100
AcDbLine
 10
98.8287886969
 20
300.3451103527
 30
0.0
 11
98.1586784639
 21
300.1655548569
 31
0.0
  0
LINE
  5
A9
330
1F
100
AcDbEntity
  8
0
  6
Continuous
 62
     7
100
AcDbLine
 10
121.5506112953
 20
313.3028548569
 30
0.0
 11
121.5506112953
 21
303.9703548569
 31
0.0
  0
LINE
  5
AA
330
1F
100
AcDbEntity
  8
0
  6
Continuous
 62
     7
100
AcDbLine
 10
121.5506112953
 20
294.3203548569
 30
0.0
 11
121.5506112953
 21
299.5877042494
 31
0.0
  0
LINE
  5
AB
330
1F
100
AcDbEntity
  8
0
  6
Continuous
 62
     7
100
AcDbLine
 10
121.5506112953
 20
325.3378548569
 30
0.0
 11
121.5506112953
 21
344.3203548569
 31
0.0
  0
LINE
  5
AC
330
1F
100
AcDbEntity
  8
RUNDUNGEN
  6
Continuous
 62
     9
100
AcDbLine
 10
79.2767366401
 20
311.6703548569
 30
0.0
 11
78.4586784639
 21
311.6703548569
 31
0.0
  0
LINE
  5
AD
330
1F
100
AcDbEntity
  8
0
  6
Continuous
 62
     9
100
AcDbLine
 10
78.4586784639
 20
311.6703548569
 30
0.0
 11
75.9951686737
 21
311.6703548569
 31
0.0
  0
LINE
  5
AE
330
1F
100
AcDbEntity
  8
0
  6
Continuous
 62
     7
100
AcDbLine
 10
113.1261784639
 20
313.3028548569
 30
0.0
 11
116.2461784639
 21
313.3028548569
 31
0.0
  0
LINE
  5
AF
330
1F
100
AcDbEntity
  8
0
  6
Continuous
 62
     7
100
AcDbLine
 10
120.0711784639
 20
313.3028548569
 30
0.0
 11
126.1086784639
 21
313.3028548569
 31
0.0
  0
LINE
  5
B0
330
1F
100
AcDbEntity
  8
0
  6
Continuous
 62
     7
100
AcDbLine
 10
126.1086784639
 20
313.7028548569
 30
0.0
 11
119.7927136111
 21
313.7028548569
 31
0.0
  0
LINE
  5
B1
330
1F
100
AcDbEntity
  8
0
  6
Continuous
 62
     7
100
AcDbLine
 10
116.5246433166
 20
313.7028548569
 30
0.0
 11
113.1261784639
 21
313.7028548569
 31
0.0
  0
LINE
  5
B2
330
1F
100
AcDbEntity
  8
0
  6
Continuous
 62
     7
100
AcDbLine
 10
78.4586784639
 20
314.0503548569
 30
0.0
 11
76.4086784639
 21
314.0503548569
 31
0.0
  0
LINE
  5
B3
330
1F
100
AcDbEntity
  8
0
  6
Continuous
 62
     7
100
AcDbLine
 10
116.9961784639
 20
314.3841999769
 30
0.0
 11
119.3211784639
 21
314.3841999769
 31
0.0
  0
LINE
  5
B4
330
1F
100
AcDbEntity
  8
0
  6
Continuous
 62
     7
100
AcDbLine
 10
126.1086784639
 20
344.3203048384
 30
0.0
 11
126.1086784639
 21
325.3378548569
 31
0.0
  0
LINE
  5
B5
330
1F
100
AcDbEntity
  8
0
  6
Continuous
 62
     7
100
AcDbLine
 10
126.1086784639
 20
313.3028548569
 30
0.0
 11
126.1086784639
 21
303.9703548569
 31
0.0
  0
LINE
  5
B6
330
1F
100
AcDbEntity
  8
0
  6
Continuous
 62
     7
100
AcDbLine
 10
126.1086784639
 20
299.5877042494
 30
0.0
 11
126.1086784639
 21
294.320368401
 31
0.0
  0
LINE
  5
B7
330
1F
100
AcDbEntity
  8
FASEN
  6
Continuous
 62
     7
100
AcDbLine
 10
126.1086784639
 20
299.5877042494
 30
0.0
 11
126.1086784639
 21
303.9703548569
 31
0.0
  0
LINE
  5
B8
330
1F
100
AcDbEntity
  8
FASEN
  6
Continuous
 62
     7
100
AcDbLine
 10
126.1086784639
 20
313.3028548569
 30
0.0
 11
126.1086784639
 21
325.3378548569
 31
0.0
  0
LINE
  5
B9
330
1F
100
AcDbEntity
  8
RUNDUNGEN
  6
Continuous
 62
     9
100
AcDbLine
 10
128.1086784639
 20
332.8203548569
 30
0.0
 11
128.1086784639
 21
305.8203548569
 31
0.0
  0
LWPOLYLINE
  5
BA
330
1F
100
AcDbEntity
  8
BOHRUNGEN
  6
DASHED
 62
     8
100
AcDbPolyline
 90
        2
 70
     0
 43
0.35
 10
180.1586784639
 20
315.3203548569
 10
144.1586784639
 20
315.3203548569
  0
LINE
  5
BB
330
1F
100
AcDbEntity
  8
0
  6
Continuous
 62
     7
100
AcDbLine
 10
114.7667456324
 20
294.3203548569
 30
0.0
 11
116.2461784639
 21
296.8828076875
 31
0.0
  0
LWPOLYLINE
  5
BC
330
1F
100
AcDbEntity
  8
TEIL_STARTBEZUEGE
  6
DOT_CENTER
 62
     7
100
AcDbPolyline
 90
        2
 70
     0
 43
0.25
 10
183.1586784639
 20
319.3203548569
 10
72.2586784639
 20
319.3203548569
  0
LINE
  5
BD
330
1F
100
AcDbEntity
  8
0
  6
Continuous
 62
     7
100
AcDbLine
 10
114.7667456324
 20
344.3203548569
 30
0.0
 11
116.2461784639
 21
341.7579020264
 31
0.0
  0
LWPOLYLINE
  5
BE
330
1F
100
AcDbEntity
  8
BOHRUNGEN
  6
DASHED
 62
     8
100
AcDbPolyline
 90
        2
 70
     0
 43
0.35
 10
180.1586784639
 20
323.3203548569
 10
144.1586784639
 20
323.3203548569
  0
LINE
  5
BF
330
1F
100
AcDbEntity
  8
0
  6
Continuous
 62
     7
100
AcDbLine
 10
119.3211784639
 20
324.256509737
 30
0.0
 11
116.9961784639
 21
324.256509737
 31
0.0
  0
LINE
  5
C0
330
1F
100
AcDbEntity
  8
0
  6
Continuous
 62
     7
100
AcDbLine
 10
78.4586784639
 20
324.5903548569
 30
0.0
 11
76.4086784639
 21
324.5903548569
 31
0.0
  0
LINE
  5
C1
330
1F
100
AcDbEntity
  8
0
  6
Continuous
 62
     7
100
AcDbLine
 10
113.1261784639
 20
324.9378548569
 30
0.0
 11
116.5246433166
 21
324.9378548569
 31
0.0
  0
LINE
  5
C2
330
1F
100
AcDbEntity
  8
0
  6
Continuous
 62
     7
100
AcDbLine
 10
119.7927136111
 20
324.9378548569
 30
0.0
 11
126.1086784639
 21
324.9378548569
 31
0.0
  0
LINE
  5
C3
330
1F
100
AcDbEntity
  8
0
  6
Continuous
 62
     7
100
AcDbLine
 10
113.1261784639
 20
325.3378548569
 30
0.0
 11
116.2461784639
 21
325.3378548569
 31
0.0
  0
LINE
  5
C4
330
1F
100
AcDbEntity
  8
0
  6
Continuous
 62
     7
100
AcDbLine
 10
120.0711784639
 20
325.3378548569
 30
0.0
 11
126.1086784639
 21
325.3378548569
 31
0.0
  0
LINE
  5
C5
330
1F
100
AcDbEntity
  8
0
  6
Continuous
 62
     9
100
AcDbLine
 10
78.4586784639
 20
326.9703548569
 30
0.0
 11
75.9951686737
 21
326.9703548569
 31
0.0
  0
LINE
  5
C6
330
1F
100
AcDbEntity
  8
RUNDUNGEN
  6
Continuous
 62
     9
100
AcDbLine
 10
78.4586784639
 20
326.9703548569
 30
0.0
 11
79.2767366401
 21
326.9703548569
 31
0.0
  0
LINE
  5
C7
330
1F
100
AcDbEntity
  8
0
  6
Continuous
 62
     7
100
AcDbLine
 10
98.8287886969
 20
338.2955993612
 30
0.0
 11
98.1586784639
 21
338.4751548569
 31
0.0
  0
LINE
  5
C8
330
1F
100
AcDbEntity
  8
0
  6
Continuous
 62
     7
100
AcDbLine
 10
142.0400642553
 20
332.8203548569
 30
0.0
 11
142.0400642553
 21
305.8203548569
 31
0.0
  0
LINE
  5
C9
330
1F
100
AcDbEntity
  8
RUNDUNGEN
  6
Continuous
 62
     7
100
AcDbLine
 10
142.0400642553
 20
332.8203548569
 30
0.0
 11
128.1086784639
 21
332.8203548569
 31
0.0
  0
LINE
  5
CA
330
1F
100
AcDbEntity
  8
RUNDUNGEN
  6
Continuous
 62
     7
100
AcDbLine
 10
179.2371375596
 20
329.892881699
 30
0.0
 11
142.0400642553
 21
332.8203548569
 31
0.0
  0
LINE
  5
CB
330
1F
100
AcDbEntity
  8
0
  6
Continuous
 62
     7
100
AcDbLine
 10
142.0400642553
 20
332.8203548569
 30
0.0
 11
179.2371375596
 21
329.892881699
 31
0.0
  0
LWPOLYLINE
  5
CC
330
1F
100
AcDbEntity
  8
BOHRUNGEN
  6
DASHED
 62
     8
100
AcDbPolyline
 90
        2
 70
     0
 43
0.35
 10
144.1586784639
 20
315.3203548569
 10
144.1586784639
 20
323.3203548569
  0
LINE
  5
CD
330
1F
100
AcDbEntity
  8
0
  6
Continuous
 62
     7
100
AcDbLine
 10
98.1586784639
 20
338.4751548569
 30
0.0
 11
76.2086412215
 21
337.3754579911
 31
0.0
  0
LINE
  5
CE
330
1F
100
AcDbEntity
  8
0
  6
Continuous
 62
     7
100
AcDbLine
 10
99.8565088333
 20
338.2751548569
 30
0.0
 11
98.9840801239
 21
338.2751548569
 31
0.0
  0
LINE
  5
CF
330
1F
100
AcDbEntity
  8
0
  6
Continuous
 62
     7
100
AcDbLine
 10
116.9961784639
 20
340.7953548569
 30
0.0
 11
119.3211784639
 21
340.7953548569
 31
0.0
  0
LINE
  5
D0
330
1F
100
AcDbEntity
  8
BEZUGSACHSEN
  6
Continuous
 62
     7
100
AcDbLine
 10
114.7667456324
 20
344.3203548569
 30
0.0
 11
112.1586784639
 21
344.3203548569
 31
0.0
  0
LINE
  5
D1
330
1F
100
AcDbEntity
  8
BEZUGSACHSEN
  6
Continuous
 62
     7
100
AcDbLine
 10
102.1586784639
 20
344.3203548569
 30
0.0
 11
100.1586784639
 21
344.3203548569
 31
0.0
  0
LINE
  5
D2
330
1F
100
AcDbEntity
  8
0
  6
Continuous
 62
     7
100
AcDbLine
 10
100.1586784639
 20
344.3203548569
 30
0.0
 11
102.1586784639
 21
344.3203548569
 31
0.0
  0
LINE
  5
D3
330
1F
100
AcDbEntity
  8
0
  6
Continuous
 62
     7
100
AcDbLine
 10
112.1586784639
 20
344.3203548569
 30
0.0
 11
114.7667456324
 21
344.3203548569
 31
0.0
  0
LINE
  5
D4
330
1F
100
AcDbEntity
  8
0
  6
Continuous
 62
     7
100
AcDbLine
 10
121.5506112953
 20
344.3203548569
 30
0.0
 11
126.1086784639
 21
344.3203548569
 31
0.0
  0
LINE
  5
D5
330
1F
100
AcDbEntity
  8
RUNDUNGEN
  6
Continuous
 62
     9
100
AcDbLine
 10
179.2371375596
 20
308.7478280149
 30
0.0
 11
179.2371375596
 21
329.892881699
 31
0.0
  0
LINE
  5
D6
330
1F
100
AcDbEntity
  8
RUNDUNGEN
  6
Continuous
 62
     7
100
AcDbLine
 10
180.1586784639
 20
309.7447453486
 30
0.0
 11
180.1586784639
 21
328.8959643653
 31
0.0
  0
LWPOLYLINE
  5
D7
330
1F
100
AcDbEntity
  8
1
  6
Continuous
 62
     7
100
AcDbPolyline
 90
        2
 70
     0
 43
0.25
 10
180.1586784639
 20
328.8959643653
 10
180.1586784639
 20
329.8203548569466
  0
LWPOLYLINE
  5
D8
330
1F
100
AcDbEntity
  8
1
  6
Continuous
 62
     7
100
AcDbPolyline
 90
        2
 70
     0
 43
0.25
 10
179.2371375596
 20
329.892881699
 10
180.1586784638949
 20
329.8203548569466
  0
LWPOLYLINE
  5
D9
330
1F
100
AcDbEntity
  8
1
  6
Continuous
 62
     7
100
AcDbPolyline
 90
        2
 70
     0
 43
0.25
 10
179.2371375596
 20
308.7478280149
 10
180.1586784639
 20
308.8203548569486
  0
LWPOLYLINE
  5
DA
330
1F
100
AcDbEntity
  8
1
  6
Continuous
 62
     7
100
AcDbPolyline
 90
        2
 70
     0
 43
0.25
 10
180.1586784639
 20
309.7447453486
 10
180.1586784639
 20
308.8203548569486
  0
ARC
  5
DB
330
1F
100
AcDbEntity
  8
0
  6
Continuous
 62
     7
100
AcDbCircle
 10
82.5032900605
 20
303.7703548569
 30
0.0
 40
33.78031736353756
100
AcDbArc
 50
359.6607721967861
 51
0.33922780321396
  0
ARC
  5
DC
330
1F
100
AcDbEntity
  8
FASEN
  6
Continuous
 62
     7
100
AcDbCircle
 10
115.3330338116
 20
307.7537466655
 30
0.0
 40
11.32173434580035
100
AcDbArc
 50
223.8842578162989
 51
226.1595439822723
  0
ARC
  5
DD
330
1F
100
AcDbEntity
  8
FASEN
  6
Continuous
 62
     7
100
AcDbCircle
 10
112.8523647367
 20
297.9703548569
 30
0.0
 40
6.0
100
AcDbArc
 50
90.0
 51
161.1845969504029
  0
ARC
  5
DE
330
1F
100
AcDbEntity
  8
FASEN
  6
Continuous
 62
     7
100
AcDbCircle
 10
112.8523647367
 20
297.9703548569
 30
0.0
 40
5.599990644600041
100
AcDbArc
 50
90.0
 51
163.2131310087987
  0
ARC
  5
DF
330
1F
100
AcDbEntity
  8
0
  6
Continuous
 62
     7
100
AcDbCircle
 10
117.6715188541
 20
303.2484019497
 30
0.0
 40
1.4253405322444
100
AcDbArc
 50
166.945493583629
 51
180.0255794330658
  0
ARC
  5
E0
330
1F
100
AcDbEntity
  8
RUNDUNGEN
  6
Continuous
 62
     7
100
AcDbCircle
 10
78.4586784639
 20
315.4503548569
 30
0.0
 40
1.399999999999977
100
AcDbArc
 50
270.0
 51
353.9429041005092
  0
ARC
  5
E1
330
1F
100
AcDbEntity
  8
0
  6
Continuous
 62
     7
100
AcDbCircle
 10
76.2586784639
 20
302.2639990754
 30
0.0
 40
1.0
100
AcDbArc
 50
179.9999999942711
 51
267.1318795106977
  0
ARC
  5
E2
330
1F
100
AcDbEntity
  8
0
  6
Continuous
 62
     7
100
AcDbCircle
 10
116.9961784639
 20
297.0953548569
 30
0.0
 40
0.75
100
AcDbArc
 50
90.0
 51
180.0
  0
ARC
  5
E3
330
1F
100
AcDbEntity
  8
0
  6
Continuous
 62
     7
100
AcDbCircle
 10
98.9840801239
 20
299.7655548569
 30
0.0
 40
0.6000000000000227
100
AcDbArc
 50
90.0
 51
104.9999999936697
  0
ARC
  5
E4
330
1F
100
AcDbEntity
  8
0
  6
Continuous
 62
     7
100
AcDbCircle
 10
99.8565088333
 20
299.7655548569
 30
0.0
 40
0.5999999999998945
100
AcDbArc
 50
59.70317838175824
 51
90.0
  0
ARC
  5
E5
330
1F
100
AcDbEntity
  8
0
  6
Continuous
 62
     7
100
AcDbCircle
 10
116.7497984178
 20
313.2273597239
 30
0.0
 40
0.50373049789972
100
AcDbArc
 50
166.1596109370709
 51
171.3804870338134
  0
ARC
  5
E6
330
1F
100
AcDbEntity
  8
0
  6
Continuous
 62
     7
100
AcDbCircle
 10
-0.507765124
 20
352.2408903666
 30
0.0
 40
126.7303074975354
100
AcDbArc
 50
335.4508108778999
 51
337.1137532296999
  0
ARC
  5
E7
330
1F
100
AcDbEntity
  8
0
  6
Continuous
 62
     7
100
AcDbCircle
 10
113.1261784639
 20
319.3203548569
 30
0.0
 40
6.017499999999984
100
AcDbArc
 50
90.0
 51
270.0
  0
ARC
  5
E8
330
1F
100
AcDbEntity
  8
FASEN
  6
Continuous
 62
     7
100
AcDbCircle
 10
113.1261784639
 20
319.3203548569
 30
0.0
 40
5.617499843000019
100
AcDbArc
 50
90.0
 51
270.0
  0
ARC
  5
E9
330
1F
100
AcDbEntity
  8
RUNDUNGEN
  6
Continuous
 62
     7
100
AcDbCircle
 10
78.4586784639
 20
323.1903548569
 30
0.0
 40
1.400000000000061
100
AcDbArc
 50
6.05709561601257
 51
90.0
  0
ARC
  5
EA
330
1F
100
AcDbEntity
  8
0
  6
Continuous
 62
     7
100
AcDbCircle
 10
76.2586784639
 20
336.3767106385
 30
0.0
 40
0.999999999976244
100
AcDbArc
 50
92.86812048930244
 51
180.0000000229187
  0
ARC
  5
EB
330
1F
100
AcDbEntity
  8
0
  6
Continuous
 62
     7
100
AcDbCircle
 10
116.9961784639
 20
341.5453548569
 30
0.0
 40
0.75
100
AcDbArc
 50
180.0
 51
270.0
  0
ARC
  5
EC
330
1F
100
AcDbEntity
  8
0
  6
Continuous
 62
     7
100
AcDbCircle
 10
98.9840801239
 20
338.8751548569
 30
0.0
 40
0.5999999999131319
100
AcDbArc
 50
255.000000003859
 51
270.0
  0
ARC
  5
ED
330
1F
100
AcDbEntity
  8
0
  6
Continuous
 62
     7
100
AcDbCircle
 10
99.8565088333
 20
338.8751548569
 30
0.0
 40
0.6000000000000227
100
AcDbArc
 50
270.0
 51
300.2968216182418
  0
ARC
  5
EE
330
1F
100
AcDbEntity
  8
RUNDUNGEN
  6
Continuous
 62
     7
100
AcDbCircle
 10
165.4287490064
 20
-447.1155050081
 30
0.0
 40
779.4077989045003
100
AcDbArc
 50
96.40668094319999
 51
96.57315239320002
  0
ARC
  5
EF
330
1F
100
AcDbEntity
  8
0
  6
Continuous
 62
     7
100
AcDbCircle
 10
153.8140668672
 20
303.7703548569
 30
0.0
 40
33.78031736343758
100
AcDbArc
 50
179.660772196785
 51
180.339227803215
  0
ARC
  5
F0
330
1F
100
AcDbEntity
  8
RUNDUNGEN
  6
Continuous
 62
     7
100
AcDbCircle
 10
128.1086784639
 20
303.8203548569
 30
0.0
 40
2.0
100
AcDbArc
 50
90.0
 51
175.705543959705
  0
ARC
  5
F1
330
1F
100
AcDbEntity
  8
0
  6
Continuous
 62
     7
100
AcDbCircle
 10
118.6458380736
 20
303.2484019497
 30
0.0
 40
1.425340532344747
100
AcDbArc
 50
359.9744205669359
 51
13.05450641546304
  0
ARC
  5
F2
330
1F
100
AcDbEntity
  8
RUNDUNGEN
  6
Continuous
 62
     7
100
AcDbCircle
 10
179.1586784639
 20
309.7447453486
 30
0.0
 40
0.9999999999648148
100
AcDbArc
 50
274.4999999985582
 51
0.0
  0
ARC
  5
F3
330
1F
100
AcDbEntity
  8
0
  6
Continuous
 62
     7
100
AcDbCircle
 10
119.3211784639
 20
297.0953548569
 30
0.0
 40
0.75
100
AcDbArc
 50
0.0
 51
90.0
  0
ARC
  5
F4
330
1F
100
AcDbEntity
  8
RUNDUNGEN
  6
Continuous
 62
     7
100
AcDbCircle
 10
165.4287490064
 20
1085.7562147219
 30
0.0
 40
779.4077989043996
100
AcDbArc
 50
263.4268476068
 51
263.5933190568001
  0
ARC
  5
F5
330
1F
100
AcDbEntity
  8
0
  6
Continuous
 62
     7
100
AcDbCircle
 10
236.8251220517
 20
352.2408903666
 30
0.0
 40
126.7303074975
100
AcDbArc
 50
202.8862467703001
 51
204.5491891221
  0
ARC
  5
F6
330
1F
100
AcDbEntity
  8
RUNDUNGEN
  6
Continuous
 62
     7
100
AcDbCircle
 10
128.1086784639
 20
334.8203548569
 30
0.0
 40
1.999999999999986
100
AcDbArc
 50
180.0
 51
270.0
  0
ARC
  5
F7
330
1F
100
AcDbEntity
  8
RUNDUNGEN
  6
Continuous
 62
     7
100
AcDbCircle
 10
179.1586784639
 20
328.8959643653
 30
0.0
 40
1.0
100
AcDbArc
 50
0.0
 51
85.50000000144155
  0
ARC
  5
F8
330
1F
100
AcDbEntity
  8
0
  6
Continuous
 62
     7
100
AcDbCircle
 10
119.3211784639
 20
341.5453548569
 30
0.0
 40
0.75
100
AcDbArc
 50
270.0
 51
0.0
  0
CIRCLE
  5
F9
330
1F
100
AcDbEntity
  8
FASEN
  6
Continuous
 62
     7
100
AcDbCircle
 10
92.6586784639
 20
319.3203548569
 30
0.0
 40
3.0
  0
SPLINE
  5
FA
330
1F
100
AcDbEntity
  8
BEZUGSACHSEN
  6
Continuous
 62
     7
100
AcDbSpline
210
0.0
220
0.0
230
1.0
 70
     8
 71
     3
 72
    15
 73
    11
 74
     9
 42
0.0000000001
 43
0.0000000001
 44
0.00000001
 40
0.0
 40
0.0
 40
0.0
 40
0.0
 40
0.9592794728329945
 40
1.91869875783818
 40
2.733413612732456
 40
3.548061682702947
 40
4.096465872459435
 40
4.644852383038937
 40
4.839161107607712
 40
5.033464909262446
 40
5.033464909262446
 40
5.033464909262446
 40
5.033464909262446
 10
107.1586784639
 20
343.8152522848
 30
0.0
 10
106.8388990980904
 20
343.8188804477588
 30
0.0
 10
106.1992937595656
 20
343.8261373024703
 30
0.0
 10
105.289483637792
 20
343.8815515388128
 30
0.0
 10
104.430239767741
 20
343.9622739949182
 30
0.0
 10
103.7099683198375
 20
344.0538186429603
 30
0.0
 10
103.0801677880814
 20
344.1505432200591
 30
0.0
 10
102.6562125118338
 20
344.2247446592887
 30
0.0
 10
102.3492887101693
 20
344.2826360589604
 30
0.0
 10
102.2222146760684
 20
344.3077820304359
 30
0.0
 10
102.1586784639
 20
344.3203548569
 30
0.0
 11
107.1586784639
 21
343.8152522848
 31
0.0
 11
106.199583103405
 21
343.8340458069721
 31
0.0
 11
105.241805337342
 21
343.8901449627169
 31
0.0
 11
104.4306950199523
 21
343.9666978712794
 31
0.0
 11
103.6225189522144
 21
344.0691816331264
 31
0.0
 11
103.0804698022679
 21
344.1524275002
 31
0.0
 11
102.5402716782482
 21
344.246840167735
 31
0.0
 11
102.3493421114392
 21
344.2829203695315
 31
0.0
 11
102.1586784639
 21
344.3203548569
 31
0.0
  0
SPLINE
  5
FB
330
1F
100
AcDbEntity
  8
BEZUGSACHSEN
  6
Continuous
 62
     7
100
AcDbSpline
210
0.0
220
0.0
230
1.0
 70
     8
 71
     3
 72
    15
 73
    11
 74
     9
 42
0.0000000001
 43
0.0000000001
 44
0.00000001
 40
0.0
 40
0.0
 40
0.0
 40
0.0
 40
0.1942981503433454
 40
0.3886012245878602
 40
0.9369792400434207
 40
1.485374928904977
 40
2.300027372196054
 40
3.114746618659443
 40
4.074175664721924
 40
5.033464878709079
 40
5.033464878709079
 40
5.033464878709079
 40
5.033464878709079
 10
112.1586784639
 20
344.3203548569
 30
0.0
 10
112.0951440979674
 20
344.3077824049104
 30
0.0
 10
111.9680737560153
 20
344.2826371823204
 30
0.0
 10
111.6611564577198
 20
344.2247469083071
 30
0.0
 10
111.2372086747408
 20
344.1505464532892
 30
0.0
 10
110.6074124020391
 20
344.0538218660777
 30
0.0
 10
109.8871409186187
 20
343.9622767560696
 30
0.0
 10
109.0278909421238
 20
343.8815533195661
 30
0.0
 10
108.1180729176331
 20
343.8261377154178
 30
0.0
 10
107.4784610772976
 20
343.8188805853779
 30
0.0
 10
107.1586784639
 20
343.8152522848
 30
0.0
 11
112.1586784639
 21
344.3203548569
 31
0.0
 11
111.9680203594659
 21
344.282921470192
 31
0.0
 11
111.7770963552128
 21
344.2468422620402
 31
0.0
 11
111.2369066656769
 21
344.1524306782489
 31
0.0
 11
110.6948659990711
 21
344.0691855744438
 31
0.0
 11
109.8866856668851
 21
343.96670067786
 31
0.0
 11
109.0755710221406
 21
343.8901468821409
 31
0.0
 11
108.1177835557069
 21
343.8340464046856
 31
0.0
 11
107.1586784639
 21
343.8152522848
 31
0.0
  0
SPLINE
  5
FC
330
1F
100
AcDbEntity
  8
0
  6
Continuous
 62
     7
100
AcDbSpline
210
0.0
220
0.0
230
1.0
 70
     8
 71
     3
 72
    27
 73
    23
 74
    21
 42
0.0000000001
 43
0.0000000001
 44
0.00000001
 40
0.0
 40
0.0
 40
0.0
 40
0.0
 40
0.0730306820182209
 40
0.1460817688958908
 40
0.2142068183175094
 40
0.2823160954175367
 40
0.3442738269432686
 40
0.4062919406489684
 40
0.4617913417079864
 40
0.5170559905345614
 40
0.5428520623134678
 40
0.568643224647239
 40
0.5939867602525495
 40
0.6193292498096898
 40
0.6451121206929045
 40
0.6708991015705738
 40
0.6979696846181371
 40
0.7250453875188079
 40
0.7848430774253445
 40
0.844883720652383
 40
0.9129318641435327
 40
0.9808740946486655
 40
0.9808740946486655
 40
0.9808740946486655
 40
0.9808740946486655
 10
75.9467491949
 20
311.5843971509
 30
0.0
 10
75.9269168206408
 20
311.570271816763
 30
0.0
 10
75.88724653093345
 20
311.542017201854
 30
0.0
 10
75.82647852080235
 20
311.5044253238928
 30
0.0
 10
75.76511125235277
 20
311.4711574224674
 30
0.0
 10
75.70478991245152
 20
311.4440377744094
 30
0.0
 10
75.64430006193898
 20
311.4227725742867
 30
0.0
 10
75.58585668313333
 20
311.4092563662284
 30
0.0
 10
75.52835009947873
 20
311.4037449654536
 30
0.0
 10
75.48263110297692
 20
311.4069128701768
 30
0.0
 10
75.44785594621855
 20
311.4148737273788
 30
0.0
 10
75.4235635190062
 20
311.423261290935
 30
0.0
 10
75.40054513363128
 20
311.4343491756537
 30
0.0
 10
75.3789740880255
 20
311.4480417835503
 30
0.0
 10
75.35910075187358
 20
311.4643353000453
 30
0.0
 10
75.34083120949242
 20
311.4832094065956
 30
0.0
 10
75.32452963841652
 20
311.5043545170319
 30
0.0
 10
75.3045091304619
 20
311.5366922186673
 30
0.0
 10
75.28494191028396
 20
311.5819129761177
 30
0.0
 10
75.26919937824152
 20
311.6426774357404
 30
0.0
 10
75.26008247121788
 20
311.7075654698458
 30
0.0
 10
75.25914622328088
 20
311.7529142396319
 30
0.0
 10
75.2586784639
 20
311.7755709651
 30
0.0
 11
75.9467491949
 21
311.5843971509
 31
0.0
 11
75.88680933892866
 21
311.5426755236285
 31
0.0
 11
75.82472066128545
 21
311.5041858184786
 31
0.0
 11
75.76472729255563
 21
311.4719086118592
 31
0.0
 11
75.70254124047035
 21
311.44412788917
 31
0.0
 11
75.64398705023214
 21
311.4238753016474
 31
0.0
 11
75.58349856518464
 21
311.4101862693853
 31
0.0
 11
75.52821737500415
 21
311.4052696109533
 31
0.0
 11
75.47311715521653
 21
311.4095295627465
 31
0.0
 11
75.447979239152
 21
311.4153194241572
 31
0.0
 11
75.42361451895194
 21
311.4237778202286
 31
0.0
 11
75.40078425088026
 21
311.4347811677534
 31
0.0
 11
75.37939603295227
 21
311.4483747659091
 31
0.0
 11
75.35943789280826
 21
311.4646974211151
 31
0.0
 11
75.34148641439215
 21
311.4832099251451
 31
0.0
 11
75.32491281427625
 21
311.5046139491998
 31
0.0
 11
75.31061732449565
 21
311.5276081367153
 31
0.0
 11
75.28644830006044
 21
311.5823038584493
 31
0.0
 11
75.27091949947682
 21
311.6403015755729
 31
0.0
 11
75.26142672471457
 21
311.7076843408761
 31
0.0
 11
75.2586784639
 21
311.7755709651
 31
0.0
  0
SPLINE
  5
FD
330
1F
100
AcDbEntity
  8
RUNDUNGEN
  6
Continuous
 62
     7
100
AcDbSpline
210
0.0
220
0.0
230
1.0
 70
     8
 71
     3
 72
    15
 73
    11
 74
     9
 42
0.0000000001
 43
0.0000000001
 44
0.00000001
 40
0.0
 40
0.0
 40
0.0
 40
0.0
 40
0.2286533797108377
 40
0.4574173648533604
 40
0.6866651597359414
 40
0.915864049087667
 40
1.146314057848031
 40
1.376831723972567
 40
1.609554238585476
 40
1.842048835040622
 40
1.842048835040622
 40
1.842048835040622
 40
1.842048835040622
 10
79.2767366401
 20
326.9703548569
 30
0.0
 10
79.31914140856186
 20
326.9069907161472
 30
0.0
 10
79.40397145774621
 20
326.7802317838018
 30
0.0
 10
79.5154482328309
 20
326.5800503304678
 30
0.0
 10
79.61459648540509
 20
326.3733947383024
 30
0.0
 10
79.69909659429288
 20
326.1596586096739
 30
0.0
 10
79.76787220774727
 20
325.9398650532345
 30
0.0
 10
79.81884926218223
 20
325.7141330064868
 30
0.0
 10
79.85218854452381
 20
325.484151472171
 30
0.0
 10
79.85651586411826
 20
325.3290285606969
 30
0.0
 10
79.8586784639
 20
325.2515051037
 30
0.0
 11
79.2767366401
 21
326.9703548569
 31
0.0
 11
79.40130958649942
 21
326.7786155832011
 31
0.0
 11
79.51330512459728
 21
326.5791413734785
 31
0.0
 11
79.61212553253709
 21
326.3722861621999
 31
0.0
 11
79.69631345477755
 21
326.1591089480589
 31
0.0
 11
79.76485116429814
 21
325.939086701658
 31
0.0
 11
79.8157544099309
 21
325.7142595369746
 31
0.0
 11
79.84770364809592
 21
325.4837405247686
 31
0.0
 11
79.8586784639
 21
325.2515051037
 31
0.0
  0
SPLINE
  5
FE
330
1F
100
AcDbEntity
  8
RUNDUNGEN
  6
Continuous
 62
     7
100
AcDbSpline
210
0.0
220
0.0
230
1.0
 70
     8
 71
     3
 72
    15
 73
    11
 74
     9
 42
0.0000000001
 43
0.0000000001
 44
0.00000001
 40
0.0
 40
0.0
 40
0.0
 40
0.0
 40
0.1273079846700976
 40
0.2549893803122475
 40
0.3793073350289844
 40
0.5035989686726673
 40
0.6245667031165008
 40
0.7455591721317637
 40
0.864593737222914
 40
0.9835510381420393
 40
0.9835510381420393
 40
0.9835510381420393
 40
0.9835510381420393
 10
78.4586784639
 20
327.4248256545
 30
0.0
 10
78.50115763350189
 20
327.4272722986074
 30
0.0
 10
78.58624056966676
 20
327.4321727631492
 30
0.0
 10
78.71188692131501
 20
327.4105085757001
 30
0.0
 10
78.83067293857965
 20
327.3688691032934
 30
0.0
 10
78.93943958728688
 20
327.3099976144932
 30
0.0
 10
79.03828979251396
 20
327.2378235779165
 30
0.0
 10
79.12667543668223
 20
327.1558701659389
 30
0.0
 10
79.20672031679055
 20
327.0666314700474
 30
0.0
 10
79.25340291750635
 20
327.0024401146978
 30
0.0
 10
79.2767366401
 20
326.9703548569
 30
0.0
 11
78.4586784639
 21
327.4248256545
 31
0.0
 11
78.58596213221908
 21
327.4273137742721
 31
0.0
 11
78.71199340424977
 21
327.4068526583823
 31
0.0
 11
78.82935240624595
 21
327.3658426777018
 31
0.0
 11
78.93888069497692
 21
327.3070892594057
 31
0.0
 11
79.03676768567144
 21
327.2360165513579
 31
0.0
 11
79.12582138064867
 21
327.1541104040348
 31
0.0
 11
79.20514054183302
 21
327.0653540050799
 31
0.0
 11
79.2767366401
 21
326.9703548569
 31
0.0
  0
SPLINE
  5
FF
330
1F
100
AcDbEntity
  8
RUNDUNGEN
  6
Continuous
 62
     7
100
AcDbSpline
210
0.0
220
0.0
230
1.0
 70
     8
 71
     3
 72
    15
 73
    11
 74
     9
 42
0.0000000001
 43
0.0000000001
 44
0.00000001
 40
0.0
 40
0.0
 40
0.0
 40
0.0
 40
0.2324947530161945
 40
0.4652174308918888
 40
0.6957353316508731
 40
0.926185560558356
 40
1.155384407681355
 40
1.384632178690856
 40
1.613395801615777
 40
1.842048806033287
 40
1.842048806033287
 40
1.842048806033287
 40
1.842048806033287
 10
79.8586784639
 20
313.3892046101
 30
0.0
 10
79.85651585692325
 20
313.3116811009006
 30
0.0
 10
79.85218852287078
 20
313.156558082787
 30
0.0
 10
79.81884918443143
 20
312.9265763706327
 30
0.0
 10
79.76787212562772
 20
312.7008441142372
 30
0.0
 10
79.69909642926835
 20
312.4810504339742
 30
0.0
 10
79.61459605468653
 20
312.267314351559
 30
0.0
 10
79.51544767951634
 20
312.0606589840849
 30
0.0
 10
79.4039711742034
 20
311.8604776752485
 30
0.0
 10
79.31914131324342
 20
311.7337189115254
 30
0.0
 10
79.2767366401
 20
311.6703548569
 30
0.0
 11
79.8586784639
 21
313.3892046101
 31
0.0
 11
79.84770362148907
 21
313.156969033553
 31
0.0
 11
79.81575434576074
 21
312.9264498617298
 31
0.0
 11
79.76485106415156
 21
312.7016224646187
 31
0.0
 11
79.69631322508563
 21
312.4816000279908
 31
0.0
 11
79.61212511494821
 21
312.2684229334567
 31
0.0
 11
79.51330457623506
 21
312.0615678111095
 31
0.0
 11
79.40130929348229
 21
311.8620938734263
 31
0.0
 11
79.2767366401
 21
311.6703548569
 31
0.0
  0
SPLINE
  5
100
330
1F
100
AcDbEntity
  8
RUNDUNGEN
  6
Continuous
 62
     7
100
AcDbSpline
210
0.0
220
0.0
230
1.0
 70
     8
 71
     3
 72
    17
 73
    13
 74
    11
 42
0.0000000001
 43
0.0000000001
 44
0.00000001
 40
0.0
 40
0.0
 40
0.0
 40
0.0
 40
0.1190059193320707
 40
0.238081474426296
 40
0.3590691915214739
 40
0.4800850747516788
 40
0.604490646046527
 40
0.72865219442281
 40
0.7922003881589841
 40
0.8557409871820123
 40
0.9198158321561
 40
0.9838416201775989
 40
0.9838416201775989
 40
0.9838416201775989
 40
0.9838416201775989
 10
79.2767366401
 20
311.6703548569
 30
0.0
 10
79.25339093936101
 20
311.6382583258652
 30
0.0
 10
79.20668587725442
 20
311.5740464826591
 30
0.0
 10
79.12661941478407
 20
311.4847886885156
 30
0.0
 10
79.0382484858008
 20
311.4027869956176
 30
0.0
 10
78.9393237277337
 20
311.3305803233238
 30
0.0
 10
78.83048965486516
 20
311.2719663803464
 30
0.0
 10
78.73192760289662
 20
311.2370864234892
 30
0.0
 10
78.64988107373406
 20
311.2197394735196
 30
0.0
 10
78.58651815452646
 20
311.2123464109839
 30
0.0
 10
78.52253085226569
 20
311.2104130795572
 30
0.0
 10
78.47995715873296
 20
311.2140608650333
 30
0.0
 10
78.4586784639
 20
311.2158840593
 30
0.0
 11
79.2767366401
 21
311.6703548569
 31
0.0
 11
79.20510468371555
 21
311.5753218538926
 31
0.0
 11
79.12576070398774
 21
311.4865326614087
 31
0.0
 11
79.03672849593502
 21
311.4046101759901
 31
0.0
 11
78.93877730114603
 21
311.3335439573387
 31
0.0
 11
78.82909099799383
 21
311.2748442037617
 31
0.0
 11
78.71190252532594
 21
311.2338204061686
 31
0.0
 11
78.64972269582354
 21
311.2207039382682
 31
0.0
 11
78.58661829185532
 21
311.2132714471635
 31
0.0
 11
78.52256400251474
 21
311.2116485560621
 31
0.0
 11
78.4586784639
 21
311.2158840593
 31
0.0
  0
SPLINE
  5
101
330
1F
100
AcDbEntity
  8
0
  6
Continuous
 62
     7
100
AcDbSpline
210
0.0
220
0.0
230
1.0
 70
     8
 71
     3
 72
    11
 73
     7
 74
     5
 42
0.0000000001
 43
0.0000000001
 44
0.00000001
 40
0.0
 40
0.0
 40
0.0
 40
0.0
 40
0.0719820116952374
 40
0.1441794862810878
 40
0.2163078795456226
 40
0.2883301028005357
 40
0.2883301028005357
 40
0.2883301028005357
 40
0.2883301028005357
 10
76.2086412215
 20
311.4718423109
 30
0.0
 10
76.18491438830044
 20
311.4757454981059
 30
0.0
 10
76.13738970065664
 20
311.4835635558812
 30
0.0
 10
76.06952303243558
 20
311.5089972796421
 30
0.0
 10
76.00528621513362
 20
311.5422248097852
 30
0.0
 10
75.96625195178817
 20
311.5703466079635
 30
0.0
 10
75.9467491949
 20
311.5843971509
 30
0.0
 11
76.2086412215
 21
311.4718423109
 31
0.0
 11
76.13803109495521
 21
311.4858287342105
 31
0.0
 11
76.07010941254133
 21
311.5103056701839
 31
0.0
 11
76.00619760406357
 21
311.5437389747173
 31
0.0
 11
75.9467491949
 21
311.5843971509
 31
0.0
  0
SPLINE
  5
102
330
1F
100
AcDbEntity
  8
FASEN
  6
Continuous
 62
     7
100
AcDbSpline
210
0.0
220
0.0
230
1.0
 70
     8
 71
     3
 72
    41
 73
    37
 74
    35
 42
0.0000000001
 43
0.0000000001
 44
0.00000001
 40
0.0
 40
0.0
 40
0.0
 40
0.0
 40
0.3535888544087382
 40
0.7075507289514925
 40
1.060684840903139
 40
1.413709983367136
 40
1.765779918047501
 40
2.117876005200362
 40
2.469055569646667
 40
2.82022771123457
 40
3.17108442521026
 40
3.521941346594733
 40
3.873160085232041
 40
4.224381765451255
 40
4.576461723089972
 40
4.928542604160103
 40
5.281581803795278
 40
5.634626310450661
 40
5.988339657455272
 40
6.342041478545546
 40
6.695908397035588
 40
7.049820838049274
 40
7.403595216253617
 40
7.757194007881208
 40
7.933994428083007
 40
8.110739696148029
 40
8.287420502916671
 40
8.464157456684797
 40
8.817287503336155
 40
9.170592253412524
 40
9.523997521662798
 40
9.877334047528255
 40
10.23089310700997
 40
10.58456791527243
 40
10.93860935641548
 40
11.29227461510832
 40
11.29227461510832
 40
11.29227461510832
 40
11.29227461510832
 10
96.2579268754
 20
319.3203548569
 30
0.0
 10
96.25461826522596
 20
319.2024432647152
 30
0.0
 10
96.24799755444485
 20
318.9664956889871
 30
0.0
 10
96.19412072153297
 20
318.6161907446982
 30
0.0
 10
96.10888743338717
 20
318.2728047209941
 30
0.0
 10
95.99005896768752
 20
317.9400235140833
 30
0.0
 10
95.83939628261476
 20
317.620847995207
 30
0.0
 10
95.65844633572837
 20
317.3185022500481
 30
0.0
 10
95.4487451750754
 20
317.035722691604
 30
0.0
 10
95.21258400019587
 20
316.7751889749814
 30
0.0
 10
94.951964566022
 20
316.5392857994248
 30
0.0
 10
94.66946281244994
 20
316.3300578461006
 30
0.0
 10
94.36762079474957
 20
316.1496136275883
 30
0.0
 10
94.04922256687367
 20
315.999363269076
 30
0.0
 10
93.71736289842154
 20
315.88093909829
 30
0.0
 10
93.37497194272639
 20
315.7952186179095
 30
0.0
 10
93.02553334818305
 20
315.7432565205925
 30
0.0
 10
92.67216195122828
 20
315.7253996827353
 30
0.0
 10
92.31850741768645
 20
315.7420137404593
 30
0.0
 10
91.96785540396833
 20
315.7928577902775
 30
0.0
 10
91.62375600599242
 20
315.8776251450428
 30
0.0
 10
91.28949854403746
 20
315.9954567487033
 30
0.0
 10
90.96846380004695
 20
316.1453700265996
 30
0.0
 10
90.71441751073492
 20
316.295796508217
 30
0.0
 10
90.52097589932058
 20
316.4306269268686
 30
0.0
 10
90.38106744194404
 20
316.5387442641365
 30
0.0
 10
90.24664269468495
 20
316.6535757911846
 30
0.0
 10
90.07525793932412
 20
316.8152307090614
 30
0.0
 10
89.87631200104532
 20
317.0329297274823
 30
0.0
 10
89.66443829756972
 20
317.3163250523849
 30
0.0
 10
89.48163927354615
 20
317.619401580075
 30
0.0
 10
89.32960609345545
 20
317.9390825676828
 30
0.0
 10
89.20970660966734
 20
318.2723164698421
 30
0.0
 10
89.12375617782821
 20
318.6159286184992
 30
0.0
 10
89.06947873884678
 20
318.9664185092006
 30
0.0
 10
89.06277842729571
 20
319.2024178895965
 30
0.0
 10
89.0594300523
 20
319.3203548569
 30
0.0
 11
96.2579268754
 21
319.3203548569
 31
0.0
 11
96.24067904816023
 21
318.9671869217507
 31
0.0
 11
96.18883298767999
 21
318.6170426734151
 31
0.0
 11
96.1032470199235
 21
318.2744368603485
 31
0.0
 11
95.98460985957371
 21
317.9419432883868
 31
0.0
 11
95.83430431612743
 21
317.6235701071746
 31
0.0
 11
95.65345696553308
 21
317.3214676570499
 31
0.0
 11
95.44429117400026
 21
317.039374129763
 31
0.0
 11
95.20842055059474
 21
316.77920702569
 31
0.0
 11
94.94832074156251
 21
316.5437319249188
 31
0.0
 11
94.66635669462902
 21
316.3349333245397
 31
0.0
 11
94.36492290801614
 21
316.154677188283
 31
0.0
 11
94.04728778525633
 21
316.004795243255
 31
0.0
 11
93.71570473565184
 21
315.8864188191416
 31
0.0
 11
93.37416332868801
 21
315.8009178592389
 31
0.0
 11
93.02496984896919
 21
315.7489506561113
 31
0.0
 11
92.6723746213755
 21
315.7311453434858
 31
0.0
 11
92.31904964091865
 21
315.7477161018985
 31
0.0
 11
91.96901237131618
 21
315.7984988561742
 31
0.0
 11
91.62541497285493
 21
315.8831311418121
 31
0.0
 11
91.29164614601466
 21
316.0008273020466
 31
0.0
 11
90.97109470014243
 21
316.1505038908074
 31
0.0
 11
90.66686545575186
 21
316.3307167435623
 31
0.0
 11
90.52181734124173
 21
316.4318079551516
 31
0.0
 11
90.38196188470516
 21
316.539878955241
 31
0.0
 11
90.24762739123271
 21
316.654641106423
 31
0.0
 11
90.1190650195512
 21
316.7759162787166
 31
0.0
 11
89.88082652608279
 21
317.0365755392041
 31
0.0
 11
89.66930975600732
 21
317.3195682995415
 31
0.0
 11
89.48676245653733
 21
317.6221765728641
 31
0.0
 11
89.33499553681864
 21
317.9412588547128
 31
0.0
 11
89.21538702850954
 21
318.2739716637263
 31
0.0
 11
89.1290616252855
 21
318.6169494979338
 31
0.0
 11
89.07684002511775
 21
318.9671183807926
 31
0.0
 11
89.0594300523
 21
319.3203548569
 31
0.0
  0
SPLINE
  5
103
330
1F
100
AcDbEntity
  8
0
  6
Continuous
 62
     7
100
AcDbSpline
210
0.0
220
0.0
230
1.0
 70
     8
 71
     3
 72
    11
 73
     7
 74
     5
 42
0.0000000001
 43
0.0000000001
 44
0.00000001
 40
0.0
 40
0.0
 40
0.0
 40
0.0
 40
0.0720335616825571
 40
0.1441734620247887
 40
0.2163593593463072
 40
0.2883296528713751
 40
0.2883296528713751
 40
0.2883296528713751
 40
0.2883296528713751
 10
75.9467491949
 20
327.056312563
 30
0.0
 10
75.96625524838467
 20
327.0703650330191
 30
0.0
 10
76.00529615092566
 20
327.0984907178433
 30
0.0
 10
76.06953807558166
 20
327.1317167108011
 30
0.0
 10
76.13740127229515
 20
327.1571479044369
 30
0.0
 10
76.18491826098506
 20
327.1649648004642
 30
0.0
 10
76.2086412215
 20
327.1688674029
 30
0.0
 11
75.9467491949
 21
327.056312563
 31
0.0
 11
76.00620782084991
 21
327.0969758856486
 31
0.0
 11
76.0701312475955
 21
327.1304118054728
 31
0.0
 11
76.138042576682
 21
327.1548833226676
 31
0.0
 11
76.2086412215
 21
327.1688674029
 31
0.0
  0
SPLINE
  5
104
330
1F
100
AcDbEntity
  8
0
  6
Continuous
 62
     7
100
AcDbSpline
210
0.0
220
0.0
230
1.0
 70
     8
 71
     3
 72
    27
 73
    23
 74
    21
 42
0.0000000001
 43
0.0000000001
 44
0.00000001
 40
0.0
 40
0.0
 40
0.0
 40
0.0
 40
0.0679422772585645
 40
0.1359904671707039
 40
0.1960311417291807
 40
0.2558288643339177
 40
0.2829045758192492
 40
0.3099751664713604
 40
0.3357621418075943
 40
0.3615450076661093
 40
0.3868874812276659
 40
0.4122310011635733
 40
0.4380221512417696
 40
0.4638182097069798
 40
0.5190828346121716
 40
0.5745822153236527
 40
0.6366003186991598
 40
0.6985580374499428
 40
0.766667300824838
 40
0.8347923375154508
 40
0.907843419969101
 40
0.9808740973414365
 40
0.9808740973414365
 40
0.9808740973414365
 40
0.9808740973414365
 10
75.2586784639
 20
326.8651387488
 30
0.0
 10
75.25914622395868
 20
326.8877954898743
 30
0.0
 10
75.26008247324958
 20
326.9331442907623
 30
0.0
 10
75.26919939468527
 20
326.9980323653012
 30
0.0
 10
75.28494195263409
 20
327.0587968566126
 30
0.0
 10
75.3045091964585
 20
327.1040176302164
 30
0.0
 10
75.32452972087853
 20
327.1363553408785
 30
0.0
 10
75.34083130526298
 20
327.1575004461972
 30
0.0
 10
75.35910086757528
 20
327.1763745326413
 30
0.0
 10
75.37897421700838
 20
327.1926680188694
 30
0.0
 10
75.40054526634921
 20
327.2063605974669
 30
0.0
 10
75.42356364564816
 20
327.2174484598245
 30
0.0
 10
75.44785606049304
 20
327.2258360156757
 30
0.0
 10
75.48263120104568
 20
327.2337968704177
 30
0.0
 10
75.52835018066803
 20
327.2369647573088
 30
0.0
 10
75.58585674299817
 20
327.2314533321125
 30
0.0
 10
75.64430010526131
 20
327.2179371201646
 30
0.0
 10
75.70478994440779
 20
327.1966719248318
 30
0.0
 10
75.76511127200527
 20
327.1695522812138
 30
0.0
 10
75.8264785308619
 20
327.1362843837535
 30
0.0
 10
75.8872465346517
 20
327.0986925093815
 30
0.0
 10
75.9269168219003
 20
327.0704378962345
 30
0.0
 10
75.9467491949
 20
327.056312563
 30
0.0
 11
75.2586784639
 21
326.8651387488
 31
0.0
 11
75.26142672899263
 21
326.9330254196424
 31
0.0
 11
75.27091951960922
 21
327.0004082295914
 31
0.0
 11
75.28644834326995
 21
327.0584059729712
 31
0.0
 11
75.31061739682838
 21
327.1131017175845
 31
0.0
 11
75.32491289798952
 21
327.1360959081332
 31
0.0
 11
75.34148651493165
 21
327.1574999287768
 31
0.0
 11
75.35943800831176
 21
327.1760124105773
 31
0.0
 11
75.37939616388122
 21
327.1923350389852
 31
0.0
 11
75.400784382203
 21
327.2059286067008
 31
0.0
 11
75.42361464332996
 21
327.2169319325442
 31
0.0
 11
75.44797935358218
 21
327.2253903199012
 31
0.0
 11
75.47311725687274
 21
327.2311801774552
 31
0.0
 11
75.52821745403062
 21
327.2354401116183
 31
0.0
 11
75.58349862205216
 21
327.2305234337223
 31
0.0
 11
75.6439870948497
 21
327.2168343941316
 31
0.0
 11
75.7025412726936
 21
327.1965818098564
 31
0.0
 11
75.76472731195966
 21
327.1688010921214
 31
0.0
 11
75.82472066906142
 21
327.1365238907595
 31
0.0
 11
75.88680934276377
 21
327.098034187649
 31
0.0
 11
75.9467491949
 21
327.056312563
 31
0.0
  0
SPLINE
  5
105
330
1F
100
AcDbEntity
  8
0
  6
Continuous
 62
     7
100
AcDbSpline
210
0.0
220
0.0
230
1.0
 70
     8
 71
     3
 72
    25
 73
    21
 74
    19
 42
0.0000000001
 43
0.0000000001
 44
0.00000001
 40
0.0
 40
0.0
 40
0.0
 40
0.0
 40
0.0272067661449932
 40
0.0544881809679473
 40
0.0817226175578166
 40
0.1089430469952935
 40
0.1361366761230241
 40
0.1633351632611096
 40
0.1904968256842964
 40
0.2176561384432547
 40
0.2719142874126553
 40
0.3262206322898794
 40
0.3804997304113708
 40
0.4347596646695728
 40
0.4890233386062107
 40
0.5432903873303234
 40
0.5975530059009817
 40
0.6518162747187668
 40
0.7603346282746861
 40
0.8688546603594058
 40
0.8688546603594058
 40
0.8688546603594058
 40
0.8688546603594058
 10
116.9961784639
 20
324.256509737
 30
0.0
 10
116.9871020075693
 20
324.2569467272875
 30
0.0
 10
116.9689241913429
 20
324.2578219068567
 30
0.0
 10
116.9423227893888
 20
324.2643608293835
 30
0.0
 10
116.9168485499157
 20
324.2741693508767
 30
0.0
 10
116.8927790488401
 20
324.2870078517393
 30
0.0
 10
116.8701561963042
 20
324.3021824724437
 30
0.0
 10
116.8489314990221
 20
324.3192115115274
 30
0.0
 10
116.8289463008344
 20
324.3376495581999
 30
0.0
 10
116.8038303512037
 20
324.3637319269707
 30
0.0
 10
116.7748975540647
 20
324.3985973087719
 30
0.0
 10
116.7435281620768
 20
324.4429401432001
 30
0.0
 10
116.7147047410806
 20
324.4889647752178
 30
0.0
 10
116.6880877491246
 20
324.5362748201215
 30
0.0
 10
116.6632767558663
 20
324.5845461585375
 30
0.0
 10
116.640049294764
 20
324.6335968343217
 30
0.0
 10
116.6181664565003
 20
324.6832602303339
 30
0.0
 10
116.5906216833578
 20
324.7501636897482
 30
0.0
 10
116.5586495627925
 20
324.8347922980187
 30
0.0
 10
116.5359787904412
 20
324.9035004934814
 30
0.0
 10
116.5246433166
 20
324.9378548569
 30
0.0
 11
116.9961784639
 21
324.256509737
 31
0.0
 11
116.9690591560468
 21
324.2586894768086
 31
0.0
 11
116.9424965111028
 21
324.2649105288353
 31
0.0
 11
116.9170739607285
 21
324.2746782547136
 31
0.0
 11
116.8930107509711
 21
324.2874027867259
 31
0.0
 11
116.870387909772
 21
324.3024925356044
 31
0.0
 11
116.8491273402007
 21
324.3194556097392
 31
0.0
 11
116.8291337444882
 21
324.3378407133853
 31
0.0
 11
116.8102630620157
 21
324.3573733940145
 31
0.0
 11
116.775464784183
 21
324.3990030299661
 31
0.0
 11
116.743947597705
 21
324.4432279782469
 31
0.0
 11
116.7150679710714
 21
324.4891865210696
 31
0.0
 11
116.6883890015778
 21
324.5364345162913
 31
0.0
 11
116.6635412484613
 21
324.5846749088494
 31
0.0
 11
116.640272777289
 21
324.6337003188581
 31
0.0
 11
116.6183703730519
 21
324.6833462296946
 31
0.0
 11
116.59767102762
 21
324.7335063676677
 31
0.0
 11
116.5593763938316
 21
324.8350433268574
 31
0.0
 11
116.5246433166
 21
324.9378548569
 31
0.0
  0
SPLINE
  5
106
330
1F
100
AcDbEntity
  8
0
  6
Continuous
 62
     7
100
AcDbSpline
210
0.0
220
0.0
230
1.0
 70
     8
 71
     3
 72
    25
 73
    21
 74
    19
 42
0.0000000001
 43
0.0000000001
 44
0.00000001
 40
0.0
 40
0.0
 40
0.0
 40
0.0
 40
0.1085285490187801
 40
0.2170554556524951
 40
0.2713241332608886
 40
0.3255921109184627
 40
0.3798650579415199
 40
0.4341347749078385
 40
0.4884007825040113
 40
0.5426855351780333
 40
0.5969918906350119
 40
0.651251125251541
 40
0.6784124280696336
 40
0.7055751104284232
 40
0.7327602080249449
 40
0.7599421721780205
 40
0.787153299721742
 40
0.81437601916925
 40
0.841652575774229
 40
0.8688563235763794
 40
0.8688563235763794
 40
0.8688563235763794
 40
0.8688563235763794
 10
119.7927136111
 20
324.9378548569
 30
0.0
 10
119.7813771876939
 20
324.9034978163505
 30
0.0
 10
119.7587045124383
 20
324.8347842551838
 30
0.0
 10
119.7267294925866
 20
324.7501487339748
 30
0.0
 10
119.6991824341618
 20
324.6832392515282
 30
0.0
 10
119.6772973227918
 20
324.6335707817292
 30
0.0
 10
119.6540668986514
 20
324.5845151225049
 30
0.0
 10
119.6292526665605
 20
324.5362387031658
 30
0.0
 10
119.6026327507224
 20
324.4889235017827
 30
0.0
 10
119.5738053949885
 20
324.4428966290816
 30
0.0
 10
119.5424289805022
 20
324.3985559125729
 30
0.0
 10
119.5134920453526
 20
324.3636928376977
 30
0.0
 10
119.4883753253531
 20
324.3376093329475
 30
0.0
 10
119.4683896488765
 20
324.3191765956562
 30
0.0
 10
119.4471617817899
 20
324.3021640834498
 30
0.0
 10
119.4245434383393
 20
324.2870042460993
 30
0.0
 10
119.4004893924528
 20
324.2741612820892
 30
0.0
 10
119.3750269236679
 20
324.2643443039022
 30
0.0
 10
119.3484291336337
 20
324.2578163534455
 30
0.0
 10
119.3302539238805
 20
324.256944887599
 30
0.0
 10
119.3211784639
 20
324.256509737
 30
0.0
 11
119.7927136111
 21
324.9378548569
 31
0.0
 11
119.7579776081846
 21
324.8350353254209
 31
0.0
 11
119.7196798029204
 21
324.7334904211892
 31
0.0
 11
119.6989784645825
 21
324.6833252543861
 31
0.0
 11
119.6770738147737
 21
324.633674476791
 31
0.0
 11
119.6538023985857
 21
324.5846439356235
 31
0.0
 11
119.6289514644411
 21
324.536398383997
 31
0.0
 11
119.6022691035739
 21
324.4891453290801
 31
0.0
 11
119.5733842502996
 21
324.4431833923912
 31
0.0
 11
119.5418622192127
 21
324.3989618840589
 31
0.0
 11
119.5070598171371
 21
324.3573342808257
 31
0.0
 11
119.4881871143697
 21
324.3378007849525
 31
0.0
 11
119.4681891480209
 21
324.3194189282771
 31
0.0
 11
119.4469313733736
 21
324.3024738243123
 31
0.0
 11
119.42431430969
 21
324.2873964370867
 31
0.0
 11
119.4002629839668
 21
324.2746693324216
 31
0.0
 11
119.374854364964
 21
324.2648980206114
 31
0.0
 11
119.3482952457862
 21
324.2586832214413
 31
0.0
 11
119.3211784639
 21
324.256509737
 31
0.0
  0
SPLINE
  5
107
330
1F
100
AcDbEntity
  8
0
  6
Continuous
 62
     7
100
AcDbSpline
210
0.0
220
0.0
230
1.0
 70
     8
 71
     3
 72
    25
 73
    21
 74
    19
 42
0.0000000001
 43
0.0000000001
 44
0.00000001
 40
0.0
 40
0.0
 40
0.0
 40
0.0
 40
0.0272074181306799
 40
0.0544897103794155
 40
0.0817252615499334
 40
0.1089465263892051
 40
0.1361394922857881
 40
0.1633375027352922
 40
0.1904999127674267
 40
0.2176598700645745
 40
0.2719180516412735
 40
0.3262245620917982
 40
0.3805032120278327
 40
0.4347626393901854
 40
0.4890258447550755
 40
0.5432924465563301
 40
0.5975546789462866
 40
0.6518175541914581
 40
0.7603351296895194
 40
0.8688543878638906
 40
0.8688543878638906
 40
0.8688543878638906
 40
0.8688543878638906
 10
119.3211784639
 20
314.3841999769
 30
0.0
 10
119.3302551367623
 20
314.3837627364089
 30
0.0
 10
119.3484334612582
 20
314.3828870521519
 30
0.0
 10
119.3750353344632
 20
314.3763465102537
 30
0.0
 10
119.4005107911605
 20
314.3665387717163
 30
0.0
 10
119.4245813147369
 20
314.3537011425049
 30
0.0
 10
119.4472036864797
 20
314.3385259039554
 30
0.0
 10
119.4684275420739
 20
314.3214960550567
 30
0.0
 10
119.4884128974355
 20
314.3030577561945
 30
0.0
 10
119.5135294012729
 20
314.2769752540104
 30
0.0
 10
119.5424619984829
 20
314.2421093044611
 30
0.0
 10
119.573830591644
 20
314.197766020991
 30
0.0
 10
119.6026537426899
 20
314.1517415439952
 30
0.0
 10
119.6292706222106
 20
314.1044319794058
 30
0.0
 10
119.6540813522544
 20
314.0561610365347
 30
0.0
 10
119.6773085278515
 20
314.0071107061804
 30
0.0
 10
119.6991911643679
 20
313.9574476687613
 30
0.0
 10
119.7267357320959
 20
313.8905446864305
 30
0.0
 10
119.7587076117406
 20
313.8059166806842
 30
0.0
 10
119.7813782193922
 20
313.7372089757239
 30
0.0
 10
119.7927136111
 20
313.7028548569
 30
0.0
 11
119.3211784639
 21
314.3841999769
 31
0.0
 11
119.3482983549225
 21
314.3820193549101
 31
0.0
 11
119.3748616512557
 21
314.3757972364393
 31
0.0
 11
119.4002855081393
 21
314.366029803372
 31
0.0
 11
119.4243498672587
 21
314.353305657836
 31
0.0
 11
119.4469718704749
 21
314.3382158478724
 31
0.0
 11
119.468231502348
 21
314.3212523628227
 31
0.0
 11
119.4882255128216
 21
314.3028666057283
 31
0.0
 11
119.5070967254301
 21
314.2833335410669
 31
0.0
 11
119.5418946913364
 21
314.2417036018789
 31
0.0
 11
119.5734113739087
 21
314.1974780911758
 31
0.0
 11
119.6022905676692
 21
314.1515198056701
 31
0.0
 11
119.6289693386166
 21
314.1042722804606
 31
0.0
 11
119.6538168498012
 21
314.0560322903652
 31
0.0
 11
119.6770850491166
 21
314.007007246034
 31
0.0
 11
119.6989872554249
 21
313.9573616699695
 31
0.0
 11
119.7196864396212
 21
313.9072018912272
 31
0.0
 11
119.7579807871182
 21
313.8056656556176
 31
0.0
 11
119.7927136111
 21
313.7028548569
 31
0.0
  0
SPLINE
  5
108
330
1F
100
AcDbEntity
  8
0
  6
Continuous
 62
     7
100
AcDbSpline
210
0.0
220
0.0
230
1.0
 70
     8
 71
     3
 72
    25
 73
    21
 74
    19
 42
0.0000000001
 43
0.0000000001
 44
0.00000001
 40
0.0
 40
0.0
 40
0.0
 40
0.0
 40
0.1085025556844822
 40
0.2170033620505716
 40
0.2712583157975877
 40
0.3255127643024096
 40
0.3797719179217407
 40
0.4340272286554671
 40
0.4882788892800859
 40
0.5425511686316423
 40
0.5968541105456315
 40
0.6511051290604111
 40
0.6782579265035779
 40
0.7054161158499314
 40
0.7326228693314464
 40
0.759819476849814
 40
0.7870692643534984
 40
0.8143404776854067
 40
0.8416356459443393
 40
0.868850493065415
 40
0.868850493065415
 40
0.868850493065415
 40
0.868850493065415
 10
116.5246433166
 20
313.7028548569
 30
0.0
 10
116.5359769671251
 20
313.7372036867505
 30
0.0
 10
116.5586440854499
 20
313.805900792667
 30
0.0
 10
116.5906108098293
 20
313.890515983389
 30
0.0
 10
116.6181506940695
 20
313.957409184245
 30
0.0
 10
116.6400293142521
 20
314.0070655488278
 30
0.0
 10
116.6632514778341
 20
314.0561097134463
 30
0.0
 10
116.6880571115946
 20
314.1043746300963
 30
0.0
 10
116.7146699444845
 20
314.151678038364
 30
0.0
 10
116.743485015775
 20
314.1977003853838
 30
0.0
 10
116.774835532926
 20
314.2420492643725
 30
0.0
 10
116.8037603684814
 20
314.2769149055952
 30
0.0
 10
116.8288823489939
 20
314.3029836691049
 30
0.0
 10
116.848864789724
 20
314.3214228680563
 30
0.0
 10
116.8700666427975
 20
314.3384835190914
 30
0.0
 10
116.8926861889717
 20
314.3536899102488
 30
0.0
 10
116.9167930251432
 20
314.3665113892876
 30
0.0
 10
116.9423026774973
 20
314.3762961783908
 30
0.0
 10
116.9689143117423
 20
314.3828703860948
 30
0.0
 10
116.9870993451331
 20
314.3837572155494
 30
0.0
 10
116.9961784639
 20
314.3841999769
 30
0.0
 11
116.5246433166
 21
313.7028548569
 31
0.0
 11
116.5593707482367
 21
313.805649847449
 31
0.0
 11
116.5976587875666
 21
313.9071705400509
 31
0.0
 11
116.6183544751459
 21
313.9573231922411
 31
0.0
 11
116.6402525803468
 21
314.0069620698591
 31
0.0
 11
116.6635160318179
 21
314.0559811230643
 31
0.0
 11
116.6883585198366
 21
314.104214820122
 31
0.0
 11
116.7150320844233
 21
314.1514563657442
 31
0.0
 11
116.743902039008
 21
314.1974129325034
 31
0.0
 11
116.775405185415
 21
314.2416437053541
 31
0.0
 11
116.8101965017794
 21
314.2832698667856
 31
0.0
 11
116.8290673946367
 21
314.3027932837959
 31
0.0
 11
116.8490539361363
 21
314.3211809265882
 31
0.0
 11
116.8703015436756
 21
314.3381734722734
 31
0.0
 11
116.8929157408083
 21
314.3532815346424
 31
0.0
 11
116.9170153843961
 21
314.3659999503433
 31
0.0
 11
116.9424806799241
 21
314.3757589359598
 31
0.0
 11
116.969052643034
 21
314.3820004891936
 31
0.0
 11
116.9961784639
 21
314.3841999769
 31
0.0
  0
SPLINE
  5
109
330
1F
100
AcDbEntity
  8
0
  6
Continuous
 62
     7
100
AcDbSpline
210
0.0
220
0.0
230
1.0
 70
     8
 71
     3
 72
    13
 73
     9
 74
     7
 42
0.0000000001
 43
0.0000000001
 44
0.00000001
 40
0.0
 40
0.0
 40
0.0
 40
0.0
 40
0.1312848067903363
 40
0.2626131915162878
 40
0.3227000711396013
 40
0.3827285903530112
 40
0.4404671082423957
 40
0.4981359434224576
 40
0.4981359434224576
 40
0.4981359434224576
 40
0.4981359434224576
 10
116.5246433166
 20
324.9378548569
 30
0.0
 10
116.4893185042921
 20
324.9638843041115
 30
0.0
 10
116.4186571541582
 20
325.0159518386019
 30
0.0
 10
116.3491503938187
 20
325.0996273403275
 30
0.0
 10
116.3058932645644
 20
325.1715200487494
 30
0.0
 10
116.2811725008121
 20
325.2255273059624
 30
0.0
 10
116.2623316297038
 20
325.2810759541758
 30
0.0
 10
116.2552806947215
 20
325.3189361759652
 30
0.0
 10
116.2517573559
 20
325.3378548569
 30
0.0
 11
116.5246433166
 21
324.9378548569
 31
0.0
 11
116.4221919041141
 21
325.0199487578527
 31
0.0
 11
116.3377121377213
 21
325.1204988135709
 31
0.0
 11
116.3068763488264
 21
325.1720699995772
 31
0.0
 11
116.2818211001165
 21
325.2266195883111
 31
0.0
 11
116.2636615585815
 21
325.2814280502427
 31
0.0
 11
116.2517573559
 21
325.3378548569
 31
0.0
  0
SPLINE
  5
10A
330
1F
100
AcDbEntity
  8
0
  6
Continuous
 62
     7
100
AcDbSpline
210
0.0
220
0.0
230
1.0
 70
     8
 71
     3
 72
    13
 73
     9
 74
     7
 42
0.0000000001
 43
0.0000000001
 44
0.00000001
 40
0.0
 40
0.0
 40
0.0
 40
0.0
 40
0.057663189650737
 40
0.1153961315037329
 40
0.1754242231382385
 40
0.2355105400165139
 40
0.3668449111806221
 40
0.498136090447351
 40
0.498136090447351
 40
0.498136090447351
 40
0.498136090447351
 10
120.0655995718
 20
325.3378548569
 30
0.0
 10
120.0620765340647
 20
325.3189380366916
 30
0.0
 10
120.055026196956
 20
325.2810815135682
 30
0.0
 10
120.0361869823349
 20
325.2255364773056
 30
0.0
 10
120.0114690745241
 20
325.1715303683226
 30
0.0
 10
119.9682139251909
 20
325.0996344853157
 30
0.0
 10
119.898705075038
 20
325.0159551831819
 30
0.0
 10
119.8280402251875
 20
324.9638854444979
 30
0.0
 10
119.7927136111
 20
324.9378548569
 30
0.0
 11
120.0655995718
 21
325.3378548569
 31
0.0
 11
120.0536964923677
 21
325.2814335830689
 31
0.0
 11
120.0355393016641
 21
325.2266302163771
 31
0.0
 11
120.0104859877592
 21
325.1720802095241
 31
0.0
 11
119.9796523552878
 21
325.1205083898489
 31
0.0
 11
119.8951701174288
 21
325.0199525917295
 31
0.0
 11
119.7927136111
 21
324.9378548569
 31
0.0
  0
SPLINE
  5
10B
330
1F
100
AcDbEntity
  8
0
  6
Continuous
 62
     7
100
AcDbSpline
210
0.0
220
0.0
230
1.0
 70
     8
 71
     3
 72
    11
 73
     7
 74
     5
 42
0.0000000001
 43
0.0000000001
 44
0.00000001
 40
0.0
 40
0.0
 40
0.0
 40
0.0
 40
0.1068456601932284
 40
0.2142571945557567
 40
0.3333679116620578
 40
0.4521343115265872
 40
0.4521343115265872
 40
0.4521343115265872
 40
0.4521343115265872
 10
116.26069328602
 20
313.347861112194
 30
0.0
 10
116.2713795346421
 20
313.3819698034596
 30
0.0
 10
116.2928086282147
 20
313.4503678318618
 30
0.0
 10
116.3518074637662
 20
313.5456212175269
 30
0.0
 10
116.4282234043579
 20
313.6327597089702
 30
0.0
 10
116.4925343750052
 20
313.6795123650991
 30
0.0
 10
116.5246433166
 20
313.7028548569
 30
0.0
 11
116.26069328602
 21
313.347861112194
 31
0.0
 11
116.2968527220948
 21
313.4484021002779
 31
0.0
 11
116.3519948913233
 21
313.5405789893927
 31
0.0
 11
116.4312246323472
 21
313.6295172323867
 31
0.0
 11
116.5246433166
 21
313.7028548569
 31
0.0
  0
SPLINE
  5
10C
330
1F
100
AcDbEntity
  8
0
  6
Continuous
 62
     7
100
AcDbSpline
210
0.0
220
0.0
230
1.0
 70
     8
 71
     3
 72
    13
 73
     9
 74
     7
 42
0.0000000001
 43
0.0000000001
 44
0.00000001
 40
0.0
 40
0.0
 40
0.0
 40
0.0
 40
0.1312911943743636
 40
0.2626255805762428
 40
0.3227118843015366
 40
0.3827399628074458
 40
0.440472902671907
 40
0.4981360903526239
 40
0.4981360903526239
 40
0.4981360903526239
 40
0.4981360903526239
 10
119.7927136111
 20
313.7028548569
 30
0.0
 10
119.8280402291193
 20
313.6768242660822
 30
0.0
 10
119.8987050868145
 20
313.6247545209723
 30
0.0
 10
119.9682139378114
 20
313.5410752116337
 30
0.0
 10
120.0114690822093
 20
313.469179330112
 30
0.0
 10
120.0361869850171
 20
313.415173229275
 30
0.0
 10
120.055026197416
 20
313.3596281982993
 30
0.0
 10
120.0620765342176
 20
313.3217716764662
 30
0.0
 10
120.0655995718
 20
313.3028548569
 30
0.0
 11
119.7927136111
 21
313.7028548569
 31
0.0
 11
119.8951701283116
 21
313.6207571114917
 31
0.0
 11
119.9796523722131
 21
313.5202012988084
 31
0.0
 11
120.0104859958342
 21
313.4686294891664
 31
0.0
 11
120.0355393032002
 21
313.4140794937572
 31
0.0
 11
120.0536964929192
 21
313.3592761288341
 31
0.0
 11
120.0655995718
 21
313.3028548569
 31
0.0
  0
SPLINE
  5
10D
330
1F
100
AcDbEntity
  8
FASEN
  6
Continuous
 62
     7
100
AcDbSpline
210
0.0
220
0.0
230
1.0
 70
     8
 71
     3
 72
    43
 73
    39
 74
    37
 42
0.0000000001
 43
0.0000000001
 44
0.00000001
 40
0.0
 40
0.0
 40
0.0
 40
0.0
 40
0.35366271385495
 40
0.7077087111083058
 40
1.061386016654843
 40
1.414940913004382
 40
1.768273600928915
 40
2.121679340793948
 40
2.474990473774621
 40
2.82812479075711
 40
3.004861640139398
 40
3.181542282457702
 40
3.358289604773674
 40
3.535092628054453
 40
3.888693191041045
 40
4.242467023627049
 40
4.596379402978686
 40
4.950247373498974
 40
5.303947628093938
 40
5.657661399161591
 40
6.01071255554028
 40
6.363747200737105
 40
6.715806091099058
 40
7.067909115935534
 40
7.419215040243939
 40
7.770346273728371
 40
7.945854779199332
 40
8.121308710056532
 40
8.296759233425693
 40
8.472264989871242
 40
8.823345921763321
 40
9.174601594886491
 40
9.526721241993279
 40
9.878775142270177
 40
10.23179857981591
 40
10.58493613223332
 40
10.9388955996359
 40
11.29248564910825
 40
11.29248564910825
 40
11.29248564910825
 40
11.29248564910825
 10
89.0594300523
 20
319.3203548569
 30
0.0
 10
89.06275987912201
 20
319.4382921666419
 30
0.0
 10
89.06942314147938
 20
319.674294601163
 30
0.0
 10
89.12375909674495
 20
320.0247789084068
 30
0.0
 10
89.20970232227299
 20
320.3683913746097
 30
0.0
 10
89.32958946706944
 20
320.7016288776078
 30
0.0
 10
89.48163832848991
 20
321.0213003677937
 30
0.0
 10
89.6644522449332
 20
321.3243681732372
 30
0.0
 10
89.87631544061789
 20
321.6077749222154
 30
0.0
 10
90.07524987979517
 20
321.8254895213411
 30
0.0
 10
90.24663035494132
 20
321.9871510904047
 30
0.0
 10
90.38105687871256
 20
322.1019817400677
 30
0.0
 10
90.52097514567954
 20
322.2100890621083
 30
0.0
 10
90.71442949770216
 20
322.3449046697959
 30
0.0
 10
90.96847429631522
 20
322.4953341760865
 30
0.0
 10
91.28950271088227
 20
322.6452626945976
 30
0.0
 10
91.62376157408019
 20
322.7630923742885
 30
0.0
 10
91.96786238291561
 20
322.847852609164
 30
0.0
 10
92.31851418705915
 20
322.8986966248556
 30
0.0
 10
92.67217071614266
 20
322.9153107342533
 30
0.0
 10
93.02554270124972
 20
322.8974494716613
 30
0.0
 10
93.37497476920228
 20
322.8454891501986
 30
0.0
 10
93.71736550720777
 20
322.7597756135664
 30
0.0
 10
94.04925191892823
 20
322.6413294035366
 30
0.0
 10
94.36763943359239
 20
322.4910742735049
 30
0.0
 10
94.61927580972662
 20
322.3406626253695
 30
0.0
 10
94.81077170312503
 20
322.2059895574351
 30
0.0
 10
94.94922263570439
 20
322.0980685217079
 30
0.0
 10
95.08222074955412
 20
321.9834962366995
 30
0.0
 10
95.25185146224082
 20
321.8221767947882
 30
0.0
 10
95.44872226730442
 20
321.6049971236357
 30
0.0
 10
95.65844900783625
 20
321.3222493820136
 30
0.0
 10
95.83940935115108
 20
321.0198709743648
 30
0.0
 10
95.99004116937058
 20
320.7006803051527
 30
0.0
 10
96.10887296834917
 20
320.3679066392107
 30
0.0
 10
96.19411810754428
 20
320.0245220127555
 30
0.0
 10
96.24795326754733
 20
319.6742112472322
 30
0.0
 10
96.2546034968305
 20
319.4382659239562
 30
0.0
 10
96.2579268754
 20
319.3203548569
 30
0.0
 11
89.0594300523
 21
319.3203548569
 31
0.0
 11
89.07680321608808
 21
319.6735905973783
 31
0.0
 11
89.12905378516261
 21
320.0237597653564
 31
0.0
 11
89.21538265911134
 21
320.366739301162
 31
0.0
 11
89.33498355454569
 21
320.6994504229239
 31
0.0
 11
89.48676040791378
 21
321.0185237297636
 31
0.0
 11
89.6693181321101
 21
321.3211262649576
 31
0.0
 11
89.88082982675313
 21
321.6041307873902
 31
0.0
 11
90.11905718908073
 21
321.8648060061378
 31
0.0
 11
90.24761594274963
 21
321.9860848616102
 31
0.0
 11
90.3819519682013
 21
322.1008449663324
 31
0.0
 11
90.5218163855731
 21
322.2089077291099
 31
0.0
 11
90.66687385384029
 21
322.3099900714905
 31
0.0
 11
90.97110528998853
 21
322.4902026998038
 31
0.0
 11
91.29165148598602
 21
322.6398892417978
 31
0.0
 11
91.62542024354813
 21
322.757585413077
 31
0.0
 11
91.96901991039279
 21
322.842212887956
 31
0.0
 11
92.31905580509496
 21
322.8929942085433
 31
0.0
 11
92.67238124166315
 21
322.9095642935401
 31
0.0
 11
93.02498296746467
 21
322.8917558129166
 31
0.0
 11
93.37417204453887
 21
322.8397899668125
 31
0.0
 11
93.71569279585715
 21
322.7542970507207
 31
0.0
 11
94.0472951721675
 21
322.6359061552754
 31
0.0
 11
94.36500381192002
 21
322.4859825991517
 31
0.0
 11
94.6663656260673
 21
322.3057766056272
 31
0.0
 11
94.80993159167282
 21
322.2048209271717
 31
0.0
 11
94.94831492403853
 21
322.0969592788596
 31
0.0
 11
95.08123980176399
 21
321.9824435025133
 31
0.0
 11
95.20841242630816
 21
321.8614914702358
 31
0.0
 11
95.44423053816897
 21
321.6013998731846
 31
0.0
 11
95.65346403534275
 21
321.31926180138
 31
0.0
 11
95.83431892455232
 21
321.0171364053478
 31
0.0
 11
95.98459648918795
 21
320.698767747551
 31
0.0
 11
96.10323320297914
 21
320.36627582645
 31
0.0
 11
96.18882181205836
 21
320.0236671270227
 31
0.0
 11
96.24064901694959
 21
319.673522520614
 31
0.0
 11
96.2579268754
 21
319.3203548569
 31
0.0
  0
SPLINE
  5
10E
330
1F
100
AcDbEntity
  8
0
  6
Continuous
 62
     7
100
AcDbSpline
210
0.0
220
0.0
230
1.0
 70
     8
 71
     3
 72
    11
 73
     7
 74
     5
 42
0.0000000001
 43
0.0000000001
 44
0.00000001
 40
0.0
 40
0.0
 40
0.0
 40
0.0
 40
0.4419689634229152
 40
0.8839020538983698
 40
1.150518561921157
 40
1.416734593101627
 40
1.416734593101627
 40
1.416734593101627
 40
1.416734593101627
 10
75.9951686737
 20
311.6703548569
 30
0.0
 10
76.06386877386292
 20
311.8008791010897
 30
0.0
 10
76.20126339806177
 20
312.0619169953103
 30
0.0
 10
76.32618956963861
 20
312.4260860268896
 30
0.0
 10
76.39622593502594
 20
312.7444717577559
 30
0.0
 10
76.40452970131174
 20
312.9221985106507
 30
0.0
 10
76.4086784639
 20
313.0109950974
 30
0.0
 11
75.9951686737
 21
311.6703548569
 31
0.0
 11
76.1909135493835
 21
312.0666129902838
 31
0.0
 11
76.33510077018936
 21
312.4843627979599
 31
0.0
 11
76.38874844994344
 21
312.7455261353702
 31
0.0
 11
76.4086784639
 21
313.0109950974
 31
0.0
  0
SPLINE
  5
10F
330
1F
100
AcDbEntity
  8
0
  6
Continuous
 62
     7
100
AcDbSpline
210
0.0
220
0.0
230
1.0
 70
     8
 71
     3
 72
    11
 73
     7
 74
     5
 42
0.0000000001
 43
0.0000000001
 44
0.00000001
 40
0.0
 40
0.0
 40
0.0
 40
0.0
 40
0.3847579053301845
 40
0.7696659746337065
 40
1.0931832440586
 40
1.41657080935305
 40
1.41657080935305
 40
1.41657080935305
 40
1.41657080935305
 10
76.4086784639
 20
325.6297146164
 30
0.0
 10
76.40005042611389
 20
325.7580611887172
 30
0.0
 10
76.38279098317629
 20
326.0148044246715
 30
0.0
 10
76.27694306518744
 20
326.3658987031847
 30
0.0
 10
76.14816492030928
 20
326.6850913696253
 30
0.0
 10
76.04616060529659
 20
326.8752797387029
 30
0.0
 10
75.9951686737
 20
326.9703548569
 30
0.0
 11
76.4086784639
 21
325.6297146164
 31
0.0
 11
76.36848399062016
 21
326.0123672657203
 31
0.0
 11
76.26514690142896
 21
326.3831443791084
 31
0.0
 11
76.14283018961785
 21
326.6826473768027
 31
0.0
 11
75.9951686737
 21
326.9703548569
 31
0.0
  0
DIMENSION
  5
11C
330
1F
100
AcDbEntity
  8
1
100
AcDbDimension
  2
*D2
 10
190.915240194326
 20
323.3203548569
 30
0.0
 11
187.165240194326
 21
319.345691169242
 31
0.0
 70
    32
  1
<>
 71
     5
 42
-1.0
 53
90.0
  3
ME10_DIM_10
100
AcDbAlignedDimension
 13
180.1586784639
 23
315.3203548569
 33
0.0
 14
180.1586784639
 24
323.3203548569
 34
0.0
 50
90.0
100
AcDbRotatedDimension
  0
DIMENSION
  5
127
330
1F
100
AcDbEntity
  8
1
100
AcDbDimension
  2
*D3
 10
201.26968196524
 20
329.8203548569466
 30
0.0
 11
197.51968196524
 21
319.853884630392
 31
0.0
 70
    32
  1
<>
 71
     5
 42
-1.0
 53
90.0
  3
ME10_DIM_11
100
AcDbAlignedDimension
 13
180.1586784639
 23
308.8203548569486
 33
0.0
 14
180.1586784639
 24
329.8203548569466
 34
0.0
 50
90.0
100
AcDbRotatedDimension
  0
DIMENSION
  5
132
330
1F
100
AcDbEntity
  8
1
100
AcDbDimension
  2
*D4
 10
209.718398256845
 20
332.8203548569
 30
0.0
 11
205.968398256845
 21
320.044457178322
 31
0.0
 70
    32
  1
<>
 71
     5
 42
-1.0
 53
90.0
  3
ME10_DIM_12
100
AcDbAlignedDimension
 13
142.0400642553
 23
305.8203548569
 33
0.0
 14
142.0400642553
 24
332.8203548569
 34
0.0
 50
90.0
100
AcDbRotatedDimension
  0
DIMENSION
  5
13D
330
1F
100
AcDbEntity
  8
1
100
AcDbDimension
  2
*D5
 10
180.1586784639
 20
349.240861014928
 30
0.0
 11
153.08673750341
 21
352.990861014928
 31
0.0
 70
    32
  1
<>
 71
     5
 42
-1.0
 53
0.00013888888889
  3
ME10_DIM_13
100
AcDbAlignedDimension
 13
126.1086784639
 23
344.3203048384
 33
0.0
 14
180.1586784639
 24
328.8959643653
 34
0.0
100
AcDbRotatedDimension
  0
DIMENSION
  5
148
330
1F
100
AcDbEntity
  8
1
100
AcDbDimension
  2
*D6
 10
100.1586784639
 20
357.364631895693
 30
0.0
 11
140.393345502215
 21
361.114631895693
 31
0.0
 70
    32
  1
<>
 71
     5
 42
-1.0
 53
0.00013888888889
  3
ME10_DIM_14
100
AcDbAlignedDimension
 13
180.1586784639
 23
328.8959643653
 33
0.0
 14
100.1586784639
 24
344.3203548569
 34
0.0
100
AcDbRotatedDimension
  0
DIMENSION
  5
153
330
1F
100
AcDbEntity
  8
1
100
AcDbDimension
  2
*D7
 10
180.1586784639
 20
364.777572824391
 30
0.0
 11
129.426254813181
 21
368.527572824391
 31
0.0
 70
    32
  1
<>
 71
     5
 42
-1.0
 53
0.00013888888889
  3
ME10_DIM_15
100
AcDbAlignedDimension
 13
75.2586784639
 23
336.3767106381
 33
0.0
 14
180.1586784639
 24
328.8959643653
 34
0.0
100
AcDbRotatedDimension
  0
INSERT
  5
15A
330
1F
100
AcDbEntity
  8
1
100
AcDbBlockReference
  2
*D8
 10
0.0
 20
0.0
 30
0.0
  0
DIMENSION
  5
165
330
1F
100
AcDbEntity
  8
1
100
AcDbDimension
  2
*D9
 10
166.2285306593004
 20
331.8699874235447
 30
0.0
 11
169.2232189807903
 21
339.353131722904
 31
0.0
 70
    37
  1
<>
 71
     5
 42
-1.0
  3
ME10_DIM_16
100
AcDb3PointAngularDimension
 13
166.1725709779742
 23
330.9210853878877
 33
0.0
 14
144.4607771776347
 24
332.8203548569
 34
0.0
 15
142.0400642553
 25
332.8203548569
 35
0.0
  0
ENDSEC
  0
SECTION
  2
OBJECTS
  0
DICTIONARY
  5
C
330
0
100
AcDbDictionary
281
     1
  3
ACAD_GROUP
350
D
  3
ACAD_LAYOUT
350
1A
  3
ACAD_MLEADERSTYLE
350
168
  3
ACAD_MLINESTYLE
350
17
  3
ACAD_PLOTSETTINGS
350
19
  3
ACAD_PLOTSTYLENAME
350
E
  3
ACAD_SCALELIST
350
4B
  3
ACAD_VISUALSTYLE
350
2A
  3
AcDbVariableDictionary
350
166
  0
DICTIONARY
  5
D
102
{ACAD_REACTORS
330
C
102
}
330
C
100
AcDbDictionary
281
     1
  0
DICTIONARY
  5
1A
102
{ACAD_REACTORS
330
C
102
}
330
C
100
AcDbDictionary
281
     1
  3
Layout1
350
1E
  3
Layout2
350
26
  3
Model
350
22
  0
DICTIONARY
  5
168
102
{ACAD_REACTORS
330
C
102
}
330
C
100
AcDbDictionary
281
     1
  0
DICTIONARY
  5
17
102
{ACAD_REACTORS
330
C
102
}
330
C
100
AcDbDictionary
281
     1
  3
Standard
350
18
  0
DICTIONARY
  5
19
102
{ACAD_REACTORS
330
C
102
}
330
C
100
AcDbDictionary
281
     1
  0
ACDBDICTIONARYWDFLT
  5
E
102
{ACAD_REACTORS
330
C
102
}
330
C
100
AcDbDictionary
281
     1
  3
Normal
350
F
100
AcDbDictionaryWithDefault
340
F
  0
DICTIONARY
  5
4B
102
{ACAD_REACTORS
330
C
102
}
330
C
100
AcDbDictionary
281
     1
  3
A0
350
4C
  3
A1
350
4D
  3
A2
350
4E
  3
A3
350
4F
  3
A4
350
50
  3
A5
350
51
  3
A6
350
52
  3
A7
350
53
  3
A8
350
54
  3
A9
350
55
  3
B0
350
56
  3
B1
350
57
  3
B2
350
58
  3
B3
350
59
  3
B4
350
5A
  3
B5
350
5B
  3
B6
350
5C
  3
B7
350
5D
  3
B8
350
5E
  3
B9
350
5F
  3
C0
350
60
  3
C1
350
61
  3
C2
350
62
  3
C3
350
63
  3
C4
350
64
  3
C5
350
65
  3
C6
350
66
  3
C7
350
67
  3
C8
350
68
  3
C9
350
69
  3
D0
350
6A
  3
D1
350
6B
  3
D2
350
6C
  0
DICTIONARY
  5
2A
102
{ACAD_REACTORS
330
C
102
}
330
C
100
AcDbDictionary
281
     1
  3
2dWireframe
350
2F
  3
3D Hidden
350
31
  3
3dWireframe
350
30
  3
Basic
350
32
  3
Brighten
350
36
  3
ColorChange
350
3A
  3
Conceptual
350
34
  3
Dim
350
35
  3
Facepattern
350
39
  3
Flat
350
2B
  3
FlatWithEdges
350
2C
  3
Gouraud
350
2D
  3
GouraudWithEdges
350
2E
  3
Linepattern
350
38
  3
Realistic
350
33
  3
Thicken
350
37
  0
DICTIONARY
  5
166
102
{ACAD_REACTORS
330
C
102
}
330
C
100
AcDbDictionary
281
     1
  3
CANNOSCALE
350
169
  0
LAYOUT
  5
1E
102
{ACAD_REACTORS
330
1A
102
}
330
1A
100
AcDbPlotSettings
  1

  2
none_device
  4

  6

 40
0.0
 41
0.0
 42
0.0
 43
0.0
 44
0.0
 45
0.0
 46
0.0
 47
0.0
 48
0.0
 49
0.0
140
0.0
141
0.0
142
1.0
143
1.0
 70
   688
 72
     0
 73
     0
 74
     5
  7

 75
    16
147
1.0
148
0.0
149
0.0
100
AcDbLayout
  1
Layout1
 70
     1
 71
     1
 10
0.0
 20
0.0
 11
12.0
 21
9.0
 12
0.0
 22
0.0
 32
0.0
 14
1.00000000000000E+20
 24
1.00000000000000E+20
 34
1.00000000000000E+20
 15
-1.00000000000000E+20
 25
-1.00000000000000E+20
 35
-1.00000000000000E+20
146
0.0
 13
0.0
 23
0.0
 33
0.0
 16
1.0
 26
0.0
 36
0.0
 17
0.0
 27
1.0
 37
0.0
 76
     0
330
1B
  0
LAYOUT
  5
26
102
{ACAD_REACTORS
330
1A
102
}
330
1A
100
AcDbPlotSettings
  1

  2
none_device
  4

  6

 40
0.0
 41
0.0
 42
0.0
 43
0.0
 44
0.0
 45
0.0
 46
0.0
 47
0.0
 48
0.0
 49
0.0
140
0.0
141
0.0
142
1.0
143
1.0
 70
   688
 72
     0
 73
     0
 74
     5
  7

 75
    16
147
1.0
148
0.0
149
0.0
100
AcDbLayout
  1
Layout2
 70
     1
 71
     2
 10
0.0
 20
0.0
 11
0.0
 21
0.0
 12
0.0
 22
0.0
 32
0.0
 14
0.0
 24
0.0
 34
0.0
 15
0.0
 25
0.0
 35
0.0
146
0.0
 13
0.0
 23
0.0
 33
0.0
 16
1.0
 26
0.0
 36
0.0
 17
0.0
 27
1.0
 37
0.0
 76
     0
330
23
  0
LAYOUT
  5
22
102
{ACAD_REACTORS
330
1A
102
}
330
1A
100
AcDbPlotSettings
  1

  2
none_device
  4

  6

 40
0.0
 41
0.0
 42
0.0
 43
0.0
 44
0.0
 45
0.0
 46
0.0
 47
0.0
 48
0.0
 49
0.0
140
0.0
141
0.0
142
1.0
143
1.0
 70
  1712
 72
     0
 73
     0
 74
     0
  7

 75
     0
147
1.0
148
0.0
149
0.0
100
AcDbLayout
  1
Model
 70
     1
 71
     0
 10
0.0
 20
0.0
 11
12.0
 21
9.0
 12
0.0
 22
0.0
 32
0.0
 14
72.1336784639
 24
276.4745922488697
 34
0.0
 15
211.718398256845
 25
370.277572824391
 35
0.0
146
0.0
 13
0.0
 23
0.0
 33
0.0
 16
1.0
 26
0.0
 36
0.0
 17
0.0
 27
1.0
 37
0.0
 76
     0
330
1F
331
29
  0
MLINESTYLE
  5
18
102
{ACAD_REACTORS
330
17
102
}
330
17
100
AcDbMlineStyle
  2
Standard
 70
     0
  3

 62
   256
 51
90.0
 52
90.0
 71
     2
 49
0.5
 62
   256
  6
BYLAYER
 49
-0.5
 62
   256
  6
BYLAYER
  0
ACDBPLACEHOLDER
  5
F
102
{ACAD_REACTORS
330
E
102
}
330
E
  0
SCALE
  5
4C
102
{ACAD_REACTORS
330
4B
102
}
330
4B
100
AcDbScale
 70
     0
300
1:1
140
1.0
141
1.0
290
     1
  0
SCALE
  5
4D
102
{ACAD_REACTORS
330
4B
102
}
330
4B
100
AcDbScale
 70
     0
300
1:2
140
1.0
141
2.0
290
     0
  0
SCALE
  5
4E
102
{ACAD_REACTORS
330
4B
102
}
330
4B
100
AcDbScale
 70
     0
300
1:4
140
1.0
141
4.0
290
     0
  0
SCALE
  5
4F
102
{ACAD_REACTORS
330
4B
102
}
330
4B
100
AcDbScale
 70
     0
300
1:5
140
1.0
141
5.0
290
     0
  0
SCALE
  5
50
102
{ACAD_REACTORS
330
4B
102
}
330
4B
100
AcDbScale
 70
     0
300
1:8
140
1.0
141
8.0
290
     0
  0
SCALE
  5
51
102
{ACAD_REACTORS
330
4B
102
}
330
4B
100
AcDbScale
 70
     0
300
1:10
140
1.0
141
10.0
290
     0
  0
SCALE
  5
52
102
{ACAD_REACTORS
330
4B
102
}
330
4B
100
AcDbScale
 70
     0
300
1:16
140
1.0
141
16.0
290
     0
  0
SCALE
  5
53
102
{ACAD_REACTORS
330
4B
102
}
330
4B
100
AcDbScale
 70
     0
300
1:20
140
1.0
141
20.0
290
     0
  0
SCALE
  5
54
102
{ACAD_REACTORS
330
4B
102
}
330
4B
100
AcDbScale
 70
     0
300
1:30
140
1.0
141
30.0
290
     0
  0
SCALE
  5
55
102
{ACAD_REACTORS
330
4B
102
}
330
4B
100
AcDbScale
 70
     0
300
1:40
140
1.0
141
40.0
290
     0
  0
SCALE
  5
56
102
{ACAD_REACTORS
330
4B
102
}
330
4B
100
AcDbScale
 70
     0
300
1:50
140
1.0
141
50.0
290
     0
  0
SCALE
  5
57
102
{ACAD_REACTORS
330
4B
102
}
330
4B
100
AcDbScale
 70
     0
300
1:100
140
1.0
141
100.0
290
     0
  0
SCALE
  5
58
102
{ACAD_REACTORS
330
4B
102
}
330
4B
100
AcDbScale
 70
     0
300
2:1
140
2.0
141
1.0
290
     0
  0
SCALE
  5
59
102
{ACAD_REACTORS
330
4B
102
}
330
4B
100
AcDbScale
 70
     0
300
4:1
140
4.0
141
1.0
290
     0
  0
SCALE
  5
5A
102
{ACAD_REACTORS
330
4B
102
}
330
4B
100
AcDbScale
 70
     0
300
8:1
140
8.0
141
1.0
290
     0
  0
SCALE
  5
5B
102
{ACAD_REACTORS
330
4B
102
}
330
4B
100
AcDbScale
 70
     0
300
10:1
140
10.0
141
1.0
290
     0
  0
SCALE
  5
5C
102
{ACAD_REACTORS
330
4B
102
}
330
4B
100
AcDbScale
 70
     0
300
100:1
140
100.0
141
1.0
290
     0
  0
SCALE
  5
5D
102
{ACAD_REACTORS
330
4B
102
}
330
4B
100
AcDbScale
 70
     0
300
1/128" = 1'-0"
140
0.0078125
141
12.0
290
     0
  0
SCALE
  5
5E
102
{ACAD_REACTORS
330
4B
102
}
330
4B
100
AcDbScale
 70
     0
300
1/64" = 1'-0"
140
0.015625
141
12.0
290
     0
  0
SCALE
  5
5F
102
{ACAD_REACTORS
330
4B
102
}
330
4B
100
AcDbScale
 70
     0
300
1/32" = 1'-0"
140
0.03125
141
12.0
290
     0
  0
SCALE
  5
60
102
{ACAD_REACTORS
330
4B
102
}
330
4B
100
AcDbScale
 70
     0
300
1/16" = 1'-0"
140
0.0625
141
12.0
290
     0
  0
SCALE
  5
61
102
{ACAD_REACTORS
330
4B
102
}
330
4B
100
AcDbScale
 70
     0
300
3/32" = 1'-0"
140
0.09375
141
12.0
290
     0
  0
SCALE
  5
62
102
{ACAD_REACTORS
330
4B
102
}
330
4B
100
AcDbScale
 70
     0
300
1/8" = 1'-0"
140
0.125
141
12.0
290
     0
  0
SCALE
  5
63
102
{ACAD_REACTORS
330
4B
102
}
330
4B
100
AcDbScale
 70
     0
300
3/16" = 1'-0"
140
0.1875
141
12.0
290
     0
  0
SCALE
  5
64
102
{ACAD_REACTORS
330
4B
102
}
330
4B
100
AcDbScale
 70
     0
300
1/4" = 1'-0"
140
0.25
141
12.0
290
     0
  0
SCALE
  5
65
102
{ACAD_REACTORS
330
4B
102
}
330
4B
100
AcDbScale
 70
     0
300
3/8" = 1'-0"
140
0.375
141
12.0
290
     0
  0
SCALE
  5
66
102
{ACAD_REACTORS
330
4B
102
}
330
4B
100
AcDbScale
 70
     0
300
1/2" = 1'-0"
140
0.5
141
12.0
290
     0
  0
SCALE
  5
67
102
{ACAD_REACTORS
330
4B
102
}
330
4B
100
AcDbScale
 70
     0
300
3/4" = 1'-0"
140
0.75
141
12.0
290
     0
  0
SCALE
  5
68
102
{ACAD_REACTORS
330
4B
102
}
330
4B
100
AcDbScale
 70
     0
300
1" = 1'-0"
140
1.0
141
12.0
290
     0
  0
SCALE
  5
69
102
{ACAD_REACTORS
330
4B
102
}
330
4B
100
AcDbScale
 70
     0
300
1-1/2" = 1'-0"
140
1.5
141
12.0
290
     0
  0
SCALE
  5
6A
102
{ACAD_REACTORS
330
4B
102
}
330
4B
100
AcDbScale
 70
     0
300
3" = 1'-0"
140
3.0
141
12.0
290
     0
  0
SCALE
  5
6B
102
{ACAD_REACTORS
330
4B
102
}
330
4B
100
AcDbScale
 70
     0
300
6" = 1'-0"
140
6.0
141
12.0
290
     0
  0
SCALE
  5
6C
102
{ACAD_REACTORS
330
4B
102
}
330
4B
100
AcDbScale
 70
     0
300
1'-0" = 1'-0"
140
12.0
141
12.0
290
     0
  0
VISUALSTYLE
  5
2F
102
{ACAD_REACTORS
330
2A
102
}
330
2A
100
AcDbVisualStyle
  2
2dWireframe
 70
     4
 71
     0
 72
     2
 73
     0
 90
        0
 40
-0.6
 41
-30.0
 62
     5
 63
     7
 74
     1
 91
        4
 64
     7
 65
   257
 75
     1
175
     1
 42
1.0
 92
        0
 66
   257
 43
1.0
 76
     1
 77
     6
 78
     2
 67
     7
 79
     5
170
     0
171
     0
290
     0
174
     0
 93
        1
 44
0.0
173
     0
291
     0
 45
0.0
1001
ACAD
1000
AcDbSavedByObjectVersion
1070
     0
  0
VISUALSTYLE
  5
31
102
{ACAD_REACTORS
330
2A
102
}
330
2A
100
AcDbVisualStyle
  2
3D Hidden
 70
     6
 71
     1
 72
     2
 73
     2
 90
        0
 40
-0.6
 41
-30.0
 62
     5
 63
     7
 74
     2
 91
        2
 64
     7
 65
   257
 75
     2
175
     1
 42
40.0
 92
        0
 66
   257
 43
1.0
 76
     1
 77
     6
 78
     2
 67
     7
 79
     3
170
     0
171
     0
290
     0
174
     0
 93
        1
 44
0.0
173
     0
291
     0
 45
0.0
1001
ACAD
1000
AcDbSavedByObjectVersion
1070
     0
  0
VISUALSTYLE
  5
30
102
{ACAD_REACTORS
330
2A
102
}
330
2A
100
AcDbVisualStyle
  2
3dWireframe
 70
     5
 71
     0
 72
     2
 73
     0
 90
        0
 40
-0.6
 41
-30.0
 62
     5
 63
     7
 74
     1
 91
        4
 64
     7
 65
   257
 75
     1
175
     1
 42
1.0
 92
        0
 66
   257
 43
1.0
 76
     1
 77
     6
 78
     2
 67
     7
 79
     5
170
     0
171
     0
290
     0
174
     0
 93
        1
 44
0.0
173
     0
291
     0
 45
0.0
1001
ACAD
1000
AcDbSavedByObjectVersion
1070
     0
  0
VISUALSTYLE
  5
32
102
{ACAD_REACTORS
330
2A
102
}
330
2A
100
AcDbVisualStyle
  2
Basic
 70
     7
 71
     1
 72
     0
 73
     1
 90
        0
 40
-0.6
 41
-30.0
 62
     5
 63
     7
 74
     0
 91
        4
 64
     7
 65
   257
 75
     1
175
     1
 42
1.0
 92
        8
 66
     7
 43
1.0
 76
     1
 77
     6
 78
     2
 67
     7
 79
     5
170
     0
171
     0
290
     0
174
     0
 93
        1
 44
0.0
173
     0
291
     1
 45
0.0
1001
ACAD
1000
AcDbSavedByObjectVersion
1070
     0
  0
VISUALSTYLE
  5
36
102
{ACAD_REACTORS
330
2A
102
}
330
2A
100
AcDbVisualStyle
  2
Brighten
 70
    12
 71
     2
 72
     2
 73
     0
 90
        0
 40
-0.6
 41
-30.0
 62
     5
 63
     7
 74
     1
 91
        4
 64
     7
 65
   257
 75
     1
175
     1
 42
1.0
 92
        8
 66
     7
 43
1.0
 76
     1
 77
     6
 78
     2
 67
     7
 79
     5
170
     0
171
     0
290
     0
174
     0
 93
        1
 44
50.0
173
     0
291
     1
 45
0.0
1001
ACAD
1000
AcDbSavedByObjectVersion
1070
     0
  0
VISUALSTYLE
  5
3A
102
{ACAD_REACTORS
330
2A
102
}
330
2A
100
AcDbVisualStyle
  2
ColorChange
 70
    16
 71
     2
 72
     2
 73
     3
 90
        0
 40
-0.6
 41
-30.0
 62
     5
 63
     8
 74
     1
 91
        4
 64
     7
 65
   257
 75
     1
175
     1
 42
1.0
 92
        8
 66
     8
 43
1.0
 76
     1
 77
     6
 78
     2
 67
     7
 79
     5
170
     0
171
     0
290
     0
174
     0
 93
        1
 44
0.0
173
     0
291
     1
 45
0.0
1001
ACAD
1000
AcDbSavedByObjectVersion
1070
     0
  0
VISUALSTYLE
  5
34
102
{ACAD_REACTORS
330
2A
102
}
330
2A
100
AcDbVisualStyle
  2
Conceptual
 70
     9
 71
     3
 72
     2
 73
     0
 90
        0
 40
-0.6
 41
-30.0
 62
     5
 63
     7
 74
     2
 91
        2
 64
     7
 65
   257
 75
     1
175
     1
 42
40.0
 92
        8
 66
     7
 43
1.0
 76
     1
 77
     6
 78
     2
 67
     7
 79
     3
170
     0
171
     0
290
     0
174
     0
 93
        1
 44
0.0
173
     0
291
     0
 45
0.0
1001
ACAD
1000
AcDbSavedByObjectVersion
1070
     0
  0
VISUALSTYLE
  5
35
102
{ACAD_REACTORS
330
2A
102
}
330
2A
100
AcDbVisualStyle
  2
Dim
 70
    11
 71
     2
 72
     2
 73
     0
 90
        0
 40
-0.6
 41
-30.0
 62
     5
 63
     7
 74
     1
 91
        4
 64
     7
 65
   257
 75
     1
175
     1
 42
1.0
 92
        8
 66
     7
 43
1.0
 76
     1
 77
     6
 78
     2
 67
     7
 79
     5
170
     0
171
     0
290
     0
174
     0
 93
        1
 44
-50.0
173
     0
291
     1
 45
0.0
1001
ACAD
1000
AcDbSavedByObjectVersion
1070
     0
  0
VISUALSTYLE
  5
39
102
{ACAD_REACTORS
330
2A
102
}
330
2A
100
AcDbVisualStyle
  2
Facepattern
 70
    15
 71
     2
 72
     2
 73
     0
 90
        0
 40
-0.6
 41
-30.0
 62
     5
 63
     7
 74
     1
 91
        4
 64
     7
 65
   257
 75
     1
175
     1
 42
1.0
 92
        8
 66
     7
 43
1.0
 76
     1
 77
     6
 78
     2
 67
     7
 79
     5
170
     0
171
     0
290
     0
174
     0
 93
        1
 44
0.0
173
     0
291
     1
 45
0.0
1001
ACAD
1000
AcDbSavedByObjectVersion
1070
     0
  0
VISUALSTYLE
  5
2B
102
{ACAD_REACTORS
330
2A
102
}
330
2A
100
AcDbVisualStyle
  2
Flat
 70
     0
 71
     2
 72
     1
 73
     1
 90
        2
 40
-0.6
 41
30.0
 62
     5
 63
     7
 74
     0
 91
        4
 64
     7
 65
   257
 75
     1
175
     1
 42
1.0
 92
        8
 66
     7
 43
1.0
 76
     1
 77
     6
 78
     2
 67
     7
 79
     5
170
     0
171
     0
290
     0
174
     0
 93
       13
 44
0.0
173
     0
291
     1
 45
0.0
1001
ACAD
1000
AcDbSavedByObjectVersion
1070
     0
  0
VISUALSTYLE
  5
2C
102
{ACAD_REACTORS
330
2A
102
}
330
2A
100
AcDbVisualStyle
  2
FlatWithEdges
 70
     1
 71
     2
 72
     1
 73
     1
 90
        2
 40
-0.6
 41
30.0
 62
     5
 63
     7
 74
     1
 91
        4
 64
     7
 65
   257
 75
     1
175
     1
 42
1.0
 92
        0
 66
   257
 43
1.0
 76
     1
 77
     6
 78
     2
 67
     7
 79
     5
170
     0
171
     0
290
     0
174
     0
 93
       13
 44
0.0
173
     0
291
     1
 45
0.0
1001
ACAD
1000
AcDbSavedByObjectVersion
1070
     0
  0
VISUALSTYLE
  5
2D
102
{ACAD_REACTORS
330
2A
102
}
330
2A
100
AcDbVisualStyle
  2
Gouraud
 70
     2
 71
     2
 72
     2
 73
     1
 90
        2
 40
-0.6
 41
30.0
 62
     5
 63
     7
 74
     0
 91
        4
 64
     7
 65
   257
 75
     1
175
     1
 42
1.0
 92
        0
 66
     7
 43
1.0
 76
     1
 77
     6
 78
     2
 67
     7
 79
     5
170
     0
171
     0
290
     0
174
     0
 93
       13
 44
0.0
173
     0
291
     1
 45
0.0
1001
ACAD
1000
AcDbSavedByObjectVersion
1070
     0
  0
VISUALSTYLE
  5
2E
102
{ACAD_REACTORS
330
2A
102
}
330
2A
100
AcDbVisualStyle
  2
GouraudWithEdges
 70
     3
 71
     2
 72
     2
 73
     1
 90
        2
 40
-0.6
 41
30.0
 62
     5
 63
     7
 74
     1
 91
        4
 64
     7
 65
   257
 75
     1
175
     1
 42
1.0
 92
        0
 66
   257
 43
1.0
 76
     1
 77
     6
 78
     2
 67
     7
 79
     5
170
     0
171
     0
290
     0
174
     0
 93
       13
 44
0.0
173
     0
291
     1
 45
0.0
1001
ACAD
1000
AcDbSavedByObjectVersion
1070
     0
  0
VISUALSTYLE
  5
38
102
{ACAD_REACTORS
330
2A
102
}
330
2A
100
AcDbVisualStyle
  2
Linepattern
 70
    14
 71
     2
 72
     2
 73
     0
 90
        0
 40
-0.6
 41
-30.0
 62
     5
 63
     7
 74
     1
 91
        4
 64
     7
 65
   257
 75
     7
175
     7
 42
1.0
 92
        8
 66
     7
 43
1.0
 76
     1
 77
     6
 78
     2
 67
     7
 79
     5
170
     0
171
     0
290
     0
174
     0
 93
        1
 44
0.0
173
     0
291
     1
 45
0.0
1001
ACAD
1000
AcDbSavedByObjectVersion
1070
     0
  0
VISUALSTYLE
  5
33
102
{ACAD_REACTORS
330
2A
102
}
330
2A
100
AcDbVisualStyle
  2
Realistic
 70
     8
 71
     2
 72
     2
 73
     0
 90
        0
 40
-0.6
 41
-30.0
 62
     5
 63
     7
 74
     1
 91
        0
 64
     7
 65
   257
 75
     1
175
     1
 42
1.0
 92
        8
 66
     8
 43
1.0
 76
     1
 77
     6
 78
     2
 67
     7
 79
     5
170
     0
171
     0
290
     0
174
     0
 93
       13
 44
0.0
173
     0
291
     0
 45
0.0
1001
ACAD
1000
AcDbSavedByObjectVersion
1070
     0
  0
VISUALSTYLE
  5
37
102
{ACAD_REACTORS
330
2A
102
}
330
2A
100
AcDbVisualStyle
  2
Thicken
 70
    13
 71
     2
 72
     2
 73
     0
 90
        0
 40
-0.6
 41
-30.0
 62
     5
 63
     7
 74
     1
 91
        4
 64
     7
 65
   257
 75
     1
175
     1
 42
1.0
 92
       12
 66
     7
 43
1.0
 76
     1
 77
     6
 78
     2
 67
     7
 79
     5
170
     0
171
     0
290
     0
174
     0
 93
        1
 44
0.0
173
     0
291
     1
 45
0.0
1001
ACAD
1000
AcDbSavedByObjectVersion
1070
     0
  0
DICTIONARYVAR
  5
169
102
{ACAD_REACTORS
330
166
102
}
330
166
100
DictionaryVariables
280
     0
  1
1:1
  0
ENDSEC
  0
EOF
