  0
SECTION
  2
HEADER
  9
$ACADVER
  1
AC1015
  9
$ACADMAINTVER
 70
     6
  9
$DWGCODEPAGE
  3
ANSI_1252
  9
$INSBASE
 10
0.0
 20
0.0
 30
0.0
  9
$EXTMIN
 10
73.431087022839
 20
253.9521625321168
 30
0.0
  9
$EXTMAX
 10
224.918014482712
 20
362.721549449423
 30
0.0
  9
$LIMMIN
 10
0.0
 20
0.0
  9
$LIMMAX
 10
12.0
 20
9.0
  9
$ORTHOMODE
 70
     0
  9
$REGENMODE
 70
     1
  9
$FILLMODE
 70
     1
  9
$QTEXTMODE
 70
     0
  9
$MIRRTEXT
 70
     1
  9
$LTSCALE
 40
1.0
  9
$ATTMODE
 70
     1
  9
$TEXTSIZE
 40
0.2
  9
$TRACEWID
 40
0.05
  9
$TEXTSTYLE
  7
Standard
  9
$CLAYER
  8
0
  9
$CELTYPE
  6
ByLayer
  9
$CECOLOR
 62
   256
  9
$CELTSCALE
 40
1.0
  9
$DISPSILH
 70
     0
  9
$DIMSCALE
 40
1.0
  9
$DIMASZ
 40
0.18
  9
$DIMEXO
 40
0.0625
  9
$DIMDLI
 40
0.38
  9
$DIMRND
 40
0.0
  9
$DIMDLE
 40
0.0
  9
$DIMEXE
 40
0.18
  9
$DIMTP
 40
0.0
  9
$DIMTM
 40
0.0
  9
$DIMTXT
 40
0.18
  9
$DIMCEN
 40
0.09
  9
$DIMTSZ
 40
0.0
  9
$DIMTOL
 70
     0
  9
$DIMLIM
 70
     0
  9
$DIMTIH
 70
     1
  9
$DIMTOH
 70
     1
  9
$DIMSE1
 70
     0
  9
$DIMSE2
 70
     0
  9
$DIMTAD
 70
     0
  9
$DIMZIN
 70
     0
  9
$DIMBLK
  1

  9
$DIMASO
 70
     1
  9
$DIMSHO
 70
     1
  9
$DIMPOST
  1

  9
$DIMAPOST
  1

  9
$DIMALT
 70
     0
  9
$DIMALTD
 70
     2
  9
$DIMALTF
 40
25.4
  9
$DIMLFAC
 40
1.0
  9
$DIMTOFL
 70
     0
  9
$DIMTVP
 40
0.0
  9
$DIMTIX
 70
     0
  9
$DIMSOXD
 70
     0
  9
$DIMSAH
 70
     0
  9
$DIMBLK1
  1

  9
$DIMBLK2
  1

  9
$DIMSTYLE
  2
Standard
  9
$DIMCLRD
 70
     0
  9
$DIMCLRE
 70
     0
  9
$DIMCLRT
 70
     0
  9
$DIMTFAC
 40
1.0
  9
$DIMGAP
 40
0.09
  9
$DIMJUST
 70
     0
  9
$DIMSD1
 70
     0
  9
$DIMSD2
 70
     0
  9
$DIMTOLJ
 70
     1
  9
$DIMTZIN
 70
     0
  9
$DIMALTZ
 70
     0
  9
$DIMALTTZ
 70
     0
  9
$DIMUPT
 70
     0
  9
$DIMDEC
 70
     4
  9
$DIMTDEC
 70
     4
  9
$DIMALTU
 70
     2
  9
$DIMALTTD
 70
     2
  9
$DIMTXSTY
  7
Standard
  9
$DIMAUNIT
 70
     0
  9
$DIMADEC
 70
     0
  9
$DIMALTRND
 40
0.0
  9
$DIMAZIN
 70
     0
  9
$DIMDSEP
 70
    46
  9
$DIMATFIT
 70
     3
  9
$DIMFRAC
 70
     0
  9
$DIMLDRBLK
  1

  9
$DIMLUNIT
 70
     2
  9
$DIMLWD
 70
    -2
  9
$DIMLWE
 70
    -2
  9
$DIMTMOVE
 70
     0
  9
$LUNITS
 70
     2
  9
$LUPREC
 70
     4
  9
$SKETCHINC
 40
0.1
  9
$FILLETRAD
 40
0.5
  9
$AUNITS
 70
     0
  9
$AUPREC
 70
     0
  9
$MENU
  1
.
  9
$ELEVATION
 40
0.0
  9
$PELEVATION
 40
0.0
  9
$THICKNESS
 40
0.0
  9
$LIMCHECK
 70
     0
  9
$CHAMFERA
 40
0.5
  9
$CHAMFERB
 40
0.5
  9
$CHAMFERC
 40
1.0
  9
$CHAMFERD
 40
0.0
  9
$SKPOLY
 70
     0
  9
$TDCREATE
 40
2456749.740434826
  9
$TDUCREATE
 40
2456749.657101493
  9
$TDUPDATE
 40
2456749.740434838
  9
$TDUUPDATE
 40
2456749.657101505
  9
$TDINDWG
 40
0.0000000116
  9
$TDUSRTIMER
 40
0.0000000116
  9
$USRTIMER
 70
     1
  9
$ANGBASE
 50
0.0
  9
$ANGDIR
 70
     0
  9
$PDMODE
 70
     0
  9
$PDSIZE
 40
0.0
  9
$PLINEWID
 40
0.0
  9
$SPLFRAME
 70
     0
  9
$SPLINETYPE
 70
     6
  9
$SPLINESEGS
 70
     8
  9
$HANDSEED
  5
16A
  9
$SURFTAB1
 70
     6
  9
$SURFTAB2
 70
     6
  9
$SURFTYPE
 70
     6
  9
$SURFU
 70
     6
  9
$SURFV
 70
     6
  9
$UCSBASE
  2

  9
$UCSNAME
  2

  9
$UCSORG
 10
0.0
 20
0.0
 30
0.0
  9
$UCSXDIR
 10
1.0
 20
0.0
 30
0.0
  9
$UCSYDIR
 10
0.0
 20
1.0
 30
0.0
  9
$UCSORTHOREF
  2

  9
$UCSORTHOVIEW
 70
     0
  9
$UCSORGTOP
 10
0.0
 20
0.0
 30
0.0
  9
$UCSORGBOTTOM
 10
0.0
 20
0.0
 30
0.0
  9
$UCSORGLEFT
 10
0.0
 20
0.0
 30
0.0
  9
$UCSORGRIGHT
 10
0.0
 20
0.0
 30
0.0
  9
$UCSORGFRONT
 10
0.0
 20
0.0
 30
0.0
  9
$UCSORGBACK
 10
0.0
 20
0.0
 30
0.0
  9
$PUCSBASE
  2

  9
$PUCSNAME
  2

  9
$PUCSORG
 10
0.0
 20
0.0
 30
0.0
  9
$PUCSXDIR
 10
1.0
 20
0.0
 30
0.0
  9
$PUCSYDIR
 10
0.0
 20
1.0
 30
0.0
  9
$PUCSORTHOREF
  2

  9
$PUCSORTHOVIEW
 70
     0
  9
$PUCSORGTOP
 10
0.0
 20
0.0
 30
0.0
  9
$PUCSORGBOTTOM
 10
0.0
 20
0.0
 30
0.0
  9
$PUCSORGLEFT
 10
0.0
 20
0.0
 30
0.0
  9
$PUCSORGRIGHT
 10
0.0
 20
0.0
 30
0.0
  9
$PUCSORGFRONT
 10
0.0
 20
0.0
 30
0.0
  9
$PUCSORGBACK
 10
0.0
 20
0.0
 30
0.0
  9
$USERI1
 70
     0
  9
$USERI2
 70
     0
  9
$USERI3
 70
     0
  9
$USERI4
 70
     0
  9
$USERI5
 70
     0
  9
$USERR1
 40
16.5
  9
$USERR2
 40
0.0
  9
$USERR3
 40
0.0
  9
$USERR4
 40
0.0
  9
$USERR5
 40
0.0
  9
$WORLDVIEW
 70
     1
  9
$SHADEDGE
 70
     3
  9
$SHADEDIF
 70
    70
  9
$TILEMODE
 70
     1
  9
$MAXACTVP
 70
    64
  9
$PINSBASE
 10
0.0
 20
0.0
 30
0.0
  9
$PLIMCHECK
 70
     0
  9
$PEXTMIN
 10
1.00000000000000E+20
 20
1.00000000000000E+20
 30
1.00000000000000E+20
  9
$PEXTMAX
 10
-1.00000000000000E+20
 20
-1.00000000000000E+20
 30
-1.00000000000000E+20
  9
$PLIMMIN
 10
0.0
 20
0.0
  9
$PLIMMAX
 10
12.0
 20
9.0
  9
$UNITMODE
 70
     0
  9
$VISRETAIN
 70
     1
  9
$PLINEGEN
 70
     0
  9
$PSLTSCALE
 70
     1
  9
$TREEDEPTH
 70
  3020
  9
$CMLSTYLE
  2
Standard
  9
$CMLJUST
 70
     0
  9
$CMLSCALE
 40
1.0
  9
$PROXYGRAPHICS
 70
     1
  9
$MEASUREMENT
 70
     1
  9
$CELWEIGHT
370
    -1
  9
$ENDCAPS
280
     0
  9
$JOINSTYLE
280
     0
  9
$LWDISPLAY
290
     0
  9
$INSUNITS
 70
     1
  9
$HYPERLINKBASE
  1

  9
$STYLESHEET
  1

  9
$XEDIT
290
     1
  9
$CEPSNTYPE
380
     0
  9
$PSTYLEMODE
290
     1
  9
$FINGERPRINTGUID
  2
{4F0B9BFA-9B16-4B5F-8A71-C98B75005830}
  9
$VERSIONGUID
  2
{FAEB1C32-E019-11D5-929B-00C0DF256EC4}
  9
$EXTNAMES
290
     1
  9
$PSVPSCALE
 40
0.0
  9
$OLESTARTUP
290
     0
  0
ENDSEC
  0
SECTION
  2
CLASSES
  0
CLASS
  1
ACDBDICTIONARYWDFLT
  2
AcDbDictionaryWithDefault
  3
ObjectDBX Classes
 90
        0
280
     0
281
     0
  0
CLASS
  1
VISUALSTYLE
  2
AcDbVisualStyle
  3
ObjectDBX Classes
 90
     4095
280
     0
281
     0
  0
CLASS
  1
SCALE
  2
AcDbScale
  3
ObjectDBX Classes
 90
     1153
280
     0
281
     0
  0
CLASS
  1

  2
exOdDbPolyline
  3

 90
        0
280
     0
281
     1
  0
CLASS
  1

  2
exOdDbCircle
  3

 90
        0
280
     0
281
     1
  0
CLASS
  1

  2
exOdDbSpline
  3

 90
        0
280
     0
281
     1
  0
CLASS
  1
DICTIONARYVAR
  2
AcDbDictionaryVar
  3
ObjectDBX Classes
 90
        0
280
     0
281
     0
  0
CLASS
  1
ACDBPLACEHOLDER
  2
AcDbPlaceHolder
  3
ObjectDBX Classes
 90
        0
280
     0
281
     0
  0
CLASS
  1
LAYOUT
  2
AcDbLayout
  3
ObjectDBX Classes
 90
        0
280
     0
281
     0
  0
ENDSEC
  0
SECTION
  2
TABLES
  0
TABLE
  2
VPORT
  5
8
330
0
100
AcDbSymbolTable
 70
     1
  0
VPORT
  5
29
330
8
100
AcDbSymbolTableRecord
100
AcDbViewportTableRecord
  2
*Active
 70
     0
 10
0.0
 20
0.0
 11
1.0
 21
1.0
 12
149.1745507527755
 22
308.3368559907699
 13
0.0
 23
0.0
 14
0.5
 24
0.5
 15
0.5
 25
0.5
 16
0.0
 26
0.0
 36
1.0
 17
0.0
 27
0.0
 37
0.0
 40
119.6463256090368
 41
1.60267857142857
 42
50.0
 43
0.0
 44
0.0
 50
0.0
 51
0.0
 71
     0
 72
   100
 73
     1
 74
     3
 75
     0
 76
     0
 77
     0
 78
     0
281
     0
 65
     1
110
0.0
120
0.0
130
0.0
111
1.0
121
0.0
131
0.0
112
0.0
122
1.0
132
0.0
 79
     0
146
0.0
  0
ENDTAB
  0
TABLE
  2
LTYPE
  5
5
330
0
100
AcDbSymbolTable
 70
     8
  0
LTYPE
  5
14
330
5
100
AcDbSymbolTableRecord
100
AcDbLinetypeTableRecord
  2
ByBlock
 70
     0
  3

 72
    65
 73
     0
 40
0.0
  0
LTYPE
  5
15
330
5
100
AcDbSymbolTableRecord
100
AcDbLinetypeTableRecord
  2
ByLayer
 70
     0
  3

 72
    65
 73
     0
 40
0.0
  0
LTYPE
  5
16
330
5
100
AcDbSymbolTableRecord
100
AcDbLinetypeTableRecord
  2
Continuous
 70
     0
  3
Solid line
 72
    65
 73
     0
 40
0.0
  0
LTYPE
  5
3B
330
5
100
AcDbSymbolTableRecord
100
AcDbLinetypeTableRecord
  2
DASHED
 70
     0
  3
Dashed
 72
    65
 73
     2
 40
15.0
 49
7.0
 74
     0
 49
-8.0
 74
     0
  0
LTYPE
  5
3C
330
5
100
AcDbSymbolTableRecord
100
AcDbLinetypeTableRecord
  2
DOTTED
 70
     0
  3
Dotted
 72
    65
 73
     2
 40
1.0
 49
0.0
 74
     0
 49
-1.0
 74
     0
  0
LTYPE
  5
3D
330
5
100
AcDbSymbolTableRecord
100
AcDbLinetypeTableRecord
  2
DOT_CENTER
 70
     0
  3
Dot_Center
 72
    65
 73
     4
 40
14.0
 49
12.0
 74
     0
 49
-1.0
 74
     0
 49
0.0
 74
     0
 49
-1.0
 74
     0
  0
LTYPE
  5
3E
330
5
100
AcDbSymbolTableRecord
100
AcDbLinetypeTableRecord
  2
LONG_DASHED
 70
     0
  3
Long_Dashed
 72
    65
 73
     2
 40
15.0
 49
10.0
 74
     0
 49
-5.0
 74
     0
  0
LTYPE
  5
3F
330
5
100
AcDbSymbolTableRecord
100
AcDbLinetypeTableRecord
  2
DASH_CENTER
 70
     0
  3
Dash_Center
 72
    65
 73
     4
 40
14.0
 49
11.0
 74
     0
 49
-1.0
 74
     0
 49
1.0
 74
     0
 49
-1.0
 74
     0
  0
LTYPE
  5
40
330
5
100
AcDbSymbolTableRecord
100
AcDbLinetypeTableRecord
  2
PHANTOM
 70
     0
  3
Phantom
 72
    65
 73
     6
 40
13.0
 49
10.0
 74
     0
 49
-1.0
 74
     0
 49
0.0
 74
     0
 49
-1.0
 74
     0
 49
0.0
 74
     0
 49
-1.0
 74
     0
  0
LTYPE
  5
41
330
5
100
AcDbSymbolTableRecord
100
AcDbLinetypeTableRecord
  2
CENTER_DASH_DASH
 70
     0
  3
Center_Dash_Dash
 72
    65
 73
     6
 40
14.0
 49
9.0
 74
     0
 49
-1.0
 74
     0
 49
1.0
 74
     0
 49
-1.0
 74
     0
 49
1.0
 74
     0
 49
-1.0
 74
     0
  0
ENDTAB
  0
TABLE
  2
LAYER
  5
2
330
0
100
AcDbSymbolTable
 70
     7
  0
LAYER
  5
10
330
2
100
AcDbSymbolTableRecord
100
AcDbLayerTableRecord
  2
0
 70
     0
 62
     7
  6
Continuous
370
    -3
390
F
  0
LAYER
  5
42
330
2
100
AcDbSymbolTableRecord
100
AcDbLayerTableRecord
  2
1
 70
     0
 62
     7
  6
Continuous
370
    -3
390
F
  0
LAYER
  5
43
330
2
100
AcDbSymbolTableRecord
100
AcDbLayerTableRecord
  2
BEZUGSACHSEN
 70
     0
 62
     7
  6
Continuous
370
    -3
390
F
  0
LAYER
  5
44
330
2
100
AcDbSymbolTableRecord
100
AcDbLayerTableRecord
  2
BOHRUNGEN
 70
     0
 62
     7
  6
Continuous
370
    -3
390
F
  0
LAYER
  5
45
330
2
100
AcDbSymbolTableRecord
100
AcDbLayerTableRecord
  2
FASEN
 70
     0
 62
     7
  6
Continuous
370
    -3
390
F
  0
LAYER
  5
46
330
2
100
AcDbSymbolTableRecord
100
AcDbLayerTableRecord
  2
RUNDUNGEN
 70
     0
 62
     7
  6
Continuous
370
    -3
390
F
  0
LAYER
  5
47
330
2
100
AcDbSymbolTableRecord
100
AcDbLayerTableRecord
  2
TEIL_STARTBEZUEGE
 70
     0
 62
     7
  6
Continuous
370
    -3
390
F
  0
ENDTAB
  0
TABLE
  2
STYLE
  5
3
330
0
100
AcDbSymbolTable
 70
     2
  0
STYLE
  5
11
330
3
100
AcDbSymbolTableRecord
100
AcDbTextStyleTableRecord
  2
Standard
 70
     0
 40
0.0
 41
1.0
 50
0.0
 71
     0
 42
0.2
  3
txt
  4

  0
STYLE
  5
6E
330
3
100
AcDbSymbolTableRecord
100
AcDbTextStyleTableRecord
  2
CONVERTER_11
 70
     0
 40
0.0
 41
0.72
 50
0.0
 71
     0
 42
0.2
  3
txt.shx
  4

  0
ENDTAB
  0
TABLE
  2
VIEW
  5
6
330
0
100
AcDbSymbolTable
 70
     0
  0
ENDTAB
  0
TABLE
  2
UCS
  5
7
330
0
100
AcDbSymbolTable
 70
     0
  0
ENDTAB
  0
TABLE
  2
APPID
  5
9
330
0
100
AcDbSymbolTable
 70
     1
  0
APPID
  5
12
330
9
100
AcDbSymbolTableRecord
100
AcDbRegAppTableRecord
  2
ACAD
 70
     0
  0
ENDTAB
  0
TABLE
  2
DIMSTYLE
  5
A
330
0
100
AcDbSymbolTable
 70
     8
100
AcDbDimStyleTable
  0
DIMSTYLE
105
27
330
A
100
AcDbSymbolTableRecord
100
AcDbDimStyleTableRecord
  2
Standard
 70
     0
340
11
  0
DIMSTYLE
105
11B
102
{ACAD_REACTORS
330
11C
102
}
330
A
100
AcDbSymbolTableRecord
100
AcDbDimStyleTableRecord
  2
ME10_DIM_10
 70
     0
  3
\U+2300<>
 41
3.5
 42
2.0
 44
2.0
 71
     1
 73
     0
 74
     0
 77
     1
 78
     8
140
3.5
146
0.7
147
2.0
172
     1
173
     1
176
     2
177
     2
178
     3
271
     2
272
     0
340
6E
  0
DIMSTYLE
105
126
102
{ACAD_REACTORS
330
127
102
}
330
A
100
AcDbSymbolTableRecord
100
AcDbDimStyleTableRecord
  2
ME10_DIM_11
 70
     0
  3
\U+2300<>
 41
3.5
 42
2.0
 44
2.0
 71
     1
 73
     0
 74
     0
 77
     1
 78
     8
140
3.5
146
0.7
147
2.0
172
     1
173
     1
176
     2
177
     2
178
     3
271
     2
272
     0
340
6E
  0
DIMSTYLE
105
131
102
{ACAD_REACTORS
330
132
102
}
330
A
100
AcDbSymbolTableRecord
100
AcDbDimStyleTableRecord
  2
ME10_DIM_12
 70
     0
  3
\U+2300<>
 41
3.5
 42
2.0
 44
2.0
 71
     1
 73
     0
 74
     0
 77
     1
 78
     8
140
3.5
146
0.7
147
2.0
172
     1
173
     1
176
     2
177
     2
178
     3
271
     2
272
     0
340
6E
  0
DIMSTYLE
105
13C
102
{ACAD_REACTORS
330
13D
102
}
330
A
100
AcDbSymbolTableRecord
100
AcDbDimStyleTableRecord
  2
ME10_DIM_13
 70
     0
  3
<>
 41
3.5
 42
2.0
 44
2.0
 71
     1
 73
     0
 74
     0
 77
     1
 78
     8
140
3.5
146
0.7
147
2.0
172
     1
173
     1
176
     2
177
     2
178
     3
271
     0
272
     0
340
6E
  0
DIMSTYLE
105
147
102
{ACAD_REACTORS
330
148
102
}
330
A
100
AcDbSymbolTableRecord
100
AcDbDimStyleTableRecord
  2
ME10_DIM_14
 70
     0
  3
<>
 41
3.5
 42
2.0
 44
2.0
 71
     1
 73
     0
 74
     0
 77
     1
 78
     8
140
3.5
146
0.7
147
2.0
172
     1
173
     1
176
     2
177
     2
178
     3
271
     2
272
     0
340
6E
  0
DIMSTYLE
105
152
102
{ACAD_REACTORS
330
153
102
}
330
A
100
AcDbSymbolTableRecord
100
AcDbDimStyleTableRecord
  2
ME10_DIM_15
 70
     0
  3
<>
 41
3.5
 42
2.0
 44
2.0
 71
     1
 73
     0
 74
     0
 77
     1
 78
     8
140
3.5
146
0.7
147
2.0
172
     1
173
     1
176
     2
177
     2
178
     3
271
     0
272
     0
340
6E
  0
DIMSTYLE
105
164
102
{ACAD_REACTORS
330
165
102
}
330
A
100
AcDbSymbolTableRecord
100
AcDbDimStyleTableRecord
  2
ME10_DIM_16
 70
     0
  3
<>
 41
3.5
 42
2.0
 44
2.0
 71
     1
 73
     0
 74
     0
 77
     1
 78
     8
140
3.5
146
0.7
147
2.0
172
     1
173
     1
176
     2
177
     2
178
     3
271
     2
272
     0
340
6E
  0
ENDTAB
  0
TABLE
  2
BLOCK_RECORD
  5
1
330
0
100
AcDbSymbolTable
 70
    10
  0
BLOCK_RECORD
  5
1F
330
1
100
AcDbSymbolTableRecord
100
AcDbBlockTableRecord
  2
*Model_Space
340
22
  0
BLOCK_RECORD
  5
1B
330
1
100
AcDbSymbolTableRecord
100
AcDbBlockTableRecord
  2
*Paper_Space
340
1E
  0
BLOCK_RECORD
  5
23
330
1
100
AcDbSymbolTableRecord
100
AcDbBlockTableRecord
  2
*Paper_Space0
340
26
  0
BLOCK_RECORD
  5
48
330
1
100
AcDbSymbolTableRecord
100
AcDbBlockTableRecord
  2
Urheberrecht_DE-EN
340
0
102
{BLKREFS
331
6D
102
}
  0
BLOCK_RECORD
  5
110
330
1
100
AcDbSymbolTableRecord
100
AcDbBlockTableRecord
  2
*D2
340
0
  0
BLOCK_RECORD
  5
11D
330
1
100
AcDbSymbolTableRecord
100
AcDbBlockTableRecord
  2
*D3
340
0
  0
BLOCK_RECORD
  5
128
330
1
100
AcDbSymbolTableRecord
100
AcDbBlockTableRecord
  2
*D4
340
0
  0
BLOCK_RECORD
  5
133
330
1
100
AcDbSymbolTableRecord
100
AcDbBlockTableRecord
  2
*D5
340
0
  0
BLOCK_RECORD
  5
13E
330
1
100
AcDbSymbolTableRecord
100
AcDbBlockTableRecord
  2
*D6
340
0
  0
BLOCK_RECORD
  5
149
330
1
100
AcDbSymbolTableRecord
100
AcDbBlockTableRecord
  2
*D7
340
0
  0
BLOCK_RECORD
  5
154
330
1
100
AcDbSymbolTableRecord
100
AcDbBlockTableRecord
  2
*D8
340
0
102
{BLKREFS
331
15A
102
}
  0
BLOCK_RECORD
  5
15B
330
1
100
AcDbSymbolTableRecord
100
AcDbBlockTableRecord
  2
*D9
340
0
  0
ENDTAB
  0
ENDSEC
  0
SECTION
  2
BLOCKS
  0
BLOCK
  5
20
330
1F
100
AcDbEntity
  8
0
100
AcDbBlockBegin
  2
*Model_Space
 70
     0
 10
0.0
 20
0.0
 30
0.0
  3
*Model_Space
  1

  0
ENDBLK
  5
21
330
1F
100
AcDbEntity
  8
0
100
AcDbBlockEnd
  0
BLOCK
  5
1C
330
1B
100
AcDbEntity
 67
     1
  8
0
100
AcDbBlockBegin
  2
*Paper_Space
 70
     0
 10
0.0
 20
0.0
 30
0.0
  3
*Paper_Space
  1

  0
ENDBLK
  5
1D
330
1B
100
AcDbEntity
 67
     1
  8
0
100
AcDbBlockEnd
  0
BLOCK
  5
24
330
23
100
AcDbEntity
  8
0
100
AcDbBlockBegin
  2
*Paper_Space0
 70
     0
 10
0.0
 20
0.0
 30
0.0
  3
*Paper_Space0
  1

  0
ENDBLK
  5
25
330
23
100
AcDbEntity
  8
0
100
AcDbBlockEnd
  0
BLOCK
  5
49
330
48
100
AcDbEntity
  8
0
100
AcDbBlockBegin
  2
Urheberrecht_DE-EN
 70
     0
 10
87.431087022839
 20
310.241549449423
 30
0.0
  3
Urheberrecht_DE-EN
  1

  0
MTEXT
  5
6F
330
48
100
AcDbEntity
  8
1
 62
     1
100
AcDbMText
 10
87.431087022839
 20
310.241549449423
 30
0.0
 40
2.0
 41
0.0
 71
     7
 72
     1
  1
We own the copyright of this document. It \Pdetermined and may neither be copied or \Pmade accessible to outsiders without our\Ppermission.
  7
CONVERTER_11
 11
0.0
 21
1.0
 31
0.0
 73
     1
 44
0.90036014405762
  0
MTEXT
  5
70
330
48
100
AcDbEntity
  8
1
 62
     1
100
AcDbMText
 10
87.431087022839
 20
253.9521625321168
 30
0.0
 40
2.0
 41
0.0
 71
     7
 72
     1
  1
F\U+00fcr diese Unterlage behalten wir das Ur-\Pheberrecht. Sie darf nur f\U+00fcr den von uns \Pbestimmten Zweck benutzt und ohne unsere \PZustimmung weder vervielf\U+00e4ltigt noch\PDritten zug\U+00e4nglich gemacht werden.
  7
CONVERTER_11
 11
0.0
 21
1.0
 31
0.0
 73
     1
 44
0.90036014405762
  0
ENDBLK
  5
4A
330
48
100
AcDbEntity
  8
0
100
AcDbBlockEnd
  0
BLOCK
  5
119
330
110
100
AcDbEntity
  8
0
100
AcDbBlockBegin
  2
*D2
 70
     1
 10
0.0
 20
0.0
 30
0.0
  3
*D2
  1

  0
LINE
  5
111
330
110
100
AcDbEntity
  8
1
  6
Continuous
 62
     2
100
AcDbLine
 10
203.626218548258
 20
306.7719503012
 30
0.0
 11
203.626218548258
 21
299.7719503012
 31
0.0
  0
LINE
  5
112
330
110
100
AcDbEntity
  8
1
  6
Continuous
 62
     2
100
AcDbLine
 10
203.626218548258
 20
299.7719503012
 30
0.0
 11
203.626218548258
 21
291.7719503012
 31
0.0
  0
LINE
  5
113
330
110
100
AcDbEntity
  8
1
  6
Continuous
 62
     2
100
AcDbLine
 10
203.626218548258
 20
291.7719503012
 30
0.0
 11
203.626218548258
 21
284.7719503012
 31
0.0
  0
LINE
  5
114
330
110
100
AcDbEntity
  8
1
  6
Continuous
 62
     2
100
AcDbLine
 10
196.3329066265
 20
299.7719503012
 30
0.0
 11
205.626218548258
 21
299.7719503012
 31
0.0
  0
LINE
  5
115
330
110
100
AcDbEntity
  8
1
  6
Continuous
 62
     2
100
AcDbLine
 10
196.3329066265
 20
291.7719503012
 30
0.0
 11
205.626218548258
 21
291.7719503012
 31
0.0
  0
SOLID
  5
116
330
110
100
AcDbEntity
  8
1
 62
     2
100
AcDbTrace
 10
203.1654348067021
 20
303.2719503012
 30
0.0
 11
204.0870022898139
 21
303.2719503012
 31
0.0
 12
203.626218548258
 22
299.7719503012
 32
0.0
 13
203.626218548258
 23
299.7719503012
 33
0.0
  0
SOLID
  5
117
330
110
100
AcDbEntity
  8
1
 62
     2
100
AcDbTrace
 10
204.0870022898139
 20
288.2719503012
 30
0.0
 11
203.1654348067021
 21
288.2719503012
 31
0.0
 12
203.626218548258
 22
291.7719503012
 32
0.0
 13
203.626218548258
 23
291.7719503012
 33
0.0
  0
MTEXT
  5
118
330
110
100
AcDbEntity
  8
1
 62
     3
100
AcDbMText
 10
201.626218548258
 20
288.0094397594499
 30
0.0
 40
3.5
 41
0.0
 71
     7
 72
     1
  1
\C3;%%c\C3;\C3;8\C2;\H2.45;\S^ ;\C3;
  7
CONVERTER_11
 11
0.0
 21
1.0
 31
0.0
 73
     1
 44
0.60024009603842
  0
ENDBLK
  5
11A
330
110
100
AcDbEntity
  8
0
100
AcDbBlockEnd
  0
BLOCK
  5
124
330
11D
100
AcDbEntity
  8
0
100
AcDbBlockBegin
  2
*D3
 70
     1
 10
0.0
 20
0.0
 30
0.0
  3
*D3
  1

  0
LINE
  5
11E
330
11D
100
AcDbEntity
  8
1
  6
Continuous
 62
     2
100
AcDbLine
 10
213.877897547244
 20
306.2719503012528
 30
0.0
 11
213.877897547244
 21
285.2719503011559
 31
0.0
  0
LINE
  5
11F
330
11D
100
AcDbEntity
  8
1
  6
Continuous
 62
     2
100
AcDbLine
 10
196.3329066265094
 20
306.2719503012528
 30
0.0
 11
215.877897547244
 21
306.2719503012528
 31
0.0
  0
LINE
  5
120
330
11D
100
AcDbEntity
  8
1
  6
Continuous
 62
     2
100
AcDbLine
 10
196.3329066265
 20
285.2719503011559
 30
0.0
 11
215.877897547244
 21
285.2719503011559
 31
0.0
  0
SOLID
  5
121
330
11D
100
AcDbEntity
  8
1
 62
     2
100
AcDbTrace
 10
214.3386812887999
 20
302.7719503012528
 30
0.0
 11
213.4171138056881
 21
302.7719503012528
 31
0.0
 12
213.877897547244
 22
306.2719503012528
 32
0.0
 13
213.877897547244
 23
306.2719503012528
 33
0.0
  0
SOLID
  5
122
330
11D
100
AcDbEntity
  8
1
 62
     2
100
AcDbTrace
 10
213.4171138056881
 20
288.7719503011559
 30
0.0
 11
214.3386812887999
 21
288.7719503011559
 31
0.0
 12
213.877897547244
 22
285.2719503011559
 32
0.0
 13
213.877897547244
 23
285.2719503011559
 33
0.0
  0
MTEXT
  5
123
330
11D
100
AcDbEntity
  8
1
 62
     3
100
AcDbMText
 10
211.877897547244
 20
286.846420985272
 30
0.0
 40
3.5
 41
0.0
 71
     7
 72
     1
  1
\C3;%%c\C3;\C3;21\C2;\H2.45;\S^ ;\C3;
  7
CONVERTER_11
 11
0.0
 21
1.0
 31
0.0
 73
     1
 44
0.60024009603842
  0
ENDBLK
  5
125
330
11D
100
AcDbEntity
  8
0
100
AcDbBlockEnd
  0
BLOCK
  5
12F
330
128
100
AcDbEntity
  8
0
100
AcDbBlockBegin
  2
*D4
 70
     1
 10
0.0
 20
0.0
 30
0.0
  3
*D4
  1

  0
LINE
  5
129
330
128
100
AcDbEntity
  8
1
  6
Continuous
 62
     2
100
AcDbLine
 10
222.918014482712
 20
309.2719503012
 30
0.0
 11
222.918014482712
 21
282.2719503012
 31
0.0
  0
LINE
  5
12A
330
128
100
AcDbEntity
  8
1
  6
Continuous
 62
     2
100
AcDbLine
 10
158.214292418
 20
309.2719503012
 30
0.0
 11
224.918014482712
 21
309.2719503012
 31
0.0
  0
LINE
  5
12B
330
128
100
AcDbEntity
  8
1
  6
Continuous
 62
     2
100
AcDbLine
 10
158.214292418
 20
282.2719503012
 30
0.0
 11
224.918014482712
 21
282.2719503012
 31
0.0
  0
SOLID
  5
12C
330
128
100
AcDbEntity
  8
1
 62
     2
100
AcDbTrace
 10
223.3787982242679
 20
305.7719503012
 30
0.0
 11
222.4572307411561
 21
305.7719503012
 31
0.0
 12
222.918014482712
 22
309.2719503012
 32
0.0
 13
222.918014482712
 23
309.2719503012
 33
0.0
  0
SOLID
  5
12D
330
128
100
AcDbEntity
  8
1
 62
     2
100
AcDbTrace
 10
222.4572307411561
 20
285.7719503012
 30
0.0
 11
223.3787982242679
 21
285.7719503012
 31
0.0
 12
222.918014482712
 22
282.2719503012
 32
0.0
 13
222.918014482712
 23
282.2719503012
 33
0.0
  0
MTEXT
  5
12E
330
128
100
AcDbEntity
  8
1
 62
     3
100
AcDbMText
 10
220.918014482712
 20
287.451588885171
 30
0.0
 40
3.5
 41
0.0
 71
     7
 72
     1
  1
\C3;%%c\C3;\C3;27\C2;\H2.45;\S^ ;\C3;
  7
CONVERTER_11
 11
0.0
 21
1.0
 31
0.0
 73
     1
 44
0.60024009603842
  0
ENDBLK
  5
130
330
128
100
AcDbEntity
  8
0
100
AcDbBlockEnd
  0
BLOCK
  5
13A
330
133
100
AcDbEntity
  8
0
100
AcDbBlockBegin
  2
*D5
 70
     1
 10
0.0
 20
0.0
 30
0.0
  3
*D5
  1

  0
LINE
  5
134
330
133
100
AcDbEntity
  8
1
  6
Continuous
 62
     2
100
AcDbLine
 10
194.3329066265
 20
326.875231718509
 30
0.0
 11
134.2829066265
 21
326.875231718509
 31
0.0
  0
LINE
  5
135
330
133
100
AcDbEntity
  8
1
  6
Continuous
 62
     2
100
AcDbLine
 10
194.3329066265
 20
307.3475598095
 30
0.0
 11
194.3329066265
 21
328.875231718509
 31
0.0
  0
LINE
  5
136
330
133
100
AcDbEntity
  8
1
  6
Continuous
 62
     2
100
AcDbLine
 10
134.2829066265
 20
317.7719079624
 30
0.0
 11
134.2829066265
 21
328.875231718509
 31
0.0
  0
SOLID
  5
137
330
133
100
AcDbEntity
  8
1
 62
     2
100
AcDbTrace
 10
190.8329066265
 20
326.4144479769531
 30
0.0
 11
190.8329066265
 21
327.3360154600649
 31
0.0
 12
194.3329066265
 22
326.875231718509
 32
0.0
 13
194.3329066265
 23
326.875231718509
 33
0.0
  0
SOLID
  5
138
330
133
100
AcDbEntity
  8
1
 62
     2
100
AcDbTrace
 10
137.7829066265
 20
327.3360154600649
 30
0.0
 11
137.7829066265
 21
326.4144479769531
 31
0.0
 12
134.2829066265
 22
326.875231718509
 32
0.0
 13
134.2829066265
 23
326.875231718509
 33
0.0
  0
MTEXT
  5
139
330
133
100
AcDbEntity
  8
1
 62
     3
100
AcDbMText
 10
159.494334652418
 20
328.875231718509
 30
0.0
 40
3.5
 41
0.0
 71
     7
 72
     1
  1
\C3;\C3;\C3;60\C2;\H2.45;\S^ ;\C3;
  7
CONVERTER_11
 11
0.9999999999970619
 21
2.424068405545306E-6
 31
0.0
 73
     1
 44
0.60024009603842
  0
ENDBLK
  5
13B
330
133
100
AcDbEntity
  8
0
100
AcDbBlockEnd
  0
BLOCK
  5
145
330
13E
100
AcDbEntity
  8
0
100
AcDbBlockBegin
  2
*D6
 70
     1
 10
0.0
 20
0.0
 30
0.0
  3
*D6
  1

  0
LINE
  5
13F
330
13E
100
AcDbEntity
  8
1
  6
Continuous
 62
     2
100
AcDbLine
 10
194.3329066265
 20
334.703786590461
 30
0.0
 11
114.3329066265
 21
334.703786590461
 31
0.0
  0
LINE
  5
140
330
13E
100
AcDbEntity
  8
1
  6
Continuous
 62
     2
100
AcDbLine
 10
194.3329066265
 20
307.3475598095
 30
0.0
 11
194.3329066265
 21
336.703786590461
 31
0.0
  0
LINE
  5
141
330
13E
100
AcDbEntity
  8
1
  6
Continuous
 62
     2
100
AcDbLine
 10
114.3329066265
 20
317.7719503012
 30
0.0
 11
114.3329066265
 21
336.703786590461
 31
0.0
  0
SOLID
  5
142
330
13E
100
AcDbEntity
  8
1
 62
     2
100
AcDbTrace
 10
190.8329066265
 20
334.2430028489051
 30
0.0
 11
190.8329066265
 21
335.1645703320169
 31
0.0
 12
194.3329066265
 22
334.703786590461
 32
0.0
 13
194.3329066265
 23
334.703786590461
 33
0.0
  0
SOLID
  5
143
330
13E
100
AcDbEntity
  8
1
 62
     2
100
AcDbTrace
 10
117.8329066265
 20
335.1645703320169
 30
0.0
 11
117.8329066265
 21
334.2430028489051
 31
0.0
 12
114.3329066265
 22
334.703786590461
 32
0.0
 13
114.3329066265
 23
334.703786590461
 33
0.0
  0
MTEXT
  5
144
330
13E
100
AcDbEntity
  8
1
 62
     3
100
AcDbMText
 10
151.013400207803
 20
336.703786590461
 30
0.0
 40
3.5
 41
0.0
 71
     7
 72
     1
  1
\C3;\C3;\C3;80\C2;\H2.45;\S^ ;\C3;
  7
CONVERTER_11
 11
0.9999999999970619
 21
2.424068405545306E-6
 31
0.0
 73
     1
 44
0.60024009603842
  0
ENDBLK
  5
146
330
13E
100
AcDbEntity
  8
0
100
AcDbBlockEnd
  0
BLOCK
  5
150
330
149
100
AcDbEntity
  8
0
100
AcDbBlockBegin
  2
*D7
 70
     1
 10
0.0
 20
0.0
 30
0.0
  3
*D7
  1

  0
LINE
  5
14A
330
149
100
AcDbEntity
  8
1
  6
Continuous
 62
     2
100
AcDbLine
 10
194.3329066265
 20
342.159553135177
 30
0.0
 11
94.4329066265
 21
342.159553135177
 31
0.0
  0
LINE
  5
14B
330
149
100
AcDbEntity
  8
1
  6
Continuous
 62
     2
100
AcDbLine
 10
194.3329066265
 20
307.3475598095
 30
0.0
 11
194.3329066265
 21
344.159553135177
 31
0.0
  0
LINE
  5
14C
330
149
100
AcDbEntity
  8
1
  6
Continuous
 62
     2
100
AcDbLine
 10
94.4329066265
 20
311.2179369258
 30
0.0
 11
94.4329066265
 21
344.159553135177
 31
0.0
  0
SOLID
  5
14D
330
149
100
AcDbEntity
  8
1
 62
     2
100
AcDbTrace
 10
190.8329066265
 20
341.6987693936211
 30
0.0
 11
190.8329066265
 21
342.6203368767329
 31
0.0
 12
194.3329066265
 22
342.159553135177
 32
0.0
 13
194.3329066265
 23
342.159553135177
 33
0.0
  0
SOLID
  5
14E
330
149
100
AcDbEntity
  8
1
 62
     2
100
AcDbTrace
 10
97.9329066265
 20
342.6203368767329
 30
0.0
 11
97.9329066265
 21
341.6987693936211
 31
0.0
 12
94.4329066265
 22
342.159553135177
 32
0.0
 13
94.4329066265
 23
342.159553135177
 33
0.0
  0
MTEXT
  5
14F
330
149
100
AcDbEntity
  8
1
 62
     3
100
AcDbMText
 10
143.27681615394
 20
344.159553135177
 30
0.0
 40
3.5
 41
0.0
 71
     7
 72
     1
  1
\C3;\C3;\C3;100\C2;\H2.45;\S^ ;\C3;
  7
CONVERTER_11
 11
0.9999999999970619
 21
2.424068405545306E-6
 31
0.0
 73
     1
 44
0.60024009603842
  0
ENDBLK
  5
151
330
149
100
AcDbEntity
  8
0
100
AcDbBlockEnd
  0
BLOCK
  5
158
330
154
100
AcDbEntity
  8
0
100
AcDbBlockBegin
  2
*D8
 70
     1
 10
0.0
 20
0.0
 30
0.0
  3
*D8
  1

  0
LINE
  5
155
330
154
100
AcDbEntity
  8
1
  6
Continuous
 62
     2
100
AcDbLine
 10
144.9247959315068
 20
316.4373085029911
 30
0.0
 11
134.5661900937578
 21
310.2458487729829
 31
0.0
  0
SOLID
  5
156
330
154
100
AcDbEntity
  8
1
 62
     2
100
AcDbTrace
 10
137.3340385753626
 20
312.4370439809368
 30
0.0
 11
137.8068494767507
 21
311.646008913789
 31
0.0
 12
134.5661900937578
 22
310.2458487729829
 32
0.0
 13
134.5661900937578
 23
310.2458487729829
 33
0.0
  0
MTEXT
  5
157
330
154
100
AcDbEntity
  8
1
 62
     3
100
AcDbMText
 10
137.529676066816
 20
314.3471883660479
 30
0.0
 40
3.5
 41
0.0
 71
     7
 72
     1
  1
\C3; R\C3;\C3;2\C2;\H2.45;\S^ ;\C3;
  7
CONVERTER_11
 11
0.8583582663711168
 21
0.5130507641085534
 31
0.0
 73
     1
 44
0.60024009603842
  0
ENDBLK
  5
159
330
154
100
AcDbEntity
  8
0
100
AcDbBlockEnd
  0
BLOCK
  5
162
330
15B
100
AcDbEntity
  8
0
100
AcDbBlockBegin
  2
*D9
 70
     1
 10
0.0
 20
0.0
 30
0.0
  3
*D9
  1

  0
LINE
  5
15C
330
15B
100
AcDbEntity
  8
1
  6
Continuous
 62
     2
100
AcDbLine
 10
180.4771108838883
 20
309.2719503012
 30
0.0
 11
182.4771108838883
 21
309.2719503012
 31
0.0
  0
LINE
  5
15D
330
15B
100
AcDbEntity
  8
1
  6
Continuous
 62
     2
100
AcDbLine
 10
158.214292418
 20
309.2719503012
 30
0.0
 11
180.4771108838883
 21
309.2719503012
 31
0.0
  0
ARC
  5
15E
330
15B
100
AcDbEntity
  8
1
  6
Continuous
 62
     2
100
AcDbCircle
 10
156.214292418
 20
309.2719503012
 30
0.0
 40
24.26281846588825
100
AcDbArc
 50
343.1023124491572
 51
24.84250245489791
  0
SOLID
  5
15F
330
15B
100
AcDbEntity
  8
1
 62
     2
100
AcDbTrace
 10
180.3325399602484
 20
303.8387998015992
 30
0.0
 11
179.4214126967626
 21
303.9771245487049
 31
0.0
 12
180.4023167118653
 22
307.3683115045711
 32
0.0
 13
180.4023167118653
 23
307.3683115045711
 33
0.0
  0
SOLID
  5
160
330
15B
100
AcDbEntity
  8
1
 62
     2
100
AcDbTrace
 10
179.7653001305034
 20
312.7296442014531
 30
0.0
 11
180.6844715272838
 21
312.7960563183415
 31
0.0
 12
180.4771108838883
 22
309.2719503012
 32
0.0
 13
180.4771108838883
 23
309.2719503012
 33
0.0
  0
MTEXT
  5
161
330
15B
100
AcDbEntity
  8
1
 62
     3
100
AcDbMText
 10
180.2618328153037
 20
320.4051286260203
 30
0.0
 40
3.5
 41
0.0
 71
     7
 72
     1
  1
\C3;\C3;\C3;4.5%%d\C2;\H2.45;\S^ ;\C3;
  7
CONVERTER_11
 11
0.2953164021228533
 21
-0.9553995094394875
 31
0.0
 73
     1
 44
0.60024009603842
  0
ENDBLK
  5
163
330
15B
100
AcDbEntity
  8
0
100
AcDbBlockEnd
  0
ENDSEC
  0
SECTION
  2
ENTITIES
  0
INSERT
  5
6D
330
1F
100
AcDbEntity
  8
0
100
AcDbBlockReference
  2
Urheberrecht_DE-EN
 10
87.431087022839
 20
310.241549449423
 30
0.0
  0
LINE
  5
71
330
1F
100
AcDbEntity
  8
0
  6
Continuous
 62
     7
100
AcDbLine
 10
94.4329066265
 20
282.3259636761
 30
0.0
 11
94.4329066265
 21
290.7969503012
 31
0.0
  0
LINE
  5
72
330
1F
100
AcDbEntity
  8
0
  6
Continuous
 62
     7
100
AcDbLine
 10
94.4329066265
 20
300.7469503012
 30
0.0
 11
94.4329066265
 21
309.2179369258
 31
0.0
  0
LINE
  5
73
330
1F
100
AcDbEntity
  8
0
  6
Continuous
 62
     9
100
AcDbLine
 10
95.1928768326
 20
310.0169348085
 30
0.0
 11
95.1928768326
 21
301.8567825597
 31
0.0
  0
LINE
  5
74
330
1F
100
AcDbEntity
  8
0
  6
Continuous
 62
     9
100
AcDbLine
 10
95.1928768326
 20
289.6871180427
 30
0.0
 11
95.1928768326
 21
281.5269657939
 31
0.0
  0
LINE
  5
75
330
1F
100
AcDbEntity
  8
0
  6
Continuous
 62
     7
100
AcDbLine
 10
95.3829066265
 20
290.9362024592
 30
0.0
 11
95.3829066265
 21
291.7469503012
 31
0.0
  0
LINE
  5
76
330
1F
100
AcDbEntity
  8
0
  6
Continuous
 62
     7
100
AcDbLine
 10
95.3829066265
 20
299.7969503012
 30
0.0
 11
95.3829066265
 21
300.6076981432
 31
0.0
  0
LINE
  5
77
330
1F
100
AcDbEntity
  8
RUNDUNGEN
  6
Continuous
 62
     9
100
AcDbLine
 10
97.1329066265
 20
289.4629307932
 30
0.0
 11
97.1329066265
 21
291.7469503012
 31
0.0
  0
LINE
  5
78
330
1F
100
AcDbEntity
  8
RUNDUNGEN
  6
Continuous
 62
     9
100
AcDbLine
 10
97.1329066265
 20
299.7969503012
 30
0.0
 11
97.1329066265
 21
302.0809698092
 31
0.0
  0
LINE
  5
79
330
1F
100
AcDbEntity
  8
RUNDUNGEN
  6
Continuous
 62
     7
100
AcDbLine
 10
98.0329066265
 20
300.5872425103
 30
0.0
 11
98.0329066265
 21
290.9566580921
 31
0.0
  0
LINE
  5
7A
330
1F
100
AcDbEntity
  8
0
  6
Continuous
 62
     7
100
AcDbLine
 10
95.049224777
 20
289.8669503012
 30
0.0
 11
94.9943412554
 21
289.7704519964
 31
0.0
  0
LINE
  5
7B
330
1F
100
AcDbEntity
  8
0
  6
Continuous
 62
     7
100
AcDbLine
 10
94.9943412554
 20
301.773448606
 30
0.0
 11
95.049224777
 21
301.6769503012
 31
0.0
  0
LWPOLYLINE
  5
7C
330
1F
100
AcDbEntity
  8
BEZUGSACHSEN
  6
DOT_CENTER
 62
     7
100
AcDbPolyline
 90
        2
 70
     0
 43
0.25
 10
108.3329066265
 20
290.4719503012
 10
108.3329066265
 20
301.0719503012
  0
LINE
  5
7D
330
1F
100
AcDbEntity
  8
0
  6
Continuous
 62
     7
100
AcDbLine
 10
112.3329066265
 20
310.8756503012
 30
0.0
 11
112.3329066265
 21
280.6682503012
 31
0.0
  0
LINE
  5
7E
330
1F
100
AcDbEntity
  8
0
  6
Continuous
 62
     7
100
AcDbLine
 10
94.4329066265
 20
290.7969503012
 30
0.0
 11
95.3829066265
 21
291.7469503012
 31
0.0
  0
LINE
  5
7F
330
1F
100
AcDbEntity
  8
0
  6
Continuous
 62
     9
100
AcDbLine
 10
113.028450169
 20
280.8546206317
 30
0.0
 11
113.028450169
 21
310.6892799707
 31
0.0
  0
LINE
  5
80
330
1F
100
AcDbEntity
  8
0
  6
Continuous
 62
     9
100
AcDbLine
 10
113.1319777871
 20
280.8682503012
 30
0.0
 11
113.1319777871
 21
310.6756503012
 31
0.0
  0
LINE
  5
81
330
1F
100
AcDbEntity
  8
0
  6
Continuous
 62
     9
100
AcDbLine
 10
114.1787294632
 20
280.8682503012
 30
0.0
 11
114.1787294632
 21
310.6756503012
 31
0.0
  0
LINE
  5
82
330
1F
100
AcDbEntity
  8
0
  6
Continuous
 62
     7
100
AcDbLine
 10
114.3329066265
 20
315.7719503012
 30
0.0
 11
114.3329066265
 21
275.7719503012
 31
0.0
  0
LINE
  5
83
330
1F
100
AcDbEntity
  8
0
  6
Continuous
 62
     7
100
AcDbLine
 10
95.3829066265
 20
299.7969503012
 30
0.0
 11
94.4329066265
 21
300.7469503012
 31
0.0
  0
LWPOLYLINE
  5
84
330
1F
100
AcDbEntity
  8
BEZUGSACHSEN
  6
DOT_CENTER
 62
     7
100
AcDbPolyline
 90
        2
 70
     0
 43
0.25
 10
121.3329066265
 20
321.5368670322
 10
121.3329066265
 20
307.5368670322
  0
LINE
  5
85
330
1F
100
AcDbEntity
  8
FASEN
  6
Continuous
 62
     9
100
AcDbLine
 10
126.7692748682
 20
283.5219503012
 30
0.0
 11
126.7692748682
 21
283.9219503012
 31
0.0
  0
LINE
  5
86
330
1F
100
AcDbEntity
  8
FASEN
  6
Continuous
 62
     9
100
AcDbLine
 10
126.7974066265
 20
291.6574503012
 30
0.0
 11
126.7974066265
 21
291.2574503012
 31
0.0
  0
LINE
  5
87
330
1F
100
AcDbEntity
  8
FASEN
  6
Continuous
 62
     9
100
AcDbLine
 10
126.7974066265
 20
299.8864503012
 30
0.0
 11
126.7974066265
 21
300.2864503012
 31
0.0
  0
LINE
  5
88
330
1F
100
AcDbEntity
  8
0
  6
Continuous
 62
     7
100
AcDbLine
 10
131.3704066265
 20
314.0439530141
 30
0.0
 11
132.3680663254
 21
315.7719503012
 31
0.0
  0
LINE
  5
89
330
1F
100
AcDbEntity
  8
0
  6
Continuous
 62
     9
100
AcDbLine
 10
94.4329066265
 20
290.3958888687
 30
0.0
 11
95.3829066265
 21
290.9362024592
 31
0.0
  0
LINE
  5
8A
330
1F
100
AcDbEntity
  8
0
  6
Continuous
 62
     7
100
AcDbLine
 10
128.2977469276
 20
275.7719503012
 30
0.0
 11
114.3329066265
 21
275.7719503012
 31
0.0
  0
LINE
  5
8B
330
1F
100
AcDbEntity
  8
0
  6
Continuous
 62
     7
100
AcDbLine
 10
132.3680663254
 20
275.7719503012
 30
0.0
 11
134.2829066265
 21
275.7719503012
 31
0.0
  0
LINE
  5
8C
330
1F
100
AcDbEntity
  8
0
  6
Continuous
 62
     9
100
AcDbLine
 10
95.3829066265
 20
300.6076981432
 30
0.0
 11
94.4329066265
 21
301.1480117337
 31
0.0
  0
LINE
  5
8D
330
1F
100
AcDbEntity
  8
0
  6
Continuous
 62
     7
100
AcDbLine
 10
131.3704066265
 20
277.4999475884
 30
0.0
 11
132.3680663254
 21
275.7719503012
 31
0.0
  0
LINE
  5
8E
330
1F
100
AcDbEntity
  8
0
  6
Continuous
 62
     7
100
AcDbLine
 10
128.2977469276
 20
315.7719503012
 30
0.0
 11
128.2977469276
 21
300.2864503012
 31
0.0
  0
LINE
  5
8F
330
1F
100
AcDbEntity
  8
0
  6
Continuous
 62
     7
100
AcDbLine
 10
128.2977469276
 20
291.2574503012
 30
0.0
 11
128.2977469276
 21
283.9219503012
 31
0.0
  0
LINE
  5
90
330
1F
100
AcDbEntity
  8
0
  6
Continuous
 62
     7
100
AcDbLine
 10
128.2977469276
 20
279.6605413001
 30
0.0
 11
128.2977469276
 21
275.7719503012
 31
0.0
  0
LINE
  5
91
330
1F
100
AcDbEntity
  8
0
  6
Continuous
 62
     7
100
AcDbLine
 10
129.2954066265
 20
314.0438915952
 30
0.0
 11
129.2954066265
 21
300.0774739908
 31
0.0
  0
LINE
  5
92
330
1F
100
AcDbEntity
  8
0
  6
Continuous
 62
     7
100
AcDbLine
 10
129.2954066265
 20
277.500008463
 30
0.0
 11
129.2954066265
 21
282.7251834603
 31
0.0
  0
LINE
  5
93
330
1F
100
AcDbEntity
  8
0
  6
Continuous
 62
     7
100
AcDbLine
 10
129.2954066265
 20
283.9219503012
 30
0.0
 11
129.2954066265
 21
291.4664266116
 31
0.0
  0
LINE
  5
94
330
1F
100
AcDbEntity
  8
0
  6
Continuous
 62
     9
100
AcDbLine
 10
129.5454066265
 20
291.7370246513
 30
0.0
 11
129.5454066265
 21
283.9219503012
 31
0.0
  0
LINE
  5
95
330
1F
100
AcDbEntity
  8
0
  6
Continuous
 62
     9
100
AcDbLine
 10
129.5454066265
 20
278.3969503012
 30
0.0
 11
129.5454066265
 21
283.0649394411
 31
0.0
  0
LINE
  5
96
330
1F
100
AcDbEntity
  8
0
  6
Continuous
 62
     9
100
AcDbLine
 10
129.5454066265
 20
299.8068759511
 30
0.0
 11
129.5454066265
 21
313.1469503012
 31
0.0
  0
LINE
  5
97
330
1F
100
AcDbEntity
  8
RUNDUNGEN
  6
Continuous
 62
     7
100
AcDbLine
 10
193.4113657222
 20
285.1994234591
 30
0.0
 11
156.214292418
 21
282.2719503012
 31
0.0
  0
LINE
  5
98
330
1F
100
AcDbEntity
  8
0
  6
Continuous
 62
     7
100
AcDbLine
 10
156.214292418
 20
282.2719503012
 30
0.0
 11
193.4113657222
 21
285.1994234591
 31
0.0
  0
LINE
  5
99
330
1F
100
AcDbEntity
  8
0
  6
Continuous
 62
     7
100
AcDbLine
 10
129.5454066265
 20
278.3969503012
 30
0.0
 11
131.1204066265
 21
278.3969503012
 31
0.0
  0
LINE
  5
9A
330
1F
100
AcDbEntity
  8
0
  6
Continuous
 62
     7
100
AcDbLine
 10
122.6762229097
 20
279.6605413001
 30
0.0
 11
128.2977469276
 21
279.6605413001
 31
0.0
  0
LINE
  5
9B
330
1F
100
AcDbEntity
  8
0
  6
Continuous
 62
     7
100
AcDbLine
 10
132.3680663254
 20
279.6605413001
 30
0.0
 11
134.2829066265
 21
279.6605413001
 31
0.0
  0
LINE
  5
9C
330
1F
100
AcDbEntity
  8
0
  6
Continuous
 62
     7
100
AcDbLine
 10
114.1787294632
 20
280.8682503012
 30
0.0
 11
113.1319777871
 21
280.8682503012
 31
0.0
  0
LINE
  5
9D
330
1F
100
AcDbEntity
  8
0
  6
Continuous
 62
     7
100
AcDbLine
 10
112.3329066265
 20
280.6682503012
 30
0.0
 11
95.1928768326
 21
281.5269657939
 31
0.0
  0
LINE
  5
9E
330
1F
100
AcDbEntity
  8
0
  6
Continuous
 62
     9
100
AcDbLine
 10
131.1204066265
 20
291.7370246513
 30
0.0
 11
131.1204066265
 21
283.9219503012
 31
0.0
  0
LINE
  5
9F
330
1F
100
AcDbEntity
  8
0
  6
Continuous
 62
     9
100
AcDbLine
 10
131.1204066265
 20
278.3969503012
 30
0.0
 11
131.1204066265
 21
283.0649394411
 31
0.0
  0
LINE
  5
A0
330
1F
100
AcDbEntity
  8
0
  6
Continuous
 62
     9
100
AcDbLine
 10
131.1204066265
 20
299.8068759511
 30
0.0
 11
131.1204066265
 21
313.1469503012
 31
0.0
  0
LINE
  5
A1
330
1F
100
AcDbEntity
  8
0
  6
Continuous
 62
     7
100
AcDbLine
 10
131.3704066265
 20
277.500008463
 30
0.0
 11
131.3704066265
 21
282.7251834603
 31
0.0
  0
LINE
  5
A2
330
1F
100
AcDbEntity
  8
0
  6
Continuous
 62
     7
100
AcDbLine
 10
131.3704066265
 20
283.9219503012
 30
0.0
 11
131.3704066265
 21
291.4664266116
 31
0.0
  0
LINE
  5
A3
330
1F
100
AcDbEntity
  8
0
  6
Continuous
 62
     7
100
AcDbLine
 10
131.3704066265
 20
300.0774739908
 30
0.0
 11
131.3704066265
 21
314.0438915952
 31
0.0
  0
LINE
  5
A4
330
1F
100
AcDbEntity
  8
0
  6
Continuous
 62
     7
100
AcDbLine
 10
132.3680663254
 20
291.2574503012
 30
0.0
 11
132.3680663254
 21
283.9219503012
 31
0.0
  0
LINE
  5
A5
330
1F
100
AcDbEntity
  8
0
  6
Continuous
 62
     7
100
AcDbLine
 10
132.3680663254
 20
275.7719503012
 30
0.0
 11
132.3680663254
 21
279.6605413001
 31
0.0
  0
LINE
  5
A6
330
1F
100
AcDbEntity
  8
0
  6
Continuous
 62
     7
100
AcDbLine
 10
132.3680663254
 20
300.2864503012
 30
0.0
 11
132.3680663254
 21
315.7719503012
 31
0.0
  0
LINE
  5
A7
330
1F
100
AcDbEntity
  8
RUNDUNGEN
  6
Continuous
 62
     7
100
AcDbLine
 10
156.214292418
 20
282.2719503012
 30
0.0
 11
136.2829066265
 21
282.2719503012
 31
0.0
  0
LINE
  5
A8
330
1F
100
AcDbEntity
  8
0
  6
Continuous
 62
     7
100
AcDbLine
 10
136.2829066265
 20
282.2719503012
 30
0.0
 11
156.214292418
 21
282.2719503012
 31
0.0
  0
LINE
  5
A9
330
1F
100
AcDbEntity
  8
0
  6
Continuous
 62
     7
100
AcDbLine
 10
129.5454066265
 20
283.0649394411
 30
0.0
 11
131.1204066265
 21
283.0649394411
 31
0.0
  0
LINE
  5
AA
330
1F
100
AcDbEntity
  8
FASEN
  6
Continuous
 62
     7
100
AcDbLine
 10
126.7692748682
 20
283.5219503012
 30
0.0
 11
134.2829066265
 21
283.5219503012
 31
0.0
  0
LINE
  5
AB
330
1F
100
AcDbEntity
  8
0
  6
Continuous
 62
     7
100
AcDbLine
 10
126.7692748682
 20
283.9219503012
 30
0.0
 11
134.2829066265
 21
283.9219503012
 31
0.0
  0
LINE
  5
AC
330
1F
100
AcDbEntity
  8
0
  6
Continuous
 62
     7
100
AcDbLine
 10
134.2829066265
 20
315.7719079624
 30
0.0
 11
134.2829066265
 21
300.2864503012
 31
0.0
  0
LINE
  5
AD
330
1F
100
AcDbEntity
  8
0
  6
Continuous
 62
     7
100
AcDbLine
 10
134.2829066265
 20
291.2574503012
 30
0.0
 11
134.2829066265
 21
283.9219503012
 31
0.0
  0
LINE
  5
AE
330
1F
100
AcDbEntity
  8
0
  6
Continuous
 62
     7
100
AcDbLine
 10
134.2829066265
 20
279.6605413001
 30
0.0
 11
134.2829066265
 21
275.7720116505
 31
0.0
  0
LINE
  5
AF
330
1F
100
AcDbEntity
  8
FASEN
  6
Continuous
 62
     7
100
AcDbLine
 10
134.2829066265
 20
279.6605413001
 30
0.0
 11
134.2829066265
 21
283.9219503012
 31
0.0
  0
LINE
  5
B0
330
1F
100
AcDbEntity
  8
FASEN
  6
Continuous
 62
     7
100
AcDbLine
 10
134.2829066265
 20
291.2574503012
 30
0.0
 11
134.2829066265
 21
300.2864503012
 31
0.0
  0
LINE
  5
B1
330
1F
100
AcDbEntity
  8
RUNDUNGEN
  6
Continuous
 62
     9
100
AcDbLine
 10
136.2829066265
 20
309.2719503012
 30
0.0
 11
136.2829066265
 21
282.2719503012
 31
0.0
  0
LINE
  5
B2
330
1F
100
AcDbEntity
  8
0
  6
Continuous
 62
     7
100
AcDbLine
 10
113.028450169
 20
280.8546206317
 30
0.0
 11
113.1319777871
 21
280.8682503012
 31
0.0
  0
LINE
  5
B3
330
1F
100
AcDbEntity
  8
0
  6
Continuous
 62
     7
100
AcDbLine
 10
128.2977469276
 20
275.7719503012
 30
0.0
 11
129.2954066265
 21
277.4999475884
 31
0.0
  0
LINE
  5
B4
330
1F
100
AcDbEntity
  8
0
  6
Continuous
 62
     7
100
AcDbLine
 10
113.028450169
 20
280.8546206317
 30
0.0
 11
112.3329066265
 21
280.6682503012
 31
0.0
  0
LINE
  5
B5
330
1F
100
AcDbEntity
  8
RUNDUNGEN
  6
Continuous
 62
     9
100
AcDbLine
 10
97.7256273229
 20
289.8669503012
 30
0.0
 11
97.1329066265
 21
289.8669503012
 31
0.0
  0
LINE
  5
B6
330
1F
100
AcDbEntity
  8
0
  6
Continuous
 62
     9
100
AcDbLine
 10
97.1329066265
 20
289.8669503012
 30
0.0
 11
95.049224777
 21
289.8669503012
 31
0.0
  0
LINE
  5
B7
330
1F
100
AcDbEntity
  8
0
  6
Continuous
 62
     7
100
AcDbLine
 10
126.7974066265
 20
291.2574503012
 30
0.0
 11
129.2954066265
 21
291.2574503012
 31
0.0
  0
LINE
  5
B8
330
1F
100
AcDbEntity
  8
0
  6
Continuous
 62
     7
100
AcDbLine
 10
131.3704066265
 20
291.2574503012
 30
0.0
 11
134.2829066265
 21
291.2574503012
 31
0.0
  0
LINE
  5
B9
330
1F
100
AcDbEntity
  8
0
  6
Continuous
 62
     7
100
AcDbLine
 10
134.2829066265
 20
291.6574503012
 30
0.0
 11
131.2151580992
 21
291.6574503012
 31
0.0
  0
LINE
  5
BA
330
1F
100
AcDbEntity
  8
0
  6
Continuous
 62
     7
100
AcDbLine
 10
129.4506551538
 20
291.6574503012
 30
0.0
 11
126.7974066265
 21
291.6574503012
 31
0.0
  0
LINE
  5
BB
330
1F
100
AcDbEntity
  8
0
  6
Continuous
 62
     7
100
AcDbLine
 10
129.5454066265
 20
291.7370246513
 30
0.0
 11
131.1204066265
 21
291.7370246513
 31
0.0
  0
LINE
  5
BC
330
1F
100
AcDbEntity
  8
0
  6
Continuous
 62
     7
100
AcDbLine
 10
97.1329066265
 20
291.7469503012
 30
0.0
 11
95.3829066265
 21
291.7469503012
 31
0.0
  0
LINE
  5
BD
330
1F
100
AcDbEntity
  8
0
  6
Continuous
 62
     7
100
AcDbLine
 10
128.2977469276
 20
315.7719503012
 30
0.0
 11
129.2954066265
 21
314.0439530141
 31
0.0
  0
LWPOLYLINE
  5
BE
330
1F
100
AcDbEntity
  8
BOHRUNGEN
  6
DASHED
 62
     8
100
AcDbPolyline
 90
        2
 70
     0
 43
0.35
 10
194.3329066265
 20
291.7719503012
 10
158.3329066265
 20
291.7719503012
  0
LWPOLYLINE
  5
BF
330
1F
100
AcDbEntity
  8
TEIL_STARTBEZUEGE
  6
DOT_CENTER
 62
     7
100
AcDbPolyline
 90
        2
 70
     0
 43
0.25
 10
197.3329066265
 20
295.7719503012
 10
91.4329066265
 20
295.7719503012
  0
LWPOLYLINE
  5
C0
330
1F
100
AcDbEntity
  8
BOHRUNGEN
  6
DASHED
 62
     8
100
AcDbPolyline
 90
        2
 70
     0
 43
0.35
 10
194.3329066265
 20
299.7719503012
 10
158.3329066265
 20
299.7719503012
  0
LINE
  5
C1
330
1F
100
AcDbEntity
  8
0
  6
Continuous
 62
     7
100
AcDbLine
 10
97.1329066265
 20
299.7969503012
 30
0.0
 11
95.3829066265
 21
299.7969503012
 31
0.0
  0
LINE
  5
C2
330
1F
100
AcDbEntity
  8
0
  6
Continuous
 62
     7
100
AcDbLine
 10
131.1204066265
 20
299.8068759511
 30
0.0
 11
129.5454066265
 21
299.8068759511
 31
0.0
  0
LINE
  5
C3
330
1F
100
AcDbEntity
  8
0
  6
Continuous
 62
     7
100
AcDbLine
 10
126.7974066265
 20
299.8864503012
 30
0.0
 11
129.4506551538
 21
299.8864503012
 31
0.0
  0
LINE
  5
C4
330
1F
100
AcDbEntity
  8
0
  6
Continuous
 62
     7
100
AcDbLine
 10
131.2151580992
 20
299.8864503012
 30
0.0
 11
134.2829066265
 21
299.8864503012
 31
0.0
  0
LINE
  5
C5
330
1F
100
AcDbEntity
  8
0
  6
Continuous
 62
     7
100
AcDbLine
 10
126.7974066265
 20
300.2864503012
 30
0.0
 11
129.2954066265
 21
300.2864503012
 31
0.0
  0
LINE
  5
C6
330
1F
100
AcDbEntity
  8
0
  6
Continuous
 62
     7
100
AcDbLine
 10
131.3704066265
 20
300.2864503012
 30
0.0
 11
134.2829066265
 21
300.2864503012
 31
0.0
  0
LINE
  5
C7
330
1F
100
AcDbEntity
  8
0
  6
Continuous
 62
     9
100
AcDbLine
 10
97.1329066265
 20
301.6769503012
 30
0.0
 11
95.049224777
 21
301.6769503012
 31
0.0
  0
LINE
  5
C8
330
1F
100
AcDbEntity
  8
RUNDUNGEN
  6
Continuous
 62
     9
100
AcDbLine
 10
97.1329066265
 20
301.6769503012
 30
0.0
 11
97.7256273229
 21
301.6769503012
 31
0.0
  0
LINE
  5
C9
330
1F
100
AcDbEntity
  8
0
  6
Continuous
 62
     7
100
AcDbLine
 10
113.028450169
 20
310.6892799707
 30
0.0
 11
112.3329066265
 21
310.8756503012
 31
0.0
  0
LINE
  5
CA
330
1F
100
AcDbEntity
  8
0
  6
Continuous
 62
     7
100
AcDbLine
 10
113.028450169
 20
310.6892799707
 30
0.0
 11
113.1319777871
 21
310.6756503012
 31
0.0
  0
LINE
  5
CB
330
1F
100
AcDbEntity
  8
0
  6
Continuous
 62
     7
100
AcDbLine
 10
156.214292418
 20
309.2719503012
 30
0.0
 11
156.214292418
 21
282.2719503012
 31
0.0
  0
LWPOLYLINE
  5
CC
330
1F
100
AcDbEntity
  8
BOHRUNGEN
  6
DASHED
 62
     8
100
AcDbPolyline
 90
        2
 70
     0
 43
0.35
 10
158.3329066265
 20
291.7719503012
 10
158.3329066265
 20
299.7719503012
  0
LINE
  5
CD
330
1F
100
AcDbEntity
  8
RUNDUNGEN
  6
Continuous
 62
     7
100
AcDbLine
 10
156.214292418
 20
309.2719503012
 30
0.0
 11
136.2829066265
 21
309.2719503012
 31
0.0
  0
LINE
  5
CE
330
1F
100
AcDbEntity
  8
0
  6
Continuous
 62
     7
100
AcDbLine
 10
136.2829066265
 20
309.2719503012
 30
0.0
 11
156.214292418
 21
309.2719503012
 31
0.0
  0
LINE
  5
CF
330
1F
100
AcDbEntity
  8
RUNDUNGEN
  6
Continuous
 62
     7
100
AcDbLine
 10
193.4113657222
 20
306.3444771433
 30
0.0
 11
156.214292418
 21
309.2719503012
 31
0.0
  0
LINE
  5
D0
330
1F
100
AcDbEntity
  8
0
  6
Continuous
 62
     7
100
AcDbLine
 10
156.214292418
 20
309.2719503012
 30
0.0
 11
193.4113657222
 21
306.3444771433
 31
0.0
  0
LINE
  5
D1
330
1F
100
AcDbEntity
  8
0
  6
Continuous
 62
     7
100
AcDbLine
 10
112.3329066265
 20
310.8756503012
 30
0.0
 11
95.1928768326
 21
310.0169348085
 31
0.0
  0
LINE
  5
D2
330
1F
100
AcDbEntity
  8
0
  6
Continuous
 62
     7
100
AcDbLine
 10
114.1787294632
 20
310.6756503012
 30
0.0
 11
113.1319777871
 21
310.6756503012
 31
0.0
  0
LINE
  5
D3
330
1F
100
AcDbEntity
  8
0
  6
Continuous
 62
     7
100
AcDbLine
 10
129.5454066265
 20
313.1469503012
 30
0.0
 11
131.1204066265
 21
313.1469503012
 31
0.0
  0
LINE
  5
D4
330
1F
100
AcDbEntity
  8
BEZUGSACHSEN
  6
Continuous
 62
     7
100
AcDbLine
 10
128.2977469276
 20
315.7719503012
 30
0.0
 11
126.3329066265
 21
315.7719503012
 31
0.0
  0
LINE
  5
D5
330
1F
100
AcDbEntity
  8
BEZUGSACHSEN
  6
Continuous
 62
     7
100
AcDbLine
 10
116.3329066265
 20
315.7719503012
 30
0.0
 11
114.3329066265
 21
315.7719503012
 31
0.0
  0
LINE
  5
D6
330
1F
100
AcDbEntity
  8
0
  6
Continuous
 62
     7
100
AcDbLine
 10
114.3329066265
 20
315.7719503012
 30
0.0
 11
116.3329066265
 21
315.7719503012
 31
0.0
  0
LINE
  5
D7
330
1F
100
AcDbEntity
  8
0
  6
Continuous
 62
     7
100
AcDbLine
 10
126.3329066265
 20
315.7719503012
 30
0.0
 11
128.2977469276
 21
315.7719503012
 31
0.0
  0
LINE
  5
D8
330
1F
100
AcDbEntity
  8
0
  6
Continuous
 62
     7
100
AcDbLine
 10
132.3680663254
 20
315.7719503012
 30
0.0
 11
134.2829066265
 21
315.7719503012
 31
0.0
  0
LINE
  5
D9
330
1F
100
AcDbEntity
  8
RUNDUNGEN
  6
Continuous
 62
     9
100
AcDbLine
 10
193.4113657222
 20
285.1994234591
 30
0.0
 11
193.4113657222
 21
306.3444771433
 31
0.0
  0
LINE
  5
DA
330
1F
100
AcDbEntity
  8
RUNDUNGEN
  6
Continuous
 62
     7
100
AcDbLine
 10
194.3329066265
 20
305.3475598095
 30
0.0
 11
194.3329066265
 21
286.1963407929
 31
0.0
  0
LWPOLYLINE
  5
DB
330
1F
100
AcDbEntity
  8
1
  6
Continuous
 62
     7
100
AcDbPolyline
 90
        2
 70
     0
 43
0.25
 10
194.3329066265
 20
305.3475598095
 10
194.3329066265
 20
306.2719503012528
  0
LWPOLYLINE
  5
DC
330
1F
100
AcDbEntity
  8
1
  6
Continuous
 62
     7
100
AcDbPolyline
 90
        2
 70
     0
 43
0.25
 10
193.4113657222
 20
306.3444771433
 10
194.3329066265094
 20
306.2719503012528
  0
LWPOLYLINE
  5
DD
330
1F
100
AcDbEntity
  8
1
  6
Continuous
 62
     7
100
AcDbPolyline
 90
        2
 70
     0
 43
0.25
 10
193.4113657222
 20
285.1994234591
 10
194.3329066265
 20
285.2719503011559
  0
LWPOLYLINE
  5
DE
330
1F
100
AcDbEntity
  8
1
  6
Continuous
 62
     7
100
AcDbPolyline
 90
        2
 70
     0
 43
0.25
 10
194.3329066265
 20
286.1963407929
 10
194.3329066265
 20
285.2719503011559
  0
ARC
  5
DF
330
1F
100
AcDbEntity
  8
FASEN
  6
Continuous
 62
     7
100
AcDbCircle
 10
128.6678685665
 20
287.4708861567
 30
0.0
 40
9.843846019500145
100
AcDbArc
 50
229.7068180621992
 51
232.5066621080743
  0
ARC
  5
E0
330
1F
100
AcDbEntity
  8
FASEN
  6
Continuous
 62
     7
100
AcDbCircle
 10
126.7692748682
 20
279.4219503012
 30
0.0
 40
4.5
100
AcDbArc
 50
90.0
 51
173.1003589696013
  0
ARC
  5
E1
330
1F
100
AcDbEntity
  8
FASEN
  6
Continuous
 62
     7
100
AcDbCircle
 10
126.7692748682
 20
279.4219503012
 30
0.0
 40
4.099981300799982
100
AcDbArc
 50
90.0
 51
176.6639061997959
  0
ARC
  5
E2
330
1F
100
AcDbEntity
  8
RUNDUNGEN
  6
Continuous
 62
     7
100
AcDbCircle
 10
97.1329066265
 20
292.6469503012
 30
0.0
 40
0.8999999999999773
100
AcDbArc
 50
270.0
 51
352.9880362154778
  0
ARC
  5
E3
330
1F
100
AcDbEntity
  8
0
  6
Continuous
 62
     7
100
AcDbCircle
 10
95.2329066265
 20
282.325963676
 30
0.0
 40
0.7999999999999972
100
AcDbArc
 50
179.9999999928389
 51
267.1318795122004
  0
ARC
  5
E4
330
1F
100
AcDbEntity
  8
0
  6
Continuous
 62
     7
100
AcDbCircle
 10
114.1787294632
 20
280.4682503012
 30
0.0
 40
0.3999999999998977
100
AcDbArc
 50
67.30156454046462
 51
90.0
  0
ARC
  5
E5
330
1F
100
AcDbEntity
  8
0
  6
Continuous
 62
     7
100
AcDbCircle
 10
129.5454066265
 20
278.1469503012
 30
0.0
 40
0.25
100
AcDbArc
 50
90.0
 51
180.0
  0
ARC
  5
E6
330
1F
100
AcDbEntity
  8
0
  6
Continuous
 62
     7
100
AcDbCircle
 10
25.239247726
 20
327.6592493303
 30
0.0
 40
113.6878631616171
100
AcDbArc
 50
335.0266103235494
 51
336.2454364029998
  0
ARC
  5
E7
330
1F
100
AcDbEntity
  8
0
  6
Continuous
 62
     7
100
AcDbCircle
 10
126.7974066265
 20
295.7719503012
 30
0.0
 40
4.514499999999998
100
AcDbArc
 50
90.0
 51
270.0
  0
ARC
  5
E8
330
1F
100
AcDbEntity
  8
FASEN
  6
Continuous
 62
     7
100
AcDbCircle
 10
126.7974066265
 20
295.7719503012
 30
0.0
 40
4.114498623500026
100
AcDbArc
 50
90.0
 51
270.0
  0
ARC
  5
E9
330
1F
100
AcDbEntity
  8
RUNDUNGEN
  6
Continuous
 62
     7
100
AcDbCircle
 10
97.1329066265
 20
298.8969503012
 30
0.0
 40
0.8999999999999906
100
AcDbArc
 50
7.01196301020744
 51
90.0
  0
ARC
  5
EA
330
1F
100
AcDbEntity
  8
0
  6
Continuous
 62
     7
100
AcDbCircle
 10
95.2329066265
 20
309.2179369264
 30
0.0
 40
0.8000000000000006
100
AcDbArc
 50
92.86812048779962
 51
180.0000000429706
  0
ARC
  5
EB
330
1F
100
AcDbEntity
  8
0
  6
Continuous
 62
     7
100
AcDbCircle
 10
113.1319777871
 20
311.0756503012
 30
0.0
 40
0.4000000000002017
100
AcDbArc
 50
254.9999999912593
 51
270.0
  0
ARC
  5
EC
330
1F
100
AcDbEntity
  8
0
  6
Continuous
 62
     7
100
AcDbCircle
 10
114.1787294632
 20
311.0756503012
 30
0.0
 40
0.4000000000000341
100
AcDbArc
 50
270.0
 51
292.6984354595353
  0
ARC
  5
ED
330
1F
100
AcDbEntity
  8
0
  6
Continuous
 62
     7
100
AcDbCircle
 10
129.5454066265
 20
313.3969503012
 30
0.0
 40
0.25
100
AcDbArc
 50
180.0
 51
270.0
  0
ARC
  5
EE
330
1F
100
AcDbEntity
  8
RUNDUNGEN
  6
Continuous
 62
     7
100
AcDbCircle
 10
163.0619243138
 20
-276.9494908323
 30
0.0
 40
582.7717475341003
100
AcDbArc
 50
96.4957829749
 51
96.68778831039629
  0
ARC
  5
EF
330
1F
100
AcDbEntity
  8
RUNDUNGEN
  6
Continuous
 62
     7
100
AcDbCircle
 10
136.2829066265
 20
280.2719503012
 30
0.0
 40
2.0
100
AcDbArc
 50
90.0
 51
180.0
  0
ARC
  5
F0
330
1F
100
AcDbEntity
  8
RUNDUNGEN
  6
Continuous
 62
     7
100
AcDbCircle
 10
193.3329066265
 20
286.1963407929
 30
0.0
 40
1.000000000064494
100
AcDbArc
 50
274.4999999981087
 51
0.0
  0
ARC
  5
F1
330
1F
100
AcDbEntity
  8
0
  6
Continuous
 62
     7
100
AcDbCircle
 10
131.1204066265
 20
278.1469503012
 30
0.0
 40
0.25
100
AcDbArc
 50
0.0
 51
90.0
  0
ARC
  5
F2
330
1F
100
AcDbEntity
  8
RUNDUNGEN
  6
Continuous
 62
     7
100
AcDbCircle
 10
163.0619243138
 20
868.4933914347
 30
0.0
 40
582.7717475340926
100
AcDbArc
 50
263.3122116896037
 51
263.5042170251
  0
ARC
  5
F3
330
1F
100
AcDbEntity
  8
0
  6
Continuous
 62
     7
100
AcDbCircle
 10
235.426565527
 20
327.6592493303
 30
0.0
 40
113.6878631616
100
AcDbArc
 50
203.7545635969997
 51
204.9733896764506
  0
ARC
  5
F4
330
1F
100
AcDbEntity
  8
RUNDUNGEN
  6
Continuous
 62
     7
100
AcDbCircle
 10
136.2829066265
 20
311.2719503012
 30
0.0
 40
2.0
100
AcDbArc
 50
180.0
 51
270.0
  0
ARC
  5
F5
330
1F
100
AcDbEntity
  8
RUNDUNGEN
  6
Continuous
 62
     7
100
AcDbCircle
 10
193.3329066265
 20
305.3475598095
 30
0.0
 40
1.0
100
AcDbArc
 50
0.0
 51
85.50000000189128
  0
ARC
  5
F6
330
1F
100
AcDbEntity
  8
0
  6
Continuous
 62
     7
100
AcDbCircle
 10
131.1204066265
 20
313.3969503012
 30
0.0
 40
0.25
100
AcDbArc
 50
270.0
 51
0.0
  0
CIRCLE
  5
F7
330
1F
100
AcDbEntity
  8
FASEN
  6
Continuous
 62
     7
100
AcDbCircle
 10
108.3329066265
 20
295.7719503012
 30
0.0
 40
2.299999999999997
  0
SPLINE
  5
F8
330
1F
100
AcDbEntity
  8
BEZUGSACHSEN
  6
Continuous
 62
     7
100
AcDbSpline
210
0.0
220
0.0
230
1.0
 70
     8
 71
     3
 72
    15
 73
    11
 74
     9
 42
0.0000000001
 43
0.0000000001
 44
0.00000001
 40
0.0
 40
0.0
 40
0.0
 40
0.0
 40
0.9606477050112235
 40
1.921519378143719
 40
2.738310931242418
 40
3.55500052339465
 40
4.107190715981282
 40
4.659355623397046
 40
4.855983959589916
 40
5.052604368540294
 40
5.052604368540294
 40
5.052604368540294
 40
5.052604368540294
 10
121.3329066265
 20
315.1368670322
 30
0.0
 10
121.0126597100349
 20
315.1414817824761
 30
0.0
 10
120.3720912138333
 20
315.1507123589245
 30
0.0
 10
119.4614508441134
 20
315.2208974628045
 30
0.0
 10
118.6025387993757
 20
315.3228274814671
 30
0.0
 10
117.8829281781249
 20
315.4380455757494
 30
0.0
 10
117.2541208812733
 20
315.5593745115935
 30
0.0
 10
116.8304877451698
 20
315.6523231813752
 30
0.0
 10
116.5237758345905
 20
315.7247261970086
 30
0.0
 10
116.396528840834
 20
315.7562091446841
 30
0.0
 10
116.3329066265
 20
315.7719503012
 30
0.0
 11
121.3329066265
 21
315.1368670322
 31
0.0
 11
120.3725549495025
 21
315.1607138271913
 31
0.0
 11
119.4143078096094
 21
315.2316841809685
 31
0.0
 11
118.6032523646263
 21
315.3283149544137
 31
0.0
 11
117.7967771515977
 21
315.4570768303716
 31
0.0
 11
117.2545820843323
 21
315.5616641996949
 31
0.0
 11
116.7152064546588
 21
315.6798167074795
 31
0.0
 11
116.5238560417866
 21
315.7250684708442
 31
0.0
 11
116.3329066265
 21
315.7719503012
 31
0.0
  0
SPLINE
  5
F9
330
1F
100
AcDbEntity
  8
BEZUGSACHSEN
  6
Continuous
 62
     7
100
AcDbSpline
210
0.0
220
0.0
230
1.0
 70
     8
 71
     3
 72
    15
 73
    11
 74
     9
 42
0.0000000001
 43
0.0000000001
 44
0.00000001
 40
0.0
 40
0.0
 40
0.0
 40
0.0
 40
0.1966144691072456
 40
0.3932368665465564
 40
0.9453924840205854
 40
1.497573379421421
 40
2.314268097576692
 40
3.131064801073526
 40
4.09194656119853
 40
5.052604325773317
 40
5.052604325773317
 40
5.052604325773317
 40
5.052604325773317
 10
126.3329066265
 20
315.7719503012
 30
0.0
 10
126.2692863315863
 20
315.7562096308571
 30
0.0
 10
126.1420431763179
 20
315.7247276554407
 30
0.0
 10
125.835338160893
 20
315.6523261460266
 30
0.0
 10
125.4117130972041
 20
315.5593788458756
 30
0.0
 10
124.7829103672719
 20
315.4380499332261
 30
0.0
 10
124.063299524536
 20
315.3228311087933
 30
0.0
 10
123.204380817825
 20
315.2208996663652
 30
0.0
 10
122.2937321105249
 20
315.1507128483491
 30
0.0
 10
121.6531568970365
 20
315.1414819455649
 30
0.0
 10
121.3329066265
 20
315.1368670322
 30
0.0
 11
126.3329066265
 21
315.7719503012
 31
0.0
 11
126.141962976143
 21
315.7250699017706
 31
0.0
 11
125.9506183582165
 21
315.6798194391723
 31
0.0
 11
125.4112519044956
 21
315.5616684573371
 31
0.0
 11
124.869066097451
 21
315.4570821681543
 31
0.0
 11
124.0625859563308
 21
315.3283186459847
 31
0.0
 11
123.2515254787595
 21
315.2316865779893
 31
0.0
 11
122.2932683481983
 21
315.1607145506155
 31
0.0
 11
121.3329066265
 21
315.1368670322
 31
0.0
  0
SPLINE
  5
FA
330
1F
100
AcDbEntity
  8
RUNDUNGEN
  6
Continuous
 62
     7
100
AcDbSpline
210
0.0
220
0.0
230
1.0
 70
     8
 71
     3
 72
    11
 73
     7
 74
     5
 42
0.0000000001
 43
0.0000000001
 44
0.00000001
 40
0.0
 40
0.0
 40
0.0
 40
0.0
 40
0.2840740418611735
 40
0.5685904708716543
 40
0.8564162982423833
 40
1.143349105236475
 40
1.143349105236475
 40
1.143349105236475
 40
1.143349105236475
 10
97.7256273229
 20
301.6769503012
 30
0.0
 10
97.76908595168177
 20
301.5927067856136
 30
0.0
 10
97.85607088716046
 20
301.4240885624162
 30
0.0
 10
97.9519067802395
 20
301.1545105215145
 30
0.0
 10
98.0191548460945
 20
300.8747259736339
 30
0.0
 10
98.02832745028505
 20
300.6829710195315
 30
0.0
 10
98.0329066265
 20
300.5872425103
 30
0.0
 11
97.7256273229
 21
301.6769503012
 31
0.0
 11
97.85017285979387
 21
301.4216338886857
 31
0.0
 11
97.9467782690468
 21
301.1540203739299
 31
0.0
 11
98.0102446926751
 21
300.8732789983305
 31
0.0
 11
98.0329066265
 21
300.5872425103
 31
0.0
  0
SPLINE
  5
FB
330
1F
100
AcDbEntity
  8
0
  6
Continuous
 62
     7
100
AcDbSpline
210
0.0
220
0.0
230
1.0
 70
     8
 71
     3
 72
    23
 73
    19
 74
    17
 42
0.0000000001
 43
0.0000000001
 44
0.00000001
 40
0.0
 40
0.0
 40
0.0
 40
0.0
 40
0.054801592048648
 40
0.1096656056858752
 40
0.1578548538913115
 40
0.205994621053523
 40
0.2484971175900924
 40
0.2907975467522723
 40
0.332075343106997
 40
0.3735180890816916
 40
0.4187669595531586
 40
0.4640702100936694
 40
0.5148888565375184
 40
0.5656834469422297
 40
0.6214947220489486
 40
0.6773144168373694
 40
0.7370934750060527
 40
0.7968569073943795
 40
0.7968569073943795
 40
0.7968569073943795
 40
0.7968569073943795
 10
94.4329066265
 20
301.6338965928
 30
0.0
 10
94.43329809446892
 20
301.6521718199452
 30
0.0
 10
94.43408147630716
 20
301.688743090578
 30
0.0
 10
94.44157464619475
 20
301.7409724423821
 30
0.0
 10
94.45440563138837
 20
301.7898423330714
 30
0.0
 10
94.47342656762895
 20
301.8323535243109
 30
0.0
 10
94.49935737485127
 20
301.8686389793465
 30
0.0
 10
94.53095424860996
 20
301.8970257786912
 30
0.0
 10
94.56855818442229
 20
301.9159636364943
 30
0.0
 10
94.6102073432944
 20
301.9264695372665
 30
0.0
 10
94.65445603693183
 20
301.9282554613197
 30
0.0
 10
94.70134670323903
 20
301.9222922641487
 30
0.0
 10
94.74888515917283
 20
301.910054753128
 30
0.0
 10
94.79809055607119
 20
301.8916170279953
 30
0.0
 10
94.84709279406682
 20
301.8684570886356
 30
0.0
 10
94.89687222366663
 20
301.8403430439764
 30
0.0
 10
94.9461348279016
 20
301.8088012292192
 30
0.0
 10
94.9782738465651
 20
301.7852317867941
 30
0.0
 10
94.9943412554
 20
301.773448606
 30
0.0
 11
94.4329066265
 21
301.6338965928
 31
0.0
 11
94.43518534855336
 21
301.6886507882271
 31
0.0
 11
94.44298378600365
 21
301.7429577340602
 31
0.0
 11
94.45566682782407
 21
301.7894479921019
 31
0.0
 11
94.47568294748783
 21
301.8332291768282
 31
0.0
 11
94.5005802311909
 21
301.8676760558748
 31
0.0
 11
94.53228467703944
 21
301.8956788132523
 31
0.0
 11
94.56901693954343
 21
301.9145095690321
 31
0.0
 11
94.60916212653957
 21
301.9247986484355
 31
0.0
 11
94.65435765882884
 21
301.9269950409398
 31
0.0
 11
94.69934413890557
 21
301.9216470394587
 31
0.0
 11
94.74861312895624
 21
301.9091930663668
 31
0.0
 11
94.79625932744518
 21
301.8915882322598
 31
0.0
 11
94.84677552954672
 21
301.8678603635339
 31
0.0
 11
94.8954665268061
 21
301.8405652153907
 31
0.0
 11
94.94577843274493
 21
301.8082813507469
 31
0.0
 11
94.9943412554
 21
301.773448606
 31
0.0
  0
SPLINE
  5
FC
330
1F
100
AcDbEntity
  8
RUNDUNGEN
  6
Continuous
 62
     7
100
AcDbSpline
210
0.0
220
0.0
230
1.0
 70
     8
 71
     3
 72
    17
 73
    13
 74
    11
 42
0.0000000001
 43
0.0000000001
 44
0.00000001
 40
0.0
 40
0.0
 40
0.0
 40
0.0
 40
0.049886657279915
 40
0.0998344446266675
 40
0.1492040595507897
 40
0.1985685183145463
 40
0.2944064656110139
 40
0.3905515039937829
 40
0.4839722008368726
 40
0.5773295178073654
 40
0.6695303450677319
 40
0.7616858721874731
 40
0.7616858721874731
 40
0.7616858721874731
 40
0.7616858721874731
 10
97.1329066265
 20
302.0809698092
 30
0.0
 10
97.14949918188518
 20
302.082307939833
 30
0.0
 10
97.18270462482596
 20
302.0849858408163
 30
0.0
 10
97.23250378099313
 20
302.0818705191681
 30
0.0
 10
97.28144808007946
 20
302.0735835402708
 30
0.0
 10
97.34392899131831
 20
302.0557303365072
 30
0.0
 10
97.41742113444073
 20
302.021740610669
 30
0.0
 10
97.49603357517242
 20
301.9675113657606
 30
0.0
 10
97.56549746146652
 20
301.9033239605844
 30
0.0
 10
97.62594504880339
 20
301.8324624829391
 30
0.0
 10
97.67968544297841
 20
301.7569035344854
 30
0.0
 10
97.71031587176785
 20
301.703597012793
 30
0.0
 10
97.7256273229
 20
301.6769503012
 30
0.0
 11
97.1329066265
 21
302.0809698092
 31
0.0
 11
97.18271321789499
 21
302.083795057539
 31
0.0
 11
97.23258177584435
 21
302.0809828717544
 31
0.0
 11
97.28125060044955
 21
302.0726940606633
 31
0.0
 11
97.32872664726395
 21
302.059170940908
 31
0.0
 11
97.41593710149529
 21
302.0194311772604
 31
0.0
 11
97.49532493651654
 21
301.9651961327203
 31
0.0
 11
97.56416507764158
 21
301.9020418647052
 31
0.0
 11
97.62510760961673
 21
301.831319899034
 31
0.0
 11
97.678432493255
 21
301.7561038812422
 31
0.0
 11
97.7256273229
 21
301.6769503012
 31
0.0
  0
SPLINE
  5
FD
330
1F
100
AcDbEntity
  8
RUNDUNGEN
  6
Continuous
 62
     7
100
AcDbSpline
210
0.0
220
0.0
230
1.0
 70
     8
 71
     3
 72
    11
 73
     7
 74
     5
 42
0.0000000001
 43
0.0000000001
 44
0.00000001
 40
0.0
 40
0.0
 40
0.0
 40
0.0
 40
0.2869328097640227
 40
0.5747586398636638
 40
0.859275066194024
 40
1.143349105407488
 40
1.143349105407488
 40
1.143349105407488
 40
1.143349105407488
 10
98.0329066265
 20
290.9566580921
 30
0.0
 10
98.02832745029326
 20
290.8609295819433
 30
0.0
 10
98.01915484612005
 20
290.6691746260041
 30
0.0
 10
97.95190678004589
 20
290.3893900771595
 30
0.0
 10
97.85607088630637
 20
290.1198120374153
 30
0.0
 10
97.76908595139867
 20
289.9511938159334
 30
0.0
 10
97.7256273229
 20
289.8669503012
 30
0.0
 11
98.0329066265
 21
290.9566580921
 31
0.0
 11
98.01024469258697
 21
290.6706216012979
 31
0.0
 11
97.94677826817693
 21
290.3898802230773
 31
0.0
 11
97.85017285909535
 21
290.1222667111091
 31
0.0
 11
97.7256273229
 21
289.8669503012
 31
0.0
  0
SPLINE
  5
FE
330
1F
100
AcDbEntity
  8
RUNDUNGEN
  6
Continuous
 62
     7
100
AcDbSpline
210
0.0
220
0.0
230
1.0
 70
     8
 71
     3
 72
    17
 73
    13
 74
    11
 42
0.0000000001
 43
0.0000000001
 44
0.00000001
 40
0.0
 40
0.0
 40
0.0
 40
0.0
 40
0.0921565574570144
 40
0.1843584530125292
 40
0.2777172409374074
 40
0.3711392571945125
 40
0.4672851119929278
 40
0.5631242132365373
 40
0.6124865681951825
 40
0.6618539013829986
 40
0.7118003919760726
 40
0.7616858911796729
 40
0.7616858911796729
 40
0.7616858911796729
 40
0.7616858911796729
 10
97.7256273229
 20
289.8669503012
 30
0.0
 10
97.71031568987314
 20
289.8403032971678
 30
0.0
 10
97.67968489098237
 20
289.7869961796239
 30
0.0
 10
97.62594364267287
 20
289.711436371022
 30
0.0
 10
97.56549499117656
 20
289.6405741016
 30
0.0
 10
97.49602968256201
 20
289.5763864028286
 30
0.0
 10
97.41741534591002
 20
289.5221579201116
 30
0.0
 10
97.34392301488737
 20
289.4881689876878
 30
0.0
 10
97.28144344017637
 20
289.4703151659343
 30
0.0
 10
97.23250103167882
 20
289.4620280326805
 30
0.0
 10
97.18270335010004
 20
289.458914230329
 30
0.0
 10
97.14949877236137
 20
289.4615924843274
 30
0.0
 10
97.1329066265
 20
289.4629307932
 30
0.0
 11
97.7256273229
 21
289.8669503012
 31
0.0
 11
97.67843191198452
 21
289.7877958681539
 31
0.0
 11
97.62510626151268
 21
289.7125790844831
 31
0.0
 11
97.5641625018785
 21
289.6418562349615
 31
0.0
 11
97.49532082987099
 21
289.578701683924
 31
0.0
 11
97.41593151685436
 21
289.5244673555547
 31
0.0
 11
97.32871975967863
 21
289.4847276683704
 31
0.0
 11
97.28124587695633
 21
289.4712046307556
 31
0.0
 11
97.23257933623796
 21
289.4629159999528
 31
0.0
 11
97.1827120186177
 21
289.4601048514465
 31
0.0
 11
97.1329066265
 21
289.4629307932
 31
0.0
  0
SPLINE
  5
FF
330
1F
100
AcDbEntity
  8
FASEN
  6
Continuous
 62
     7
100
AcDbSpline
210
0.0
220
0.0
230
1.0
 70
     8
 71
     3
 72
    39
 73
    35
 74
    33
 42
0.0000000001
 43
0.0000000001
 44
0.00000001
 40
0.0
 40
0.0
 40
0.0
 40
0.0
 40
0.2848465272396604
 40
0.5699950255418235
 40
0.8548279991973514
 40
1.139573863753517
 40
1.424121623324868
 40
1.70869333591036
 40
1.993142884862619
 40
2.277585056629284
 40
2.562155108717398
 40
2.846728268153606
 40
3.131563712675036
 40
3.416399690439555
 40
3.701411923462529
 40
3.986425214755466
 40
4.27129428276085
 40
4.556162677347843
 40
4.840487507677887
 40
5.124810921918391
 40
5.408342462668617
 40
5.691871377352267
 40
5.974681937658756
 40
6.257491624562784
 40
6.539993734473461
 40
6.822493529557846
 40
7.105252300256941
 40
7.388018966525202
 40
7.671533427499736
 40
7.955027376676814
 40
8.239336777497154
 40
8.523729022504455
 40
8.808808363523767
 40
9.09359628813117
 40
9.09359628813117
 40
9.09359628813117
 40
9.09359628813117
 10
105.4336582149
 20
295.7719503012
 30
0.0
 10
105.4363547954395
 20
295.8669382514249
 30
0.0
 10
105.4417508152133
 20
296.0570148503544
 30
0.0
 10
105.485466052811
 20
296.3392965943714
 30
0.0
 10
105.5547014789659
 20
296.6160317692842
 30
0.0
 10
105.6513202080831
 20
296.8843820451815
 30
0.0
 10
105.773881092417
 20
297.1417647556573
 30
0.0
 10
105.9212070807674
 20
297.3857234901234
 30
0.0
 10
106.0919515722482
 20
297.6138540721315
 30
0.0
 10
106.2843452139757
 20
297.8240499554798
 30
0.0
 10
106.496624621431
 20
298.0142012547008
 30
0.0
 10
106.7266491978285
 20
298.1826699332195
 30
0.0
 10
106.9722052051434
 20
298.3277376450561
 30
0.0
 10
107.2308695142453
 20
298.4482214386766
 30
0.0
 10
107.5001150746039
 20
298.5428942657019
 30
0.0
 10
107.7772758934973
 20
298.6110304542501
 30
0.0
 10
108.0596915013799
 20
298.651940733771
 30
0.0
 10
108.3445086337101
 20
298.6653742387699
 30
0.0
 10
108.6291039656247
 20
298.6511443620407
 30
0.0
 10
108.9105514222491
 20
298.6095244457285
 30
0.0
 10
109.1863542238708
 20
298.5407728280057
 30
0.0
 10
109.4536955387617
 20
298.4456998043952
 30
0.0
 10
109.7102092115609
 20
298.3249733605959
 30
0.0
 10
109.9533876226079
 20
298.1798987719054
 30
0.0
 10
110.1809813392877
 20
298.0115972077808
 30
0.0
 10
110.3909187169463
 20
297.82175034826
 30
0.0
 10
110.5810943997301
 20
297.6119895223824
 30
0.0
 10
110.7499132886098
 20
297.3842699889619
 30
0.0
 10
110.8955501743931
 20
297.140777610054
 30
0.0
 10
111.0167802912431
 20
296.8837122445109
 30
0.0
 10
111.112358783518
 20
296.6156816835442
 30
0.0
 10
111.1808768900862
 20
296.3390981199665
 30
0.0
 10
111.2241030213348
 20
296.0569478886475
 30
0.0
 10
111.2294719476915
 20
295.8669171046252
 30
0.0
 10
111.2321550381
 20
295.7719503012
 30
0.0
 11
105.4336582149
 21
295.7719503012
 31
0.0
 11
105.44767993664
 21
296.0564515057667
 31
0.0
 11
105.4897423426924
 21
296.338480617883
 31
0.0
 11
105.5592832216628
 21
296.614694102408
 31
0.0
 11
105.6556746299567
 21
296.8826286164016
 31
0.0
 11
105.7780124459715
 21
297.1395349928304
 31
0.0
 11
105.9251362783243
 21
297.3831240680322
 31
0.0
 11
106.0955608637205
 21
297.6108673590238
 31
0.0
 11
106.2876242890314
 21
297.8206743887849
 31
0.0
 11
106.4995641354144
 21
298.0105733515534
 31
0.0
 11
106.7291524133731
 21
298.1787134886281
 31
0.0
 11
106.9743682823246
 21
298.3236286640587
 31
0.0
 11
107.232569474798
 21
298.4438936981891
 31
0.0
 11
107.5014324305959
 21
298.5384700375787
 31
0.0
 11
107.7782067442615
 21
298.6065035257192
 31
0.0
 11
108.0601301700851
 21
298.6473638717551
 31
0.0
 11
108.3446832507017
 21
298.6607633697359
 31
0.0
 11
108.6286536639159
 21
298.6465713451728
 31
0.0
 11
108.9099130630705
 21
298.6049425778052
 31
0.0
 11
109.1850253700622
 21
298.5363615808607
 31
0.0
 11
109.4521495116462
 21
298.4413177044419
 31
0.0
 11
109.7080378334203
 21
298.3208893863415
 31
0.0
 11
109.9508899273741
 21
298.1759611990589
 31
0.0
 11
110.1780423857436
 21
298.0080052442353
 31
0.0
 11
110.3875536121688
 21
297.818502789833
 31
0.0
 11
110.577498524603
 21
297.6090428828159
 31
0.0
 11
110.7458884448123
 21
297.3818825378514
 31
0.0
 11
110.8914454204347
 21
297.1385851551501
 31
0.0
 11
111.0123828614694
 21
296.8821812656008
 31
0.0
 11
111.1078149877541
 21
296.6143668808721
 31
0.0
 11
111.1766104575183
 21
296.33842099422
 31
0.0
 11
111.2182450761219
 21
296.0563983192278
 31
0.0
 11
111.2321550381
 21
295.7719503012
 31
0.0
  0
SPLINE
  5
100
330
1F
100
AcDbEntity
  8
FASEN
  6
Continuous
 62
     7
100
AcDbSpline
210
0.0
220
0.0
230
1.0
 70
     8
 71
     3
 72
    39
 73
    35
 74
    33
 42
0.0000000001
 43
0.0000000001
 44
0.00000001
 40
0.0
 40
0.0
 40
0.0
 40
0.0
 40
0.2847861066331518
 40
0.569866887076656
 40
0.8542588888002225
 40
1.138565866084999
 40
1.422059508549621
 40
1.705574316226795
 40
1.988341250745533
 40
2.271100210878064
 40
2.553600174639018
 40
2.836102358133768
 40
3.11891237347078
 40
3.4017234179931
 40
3.68525228575515
 40
3.968783633783386
 40
4.253107110637631
 40
4.53743208662524
 40
4.822300428844605
 40
5.107169447772095
 40
5.392182981113595
 40
5.677195370982044
 40
5.962031114352103
 40
6.246866460486835
 40
6.531439742246013
 40
6.816009783053522
 40
7.100451807494482
 40
7.384901200499877
 40
7.669472595261791
 40
7.954020693387463
 40
8.238768893891384
 40
8.523601787856352
 40
8.808748199050473
 40
9.093596299810555
 40
9.093596299810555
 40
9.093596299810555
 40
9.093596299810555
 10
111.2321550381
 20
295.7719503012
 30
0.0
 10
111.2294834857887
 20
295.6769834153112
 30
0.0
 10
111.2241376168582
 20
295.4869513794208
 30
0.0
 10
111.1808803803023
 20
295.2048047681874
 30
0.0
 10
111.1123571633105
 20
294.9282240401398
 30
0.0
 10
111.016780162583
 20
294.6601939066687
 30
0.0
 10
110.8955525616973
 20
294.4031282972791
 30
0.0
 10
110.7499176475104
 20
294.1596345815223
 30
0.0
 10
110.5810996847411
 20
293.9319139924874
 30
0.0
 10
110.3909245997316
 20
293.7221523522547
 30
0.0
 10
110.1809880985736
 20
293.5323043196714
 30
0.0
 10
109.9533947114431
 20
293.3640019082343
 30
0.0
 10
109.7102155692131
 20
293.2189278855906
 30
0.0
 10
109.4537013036
 20
293.0982021906344
 30
0.0
 10
109.1863601984904
 20
293.0031284643894
 30
0.0
 10
108.9105576718792
 20
292.9343758879576
 30
0.0
 10
108.6291101587071
 20
292.8927561047406
 30
0.0
 10
108.3445147576716
 20
292.8785266939108
 30
0.0
 10
108.0596976277378
 20
292.8919602377359
 30
0.0
 10
107.7772819327535
 20
292.9328701205318
 30
0.0
 10
107.5001207874527
 20
293.001005435141
 30
0.0
 10
107.230874942246
 20
293.0956777154544
 30
0.0
 10
106.9722109072298
 20
293.2161620204423
 30
0.0
 10
106.7266552039253
 20
293.3612300328531
 30
0.0
 10
106.4966300014286
 20
293.52969780022
 30
0.0
 10
106.2843498166303
 20
293.7198482687205
 30
0.0
 10
106.0919564296546
 20
293.9300442783775
 30
0.0
 10
105.9212118227075
 20
294.1581744352853
 30
0.0
 10
105.7738835237319
 20
294.4021316376827
 30
0.0
 10
105.6513194264646
 20
294.6595137692811
 30
0.0
 10
105.5546990868868
 20
294.9278642933
 30
0.0
 10
105.4854696058467
 20
295.2046023083681
 30
0.0
 10
105.4417892645324
 20
295.4868877224906
 30
0.0
 10
105.4363676189594
 20
295.6769626006158
 30
0.0
 10
105.4336582149
 20
295.7719503012
 30
0.0
 11
111.2321550381
 21
295.7719503012
 31
0.0
 11
111.2182688164565
 21
295.4875029433642
 31
0.0
 11
111.1766181346653
 21
295.2054811851884
 31
0.0
 11
111.1078142394734
 21
294.9295376499302
 31
0.0
 11
111.0123831945454
 21
294.6617254526786
 31
0.0
 11
110.8914478851948
 21
294.4053208968101
 31
0.0
 11
110.7458926301638
 21
294.1620220807318
 31
0.0
 11
110.5775037322703
 21
293.9348606440324
 31
0.0
 11
110.3875595291315
 21
293.7253998380825
 31
0.0
 11
110.1780490358075
 21
293.5358963217244
 31
0.0
 11
109.950896925141
 21
293.3679397728819
 31
0.0
 11
109.7080442531588
 21
293.2230119132896
 31
0.0
 11
109.4521552194341
 21
293.1025839708375
 31
0.0
 11
109.1850312871121
 21
293.0075396462553
 31
0.0
 11
108.9099193514911
 21
292.9389579563262
 31
0.0
 11
108.628659890114
 21
292.8973291817064
 31
0.0
 11
108.3446893143411
 21
292.8831374916876
 31
0.0
 11
108.0601362878252
 21
292.8965370252421
 31
0.0
 11
107.7782128504045
 21
292.937396949099
 31
0.0
 11
107.5014381137947
 21
293.0054297306266
 31
0.0
 11
107.2325748573903
 21
293.1000056881113
 31
0.0
 11
106.9743740270753
 21
293.2202709446313
 31
0.0
 11
106.7291583365885
 21
293.3651862286656
 31
0.0
 11
106.4995694540452
 21
293.533325747232
 31
0.0
 11
106.2876290201612
 21
293.723224037404
 31
0.0
 11
106.0955656467857
 21
293.933030914974
 31
0.0
 11
105.9251406380131
 21
294.1607736943678
 31
0.0
 11
105.7780148911573
 21
294.4043612419331
 31
0.0
 11
105.6556743852111
 21
294.6612667123921
 31
0.0
 11
105.5592818252729
 21
294.9292032945879
 31
0.0
 11
105.4897505579533
 21
295.2054191166354
 31
0.0
 11
105.4477062710965
 21
295.4874488203185
 31
0.0
 11
105.4336582149
 21
295.7719503012
 31
0.0
  0
SPLINE
  5
101
330
1F
100
AcDbEntity
  8
0
  6
Continuous
 62
     7
100
AcDbSpline
210
0.0
220
0.0
230
1.0
 70
     8
 71
     3
 72
    23
 73
    19
 74
    17
 42
0.0000000001
 43
0.0000000001
 44
0.00000001
 40
0.0
 40
0.0
 40
0.0
 40
0.0
 40
0.0597635021357875
 40
0.119542631101403
 40
0.1753624599519507
 40
0.2311738662390391
 40
0.2819685060705681
 40
0.3327872069805739
 40
0.3780904632360427
 40
0.4233393317194453
 40
0.4647820467593103
 40
0.5060598178639201
 40
0.5483601944839521
 40
0.5908626368123403
 40
0.6390023298399046
 40
0.6871915007903071
 40
0.7420554294560925
 40
0.796856938520857
 40
0.796856938520857
 40
0.796856938520857
 40
0.796856938520857
 10
94.9943412554
 20
289.7704519964
 30
0.0
 10
94.97827382743114
 20
289.7586688023554
 30
0.0
 10
94.94613477021753
 20
289.7350993332223
 30
0.0
 10
94.89687208747335
 20
289.7035574714478
 30
0.0
 10
94.84709256241123
 20
289.6754433678065
 30
0.0
 10
94.79809022147862
 20
289.652283398073
 30
0.0
 10
94.74888473044699
 20
289.633845697896
 30
0.0
 10
94.70134622336428
 20
289.6216082397223
 30
0.0
 10
94.65445553237244
 20
289.6156450858267
 30
0.0
 10
94.61020684689149
 20
289.6174310765134
 30
0.0
 10
94.56855773478566
 20
289.6279370948286
 30
0.0
 10
94.5309538931398
 20
289.6468750563829
 30
0.0
 10
94.49935712924797
 20
289.6752619078881
 30
0.0
 10
94.47342643114155
 20
289.711547363167
 30
0.0
 10
94.45440556100858
 20
289.7540585049304
 30
0.0
 10
94.44157460887908
 20
289.8029283224872
 30
0.0
 10
94.4340814690672
 20
289.8551575956334
 30
0.0
 10
94.43329809206102
 20
289.8917288101711
 30
0.0
 10
94.4329066265
 20
289.9100040096
 30
0.0
 11
94.9943412554
 21
289.7704519964
 31
0.0
 11
94.94577837488362
 21
289.7356192126542
 31
0.0
 11
94.89546640880397
 21
289.7033353106427
 31
0.0
 11
94.84677529456826
 21
289.6760400970075
 31
0.0
 11
94.79625896459149
 21
289.652312191971
 31
0.0
 11
94.74861270217195
 21
289.6347073882782
 31
0.0
 11
94.69934364418168
 21
289.6222534617114
 31
0.0
 11
94.6543571523928
 21
289.6169055103393
 31
0.0
 11
94.60916162578177
 21
289.6191019787272
 31
0.0
 11
94.56901649706745
 21
289.6293911609292
 31
0.0
 11
94.53228431495168
 21
289.6482220181688
 31
0.0
 11
94.50057998247863
 21
289.6762248245395
 31
0.0
 11
94.47568279704775
 21
289.7106717077294
 31
0.0
 11
94.45566675060618
 21
289.7544528444168
 31
0.0
 11
94.44298374677702
 21
289.8009430327446
 31
0.0
 11
94.43518533738524
 21
289.8552498967638
 31
0.0
 11
94.4329066265
 21
289.9100040096
 31
0.0
  0
SPLINE
  5
102
330
1F
100
AcDbEntity
  8
0
  6
Continuous
 62
     7
100
AcDbSpline
210
0.0
220
0.0
230
1.0
 70
     8
 71
     3
 72
    11
 73
     7
 74
     5
 42
0.0000000001
 43
0.0000000001
 44
0.00000001
 40
0.0
 40
0.0
 40
0.0
 40
0.0
 40
0.0543309617980037
 40
0.1088117187036873
 40
0.1632583665355091
 40
0.2176288252758423
 40
0.2176288252758423
 40
0.2176288252758423
 40
0.2176288252758423
 10
95.1928768326
 20
289.6871180427
 30
0.0
 10
95.17497085271674
 20
289.6900627042904
 30
0.0
 10
95.13910952463246
 20
289.6959601461551
 30
0.0
 10
95.08776610015569
 20
289.7147691599822
 30
0.0
 10
95.03900459439912
 20
289.7392908765341
 30
0.0
 10
95.0092220842524
 20
289.760069805951
 30
0.0
 10
94.9943412554
 20
289.7704519964
 30
0.0
 11
95.1928768326
 21
289.6871180427
 31
0.0
 11
95.13956799678745
 21
289.6976071529676
 31
0.0
 11
95.0881882810481
 21
289.7157255878768
 31
0.0
 11
95.03966049000054
 21
289.7404134585053
 31
0.0
 11
94.9943412554
 21
289.7704519964
 31
0.0
  0
SPLINE
  5
103
330
1F
100
AcDbEntity
  8
0
  6
Continuous
 62
     7
100
AcDbSpline
210
0.0
220
0.0
230
1.0
 70
     8
 71
     3
 72
    11
 73
     7
 74
     5
 42
0.0000000001
 43
0.0000000001
 44
0.00000001
 40
0.0
 40
0.0
 40
0.0
 40
0.0
 40
0.0543555269324622
 40
0.1087869225817945
 40
0.163283035377679
 40
0.2176296539683159
 40
0.2176296539683159
 40
0.2176296539683159
 40
0.2176296539683159
 10
94.9943412554
 20
301.773448606
 30
0.0
 10
95.00921762441891
 20
301.783828432491
 30
0.0
 10
95.03899112669345
 20
301.8046025734959
 30
0.0
 10
95.08774562057727
 20
301.8291270990844
 30
0.0
 10
95.13909405277411
 20
301.8479385663193
 30
0.0
 10
95.174965662402
 20
301.8538372625029
 30
0.0
 10
95.1928768326
 20
301.8567825597
 30
0.0
 11
94.9943412554
 21
301.773448606
 31
0.0
 11
95.03964668310749
 21
301.803480947373
 31
0.0
 11
95.0881588591515
 21
301.8281658741059
 31
0.0
 11
95.13955255163953
 21
301.8462908481006
 31
0.0
 11
95.1928768326
 21
301.8567825597
 31
0.0
  0
SPLINE
  5
104
330
1F
100
AcDbEntity
  8
0
  6
Continuous
 62
     7
100
AcDbSpline
210
0.0
220
0.0
230
1.0
 70
     8
 71
     3
 72
    13
 73
     9
 74
     7
 42
0.0000000001
 43
0.0000000001
 44
0.00000001
 40
0.0
 40
0.0
 40
0.0
 40
0.0
 40
0.016115923299119
 40
0.0323921465693296
 40
0.0565136430127602
 40
0.0807357154165638
 40
0.1049176589959054
 40
0.1290332869465529
 40
0.1290332869465529
 40
0.1290332869465529
 40
0.1290332869465529
 10
129.5454066265
 20
299.8068759511
 30
0.0
 10
129.5400262299581
 20
299.8073588514786
 30
0.0
 10
129.5292119197785
 20
299.8083294554925
 30
0.0
 10
129.5116566809398
 20
299.8158231068194
 30
0.0
 10
129.4940369378183
 20
299.8285063556226
 30
0.0
 10
129.4776250076827
 20
299.8463859479468
 30
0.0
 10
129.4631016931381
 20
299.8657525581614
 30
0.0
 10
129.4548002007542
 20
299.8795573718153
 30
0.0
 10
129.4506551538
 20
299.8864503012
 30
0.0
 11
129.5454066265
 21
299.8068759511
 31
0.0
 11
129.5294516067553
 21
299.8091475867945
 31
0.0
 11
129.5143427050058
 21
299.8152003986921
 31
0.0
 11
129.4946225282561
 21
299.8290914468753
 31
0.0
 11
129.4779313718402
 21
299.8466446257622
 31
0.0
 11
129.463432087295
 21
299.8659975878857
 31
0.0
 11
129.4506551538
 21
299.8864503012
 31
0.0
  0
SPLINE
  5
105
330
1F
100
AcDbEntity
  8
0
  6
Continuous
 62
     7
100
AcDbSpline
210
0.0
220
0.0
230
1.0
 70
     8
 71
     3
 72
    17
 73
    13
 74
    11
 42
0.0000000001
 43
0.0000000001
 44
0.00000001
 40
0.0
 40
0.0
 40
0.0
 40
0.0
 40
0.0161052166175763
 40
0.0322114216922169
 40
0.0442975721454332
 40
0.0563844320901028
 40
0.068488375036348
 40
0.0805914434459694
 40
0.0927083311166514
 40
0.1048350425382192
 40
0.1170106597622866
 40
0.1291252293667534
 40
0.1291252293667534
 40
0.1291252293667534
 40
0.1291252293667534
 10
131.2151580992
 20
299.8864503012
 30
0.0
 10
131.2124186193276
 20
299.8818323999168
 30
0.0
 10
131.2069394914474
 20
299.8725963139269
 30
0.0
 10
131.1986280819048
 20
299.8603786673821
 30
0.0
 10
131.1905153858311
 20
299.8496743568984
 30
0.0
 10
131.1826697952785
 20
299.8404629527205
 30
0.0
 10
131.1742270125228
 20
299.8317814880784
 30
0.0
 10
131.1650547757342
 20
299.8238525908549
 30
0.0
 10
131.1550781763135
 20
299.8169165594001
 30
0.0
 10
131.1442078902385
 20
299.8114454049192
 30
0.0
 10
131.1325564692367
 20
299.8076682781382
 30
0.0
 10
131.124449782668
 20
299.8071396172247
 30
0.0
 10
131.1204066265
 20
299.8068759511
 30
0.0
 11
131.2151580992
 21
299.8864503012
 31
0.0
 11
131.2067985191156
 21
299.8726845675432
 31
0.0
 11
131.1977469730441
 21
299.8593624297409
 31
0.0
 11
131.1904257445184
 21
299.8497460559101
 31
0.0
 11
131.1825747281103
 21
299.840556185145
 31
0.0
 11
131.1741064332658
 21
299.8319078663908
 31
0.0
 11
131.1649253761055
 21
299.8240216471225
 31
0.0
 11
131.1549355769496
 21
299.8171643240553
 31
0.0
 11
131.1440925765151
 21
299.8117341793537
 31
0.0
 11
131.132452727701
 21
299.8081621247111
 31
0.0
 11
131.1204066265
 21
299.8068759511
 31
0.0
  0
SPLINE
  5
106
330
1F
100
AcDbEntity
  8
0
  6
Continuous
 62
     7
100
AcDbSpline
210
0.0
220
0.0
230
1.0
 70
     8
 71
     3
 72
    13
 73
     9
 74
     7
 42
0.0000000001
 43
0.0000000001
 44
0.00000001
 40
0.0
 40
0.0
 40
0.0
 40
0.0
 40
0.0161119176374005
 40
0.0323835566179932
 40
0.0565085409747203
 40
0.0807351379435818
 40
0.1049182738131238
 40
0.1290347651198556
 40
0.1290347651198556
 40
0.1290347651198556
 40
0.1290347651198556
 10
131.1204066265
 20
291.7370246513
 30
0.0
 10
131.1257856886537
 20
291.736542345917
 30
0.0
 10
131.1365971369074
 20
291.7355729539411
 30
0.0
 10
131.1541525612159
 20
291.7280843453893
 30
0.0
 10
131.1717737445485
 20
291.7154002391821
 30
0.0
 10
131.1881862075388
 20
291.6975170721496
 30
0.0
 10
131.2027108471706
 20
291.6781487560041
 30
0.0
 10
131.2110128335928
 20
291.6643434365379
 30
0.0
 10
131.2151580992
 20
291.6574503012
 30
0.0
 11
131.1204066265
 21
291.7370246513
 31
0.0
 11
131.1363579359406
 21
291.7347553745241
 31
0.0
 11
131.1514637630007
 21
291.7287072158007
 31
0.0
 11
131.1711874503556
 21
291.7148150947481
 31
0.0
 11
131.1878807762453
 21
291.6972577352817
 31
0.0
 11
131.202380533691
 21
291.6779036376665
 31
0.0
 11
131.2151580992
 21
291.6574503012
 31
0.0
  0
SPLINE
  5
107
330
1F
100
AcDbEntity
  8
0
  6
Continuous
 62
     7
100
AcDbSpline
210
0.0
220
0.0
230
1.0
 70
     8
 71
     3
 72
    17
 73
    13
 74
    11
 42
0.0000000001
 43
0.0000000001
 44
0.00000001
 40
0.0
 40
0.0
 40
0.0
 40
0.0
 40
0.0161034839116568
 40
0.0322076501043578
 40
0.0442920545227348
 40
0.0563777824735846
 40
0.0684771684362869
 40
0.0805744754927041
 40
0.0926944166156136
 40
0.1048260721729067
 40
0.1170058952733774
 40
0.1291230711849306
 40
0.1291230711849306
 40
0.1291230711849306
 40
0.1291230711849306
 10
129.4506551538
 20
291.6574503012
 30
0.0
 10
129.4533940806978
 20
291.6620678543328
 30
0.0
 10
129.4588720505376
 20
291.6713031562372
 30
0.0
 10
129.4671819623157
 20
291.6835196739115
 30
0.0
 10
129.4752965639187
 20
291.6942205271133
 30
0.0
 10
129.4831412027332
 20
291.7034293109914
 30
0.0
 10
129.491576262282
 20
291.7121127602154
 30
0.0
 10
129.5007433775131
 20
291.7200442902693
 30
0.0
 10
129.5107248665321
 20
291.7269753360793
 30
0.0
 10
129.5216013155798
 20
291.7324419842085
 30
0.0
 10
129.5332536788362
 20
291.7362280726042
 30
0.0
 10
129.5413626132827
 20
291.7367595818811
 30
0.0
 10
129.5454066265
 20
291.7370246513
 30
0.0
 11
129.4506551538
 21
291.6574503012
 31
0.0
 11
129.4590131061588
 21
291.671214996128
 31
0.0
 11
129.4680637167763
 21
291.6845353045408
 31
0.0
 11
129.4753857410955
 21
291.6941488777587
 31
0.0
 11
129.483236063627
 21
291.7033378524705
 31
0.0
 11
129.4916973781731
 21
291.7119866267667
 31
0.0
 11
129.5008716995124
 21
291.7198718449616
 31
0.0
 11
129.5108666774119
 21
291.7267270174328
 31
0.0
 11
129.5217160160172
 21
291.7321555456301
 31
0.0
 11
129.5333584279154
 21
291.7357335808384
 31
0.0
 11
129.5454066265
 21
291.7370246513
 31
0.0
  0
SPLINE
  5
108
330
1F
100
AcDbEntity
  8
0
  6
Continuous
 62
     7
100
AcDbSpline
210
0.0
220
0.0
230
1.0
 70
     8
 71
     3
 72
    15
 73
    11
 74
     9
 42
0.0000000001
 43
0.0000000001
 44
0.00000001
 40
0.0
 40
0.0
 40
0.0
 40
0.0
 40
0.0373413956065265
 40
0.074747727034179
 40
0.108566083827941
 40
0.1423474447971586
 40
0.1732055488126335
 40
0.2040723661542104
 40
0.2333590818935218
 40
0.2625565342665307
 40
0.2625565342665307
 40
0.2625565342665307
 40
0.2625565342665307
 10
129.4506551538
 20
299.8864503012
 30
0.0
 10
129.4390106079996
 20
299.8909013786839
 30
0.0
 10
129.4157012668038
 20
299.8998112739721
 30
0.0
 10
129.3845185133407
 20
299.9185474373241
 30
0.0
 10
129.3571678624824
 20
299.9405432463755
 30
0.0
 10
129.3349094918665
 20
299.9648532096155
 30
0.0
 10
129.3172294940838
 20
299.9914897222073
 30
0.0
 10
129.3047467698338
 20
300.0192631788921
 30
0.0
 10
129.2969046693596
 20
300.048215459258
 30
0.0
 10
129.2959054657642
 20
300.0677310757344
 30
0.0
 10
129.2954066265
 20
300.0774739908
 30
0.0
 11
129.4506551538
 21
299.8864503012
 31
0.0
 11
129.4161807229183
 21
299.9007992886633
 31
0.0
 11
129.3840135992594
 21
299.9198914280509
 31
0.0
 11
129.3577401742168
 21
299.9411843468917
 31
0.0
 11
129.3349716095549
 21
299.9661397633812
 31
0.0
 11
129.3179710329441
 21
299.9918924909713
 31
0.0
 11
129.3053122960347
 21
300.0200441657467
 31
0.0
 11
129.2979334414489
 21
300.0483860821215
 31
0.0
 11
129.2954066265
 21
300.0774739908
 31
0.0
  0
SPLINE
  5
109
330
1F
100
AcDbEntity
  8
0
  6
Continuous
 62
     7
100
AcDbSpline
210
0.0
220
0.0
230
1.0
 70
     8
 71
     3
 72
    15
 73
    11
 74
     9
 42
0.0000000001
 43
0.0000000001
 44
0.00000001
 40
0.0
 40
0.0
 40
0.0
 40
0.0
 40
0.029197157225915
 40
0.0584835574779108
 40
0.0893488989383528
 40
0.120205546982024
 40
0.153985568004728
 40
0.1878025724095916
 40
0.2252119881807366
 40
0.2625564687869525
 40
0.2625564687869525
 40
0.2625564687869525
 40
0.2625564687869525
 10
129.2954066265
 20
291.4664266116
 30
0.0
 10
129.295905442862
 20
291.4761694280305
 30
0.0
 10
129.2969046002508
 20
291.4956848404489
 30
0.0
 10
129.3047463870644
 20
291.5246364822075
 30
0.0
 10
129.3172285884712
 20
291.5524089788523
 30
0.0
 10
129.3349075417902
 20
291.5790444475767
 30
0.0
 10
129.3571644701633
 20
291.6033538277663
 30
0.0
 10
129.3845146326576
 20
291.6253504366545
 30
0.0
 10
129.4156984209568
 20
291.6440880927584
 30
0.0
 10
129.439009659308
 20
291.6529988118258
 30
0.0
 10
129.4506551538
 20
291.6574503012
 30
0.0
 11
129.2954066265
 21
291.4664266116
 31
0.0
 11
129.2979333502909
 21
291.4955142319386
 31
0.0
 11
129.3053120319123
 21
291.5238558673404
 31
0.0
 11
129.3179700610981
 21
291.5520062421265
 31
0.0
 11
129.3349695785858
 21
291.5777579242789
 31
0.0
 11
129.3577367535281
 21
291.6027127948545
 31
0.0
 11
129.3840085770616
 21
291.6240055418623
 31
0.0
 11
129.4161779680758
 21
291.6430999041223
 31
0.0
 11
129.4506551538
 21
291.6574503012
 31
0.0
  0
SPLINE
  5
10A
330
1F
100
AcDbEntity
  8
0
  6
Continuous
 62
     7
100
AcDbSpline
210
0.0
220
0.0
230
1.0
 70
     8
 71
     3
 72
    15
 73
    11
 74
     9
 42
0.0000000001
 43
0.0000000001
 44
0.00000001
 40
0.0
 40
0.0
 40
0.0
 40
0.0
 40
0.0373441319455861
 40
0.0747531397089138
 40
0.1085741033407698
 40
0.1423582380734243
 40
0.1732178197848074
 40
0.2040858640452297
 40
0.2333658259388806
 40
0.2625567184628919
 40
0.2625567184628919
 40
0.2625567184628919
 40
0.2625567184628919
 10
131.2151580992
 20
291.6574503012
 30
0.0
 10
131.2268034960536
 20
291.6529988861192
 30
0.0
 10
131.2501145206406
 20
291.6440883227694
 30
0.0
 10
131.2812993265052
 20
291.6253502595737
 30
0.0
 10
131.3086511369193
 20
291.603351542606
 30
0.0
 10
131.3309098534457
 20
291.5790388112213
 30
0.0
 10
131.3485901402827
 20
291.5524003268877
 30
0.0
 10
131.3610711804504
 20
291.5246274790646
 30
0.0
 10
131.368909690939
 20
291.4956785011405
 30
0.0
 10
131.3699081549705
 20
291.476167334247
 30
0.0
 10
131.3704066265
 20
291.4664266116
 30
0.0
 11
131.2151580992
 21
291.6574503012
 31
0.0
 11
131.2496350071889
 21
291.6431001441871
 31
0.0
 11
131.2818040857678
 21
291.6240060549127
 31
0.0
 11
131.3080786822889
 21
291.6027104413117
 31
0.0
 11
131.3308480037607
 21
291.5777519606017
 31
0.0
 11
131.3478485352489
 21
291.5519974326014
 31
0.0
 11
131.3605063430871
 21
291.5238439948505
 31
0.0
 11
131.3678814280986
 21
291.495508076133
 31
0.0
 11
131.3704066265
 21
291.4664266116
 31
0.0
  0
SPLINE
  5
10B
330
1F
100
AcDbEntity
  8
0
  6
Continuous
 62
     7
100
AcDbSpline
210
0.0
220
0.0
230
1.0
 70
     8
 71
     3
 72
    19
 73
    15
 74
    13
 42
0.0000000001
 43
0.0000000001
 44
0.00000001
 40
0.0
 40
0.0
 40
0.0
 40
0.0
 40
0.0580397028442265
 40
0.1162122440504045
 40
0.1743901949201806
 40
0.2324205838680378
 40
0.2615164359215381
 40
0.2906047871671752
 40
0.3197019406197526
 40
0.3487963879753957
 40
0.3779163314153255
 40
0.4070487871749577
 40
0.4362246476285007
 40
0.4653253928836856
 40
0.4653253928836856
 40
0.4653253928836856
 40
0.4653253928836856
 10
129.2954066265
 20
282.7251834603
 30
0.0
 10
129.2961122945713
 20
282.744543497707
 30
0.0
 10
129.2975252458113
 20
282.7833078828036
 30
0.0
 10
129.3091010972907
 20
282.8405293976017
 30
0.0
 10
129.3277653104715
 20
282.8957380592822
 30
0.0
 10
129.3502274534153
 20
282.9389265427332
 30
0.0
 10
129.3723796042571
 20
282.9707596479719
 30
0.0
 10
129.3912097997747
 20
282.9930017003214
 30
0.0
 10
129.4122392373933
 20
283.0131889614282
 30
0.0
 10
129.4354507223197
 20
283.030857694585
 30
0.0
 10
129.4607277370093
 20
283.045495418193
 30
0.0
 10
129.4878150027302
 20
283.0564492478894
 30
0.0
 10
129.5162543107091
 20
283.0635548046661
 30
0.0
 10
129.5356975416391
 20
283.0644782923963
 30
0.0
 10
129.5454066265
 20
283.0649394411
 30
0.0
 11
129.2954066265
 21
282.7251834603
 31
0.0
 11
129.2990953075952
 21
282.7831058285011
 31
0.0
 11
129.3102831063674
 21
282.840192409315
 31
0.0
 11
129.3291662080227
 21
282.8952206060806
 31
0.0
 11
129.3560928475034
 21
282.9466256848931
 31
0.0
 11
129.3727466287779
 21
282.9704840204591
 31
0.0
 11
129.3915743736104
 21
282.9926571619305
 31
0.0
 11
129.4126022287949
 21
283.0127686920907
 31
0.0
 11
129.4357862359357
 21
283.0303467659278
 31
0.0
 11
129.461021600988
 21
283.0448776797539
 31
0.0
 11
129.4880276879442
 21
283.0558033946461
 31
0.0
 11
129.5163996672113
 21
283.0626049845831
 31
0.0
 11
129.5454066265
 21
283.0649394411
 31
0.0
  0
SPLINE
  5
10C
330
1F
100
AcDbEntity
  8
0
  6
Continuous
 62
     7
100
AcDbSpline
210
0.0
220
0.0
230
1.0
 70
     8
 71
     3
 72
    19
 73
    15
 74
    13
 42
0.0000000001
 43
0.0000000001
 44
0.00000001
 40
0.0
 40
0.0
 40
0.0
 40
0.0
 40
0.0290936469974252
 40
0.0582617352611999
 40
0.0873904531887117
 40
0.1165074751954083
 40
0.1456047854943828
 40
0.1747042911675477
 40
0.2037980858409423
 40
0.2328996448531898
 40
0.2909367192666158
 40
0.3491211705397996
 40
0.4072902894994683
 40
0.4653266165471008
 40
0.4653266165471008
 40
0.4653266165471008
 40
0.4653266165471008
 10
131.1204066265
 20
283.0649394411
 30
0.0
 10
131.1301133408126
 20
283.0644791678741
 30
0.0
 10
131.1495516057915
 20
283.0635574437314
 30
0.0
 10
131.1779862548424
 20
283.056458804065
 30
0.0
 10
131.2050688972805
 20
283.0455056523956
 30
0.0
 10
131.230343893601
 20
283.0308673292914
 30
0.0
 10
131.2535577783985
 20
283.0132007043986
 30
0.0
 10
131.2745926617638
 20
282.9930139159969
 30
0.0
 10
131.2934273018769
 20
282.970769623783
 30
0.0
 10
131.3155835776521
 20
282.9389321087125
 30
0.0
 10
131.3380488950511
 20
282.895738089477
 30
0.0
 10
131.3567134788142
 20
282.8405260527232
 30
0.0
 10
131.3682883346081
 20
282.7833044843878
 30
0.0
 10
131.3697010673286
 20
282.7445423700675
 30
0.0
 10
131.3704066265
 20
282.7251834603
 30
0.0
 11
131.1204066265
 21
283.0649394411
 31
0.0
 11
131.14940673527
 21
283.0626083497381
 31
0.0
 11
131.1777720752845
 21
283.0558124054455
 31
0.0
 11
131.2047746946533
 21
283.0448880860012
 31
0.0
 11
131.2300072262452
 21
283.0303581059599
 31
0.0
 11
131.2531950652301
 21
283.0127803475747
 31
0.0
 11
131.2742271087474
 21
282.9926697937308
 31
0.0
 11
131.2930599891958
 21
282.9704938720473
 31
0.0
 11
131.3097176853278
 21
282.9466313093911
 31
0.0
 11
131.3366477019784
 21
282.8952204524671
 31
0.0
 11
131.355532248418
 21
282.8401858790088
 31
0.0
 11
131.366718491313
 21
282.7831024806303
 31
0.0
 11
131.3704066265
 21
282.7251834603
 31
0.0
  0
SPLINE
  5
10D
330
1F
100
AcDbEntity
  8
0
  6
Continuous
 62
     7
100
AcDbSpline
210
0.0
220
0.0
230
1.0
 70
     8
 71
     3
 72
    15
 73
    11
 74
     9
 42
0.0000000001
 43
0.0000000001
 44
0.00000001
 40
0.0
 40
0.0
 40
0.0
 40
0.0
 40
0.0291928827223009
 40
0.058474903050268
 40
0.0893472907830342
 40
0.1202111503880325
 40
0.1539964536256229
 40
0.1878186151167092
 40
0.2252201505835213
 40
0.2625568083293284
 40
0.2625568083293284
 40
0.2625568083293284
 40
0.2625568083293284
 10
131.3704066265
 20
300.0774739908
 30
0.0
 10
131.3699080462305
 20
300.0677326029069
 30
0.0
 10
131.3689093633256
 20
300.0482200827478
 30
0.0
 10
131.3610694056032
 20
300.0192685644885
 30
0.0
 10
131.3485862740009
 20
299.9914927309983
 30
0.0
 10
131.3309030679957
 20
299.9648521912023
 30
0.0
 10
131.3086412852925
 20
299.9405392283609
 30
0.0
 10
131.2812892853533
 20
299.9185434576249
 30
0.0
 10
131.2501076162332
 20
299.8998093139604
 30
0.0
 10
131.2268011943698
 20
299.8909007277051
 30
0.0
 10
131.2151580992
 20
299.8864503012
 30
0.0
 11
131.3704066265
 21
300.0774739908
 31
0.0
 11
131.3678809541207
 21
300.048390569738
 31
0.0
 11
131.3605047725794
 21
300.0200528094109
 31
0.0
 11
131.3478444823587
 21
299.9918957254736
 31
0.0
 11
131.3308404968604
 21
299.9661383516383
 31
0.0
 11
131.308068841934
 21
299.9411804180947
 31
0.0
 11
131.2817918821221
 21
299.9198858180521
 31
0.0
 11
131.2496283191682
 21
299.9007970759933
 31
0.0
 11
131.2151580992
 21
299.8864503012
 31
0.0
  0
SPLINE
  5
10E
330
1F
100
AcDbEntity
  8
0
  6
Continuous
 62
     7
100
AcDbSpline
210
0.0
220
0.0
230
1.0
 70
     8
 71
     3
 72
    11
 73
     7
 74
     5
 42
0.0000000001
 43
0.0000000001
 44
0.00000001
 40
0.0
 40
0.0
 40
0.0
 40
0.0
 40
0.3498700338309877
 40
0.6997119068323758
 40
0.9156479955399318
 40
1.131263567935177
 40
1.131263567935177
 40
1.131263567935177
 40
1.131263567935177
 10
95.049224777
 20
289.8669503012
 30
0.0
 10
95.10406435092968
 20
289.9700336946371
 30
0.0
 10
95.2137390847845
 20
290.1761921843905
 30
0.0
 10
95.3148075331089
 20
290.4654039530861
 30
0.0
 10
95.37247811922751
 20
290.7203362469912
 30
0.0
 10
95.37943217901811
 20
290.8642826917937
 30
0.0
 10
95.3829066265
 20
290.9362024592
 30
0.0
 11
95.049224777
 21
289.8669503012
 31
0.0
 11
95.20563256404203
 21
290.179912990231
 31
0.0
 11
95.32167615824844
 21
290.5099481707024
 31
0.0
 11
95.36626839598553
 21
290.7212297996717
 31
0.0
 11
95.3829066265
 21
290.9362024592
 31
0.0
  0
SPLINE
  5
10F
330
1F
100
AcDbEntity
  8
0
  6
Continuous
 62
     7
100
AcDbSpline
210
0.0
220
0.0
230
1.0
 70
     8
 71
     3
 72
    11
 73
     7
 74
     5
 42
0.0000000001
 43
0.0000000001
 44
0.00000001
 40
0.0
 40
0.0
 40
0.0
 40
0.0
 40
0.3030455532288175
 40
0.606211702775461
 40
0.8687239931824042
 40
1.131137294180589
 40
1.131137294180589
 40
1.131137294180589
 40
1.131137294180589
 10
95.3829066265
 20
300.6076981432
 30
0.0
 10
95.37607097941915
 20
300.7087863477022
 30
0.0
 10
95.36239696502656
 20
300.9110029845374
 30
0.0
 10
95.27807226609117
 20
301.1899397802285
 30
0.0
 10
95.17426043675161
 20
301.44594582015
 30
0.0
 10
95.09089809014952
 20
301.5999584886495
 30
0.0
 10
95.049224777
 20
301.6769503012
 30
0.0
 11
95.3829066265
 21
300.6076981432
 31
0.0
 11
95.35111184683991
 21
300.9090711667408
 31
0.0
 11
95.26952875351446
 21
301.2010538941656
 31
0.0
 11
95.16985730939811
 21
301.443908389373
 31
0.0
 11
95.049224777
 21
301.6769503012
 31
0.0
  0
DIMENSION
  5
11C
330
1F
100
AcDbEntity
  8
1
100
AcDbDimension
  2
*D2
 10
203.626218548258
 20
299.7719503012
 30
0.0
 11
199.876218548258
 21
295.60443975945
 31
0.0
 70
    32
  1
<>
 71
     5
 42
-1.0
 53
90.0
  3
ME10_DIM_10
100
AcDbAlignedDimension
 13
194.3329066265
 23
291.7719503012
 33
0.0
 14
194.3329066265
 24
299.7719503012
 34
0.0
 50
90.0
100
AcDbRotatedDimension
  0
DIMENSION
  5
127
330
1F
100
AcDbEntity
  8
1
100
AcDbDimension
  2
*D3
 10
213.877897547244
 20
306.2719503012528
 30
0.0
 11
210.127897547244
 21
295.281420985272
 31
0.0
 70
    32
  1
<>
 71
     5
 42
-1.0
 53
90.0
  3
ME10_DIM_11
100
AcDbAlignedDimension
 13
194.3329066265
 23
285.2719503011559
 33
0.0
 14
194.3329066265094
 24
306.2719503012528
 34
0.0
 50
90.0
100
AcDbRotatedDimension
  0
DIMENSION
  5
132
330
1F
100
AcDbEntity
  8
1
100
AcDbDimension
  2
*D4
 10
222.918014482712
 20
309.2719503012
 30
0.0
 11
219.168014482712
 21
296.306588885171
 31
0.0
 70
    32
  1
<>
 71
     5
 42
-1.0
 53
90.0
  3
ME10_DIM_12
100
AcDbAlignedDimension
 13
156.214292418
 23
282.2719503012
 33
0.0
 14
156.214292418
 24
309.2719503012
 34
0.0
 50
90.0
100
AcDbRotatedDimension
  0
DIMENSION
  5
13D
330
1F
100
AcDbEntity
  8
1
100
AcDbDimension
  2
*D5
 10
194.3329066265
 20
326.875231718509
 30
0.0
 11
161.594334652418
 21
330.625231718509
 31
0.0
 70
    32
  1
<>
 71
     5
 42
-1.0
 53
0.00013888888889
  3
ME10_DIM_13
100
AcDbAlignedDimension
 13
134.2829066265
 23
315.7719079624
 33
0.0
 14
194.3329066265
 24
305.3475598095
 34
0.0
100
AcDbRotatedDimension
  0
DIMENSION
  5
148
330
1F
100
AcDbEntity
  8
1
100
AcDbDimension
  2
*D6
 10
194.3329066265
 20
334.703786590461
 30
0.0
 11
153.113400207803
 21
338.453786590461
 31
0.0
 70
    32
  1
<>
 71
     5
 42
-1.0
 53
0.00013888888889
  3
ME10_DIM_14
100
AcDbAlignedDimension
 13
114.3329066265
 23
315.7719503012
 33
0.0
 14
194.3329066265
 24
305.3475598095
 34
0.0
100
AcDbRotatedDimension
  0
DIMENSION
  5
153
330
1F
100
AcDbEntity
  8
1
100
AcDbDimension
  2
*D7
 10
194.3329066265
 20
342.159553135177
 30
0.0
 11
146.21681615394
 21
345.909553135177
 31
0.0
 70
    32
  1
<>
 71
     5
 42
-1.0
 53
0.00013888888889
  3
ME10_DIM_15
100
AcDbAlignedDimension
 13
94.4329066265
 23
309.2179369258
 33
0.0
 14
194.3329066265
 24
305.3475598095
 34
0.0
100
AcDbRotatedDimension
  0
INSERT
  5
15A
330
1F
100
AcDbEntity
  8
1
100
AcDbBlockReference
  2
*D8
 10
0.0
 20
0.0
 30
0.0
  0
DIMENSION
  5
165
330
1F
100
AcDbEntity
  8
1
100
AcDbDimension
  2
*D9
 10
180.4584051301534
 20
308.3193965184403
 30
0.0
 11
182.9777254383271
 21
317.5445950638667
 31
0.0
 70
    37
  1
<>
 71
     5
 42
-1.0
  3
ME10_DIM_16
100
AcDb3PointAngularDimension
 13
180.4023167118653
 23
307.3683115045711
 33
0.0
 14
158.6405742645888
 24
309.2719503012
 34
0.0
 15
156.214292418
 25
309.2719503012
 35
0.0
  0
ENDSEC
  0
SECTION
  2
OBJECTS
  0
DICTIONARY
  5
C
330
0
100
AcDbDictionary
281
     1
  3
ACAD_GROUP
350
D
  3
ACAD_LAYOUT
350
1A
  3
ACAD_MLEADERSTYLE
350
168
  3
ACAD_MLINESTYLE
350
17
  3
ACAD_PLOTSETTINGS
350
19
  3
ACAD_PLOTSTYLENAME
350
E
  3
ACAD_SCALELIST
350
4B
  3
ACAD_VISUALSTYLE
350
2A
  3
AcDbVariableDictionary
350
166
  0
DICTIONARY
  5
D
102
{ACAD_REACTORS
330
C
102
}
330
C
100
AcDbDictionary
281
     1
  0
DICTIONARY
  5
1A
102
{ACAD_REACTORS
330
C
102
}
330
C
100
AcDbDictionary
281
     1
  3
Layout1
350
1E
  3
Layout2
350
26
  3
Model
350
22
  0
DICTIONARY
  5
168
102
{ACAD_REACTORS
330
C
102
}
330
C
100
AcDbDictionary
281
     1
  0
DICTIONARY
  5
17
102
{ACAD_REACTORS
330
C
102
}
330
C
100
AcDbDictionary
281
     1
  3
Standard
350
18
  0
DICTIONARY
  5
19
102
{ACAD_REACTORS
330
C
102
}
330
C
100
AcDbDictionary
281
     1
  0
ACDBDICTIONARYWDFLT
  5
E
102
{ACAD_REACTORS
330
C
102
}
330
C
100
AcDbDictionary
281
     1
  3
Normal
350
F
100
AcDbDictionaryWithDefault
340
F
  0
DICTIONARY
  5
4B
102
{ACAD_REACTORS
330
C
102
}
330
C
100
AcDbDictionary
281
     1
  3
A0
350
4C
  3
A1
350
4D
  3
A2
350
4E
  3
A3
350
4F
  3
A4
350
50
  3
A5
350
51
  3
A6
350
52
  3
A7
350
53
  3
A8
350
54
  3
A9
350
55
  3
B0
350
56
  3
B1
350
57
  3
B2
350
58
  3
B3
350
59
  3
B4
350
5A
  3
B5
350
5B
  3
B6
350
5C
  3
B7
350
5D
  3
B8
350
5E
  3
B9
350
5F
  3
C0
350
60
  3
C1
350
61
  3
C2
350
62
  3
C3
350
63
  3
C4
350
64
  3
C5
350
65
  3
C6
350
66
  3
C7
350
67
  3
C8
350
68
  3
C9
350
69
  3
D0
350
6A
  3
D1
350
6B
  3
D2
350
6C
  0
DICTIONARY
  5
2A
102
{ACAD_REACTORS
330
C
102
}
330
C
100
AcDbDictionary
281
     1
  3
2dWireframe
350
2F
  3
3D Hidden
350
31
  3
3dWireframe
350
30
  3
Basic
350
32
  3
Brighten
350
36
  3
ColorChange
350
3A
  3
Conceptual
350
34
  3
Dim
350
35
  3
Facepattern
350
39
  3
Flat
350
2B
  3
FlatWithEdges
350
2C
  3
Gouraud
350
2D
  3
GouraudWithEdges
350
2E
  3
Linepattern
350
38
  3
Realistic
350
33
  3
Thicken
350
37
  0
DICTIONARY
  5
166
102
{ACAD_REACTORS
330
C
102
}
330
C
100
AcDbDictionary
281
     1
  3
CANNOSCALE
350
169
  0
LAYOUT
  5
1E
102
{ACAD_REACTORS
330
1A
102
}
330
1A
100
AcDbPlotSettings
  1

  2
none_device
  4

  6

 40
0.0
 41
0.0
 42
0.0
 43
0.0
 44
0.0
 45
0.0
 46
0.0
 47
0.0
 48
0.0
 49
0.0
140
0.0
141
0.0
142
1.0
143
1.0
 70
   688
 72
     0
 73
     0
 74
     5
  7

 75
    16
147
1.0
148
0.0
149
0.0
100
AcDbLayout
  1
Layout1
 70
     1
 71
     1
 10
0.0
 20
0.0
 11
12.0
 21
9.0
 12
0.0
 22
0.0
 32
0.0
 14
1.00000000000000E+20
 24
1.00000000000000E+20
 34
1.00000000000000E+20
 15
-1.00000000000000E+20
 25
-1.00000000000000E+20
 35
-1.00000000000000E+20
146
0.0
 13
0.0
 23
0.0
 33
0.0
 16
1.0
 26
0.0
 36
0.0
 17
0.0
 27
1.0
 37
0.0
 76
     0
330
1B
  0
LAYOUT
  5
26
102
{ACAD_REACTORS
330
1A
102
}
330
1A
100
AcDbPlotSettings
  1

  2
none_device
  4

  6

 40
0.0
 41
0.0
 42
0.0
 43
0.0
 44
0.0
 45
0.0
 46
0.0
 47
0.0
 48
0.0
 49
0.0
140
0.0
141
0.0
142
1.0
143
1.0
 70
   688
 72
     0
 73
     0
 74
     5
  7

 75
    16
147
1.0
148
0.0
149
0.0
100
AcDbLayout
  1
Layout2
 70
     1
 71
     2
 10
0.0
 20
0.0
 11
0.0
 21
0.0
 12
0.0
 22
0.0
 32
0.0
 14
0.0
 24
0.0
 34
0.0
 15
0.0
 25
0.0
 35
0.0
146
0.0
 13
0.0
 23
0.0
 33
0.0
 16
1.0
 26
0.0
 36
0.0
 17
0.0
 27
1.0
 37
0.0
 76
     0
330
23
  0
LAYOUT
  5
22
102
{ACAD_REACTORS
330
1A
102
}
330
1A
100
AcDbPlotSettings
  1

  2
none_device
  4

  6

 40
0.0
 41
0.0
 42
0.0
 43
0.0
 44
0.0
 45
0.0
 46
0.0
 47
0.0
 48
0.0
 49
0.0
140
0.0
141
0.0
142
1.0
143
1.0
 70
  1712
 72
     0
 73
     0
 74
     0
  7

 75
     0
147
1.0
148
0.0
149
0.0
100
AcDbLayout
  1
Model
 70
     1
 71
     0
 10
0.0
 20
0.0
 11
12.0
 21
9.0
 12
0.0
 22
0.0
 32
0.0
 14
73.431087022839
 24
253.9521625321168
 34
0.0
 15
224.918014482712
 25
362.721549449423
 35
0.0
146
0.0
 13
0.0
 23
0.0
 33
0.0
 16
1.0
 26
0.0
 36
0.0
 17
0.0
 27
1.0
 37
0.0
 76
     0
330
1F
331
29
  0
MLINESTYLE
  5
18
102
{ACAD_REACTORS
330
17
102
}
330
17
100
AcDbMlineStyle
  2
Standard
 70
     0
  3

 62
   256
 51
90.0
 52
90.0
 71
     2
 49
0.5
 62
   256
  6
BYLAYER
 49
-0.5
 62
   256
  6
BYLAYER
  0
ACDBPLACEHOLDER
  5
F
102
{ACAD_REACTORS
330
E
102
}
330
E
  0
SCALE
  5
4C
102
{ACAD_REACTORS
330
4B
102
}
330
4B
100
AcDbScale
 70
     0
300
1:1
140
1.0
141
1.0
290
     1
  0
SCALE
  5
4D
102
{ACAD_REACTORS
330
4B
102
}
330
4B
100
AcDbScale
 70
     0
300
1:2
140
1.0
141
2.0
290
     0
  0
SCALE
  5
4E
102
{ACAD_REACTORS
330
4B
102
}
330
4B
100
AcDbScale
 70
     0
300
1:4
140
1.0
141
4.0
290
     0
  0
SCALE
  5
4F
102
{ACAD_REACTORS
330
4B
102
}
330
4B
100
AcDbScale
 70
     0
300
1:5
140
1.0
141
5.0
290
     0
  0
SCALE
  5
50
102
{ACAD_REACTORS
330
4B
102
}
330
4B
100
AcDbScale
 70
     0
300
1:8
140
1.0
141
8.0
290
     0
  0
SCALE
  5
51
102
{ACAD_REACTORS
330
4B
102
}
330
4B
100
AcDbScale
 70
     0
300
1:10
140
1.0
141
10.0
290
     0
  0
SCALE
  5
52
102
{ACAD_REACTORS
330
4B
102
}
330
4B
100
AcDbScale
 70
     0
300
1:16
140
1.0
141
16.0
290
     0
  0
SCALE
  5
53
102
{ACAD_REACTORS
330
4B
102
}
330
4B
100
AcDbScale
 70
     0
300
1:20
140
1.0
141
20.0
290
     0
  0
SCALE
  5
54
102
{ACAD_REACTORS
330
4B
102
}
330
4B
100
AcDbScale
 70
     0
300
1:30
140
1.0
141
30.0
290
     0
  0
SCALE
  5
55
102
{ACAD_REACTORS
330
4B
102
}
330
4B
100
AcDbScale
 70
     0
300
1:40
140
1.0
141
40.0
290
     0
  0
SCALE
  5
56
102
{ACAD_REACTORS
330
4B
102
}
330
4B
100
AcDbScale
 70
     0
300
1:50
140
1.0
141
50.0
290
     0
  0
SCALE
  5
57
102
{ACAD_REACTORS
330
4B
102
}
330
4B
100
AcDbScale
 70
     0
300
1:100
140
1.0
141
100.0
290
     0
  0
SCALE
  5
58
102
{ACAD_REACTORS
330
4B
102
}
330
4B
100
AcDbScale
 70
     0
300
2:1
140
2.0
141
1.0
290
     0
  0
SCALE
  5
59
102
{ACAD_REACTORS
330
4B
102
}
330
4B
100
AcDbScale
 70
     0
300
4:1
140
4.0
141
1.0
290
     0
  0
SCALE
  5
5A
102
{ACAD_REACTORS
330
4B
102
}
330
4B
100
AcDbScale
 70
     0
300
8:1
140
8.0
141
1.0
290
     0
  0
SCALE
  5
5B
102
{ACAD_REACTORS
330
4B
102
}
330
4B
100
AcDbScale
 70
     0
300
10:1
140
10.0
141
1.0
290
     0
  0
SCALE
  5
5C
102
{ACAD_REACTORS
330
4B
102
}
330
4B
100
AcDbScale
 70
     0
300
100:1
140
100.0
141
1.0
290
     0
  0
SCALE
  5
5D
102
{ACAD_REACTORS
330
4B
102
}
330
4B
100
AcDbScale
 70
     0
300
1/128" = 1'-0"
140
0.0078125
141
12.0
290
     0
  0
SCALE
  5
5E
102
{ACAD_REACTORS
330
4B
102
}
330
4B
100
AcDbScale
 70
     0
300
1/64" = 1'-0"
140
0.015625
141
12.0
290
     0
  0
SCALE
  5
5F
102
{ACAD_REACTORS
330
4B
102
}
330
4B
100
AcDbScale
 70
     0
300
1/32" = 1'-0"
140
0.03125
141
12.0
290
     0
  0
SCALE
  5
60
102
{ACAD_REACTORS
330
4B
102
}
330
4B
100
AcDbScale
 70
     0
300
1/16" = 1'-0"
140
0.0625
141
12.0
290
     0
  0
SCALE
  5
61
102
{ACAD_REACTORS
330
4B
102
}
330
4B
100
AcDbScale
 70
     0
300
3/32" = 1'-0"
140
0.09375
141
12.0
290
     0
  0
SCALE
  5
62
102
{ACAD_REACTORS
330
4B
102
}
330
4B
100
AcDbScale
 70
     0
300
1/8" = 1'-0"
140
0.125
141
12.0
290
     0
  0
SCALE
  5
63
102
{ACAD_REACTORS
330
4B
102
}
330
4B
100
AcDbScale
 70
     0
300
3/16" = 1'-0"
140
0.1875
141
12.0
290
     0
  0
SCALE
  5
64
102
{ACAD_REACTORS
330
4B
102
}
330
4B
100
AcDbScale
 70
     0
300
1/4" = 1'-0"
140
0.25
141
12.0
290
     0
  0
SCALE
  5
65
102
{ACAD_REACTORS
330
4B
102
}
330
4B
100
AcDbScale
 70
     0
300
3/8" = 1'-0"
140
0.375
141
12.0
290
     0
  0
SCALE
  5
66
102
{ACAD_REACTORS
330
4B
102
}
330
4B
100
AcDbScale
 70
     0
300
1/2" = 1'-0"
140
0.5
141
12.0
290
     0
  0
SCALE
  5
67
102
{ACAD_REACTORS
330
4B
102
}
330
4B
100
AcDbScale
 70
     0
300
3/4" = 1'-0"
140
0.75
141
12.0
290
     0
  0
SCALE
  5
68
102
{ACAD_REACTORS
330
4B
102
}
330
4B
100
AcDbScale
 70
     0
300
1" = 1'-0"
140
1.0
141
12.0
290
     0
  0
SCALE
  5
69
102
{ACAD_REACTORS
330
4B
102
}
330
4B
100
AcDbScale
 70
     0
300
1-1/2" = 1'-0"
140
1.5
141
12.0
290
     0
  0
SCALE
  5
6A
102
{ACAD_REACTORS
330
4B
102
}
330
4B
100
AcDbScale
 70
     0
300
3" = 1'-0"
140
3.0
141
12.0
290
     0
  0
SCALE
  5
6B
102
{ACAD_REACTORS
330
4B
102
}
330
4B
100
AcDbScale
 70
     0
300
6" = 1'-0"
140
6.0
141
12.0
290
     0
  0
SCALE
  5
6C
102
{ACAD_REACTORS
330
4B
102
}
330
4B
100
AcDbScale
 70
     0
300
1'-0" = 1'-0"
140
12.0
141
12.0
290
     0
  0
VISUALSTYLE
  5
2F
102
{ACAD_REACTORS
330
2A
102
}
330
2A
100
AcDbVisualStyle
  2
2dWireframe
 70
     4
 71
     0
 72
     2
 73
     0
 90
        0
 40
-0.6
 41
-30.0
 62
     5
 63
     7
 74
     1
 91
        4
 64
     7
 65
   257
 75
     1
175
     1
 42
1.0
 92
        0
 66
   257
 43
1.0
 76
     1
 77
     6
 78
     2
 67
     7
 79
     5
170
     0
171
     0
290
     0
174
     0
 93
        1
 44
0.0
173
     0
291
     0
 45
0.0
1001
ACAD
1000
AcDbSavedByObjectVersion
1070
     0
  0
VISUALSTYLE
  5
31
102
{ACAD_REACTORS
330
2A
102
}
330
2A
100
AcDbVisualStyle
  2
3D Hidden
 70
     6
 71
     1
 72
     2
 73
     2
 90
        0
 40
-0.6
 41
-30.0
 62
     5
 63
     7
 74
     2
 91
        2
 64
     7
 65
   257
 75
     2
175
     1
 42
40.0
 92
        0
 66
   257
 43
1.0
 76
     1
 77
     6
 78
     2
 67
     7
 79
     3
170
     0
171
     0
290
     0
174
     0
 93
        1
 44
0.0
173
     0
291
     0
 45
0.0
1001
ACAD
1000
AcDbSavedByObjectVersion
1070
     0
  0
VISUALSTYLE
  5
30
102
{ACAD_REACTORS
330
2A
102
}
330
2A
100
AcDbVisualStyle
  2
3dWireframe
 70
     5
 71
     0
 72
     2
 73
     0
 90
        0
 40
-0.6
 41
-30.0
 62
     5
 63
     7
 74
     1
 91
        4
 64
     7
 65
   257
 75
     1
175
     1
 42
1.0
 92
        0
 66
   257
 43
1.0
 76
     1
 77
     6
 78
     2
 67
     7
 79
     5
170
     0
171
     0
290
     0
174
     0
 93
        1
 44
0.0
173
     0
291
     0
 45
0.0
1001
ACAD
1000
AcDbSavedByObjectVersion
1070
     0
  0
VISUALSTYLE
  5
32
102
{ACAD_REACTORS
330
2A
102
}
330
2A
100
AcDbVisualStyle
  2
Basic
 70
     7
 71
     1
 72
     0
 73
     1
 90
        0
 40
-0.6
 41
-30.0
 62
     5
 63
     7
 74
     0
 91
        4
 64
     7
 65
   257
 75
     1
175
     1
 42
1.0
 92
        8
 66
     7
 43
1.0
 76
     1
 77
     6
 78
     2
 67
     7
 79
     5
170
     0
171
     0
290
     0
174
     0
 93
        1
 44
0.0
173
     0
291
     1
 45
0.0
1001
ACAD
1000
AcDbSavedByObjectVersion
1070
     0
  0
VISUALSTYLE
  5
36
102
{ACAD_REACTORS
330
2A
102
}
330
2A
100
AcDbVisualStyle
  2
Brighten
 70
    12
 71
     2
 72
     2
 73
     0
 90
        0
 40
-0.6
 41
-30.0
 62
     5
 63
     7
 74
     1
 91
        4
 64
     7
 65
   257
 75
     1
175
     1
 42
1.0
 92
        8
 66
     7
 43
1.0
 76
     1
 77
     6
 78
     2
 67
     7
 79
     5
170
     0
171
     0
290
     0
174
     0
 93
        1
 44
50.0
173
     0
291
     1
 45
0.0
1001
ACAD
1000
AcDbSavedByObjectVersion
1070
     0
  0
VISUALSTYLE
  5
3A
102
{ACAD_REACTORS
330
2A
102
}
330
2A
100
AcDbVisualStyle
  2
ColorChange
 70
    16
 71
     2
 72
     2
 73
     3
 90
        0
 40
-0.6
 41
-30.0
 62
     5
 63
     8
 74
     1
 91
        4
 64
     7
 65
   257
 75
     1
175
     1
 42
1.0
 92
        8
 66
     8
 43
1.0
 76
     1
 77
     6
 78
     2
 67
     7
 79
     5
170
     0
171
     0
290
     0
174
     0
 93
        1
 44
0.0
173
     0
291
     1
 45
0.0
1001
ACAD
1000
AcDbSavedByObjectVersion
1070
     0
  0
VISUALSTYLE
  5
34
102
{ACAD_REACTORS
330
2A
102
}
330
2A
100
AcDbVisualStyle
  2
Conceptual
 70
     9
 71
     3
 72
     2
 73
     0
 90
        0
 40
-0.6
 41
-30.0
 62
     5
 63
     7
 74
     2
 91
        2
 64
     7
 65
   257
 75
     1
175
     1
 42
40.0
 92
        8
 66
     7
 43
1.0
 76
     1
 77
     6
 78
     2
 67
     7
 79
     3
170
     0
171
     0
290
     0
174
     0
 93
        1
 44
0.0
173
     0
291
     0
 45
0.0
1001
ACAD
1000
AcDbSavedByObjectVersion
1070
     0
  0
VISUALSTYLE
  5
35
102
{ACAD_REACTORS
330
2A
102
}
330
2A
100
AcDbVisualStyle
  2
Dim
 70
    11
 71
     2
 72
     2
 73
     0
 90
        0
 40
-0.6
 41
-30.0
 62
     5
 63
     7
 74
     1
 91
        4
 64
     7
 65
   257
 75
     1
175
     1
 42
1.0
 92
        8
 66
     7
 43
1.0
 76
     1
 77
     6
 78
     2
 67
     7
 79
     5
170
     0
171
     0
290
     0
174
     0
 93
        1
 44
-50.0
173
     0
291
     1
 45
0.0
1001
ACAD
1000
AcDbSavedByObjectVersion
1070
     0
  0
VISUALSTYLE
  5
39
102
{ACAD_REACTORS
330
2A
102
}
330
2A
100
AcDbVisualStyle
  2
Facepattern
 70
    15
 71
     2
 72
     2
 73
     0
 90
        0
 40
-0.6
 41
-30.0
 62
     5
 63
     7
 74
     1
 91
        4
 64
     7
 65
   257
 75
     1
175
     1
 42
1.0
 92
        8
 66
     7
 43
1.0
 76
     1
 77
     6
 78
     2
 67
     7
 79
     5
170
     0
171
     0
290
     0
174
     0
 93
        1
 44
0.0
173
     0
291
     1
 45
0.0
1001
ACAD
1000
AcDbSavedByObjectVersion
1070
     0
  0
VISUALSTYLE
  5
2B
102
{ACAD_REACTORS
330
2A
102
}
330
2A
100
AcDbVisualStyle
  2
Flat
 70
     0
 71
     2
 72
     1
 73
     1
 90
        2
 40
-0.6
 41
30.0
 62
     5
 63
     7
 74
     0
 91
        4
 64
     7
 65
   257
 75
     1
175
     1
 42
1.0
 92
        8
 66
     7
 43
1.0
 76
     1
 77
     6
 78
     2
 67
     7
 79
     5
170
     0
171
     0
290
     0
174
     0
 93
       13
 44
0.0
173
     0
291
     1
 45
0.0
1001
ACAD
1000
AcDbSavedByObjectVersion
1070
     0
  0
VISUALSTYLE
  5
2C
102
{ACAD_REACTORS
330
2A
102
}
330
2A
100
AcDbVisualStyle
  2
FlatWithEdges
 70
     1
 71
     2
 72
     1
 73
     1
 90
        2
 40
-0.6
 41
30.0
 62
     5
 63
     7
 74
     1
 91
        4
 64
     7
 65
   257
 75
     1
175
     1
 42
1.0
 92
        0
 66
   257
 43
1.0
 76
     1
 77
     6
 78
     2
 67
     7
 79
     5
170
     0
171
     0
290
     0
174
     0
 93
       13
 44
0.0
173
     0
291
     1
 45
0.0
1001
ACAD
1000
AcDbSavedByObjectVersion
1070
     0
  0
VISUALSTYLE
  5
2D
102
{ACAD_REACTORS
330
2A
102
}
330
2A
100
AcDbVisualStyle
  2
Gouraud
 70
     2
 71
     2
 72
     2
 73
     1
 90
        2
 40
-0.6
 41
30.0
 62
     5
 63
     7
 74
     0
 91
        4
 64
     7
 65
   257
 75
     1
175
     1
 42
1.0
 92
        0
 66
     7
 43
1.0
 76
     1
 77
     6
 78
     2
 67
     7
 79
     5
170
     0
171
     0
290
     0
174
     0
 93
       13
 44
0.0
173
     0
291
     1
 45
0.0
1001
ACAD
1000
AcDbSavedByObjectVersion
1070
     0
  0
VISUALSTYLE
  5
2E
102
{ACAD_REACTORS
330
2A
102
}
330
2A
100
AcDbVisualStyle
  2
GouraudWithEdges
 70
     3
 71
     2
 72
     2
 73
     1
 90
        2
 40
-0.6
 41
30.0
 62
     5
 63
     7
 74
     1
 91
        4
 64
     7
 65
   257
 75
     1
175
     1
 42
1.0
 92
        0
 66
   257
 43
1.0
 76
     1
 77
     6
 78
     2
 67
     7
 79
     5
170
     0
171
     0
290
     0
174
     0
 93
       13
 44
0.0
173
     0
291
     1
 45
0.0
1001
ACAD
1000
AcDbSavedByObjectVersion
1070
     0
  0
VISUALSTYLE
  5
38
102
{ACAD_REACTORS
330
2A
102
}
330
2A
100
AcDbVisualStyle
  2
Linepattern
 70
    14
 71
     2
 72
     2
 73
     0
 90
        0
 40
-0.6
 41
-30.0
 62
     5
 63
     7
 74
     1
 91
        4
 64
     7
 65
   257
 75
     7
175
     7
 42
1.0
 92
        8
 66
     7
 43
1.0
 76
     1
 77
     6
 78
     2
 67
     7
 79
     5
170
     0
171
     0
290
     0
174
     0
 93
        1
 44
0.0
173
     0
291
     1
 45
0.0
1001
ACAD
1000
AcDbSavedByObjectVersion
1070
     0
  0
VISUALSTYLE
  5
33
102
{ACAD_REACTORS
330
2A
102
}
330
2A
100
AcDbVisualStyle
  2
Realistic
 70
     8
 71
     2
 72
     2
 73
     0
 90
        0
 40
-0.6
 41
-30.0
 62
     5
 63
     7
 74
     1
 91
        0
 64
     7
 65
   257
 75
     1
175
     1
 42
1.0
 92
        8
 66
     8
 43
1.0
 76
     1
 77
     6
 78
     2
 67
     7
 79
     5
170
     0
171
     0
290
     0
174
     0
 93
       13
 44
0.0
173
     0
291
     0
 45
0.0
1001
ACAD
1000
AcDbSavedByObjectVersion
1070
     0
  0
VISUALSTYLE
  5
37
102
{ACAD_REACTORS
330
2A
102
}
330
2A
100
AcDbVisualStyle
  2
Thicken
 70
    13
 71
     2
 72
     2
 73
     0
 90
        0
 40
-0.6
 41
-30.0
 62
     5
 63
     7
 74
     1
 91
        4
 64
     7
 65
   257
 75
     1
175
     1
 42
1.0
 92
       12
 66
     7
 43
1.0
 76
     1
 77
     6
 78
     2
 67
     7
 79
     5
170
     0
171
     0
290
     0
174
     0
 93
        1
 44
0.0
173
     0
291
     1
 45
0.0
1001
ACAD
1000
AcDbSavedByObjectVersion
1070
     0
  0
DICTIONARYVAR
  5
169
102
{ACAD_REACTORS
330
166
102
}
330
166
100
DictionaryVariables
280
     0
  1
1:1
  0
ENDSEC
  0
EOF
