  0
SECTION
  2
HEADER
  9
$ACADVER
  1
AC1015
  9
$ACADMAINTVER
 70
     6
  9
$DWGCODEPAGE
  3
ANSI_1252
  9
$INSBASE
 10
0.0
 20
0.0
 30
0.0
  9
$EXTMIN
 10
59.1753839206979
 20
275.6687134355788
 30
0.0
  9
$EXTMAX
 10
200.419572645286
 20
384.438100352885
 30
0.0
  9
$LIMMIN
 10
0.0
 20
0.0
  9
$LIMMAX
 10
12.0
 20
9.0
  9
$ORTHOMODE
 70
     0
  9
$REGENMODE
 70
     1
  9
$FILLMODE
 70
     1
  9
$QTEXTMODE
 70
     0
  9
$MIRRTEXT
 70
     1
  9
$LTSCALE
 40
1.0
  9
$ATTMODE
 70
     1
  9
$TEXTSIZE
 40
0.2
  9
$TRACEWID
 40
0.05
  9
$TEXTSTYLE
  7
Standard
  9
$CLAYER
  8
0
  9
$CELTYPE
  6
ByLayer
  9
$CECOLOR
 62
   256
  9
$CELTSCALE
 40
1.0
  9
$DISPSILH
 70
     0
  9
$DIMSCALE
 40
1.0
  9
$DIMASZ
 40
0.18
  9
$DIMEXO
 40
0.0625
  9
$DIMDLI
 40
0.38
  9
$DIMRND
 40
0.0
  9
$DIMDLE
 40
0.0
  9
$DIMEXE
 40
0.18
  9
$DIMTP
 40
0.0
  9
$DIMTM
 40
0.0
  9
$DIMTXT
 40
0.18
  9
$DIMCEN
 40
0.09
  9
$DIMTSZ
 40
0.0
  9
$DIMTOL
 70
     0
  9
$DIMLIM
 70
     0
  9
$DIMTIH
 70
     1
  9
$DIMTOH
 70
     1
  9
$DIMSE1
 70
     0
  9
$DIMSE2
 70
     0
  9
$DIMTAD
 70
     0
  9
$DIMZIN
 70
     0
  9
$DIMBLK
  1

  9
$DIMASO
 70
     1
  9
$DIMSHO
 70
     1
  9
$DIMPOST
  1

  9
$DIMAPOST
  1

  9
$DIMALT
 70
     0
  9
$DIMALTD
 70
     2
  9
$DIMALTF
 40
25.4
  9
$DIMLFAC
 40
1.0
  9
$DIMTOFL
 70
     0
  9
$DIMTVP
 40
0.0
  9
$DIMTIX
 70
     0
  9
$DIMSOXD
 70
     0
  9
$DIMSAH
 70
     0
  9
$DIMBLK1
  1

  9
$DIMBLK2
  1

  9
$DIMSTYLE
  2
Standard
  9
$DIMCLRD
 70
     0
  9
$DIMCLRE
 70
     0
  9
$DIMCLRT
 70
     0
  9
$DIMTFAC
 40
1.0
  9
$DIMGAP
 40
0.09
  9
$DIMJUST
 70
     0
  9
$DIMSD1
 70
     0
  9
$DIMSD2
 70
     0
  9
$DIMTOLJ
 70
     1
  9
$DIMTZIN
 70
     0
  9
$DIMALTZ
 70
     0
  9
$DIMALTTZ
 70
     0
  9
$DIMUPT
 70
     0
  9
$DIMDEC
 70
     4
  9
$DIMTDEC
 70
     4
  9
$DIMALTU
 70
     2
  9
$DIMALTTD
 70
     2
  9
$DIMTXSTY
  7
Standard
  9
$DIMAUNIT
 70
     0
  9
$DIMADEC
 70
     0
  9
$DIMALTRND
 40
0.0
  9
$DIMAZIN
 70
     0
  9
$DIMDSEP
 70
    46
  9
$DIMATFIT
 70
     3
  9
$DIMFRAC
 70
     0
  9
$DIMLDRBLK
  1

  9
$DIMLUNIT
 70
     2
  9
$DIMLWD
 70
    -2
  9
$DIMLWE
 70
    -2
  9
$DIMTMOVE
 70
     0
  9
$LUNITS
 70
     2
  9
$LUPREC
 70
     4
  9
$SKETCHINC
 40
0.1
  9
$FILLETRAD
 40
0.5
  9
$AUNITS
 70
     0
  9
$AUPREC
 70
     0
  9
$MENU
  1
.
  9
$ELEVATION
 40
0.0
  9
$PELEVATION
 40
0.0
  9
$THICKNESS
 40
0.0
  9
$LIMCHECK
 70
     0
  9
$CHAMFERA
 40
0.5
  9
$CHAMFERB
 40
0.5
  9
$CHAMFERC
 40
1.0
  9
$CHAMFERD
 40
0.0
  9
$SKPOLY
 70
     0
  9
$TDCREATE
 40
2456672.707513785
  9
$TDUCREATE
 40
2456672.665847118
  9
$TDUPDATE
 40
2456672.707513796
  9
$TDUUPDATE
 40
2456672.66584713
  9
$TDINDWG
 40
0.0000000116
  9
$TDUSRTIMER
 40
0.0000000116
  9
$USRTIMER
 70
     1
  9
$ANGBASE
 50
0.0
  9
$ANGDIR
 70
     0
  9
$PDMODE
 70
     0
  9
$PDSIZE
 40
0.0
  9
$PLINEWID
 40
0.0
  9
$SPLFRAME
 70
     0
  9
$SPLINETYPE
 70
     6
  9
$SPLINESEGS
 70
     8
  9
$HANDSEED
  5
163
  9
$SURFTAB1
 70
     6
  9
$SURFTAB2
 70
     6
  9
$SURFTYPE
 70
     6
  9
$SURFU
 70
     6
  9
$SURFV
 70
     6
  9
$UCSBASE
  2

  9
$UCSNAME
  2

  9
$UCSORG
 10
0.0
 20
0.0
 30
0.0
  9
$UCSXDIR
 10
1.0
 20
0.0
 30
0.0
  9
$UCSYDIR
 10
0.0
 20
1.0
 30
0.0
  9
$UCSORTHOREF
  2

  9
$UCSORTHOVIEW
 70
     0
  9
$UCSORGTOP
 10
0.0
 20
0.0
 30
0.0
  9
$UCSORGBOTTOM
 10
0.0
 20
0.0
 30
0.0
  9
$UCSORGLEFT
 10
0.0
 20
0.0
 30
0.0
  9
$UCSORGRIGHT
 10
0.0
 20
0.0
 30
0.0
  9
$UCSORGFRONT
 10
0.0
 20
0.0
 30
0.0
  9
$UCSORGBACK
 10
0.0
 20
0.0
 30
0.0
  9
$PUCSBASE
  2

  9
$PUCSNAME
  2

  9
$PUCSORG
 10
0.0
 20
0.0
 30
0.0
  9
$PUCSXDIR
 10
1.0
 20
0.0
 30
0.0
  9
$PUCSYDIR
 10
0.0
 20
1.0
 30
0.0
  9
$PUCSORTHOREF
  2

  9
$PUCSORTHOVIEW
 70
     0
  9
$PUCSORGTOP
 10
0.0
 20
0.0
 30
0.0
  9
$PUCSORGBOTTOM
 10
0.0
 20
0.0
 30
0.0
  9
$PUCSORGLEFT
 10
0.0
 20
0.0
 30
0.0
  9
$PUCSORGRIGHT
 10
0.0
 20
0.0
 30
0.0
  9
$PUCSORGFRONT
 10
0.0
 20
0.0
 30
0.0
  9
$PUCSORGBACK
 10
0.0
 20
0.0
 30
0.0
  9
$USERI1
 70
     0
  9
$USERI2
 70
     0
  9
$USERI3
 70
     0
  9
$USERI4
 70
     0
  9
$USERI5
 70
     0
  9
$USERR1
 40
16.5
  9
$USERR2
 40
0.0
  9
$USERR3
 40
0.0
  9
$USERR4
 40
0.0
  9
$USERR5
 40
0.0
  9
$WORLDVIEW
 70
     1
  9
$SHADEDGE
 70
     3
  9
$SHADEDIF
 70
    70
  9
$TILEMODE
 70
     1
  9
$MAXACTVP
 70
    64
  9
$PINSBASE
 10
0.0
 20
0.0
 30
0.0
  9
$PLIMCHECK
 70
     0
  9
$PEXTMIN
 10
1.00000000000000E+20
 20
1.00000000000000E+20
 30
1.00000000000000E+20
  9
$PEXTMAX
 10
-1.00000000000000E+20
 20
-1.00000000000000E+20
 30
-1.00000000000000E+20
  9
$PLIMMIN
 10
0.0
 20
0.0
  9
$PLIMMAX
 10
12.0
 20
9.0
  9
$UNITMODE
 70
     0
  9
$VISRETAIN
 70
     1
  9
$PLINEGEN
 70
     0
  9
$PSLTSCALE
 70
     1
  9
$TREEDEPTH
 70
  3020
  9
$CMLSTYLE
  2
Standard
  9
$CMLJUST
 70
     0
  9
$CMLSCALE
 40
1.0
  9
$PROXYGRAPHICS
 70
     1
  9
$MEASUREMENT
 70
     1
  9
$CELWEIGHT
370
    -1
  9
$ENDCAPS
280
     0
  9
$JOINSTYLE
280
     0
  9
$LWDISPLAY
290
     0
  9
$INSUNITS
 70
     1
  9
$HYPERLINKBASE
  1

  9
$STYLESHEET
  1

  9
$XEDIT
290
     1
  9
$CEPSNTYPE
380
     0
  9
$PSTYLEMODE
290
     1
  9
$FINGERPRINTGUID
  2
{92EF417C-B230-42E2-94FE-9DA69FA2F7CC}
  9
$VERSIONGUID
  2
{FAEB1C32-E019-11D5-929B-00C0DF256EC4}
  9
$EXTNAMES
290
     1
  9
$PSVPSCALE
 40
0.0
  9
$OLESTARTUP
290
     0
  0
ENDSEC
  0
SECTION
  2
CLASSES
  0
CLASS
  1
ACDBDICTIONARYWDFLT
  2
AcDbDictionaryWithDefault
  3
ObjectDBX Classes
 90
        0
280
     0
281
     0
  0
CLASS
  1
VISUALSTYLE
  2
AcDbVisualStyle
  3
ObjectDBX Classes
 90
     4095
280
     0
281
     0
  0
CLASS
  1
SCALE
  2
AcDbScale
  3
ObjectDBX Classes
 90
     1153
280
     0
281
     0
  0
CLASS
  1

  2
exOdDbPolyline
  3

 90
        0
280
     0
281
     1
  0
CLASS
  1

  2
exOdDbCircle
  3

 90
        0
280
     0
281
     1
  0
CLASS
  1

  2
exOdDbSpline
  3

 90
        0
280
     0
281
     1
  0
CLASS
  1
DICTIONARYVAR
  2
AcDbDictionaryVar
  3
ObjectDBX Classes
 90
        0
280
     0
281
     0
  0
CLASS
  1
ACDBPLACEHOLDER
  2
AcDbPlaceHolder
  3
ObjectDBX Classes
 90
        0
280
     0
281
     0
  0
CLASS
  1
LAYOUT
  2
AcDbLayout
  3
ObjectDBX Classes
 90
        0
280
     0
281
     0
  0
ENDSEC
  0
SECTION
  2
TABLES
  0
TABLE
  2
VPORT
  5
8
330
0
100
AcDbSymbolTable
 70
     1
  0
VPORT
  5
29
330
8
100
AcDbSymbolTableRecord
100
AcDbViewportTableRecord
  2
*Active
 70
     0
 10
0.0
 20
0.0
 11
1.0
 21
1.0
 12
129.797478282992
 22
330.0534068942319
 13
0.0
 23
0.0
 14
0.5
 24
0.5
 15
0.5
 25
0.5
 16
0.0
 26
0.0
 36
1.0
 17
0.0
 27
0.0
 37
0.0
 40
119.6463256090368
 41
1.60267857142857
 42
50.0
 43
0.0
 44
0.0
 50
0.0
 51
0.0
 71
     0
 72
   100
 73
     1
 74
     3
 75
     0
 76
     0
 77
     0
 78
     0
281
     0
 65
     1
110
0.0
120
0.0
130
0.0
111
1.0
121
0.0
131
0.0
112
0.0
122
1.0
132
0.0
 79
     0
146
0.0
  0
ENDTAB
  0
TABLE
  2
LTYPE
  5
5
330
0
100
AcDbSymbolTable
 70
     9
  0
LTYPE
  5
14
330
5
100
AcDbSymbolTableRecord
100
AcDbLinetypeTableRecord
  2
ByBlock
 70
     0
  3

 72
    65
 73
     0
 40
0.0
  0
LTYPE
  5
15
330
5
100
AcDbSymbolTableRecord
100
AcDbLinetypeTableRecord
  2
ByLayer
 70
     0
  3

 72
    65
 73
     0
 40
0.0
  0
LTYPE
  5
16
330
5
100
AcDbSymbolTableRecord
100
AcDbLinetypeTableRecord
  2
Continuous
 70
     0
  3
Solid line
 72
    65
 73
     0
 40
0.0
  0
LTYPE
  5
3B
330
5
100
AcDbSymbolTableRecord
100
AcDbLinetypeTableRecord
  2
DASHED
 70
     0
  3
Dashed
 72
    65
 73
     2
 40
15.0
 49
7.0
 74
     0
 49
-8.0
 74
     0
  0
LTYPE
  5
3C
330
5
100
AcDbSymbolTableRecord
100
AcDbLinetypeTableRecord
  2
DOTTED
 70
     0
  3
Dotted
 72
    65
 73
     2
 40
1.0
 49
0.0
 74
     0
 49
-1.0
 74
     0
  0
LTYPE
  5
3D
330
5
100
AcDbSymbolTableRecord
100
AcDbLinetypeTableRecord
  2
DOT_CENTER
 70
     0
  3
Dot_Center
 72
    65
 73
     4
 40
14.0
 49
12.0
 74
     0
 49
-1.0
 74
     0
 49
0.0
 74
     0
 49
-1.0
 74
     0
  0
LTYPE
  5
3E
330
5
100
AcDbSymbolTableRecord
100
AcDbLinetypeTableRecord
  2
LONG_DASHED
 70
     0
  3
Long_Dashed
 72
    65
 73
     2
 40
15.0
 49
10.0
 74
     0
 49
-5.0
 74
     0
  0
LTYPE
  5
3F
330
5
100
AcDbSymbolTableRecord
100
AcDbLinetypeTableRecord
  2
DASH_CENTER
 70
     0
  3
Dash_Center
 72
    65
 73
     4
 40
14.0
 49
11.0
 74
     0
 49
-1.0
 74
     0
 49
1.0
 74
     0
 49
-1.0
 74
     0
  0
LTYPE
  5
40
330
5
100
AcDbSymbolTableRecord
100
AcDbLinetypeTableRecord
  2
PHANTOM
 70
     0
  3
Phantom
 72
    65
 73
     6
 40
13.0
 49
10.0
 74
     0
 49
-1.0
 74
     0
 49
0.0
 74
     0
 49
-1.0
 74
     0
 49
0.0
 74
     0
 49
-1.0
 74
     0
  0
LTYPE
  5
41
330
5
100
AcDbSymbolTableRecord
100
AcDbLinetypeTableRecord
  2
CENTER_DASH_DASH
 70
     0
  3
Center_Dash_Dash
 72
    65
 73
     6
 40
14.0
 49
9.0
 74
     0
 49
-1.0
 74
     0
 49
1.0
 74
     0
 49
-1.0
 74
     0
 49
1.0
 74
     0
 49
-1.0
 74
     0
  0
LTYPE
  5
42
330
5
100
AcDbSymbolTableRecord
100
AcDbLinetypeTableRecord
  2
HIDDEN
 70
     0
  3
HIDDEN
 72
    65
 73
     2
 40
4.0
 49
2.0
 74
     0
 49
-2.0
 74
     0
  0
ENDTAB
  0
TABLE
  2
LAYER
  5
2
330
0
100
AcDbSymbolTable
 70
     7
  0
LAYER
  5
10
330
2
100
AcDbSymbolTableRecord
100
AcDbLayerTableRecord
  2
0
 70
     0
 62
     7
  6
Continuous
370
    -3
390
F
  0
LAYER
  5
43
330
2
100
AcDbSymbolTableRecord
100
AcDbLayerTableRecord
  2
1
 70
     0
 62
     7
  6
Continuous
370
    -3
390
F
  0
LAYER
  5
44
330
2
100
AcDbSymbolTableRecord
100
AcDbLayerTableRecord
  2
BEZUGSACHSEN
 70
     0
 62
     7
  6
Continuous
370
    -3
390
F
  0
LAYER
  5
45
330
2
100
AcDbSymbolTableRecord
100
AcDbLayerTableRecord
  2
DEFAULT_2
 70
     0
 62
     7
  6
Continuous
370
    -3
390
F
  0
LAYER
  5
46
330
2
100
AcDbSymbolTableRecord
100
AcDbLayerTableRecord
  2
FASEN
 70
     0
 62
     7
  6
Continuous
370
    -3
390
F
  0
LAYER
  5
47
330
2
100
AcDbSymbolTableRecord
100
AcDbLayerTableRecord
  2
RUNDUNGEN
 70
     0
 62
     7
  6
Continuous
370
    -3
390
F
  0
LAYER
  5
48
330
2
100
AcDbSymbolTableRecord
100
AcDbLayerTableRecord
  2
TEIL_STARTBEZUEGE
 70
     0
 62
     7
  6
Continuous
370
    -3
390
F
  0
ENDTAB
  0
TABLE
  2
STYLE
  5
3
330
0
100
AcDbSymbolTable
 70
     2
  0
STYLE
  5
11
330
3
100
AcDbSymbolTableRecord
100
AcDbTextStyleTableRecord
  2
Standard
 70
     0
 40
0.0
 41
1.0
 50
0.0
 71
     0
 42
0.2
  3
txt
  4

  0
STYLE
  5
6F
330
3
100
AcDbSymbolTableRecord
100
AcDbTextStyleTableRecord
  2
CONVERTER_11
 70
     0
 40
0.0
 41
0.72
 50
0.0
 71
     0
 42
0.2
  3
txt.shx
  4

  0
ENDTAB
  0
TABLE
  2
VIEW
  5
6
330
0
100
AcDbSymbolTable
 70
     0
  0
ENDTAB
  0
TABLE
  2
UCS
  5
7
330
0
100
AcDbSymbolTable
 70
     0
  0
ENDTAB
  0
TABLE
  2
APPID
  5
9
330
0
100
AcDbSymbolTable
 70
     1
  0
APPID
  5
12
330
9
100
AcDbSymbolTableRecord
100
AcDbRegAppTableRecord
  2
ACAD
 70
     0
  0
ENDTAB
  0
TABLE
  2
DIMSTYLE
  5
A
330
0
100
AcDbSymbolTable
 70
     7
100
AcDbDimStyleTable
  0
DIMSTYLE
105
27
330
A
100
AcDbSymbolTableRecord
100
AcDbDimStyleTableRecord
  2
Standard
 70
     0
340
11
  0
DIMSTYLE
105
11F
102
{ACAD_REACTORS
330
120
102
}
330
A
100
AcDbSymbolTableRecord
100
AcDbDimStyleTableRecord
  2
ME10_DIM_10
 70
     0
  3
\U+2300<>
 41
3.5
 42
2.0
 44
2.0
 71
     1
 73
     0
 74
     0
 77
     1
 78
     8
140
3.5
146
0.7
147
2.0
172
     1
173
     1
176
     2
177
     2
178
     3
271
     2
272
     0
340
6F
  0
DIMSTYLE
105
12A
102
{ACAD_REACTORS
330
12B
102
}
330
A
100
AcDbSymbolTableRecord
100
AcDbDimStyleTableRecord
  2
ME10_DIM_11
 70
     0
  3
\U+2300<>
 41
3.5
 42
2.0
 44
2.0
 71
     1
 73
     0
 74
     0
 77
     1
 78
     8
140
3.5
146
0.7
147
2.0
172
     1
173
     1
176
     2
177
     2
178
     3
271
     2
272
     0
340
6F
  0
DIMSTYLE
105
135
102
{ACAD_REACTORS
330
136
102
}
330
A
100
AcDbSymbolTableRecord
100
AcDbDimStyleTableRecord
  2
ME10_DIM_12
 70
     0
  3
<>
 41
3.5
 42
2.0
 44
2.0
 71
     1
 73
     0
 74
     0
 77
     1
 78
     8
140
3.5
146
0.7
147
2.0
172
     1
173
     1
176
     2
177
     2
178
     3
271
     0
272
     0
340
6F
  0
DIMSTYLE
105
140
102
{ACAD_REACTORS
330
141
102
}
330
A
100
AcDbSymbolTableRecord
100
AcDbDimStyleTableRecord
  2
ME10_DIM_13
 70
     0
  3
<>
 41
3.5
 42
2.0
 44
2.0
 71
     1
 73
     0
 74
     0
 77
     1
 78
     8
140
3.5
146
0.7
147
2.0
172
     1
173
     1
176
     2
177
     2
178
     3
271
     2
272
     0
340
6F
  0
DIMSTYLE
105
14B
102
{ACAD_REACTORS
330
14C
102
}
330
A
100
AcDbSymbolTableRecord
100
AcDbDimStyleTableRecord
  2
ME10_DIM_14
 70
     0
  3
<>
 41
3.5
 42
2.0
 44
2.0
 71
     1
 73
     0
 74
     0
 77
     1
 78
     8
140
3.5
146
0.7
147
2.0
172
     1
173
     1
176
     2
177
     2
178
     3
271
     0
272
     0
340
6F
  0
DIMSTYLE
105
15D
102
{ACAD_REACTORS
330
15E
102
}
330
A
100
AcDbSymbolTableRecord
100
AcDbDimStyleTableRecord
  2
ME10_DIM_15
 70
     0
  3
<>
 41
3.5
 42
2.0
 44
2.0
 71
     1
 73
     0
 74
     0
 77
     1
 78
     8
140
3.5
146
0.7
147
2.0
172
     1
173
     1
176
     2
177
     2
178
     3
271
     2
272
     0
340
6F
  0
ENDTAB
  0
TABLE
  2
BLOCK_RECORD
  5
1
330
0
100
AcDbSymbolTable
 70
     9
  0
BLOCK_RECORD
  5
1F
330
1
100
AcDbSymbolTableRecord
100
AcDbBlockTableRecord
  2
*Model_Space
340
22
  0
BLOCK_RECORD
  5
1B
330
1
100
AcDbSymbolTableRecord
100
AcDbBlockTableRecord
  2
*Paper_Space
340
1E
  0
BLOCK_RECORD
  5
23
330
1
100
AcDbSymbolTableRecord
100
AcDbBlockTableRecord
  2
*Paper_Space0
340
26
  0
BLOCK_RECORD
  5
49
330
1
100
AcDbSymbolTableRecord
100
AcDbBlockTableRecord
  2
Urheberrecht_DE-EN
340
0
102
{BLKREFS
331
6E
102
}
  0
BLOCK_RECORD
  5
116
330
1
100
AcDbSymbolTableRecord
100
AcDbBlockTableRecord
  2
*D2
340
0
  0
BLOCK_RECORD
  5
121
330
1
100
AcDbSymbolTableRecord
100
AcDbBlockTableRecord
  2
*D3
340
0
  0
BLOCK_RECORD
  5
12C
330
1
100
AcDbSymbolTableRecord
100
AcDbBlockTableRecord
  2
*D4
340
0
  0
BLOCK_RECORD
  5
137
330
1
100
AcDbSymbolTableRecord
100
AcDbBlockTableRecord
  2
*D5
340
0
  0
BLOCK_RECORD
  5
142
330
1
100
AcDbSymbolTableRecord
100
AcDbBlockTableRecord
  2
*D6
340
0
  0
BLOCK_RECORD
  5
14D
330
1
100
AcDbSymbolTableRecord
100
AcDbBlockTableRecord
  2
*D7
340
0
102
{BLKREFS
331
153
102
}
  0
BLOCK_RECORD
  5
154
330
1
100
AcDbSymbolTableRecord
100
AcDbBlockTableRecord
  2
*D8
340
0
  0
ENDTAB
  0
ENDSEC
  0
SECTION
  2
BLOCKS
  0
BLOCK
  5
20
330
1F
100
AcDbEntity
  8
0
100
AcDbBlockBegin
  2
*Model_Space
 70
     0
 10
0.0
 20
0.0
 30
0.0
  3
*Model_Space
  1

  0
ENDBLK
  5
21
330
1F
100
AcDbEntity
  8
0
100
AcDbBlockEnd
  0
BLOCK
  5
1C
330
1B
100
AcDbEntity
 67
     1
  8
0
100
AcDbBlockBegin
  2
*Paper_Space
 70
     0
 10
0.0
 20
0.0
 30
0.0
  3
*Paper_Space
  1

  0
ENDBLK
  5
1D
330
1B
100
AcDbEntity
 67
     1
  8
0
100
AcDbBlockEnd
  0
BLOCK
  5
24
330
23
100
AcDbEntity
  8
0
100
AcDbBlockBegin
  2
*Paper_Space0
 70
     0
 10
0.0
 20
0.0
 30
0.0
  3
*Paper_Space0
  1

  0
ENDBLK
  5
25
330
23
100
AcDbEntity
  8
0
100
AcDbBlockEnd
  0
BLOCK
  5
4A
330
49
100
AcDbEntity
  8
0
100
AcDbBlockBegin
  2
Urheberrecht_DE-EN
 70
     0
 10
73.1753839206979
 20
331.958100352885
 30
0.0
  3
Urheberrecht_DE-EN
  1

  0
MTEXT
  5
70
330
49
100
AcDbEntity
  8
1
 62
     1
100
AcDbMText
 10
73.1753839206979
 20
331.958100352885
 30
0.0
 40
2.0
 41
0.0
 71
     7
 72
     1
  1
We own the copyright of this document. It \Pdetermined and may neither be copied or \Pmade accessible to outsiders without our\Ppermission.
  7
CONVERTER_11
 11
0.0
 21
1.0
 31
0.0
 73
     1
 44
0.90036014405762
  0
MTEXT
  5
71
330
49
100
AcDbEntity
  8
1
 62
     1
100
AcDbMText
 10
73.1753839206979
 20
275.6687134355788
 30
0.0
 40
2.0
 41
0.0
 71
     7
 72
     1
  1
F\U+00fcr diese Unterlage behalten wir das Ur-\Pheberrecht. Sie darf nur f\U+00fcr den von uns \Pbestimmten Zweck benutzt und ohne unsere \PZustimmung weder vervielf\U+00e4ltigt noch\PDritten zug\U+00e4nglich gemacht werden.
  7
CONVERTER_11
 11
0.0
 21
1.0
 31
0.0
 73
     1
 44
0.90036014405762
  0
ENDBLK
  5
4B
330
49
100
AcDbEntity
  8
0
100
AcDbBlockEnd
  0
BLOCK
  5
11D
330
116
100
AcDbEntity
  8
0
100
AcDbBlockBegin
  2
*D2
 70
     1
 10
0.0
 20
0.0
 30
0.0
  3
*D2
  1

  0
LINE
  5
117
330
116
100
AcDbEntity
  8
1
  6
Continuous
 62
     2
100
AcDbLine
 10
189.390136648246
 20
310.2551994111
 30
0.0
 11
189.390136648246
 21
320.2551994111
 31
0.0
  0
LINE
  5
118
330
116
100
AcDbEntity
  8
1
  6
Continuous
 62
     2
100
AcDbLine
 10
179.668883833
 20
310.2551994111
 30
0.0
 11
191.390136648246
 21
310.2551994111
 31
0.0
  0
LINE
  5
119
330
116
100
AcDbEntity
  8
1
  6
Continuous
 62
     2
100
AcDbLine
 10
179.668883833
 20
320.2551994111
 30
0.0
 11
191.390136648246
 21
320.2551994111
 31
0.0
  0
SOLID
  5
11A
330
116
100
AcDbEntity
  8
1
 62
     2
100
AcDbTrace
 10
188.9293529066901
 20
313.7551994111
 30
0.0
 11
189.8509203898019
 21
313.7551994111
 31
0.0
 12
189.390136648246
 22
310.2551994111
 32
0.0
 13
189.390136648246
 23
310.2551994111
 33
0.0
  0
SOLID
  5
11B
330
116
100
AcDbEntity
  8
1
 62
     2
100
AcDbTrace
 10
189.8509203898019
 20
316.7551994111
 30
0.0
 11
188.9293529066901
 21
316.7551994111
 31
0.0
 12
189.390136648246
 22
320.2551994111
 32
0.0
 13
189.390136648246
 23
320.2551994111
 33
0.0
  0
MTEXT
  5
11C
330
116
100
AcDbEntity
  8
1
 62
     3
100
AcDbMText
 10
187.390136648246
 20
306.67132261886
 30
0.0
 40
3.5
 41
0.0
 71
     7
 72
     1
  1
\C3;%%c\C3;\C3;10\C2;\H2.45;\S^ ;\C3;
  7
CONVERTER_11
 11
0.0
 21
1.0
 31
0.0
 73
     1
 44
0.60024009603842
  0
ENDBLK
  5
11E
330
116
100
AcDbEntity
  8
0
100
AcDbBlockEnd
  0
BLOCK
  5
128
330
121
100
AcDbEntity
  8
0
100
AcDbBlockBegin
  2
*D3
 70
     1
 10
0.0
 20
0.0
 30
0.0
  3
*D3
  1

  0
LINE
  5
122
330
121
100
AcDbEntity
  8
1
  6
Continuous
 62
     2
100
AcDbLine
 10
198.419572645286
 20
327.2551994111466
 30
0.0
 11
198.419572645286
 21
303.2551994111486
 31
0.0
  0
LINE
  5
123
330
121
100
AcDbEntity
  8
1
  6
Continuous
 62
     2
100
AcDbLine
 10
179.6688838329949
 20
327.2551994111466
 30
0.0
 11
200.419572645286
 21
327.2551994111466
 31
0.0
  0
LINE
  5
124
330
121
100
AcDbEntity
  8
1
  6
Continuous
 62
     2
100
AcDbLine
 10
179.668883833
 20
303.2551994111486
 30
0.0
 11
200.419572645286
 21
303.2551994111486
 31
0.0
  0
SOLID
  5
125
330
121
100
AcDbEntity
  8
1
 62
     2
100
AcDbTrace
 10
198.8803563868419
 20
323.7551994111466
 30
0.0
 11
197.9587889037301
 21
323.7551994111466
 31
0.0
 12
198.419572645286
 22
327.2551994111466
 32
0.0
 13
198.419572645286
 23
327.2551994111466
 33
0.0
  0
SOLID
  5
126
330
121
100
AcDbEntity
  8
1
 62
     2
100
AcDbTrace
 10
197.9587889037301
 20
306.7551994111486
 30
0.0
 11
198.8803563868419
 21
306.7551994111486
 31
0.0
 12
198.419572645286
 22
303.2551994111486
 32
0.0
 13
198.419572645286
 23
303.2551994111486
 33
0.0
  0
MTEXT
  5
127
330
121
100
AcDbEntity
  8
1
 62
     3
100
AcDbMText
 10
196.419572645286
 20
306.322420540097
 30
0.0
 40
3.5
 41
0.0
 71
     7
 72
     1
  1
\C3;%%c\C3;\C3;24\C2;\H2.45;\S^ ;\C3;
  7
CONVERTER_11
 11
0.0
 21
1.0
 31
0.0
 73
     1
 44
0.60024009603842
  0
ENDBLK
  5
129
330
121
100
AcDbEntity
  8
0
100
AcDbBlockEnd
  0
BLOCK
  5
133
330
12C
100
AcDbEntity
  8
0
100
AcDbBlockBegin
  2
*D4
 70
     1
 10
0.0
 20
0.0
 30
0.0
  3
*D4
  1

  0
LINE
  5
12D
330
12C
100
AcDbEntity
  8
1
  6
Continuous
 62
     2
100
AcDbLine
 10
177.668883833
 20
345.804017044099
 30
0.0
 11
117.618883833
 21
345.804017044099
 31
0.0
  0
LINE
  5
12E
330
12C
100
AcDbEntity
  8
1
  6
Continuous
 62
     2
100
AcDbLine
 10
177.668883833
 20
328.3308089195
 30
0.0
 11
177.668883833
 21
347.804017044099
 31
0.0
  0
LINE
  5
12F
330
12C
100
AcDbEntity
  8
1
  6
Continuous
 62
     2
100
AcDbLine
 10
117.618883833
 20
333.255135776
 30
0.0
 11
117.618883833
 21
347.804017044099
 31
0.0
  0
SOLID
  5
130
330
12C
100
AcDbEntity
  8
1
 62
     2
100
AcDbTrace
 10
174.168883833
 20
345.3432333025431
 30
0.0
 11
174.168883833
 21
346.2648007856549
 31
0.0
 12
177.668883833
 22
345.804017044099
 32
0.0
 13
177.668883833
 23
345.804017044099
 33
0.0
  0
SOLID
  5
131
330
12C
100
AcDbEntity
  8
1
 62
     2
100
AcDbTrace
 10
121.118883833
 20
346.2648007856549
 30
0.0
 11
121.118883833
 21
345.3432333025431
 31
0.0
 12
117.618883833
 22
345.804017044099
 32
0.0
 13
117.618883833
 23
345.804017044099
 33
0.0
  0
MTEXT
  5
132
330
12C
100
AcDbEntity
  8
1
 62
     3
100
AcDbMText
 10
146.524569976262
 20
347.804017044099
 30
0.0
 40
3.5
 41
0.0
 71
     7
 72
     1
  1
\C3;\C3;\C3;60\C2;\H2.45;\S^ ;\C3;
  7
CONVERTER_11
 11
0.9999999999970619
 21
2.424068405545306E-6
 31
0.0
 73
     1
 44
0.60024009603842
  0
ENDBLK
  5
134
330
12C
100
AcDbEntity
  8
0
100
AcDbBlockEnd
  0
BLOCK
  5
13E
330
137
100
AcDbEntity
  8
0
100
AcDbBlockBegin
  2
*D5
 70
     1
 10
0.0
 20
0.0
 30
0.0
  3
*D5
  1

  0
LINE
  5
138
330
137
100
AcDbEntity
  8
1
  6
Continuous
 62
     2
100
AcDbLine
 10
177.668883833
 20
354.508720727066
 30
0.0
 11
97.668883833
 21
354.508720727066
 31
0.0
  0
LINE
  5
139
330
137
100
AcDbEntity
  8
1
  6
Continuous
 62
     2
100
AcDbLine
 10
177.668883833
 20
328.3308089195
 30
0.0
 11
177.668883833
 21
356.508720727066
 31
0.0
  0
LINE
  5
13A
330
137
100
AcDbEntity
  8
1
  6
Continuous
 62
     2
100
AcDbLine
 10
97.668883833
 20
333.2551994111
 30
0.0
 11
97.668883833
 21
356.508720727066
 31
0.0
  0
SOLID
  5
13B
330
137
100
AcDbEntity
  8
1
 62
     2
100
AcDbTrace
 10
174.168883833
 20
354.0479369855101
 30
0.0
 11
174.168883833
 21
354.9695044686219
 31
0.0
 12
177.668883833
 22
354.508720727066
 32
0.0
 13
177.668883833
 23
354.508720727066
 33
0.0
  0
SOLID
  5
13C
330
137
100
AcDbEntity
  8
1
 62
     2
100
AcDbTrace
 10
101.168883833
 20
354.9695044686219
 30
0.0
 11
101.168883833
 21
354.0479369855101
 31
0.0
 12
97.668883833
 22
354.508720727066
 32
0.0
 13
97.668883833
 23
354.508720727066
 33
0.0
  0
MTEXT
  5
13D
330
137
100
AcDbEntity
  8
1
 62
     3
100
AcDbMText
 10
136.931631223603
 20
356.508720727066
 30
0.0
 40
3.5
 41
0.0
 71
     7
 72
     1
  1
\C3;\C3;\C3;80\C2;\H2.45;\S^ ;\C3;
  7
CONVERTER_11
 11
0.9999999999970619
 21
2.424068405545306E-6
 31
0.0
 73
     1
 44
0.60024009603842
  0
ENDBLK
  5
13F
330
137
100
AcDbEntity
  8
0
100
AcDbBlockEnd
  0
BLOCK
  5
149
330
142
100
AcDbEntity
  8
0
100
AcDbBlockBegin
  2
*D6
 70
     1
 10
0.0
 20
0.0
 30
0.0
  3
*D6
  1

  0
LINE
  5
143
330
142
100
AcDbEntity
  8
1
  6
Continuous
 62
     2
100
AcDbLine
 10
177.668883833
 20
362.59165986125
 30
0.0
 11
81.768883833
 21
362.59165986125
 31
0.0
  0
LINE
  5
144
330
142
100
AcDbEntity
  8
1
  6
Continuous
 62
     2
100
AcDbLine
 10
177.668883833
 20
328.3308089195
 30
0.0
 11
177.668883833
 21
364.59165986125
 31
0.0
  0
LINE
  5
145
330
142
100
AcDbEntity
  8
1
  6
Continuous
 62
     2
100
AcDbLine
 10
81.768883833
 20
328.0517036459
 30
0.0
 11
81.768883833
 21
364.59165986125
 31
0.0
  0
SOLID
  5
146
330
142
100
AcDbEntity
  8
1
 62
     2
100
AcDbTrace
 10
174.168883833
 20
362.1308761196941
 30
0.0
 11
174.168883833
 21
363.0524436028059
 31
0.0
 12
177.668883833
 22
362.59165986125
 32
0.0
 13
177.668883833
 23
362.59165986125
 33
0.0
  0
SOLID
  5
147
330
142
100
AcDbEntity
  8
1
 62
     2
100
AcDbTrace
 10
85.268883833
 20
363.0524436028059
 30
0.0
 11
85.268883833
 21
362.1308761196941
 31
0.0
 12
81.768883833
 22
362.59165986125
 32
0.0
 13
81.768883833
 23
362.59165986125
 33
0.0
  0
MTEXT
  5
148
330
142
100
AcDbEntity
  8
1
 62
     3
100
AcDbMText
 10
131.335750284553
 20
364.59165986125
 30
0.0
 40
3.5
 41
0.0
 71
     7
 72
     1
  1
\C3;\C3;\C3;96\C2;\H2.45;\S^ ;\C3;
  7
CONVERTER_11
 11
0.9999999999970619
 21
2.424068405545306E-6
 31
0.0
 73
     1
 44
0.60024009603842
  0
ENDBLK
  5
14A
330
142
100
AcDbEntity
  8
0
100
AcDbBlockEnd
  0
BLOCK
  5
151
330
14D
100
AcDbEntity
  8
0
100
AcDbBlockBegin
  2
*D7
 70
     1
 10
0.0
 20
0.0
 30
0.0
  3
*D7
  1

  0
LINE
  5
14E
330
14D
100
AcDbEntity
  8
1
  6
Continuous
 62
     2
100
AcDbLine
 10
127.409878728897
 20
334.651712800917
 30
0.0
 11
117.8102817656931
 21
327.6668434841757
 31
0.0
  0
SOLID
  5
14F
330
14D
100
AcDbEntity
  8
1
 62
     2
100
AcDbTrace
 10
120.3692841558926
 20
330.0986799144142
 30
0.0
 11
120.9114938466421
 21
329.3534985424072
 31
0.0
 12
117.8102817656931
 22
327.6668434841757
 32
0.0
 13
117.8102817656931
 23
327.6668434841757
 33
0.0
  0
MTEXT
  5
150
330
14D
100
AcDbEntity
  8
1
 62
     3
100
AcDbMText
 10
120.9125652721688
 20
332.3975349363688
 30
0.0
 40
3.5
 41
0.0
 71
     7
 72
     1
  1
\C3; R\C3;\C3;1\C2;\H2.45;\S^ ;\C3;
  7
CONVERTER_11
 11
0.8086020673069211
 21
0.588355926924318
 31
0.0
 73
     1
 44
0.60024009603842
  0
ENDBLK
  5
152
330
14D
100
AcDbEntity
  8
0
100
AcDbBlockEnd
  0
BLOCK
  5
15B
330
154
100
AcDbEntity
  8
0
100
AcDbBlockBegin
  2
*D8
 70
     1
 10
0.0
 20
0.0
 30
0.0
  3
*D8
  1

  0
LINE
  5
155
330
154
100
AcDbEntity
  8
1
  6
Continuous
 62
     2
100
AcDbLine
 10
164.2725841422428
 20
330.6764838786
 30
0.0
 11
166.2725841422428
 21
330.6764838786
 31
0.0
  0
LINE
  5
156
330
154
100
AcDbEntity
  8
1
  6
Continuous
 62
     2
100
AcDbLine
 10
136.2973429287
 20
330.6764838786
 30
0.0
 11
164.2725841422428
 21
330.6764838786
 31
0.0
  0
ARC
  5
157
330
154
100
AcDbEntity
  8
1
  6
Continuous
 62
     2
100
AcDbCircle
 10
134.1973429287
 20
330.6764838786
 30
0.0
 40
30.07524121354278
100
AcDbArc
 50
345.4983231952024
 51
18.1010190931344
  0
SOLID
  5
158
330
154
100
AcDbEntity
  8
1
 62
     2
100
AcDbTrace
 10
164.1593000101007
 20
324.7866662297682
 30
0.0
 11
163.2463331595881
 21
324.9122773590283
 31
0.0
 12
164.1798722106851
 22
328.3168076491799
 32
0.0
 13
164.1798722106851
 23
328.3168076491799
 33
0.0
  0
SOLID
  5
159
330
154
100
AcDbEntity
  8
1
 62
     2
100
AcDbTrace
 10
163.6090392484319
 20
334.1437637678474
 30
0.0
 11
164.5290470624468
 21
334.1973571263956
 31
0.0
 12
164.2725841422428
 22
330.6764838786
 32
0.0
 13
164.2725841422428
 23
330.6764838786
 33
0.0
  0
MTEXT
  5
15A
330
154
100
AcDbEntity
  8
1
 62
     3
100
AcDbMText
 10
164.8697833141818
 20
340.7023865664389
 30
0.0
 40
3.5
 41
0.0
 71
     7
 72
     1
  1
\C3;\C3;\C3;4.5%%d\C2;\H2.45;\S^ ;\C3;
  7
CONVERTER_11
 11
0.2046985730857866
 21
-0.9788250580040557
 31
0.0
 73
     1
 44
0.60024009603842
  0
ENDBLK
  5
15C
330
154
100
AcDbEntity
  8
0
100
AcDbBlockEnd
  0
ENDSEC
  0
SECTION
  2
ENTITIES
  0
INSERT
  5
6E
330
1F
100
AcDbEntity
  8
0
100
AcDbBlockReference
  2
Urheberrecht_DE-EN
 10
73.1753839206979
 20
331.958100352885
 30
0.0
  0
LINE
  5
72
330
1F
100
AcDbEntity
  8
0
  6
Continuous
 62
     7
100
AcDbLine
 10
81.768883833
 20
304.4600956776
 30
0.0
 11
81.768883833
 21
310.7801994111
 31
0.0
  0
LINE
  5
73
330
1F
100
AcDbEntity
  8
0
  6
Continuous
 62
     7
100
AcDbLine
 10
81.768883833
 20
319.7301994111
 30
0.0
 11
81.768883833
 21
326.0517036459
 31
0.0
  0
LINE
  5
74
330
1F
100
AcDbEntity
  8
0
  6
Continuous
 62
     9
100
AcDbLine
 10
82.3388598499
 20
326.6509519766
 30
0.0
 11
82.3388598499
 21
320.3910414107
 31
0.0
  0
LINE
  5
75
330
1F
100
AcDbEntity
  8
0
  6
Continuous
 62
     9
100
AcDbLine
 10
82.3388598499
 20
310.1193574115
 30
0.0
 11
82.3388598499
 21
303.8594468456
 31
0.0
  0
LINE
  5
76
330
1F
100
AcDbEntity
  8
0
  6
Continuous
 62
     7
100
AcDbLine
 10
82.718883833
 20
311.1127451123
 30
0.0
 11
82.718883833
 21
311.7301994111
 31
0.0
  0
LINE
  5
77
330
1F
100
AcDbEntity
  8
0
  6
Continuous
 62
     7
100
AcDbLine
 10
82.718883833
 20
318.7801994111
 30
0.0
 11
82.718883833
 21
319.39765371
 31
0.0
  0
LINE
  5
78
330
1F
100
AcDbEntity
  8
RUNDUNGEN
  6
Continuous
 62
     9
100
AcDbLine
 10
83.968883833
 20
309.9929567184
 30
0.0
 11
83.968883833
 21
311.7301994111
 31
0.0
  0
LINE
  5
79
330
1F
100
AcDbEntity
  8
RUNDUNGEN
  6
Continuous
 62
     9
100
AcDbLine
 10
83.968883833
 20
318.7801994111
 30
0.0
 11
83.968883833
 21
320.5174421038
 31
0.0
  0
LINE
  5
7A
330
1F
100
AcDbEntity
  8
RUNDUNGEN
  6
Continuous
 62
     7
100
AcDbLine
 10
84.868883833
 20
319.127083382
 30
0.0
 11
84.868883833
 21
311.3833154402
 31
0.0
  0
LWPOLYLINE
  5
7B
330
1F
100
AcDbEntity
  8
BEZUGSACHSEN
  6
DOT_CENTER
 62
     7
100
AcDbPolyline
 90
        2
 70
     0
 43
0.25
 10
92.668883833
 20
310.2551994111
 10
92.668883833
 20
320.2551994111
  0
LINE
  5
7C
330
1F
100
AcDbEntity
  8
0
  6
Continuous
 62
     7
100
AcDbLine
 10
82.4890681893
 20
310.3501994111
 30
0.0
 11
82.3883829854
 21
310.1679866189
 31
0.0
  0
LINE
  5
7D
330
1F
100
AcDbEntity
  8
0
  6
Continuous
 62
     7
100
AcDbLine
 10
82.3883829854
 20
320.3424122034
 30
0.0
 11
82.4890681893
 21
320.1601994111
 31
0.0
  0
LINE
  5
7E
330
1F
100
AcDbEntity
  8
0
  6
Continuous
 62
     7
100
AcDbLine
 10
96.668883833
 20
327.3689254385
 30
0.0
 11
96.668883833
 21
303.1414733837
 31
0.0
  0
LINE
  5
7F
330
1F
100
AcDbEntity
  8
0
  6
Continuous
 62
     9
100
AcDbLine
 10
96.9912222947
 20
303.2278437143
 30
0.0
 11
96.9912222947
 21
327.282555108
 31
0.0
  0
LINE
  5
80
330
1F
100
AcDbEntity
  8
0
  6
Continuous
 62
     9
100
AcDbLine
 10
97.0947499128
 20
303.2414733837
 30
0.0
 11
97.0947499128
 21
327.2689254385
 31
0.0
  0
LINE
  5
81
330
1F
100
AcDbEntity
  8
0
  6
Continuous
 62
     9
100
AcDbLine
 10
97.5147066697
 20
303.2414733837
 30
0.0
 11
97.5147066697
 21
327.2689254385
 31
0.0
  0
LINE
  5
82
330
1F
100
AcDbEntity
  8
0
  6
Continuous
 62
     7
100
AcDbLine
 10
97.668883833
 20
331.2551994111
 30
0.0
 11
97.668883833
 21
299.2551994111
 31
0.0
  0
LINE
  5
83
330
1F
100
AcDbEntity
  8
0
  6
Continuous
 62
     7
100
AcDbLine
 10
81.768883833
 20
310.7801994111
 30
0.0
 11
82.718883833
 21
311.7301994111
 31
0.0
  0
LINE
  5
84
330
1F
100
AcDbEntity
  8
0
  6
Continuous
 62
     7
100
AcDbLine
 10
82.718883833
 20
318.7801994111
 30
0.0
 11
81.768883833
 21
319.7301994111
 31
0.0
  0
LWPOLYLINE
  5
85
330
1F
100
AcDbEntity
  8
BEZUGSACHSEN
  6
DOT_CENTER
 62
     7
100
AcDbPolyline
 90
        2
 70
     0
 43
0.25
 10
104.668883833
 20
336.8538835647
 10
104.668883833
 20
322.8538835647
  0
LINE
  5
86
330
1F
100
AcDbEntity
  8
FASEN
  6
Continuous
 62
     9
100
AcDbLine
 10
109.118798828
 20
305.5051994111
 30
0.0
 11
109.118798828
 21
305.9051994111
 31
0.0
  0
LINE
  5
87
330
1F
100
AcDbEntity
  8
FASEN
  6
Continuous
 62
     9
100
AcDbLine
 10
109.133383833
 20
312.1406994111
 30
0.0
 11
109.133383833
 21
311.7406994111
 31
0.0
  0
LINE
  5
88
330
1F
100
AcDbEntity
  8
FASEN
  6
Continuous
 62
     9
100
AcDbLine
 10
109.133383833
 20
318.3696994111
 30
0.0
 11
109.133383833
 21
318.7696994111
 31
0.0
  0
LINE
  5
89
330
1F
100
AcDbEntity
  8
0
  6
Continuous
 62
     7
100
AcDbLine
 10
114.706383833
 20
329.527202124
 30
0.0
 11
115.7040435319
 21
331.2551994111
 31
0.0
  0
LINE
  5
8A
330
1F
100
AcDbEntity
  8
0
  6
Continuous
 62
     7
100
AcDbLine
 10
114.706383833
 20
300.9831966983
 30
0.0
 11
115.7040435319
 21
299.2551994111
 31
0.0
  0
LINE
  5
8B
330
1F
100
AcDbEntity
  8
0
  6
Continuous
 62
     7
100
AcDbLine
 10
111.6337241341
 20
331.2551994111
 30
0.0
 11
111.6337241341
 21
318.7696994111
 31
0.0
  0
LINE
  5
8C
330
1F
100
AcDbEntity
  8
0
  6
Continuous
 62
     7
100
AcDbLine
 10
111.6337241341
 20
311.7406994111
 30
0.0
 11
111.6337241341
 21
305.9051994111
 31
0.0
  0
LINE
  5
8D
330
1F
100
AcDbEntity
  8
0
  6
Continuous
 62
     7
100
AcDbLine
 10
111.6337241341
 20
302.2714595801
 30
0.0
 11
111.6337241341
 21
299.2551994111
 31
0.0
  0
LINE
  5
8E
330
1F
100
AcDbEntity
  8
0
  6
Continuous
 62
     7
100
AcDbLine
 10
112.631383833
 20
329.5271474571
 30
0.0
 11
112.631383833
 21
318.5385615641
 31
0.0
  0
LINE
  5
8F
330
1F
100
AcDbEntity
  8
0
  6
Continuous
 62
     7
100
AcDbLine
 10
112.631383833
 20
300.9832942087
 30
0.0
 11
112.631383833
 21
311.9718372582
 31
0.0
  0
LINE
  5
90
330
1F
100
AcDbEntity
  8
0
  6
Continuous
 62
     9
100
AcDbLine
 10
112.881383833
 20
302.0301994111
 30
0.0
 11
112.881383833
 21
312.3413317065
 31
0.0
  0
LINE
  5
91
330
1F
100
AcDbEntity
  8
0
  6
Continuous
 62
     9
100
AcDbLine
 10
112.881383833
 20
318.1690671158
 30
0.0
 11
112.881383833
 21
328.4801994111
 31
0.0
  0
LINE
  5
92
330
1F
100
AcDbEntity
  8
0
  6
Continuous
 62
     9
100
AcDbLine
 10
81.768883833
 20
310.5878042311
 30
0.0
 11
82.718883833
 21
311.1127451123
 31
0.0
  0
LINE
  5
93
330
1F
100
AcDbEntity
  8
0
  6
Continuous
 62
     9
100
AcDbLine
 10
82.718883833
 20
319.39765371
 30
0.0
 11
81.768883833
 21
319.9225945912
 31
0.0
  0
LINE
  5
94
330
1F
100
AcDbEntity
  8
0
  6
Continuous
 62
     9
100
AcDbLine
 10
114.456383833
 20
302.0301994111
 30
0.0
 11
114.456383833
 21
312.3413317065
 31
0.0
  0
LINE
  5
95
330
1F
100
AcDbEntity
  8
0
  6
Continuous
 62
     9
100
AcDbLine
 10
114.456383833
 20
318.1690671158
 30
0.0
 11
114.456383833
 21
328.4801994111
 31
0.0
  0
LINE
  5
96
330
1F
100
AcDbEntity
  8
0
  6
Continuous
 62
     7
100
AcDbLine
 10
114.706383833
 20
300.9832942087
 30
0.0
 11
114.706383833
 21
311.9718372582
 31
0.0
  0
LINE
  5
97
330
1F
100
AcDbEntity
  8
0
  6
Continuous
 62
     7
100
AcDbLine
 10
114.706383833
 20
318.5385615641
 30
0.0
 11
114.706383833
 21
329.5271474571
 31
0.0
  0
LINE
  5
98
330
1F
100
AcDbEntity
  8
0
  6
Continuous
 62
     7
100
AcDbLine
 10
115.7040435319
 20
311.7406994111
 30
0.0
 11
115.7040435319
 21
305.9051994111
 31
0.0
  0
LINE
  5
99
330
1F
100
AcDbEntity
  8
0
  6
Continuous
 62
     7
100
AcDbLine
 10
115.7040435319
 20
299.2551994111
 30
0.0
 11
115.7040435319
 21
302.2714595801
 31
0.0
  0
LINE
  5
9A
330
1F
100
AcDbEntity
  8
0
  6
Continuous
 62
     7
100
AcDbLine
 10
115.7040435319
 20
318.7696994111
 30
0.0
 11
115.7040435319
 21
331.2551994111
 31
0.0
  0
LINE
  5
9B
330
1F
100
AcDbEntity
  8
0
  6
Continuous
 62
     7
100
AcDbLine
 10
134.1973429287
 20
299.8339149437
 30
0.0
 11
176.7473429287
 21
303.1826725691
 31
0.0
  0
LINE
  5
9C
330
1F
100
AcDbEntity
  8
0
  6
Continuous
 62
     7
100
AcDbLine
 10
111.6337241341
 20
299.2551994111
 30
0.0
 11
97.668883833
 21
299.2551994111
 31
0.0
  0
LINE
  5
9D
330
1F
100
AcDbEntity
  8
0
  6
Continuous
 62
     7
100
AcDbLine
 10
115.7040435319
 20
299.2551994111
 30
0.0
 11
117.618883833
 21
299.2551994111
 31
0.0
  0
LINE
  5
9E
330
1F
100
AcDbEntity
  8
0
  6
Continuous
 62
     7
100
AcDbLine
 10
112.881383833
 20
302.0301994111
 30
0.0
 11
114.456383833
 21
302.0301994111
 31
0.0
  0
LINE
  5
9F
330
1F
100
AcDbEntity
  8
0
  6
Continuous
 62
     7
100
AcDbLine
 10
96.668883833
 20
303.1414733837
 30
0.0
 11
82.3388598499
 21
303.8594468456
 31
0.0
  0
LINE
  5
A0
330
1F
100
AcDbEntity
  8
0
  6
Continuous
 62
     7
100
AcDbLine
 10
117.618883833
 20
331.255135776
 30
0.0
 11
117.618883833
 21
318.7696994111
 31
0.0
  0
LINE
  5
A1
330
1F
100
AcDbEntity
  8
FASEN
  6
Continuous
 62
     7
100
AcDbLine
 10
117.618883833
 20
318.7696994111
 30
0.0
 11
117.618883833
 21
318.3696994111
 31
0.0
  0
LINE
  5
A2
330
1F
100
AcDbEntity
  8
FASEN
  6
Continuous
 62
     7
100
AcDbLine
 10
117.618883833
 20
312.1406994111
 30
0.0
 11
117.618883833
 21
311.7406994111
 31
0.0
  0
LINE
  5
A3
330
1F
100
AcDbEntity
  8
0
  6
Continuous
 62
     7
100
AcDbLine
 10
117.618883833
 20
311.7406994111
 30
0.0
 11
117.618883833
 21
305.9051994111
 31
0.0
  0
LINE
  5
A4
330
1F
100
AcDbEntity
  8
0
  6
Continuous
 62
     7
100
AcDbLine
 10
117.618883833
 20
302.2714595801
 30
0.0
 11
117.618883833
 21
299.2552078808
 31
0.0
  0
LINE
  5
A5
330
1F
100
AcDbEntity
  8
FASEN
  6
Continuous
 62
     7
100
AcDbLine
 10
117.618883833
 20
302.2714595801
 30
0.0
 11
117.618883833
 21
305.9051994111
 31
0.0
  0
LINE
  5
A6
330
1F
100
AcDbEntity
  8
RUNDUNGEN
  6
Continuous
 62
     7
100
AcDbLine
 10
117.618883833
 20
312.1406994111
 30
0.0
 11
117.618883833
 21
313.6461185189
 31
0.0
  0
LINE
  5
A7
330
1F
100
AcDbEntity
  8
RUNDUNGEN
  6
Continuous
 62
     7
100
AcDbLine
 10
117.618883833
 20
316.8643839086
 30
0.0
 11
117.618883833
 21
318.3696994111
 31
0.0
  0
LINE
  5
A8
330
1F
100
AcDbEntity
  8
RUNDUNGEN
  6
Continuous
 62
     9
100
AcDbLine
 10
118.618883833
 20
327.2551994111
 30
0.0
 11
118.618883833
 21
303.2551994111
 31
0.0
  0
LINE
  5
A9
330
1F
100
AcDbEntity
  8
0
  6
Continuous
 62
     7
100
AcDbLine
 10
106.0216850655
 20
302.2714595801
 30
0.0
 11
111.6337241341
 21
302.2714595801
 31
0.0
  0
LINE
  5
AA
330
1F
100
AcDbEntity
  8
0
  6
Continuous
 62
     7
100
AcDbLine
 10
115.7040435319
 20
302.2714595801
 30
0.0
 11
117.618883833
 21
302.2714595801
 31
0.0
  0
LINE
  5
AB
330
1F
100
AcDbEntity
  8
0
  6
Continuous
 62
     7
100
AcDbLine
 10
97.5147066697
 20
303.2414733837
 30
0.0
 11
97.0947499128
 21
303.2414733837
 31
0.0
  0
LINE
  5
AC
330
1F
100
AcDbEntity
  8
0
  6
Continuous
 62
     7
100
AcDbLine
 10
118.618883833
 20
303.2551994111
 30
0.0
 11
132.118883833
 21
303.2551994111
 31
0.0
  0
LINE
  5
AD
330
1F
100
AcDbEntity
  8
0
  6
Continuous
 62
     7
100
AcDbLine
 10
111.6337241341
 20
299.2551994111
 30
0.0
 11
112.631383833
 21
300.9831966983
 31
0.0
  0
LINE
  5
AE
330
1F
100
AcDbEntity
  8
0
  6
Continuous
 62
     7
100
AcDbLine
 10
96.9912222947
 20
303.2278437143
 30
0.0
 11
97.0947499128
 21
303.2414733837
 31
0.0
  0
LINE
  5
AF
330
1F
100
AcDbEntity
  8
0
  6
Continuous
 62
     7
100
AcDbLine
 10
109.118798828
 20
305.5051994111
 30
0.0
 11
112.631383833
 21
305.5051994111
 31
0.0
  0
LINE
  5
B0
330
1F
100
AcDbEntity
  8
0
  6
Continuous
 62
     7
100
AcDbLine
 10
114.706383833
 20
305.5051994111
 30
0.0
 11
117.618883833
 21
305.5051994111
 31
0.0
  0
LINE
  5
B1
330
1F
100
AcDbEntity
  8
0
  6
Continuous
 62
     7
100
AcDbLine
 10
109.118798828
 20
305.9051994111
 30
0.0
 11
112.631383833
 21
305.9051994111
 31
0.0
  0
LINE
  5
B2
330
1F
100
AcDbEntity
  8
0
  6
Continuous
 62
     7
100
AcDbLine
 10
114.706383833
 20
305.9051994111
 30
0.0
 11
117.618883833
 21
305.9051994111
 31
0.0
  0
LINE
  5
B3
330
1F
100
AcDbEntity
  8
0
  6
Continuous
 62
     7
100
AcDbLine
 10
111.6337241341
 20
331.2551994111
 30
0.0
 11
112.631383833
 21
329.527202124
 31
0.0
  0
LINE
  5
B4
330
1F
100
AcDbEntity
  8
0
  6
Continuous
 62
     7
100
AcDbLine
 10
96.9912222947
 20
303.2278437143
 30
0.0
 11
96.668883833
 21
303.1414733837
 31
0.0
  0
LINE
  5
B5
330
1F
100
AcDbEntity
  8
DEFAULT_2
  6
HIDDEN
 62
     8
100
AcDbLine
 10
177.668883833
 20
310.2551994111
 30
0.0
 11
135.668883833
 21
310.2551994111
 31
0.0
  0
LINE
  5
B6
330
1F
100
AcDbEntity
  8
RUNDUNGEN
  6
Continuous
 62
     9
100
AcDbLine
 10
84.544844943
 20
310.3501994111
 30
0.0
 11
83.968883833
 21
310.3501994111
 31
0.0
  0
LINE
  5
B7
330
1F
100
AcDbEntity
  8
0
  6
Continuous
 62
     9
100
AcDbLine
 10
83.968883833
 20
310.3501994111
 30
0.0
 11
82.4890681893
 21
310.3501994111
 31
0.0
  0
LINE
  5
B8
330
1F
100
AcDbEntity
  8
0
  6
Continuous
 62
     7
100
AcDbLine
 10
83.968883833
 20
311.7301994111
 30
0.0
 11
82.718883833
 21
311.7301994111
 31
0.0
  0
LINE
  5
B9
330
1F
100
AcDbEntity
  8
0
  6
Continuous
 62
     7
100
AcDbLine
 10
109.133383833
 20
311.7406994111
 30
0.0
 11
112.631383833
 21
311.7406994111
 31
0.0
  0
LINE
  5
BA
330
1F
100
AcDbEntity
  8
0
  6
Continuous
 62
     7
100
AcDbLine
 10
114.706383833
 20
311.7406994111
 30
0.0
 11
117.618883833
 21
311.7406994111
 31
0.0
  0
LINE
  5
BB
330
1F
100
AcDbEntity
  8
0
  6
Continuous
 62
     7
100
AcDbLine
 10
117.618883833
 20
312.1406994111
 30
0.0
 11
114.600399261
 21
312.1406994111
 31
0.0
  0
LINE
  5
BC
330
1F
100
AcDbEntity
  8
0
  6
Continuous
 62
     7
100
AcDbLine
 10
112.737368405
 20
312.1406994111
 30
0.0
 11
109.133383833
 21
312.1406994111
 31
0.0
  0
LINE
  5
BD
330
1F
100
AcDbEntity
  8
0
  6
Continuous
 62
     7
100
AcDbLine
 10
112.881383833
 20
312.3413317065
 30
0.0
 11
114.456383833
 21
312.3413317065
 31
0.0
  0
LWPOLYLINE
  5
BE
330
1F
100
AcDbEntity
  8
TEIL_STARTBEZUEGE
  6
DOT_CENTER
 62
     7
100
AcDbPolyline
 90
        2
 70
     0
 43
0.25
 10
180.668883833
 20
315.2551994111
 10
78.768883833
 20
315.2551994111
  0
LINE
  5
BF
330
1F
100
AcDbEntity
  8
RUNDUNGEN
  6
Continuous
 62
     9
100
AcDbLine
 10
132.118883833
 20
327.2551994111
 30
0.0
 11
132.118883833
 21
303.2551994111
 31
0.0
  0
LINE
  5
C0
330
1F
100
AcDbEntity
  8
RUNDUNGEN
  6
Continuous
 62
     7
100
AcDbLine
 10
133.118883833
 20
300.8308322774
 30
0.0
 11
133.118883833
 21
329.6795665449
 31
0.0
  0
LINE
  5
C1
330
1F
100
AcDbEntity
  8
0
  6
Continuous
 62
     7
100
AcDbLine
 10
114.456383833
 20
318.1690671158
 30
0.0
 11
112.881383833
 21
318.1690671158
 31
0.0
  0
LINE
  5
C2
330
1F
100
AcDbEntity
  8
0
  6
Continuous
 62
     7
100
AcDbLine
 10
109.133383833
 20
318.3696994111
 30
0.0
 11
112.737368405
 21
318.3696994111
 31
0.0
  0
LINE
  5
C3
330
1F
100
AcDbEntity
  8
0
  6
Continuous
 62
     7
100
AcDbLine
 10
114.600399261
 20
318.3696994111
 30
0.0
 11
117.618883833
 21
318.3696994111
 31
0.0
  0
LINE
  5
C4
330
1F
100
AcDbEntity
  8
0
  6
Continuous
 62
     7
100
AcDbLine
 10
109.133383833
 20
318.7696994111
 30
0.0
 11
112.631383833
 21
318.7696994111
 31
0.0
  0
LINE
  5
C5
330
1F
100
AcDbEntity
  8
0
  6
Continuous
 62
     7
100
AcDbLine
 10
114.706383833
 20
318.7696994111
 30
0.0
 11
117.618883833
 21
318.7696994111
 31
0.0
  0
LINE
  5
C6
330
1F
100
AcDbEntity
  8
0
  6
Continuous
 62
     7
100
AcDbLine
 10
83.968883833
 20
318.7801994111
 30
0.0
 11
82.718883833
 21
318.7801994111
 31
0.0
  0
LINE
  5
C7
330
1F
100
AcDbEntity
  8
0
  6
Continuous
 62
     7
100
AcDbLine
 10
96.9912222947
 20
327.282555108
 30
0.0
 11
96.668883833
 21
327.3689254385
 31
0.0
  0
LINE
  5
C8
330
1F
100
AcDbEntity
  8
RUNDUNGEN
  6
Continuous
 62
     9
100
AcDbLine
 10
134.1973429287
 20
299.8339149437
 30
0.0
 11
134.1973429287
 21
330.6764838786
 31
0.0
  0
LINE
  5
C9
330
1F
100
AcDbEntity
  8
DEFAULT_2
  6
HIDDEN
 62
     8
100
AcDbLine
 10
135.668883833
 20
320.2551994111
 30
0.0
 11
135.668883833
 21
310.2551994111
 31
0.0
  0
LINE
  5
CA
330
1F
100
AcDbEntity
  8
0
  6
Continuous
 62
     9
100
AcDbLine
 10
83.968883833
 20
320.1601994111
 30
0.0
 11
82.4890681893
 21
320.1601994111
 31
0.0
  0
LINE
  5
CB
330
1F
100
AcDbEntity
  8
RUNDUNGEN
  6
Continuous
 62
     9
100
AcDbLine
 10
83.968883833
 20
320.1601994111
 30
0.0
 11
84.544844943
 21
320.1601994111
 31
0.0
  0
LINE
  5
CC
330
1F
100
AcDbEntity
  8
DEFAULT_2
  6
HIDDEN
 62
     8
100
AcDbLine
 10
177.668883833
 20
320.2551994111
 30
0.0
 11
135.668883833
 21
320.2551994111
 31
0.0
  0
LINE
  5
CD
330
1F
100
AcDbEntity
  8
0
  6
Continuous
 62
     7
100
AcDbLine
 10
96.9912222947
 20
327.282555108
 30
0.0
 11
97.0947499128
 21
327.2689254385
 31
0.0
  0
LINE
  5
CE
330
1F
100
AcDbEntity
  8
0
  6
Continuous
 62
     7
100
AcDbLine
 10
96.668883833
 20
327.3689254385
 30
0.0
 11
82.3388598499
 21
326.6509519766
 31
0.0
  0
LINE
  5
CF
330
1F
100
AcDbEntity
  8
RUNDUNGEN
  6
Continuous
 62
     7
100
AcDbLine
 10
132.118883833
 20
327.2551994111
 30
0.0
 11
118.618883833
 21
327.2551994111
 31
0.0
  0
LINE
  5
D0
330
1F
100
AcDbEntity
  8
0
  6
Continuous
 62
     7
100
AcDbLine
 10
118.618883833
 20
327.2551994111
 30
0.0
 11
132.118883833
 21
327.2551994111
 31
0.0
  0
LINE
  5
D1
330
1F
100
AcDbEntity
  8
0
  6
Continuous
 62
     7
100
AcDbLine
 10
97.5147066697
 20
327.2689254385
 30
0.0
 11
97.0947499128
 21
327.2689254385
 31
0.0
  0
LINE
  5
D2
330
1F
100
AcDbEntity
  8
0
  6
Continuous
 62
     7
100
AcDbLine
 10
112.881383833
 20
328.4801994111
 30
0.0
 11
114.456383833
 21
328.4801994111
 31
0.0
  0
LINE
  5
D3
330
1F
100
AcDbEntity
  8
BEZUGSACHSEN
  6
Continuous
 62
     7
100
AcDbLine
 10
111.6337241341
 20
331.2551994111
 30
0.0
 11
109.668883833
 21
331.2551994111
 31
0.0
  0
LINE
  5
D4
330
1F
100
AcDbEntity
  8
BEZUGSACHSEN
  6
Continuous
 62
     7
100
AcDbLine
 10
99.668883833
 20
331.2551994111
 30
0.0
 11
97.668883833
 21
331.2551994111
 31
0.0
  0
LINE
  5
D5
330
1F
100
AcDbEntity
  8
0
  6
Continuous
 62
     7
100
AcDbLine
 10
97.668883833
 20
331.2551994111
 30
0.0
 11
99.668883833
 21
331.2551994111
 31
0.0
  0
LINE
  5
D6
330
1F
100
AcDbEntity
  8
0
  6
Continuous
 62
     7
100
AcDbLine
 10
109.668883833
 20
331.2551994111
 30
0.0
 11
111.6337241341
 21
331.2551994111
 31
0.0
  0
LINE
  5
D7
330
1F
100
AcDbEntity
  8
0
  6
Continuous
 62
     7
100
AcDbLine
 10
115.7040435319
 20
331.2551994111
 30
0.0
 11
117.618883833
 21
331.2551994111
 31
0.0
  0
LINE
  5
D8
330
1F
100
AcDbEntity
  8
RUNDUNGEN
  6
Continuous
 62
     7
100
AcDbLine
 10
176.7473429287
 20
327.3277262532
 30
0.0
 11
134.1973429287
 21
330.6764838786
 31
0.0
  0
LINE
  5
D9
330
1F
100
AcDbEntity
  8
0
  6
Continuous
 62
     7
100
AcDbLine
 10
134.1973429287
 20
330.6764838786
 30
0.0
 11
176.7473429287
 21
327.3277262532
 31
0.0
  0
LINE
  5
DA
330
1F
100
AcDbEntity
  8
RUNDUNGEN
  6
Continuous
 62
     9
100
AcDbLine
 10
176.7473429287
 20
303.1826725691
 30
0.0
 11
176.7473429287
 21
327.3277262532
 31
0.0
  0
LINE
  5
DB
330
1F
100
AcDbEntity
  8
RUNDUNGEN
  6
Continuous
 62
     7
100
AcDbLine
 10
177.668883833
 20
326.3308089195
 30
0.0
 11
177.668883833
 21
304.1795899028
 31
0.0
  0
LWPOLYLINE
  5
DC
330
1F
100
AcDbEntity
  8
1
  6
Continuous
 62
     7
100
AcDbPolyline
 90
        2
 70
     0
 43
0.25
 10
177.668883833
 20
326.3308089195
 10
177.668883833
 20
327.2551994111466
  0
LWPOLYLINE
  5
DD
330
1F
100
AcDbEntity
  8
1
  6
Continuous
 62
     7
100
AcDbPolyline
 90
        2
 70
     0
 43
0.25
 10
176.7473429287
 20
327.3277262532
 10
177.6688838329949
 20
327.2551994111466
  0
LWPOLYLINE
  5
DE
330
1F
100
AcDbEntity
  8
1
  6
Continuous
 62
     7
100
AcDbPolyline
 90
        2
 70
     0
 43
0.25
 10
176.7473429287
 20
303.1826725691
 10
177.668883833
 20
303.2551994111486
  0
LWPOLYLINE
  5
DF
330
1F
100
AcDbEntity
  8
1
  6
Continuous
 62
     7
100
AcDbPolyline
 90
        2
 70
     0
 43
0.25
 10
177.668883833
 20
304.1795899028
 10
177.668883833
 20
303.2551994111486
  0
LWPOLYLINE
  5
E0
330
1F
100
AcDbEntity
  8
1
  6
Continuous
 62
     7
100
AcDbPolyline
 90
        2
 70
     0
 43
0.25
 10
134.1973429287
 20
330.6764838786
 10
134.2973429287
 20
330.6764838786
  0
ARC
  5
E1
330
1F
100
AcDbEntity
  8
FASEN
  6
Continuous
 62
     7
100
AcDbCircle
 10
110.5379035559
 20
308.7429987443
 30
0.0
 40
7.891580868700315
100
AcDbArc
 50
231.4754833831017
 51
235.0904116742376
  0
ARC
  5
E2
330
1F
100
AcDbEntity
  8
FASEN
  6
Continuous
 62
     7
100
AcDbCircle
 10
109.118798828
 20
302.4051994111
 30
0.0
 40
3.5
100
AcDbArc
 50
90.0
 51
177.3161918300962
  0
ARC
  5
E3
330
1F
100
AcDbEntity
  8
FASEN
  6
Continuous
 62
     7
100
AcDbCircle
 10
109.118798828
 20
302.4051994111
 30
0.0
 40
3.099981417499976
100
AcDbArc
 50
90.0
 51
182.4726151194941
  0
ARC
  5
E4
330
1F
100
AcDbEntity
  8
RUNDUNGEN
  6
Continuous
 62
     7
100
AcDbCircle
 10
83.968883833
 20
312.6301994111
 30
0.0
 40
0.9000000000000341
100
AcDbArc
 50
270.0
 51
352.9880362120754
  0
ARC
  5
E5
330
1F
100
AcDbEntity
  8
0
  6
Continuous
 62
     7
100
AcDbCircle
 10
82.368883833
 20
304.4586951752
 30
0.0
 40
0.5999999999999943
100
AcDbArc
 50
180.0
 51
267.1317229299608
  0
ARC
  5
E6
330
1F
100
AcDbEntity
  8
0
  6
Continuous
 62
     7
100
AcDbCircle
 10
97.5147066697
 20
302.8414733837
 30
0.0
 40
0.4000000000000372
100
AcDbArc
 50
67.30156454039576
 51
90.0
  0
ARC
  5
E7
330
1F
100
AcDbEntity
  8
0
  6
Continuous
 62
     7
100
AcDbCircle
 10
112.881383833
 20
301.7801994111
 30
0.0
 40
0.25
100
AcDbArc
 50
90.0
 51
180.0
  0
ARC
  5
E8
330
1F
100
AcDbEntity
  8
0
  6
Continuous
 62
     7
100
AcDbCircle
 10
30.0772088365
 20
340.5657124803
 30
0.0
 40
90.09947276578339
100
AcDbArc
 50
334.8479477141836
 51
336.3847181612002
  0
ARC
  5
E9
330
1F
100
AcDbEntity
  8
0
  6
Continuous
 62
     7
100
AcDbCircle
 10
109.133383833
 20
315.2551994111
 30
0.0
 40
3.514499999999998
100
AcDbArc
 50
90.0
 51
270.0
  0
ARC
  5
EA
330
1F
100
AcDbEntity
  8
FASEN
  6
Continuous
 62
     7
100
AcDbCircle
 10
109.133383833
 20
315.2551994111
 30
0.0
 40
3.114489022599969
100
AcDbArc
 50
90.0
 51
270.0
  0
ARC
  5
EB
330
1F
100
AcDbEntity
  8
RUNDUNGEN
  6
Continuous
 62
     7
100
AcDbCircle
 10
83.968883833
 20
317.8801994111
 30
0.0
 40
0.9000000000000257
100
AcDbArc
 50
7.01196202158862
 51
90.0
  0
ARC
  5
EC
330
1F
100
AcDbEntity
  8
0
  6
Continuous
 62
     7
100
AcDbCircle
 10
82.368883833
 20
326.0517036471
 30
0.0
 40
0.5999999999748027
100
AcDbArc
 50
92.8682770705167
 51
180.0
  0
ARC
  5
ED
330
1F
100
AcDbEntity
  8
0
  6
Continuous
 62
     7
100
AcDbCircle
 10
97.0947499128
 20
327.6689254385
 30
0.0
 40
0.4000000000002017
100
AcDbArc
 50
254.9999999912593
 51
270.0
  0
ARC
  5
EE
330
1F
100
AcDbEntity
  8
0
  6
Continuous
 62
     7
100
AcDbCircle
 10
97.5147066697
 20
327.6689254385
 30
0.0
 40
0.4000000000000341
100
AcDbArc
 50
270.0
 51
292.6984354596011
  0
ARC
  5
EF
330
1F
100
AcDbEntity
  8
0
  6
Continuous
 62
     7
100
AcDbCircle
 10
112.881383833
 20
328.7301994111
 30
0.0
 40
0.25
100
AcDbArc
 50
180.0
 51
270.0
  0
ARC
  5
F0
330
1F
100
AcDbEntity
  8
0
  6
Continuous
 62
     7
100
AcDbCircle
 10
142.6357059772
 20
-216.4609317669
 30
0.0
 40
540.1736480293002
100
AcDbArc
 50
96.23504095310001
 51
96.40370831110002
  0
ARC
  5
F1
330
1F
100
AcDbEntity
  8
RUNDUNGEN
  6
Continuous
 62
     7
100
AcDbCircle
 10
176.668883833
 20
304.1795899028
 30
0.0
 40
0.9999999999647582
100
AcDbArc
 50
274.4999999985585
 51
0.0
  0
ARC
  5
F2
330
1F
100
AcDbEntity
  8
RUNDUNGEN
  6
Continuous
 62
     7
100
AcDbCircle
 10
132.118883833
 20
302.2551994111
 30
0.0
 40
1.0
100
AcDbArc
 50
0.0
 51
90.0
  0
ARC
  5
F3
330
1F
100
AcDbEntity
  8
RUNDUNGEN
  6
Continuous
 62
     7
100
AcDbCircle
 10
134.118883833
 20
300.8308322774
 30
0.0
 40
1.0
100
AcDbArc
 50
180.0
 51
274.4999999985582
  0
ARC
  5
F4
330
1F
100
AcDbEntity
  8
RUNDUNGEN
  6
Continuous
 62
     7
100
AcDbCircle
 10
118.618883833
 20
302.2551994111
 30
0.0
 40
1.0
100
AcDbArc
 50
90.0
 51
173.5714276697841
  0
ARC
  5
F5
330
1F
100
AcDbEntity
  8
0
  6
Continuous
 62
     7
100
AcDbCircle
 10
114.456383833
 20
301.7801994111
 30
0.0
 40
0.25
100
AcDbArc
 50
0.0
 51
90.0
  0
ARC
  5
F6
330
1F
100
AcDbEntity
  8
0
  6
Continuous
 62
     7
100
AcDbCircle
 10
142.6357059772
 20
846.9713305891
 30
0.0
 40
540.1736480293
100
AcDbArc
 50
263.5962916889
 51
263.7649590469
  0
ARC
  5
F7
330
1F
100
AcDbEntity
  8
0
  6
Continuous
 62
     7
100
AcDbCircle
 10
197.2605588294
 20
340.5657124803
 30
0.0
 40
90.0994727657004
100
AcDbArc
 50
203.6152818387998
 51
205.1520522858434
  0
ARC
  5
F8
330
1F
100
AcDbEntity
  8
RUNDUNGEN
  6
Continuous
 62
     7
100
AcDbCircle
 10
132.118883833
 20
328.2551994111
 30
0.0
 40
1.0
100
AcDbArc
 50
270.0
 51
0.0
  0
ARC
  5
F9
330
1F
100
AcDbEntity
  8
RUNDUNGEN
  6
Continuous
 62
     7
100
AcDbCircle
 10
118.618883833
 20
328.2551994111
 30
0.0
 40
1.0
100
AcDbArc
 50
180.0
 51
270.0
  0
ARC
  5
FA
330
1F
100
AcDbEntity
  8
RUNDUNGEN
  6
Continuous
 62
     7
100
AcDbCircle
 10
134.118883833
 20
329.6795665449
 30
0.0
 40
0.9999999999647582
100
AcDbArc
 50
85.50000000144155
 51
180.0
  0
ARC
  5
FB
330
1F
100
AcDbEntity
  8
RUNDUNGEN
  6
Continuous
 62
     7
100
AcDbCircle
 10
176.668883833
 20
326.3308089195
 30
0.0
 40
1.0
100
AcDbArc
 50
0.0
 51
85.50000000144182
  0
ARC
  5
FC
330
1F
100
AcDbEntity
  8
0
  6
Continuous
 62
     7
100
AcDbCircle
 10
114.456383833
 20
328.7301994111
 30
0.0
 40
0.25
100
AcDbArc
 50
270.0
 51
0.0
  0
CIRCLE
  5
FD
330
1F
100
AcDbEntity
  8
FASEN
  6
Continuous
 62
     7
100
AcDbCircle
 10
92.668883833
 20
315.2551994111
 30
0.0
 40
2.0
  0
SPLINE
  5
FE
330
1F
100
AcDbEntity
  8
BEZUGSACHSEN
  6
Continuous
 62
     7
100
AcDbSpline
210
0.0
220
0.0
230
1.0
 70
     8
 71
     3
 72
    15
 73
    11
 74
     9
 42
0.0000000001
 43
0.0000000001
 44
0.00000001
 40
0.0
 40
0.0
 40
0.0
 40
0.0
 40
0.9628201223048727
 40
1.926005549750916
 40
2.746145156432904
 40
3.566131340618331
 40
4.124321693018337
 40
4.682477186098852
 40
4.882745115119506
 40
5.083000347093581
 40
5.083000347093581
 40
5.083000347093581
 40
5.083000347093581
 10
104.668883833
 20
330.4538835647
 30
0.0
 10
104.3478941426702
 20
330.4598160680986
 30
0.0
 10
103.7057929747925
 20
330.4716833257564
 30
0.0
 10
102.7938827610026
 20
330.5612784904591
 30
0.0
 10
101.9355832538177
 20
330.6907423771804
 30
0.0
 10
101.2170829056768
 20
330.8363308475029
 30
0.0
 10
100.5898262660449
 20
330.9888242566433
 30
0.0
 10
100.1666507330667
 20
331.1054078871114
 30
0.0
 10
99.86019828830301
 20
331.1960097439721
 30
0.0
 10
99.73265397033363
 20
331.2354699390353
 30
0.0
 10
99.668883833
 20
331.2551994111
 30
0.0
 11
104.668883833
 21
330.4538835647
 31
0.0
 11
103.7065480351578
 21
330.4844187920053
 31
0.0
 11
102.7476165980376
 21
330.5748437141616
 31
0.0
 11
101.9367031546664
 21
330.6975154786734
 31
0.0
 11
101.1329323571318
 21
330.8597802231054
 31
0.0
 11
100.5905207132514
 21
330.991560639311
 31
0.0
 11
100.0523405215606
 21
331.139545894413
 31
0.0
 11
99.86031609426627
 21
331.196412956202
 31
0.0
 11
99.668883833
 21
331.2551994111
 31
0.0
  0
SPLINE
  5
FF
330
1F
100
AcDbEntity
  8
BEZUGSACHSEN
  6
Continuous
 62
     7
100
AcDbSpline
210
0.0
220
0.0
230
1.0
 70
     8
 71
     3
 72
    15
 73
    11
 74
     9
 42
0.0000000001
 43
0.0000000001
 44
0.00000001
 40
0.0
 40
0.0
 40
0.0
 40
0.0
 40
0.2002489394822737
 40
0.4005105764860627
 40
0.9586560729365844
 40
1.516836421057281
 40
2.336828142789851
 40
3.156973315764746
 40
4.120169472727686
 40
5.083000289825932
 40
5.083000289825932
 40
5.083000289825932
 40
5.083000289825932
 10
109.668883833
 20
331.2551994111
 30
0.0
 10
109.6051156960451
 20
331.2354705702622
 30
0.0
 10
109.4775753786817
 20
331.1960116376069
 30
0.0
 10
109.1711301917801
 20
331.105411783343
 30
0.0
 10
108.7479632338306
 20
330.9888300422029
 30
0.0
 10
108.1207115291578
 20
330.8363367573563
 30
0.0
 10
107.402211016477
 20
330.6907472062125
 30
0.0
 10
106.543904466377
 20
330.561281244947
 30
0.0
 10
105.6319854021042
 20
330.4716839048507
 30
0.0
 10
104.9898770897698
 20
330.4598162610426
 30
0.0
 10
104.668883833
 20
330.4538835647
 30
0.0
 11
109.668883833
 21
331.2551994111
 31
0.0
 11
109.4774575825438
 21
331.1964148178798
 31
0.0
 11
109.2854392109364
 21
331.1395494662089
 31
0.0
 11
108.7472688064634
 21
330.9915663220425
 31
0.0
 11
108.2048670908372
 21
330.8597874166215
 31
0.0
 11
107.4010911052705
 21
330.6975203875116
 31
0.0
 11
106.5901723120181
 21
330.5748467737874
 31
0.0
 11
105.6312303029827
 21
330.4844196755523
 31
0.0
 11
104.668883833
 21
330.4538835647
 31
0.0
  0
SPLINE
  5
100
330
1F
100
AcDbEntity
  8
RUNDUNGEN
  6
Continuous
 62
     7
100
AcDbSpline
210
0.0
220
0.0
230
1.0
 70
     8
 71
     3
 72
    11
 73
     7
 74
     5
 42
0.0000000001
 43
0.0000000001
 44
0.00000001
 40
0.0
 40
0.0
 40
0.0
 40
0.0
 40
0.2720357131369411
 40
0.5444507173375865
 40
0.8204954809954015
 40
1.095557810884162
 40
1.095557810884162
 40
1.095557810884162
 40
1.095557810884162
 10
84.544844943
 20
320.1601994111
 30
0.0
 10
84.58999478545014
 20
320.0814450297947
 30
0.0
 10
84.68035742139304
 20
319.9238264623623
 30
0.0
 10
84.78266019307594
 20
319.6694615935279
 30
0.0
 10
84.85418337533994
 20
319.4027585769456
 30
0.0
 10
84.86398950742984
 20
319.2188658412189
 30
0.0
 10
84.868883833
 20
319.127083382
 30
0.0
 11
84.544844943
 21
320.1601994111
 31
0.0
 11
84.6746827304465
 21
319.9211479978582
 31
0.0
 11
84.77708847855472
 21
319.6687138534402
 31
0.0
 11
84.8447203199959
 21
319.4010823052883
 31
0.0
 11
84.868883833
 21
319.127083382
 31
0.0
  0
SPLINE
  5
101
330
1F
100
AcDbEntity
  8
RUNDUNGEN
  6
Continuous
 62
     7
100
AcDbSpline
210
0.0
220
0.0
230
1.0
 70
     8
 71
     3
 72
    15
 73
    11
 74
     9
 42
0.0000000001
 43
0.0000000001
 44
0.00000001
 40
0.0
 40
0.0
 40
0.0
 40
0.0
 40
0.0931623162083573
 40
0.1866550545166258
 40
0.2771610325883367
 40
0.3676563365086519
 40
0.4555076254479044
 40
0.5433695151837556
 40
0.6298939392646515
 40
0.7163624470084229
 40
0.7163624470084229
 40
0.7163624470084229
 40
0.7163624470084229
 10
83.968883833
 20
320.5174421038
 30
0.0
 10
84.0000014032285
 20
320.5189513678208
 30
0.0
 10
84.06234690947846
 20
320.5219752488229
 30
0.0
 10
84.1537748468179
 20
320.5032787494252
 30
0.0
 10
84.23900677559351
 20
320.469000006598
 30
0.0
 10
84.31567294932552
 20
320.4218424559064
 30
0.0
 10
84.38424350485406
 20
320.3651483346294
 30
0.0
 10
84.44458016662304
 20
320.3016884502304
 30
0.0
 10
84.49849839827579
 20
320.2332723558694
 30
0.0
 10
84.52939942412813
 20
320.1845518100583
 30
0.0
 10
84.544844943
 20
320.1601994111
 30
0.0
 11
83.968883833
 21
320.5174421038
 31
0.0
 11
84.06204396578389
 21
320.518079929008
 31
0.0
 11
84.15384004690034
 21
320.5003494014344
 31
0.0
 11
84.23786308784905
 21
320.4667122098684
 31
0.0
 11
84.31516055664902
 21
320.4196537212744
 31
0.0
 11
84.38303297033735
 21
320.363875728944
 31
0.0
 11
84.4438526604343
 21
320.3004669206879
 31
0.0
 11
84.49729509407776
 21
320.2324200085699
 31
0.0
 11
84.544844943
 21
320.1601994111
 31
0.0
  0
SPLINE
  5
102
330
1F
100
AcDbEntity
  8
RUNDUNGEN
  6
Continuous
 62
     7
100
AcDbSpline
210
0.0
220
0.0
230
1.0
 70
     8
 71
     3
 72
    11
 73
     7
 74
     5
 42
0.0000000001
 43
0.0000000001
 44
0.00000001
 40
0.0
 40
0.0
 40
0.0
 40
0.0
 40
0.2750623372476282
 40
0.5511071088955048
 40
0.8235221050793065
 40
1.095557809840105
 40
1.095557809840105
 40
1.095557809840105
 40
1.095557809840105
 10
84.868883833
 20
311.3833154402
 30
0.0
 10
84.8639895066188
 20
311.2915329785247
 30
0.0
 10
84.85418337289317
 20
311.1076402376743
 30
0.0
 10
84.78266018507621
 20
310.8409372200692
 30
0.0
 10
84.68035741612724
 20
310.5865723533859
 30
0.0
 10
84.58999478367515
 20
310.4289537902198
 30
0.0
 10
84.544844943
 20
310.3501994111
 30
0.0
 11
84.868883833
 21
311.3833154402
 31
0.0
 11
84.84472031683944
 21
311.1093165098027
 31
0.0
 11
84.77708846995351
 21
310.8416849547855
 31
0.0
 11
84.67468272521116
 21
310.5892508176535
 31
0.0
 11
84.544844943
 21
310.3501994111
 31
0.0
  0
SPLINE
  5
103
330
1F
100
AcDbEntity
  8
RUNDUNGEN
  6
Continuous
 62
     7
100
AcDbSpline
210
0.0
220
0.0
230
1.0
 70
     8
 71
     3
 72
    15
 73
    11
 74
     9
 42
0.0000000001
 43
0.0000000001
 44
0.00000001
 40
0.0
 40
0.0
 40
0.0
 40
0.0
 40
0.0864708478950776
 40
0.1729975735783852
 40
0.2608622577316376
 40
0.3487164648746243
 40
0.4392125794233426
 40
0.5297191468141673
 40
0.6232058226224609
 40
0.7163622618010114
 40
0.7163622618010114
 40
0.7163622618010114
 40
0.7163622618010114
 10
84.544844943
 20
310.3501994111
 30
0.0
 10
84.52939900733884
 20
310.3258463514767
 30
0.0
 10
84.4984971547946
 20
310.2771244951912
 30
0.0
 10
84.44457704460308
 20
310.2087066872941
 30
0.0
 10
84.38423751881524
 20
310.1452457955946
 30
0.0
 10
84.31566424384636
 20
310.0885515619653
 30
0.0
 10
84.23899640226414
 20
310.0413940416409
 30
0.0
 10
84.1537654286084
 20
310.007116874896
 30
0.0
 10
84.06234087991291
 20
309.9884232355392
 30
0.0
 10
83.99999941405416
 20
309.9914473410115
 30
0.0
 10
83.968883833
 20
309.9929567184
 30
0.0
 11
84.544844943
 21
310.3501994111
 31
0.0
 11
84.49729375340056
 21
310.2779768945046
 31
0.0
 11
84.44384950716461
 21
310.2099284793743
 31
0.0
 11
84.3830269745665
 21
310.146518525505
 31
0.0
 11
84.31515136294499
 21
310.0907398283194
 31
0.0
 11
84.23785263200575
 21
310.0436818540366
 31
0.0
 11
84.15382855453325
 21
310.0100456659981
 31
0.0
 11
84.06203808293427
 21
309.9923180638669
 31
0.0
 11
83.968883833
 21
309.9929567184
 31
0.0
  0
SPLINE
  5
104
330
1F
100
AcDbEntity
  8
0
  6
Continuous
 62
     7
100
AcDbSpline
210
0.0
220
0.0
230
1.0
 70
     8
 71
     3
 72
    25
 73
    21
 74
    19
 42
0.0000000001
 43
0.0000000001
 44
0.00000001
 40
0.0
 40
0.0
 40
0.0
 40
0.0
 40
0.0515355898997876
 40
0.1032261445976491
 40
0.1471729976636325
 40
0.1906825403264863
 40
0.2104686839213847
 40
0.2302602713162887
 40
0.2498850527598135
 40
0.2695082948594019
 40
0.3114337744770375
 40
0.3537000625221284
 40
0.4018001484281571
 40
0.4498049386220043
 40
0.5032236942386343
 40
0.5566554561813386
 40
0.6141450523852608
 40
0.6716326391938938
 40
0.7320826682154309
 40
0.792523105194229
 40
0.792523105194229
 40
0.792523105194229
 40
0.792523105194229
 10
81.768883833
 20
320.397482625
 30
0.0
 10
81.76930478902513
 20
320.4146743974932
 30
0.0
 10
81.77014796686797
 20
320.4491096372319
 30
0.0
 10
81.77932380828264
 20
320.4975858731339
 30
0.0
 10
81.79552333362061
 20
320.5412805246436
 30
0.0
 10
81.81539672416363
 20
320.5715869439155
 30
0.0
 10
81.83540967672906
 20
320.5908571836426
 30
0.0
 10
81.85149213601713
 20
320.6024212091055
 30
0.0
 10
81.86908457613073
 20
320.6113997011378
 30
0.0
 10
81.89473170758784
 20
320.6202640825768
 30
0.0
 10
81.92946358412402
 20
320.6246287503094
 30
0.0
 10
81.97360569097847
 20
320.6209545153685
 30
0.0
 10
82.01855934301908
 20
320.6098540553014
 30
0.0
 10
82.06505695244633
 20
320.5916556705917
 30
0.0
 10
82.11124198203055
 20
320.5684595161724
 30
0.0
 10
82.15811763431962
 20
320.5400271764269
 30
0.0
 10
82.20417744459434
 20
320.5078736901035
 30
0.0
 10
82.2501517400696
 20
320.4717033905937
 30
0.0
 10
82.29521611802967
 20
320.4328703831173
 30
0.0
 10
82.32431270883197
 20
320.4049836639493
 30
0.0
 10
82.3388598499
 20
320.3910414107
 30
0.0
 11
81.768883833
 21
320.397482625
 31
0.0
 11
81.77154068011049
 21
320.4489496842685
 31
0.0
 11
81.78131729492303
 21
320.4997072575732
 31
0.0
 11
81.79709561482451
 21
320.5407239677715
 31
0.0
 11
81.82145450828165
 21
320.5767756613832
 31
0.0
 11
81.83571288175627
 21
320.5904939070516
 31
0.0
 11
81.85179906094622
 21
320.6020239448086
 31
0.0
 11
81.869261444736
 21
320.6109792336975
 31
0.0
 11
81.8878015904349
 21
320.6174084348892
 31
0.0
 11
81.92933112347546
 21
320.623156802188
 31
0.0
 11
81.97148525138188
 21
320.6200796922516
 31
0.0
 11
82.01825553885152
 21
320.6088476633087
 31
0.0
 11
82.06308422928878
 21
320.5916765132239
 31
0.0
 11
82.11089063654757
 21
320.5678414366216
 31
0.0
 11
82.15665813261572
 21
320.5402680892014
 31
0.0
 11
82.20384945564786
 21
320.5074346808775
 31
0.0
 11
82.24911094673857
 21
320.4719914860254
 31
0.0
 11
82.29485736832807
 21
320.4324760343582
 31
0.0
 11
82.3388598499
 21
320.3910414107
 31
0.0
  0
SPLINE
  5
105
330
1F
100
AcDbEntity
  8
RUNDUNGEN
  6
Continuous
 62
     7
100
AcDbSpline
210
0.0
220
0.0
230
1.0
 70
     8
 71
     3
 72
    11
 73
     7
 74
     5
 42
0.0000000001
 43
0.0000000001
 44
0.00000001
 40
0.0
 40
0.0
 40
0.0
 40
0.0
 40
0.4023425374663105
 40
0.8046868690124098
 40
1.207030643261162
 40
1.609373326452813
 40
1.609373326452813
 40
1.609373326452813
 40
1.609373326452813
 10
117.618883833
 20
316.8645471051
 30
0.0
 10
117.6191095790815
 20
316.7304329789691
 30
0.0
 10
117.6195610722511
 20
316.462204128681
 30
0.0
 10
117.6217770768489
 20
316.0598662859628
 30
0.0
 10
117.6234771608288
 20
315.6575258838299
 30
0.0
 10
117.6237566510026
 20
315.3892970367814
 30
0.0
 10
117.6238963959
 20
315.2551827951
 30
0.0
 11
117.618883833
 21
316.8645471051
 31
0.0
 11
117.6198175308042
 21
316.4622056510299
 31
0.0
 11
117.6216910908411
 21
316.0598656817252
 31
0.0
 11
117.623263687259
 21
315.6575249808047
 31
0.0
 11
117.6238963959
 21
315.2551827951
 31
0.0
  0
SPLINE
  5
106
330
1F
100
AcDbEntity
  8
RUNDUNGEN
  6
Continuous
 62
     7
100
AcDbSpline
210
0.0
220
0.0
230
1.0
 70
     8
 71
     3
 72
    11
 73
     7
 74
     5
 42
0.0000000001
 43
0.0000000001
 44
0.00000001
 40
0.0
 40
0.0
 40
0.0
 40
0.0
 40
0.4023343752015291
 40
0.8046698414852935
 40
1.207005864931927
 40
1.609340094389754
 40
1.609340094389754
 40
1.609340094389754
 40
1.609340094389754
 10
117.6238963959
 20
315.2551827951
 30
0.0
 10
117.6237566227219
 20
315.1210713227872
 30
0.0
 10
117.6234770759868
 20
314.8528480144674
 30
0.0
 10
117.6217769884718
 20
314.4505159205087
 30
0.0
 10
117.6195610460497
 20
314.0481863856
 30
0.0
 10
117.6191095703477
 20
313.7799630740013
 30
0.0
 10
117.618883833
 20
313.6458517172
 30
0.0
 11
117.6238963959
 21
315.2551827951
 31
0.0
 11
117.6232636159682
 21
314.8528489175078
 31
0.0
 11
117.6216910134156
 21
314.4505165246397
 31
0.0
 11
117.6198174986072
 21
314.048184863314
 31
0.0
 11
117.618883833
 21
313.6458517172
 31
0.0
  0
SPLINE
  5
107
330
1F
100
AcDbEntity
  8
FASEN
  6
Continuous
 62
     7
100
AcDbSpline
210
0.0
220
0.0
230
1.0
 70
     8
 71
     3
 72
    39
 73
    35
 74
    33
 42
0.0000000001
 43
0.0000000001
 44
0.00000001
 40
0.0
 40
0.0
 40
0.0
 40
0.0
 40
0.2553577285316815
 40
0.5109896323605416
 40
0.766307557685264
 40
1.021546002078691
 40
1.276529593142675
 40
1.531532755355857
 40
1.786374926190851
 40
2.041212220300333
 40
2.296179460929782
 40
2.551148968017727
 40
2.806438834227725
 40
3.061729585154436
 40
3.317263360154139
 40
3.57279898749392
 40
3.8282335999757
 40
4.083666629291439
 40
4.33855108351071
 40
4.593435980614577
 40
4.847479664023335
 40
5.10151673824242
 40
5.354764944641127
 40
5.608016841238908
 40
5.860907655053235
 40
6.113791644786585
 40
6.36694016369404
 40
6.620098299839437
 40
6.874044587957655
 40
7.127973589641873
 40
7.382778237896795
 40
7.637655536239496
 40
7.893216235514116
 40
8.148518090544865
 40
8.148518090544865
 40
8.148518090544865
 40
8.148518090544865
 10
90.0696355035
 20
315.2551994111
 30
0.0
 10
90.07204506233785
 20
315.3403543805938
 30
0.0
 10
90.07686676713523
 20
315.5107557497066
 30
0.0
 10
90.11611529045315
 20
315.763799048543
 30
0.0
 10
90.17822862783805
 20
316.0118549248157
 30
0.0
 10
90.26489625434054
 20
316.2523491499461
 30
0.0
 10
90.37483386313087
 20
316.4829669691119
 30
0.0
 10
90.50700450282437
 20
316.7014697070241
 30
0.0
 10
90.66023547893468
 20
316.9056878908247
 30
0.0
 10
90.83290158667319
 20
317.0937438430059
 30
0.0
 10
91.0234031426998
 20
317.2637680688057
 30
0.0
 10
91.22981572217462
 20
317.4143271979501
 30
0.0
 10
91.45013395982907
 20
317.5438952131701
 30
0.0
 10
91.68219438185825
 20
317.6514569262997
 30
0.0
 10
91.92370050703818
 20
317.7359365042564
 30
0.0
 10
92.17227558254137
 20
317.7967215775136
 30
0.0
 10
92.42552082180282
 20
317.8332311979485
 30
0.0
 10
92.68088495424428
 20
317.8452402024537
 30
0.0
 10
92.93603388530732
 20
317.8325911135725
 30
0.0
 10
93.18832671639781
 20
317.7955173311293
 30
0.0
 10
93.43556736203374
 20
317.734242334143
 30
0.0
 10
93.67518569293979
 20
317.6494380219752
 30
0.0
 10
93.90508267960115
 20
317.5416300235053
 30
0.0
 10
94.12299103231533
 20
317.4120206536937
 30
0.0
 10
94.32694404655219
 20
317.2616044372458
 30
0.0
 10
94.51505323437634
 20
317.0918353628855
 30
0.0
 10
94.6853890785884
 20
316.9041161546803
 30
0.0
 10
94.83655446714195
 20
316.700206675439
 30
0.0
 10
94.96691088835492
 20
316.482096623535
 30
0.0
 10
95.07540814169924
 20
316.2517441542266
 30
0.0
 10
95.16094281301558
 20
316.011536867646
 30
0.0
 10
95.22225798050083
 20
315.7636113634275
 30
0.0
 10
95.26092142330586
 20
315.5106875191097
 30
0.0
 10
95.26572939480423
 20
315.3403333420401
 30
0.0
 10
95.2681321625
 20
315.2551994111
 30
0.0
 11
90.0696355035
 21
315.2551994111
 31
0.0
 11
90.0821959581393
 21
315.5102480427374
 31
0.0
 11
90.11994905636354
 21
315.7630767868106
 31
0.0
 11
90.1823390679607
 21
316.0106545108591
 31
0.0
 11
90.26881380539764
 21
316.2507977666078
 31
0.0
 11
90.37854649439274
 21
316.480961553242
 31
0.0
 11
90.51054920585798
 21
316.6991401427153
 31
0.0
 11
90.66347636610443
 21
316.9029974842433
 31
0.0
 11
90.83583825207094
 21
317.0907031760459
 31
0.0
 11
91.02603449684254
 21
317.2605080118692
 31
0.0
 11
91.23202899916367
 21
317.4107601817641
 31
0.0
 11
91.45206305074744
 21
317.5402126129238
 31
0.0
 11
91.68368090831207
 21
317.6475743172969
 31
0.0
 11
91.9248706701145
 21
317.7319840854952
 31
0.0
 11
92.1730925104857
 21
317.7926831365806
 31
0.0
 11
92.42591063685236
 21
317.8291500563047
 31
0.0
 11
92.68106256695533
 21
317.841130249548
 31
0.0
 11
92.93563449309784
 21
317.8285120316567
 31
0.0
 11
93.18780611516456
 21
317.7914204720254
 31
0.0
 11
93.43438625282661
 21
317.7302941373532
 31
0.0
 11
93.67384956141379
 21
317.6454875402143
 31
0.0
 11
93.90314031789593
 21
317.5379682255029
 31
0.0
 11
94.12078230899786
 21
317.4084750332511
 31
0.0
 11
94.32431070796935
 21
317.2583752180488
 31
0.0
 11
94.51201806298177
 21
317.0889164881536
 31
0.0
 11
94.68215561782966
 21
316.9014668014229
 31
0.0
 11
94.83291630563404
 21
316.6980945886962
 31
0.0
 11
94.96322759390377
 21
316.4801320107189
 31
0.0
 11
95.07145020663135
 21
316.2504195731132
 31
0.0
 11
95.15687261265418
 21
316.0103603693289
 31
0.0
 11
95.21843182389931
 21
315.763028809027
 31
0.0
 11
95.25568259860397
 21
315.5101975396048
 31
0.0
 11
95.2681321625
 21
315.2551994111
 31
0.0
  0
SPLINE
  5
108
330
1F
100
AcDbEntity
  8
FASEN
  6
Continuous
 62
     7
100
AcDbSpline
210
0.0
220
0.0
230
1.0
 70
     8
 71
     3
 72
    39
 73
    35
 74
    33
 42
0.0000000001
 43
0.0000000001
 44
0.00000001
 40
0.0
 40
0.0
 40
0.0
 40
0.0
 40
0.255299743049679
 40
0.5108651138541953
 40
0.7657436254048737
 40
1.020544604082788
 40
1.274474439860872
 40
1.528422259799902
 40
1.781580156155524
 40
2.034730868657863
 40
2.28761745196584
 40
2.540506722618626
 40
2.793756932926666
 40
3.047007599846296
 40
3.301045674575935
 40
3.555087452266713
 40
3.809971904964025
 40
4.064857118342041
 40
4.320289560527059
 40
4.575724059966708
 40
4.831260712380499
 40
5.086793620497271
 40
5.34208270439006
 40
5.597373532480536
 40
5.852343573137637
 40
6.107309239476692
 40
6.362145686604117
 40
6.616987169700681
 40
6.871987285883295
 40
7.126970727448177
 40
7.382214249594822
 40
7.637530302410421
 40
7.893156983589202
 40
8.148517859080961
 40
8.148517859080961
 40
8.148517859080961
 40
8.148517859080961
 10
95.2681321625
 20
315.2551994111
 30
0.0
 10
95.26574900690463
 20
315.170064940914
 30
0.0
 10
95.26098021614908
 20
314.9997074220034
 30
0.0
 10
95.22225430795042
 20
314.7467897078842
 30
0.0
 10
95.16094224170259
 20
314.498865232154
 30
0.0
 10
95.07542276452064
 20
314.2586525747133
 30
0.0
 10
94.9669284156892
 20
314.0282988112001
 30
0.0
 10
94.83656378389101
 20
313.8101922765648
 30
0.0
 10
94.68538017813187
 20
313.6062946465765
 30
0.0
 10
94.51503703535278
 20
313.418581494064
 30
0.0
 10
94.32694793470748
 20
313.248789919655
 30
0.0
 10
94.1230102339388
 20
313.0983513551911
 30
0.0
 10
93.9050910879629
 20
312.9687582893141
 30
0.0
 10
93.67518313458359
 20
312.8609739761313
 30
0.0
 10
93.43556741204715
 20
312.7761634127224
 30
0.0
 10
93.18833045557619
 20
312.7148741766258
 30
0.0
 10
92.93603755617552
 20
312.6778014000537
 30
0.0
 10
92.68088833511459
 20
312.6651595558293
 30
0.0
 10
92.42552454709059
 20
312.6771739708376
 30
0.0
 10
92.17227945837942
 20
312.7136829965553
 30
0.0
 10
91.92370170428124
 20
312.7744563013595
 30
0.0
 10
91.68219346515666
 20
312.8589303261033
 30
0.0
 10
91.45014095873972
 20
312.9665091827804
 30
0.0
 10
91.22983134096904
 20
313.0960901788463
 30
0.0
 10
91.02340994550993
 20
313.2466357955473
 30
0.0
 10
90.83289423711815
 20
313.4166438227317
 30
0.0
 10
90.66022704866279
 20
313.6046981951537
 30
0.0
 10
90.50700485566477
 20
313.8089214424178
 30
0.0
 10
90.37484922776032
 20
314.0274317655936
 30
0.0
 10
90.26491808083972
 20
314.2580526044856
 30
0.0
 10
90.17823153779791
 20
314.4985401015531
 30
0.0
 10
90.11610988122841
 20
314.7465962811723
 30
0.0
 10
90.07693363360094
 20
314.9996470543964
 30
0.0
 10
90.07206736975536
 20
315.1700448380585
 30
0.0
 10
90.0696355035
 20
315.2551994111
 30
0.0
 11
95.2681321625
 21
315.2551994111
 31
0.0
 11
95.25572138100115
 21
315.0002015065913
 31
0.0
 11
95.2184387802387
 21
314.747370206245
 31
0.0
 11
95.15687355186941
 21
314.5000388934151
 31
0.0
 11
95.0714633867322
 21
314.2599792291097
 31
0.0
 11
94.96324345177244
 21
314.0302646079477
 31
0.0
 11
94.83292365726062
 21
313.812305330994
 31
0.0
 11
94.68214909058634
 21
313.6089437059725
 31
0.0
 11
94.51200646148243
 21
313.421495662499
 31
0.0
 11
94.3243125640326
 21
313.252018156979
 31
0.0
 11
94.12079712501452
 21
313.1019033699239
 31
0.0
 11
93.90315004496793
 21
312.9724220293058
 31
0.0
 11
93.67384880099047
 21
312.8649192860589
 31
0.0
 11
93.43438540122008
 21
312.7801099494104
 31
0.0
 11
93.18780969346489
 21
312.718973665934
 31
0.0
 11
92.93563859880562
 21
312.6818815745241
 31
0.0
 11
92.68106562304777
 21
312.6692691991511
 31
0.0
 11
92.42591450123716
 21
312.6812540879445
 31
0.0
 11
92.17309627351106
 21
312.7177195131226
 31
0.0
 11
91.92487127515895
 21
312.7784099647599
 31
0.0
 11
91.68368140897758
 21
312.8628168103473
 31
0.0
 11
91.45207101292226
 21
312.9701906469833
 31
0.0
 11
91.23204160393905
 21
313.0996528657562
 31
0.0
 11
91.02603978213544
 21
313.2498959056825
 31
0.0
 11
90.83583319946203
 21
313.4196867974271
 31
0.0
 11
90.66346956766026
 21
313.6073897361804
 31
0.0
 11
90.51055016950691
 21
313.8112520406294
 31
0.0
 11
90.37856102540042
 21
314.0294352780497
 31
0.0
 11
90.2688321263597
 21
314.2596007059219
 31
0.0
 11
90.18234301294531
 21
314.4997441814914
 31
0.0
 11
90.11995678787551
 21
314.7473209286767
 31
0.0
 11
90.08223989786443
 21
315.0001497963686
 31
0.0
 11
90.0696355035
 21
315.2551994111
 31
0.0
  0
SPLINE
  5
109
330
1F
100
AcDbEntity
  8
0
  6
Continuous
 62
     7
100
AcDbSpline
210
0.0
220
0.0
230
1.0
 70
     8
 71
     3
 72
    25
 73
    21
 74
    19
 42
0.0000000001
 43
0.0000000001
 44
0.00000001
 40
0.0
 40
0.0
 40
0.0
 40
0.0
 40
0.0604406725921859
 40
0.1208909375064487
 40
0.1783788230088404
 40
0.2358687179828921
 40
0.2893007099123404
 40
0.3427196953430163
 40
0.3907247439984858
 40
0.4388250888922022
 40
0.4810912364080284
 40
0.5230165748912932
 40
0.5426397734123055
 40
0.5622645056824377
 40
0.582055987504455
 40
0.6018420342138906
 40
0.6453512809395958
 40
0.6892978001716716
 40
0.740987987491513
 40
0.7925232210365328
 40
0.7925232210365328
 40
0.7925232210365328
 40
0.7925232210365328
 10
82.3388598499
 20
310.1193574115
 30
0.0
 10
82.32431265110814
 20
310.105415104909
 30
0.0
 10
82.29521594479073
 20
310.0775282789933
 30
0.0
 10
82.250151357389
 20
310.0386951206458
 30
0.0
 10
82.20417682057105
 20
310.0025246779528
 30
0.0
 10
82.15811674779779
 20
309.9703710843578
 30
0.0
 10
82.11124082962144
 20
309.9419386932654
 30
0.0
 10
82.06505552237597
 20
309.9187425536928
 30
0.0
 10
82.01855760567172
 20
309.900544262634
 30
0.0
 10
81.97360376530854
 20
309.8894440215746
 30
0.0
 10
81.92946164065985
 20
309.8857700787092
 30
0.0
 10
81.89472990168235
 20
309.8901350035694
 30
0.0
 10
81.86908292530896
 20
309.8989995990505
 30
0.0
 10
81.8514906436759
 20
309.9079782625008
 30
0.0
 10
81.83540842062176
 20
309.919542475846
 30
0.0
 10
81.81539587064283
 20
309.9388128885425
 30
0.0
 10
81.79552288815233
 20
309.969119252634
 30
0.0
 10
81.7793236617844
 20
310.0128136514976
 30
0.0
 10
81.7701479615161
 20
310.0612895462438
 30
0.0
 10
81.76930478727004
 20
310.0957245439726
 30
0.0
 10
81.768883833
 20
310.1129161973
 30
0.0
 11
82.3388598499
 21
310.1193574115
 31
0.0
 11
82.29485719173944
 21
310.0779226316864
 31
0.0
 11
82.24911057724941
 21
310.0384070424727
 31
0.0
 11
82.2038488275206
 21
310.0029636934348
 31
0.0
 11
82.1566572218675
 21
309.9701301681899
 31
0.0
 11
82.11088947969259
 21
309.9425567835997
 31
0.0
 11
82.06308280162068
 21
309.918721735117
 31
0.0
 11
82.01825380051687
 21
309.9015506735176
 31
0.0
 11
81.9714831982908
 21
309.8903188461372
 31
0.0
 11
81.92932918974924
 21
309.8872420312731
 31
0.0
 11
81.88779984201561
 21
309.8929907079691
 31
0.0
 11
81.86925979848137
 21
309.8994200707637
 31
0.0
 11
81.85179756249842
 21
309.9083755401065
 31
0.0
 11
81.83571163192302
 21
309.9199057434973
 31
0.0
 11
81.82145351964691
 21
309.9336241209054
 31
0.0
 11
81.79709512493854
 21
309.969675794346
 31
0.0
 11
81.7813171095369
 21
310.0106922639966
 31
0.0
 11
81.77154065161525
 21
310.0614494933898
 31
0.0
 11
81.768883833
 21
310.1129161973
 31
0.0
  0
SPLINE
  5
10A
330
1F
100
AcDbEntity
  8
0
  6
Continuous
 62
     7
100
AcDbSpline
210
0.0
220
0.0
230
1.0
 70
     8
 71
     3
 72
    19
 73
    15
 74
    13
 42
0.0000000001
 43
0.0000000001
 44
0.00000001
 40
0.0
 40
0.0
 40
0.0
 40
0.0
 40
0.016194696812237
 40
0.0325629813940036
 40
0.0487883951494705
 40
0.0649854783447065
 40
0.0811702247847268
 40
0.0973487887894671
 40
0.1135238754132813
 40
0.1297004760536216
 40
0.1620346810232139
 40
0.1943842542935756
 40
0.2267297213355404
 40
0.2590669273675809
 40
0.2590669273675809
 40
0.2590669273675809
 40
0.2590669273675809
 10
114.456383833
 20
312.3413317065
 30
0.0
 10
114.4617909203873
 20
312.3408204613592
 30
0.0
 10
114.4726630526679
 20
312.3397924911414
 30
0.0
 10
114.4877059475682
 20
312.3329886537252
 30
0.0
 10
114.5011098412418
 20
312.3237037100895
 30
0.0
 10
114.5128696275032
 20
312.3124832001667
 30
0.0
 10
114.5235078073998
 20
312.3002658893134
 30
0.0
 10
114.5331623117476
 20
312.2872647491024
 30
0.0
 10
114.5420109535883
 20
312.2737137135319
 30
0.0
 10
114.5528997473959
 20
312.2550959986185
 30
0.0
 10
114.5651709859988
 20
312.2310715921384
 30
0.0
 10
114.5781472561257
 20
312.2014338417508
 30
0.0
 10
114.5899279071615
 20
312.171300228885
 30
0.0
 10
114.596909106924
 20
312.1508988151663
 30
0.0
 10
114.600399261
 20
312.1406994111
 30
0.0
 11
114.456383833
 21
312.3413317065
 31
0.0
 11
114.472399304675
 21
312.3389290263574
 31
0.0
 11
114.4874737444932
 21
312.3325507817465
 31
0.0
 11
114.5008514005596
 21
312.3233691495547
 31
0.0
 11
114.5126873787747
 21
312.3123122456606
 31
0.0
 11
114.5233459345804
 21
312.300132705215
 31
0.0
 11
114.5330289336001
 21
312.287171784598
 31
0.0
 11
114.5418974642424
 21
312.2736446787902
 31
0.0
 11
114.5500904727858
 21
312.2596963090186
 31
0.0
 11
114.5648773480928
 21
312.2309413245869
 31
0.0
 11
114.5779484220386
 21
312.2013500772885
 31
0.0
 11
114.5897108792176
 21
312.1712191324099
 31
0.0
 11
114.600399261
 21
312.1406994111
 31
0.0
  0
SPLINE
  5
10B
330
1F
100
AcDbEntity
  8
0
  6
Continuous
 62
     7
100
AcDbSpline
210
0.0
220
0.0
230
1.0
 70
     8
 71
     3
 72
    19
 73
    15
 74
    13
 42
0.0000000001
 43
0.0000000001
 44
0.00000001
 40
0.0
 40
0.0
 40
0.0
 40
0.0
 40
0.0323151378600815
 40
0.0646399977871116
 40
0.096974299952533
 40
0.1292882110406888
 40
0.1454536098095673
 40
0.1616217906871805
 40
0.1778063534961312
 40
0.1939890918858668
 40
0.2101993892823008
 40
0.2264513050765214
 40
0.2428488341013772
 40
0.259060665402187
 40
0.259060665402187
 40
0.259060665402187
 40
0.259060665402187
 10
112.737368405
 20
312.1406994111
 30
0.0
 10
112.7408572272904
 20
312.1508915034413
 30
0.0
 10
112.7478359214895
 20
312.171278754433
 30
0.0
 10
112.7596095853542
 20
312.2013941066734
 30
0.0
 10
112.7725549692327
 20
312.2310246310725
 30
0.0
 10
112.7848148632996
 20
312.2550385087644
 30
0.0
 10
112.7957213847442
 20
312.2736311708999
 30
0.0
 10
112.8045685386444
 20
312.2871773201516
 30
0.0
 10
112.8141779003358
 20
312.3002096237662
 30
0.0
 10
112.8247896079837
 20
312.3124598240622
 30
0.0
 10
112.8365920155312
 20
312.3236581481808
 30
0.0
 10
112.8500393754196
 20
312.3329135337831
 30
0.0
 10
112.8650839970798
 20
312.3397674137341
 30
0.0
 10
112.8759712205388
 20
312.3408122589081
 30
0.0
 10
112.881383833
 20
312.3413317065
 30
0.0
 11
112.737368405
 21
312.1406994111
 31
0.0
 11
112.7480521208404
 21
312.1711973839959
 31
0.0
 11
112.7598037249758
 21
312.2013104437797
 31
0.0
 11
112.7728522071229
 21
312.2308949703128
 31
0.0
 11
112.7876308850455
 21
312.2596313501939
 31
0.0
 11
112.7958311519559
 21
312.2735624571117
 31
0.0
 11
112.8046919144421
 21
312.2870863974049
 31
0.0
 11
112.8143438572469
 21
312.3000779359361
 31
0.0
 11
112.8249790293641
 21
312.3122752362862
 31
0.0
 11
112.8368458089271
 21
312.3233184823889
 31
0.0
 11
112.8502636799464
 21
312.3324882972339
 31
0.0
 11
112.8653552530103
 21
312.3389010486385
 31
0.0
 11
112.881383833
 21
312.3413317065
 31
0.0
  0
SPLINE
  5
10C
330
1F
100
AcDbEntity
  8
0
  6
Continuous
 62
     7
100
AcDbSpline
210
0.0
220
0.0
230
1.0
 70
     8
 71
     3
 72
    19
 73
    15
 74
    13
 42
0.0000000001
 43
0.0000000001
 44
0.00000001
 40
0.0
 40
0.0
 40
0.0
 40
0.0
 40
0.0162157579176693
 40
0.032622684028481
 40
0.0488914582641834
 40
0.0651130425790869
 40
0.0812845012887692
 40
0.0974608275198293
 40
0.1136293935495764
 40
0.1297937135420874
 40
0.1620994000112665
 40
0.194427004640171
 40
0.2267452805471772
 40
0.2590534185592482
 40
0.2590534185592482
 40
0.2590534185592482
 40
0.2590534185592482
 10
112.881383833
 20
318.1690671158
 30
0.0
 10
112.8759700061518
 20
318.1695904185048
 30
0.0
 10
112.8650785286427
 20
318.1706431931501
 30
0.0
 10
112.8500349482538
 20
318.1775217938962
 30
0.0
 10
112.8365685251187
 20
318.1867683794666
 30
0.0
 10
112.8247483645254
 20
318.1979577927466
 30
0.0
 10
112.8141472181686
 20
318.2102143237377
 30
0.0
 10
112.8045558579839
 20
318.2232516516519
 30
0.0
 10
112.7957108871803
 20
318.2367953715234
 30
0.0
 10
112.7847994916543
 20
318.2553817634403
 30
0.0
 10
112.7725427505373
 20
318.2793915631734
 30
0.0
 10
112.7596057210152
 20
318.3090178407475
 30
0.0
 10
112.7478344518632
 20
318.3391268116425
 30
0.0
 10
112.7408567224241
 20
318.3595096104253
 30
0.0
 10
112.737368405
 20
318.3696994111
 30
0.0
 11
112.881383833
 21
318.1690671158
 31
0.0
 11
112.8653532814843
 21
318.1715109289983
 31
0.0
 11
112.8502584591467
 21
318.1779400473673
 31
0.0
 11
112.8368202645979
 21
318.1871099951534
 31
0.0
 11
112.8249363160243
 21
318.1981513521345
 31
0.0
 11
112.8143146177831
 21
318.2103454327998
 31
0.0
 11
112.8046785672561
 21
318.2233385102095
 31
0.0
 11
112.7958195047845
 21
318.2368640246021
 31
0.0
 11
112.7876164864252
 21
318.2507922596165
 31
0.0
 11
112.7728409063305
 21
318.2795209841115
 31
0.0
 11
112.7597989099002
 21
318.3091010508821
 31
0.0
 11
112.7480504436412
 21
318.3392082675945
 31
0.0
 11
112.737368405
 21
318.3696994111
 31
0.0
  0
SPLINE
  5
10D
330
1F
100
AcDbEntity
  8
0
  6
Continuous
 62
     7
100
AcDbSpline
210
0.0
220
0.0
230
1.0
 70
     8
 71
     3
 72
    19
 73
    15
 74
    13
 42
0.0000000001
 43
0.0000000001
 44
0.00000001
 40
0.0
 40
0.0
 40
0.0
 40
0.0
 40
0.0323407211844237
 40
0.0646896689226867
 40
0.0970430073012543
 40
0.1293811553256252
 40
0.1455604632454425
 40
0.161738009014227
 40
0.1779190469342216
 40
0.1941069132458179
 40
0.210306480336361
 40
0.2265329504374873
 40
0.2428873473841061
 40
0.2590698530641434
 40
0.2590698530641434
 40
0.2590698530641434
 40
0.2590698530641434
 10
114.600399261
 20
318.3696994111
 30
0.0
 10
114.5969087108794
 20
318.3594989036783
 30
0.0
 10
114.589926722742
 20
318.3390952941177
 30
0.0
 10
114.5781445028247
 20
318.3089584385283
 30
0.0
 10
114.5651663031251
 20
318.2793174564716
 30
0.0
 10
114.5528930362038
 20
318.2552901851006
 30
0.0
 10
114.5420023702797
 20
318.2366700428034
 30
0.0
 10
114.5331513577817
 20
318.2231174753388
 30
0.0
 10
114.5234928683126
 20
318.2101159196397
 30
0.0
 10
114.5128514554125
 20
318.1978979577613
 30
0.0
 10
114.5010916374973
 20
318.1866744685614
 30
0.0
 10
114.4876898447568
 20
318.1773914656827
 30
0.0
 10
114.4726503315114
 20
318.1706009956208
 30
0.0
 10
114.461786868745
 20
318.1695766051344
 30
0.0
 10
114.456383833
 20
318.1690671158
 30
0.0
 11
114.600399261
 21
318.3696994111
 31
0.0
 11
114.589709631884
 21
318.339176402138
 31
0.0
 11
114.5779456542326
 21
318.309042314304
 31
0.0
 11
114.5648726384854
 21
318.2794478086735
 31
0.0
 11
114.5500834529302
 21
318.2506895784036
 31
0.0
 11
114.5418886987515
 21
318.2367390942287
 31
0.0
 11
114.5330177279061
 21
318.2232106477783
 31
0.0
 11
114.5233312560133
 21
318.2102492338724
 31
0.0
 11
114.5126695351135
 21
318.1980683175203
 31
0.0
 11
114.5008324121323
 21
318.1870090004776
 31
0.0
 11
114.4874528006281
 21
318.1778283508307
 31
0.0
 11
114.4723880007033
 21
318.1714629676756
 31
0.0
 11
114.456383833
 21
318.1690671158
 31
0.0
  0
SPLINE
  5
10E
330
1F
100
AcDbEntity
  8
0
  6
Continuous
 62
     7
100
AcDbSpline
210
0.0
220
0.0
230
1.0
 70
     8
 71
     3
 72
    11
 73
     7
 74
     5
 42
0.0000000001
 43
0.0000000001
 44
0.00000001
 40
0.0
 40
0.0
 40
0.0
 40
0.0
 40
0.0552416256141557
 40
0.110706748289542
 40
0.1596632274898652
 40
0.2081601315563572
 40
0.2081601315563572
 40
0.2081601315563572
 40
0.2081601315563572
 10
112.737368405
 20
318.3696994111
 30
0.0
 10
112.7219905746822
 20
318.3799944579936
 30
0.0
 10
112.6911726982837
 20
318.400626203573
 30
0.0
 10
112.6574237119341
 20
318.4427477872815
 30
0.0
 10
112.6356935806016
 20
318.4897757597446
 30
0.0
 10
112.6328158919552
 20
318.5223508356605
 30
0.0
 10
112.631383833
 20
318.5385615641
 30
0.0
 11
112.737368405
 21
318.3696994111
 31
0.0
 11
112.6930817143054
 21
318.4027194993466
 31
0.0
 11
112.6580888135276
 21
318.445752936678
 31
0.0
 11
112.6383968776588
 21
318.4905744105207
 31
0.0
 11
112.631383833
 21
318.5385615641
 31
0.0
  0
SPLINE
  5
10F
330
1F
100
AcDbEntity
  8
0
  6
Continuous
 62
     7
100
AcDbSpline
210
0.0
220
0.0
230
1.0
 70
     8
 71
     3
 72
    11
 73
     7
 74
     5
 42
0.0000000001
 43
0.0000000001
 44
0.00000001
 40
0.0
 40
0.0
 40
0.0
 40
0.0
 40
0.04848844504473
 40
0.0974363655519612
 40
0.1529099109376867
 40
0.2081599367567111
 40
0.2081599367567111
 40
0.2081599367567111
 40
0.2081599367567111
 10
114.706383833
 20
318.5385615641
 30
0.0
 10
114.7049522576152
 20
318.5223536679565
 30
0.0
 10
114.702075541268
 20
318.489784289994
 30
0.0
 10
114.6803497540017
 20
318.4427578869929
 30
0.0
 10
114.646601592002
 20
318.4006316364472
 30
0.0
 10
114.615779297503
 20
318.3799962672248
 30
0.0
 10
114.600399261
 20
318.3696994111
 30
0.0
 11
114.706383833
 21
318.5385615641
 31
0.0
 11
114.6993730888294
 21
318.4905826232089
 31
0.0
 11
114.6796873869729
 21
318.4457677588847
 31
0.0
 11
114.6446919112511
 21
318.4027255596301
 31
0.0
 11
114.600399261
 21
318.3696994111
 31
0.0
  0
SPLINE
  5
110
330
1F
100
AcDbEntity
  8
0
  6
Continuous
 62
     7
100
AcDbSpline
210
0.0
220
0.0
230
1.0
 70
     8
 71
     3
 72
    11
 73
     7
 74
     5
 42
0.0000000001
 43
0.0000000001
 44
0.00000001
 40
0.0
 40
0.0
 40
0.0
 40
0.0
 40
0.0484969040428708
 40
0.0974533832194049
 40
0.1529185059035236
 40
0.2081601314809496
 40
0.2081601314809496
 40
0.2081601314809496
 40
0.2081601314809496
 10
112.631383833
 20
311.9718372582
 30
0.0
 10
112.6328158919545
 20
311.9880479866322
 30
0.0
 10
112.6356935805997
 20
312.0206230625334
 30
0.0
 10
112.6574237119474
 20
312.0676510349722
 30
0.0
 10
112.6911726982623
 20
312.1097726186902
 30
0.0
 10
112.7219905746793
 20
312.1304043642303
 30
0.0
 10
112.737368405
 20
312.1406994111
 30
0.0
 11
112.631383833
 21
311.9718372582
 31
0.0
 11
112.6383968776588
 21
312.0198244117555
 31
0.0
 11
112.6580888135276
 21
312.0646458855722
 31
0.0
 11
112.6930817143054
 21
312.1076793229148
 31
0.0
 11
112.737368405
 21
312.1406994111
 31
0.0
  0
SPLINE
  5
111
330
1F
100
AcDbEntity
  8
0
  6
Continuous
 62
     7
100
AcDbSpline
210
0.0
220
0.0
230
1.0
 70
     8
 71
     3
 72
    11
 73
     7
 74
     5
 42
0.0000000001
 43
0.0000000001
 44
0.00000001
 40
0.0
 40
0.0
 40
0.0
 40
0.0
 40
0.0552500258012309
 40
0.1107235711493526
 40
0.1596714916389874
 40
0.2081599366811321
 40
0.2081599366811321
 40
0.2081599366811321
 40
0.2081599366811321
 10
114.600399261
 20
312.1406994111
 30
0.0
 10
114.6157792975017
 20
312.1304025549846
 30
0.0
 10
114.6466015919926
 20
312.1097671857848
 30
0.0
 10
114.6803497540082
 20
312.0676409352825
 30
0.0
 10
114.7020755412693
 20
312.0206145322983
 30
0.0
 10
114.7049522576154
 20
311.9880451543427
 30
0.0
 10
114.706383833
 20
311.9718372582
 30
0.0
 11
114.600399261
 21
312.1406994111
 31
0.0
 11
114.6446919112511
 21
312.1076732625996
 31
0.0
 11
114.6796873869729
 21
312.0646310633935
 31
0.0
 11
114.6993730888294
 21
312.0198161990885
 31
0.0
 11
114.706383833
 21
311.9718372582
 31
0.0
  0
SPLINE
  5
112
330
1F
100
AcDbEntity
  8
0
  6
Continuous
 62
     7
100
AcDbSpline
210
0.0
220
0.0
230
1.0
 70
     8
 71
     3
 72
    11
 73
     7
 74
     5
 42
0.0000000001
 43
0.0000000001
 44
0.00000001
 40
0.0
 40
0.0
 40
0.0
 40
0.0
 40
0.2243303822139857
 40
0.4487450663835606
 40
0.6263697310361077
 40
0.8039157765169439
 40
0.8039157765169439
 40
0.8039157765169439
 40
0.8039157765169439
 10
82.718883833
 20
319.39765371
 30
0.0
 10
82.7139096555276
 20
319.4724865677953
 30
0.0
 10
82.70395943131797
 20
319.6221804051062
 30
0.0
 10
82.64359779281094
 20
319.8234438842696
 30
0.0
 10
82.57187873744718
 20
320.0029599669932
 30
0.0
 10
82.516667631579
 20
320.1077939982787
 30
0.0
 10
82.4890681893
 20
320.1601994111
 30
0.0
 11
82.718883833
 21
319.39765371
 31
0.0
 11
82.69564088198118
 21
319.6207767379738
 31
0.0
 11
82.63565964967657
 21
319.8370270610768
 31
0.0
 11
82.56905236936738
 21
320.0016903286951
 31
0.0
 11
82.4890681893
 21
320.1601994111
 31
0.0
  0
SPLINE
  5
113
330
1F
100
AcDbEntity
  8
0
  6
Continuous
 62
     7
100
AcDbSpline
210
0.0
220
0.0
230
1.0
 70
    24
 71
     3
 72
     9
 73
     5
 74
     3
 42
0.0000000001
 43
0.0000000001
 44
0.00000001
 40
0.0
 40
0.0
 40
0.0
 40
0.0
 40
0.0347035328232778
 40
0.0694070654444374
 40
0.0694070654444374
 40
0.0694070654444374
 40
0.0694070654444374
 10
82.338859849684
 20
310.119357411838
 30
0.0
 10
82.34711370560194
 20
310.1274622797359
 30
0.0
 10
82.36362141738977
 20
310.1436720154845
 30
0.0
 10
82.38012912929418
 20
310.1598817511147
 30
0.0
 10
82.3883829852223
 20
310.167986618906
 30
0.0
 11
82.338859849684
 21
310.119357411838
 31
0.0
 11
82.36362141746699
 21
310.1436720155021
 31
0.0
 11
82.3883829852223
 21
310.167986618906
 31
0.0
  0
SPLINE
  5
114
330
1F
100
AcDbEntity
  8
0
  6
Continuous
 62
     7
100
AcDbSpline
210
0.0
220
0.0
230
1.0
 70
    24
 71
     3
 72
     9
 73
     5
 74
     3
 42
0.0000000001
 43
0.0000000001
 44
0.00000001
 40
0.0
 40
0.0
 40
0.0
 40
0.0
 40
0.0347035326824926
 40
0.0694070655144924
 40
0.0694070655144924
 40
0.0694070655144924
 40
0.0694070655144924
 10
82.3883829852223
 20
320.342412203294
 30
0.0
 10
82.38012912929727
 20
320.3505170711177
 30
0.0
 10
82.36362141741171
 20
320.3667268068002
 30
0.0
 10
82.3471137056051
 20
320.3829365425631
 30
0.0
 10
82.338859849684
 20
320.391041410462
 30
0.0
 11
82.3883829852223
 21
320.342412203294
 31
0.0
 11
82.36362141746699
 21
320.3667268067854
 31
0.0
 11
82.338859849684
 21
320.391041410462
 31
0.0
  0
SPLINE
  5
115
330
1F
100
AcDbEntity
  8
0
  6
Continuous
 62
     7
100
AcDbSpline
210
0.0
220
0.0
230
1.0
 70
     8
 71
     3
 72
    11
 73
     7
 74
     5
 42
0.0000000001
 43
0.0000000001
 44
0.00000001
 40
0.0
 40
0.0
 40
0.0
 40
0.0
 40
0.2552059510081432
 40
0.5103908165087936
 40
0.657313775536296
 40
0.8040138995607827
 40
0.8040138995607827
 40
0.8040138995607827
 40
0.8040138995607827
 10
82.4890681893
 20
310.3501994111
 30
0.0
 10
82.52807834451394
 20
310.4259125173074
 30
0.0
 10
82.60609543186293
 20
310.5773324741891
 30
0.0
 10
82.67513056226605
 20
310.7862396971235
 30
0.0
 10
82.71246603314955
 20
310.9658796367108
 30
0.0
 10
82.71674564900493
 20
311.0638147285782
 30
0.0
 10
82.718883833
 20
311.1127451123
 30
0.0
 11
82.4890681893
 21
310.3501994111
 31
0.0
 11
82.59999497350424
 21
310.5800370189367
 31
0.0
 11
82.68050957520938
 21
310.8221872088867
 31
0.0
 11
82.70855133510008
 21
310.9664093139595
 31
0.0
 11
82.718883833
 21
311.1127451123
 31
0.0
  0
DIMENSION
  5
120
330
1F
100
AcDbEntity
  8
1
100
AcDbDimension
  2
*D2
 10
189.390136648246
 20
310.2551994111
 30
0.0
 11
185.640136648246
 21
315.10632261886
 31
0.0
 70
    32
  1
<>
 71
     5
 42
-1.0
 53
90.0
  3
ME10_DIM_10
100
AcDbAlignedDimension
 13
177.668883833
 23
320.2551994111
 33
0.0
 14
177.668883833
 24
310.2551994111
 34
0.0
 50
90.0
100
AcDbRotatedDimension
  0
DIMENSION
  5
12B
330
1F
100
AcDbEntity
  8
1
100
AcDbDimension
  2
*D3
 10
198.419572645286
 20
327.2551994111466
 30
0.0
 11
194.669572645286
 21
315.177420540097
 31
0.0
 70
    32
  1
<>
 71
     5
 42
-1.0
 53
90.0
  3
ME10_DIM_11
100
AcDbAlignedDimension
 13
177.668883833
 23
303.2551994111486
 33
0.0
 14
177.6688838329949
 24
327.2551994111466
 34
0.0
 50
90.0
100
AcDbRotatedDimension
  0
DIMENSION
  5
136
330
1F
100
AcDbEntity
  8
1
100
AcDbDimension
  2
*D4
 10
177.668883833
 20
345.804017044099
 30
0.0
 11
148.624569976262
 21
349.554017044099
 31
0.0
 70
    32
  1
<>
 71
     5
 42
-1.0
 53
0.00013888888889
  3
ME10_DIM_12
100
AcDbAlignedDimension
 13
117.618883833
 23
331.255135776
 33
0.0
 14
177.668883833
 24
326.3308089195
 34
0.0
100
AcDbRotatedDimension
  0
DIMENSION
  5
141
330
1F
100
AcDbEntity
  8
1
100
AcDbDimension
  2
*D5
 10
177.668883833
 20
354.508720727066
 30
0.0
 11
139.031631223603
 21
358.258720727066
 31
0.0
 70
    32
  1
<>
 71
     5
 42
-1.0
 53
0.00013888888889
  3
ME10_DIM_13
100
AcDbAlignedDimension
 13
97.668883833
 23
331.2551994111
 33
0.0
 14
177.668883833
 24
326.3308089195
 34
0.0
100
AcDbRotatedDimension
  0
DIMENSION
  5
14C
330
1F
100
AcDbEntity
  8
1
100
AcDbDimension
  2
*D6
 10
177.668883833
 20
362.59165986125
 30
0.0
 11
133.435750284553
 21
366.34165986125
 31
0.0
 70
    32
  1
<>
 71
     5
 42
-1.0
 53
0.00013888888889
  3
ME10_DIM_14
100
AcDbAlignedDimension
 13
81.768883833
 23
326.0517036459
 33
0.0
 14
177.668883833
 24
326.3308089195
 34
0.0
100
AcDbRotatedDimension
  0
INSERT
  5
153
330
1F
100
AcDbEntity
  8
1
100
AcDbBlockReference
  2
*D7
 10
0.0
 20
0.0
 30
0.0
  0
DIMENSION
  5
15E
330
1F
100
AcDbEntity
  8
1
100
AcDbDimension
  2
*D8
 10
164.2493972212155
 20
329.4957354496424
 30
0.0
 11
167.3063366215472
 21
337.6004624892947
 31
0.0
 70
    37
  1
<>
 71
     5
 42
-1.0
  3
ME10_DIM_15
100
AcDb3PointAngularDimension
 13
164.1798722106851
 23
328.3168076491799
 33
0.0
 14
134.2973429287
 24
330.6764838786
 34
0.0
 15
134.1973429287
 25
330.6764838786
 35
0.0
  0
ENDSEC
  0
SECTION
  2
OBJECTS
  0
DICTIONARY
  5
C
330
0
100
AcDbDictionary
281
     1
  3
ACAD_GROUP
350
D
  3
ACAD_LAYOUT
350
1A
  3
ACAD_MLEADERSTYLE
350
161
  3
ACAD_MLINESTYLE
350
17
  3
ACAD_PLOTSETTINGS
350
19
  3
ACAD_PLOTSTYLENAME
350
E
  3
ACAD_SCALELIST
350
4C
  3
ACAD_VISUALSTYLE
350
2A
  3
AcDbVariableDictionary
350
15F
  0
DICTIONARY
  5
D
102
{ACAD_REACTORS
330
C
102
}
330
C
100
AcDbDictionary
281
     1
  0
DICTIONARY
  5
1A
102
{ACAD_REACTORS
330
C
102
}
330
C
100
AcDbDictionary
281
     1
  3
Layout1
350
1E
  3
Layout2
350
26
  3
Model
350
22
  0
DICTIONARY
  5
161
102
{ACAD_REACTORS
330
C
102
}
330
C
100
AcDbDictionary
281
     1
  0
DICTIONARY
  5
17
102
{ACAD_REACTORS
330
C
102
}
330
C
100
AcDbDictionary
281
     1
  3
Standard
350
18
  0
DICTIONARY
  5
19
102
{ACAD_REACTORS
330
C
102
}
330
C
100
AcDbDictionary
281
     1
  0
ACDBDICTIONARYWDFLT
  5
E
102
{ACAD_REACTORS
330
C
102
}
330
C
100
AcDbDictionary
281
     1
  3
Normal
350
F
100
AcDbDictionaryWithDefault
340
F
  0
DICTIONARY
  5
4C
102
{ACAD_REACTORS
330
C
102
}
330
C
100
AcDbDictionary
281
     1
  3
A0
350
4D
  3
A1
350
4E
  3
A2
350
4F
  3
A3
350
50
  3
A4
350
51
  3
A5
350
52
  3
A6
350
53
  3
A7
350
54
  3
A8
350
55
  3
A9
350
56
  3
B0
350
57
  3
B1
350
58
  3
B2
350
59
  3
B3
350
5A
  3
B4
350
5B
  3
B5
350
5C
  3
B6
350
5D
  3
B7
350
5E
  3
B8
350
5F
  3
B9
350
60
  3
C0
350
61
  3
C1
350
62
  3
C2
350
63
  3
C3
350
64
  3
C4
350
65
  3
C5
350
66
  3
C6
350
67
  3
C7
350
68
  3
C8
350
69
  3
C9
350
6A
  3
D0
350
6B
  3
D1
350
6C
  3
D2
350
6D
  0
DICTIONARY
  5
2A
102
{ACAD_REACTORS
330
C
102
}
330
C
100
AcDbDictionary
281
     1
  3
2dWireframe
350
2F
  3
3D Hidden
350
31
  3
3dWireframe
350
30
  3
Basic
350
32
  3
Brighten
350
36
  3
ColorChange
350
3A
  3
Conceptual
350
34
  3
Dim
350
35
  3
Facepattern
350
39
  3
Flat
350
2B
  3
FlatWithEdges
350
2C
  3
Gouraud
350
2D
  3
GouraudWithEdges
350
2E
  3
Linepattern
350
38
  3
Realistic
350
33
  3
Thicken
350
37
  0
DICTIONARY
  5
15F
102
{ACAD_REACTORS
330
C
102
}
330
C
100
AcDbDictionary
281
     1
  3
CANNOSCALE
350
162
  0
LAYOUT
  5
1E
102
{ACAD_REACTORS
330
1A
102
}
330
1A
100
AcDbPlotSettings
  1

  2
none_device
  4

  6

 40
0.0
 41
0.0
 42
0.0
 43
0.0
 44
0.0
 45
0.0
 46
0.0
 47
0.0
 48
0.0
 49
0.0
140
0.0
141
0.0
142
1.0
143
1.0
 70
   688
 72
     0
 73
     0
 74
     5
  7

 75
    16
147
1.0
148
0.0
149
0.0
100
AcDbLayout
  1
Layout1
 70
     1
 71
     1
 10
0.0
 20
0.0
 11
12.0
 21
9.0
 12
0.0
 22
0.0
 32
0.0
 14
1.00000000000000E+20
 24
1.00000000000000E+20
 34
1.00000000000000E+20
 15
-1.00000000000000E+20
 25
-1.00000000000000E+20
 35
-1.00000000000000E+20
146
0.0
 13
0.0
 23
0.0
 33
0.0
 16
1.0
 26
0.0
 36
0.0
 17
0.0
 27
1.0
 37
0.0
 76
     0
330
1B
  0
LAYOUT
  5
26
102
{ACAD_REACTORS
330
1A
102
}
330
1A
100
AcDbPlotSettings
  1

  2
none_device
  4

  6

 40
0.0
 41
0.0
 42
0.0
 43
0.0
 44
0.0
 45
0.0
 46
0.0
 47
0.0
 48
0.0
 49
0.0
140
0.0
141
0.0
142
1.0
143
1.0
 70
   688
 72
     0
 73
     0
 74
     5
  7

 75
    16
147
1.0
148
0.0
149
0.0
100
AcDbLayout
  1
Layout2
 70
     1
 71
     2
 10
0.0
 20
0.0
 11
0.0
 21
0.0
 12
0.0
 22
0.0
 32
0.0
 14
0.0
 24
0.0
 34
0.0
 15
0.0
 25
0.0
 35
0.0
146
0.0
 13
0.0
 23
0.0
 33
0.0
 16
1.0
 26
0.0
 36
0.0
 17
0.0
 27
1.0
 37
0.0
 76
     0
330
23
  0
LAYOUT
  5
22
102
{ACAD_REACTORS
330
1A
102
}
330
1A
100
AcDbPlotSettings
  1

  2
none_device
  4

  6

 40
0.0
 41
0.0
 42
0.0
 43
0.0
 44
0.0
 45
0.0
 46
0.0
 47
0.0
 48
0.0
 49
0.0
140
0.0
141
0.0
142
1.0
143
1.0
 70
  1712
 72
     0
 73
     0
 74
     0
  7

 75
     0
147
1.0
148
0.0
149
0.0
100
AcDbLayout
  1
Model
 70
     1
 71
     0
 10
0.0
 20
0.0
 11
12.0
 21
9.0
 12
0.0
 22
0.0
 32
0.0
 14
59.1753839206979
 24
275.6687134355788
 34
0.0
 15
200.419572645286
 25
384.438100352885
 35
0.0
146
0.0
 13
0.0
 23
0.0
 33
0.0
 16
1.0
 26
0.0
 36
0.0
 17
0.0
 27
1.0
 37
0.0
 76
     0
330
1F
331
29
  0
MLINESTYLE
  5
18
102
{ACAD_REACTORS
330
17
102
}
330
17
100
AcDbMlineStyle
  2
Standard
 70
     0
  3

 62
   256
 51
90.0
 52
90.0
 71
     2
 49
0.5
 62
   256
  6
BYLAYER
 49
-0.5
 62
   256
  6
BYLAYER
  0
ACDBPLACEHOLDER
  5
F
102
{ACAD_REACTORS
330
E
102
}
330
E
  0
SCALE
  5
4D
102
{ACAD_REACTORS
330
4C
102
}
330
4C
100
AcDbScale
 70
     0
300
1:1
140
1.0
141
1.0
290
     1
  0
SCALE
  5
4E
102
{ACAD_REACTORS
330
4C
102
}
330
4C
100
AcDbScale
 70
     0
300
1:2
140
1.0
141
2.0
290
     0
  0
SCALE
  5
4F
102
{ACAD_REACTORS
330
4C
102
}
330
4C
100
AcDbScale
 70
     0
300
1:4
140
1.0
141
4.0
290
     0
  0
SCALE
  5
50
102
{ACAD_REACTORS
330
4C
102
}
330
4C
100
AcDbScale
 70
     0
300
1:5
140
1.0
141
5.0
290
     0
  0
SCALE
  5
51
102
{ACAD_REACTORS
330
4C
102
}
330
4C
100
AcDbScale
 70
     0
300
1:8
140
1.0
141
8.0
290
     0
  0
SCALE
  5
52
102
{ACAD_REACTORS
330
4C
102
}
330
4C
100
AcDbScale
 70
     0
300
1:10
140
1.0
141
10.0
290
     0
  0
SCALE
  5
53
102
{ACAD_REACTORS
330
4C
102
}
330
4C
100
AcDbScale
 70
     0
300
1:16
140
1.0
141
16.0
290
     0
  0
SCALE
  5
54
102
{ACAD_REACTORS
330
4C
102
}
330
4C
100
AcDbScale
 70
     0
300
1:20
140
1.0
141
20.0
290
     0
  0
SCALE
  5
55
102
{ACAD_REACTORS
330
4C
102
}
330
4C
100
AcDbScale
 70
     0
300
1:30
140
1.0
141
30.0
290
     0
  0
SCALE
  5
56
102
{ACAD_REACTORS
330
4C
102
}
330
4C
100
AcDbScale
 70
     0
300
1:40
140
1.0
141
40.0
290
     0
  0
SCALE
  5
57
102
{ACAD_REACTORS
330
4C
102
}
330
4C
100
AcDbScale
 70
     0
300
1:50
140
1.0
141
50.0
290
     0
  0
SCALE
  5
58
102
{ACAD_REACTORS
330
4C
102
}
330
4C
100
AcDbScale
 70
     0
300
1:100
140
1.0
141
100.0
290
     0
  0
SCALE
  5
59
102
{ACAD_REACTORS
330
4C
102
}
330
4C
100
AcDbScale
 70
     0
300
2:1
140
2.0
141
1.0
290
     0
  0
SCALE
  5
5A
102
{ACAD_REACTORS
330
4C
102
}
330
4C
100
AcDbScale
 70
     0
300
4:1
140
4.0
141
1.0
290
     0
  0
SCALE
  5
5B
102
{ACAD_REACTORS
330
4C
102
}
330
4C
100
AcDbScale
 70
     0
300
8:1
140
8.0
141
1.0
290
     0
  0
SCALE
  5
5C
102
{ACAD_REACTORS
330
4C
102
}
330
4C
100
AcDbScale
 70
     0
300
10:1
140
10.0
141
1.0
290
     0
  0
SCALE
  5
5D
102
{ACAD_REACTORS
330
4C
102
}
330
4C
100
AcDbScale
 70
     0
300
100:1
140
100.0
141
1.0
290
     0
  0
SCALE
  5
5E
102
{ACAD_REACTORS
330
4C
102
}
330
4C
100
AcDbScale
 70
     0
300
1/128" = 1'-0"
140
0.0078125
141
12.0
290
     0
  0
SCALE
  5
5F
102
{ACAD_REACTORS
330
4C
102
}
330
4C
100
AcDbScale
 70
     0
300
1/64" = 1'-0"
140
0.015625
141
12.0
290
     0
  0
SCALE
  5
60
102
{ACAD_REACTORS
330
4C
102
}
330
4C
100
AcDbScale
 70
     0
300
1/32" = 1'-0"
140
0.03125
141
12.0
290
     0
  0
SCALE
  5
61
102
{ACAD_REACTORS
330
4C
102
}
330
4C
100
AcDbScale
 70
     0
300
1/16" = 1'-0"
140
0.0625
141
12.0
290
     0
  0
SCALE
  5
62
102
{ACAD_REACTORS
330
4C
102
}
330
4C
100
AcDbScale
 70
     0
300
3/32" = 1'-0"
140
0.09375
141
12.0
290
     0
  0
SCALE
  5
63
102
{ACAD_REACTORS
330
4C
102
}
330
4C
100
AcDbScale
 70
     0
300
1/8" = 1'-0"
140
0.125
141
12.0
290
     0
  0
SCALE
  5
64
102
{ACAD_REACTORS
330
4C
102
}
330
4C
100
AcDbScale
 70
     0
300
3/16" = 1'-0"
140
0.1875
141
12.0
290
     0
  0
SCALE
  5
65
102
{ACAD_REACTORS
330
4C
102
}
330
4C
100
AcDbScale
 70
     0
300
1/4" = 1'-0"
140
0.25
141
12.0
290
     0
  0
SCALE
  5
66
102
{ACAD_REACTORS
330
4C
102
}
330
4C
100
AcDbScale
 70
     0
300
3/8" = 1'-0"
140
0.375
141
12.0
290
     0
  0
SCALE
  5
67
102
{ACAD_REACTORS
330
4C
102
}
330
4C
100
AcDbScale
 70
     0
300
1/2" = 1'-0"
140
0.5
141
12.0
290
     0
  0
SCALE
  5
68
102
{ACAD_REACTORS
330
4C
102
}
330
4C
100
AcDbScale
 70
     0
300
3/4" = 1'-0"
140
0.75
141
12.0
290
     0
  0
SCALE
  5
69
102
{ACAD_REACTORS
330
4C
102
}
330
4C
100
AcDbScale
 70
     0
300
1" = 1'-0"
140
1.0
141
12.0
290
     0
  0
SCALE
  5
6A
102
{ACAD_REACTORS
330
4C
102
}
330
4C
100
AcDbScale
 70
     0
300
1-1/2" = 1'-0"
140
1.5
141
12.0
290
     0
  0
SCALE
  5
6B
102
{ACAD_REACTORS
330
4C
102
}
330
4C
100
AcDbScale
 70
     0
300
3" = 1'-0"
140
3.0
141
12.0
290
     0
  0
SCALE
  5
6C
102
{ACAD_REACTORS
330
4C
102
}
330
4C
100
AcDbScale
 70
     0
300
6" = 1'-0"
140
6.0
141
12.0
290
     0
  0
SCALE
  5
6D
102
{ACAD_REACTORS
330
4C
102
}
330
4C
100
AcDbScale
 70
     0
300
1'-0" = 1'-0"
140
12.0
141
12.0
290
     0
  0
VISUALSTYLE
  5
2F
102
{ACAD_REACTORS
330
2A
102
}
330
2A
100
AcDbVisualStyle
  2
2dWireframe
 70
     4
 71
     0
 72
     2
 73
     0
 90
        0
 40
-0.6
 41
-30.0
 62
     5
 63
     7
 74
     1
 91
        4
 64
     7
 65
   257
 75
     1
175
     1
 42
1.0
 92
        0
 66
   257
 43
1.0
 76
     1
 77
     6
 78
     2
 67
     7
 79
     5
170
     0
171
     0
290
     0
174
     0
 93
        1
 44
0.0
173
     0
291
     0
 45
0.0
1001
ACAD
1000
AcDbSavedByObjectVersion
1070
     0
  0
VISUALSTYLE
  5
31
102
{ACAD_REACTORS
330
2A
102
}
330
2A
100
AcDbVisualStyle
  2
3D Hidden
 70
     6
 71
     1
 72
     2
 73
     2
 90
        0
 40
-0.6
 41
-30.0
 62
     5
 63
     7
 74
     2
 91
        2
 64
     7
 65
   257
 75
     2
175
     1
 42
40.0
 92
        0
 66
   257
 43
1.0
 76
     1
 77
     6
 78
     2
 67
     7
 79
     3
170
     0
171
     0
290
     0
174
     0
 93
        1
 44
0.0
173
     0
291
     0
 45
0.0
1001
ACAD
1000
AcDbSavedByObjectVersion
1070
     0
  0
VISUALSTYLE
  5
30
102
{ACAD_REACTORS
330
2A
102
}
330
2A
100
AcDbVisualStyle
  2
3dWireframe
 70
     5
 71
     0
 72
     2
 73
     0
 90
        0
 40
-0.6
 41
-30.0
 62
     5
 63
     7
 74
     1
 91
        4
 64
     7
 65
   257
 75
     1
175
     1
 42
1.0
 92
        0
 66
   257
 43
1.0
 76
     1
 77
     6
 78
     2
 67
     7
 79
     5
170
     0
171
     0
290
     0
174
     0
 93
        1
 44
0.0
173
     0
291
     0
 45
0.0
1001
ACAD
1000
AcDbSavedByObjectVersion
1070
     0
  0
VISUALSTYLE
  5
32
102
{ACAD_REACTORS
330
2A
102
}
330
2A
100
AcDbVisualStyle
  2
Basic
 70
     7
 71
     1
 72
     0
 73
     1
 90
        0
 40
-0.6
 41
-30.0
 62
     5
 63
     7
 74
     0
 91
        4
 64
     7
 65
   257
 75
     1
175
     1
 42
1.0
 92
        8
 66
     7
 43
1.0
 76
     1
 77
     6
 78
     2
 67
     7
 79
     5
170
     0
171
     0
290
     0
174
     0
 93
        1
 44
0.0
173
     0
291
     1
 45
0.0
1001
ACAD
1000
AcDbSavedByObjectVersion
1070
     0
  0
VISUALSTYLE
  5
36
102
{ACAD_REACTORS
330
2A
102
}
330
2A
100
AcDbVisualStyle
  2
Brighten
 70
    12
 71
     2
 72
     2
 73
     0
 90
        0
 40
-0.6
 41
-30.0
 62
     5
 63
     7
 74
     1
 91
        4
 64
     7
 65
   257
 75
     1
175
     1
 42
1.0
 92
        8
 66
     7
 43
1.0
 76
     1
 77
     6
 78
     2
 67
     7
 79
     5
170
     0
171
     0
290
     0
174
     0
 93
        1
 44
50.0
173
     0
291
     1
 45
0.0
1001
ACAD
1000
AcDbSavedByObjectVersion
1070
     0
  0
VISUALSTYLE
  5
3A
102
{ACAD_REACTORS
330
2A
102
}
330
2A
100
AcDbVisualStyle
  2
ColorChange
 70
    16
 71
     2
 72
     2
 73
     3
 90
        0
 40
-0.6
 41
-30.0
 62
     5
 63
     8
 74
     1
 91
        4
 64
     7
 65
   257
 75
     1
175
     1
 42
1.0
 92
        8
 66
     8
 43
1.0
 76
     1
 77
     6
 78
     2
 67
     7
 79
     5
170
     0
171
     0
290
     0
174
     0
 93
        1
 44
0.0
173
     0
291
     1
 45
0.0
1001
ACAD
1000
AcDbSavedByObjectVersion
1070
     0
  0
VISUALSTYLE
  5
34
102
{ACAD_REACTORS
330
2A
102
}
330
2A
100
AcDbVisualStyle
  2
Conceptual
 70
     9
 71
     3
 72
     2
 73
     0
 90
        0
 40
-0.6
 41
-30.0
 62
     5
 63
     7
 74
     2
 91
        2
 64
     7
 65
   257
 75
     1
175
     1
 42
40.0
 92
        8
 66
     7
 43
1.0
 76
     1
 77
     6
 78
     2
 67
     7
 79
     3
170
     0
171
     0
290
     0
174
     0
 93
        1
 44
0.0
173
     0
291
     0
 45
0.0
1001
ACAD
1000
AcDbSavedByObjectVersion
1070
     0
  0
VISUALSTYLE
  5
35
102
{ACAD_REACTORS
330
2A
102
}
330
2A
100
AcDbVisualStyle
  2
Dim
 70
    11
 71
     2
 72
     2
 73
     0
 90
        0
 40
-0.6
 41
-30.0
 62
     5
 63
     7
 74
     1
 91
        4
 64
     7
 65
   257
 75
     1
175
     1
 42
1.0
 92
        8
 66
     7
 43
1.0
 76
     1
 77
     6
 78
     2
 67
     7
 79
     5
170
     0
171
     0
290
     0
174
     0
 93
        1
 44
-50.0
173
     0
291
     1
 45
0.0
1001
ACAD
1000
AcDbSavedByObjectVersion
1070
     0
  0
VISUALSTYLE
  5
39
102
{ACAD_REACTORS
330
2A
102
}
330
2A
100
AcDbVisualStyle
  2
Facepattern
 70
    15
 71
     2
 72
     2
 73
     0
 90
        0
 40
-0.6
 41
-30.0
 62
     5
 63
     7
 74
     1
 91
        4
 64
     7
 65
   257
 75
     1
175
     1
 42
1.0
 92
        8
 66
     7
 43
1.0
 76
     1
 77
     6
 78
     2
 67
     7
 79
     5
170
     0
171
     0
290
     0
174
     0
 93
        1
 44
0.0
173
     0
291
     1
 45
0.0
1001
ACAD
1000
AcDbSavedByObjectVersion
1070
     0
  0
VISUALSTYLE
  5
2B
102
{ACAD_REACTORS
330
2A
102
}
330
2A
100
AcDbVisualStyle
  2
Flat
 70
     0
 71
     2
 72
     1
 73
     1
 90
        2
 40
-0.6
 41
30.0
 62
     5
 63
     7
 74
     0
 91
        4
 64
     7
 65
   257
 75
     1
175
     1
 42
1.0
 92
        8
 66
     7
 43
1.0
 76
     1
 77
     6
 78
     2
 67
     7
 79
     5
170
     0
171
     0
290
     0
174
     0
 93
       13
 44
0.0
173
     0
291
     1
 45
0.0
1001
ACAD
1000
AcDbSavedByObjectVersion
1070
     0
  0
VISUALSTYLE
  5
2C
102
{ACAD_REACTORS
330
2A
102
}
330
2A
100
AcDbVisualStyle
  2
FlatWithEdges
 70
     1
 71
     2
 72
     1
 73
     1
 90
        2
 40
-0.6
 41
30.0
 62
     5
 63
     7
 74
     1
 91
        4
 64
     7
 65
   257
 75
     1
175
     1
 42
1.0
 92
        0
 66
   257
 43
1.0
 76
     1
 77
     6
 78
     2
 67
     7
 79
     5
170
     0
171
     0
290
     0
174
     0
 93
       13
 44
0.0
173
     0
291
     1
 45
0.0
1001
ACAD
1000
AcDbSavedByObjectVersion
1070
     0
  0
VISUALSTYLE
  5
2D
102
{ACAD_REACTORS
330
2A
102
}
330
2A
100
AcDbVisualStyle
  2
Gouraud
 70
     2
 71
     2
 72
     2
 73
     1
 90
        2
 40
-0.6
 41
30.0
 62
     5
 63
     7
 74
     0
 91
        4
 64
     7
 65
   257
 75
     1
175
     1
 42
1.0
 92
        0
 66
     7
 43
1.0
 76
     1
 77
     6
 78
     2
 67
     7
 79
     5
170
     0
171
     0
290
     0
174
     0
 93
       13
 44
0.0
173
     0
291
     1
 45
0.0
1001
ACAD
1000
AcDbSavedByObjectVersion
1070
     0
  0
VISUALSTYLE
  5
2E
102
{ACAD_REACTORS
330
2A
102
}
330
2A
100
AcDbVisualStyle
  2
GouraudWithEdges
 70
     3
 71
     2
 72
     2
 73
     1
 90
        2
 40
-0.6
 41
30.0
 62
     5
 63
     7
 74
     1
 91
        4
 64
     7
 65
   257
 75
     1
175
     1
 42
1.0
 92
        0
 66
   257
 43
1.0
 76
     1
 77
     6
 78
     2
 67
     7
 79
     5
170
     0
171
     0
290
     0
174
     0
 93
       13
 44
0.0
173
     0
291
     1
 45
0.0
1001
ACAD
1000
AcDbSavedByObjectVersion
1070
     0
  0
VISUALSTYLE
  5
38
102
{ACAD_REACTORS
330
2A
102
}
330
2A
100
AcDbVisualStyle
  2
Linepattern
 70
    14
 71
     2
 72
     2
 73
     0
 90
        0
 40
-0.6
 41
-30.0
 62
     5
 63
     7
 74
     1
 91
        4
 64
     7
 65
   257
 75
     7
175
     7
 42
1.0
 92
        8
 66
     7
 43
1.0
 76
     1
 77
     6
 78
     2
 67
     7
 79
     5
170
     0
171
     0
290
     0
174
     0
 93
        1
 44
0.0
173
     0
291
     1
 45
0.0
1001
ACAD
1000
AcDbSavedByObjectVersion
1070
     0
  0
VISUALSTYLE
  5
33
102
{ACAD_REACTORS
330
2A
102
}
330
2A
100
AcDbVisualStyle
  2
Realistic
 70
     8
 71
     2
 72
     2
 73
     0
 90
        0
 40
-0.6
 41
-30.0
 62
     5
 63
     7
 74
     1
 91
        0
 64
     7
 65
   257
 75
     1
175
     1
 42
1.0
 92
        8
 66
     8
 43
1.0
 76
     1
 77
     6
 78
     2
 67
     7
 79
     5
170
     0
171
     0
290
     0
174
     0
 93
       13
 44
0.0
173
     0
291
     0
 45
0.0
1001
ACAD
1000
AcDbSavedByObjectVersion
1070
     0
  0
VISUALSTYLE
  5
37
102
{ACAD_REACTORS
330
2A
102
}
330
2A
100
AcDbVisualStyle
  2
Thicken
 70
    13
 71
     2
 72
     2
 73
     0
 90
        0
 40
-0.6
 41
-30.0
 62
     5
 63
     7
 74
     1
 91
        4
 64
     7
 65
   257
 75
     1
175
     1
 42
1.0
 92
       12
 66
     7
 43
1.0
 76
     1
 77
     6
 78
     2
 67
     7
 79
     5
170
     0
171
     0
290
     0
174
     0
 93
        1
 44
0.0
173
     0
291
     1
 45
0.0
1001
ACAD
1000
AcDbSavedByObjectVersion
1070
     0
  0
DICTIONARYVAR
  5
162
102
{ACAD_REACTORS
330
15F
102
}
330
15F
100
DictionaryVariables
280
     0
  1
1:1
  0
ENDSEC
  0
EOF
