  0
SECTION
  2
HEADER
  9
$ACADVER
  1
AC1015
  9
$ACADMAINTVER
 70
     6
  9
$DWGCODEPAGE
  3
ANSI_1252
  9
$INSBASE
 10
0.0
 20
0.0
 30
0.0
  9
$EXTMIN
 10
70.3651840118496
 20
252.5172574676348
 30
0.0
  9
$EXTMAX
 10
200.86747792018
 20
361.286644384941
 30
0.0
  9
$LIMMIN
 10
0.0
 20
0.0
  9
$LIMMAX
 10
12.0
 20
9.0
  9
$ORTHOMODE
 70
     0
  9
$REGENMODE
 70
     1
  9
$FILLMODE
 70
     1
  9
$QTEXTMODE
 70
     0
  9
$MIRRTEXT
 70
     1
  9
$LTSCALE
 40
1.0
  9
$ATTMODE
 70
     1
  9
$TEXTSIZE
 40
0.2
  9
$TRACEWID
 40
0.05
  9
$TEXTSTYLE
  7
Standard
  9
$CLAYER
  8
0
  9
$CELTYPE
  6
ByLayer
  9
$CECOLOR
 62
   256
  9
$CELTSCALE
 40
1.0
  9
$DISPSILH
 70
     0
  9
$DIMSCALE
 40
1.0
  9
$DIMASZ
 40
0.18
  9
$DIMEXO
 40
0.0625
  9
$DIMDLI
 40
0.38
  9
$DIMRND
 40
0.0
  9
$DIMDLE
 40
0.0
  9
$DIMEXE
 40
0.18
  9
$DIMTP
 40
0.0
  9
$DIMTM
 40
0.0
  9
$DIMTXT
 40
0.18
  9
$DIMCEN
 40
0.09
  9
$DIMTSZ
 40
0.0
  9
$DIMTOL
 70
     0
  9
$DIMLIM
 70
     0
  9
$DIMTIH
 70
     1
  9
$DIMTOH
 70
     1
  9
$DIMSE1
 70
     0
  9
$DIMSE2
 70
     0
  9
$DIMTAD
 70
     0
  9
$DIMZIN
 70
     0
  9
$DIMBLK
  1

  9
$DIMASO
 70
     1
  9
$DIMSHO
 70
     1
  9
$DIMPOST
  1

  9
$DIMAPOST
  1

  9
$DIMALT
 70
     0
  9
$DIMALTD
 70
     2
  9
$DIMALTF
 40
25.4
  9
$DIMLFAC
 40
1.0
  9
$DIMTOFL
 70
     0
  9
$DIMTVP
 40
0.0
  9
$DIMTIX
 70
     0
  9
$DIMSOXD
 70
     0
  9
$DIMSAH
 70
     0
  9
$DIMBLK1
  1

  9
$DIMBLK2
  1

  9
$DIMSTYLE
  2
Standard
  9
$DIMCLRD
 70
     0
  9
$DIMCLRE
 70
     0
  9
$DIMCLRT
 70
     0
  9
$DIMTFAC
 40
1.0
  9
$DIMGAP
 40
0.09
  9
$DIMJUST
 70
     0
  9
$DIMSD1
 70
     0
  9
$DIMSD2
 70
     0
  9
$DIMTOLJ
 70
     1
  9
$DIMTZIN
 70
     0
  9
$DIMALTZ
 70
     0
  9
$DIMALTTZ
 70
     0
  9
$DIMUPT
 70
     0
  9
$DIMDEC
 70
     4
  9
$DIMTDEC
 70
     4
  9
$DIMALTU
 70
     2
  9
$DIMALTTD
 70
     2
  9
$DIMTXSTY
  7
Standard
  9
$DIMAUNIT
 70
     0
  9
$DIMADEC
 70
     0
  9
$DIMALTRND
 40
0.0
  9
$DIMAZIN
 70
     0
  9
$DIMDSEP
 70
    46
  9
$DIMATFIT
 70
     3
  9
$DIMFRAC
 70
     0
  9
$DIMLDRBLK
  1

  9
$DIMLUNIT
 70
     2
  9
$DIMLWD
 70
    -2
  9
$DIMLWE
 70
    -2
  9
$DIMTMOVE
 70
     0
  9
$LUNITS
 70
     2
  9
$LUPREC
 70
     4
  9
$SKETCHINC
 40
0.1
  9
$FILLETRAD
 40
0.5
  9
$AUNITS
 70
     0
  9
$AUPREC
 70
     0
  9
$MENU
  1
.
  9
$ELEVATION
 40
0.0
  9
$PELEVATION
 40
0.0
  9
$THICKNESS
 40
0.0
  9
$LIMCHECK
 70
     0
  9
$CHAMFERA
 40
0.5
  9
$CHAMFERB
 40
0.5
  9
$CHAMFERC
 40
1.0
  9
$CHAMFERD
 40
0.0
  9
$SKPOLY
 70
     0
  9
$TDCREATE
 40
2456672.707428796
  9
$TDUCREATE
 40
2456672.66576213
  9
$TDUPDATE
 40
2456672.707428808
  9
$TDUUPDATE
 40
2456672.665762141
  9
$TDINDWG
 40
0.0000000116
  9
$TDUSRTIMER
 40
0.0000000116
  9
$USRTIMER
 70
     1
  9
$ANGBASE
 50
0.0
  9
$ANGDIR
 70
     0
  9
$PDMODE
 70
     0
  9
$PDSIZE
 40
0.0
  9
$PLINEWID
 40
0.0
  9
$SPLFRAME
 70
     0
  9
$SPLINETYPE
 70
     6
  9
$SPLINESEGS
 70
     8
  9
$HANDSEED
  5
165
  9
$SURFTAB1
 70
     6
  9
$SURFTAB2
 70
     6
  9
$SURFTYPE
 70
     6
  9
$SURFU
 70
     6
  9
$SURFV
 70
     6
  9
$UCSBASE
  2

  9
$UCSNAME
  2

  9
$UCSORG
 10
0.0
 20
0.0
 30
0.0
  9
$UCSXDIR
 10
1.0
 20
0.0
 30
0.0
  9
$UCSYDIR
 10
0.0
 20
1.0
 30
0.0
  9
$UCSORTHOREF
  2

  9
$UCSORTHOVIEW
 70
     0
  9
$UCSORGTOP
 10
0.0
 20
0.0
 30
0.0
  9
$UCSORGBOTTOM
 10
0.0
 20
0.0
 30
0.0
  9
$UCSORGLEFT
 10
0.0
 20
0.0
 30
0.0
  9
$UCSORGRIGHT
 10
0.0
 20
0.0
 30
0.0
  9
$UCSORGFRONT
 10
0.0
 20
0.0
 30
0.0
  9
$UCSORGBACK
 10
0.0
 20
0.0
 30
0.0
  9
$PUCSBASE
  2

  9
$PUCSNAME
  2

  9
$PUCSORG
 10
0.0
 20
0.0
 30
0.0
  9
$PUCSXDIR
 10
1.0
 20
0.0
 30
0.0
  9
$PUCSYDIR
 10
0.0
 20
1.0
 30
0.0
  9
$PUCSORTHOREF
  2

  9
$PUCSORTHOVIEW
 70
     0
  9
$PUCSORGTOP
 10
0.0
 20
0.0
 30
0.0
  9
$PUCSORGBOTTOM
 10
0.0
 20
0.0
 30
0.0
  9
$PUCSORGLEFT
 10
0.0
 20
0.0
 30
0.0
  9
$PUCSORGRIGHT
 10
0.0
 20
0.0
 30
0.0
  9
$PUCSORGFRONT
 10
0.0
 20
0.0
 30
0.0
  9
$PUCSORGBACK
 10
0.0
 20
0.0
 30
0.0
  9
$USERI1
 70
     0
  9
$USERI2
 70
     0
  9
$USERI3
 70
     0
  9
$USERI4
 70
     0
  9
$USERI5
 70
     0
  9
$USERR1
 40
16.5
  9
$USERR2
 40
0.0
  9
$USERR3
 40
0.0
  9
$USERR4
 40
0.0
  9
$USERR5
 40
0.0
  9
$WORLDVIEW
 70
     1
  9
$SHADEDGE
 70
     3
  9
$SHADEDIF
 70
    70
  9
$TILEMODE
 70
     1
  9
$MAXACTVP
 70
    64
  9
$PINSBASE
 10
0.0
 20
0.0
 30
0.0
  9
$PLIMCHECK
 70
     0
  9
$PEXTMIN
 10
1.00000000000000E+20
 20
1.00000000000000E+20
 30
1.00000000000000E+20
  9
$PEXTMAX
 10
-1.00000000000000E+20
 20
-1.00000000000000E+20
 30
-1.00000000000000E+20
  9
$PLIMMIN
 10
0.0
 20
0.0
  9
$PLIMMAX
 10
12.0
 20
9.0
  9
$UNITMODE
 70
     0
  9
$VISRETAIN
 70
     1
  9
$PLINEGEN
 70
     0
  9
$PSLTSCALE
 70
     1
  9
$TREEDEPTH
 70
  3020
  9
$CMLSTYLE
  2
Standard
  9
$CMLJUST
 70
     0
  9
$CMLSCALE
 40
1.0
  9
$PROXYGRAPHICS
 70
     1
  9
$MEASUREMENT
 70
     1
  9
$CELWEIGHT
370
    -1
  9
$ENDCAPS
280
     0
  9
$JOINSTYLE
280
     0
  9
$LWDISPLAY
290
     0
  9
$INSUNITS
 70
     1
  9
$HYPERLINKBASE
  1

  9
$STYLESHEET
  1

  9
$XEDIT
290
     1
  9
$CEPSNTYPE
380
     0
  9
$PSTYLEMODE
290
     1
  9
$FINGERPRINTGUID
  2
{296C6A00-B655-484B-80DC-858A3BFB8373}
  9
$VERSIONGUID
  2
{FAEB1C32-E019-11D5-929B-00C0DF256EC4}
  9
$EXTNAMES
290
     1
  9
$PSVPSCALE
 40
0.0
  9
$OLESTARTUP
290
     0
  0
ENDSEC
  0
SECTION
  2
CLASSES
  0
CLASS
  1
ACDBDICTIONARYWDFLT
  2
AcDbDictionaryWithDefault
  3
ObjectDBX Classes
 90
        0
280
     0
281
     0
  0
CLASS
  1
VISUALSTYLE
  2
AcDbVisualStyle
  3
ObjectDBX Classes
 90
     4095
280
     0
281
     0
  0
CLASS
  1
SCALE
  2
AcDbScale
  3
ObjectDBX Classes
 90
     1153
280
     0
281
     0
  0
CLASS
  1

  2
exOdDbPolyline
  3

 90
        0
280
     0
281
     1
  0
CLASS
  1

  2
exOdDbCircle
  3

 90
        0
280
     0
281
     1
  0
CLASS
  1

  2
exOdDbSpline
  3

 90
        0
280
     0
281
     1
  0
CLASS
  1
DICTIONARYVAR
  2
AcDbDictionaryVar
  3
ObjectDBX Classes
 90
        0
280
     0
281
     0
  0
CLASS
  1
ACDBPLACEHOLDER
  2
AcDbPlaceHolder
  3
ObjectDBX Classes
 90
        0
280
     0
281
     0
  0
CLASS
  1
LAYOUT
  2
AcDbLayout
  3
ObjectDBX Classes
 90
        0
280
     0
281
     0
  0
ENDSEC
  0
SECTION
  2
TABLES
  0
TABLE
  2
VPORT
  5
8
330
0
100
AcDbSymbolTable
 70
     1
  0
VPORT
  5
29
330
8
100
AcDbSymbolTableRecord
100
AcDbViewportTableRecord
  2
*Active
 70
     0
 10
0.0
 20
0.0
 11
1.0
 21
1.0
 12
135.6163309660148
 22
306.9019509262879
 13
0.0
 23
0.0
 14
0.5
 24
0.5
 15
0.5
 25
0.5
 16
0.0
 26
0.0
 36
1.0
 17
0.0
 27
0.0
 37
0.0
 40
119.6463256090368
 41
1.60267857142857
 42
50.0
 43
0.0
 44
0.0
 50
0.0
 51
0.0
 71
     0
 72
   100
 73
     1
 74
     3
 75
     0
 76
     0
 77
     0
 78
     0
281
     0
 65
     1
110
0.0
120
0.0
130
0.0
111
1.0
121
0.0
131
0.0
112
0.0
122
1.0
132
0.0
 79
     0
146
0.0
  0
ENDTAB
  0
TABLE
  2
LTYPE
  5
5
330
0
100
AcDbSymbolTable
 70
     9
  0
LTYPE
  5
14
330
5
100
AcDbSymbolTableRecord
100
AcDbLinetypeTableRecord
  2
ByBlock
 70
     0
  3

 72
    65
 73
     0
 40
0.0
  0
LTYPE
  5
15
330
5
100
AcDbSymbolTableRecord
100
AcDbLinetypeTableRecord
  2
ByLayer
 70
     0
  3

 72
    65
 73
     0
 40
0.0
  0
LTYPE
  5
16
330
5
100
AcDbSymbolTableRecord
100
AcDbLinetypeTableRecord
  2
Continuous
 70
     0
  3
Solid line
 72
    65
 73
     0
 40
0.0
  0
LTYPE
  5
3B
330
5
100
AcDbSymbolTableRecord
100
AcDbLinetypeTableRecord
  2
DASHED
 70
     0
  3
Dashed
 72
    65
 73
     2
 40
15.0
 49
7.0
 74
     0
 49
-8.0
 74
     0
  0
LTYPE
  5
3C
330
5
100
AcDbSymbolTableRecord
100
AcDbLinetypeTableRecord
  2
DOTTED
 70
     0
  3
Dotted
 72
    65
 73
     2
 40
1.0
 49
0.0
 74
     0
 49
-1.0
 74
     0
  0
LTYPE
  5
3D
330
5
100
AcDbSymbolTableRecord
100
AcDbLinetypeTableRecord
  2
DOT_CENTER
 70
     0
  3
Dot_Center
 72
    65
 73
     4
 40
14.0
 49
12.0
 74
     0
 49
-1.0
 74
     0
 49
0.0
 74
     0
 49
-1.0
 74
     0
  0
LTYPE
  5
3E
330
5
100
AcDbSymbolTableRecord
100
AcDbLinetypeTableRecord
  2
LONG_DASHED
 70
     0
  3
Long_Dashed
 72
    65
 73
     2
 40
15.0
 49
10.0
 74
     0
 49
-5.0
 74
     0
  0
LTYPE
  5
3F
330
5
100
AcDbSymbolTableRecord
100
AcDbLinetypeTableRecord
  2
DASH_CENTER
 70
     0
  3
Dash_Center
 72
    65
 73
     4
 40
14.0
 49
11.0
 74
     0
 49
-1.0
 74
     0
 49
1.0
 74
     0
 49
-1.0
 74
     0
  0
LTYPE
  5
40
330
5
100
AcDbSymbolTableRecord
100
AcDbLinetypeTableRecord
  2
PHANTOM
 70
     0
  3
Phantom
 72
    65
 73
     6
 40
13.0
 49
10.0
 74
     0
 49
-1.0
 74
     0
 49
0.0
 74
     0
 49
-1.0
 74
     0
 49
0.0
 74
     0
 49
-1.0
 74
     0
  0
LTYPE
  5
41
330
5
100
AcDbSymbolTableRecord
100
AcDbLinetypeTableRecord
  2
CENTER_DASH_DASH
 70
     0
  3
Center_Dash_Dash
 72
    65
 73
     6
 40
14.0
 49
9.0
 74
     0
 49
-1.0
 74
     0
 49
1.0
 74
     0
 49
-1.0
 74
     0
 49
1.0
 74
     0
 49
-1.0
 74
     0
  0
LTYPE
  5
42
330
5
100
AcDbSymbolTableRecord
100
AcDbLinetypeTableRecord
  2
HIDDEN
 70
     0
  3
HIDDEN
 72
    65
 73
     2
 40
4.0
 49
2.0
 74
     0
 49
-2.0
 74
     0
  0
ENDTAB
  0
TABLE
  2
LAYER
  5
2
330
0
100
AcDbSymbolTable
 70
     7
  0
LAYER
  5
10
330
2
100
AcDbSymbolTableRecord
100
AcDbLayerTableRecord
  2
0
 70
     0
 62
     7
  6
Continuous
370
    -3
390
F
  0
LAYER
  5
43
330
2
100
AcDbSymbolTableRecord
100
AcDbLayerTableRecord
  2
1
 70
     0
 62
     7
  6
Continuous
370
    -3
390
F
  0
LAYER
  5
44
330
2
100
AcDbSymbolTableRecord
100
AcDbLayerTableRecord
  2
BEZUGSACHSEN
 70
     0
 62
     7
  6
Continuous
370
    -3
390
F
  0
LAYER
  5
45
330
2
100
AcDbSymbolTableRecord
100
AcDbLayerTableRecord
  2
DEFAULT_2
 70
     0
 62
     7
  6
Continuous
370
    -3
390
F
  0
LAYER
  5
46
330
2
100
AcDbSymbolTableRecord
100
AcDbLayerTableRecord
  2
FASEN
 70
     0
 62
     7
  6
Continuous
370
    -3
390
F
  0
LAYER
  5
47
330
2
100
AcDbSymbolTableRecord
100
AcDbLayerTableRecord
  2
RUNDUNGEN
 70
     0
 62
     7
  6
Continuous
370
    -3
390
F
  0
LAYER
  5
48
330
2
100
AcDbSymbolTableRecord
100
AcDbLayerTableRecord
  2
TEIL_STARTBEZUEGE
 70
     0
 62
     7
  6
Continuous
370
    -3
390
F
  0
ENDTAB
  0
TABLE
  2
STYLE
  5
3
330
0
100
AcDbSymbolTable
 70
     2
  0
STYLE
  5
11
330
3
100
AcDbSymbolTableRecord
100
AcDbTextStyleTableRecord
  2
Standard
 70
     0
 40
0.0
 41
1.0
 50
0.0
 71
     0
 42
0.2
  3
txt
  4

  0
STYLE
  5
6F
330
3
100
AcDbSymbolTableRecord
100
AcDbTextStyleTableRecord
  2
CONVERTER_11
 70
     0
 40
0.0
 41
0.72
 50
0.0
 71
     0
 42
0.2
  3
txt.shx
  4

  0
ENDTAB
  0
TABLE
  2
VIEW
  5
6
330
0
100
AcDbSymbolTable
 70
     0
  0
ENDTAB
  0
TABLE
  2
UCS
  5
7
330
0
100
AcDbSymbolTable
 70
     0
  0
ENDTAB
  0
TABLE
  2
APPID
  5
9
330
0
100
AcDbSymbolTable
 70
     1
  0
APPID
  5
12
330
9
100
AcDbSymbolTableRecord
100
AcDbRegAppTableRecord
  2
ACAD
 70
     0
  0
ENDTAB
  0
TABLE
  2
DIMSTYLE
  5
A
330
0
100
AcDbSymbolTable
 70
     7
100
AcDbDimStyleTable
  0
DIMSTYLE
105
27
330
A
100
AcDbSymbolTableRecord
100
AcDbDimStyleTableRecord
  2
Standard
 70
     0
340
11
  0
DIMSTYLE
105
121
102
{ACAD_REACTORS
330
122
102
}
330
A
100
AcDbSymbolTableRecord
100
AcDbDimStyleTableRecord
  2
ME10_DIM_10
 70
     0
  3
\U+2300<>
 41
3.5
 42
2.0
 44
2.0
 71
     1
 73
     0
 74
     0
 77
     1
 78
     8
140
3.5
146
0.7
147
2.0
172
     1
173
     1
176
     2
177
     2
178
     3
271
     2
272
     0
340
6F
  0
DIMSTYLE
105
12C
102
{ACAD_REACTORS
330
12D
102
}
330
A
100
AcDbSymbolTableRecord
100
AcDbDimStyleTableRecord
  2
ME10_DIM_11
 70
     0
  3
\U+2300<>
 41
3.5
 42
2.0
 44
2.0
 71
     1
 73
     0
 74
     0
 77
     1
 78
     8
140
3.5
146
0.7
147
2.0
172
     1
173
     1
176
     2
177
     2
178
     3
271
     2
272
     0
340
6F
  0
DIMSTYLE
105
137
102
{ACAD_REACTORS
330
138
102
}
330
A
100
AcDbSymbolTableRecord
100
AcDbDimStyleTableRecord
  2
ME10_DIM_12
 70
     0
  3
<>
 41
3.5
 42
2.0
 44
2.0
 71
     1
 73
     0
 74
     0
 77
     1
 78
     8
140
3.5
146
0.7
147
2.0
172
     1
173
     1
176
     2
177
     2
178
     3
271
     0
272
     0
340
6F
  0
DIMSTYLE
105
142
102
{ACAD_REACTORS
330
143
102
}
330
A
100
AcDbSymbolTableRecord
100
AcDbDimStyleTableRecord
  2
ME10_DIM_13
 70
     0
  3
<>
 41
3.5
 42
2.0
 44
2.0
 71
     1
 73
     0
 74
     0
 77
     1
 78
     8
140
3.5
146
0.7
147
2.0
172
     1
173
     1
176
     2
177
     2
178
     3
271
     2
272
     0
340
6F
  0
DIMSTYLE
105
14D
102
{ACAD_REACTORS
330
14E
102
}
330
A
100
AcDbSymbolTableRecord
100
AcDbDimStyleTableRecord
  2
ME10_DIM_14
 70
     0
  3
<>
 41
3.5
 42
2.0
 44
2.0
 71
     1
 73
     0
 74
     0
 77
     1
 78
     8
140
3.5
146
0.7
147
2.0
172
     1
173
     1
176
     2
177
     2
178
     3
271
     0
272
     0
340
6F
  0
DIMSTYLE
105
15F
102
{ACAD_REACTORS
330
160
102
}
330
A
100
AcDbSymbolTableRecord
100
AcDbDimStyleTableRecord
  2
ME10_DIM_15
 70
     0
  3
<>
 41
3.5
 42
2.0
 44
2.0
 71
     1
 73
     0
 74
     0
 77
     1
 78
     8
140
3.5
146
0.7
147
2.0
172
     1
173
     1
176
     2
177
     2
178
     3
271
     2
272
     0
340
6F
  0
ENDTAB
  0
TABLE
  2
BLOCK_RECORD
  5
1
330
0
100
AcDbSymbolTable
 70
     9
  0
BLOCK_RECORD
  5
1F
330
1
100
AcDbSymbolTableRecord
100
AcDbBlockTableRecord
  2
*Model_Space
340
22
  0
BLOCK_RECORD
  5
1B
330
1
100
AcDbSymbolTableRecord
100
AcDbBlockTableRecord
  2
*Paper_Space
340
1E
  0
BLOCK_RECORD
  5
23
330
1
100
AcDbSymbolTableRecord
100
AcDbBlockTableRecord
  2
*Paper_Space0
340
26
  0
BLOCK_RECORD
  5
49
330
1
100
AcDbSymbolTableRecord
100
AcDbBlockTableRecord
  2
Urheberrecht_DE-EN
340
0
102
{BLKREFS
331
6E
102
}
  0
BLOCK_RECORD
  5
116
330
1
100
AcDbSymbolTableRecord
100
AcDbBlockTableRecord
  2
*D2
340
0
  0
BLOCK_RECORD
  5
123
330
1
100
AcDbSymbolTableRecord
100
AcDbBlockTableRecord
  2
*D3
340
0
  0
BLOCK_RECORD
  5
12E
330
1
100
AcDbSymbolTableRecord
100
AcDbBlockTableRecord
  2
*D4
340
0
  0
BLOCK_RECORD
  5
139
330
1
100
AcDbSymbolTableRecord
100
AcDbBlockTableRecord
  2
*D5
340
0
  0
BLOCK_RECORD
  5
144
330
1
100
AcDbSymbolTableRecord
100
AcDbBlockTableRecord
  2
*D6
340
0
  0
BLOCK_RECORD
  5
14F
330
1
100
AcDbSymbolTableRecord
100
AcDbBlockTableRecord
  2
*D7
340
0
102
{BLKREFS
331
155
102
}
  0
BLOCK_RECORD
  5
156
330
1
100
AcDbSymbolTableRecord
100
AcDbBlockTableRecord
  2
*D8
340
0
  0
ENDTAB
  0
ENDSEC
  0
SECTION
  2
BLOCKS
  0
BLOCK
  5
20
330
1F
100
AcDbEntity
  8
0
100
AcDbBlockBegin
  2
*Model_Space
 70
     0
 10
0.0
 20
0.0
 30
0.0
  3
*Model_Space
  1

  0
ENDBLK
  5
21
330
1F
100
AcDbEntity
  8
0
100
AcDbBlockEnd
  0
BLOCK
  5
1C
330
1B
100
AcDbEntity
 67
     1
  8
0
100
AcDbBlockBegin
  2
*Paper_Space
 70
     0
 10
0.0
 20
0.0
 30
0.0
  3
*Paper_Space
  1

  0
ENDBLK
  5
1D
330
1B
100
AcDbEntity
 67
     1
  8
0
100
AcDbBlockEnd
  0
BLOCK
  5
24
330
23
100
AcDbEntity
  8
0
100
AcDbBlockBegin
  2
*Paper_Space0
 70
     0
 10
0.0
 20
0.0
 30
0.0
  3
*Paper_Space0
  1

  0
ENDBLK
  5
25
330
23
100
AcDbEntity
  8
0
100
AcDbBlockEnd
  0
BLOCK
  5
4A
330
49
100
AcDbEntity
  8
0
100
AcDbBlockBegin
  2
Urheberrecht_DE-EN
 70
     0
 10
84.3651840118496
 20
308.806644384941
 30
0.0
  3
Urheberrecht_DE-EN
  1

  0
MTEXT
  5
70
330
49
100
AcDbEntity
  8
1
 62
     1
100
AcDbMText
 10
84.3651840118496
 20
308.806644384941
 30
0.0
 40
2.0
 41
0.0
 71
     7
 72
     1
  1
We own the copyright of this document. It \Pdetermined and may neither be copied or \Pmade accessible to outsiders without our\Ppermission.
  7
CONVERTER_11
 11
0.0
 21
1.0
 31
0.0
 73
     1
 44
0.90036014405762
  0
MTEXT
  5
71
330
49
100
AcDbEntity
  8
1
 62
     1
100
AcDbMText
 10
84.3651840118496
 20
252.5172574676348
 30
0.0
 40
2.0
 41
0.0
 71
     7
 72
     1
  1
F\U+00fcr diese Unterlage behalten wir das Ur-\Pheberrecht. Sie darf nur f\U+00fcr den von uns \Pbestimmten Zweck benutzt und ohne unsere \PZustimmung weder vervielf\U+00e4ltigt noch\PDritten zug\U+00e4nglich gemacht werden.
  7
CONVERTER_11
 11
0.0
 21
1.0
 31
0.0
 73
     1
 44
0.90036014405762
  0
ENDBLK
  5
4B
330
49
100
AcDbEntity
  8
0
100
AcDbBlockEnd
  0
BLOCK
  5
11F
330
116
100
AcDbEntity
  8
0
100
AcDbBlockBegin
  2
*D2
 70
     1
 10
0.0
 20
0.0
 30
0.0
  3
*D2
  1

  0
LINE
  5
117
330
116
100
AcDbEntity
  8
1
  6
Continuous
 62
     2
100
AcDbLine
 10
188.910619417312
 20
302.3763517131
 30
0.0
 11
188.910619417312
 21
295.3763517131
 31
0.0
  0
LINE
  5
118
330
116
100
AcDbEntity
  8
1
  6
Continuous
 62
     2
100
AcDbLine
 10
188.910619417312
 20
295.3763517131
 30
0.0
 11
188.910619417312
 21
287.3763517131
 31
0.0
  0
LINE
  5
119
330
116
100
AcDbEntity
  8
1
  6
Continuous
 62
     2
100
AcDbLine
 10
188.910619417312
 20
287.3763517131
 30
0.0
 11
188.910619417312
 21
280.3763517131
 31
0.0
  0
LINE
  5
11A
330
116
100
AcDbEntity
  8
1
  6
Continuous
 62
     2
100
AcDbLine
 10
179.230012045
 20
295.3763517131
 30
0.0
 11
190.910619417312
 21
295.3763517131
 31
0.0
  0
LINE
  5
11B
330
116
100
AcDbEntity
  8
1
  6
Continuous
 62
     2
100
AcDbLine
 10
179.230012045
 20
287.3763517131
 30
0.0
 11
190.910619417312
 21
287.3763517131
 31
0.0
  0
SOLID
  5
11C
330
116
100
AcDbEntity
  8
1
 62
     2
100
AcDbTrace
 10
188.4498356757561
 20
298.8763517131
 30
0.0
 11
189.3714031588679
 21
298.8763517131
 31
0.0
 12
188.910619417312
 22
295.3763517131
 32
0.0
 13
188.910619417312
 23
295.3763517131
 33
0.0
  0
SOLID
  5
11D
330
116
100
AcDbEntity
  8
1
 62
     2
100
AcDbTrace
 10
189.3714031588679
 20
283.8763517131
 30
0.0
 11
188.4498356757561
 21
283.8763517131
 31
0.0
 12
188.910619417312
 22
287.3763517131
 32
0.0
 13
188.910619417312
 23
287.3763517131
 33
0.0
  0
MTEXT
  5
11E
330
116
100
AcDbEntity
  8
1
 62
     3
100
AcDbMText
 10
186.910619417312
 20
283.950191328609
 30
0.0
 40
3.5
 41
0.0
 71
     7
 72
     1
  1
\C3;%%c\C3;\C3;8\C2;\H2.45;\S^ ;\C3;
  7
CONVERTER_11
 11
0.0
 21
1.0
 31
0.0
 73
     1
 44
0.60024009603842
  0
ENDBLK
  5
120
330
116
100
AcDbEntity
  8
0
100
AcDbBlockEnd
  0
BLOCK
  5
12A
330
123
100
AcDbEntity
  8
0
100
AcDbBlockBegin
  2
*D3
 70
     1
 10
0.0
 20
0.0
 30
0.0
  3
*D3
  1

  0
LINE
  5
124
330
123
100
AcDbEntity
  8
1
  6
Continuous
 62
     2
100
AcDbLine
 10
198.86747792018
 20
301.8763517130466
 30
0.0
 11
198.86747792018
 21
280.8763517130486
 31
0.0
  0
LINE
  5
125
330
123
100
AcDbEntity
  8
1
  6
Continuous
 62
     2
100
AcDbLine
 10
179.230012045
 20
301.8763517130466
 30
0.0
 11
200.86747792018
 21
301.8763517130466
 31
0.0
  0
LINE
  5
126
330
123
100
AcDbEntity
  8
1
  6
Continuous
 62
     2
100
AcDbLine
 10
179.230012045
 20
280.8763517130486
 30
0.0
 11
200.86747792018
 21
280.8763517130486
 31
0.0
  0
SOLID
  5
127
330
123
100
AcDbEntity
  8
1
 62
     2
100
AcDbTrace
 10
199.3282616617359
 20
298.3763517130466
 30
0.0
 11
198.4066941786241
 21
298.3763517130466
 31
0.0
 12
198.86747792018
 22
301.8763517130466
 32
0.0
 13
198.86747792018
 23
301.8763517130466
 33
0.0
  0
SOLID
  5
128
330
123
100
AcDbEntity
  8
1
 62
     2
100
AcDbTrace
 10
198.4066941786241
 20
284.3763517130486
 30
0.0
 11
199.3282616617359
 21
284.3763517130486
 31
0.0
 12
198.86747792018
 22
280.8763517130486
 32
0.0
 13
198.86747792018
 23
280.8763517130486
 33
0.0
  0
MTEXT
  5
129
330
123
100
AcDbEntity
  8
1
 62
     3
100
AcDbMText
 10
196.86747792018
 20
282.620509762894
 30
0.0
 40
3.5
 41
0.0
 71
     7
 72
     1
  1
\C3;%%c\C3;\C3;21\C2;\H2.45;\S^ ;\C3;
  7
CONVERTER_11
 11
0.0
 21
1.0
 31
0.0
 73
     1
 44
0.60024009603842
  0
ENDBLK
  5
12B
330
123
100
AcDbEntity
  8
0
100
AcDbBlockEnd
  0
BLOCK
  5
135
330
12E
100
AcDbEntity
  8
0
100
AcDbBlockBegin
  2
*D4
 70
     1
 10
0.0
 20
0.0
 30
0.0
  3
*D4
  1

  0
LINE
  5
12F
330
12E
100
AcDbEntity
  8
1
  6
Continuous
 62
     2
100
AcDbLine
 10
177.230012045
 20
317.824768688637
 30
0.0
 11
127.180012045
 21
317.824768688637
 31
0.0
  0
LINE
  5
130
330
12E
100
AcDbEntity
  8
1
  6
Continuous
 62
     2
100
AcDbLine
 10
177.230012045
 20
302.9519612214
 30
0.0
 11
177.230012045
 21
319.824768688637
 31
0.0
  0
LINE
  5
131
330
12E
100
AcDbEntity
  8
1
  6
Continuous
 62
     2
100
AcDbLine
 10
127.180012045
 20
309.3762880779
 30
0.0
 11
127.180012045
 21
319.824768688637
 31
0.0
  0
SOLID
  5
132
330
12E
100
AcDbEntity
  8
1
 62
     2
100
AcDbTrace
 10
173.730012045
 20
317.3639849470811
 30
0.0
 11
173.730012045
 21
318.2855524301929
 31
0.0
 12
177.230012045
 22
317.824768688637
 32
0.0
 13
177.230012045
 23
317.824768688637
 33
0.0
  0
SOLID
  5
133
330
12E
100
AcDbEntity
  8
1
 62
     2
100
AcDbTrace
 10
130.680012045
 20
318.2855524301929
 30
0.0
 11
130.680012045
 21
317.3639849470811
 31
0.0
 12
127.180012045
 22
317.824768688637
 32
0.0
 13
127.180012045
 23
317.824768688637
 33
0.0
  0
MTEXT
  5
134
330
12E
100
AcDbEntity
  8
1
 62
     3
100
AcDbMText
 10
149.431593234415
 20
319.824768688637
 30
0.0
 40
3.5
 41
0.0
 71
     7
 72
     1
  1
\C3;\C3;\C3;50\C2;\H2.45;\S^ ;\C3;
  7
CONVERTER_11
 11
0.9999999999970619
 21
2.424068405545306E-6
 31
0.0
 73
     1
 44
0.60024009603842
  0
ENDBLK
  5
136
330
12E
100
AcDbEntity
  8
0
100
AcDbBlockEnd
  0
BLOCK
  5
140
330
139
100
AcDbEntity
  8
0
100
AcDbBlockBegin
  2
*D5
 70
     1
 10
0.0
 20
0.0
 30
0.0
  3
*D5
  1

  0
LINE
  5
13A
330
139
100
AcDbEntity
  8
1
  6
Continuous
 62
     2
100
AcDbLine
 10
177.230012045
 20
326.0790504322309
 30
0.0
 11
107.230012045
 21
326.0790504322309
 31
0.0
  0
LINE
  5
13B
330
139
100
AcDbEntity
  8
1
  6
Continuous
 62
     2
100
AcDbLine
 10
177.230012045
 20
302.9519612213999
 30
0.0
 11
177.230012045
 21
328.0790504322309
 31
0.0
  0
LINE
  5
13C
330
139
100
AcDbEntity
  8
1
  6
Continuous
 62
     2
100
AcDbLine
 10
107.230012045
 20
309.3763517131
 30
0.0
 11
107.230012045
 21
328.0790504322309
 31
0.0
  0
SOLID
  5
13D
330
139
100
AcDbEntity
  8
1
 62
     2
100
AcDbTrace
 10
173.730012045
 20
325.618266690675
 30
0.0
 11
173.730012045
 21
326.5398341737867
 31
0.0
 12
177.230012045
 22
326.0790504322309
 32
0.0
 13
177.230012045
 23
326.0790504322309
 33
0.0
  0
SOLID
  5
13E
330
139
100
AcDbEntity
  8
1
 62
     2
100
AcDbTrace
 10
110.730012045
 20
326.5398341737867
 30
0.0
 11
110.730012045
 21
325.618266690675
 31
0.0
 12
107.230012045
 22
326.0790504322309
 32
0.0
 13
107.230012045
 23
326.0790504322309
 33
0.0
  0
MTEXT
  5
13F
330
139
100
AcDbEntity
  8
1
 62
     3
100
AcDbMText
 10
141.224627219173
 20
328.0790504322309
 30
0.0
 40
3.5
 41
0.0
 71
     7
 72
     1
  1
\C3;\C3;\C3;70\C2;\H2.45;\S^ ;\C3;
  7
CONVERTER_11
 11
0.9999999999970619
 21
2.424068405545306E-6
 31
0.0
 73
     1
 44
0.60024009603842
  0
ENDBLK
  5
141
330
139
100
AcDbEntity
  8
0
100
AcDbBlockEnd
  0
BLOCK
  5
14B
330
144
100
AcDbEntity
  8
0
100
AcDbBlockBegin
  2
*D6
 70
     1
 10
0.0
 20
0.0
 30
0.0
  3
*D6
  1

  0
LINE
  5
145
330
144
100
AcDbEntity
  8
1
  6
Continuous
 62
     2
100
AcDbLine
 10
177.230012045
 20
334.065873951511
 30
0.0
 11
91.33001204499999
 21
334.065873951511
 31
0.0
  0
LINE
  5
146
330
144
100
AcDbEntity
  8
1
  6
Continuous
 62
     2
100
AcDbLine
 10
177.230012045
 20
302.9519612214
 30
0.0
 11
177.230012045
 21
336.065873951511
 31
0.0
  0
LINE
  5
147
330
144
100
AcDbEntity
  8
1
  6
Continuous
 62
     2
100
AcDbLine
 10
91.33001204499999
 20
304.1728559479
 30
0.0
 11
91.33001204499999
 21
336.065873951511
 31
0.0
  0
SOLID
  5
148
330
144
100
AcDbEntity
  8
1
 62
     2
100
AcDbTrace
 10
173.730012045
 20
333.6050902099551
 30
0.0
 11
173.730012045
 21
334.5266576930669
 31
0.0
 12
177.230012045
 22
334.065873951511
 32
0.0
 13
177.230012045
 23
334.065873951511
 33
0.0
  0
SOLID
  5
149
330
144
100
AcDbEntity
  8
1
 62
     2
100
AcDbTrace
 10
94.83001204499999
 20
334.5266576930669
 30
0.0
 11
94.83001204499999
 21
333.6050902099551
 31
0.0
 12
91.33001204499999
 22
334.065873951511
 32
0.0
 13
91.33001204499999
 23
334.065873951511
 33
0.0
  0
MTEXT
  5
14A
330
144
100
AcDbEntity
  8
1
 62
     3
100
AcDbMText
 10
134.577919074399
 20
336.065873951511
 30
0.0
 40
3.5
 41
0.0
 71
     7
 72
     1
  1
\C3;\C3;\C3;86\C2;\H2.45;\S^ ;\C3;
  7
CONVERTER_11
 11
0.9999999999970619
 21
2.424068405545306E-6
 31
0.0
 73
     1
 44
0.60024009603842
  0
ENDBLK
  5
14C
330
144
100
AcDbEntity
  8
0
100
AcDbBlockEnd
  0
BLOCK
  5
153
330
14F
100
AcDbEntity
  8
0
100
AcDbBlockBegin
  2
*D7
 70
     1
 10
0.0
 20
0.0
 30
0.0
  3
*D7
  1

  0
LINE
  5
150
330
14F
100
AcDbEntity
  8
1
  6
Continuous
 62
     2
100
AcDbLine
 10
135.9159891936789
 20
310.9674302163527
 30
0.0
 11
127.4188257460315
 21
303.7278184307909
 31
0.0
  0
SOLID
  5
151
330
14F
100
AcDbEntity
  8
1
 62
     2
100
AcDbTrace
 10
129.7841442000751
 20
306.3484271897328
 30
0.0
 11
130.381811384767
 21
305.6469426480132
 31
0.0
 12
127.4188257460315
 22
303.7278184307909
 32
0.0
 13
127.4188257460315
 23
303.7278184307909
 33
0.0
  0
MTEXT
  5
152
330
14F
100
AcDbEntity
  8
1
 62
     3
100
AcDbMText
 10
129.6103167818481
 20
308.2224538166953
 30
0.0
 40
3.5
 41
0.0
 71
     7
 72
     1
  1
\C3; R\C3;\C3;1\C2;\H2.45;\S^ ;\C3;
  7
CONVERTER_11
 11
0.7611862989684576
 21
0.6485332823091674
 31
0.0
 73
     1
 44
0.60024009603842
  0
ENDBLK
  5
154
330
14F
100
AcDbEntity
  8
0
100
AcDbBlockEnd
  0
BLOCK
  5
15D
330
156
100
AcDbEntity
  8
0
100
AcDbBlockBegin
  2
*D8
 70
     1
 10
0.0
 20
0.0
 30
0.0
  3
*D8
  1

  0
LINE
  5
157
330
156
100
AcDbEntity
  8
1
  6
Continuous
 62
     2
100
AcDbLine
 10
163.8560521397018
 20
304.5445990681
 30
0.0
 11
165.8560521397018
 21
304.5445990681
 31
0.0
  0
LINE
  5
158
330
156
100
AcDbEntity
  8
1
  6
Continuous
 62
     2
100
AcDbLine
 10
145.4267148645
 20
304.5445990681
 30
0.0
 11
163.8560521397018
 21
304.5445990681
 31
0.0
  0
ARC
  5
159
330
156
100
AcDbEntity
  8
1
  6
Continuous
 62
     2
100
AcDbCircle
 10
143.3267148645
 20
304.5445990681
 30
0.0
 40
20.52933727520183
100
AcDbArc
 50
340.8476593807702
 51
24.29877196436714
  0
SOLID
  5
15A
330
156
100
AcDbEntity
  8
1
 62
     2
100
AcDbTrace
 10
163.6767008772394
 20
299.4055929985905
 30
0.0
 11
162.76746635461
 21
299.5558567959196
 31
0.0
 12
163.7927670442028
 22
302.9338858296022
 32
0.0
 13
163.7927670442028
 23
302.9338858296022
 33
0.0
  0
SOLID
  5
15B
330
156
100
AcDbEntity
  8
1
 62
     2
100
AcDbTrace
 10
163.0989492132822
 20
307.9926589305863
 30
0.0
 11
164.0171704309791
 21
308.0711217963265
 31
0.0
 12
163.8560521397018
 22
304.5445990681
 32
0.0
 13
163.8560521397018
 23
304.5445990681
 33
0.0
  0
MTEXT
  5
15C
330
156
100
AcDbEntity
  8
1
 62
     3
100
AcDbMText
 10
164.1114525000473
 20
313.9287316588758
 30
0.0
 40
3.5
 41
0.0
 71
     7
 72
     1
  1
\C3;\C3;\C3;4.5%%d\C2;\H2.45;\S^ ;\C3;
  7
CONVERTER_11
 11
0.2652430760966428
 21
-0.9641815755254769
 31
0.0
 73
     1
 44
0.60024009603842
  0
ENDBLK
  5
15E
330
156
100
AcDbEntity
  8
0
100
AcDbBlockEnd
  0
ENDSEC
  0
SECTION
  2
ENTITIES
  0
INSERT
  5
6E
330
1F
100
AcDbEntity
  8
0
100
AcDbBlockReference
  2
Urheberrecht_DE-EN
 10
84.3651840118496
 20
308.806644384941
 30
0.0
  0
LINE
  5
72
330
1F
100
AcDbEntity
  8
0
  6
Continuous
 62
     7
100
AcDbLine
 10
91.330012045
 20
280.5798474776
 30
0.0
 11
91.330012045
 21
286.9013517131
 31
0.0
  0
LINE
  5
73
330
1F
100
AcDbEntity
  8
0
  6
Continuous
 62
     7
100
AcDbLine
 10
91.330012045
 20
295.8513517131
 30
0.0
 11
91.330012045
 21
302.1728559479
 31
0.0
  0
LINE
  5
74
330
1F
100
AcDbEntity
  8
0
  6
Continuous
 62
     9
100
AcDbLine
 10
91.8999880619
 20
302.7721042786
 30
0.0
 11
91.8999880619
 21
296.5121937127
 31
0.0
  0
LINE
  5
75
330
1F
100
AcDbEntity
  8
0
  6
Continuous
 62
     9
100
AcDbLine
 10
91.8999880619
 20
286.2405097135
 30
0.0
 11
91.8999880619
 21
279.9805991476
 31
0.0
  0
LINE
  5
76
330
1F
100
AcDbEntity
  8
0
  6
Continuous
 62
     7
100
AcDbLine
 10
92.280012045
 20
287.2338974142
 30
0.0
 11
92.280012045
 21
287.8513517131
 31
0.0
  0
LINE
  5
77
330
1F
100
AcDbEntity
  8
0
  6
Continuous
 62
     7
100
AcDbLine
 10
92.280012045
 20
294.9013517131
 30
0.0
 11
92.280012045
 21
295.5188060119
 31
0.0
  0
LINE
  5
78
330
1F
100
AcDbEntity
  8
RUNDUNGEN
  6
Continuous
 62
     9
100
AcDbLine
 10
93.530012045
 20
286.1141090204
 30
0.0
 11
93.530012045
 21
287.8513517131
 31
0.0
  0
LINE
  5
79
330
1F
100
AcDbEntity
  8
RUNDUNGEN
  6
Continuous
 62
     9
100
AcDbLine
 10
93.530012045
 20
294.9013517131
 30
0.0
 11
93.530012045
 21
296.6385944058
 31
0.0
  0
LINE
  5
7A
330
1F
100
AcDbEntity
  8
RUNDUNGEN
  6
Continuous
 62
     7
100
AcDbLine
 10
94.430012045
 20
295.248235684
 30
0.0
 11
94.430012045
 21
287.5044677422
 31
0.0
  0
LINE
  5
7B
330
1F
100
AcDbEntity
  8
0
  6
Continuous
 62
     7
100
AcDbLine
 10
92.0501964013
 20
286.4713517131
 30
0.0
 11
91.9495111974
 21
286.2891389208
 31
0.0
  0
LINE
  5
7C
330
1F
100
AcDbEntity
  8
0
  6
Continuous
 62
     7
100
AcDbLine
 10
91.9495111974
 20
296.4635645053
 30
0.0
 11
92.0501964013
 21
296.2813517131
 31
0.0
  0
LWPOLYLINE
  5
7D
330
1F
100
AcDbEntity
  8
BEZUGSACHSEN
  6
DOT_CENTER
 62
     7
100
AcDbPolyline
 90
        2
 70
     0
 43
0.25
 10
102.230012045
 20
286.3763517131
 10
102.230012045
 20
296.3763517131
  0
LINE
  5
7E
330
1F
100
AcDbEntity
  8
0
  6
Continuous
 62
     7
100
AcDbLine
 10
106.230012045
 20
303.4900777405
 30
0.0
 11
106.230012045
 21
279.2626256857
 31
0.0
  0
LINE
  5
7F
330
1F
100
AcDbEntity
  8
0
  6
Continuous
 62
     9
100
AcDbLine
 10
106.5523505067
 20
279.3489960162
 30
0.0
 11
106.5523505067
 21
303.4037074099
 31
0.0
  0
LINE
  5
80
330
1F
100
AcDbEntity
  8
0
  6
Continuous
 62
     9
100
AcDbLine
 10
106.6558781248
 20
279.3626256857
 30
0.0
 11
106.6558781248
 21
303.3900777405
 31
0.0
  0
LINE
  5
81
330
1F
100
AcDbEntity
  8
0
  6
Continuous
 62
     9
100
AcDbLine
 10
107.0758348817
 20
279.3626256857
 30
0.0
 11
107.0758348817
 21
303.3900777405
 31
0.0
  0
LINE
  5
82
330
1F
100
AcDbEntity
  8
0
  6
Continuous
 62
     7
100
AcDbLine
 10
91.330012045
 20
286.9013517131
 30
0.0
 11
92.280012045
 21
287.8513517131
 31
0.0
  0
LINE
  5
83
330
1F
100
AcDbEntity
  8
0
  6
Continuous
 62
     7
100
AcDbLine
 10
107.230012045
 20
307.3763517131
 30
0.0
 11
107.230012045
 21
275.3763517131
 31
0.0
  0
LINE
  5
84
330
1F
100
AcDbEntity
  8
0
  6
Continuous
 62
     7
100
AcDbLine
 10
92.280012045
 20
294.9013517131
 30
0.0
 11
91.330012045
 21
295.8513517131
 31
0.0
  0
LWPOLYLINE
  5
85
330
1F
100
AcDbEntity
  8
BEZUGSACHSEN
  6
DOT_CENTER
 62
     7
100
AcDbPolyline
 90
        2
 70
     0
 43
0.25
 10
114.230012045
 20
312.9750358666
 10
114.230012045
 20
298.9750358666
  0
LINE
  5
86
330
1F
100
AcDbEntity
  8
FASEN
  6
Continuous
 62
     9
100
AcDbLine
 10
118.67992704
 20
281.6263517131
 30
0.0
 11
118.67992704
 21
282.0263517131
 31
0.0
  0
LINE
  5
87
330
1F
100
AcDbEntity
  8
FASEN
  6
Continuous
 62
     9
100
AcDbLine
 10
118.694512045
 20
288.2618517131
 30
0.0
 11
118.694512045
 21
287.8618517131
 31
0.0
  0
LINE
  5
88
330
1F
100
AcDbEntity
  8
FASEN
  6
Continuous
 62
     9
100
AcDbLine
 10
118.694512045
 20
294.4908517131
 30
0.0
 11
118.694512045
 21
294.8908517131
 31
0.0
  0
LINE
  5
89
330
1F
100
AcDbEntity
  8
0
  6
Continuous
 62
     7
100
AcDbLine
 10
124.267512045
 20
305.6483544259
 30
0.0
 11
125.2651717439
 21
307.3763517131
 31
0.0
  0
LINE
  5
8A
330
1F
100
AcDbEntity
  8
0
  6
Continuous
 62
     9
100
AcDbLine
 10
91.330012045
 20
286.708956533
 30
0.0
 11
92.280012045
 21
287.2338974142
 31
0.0
  0
LINE
  5
8B
330
1F
100
AcDbEntity
  8
0
  6
Continuous
 62
     7
100
AcDbLine
 10
121.1948523461
 20
275.3763517131
 30
0.0
 11
107.230012045
 21
275.3763517131
 31
0.0
  0
LINE
  5
8C
330
1F
100
AcDbEntity
  8
0
  6
Continuous
 62
     7
100
AcDbLine
 10
125.2651717439
 20
275.3763517131
 30
0.0
 11
127.180012045
 21
275.3763517131
 31
0.0
  0
LINE
  5
8D
330
1F
100
AcDbEntity
  8
0
  6
Continuous
 62
     9
100
AcDbLine
 10
92.280012045
 20
295.5188060119
 30
0.0
 11
91.330012045
 21
296.0437468931
 31
0.0
  0
LINE
  5
8E
330
1F
100
AcDbEntity
  8
0
  6
Continuous
 62
     7
100
AcDbLine
 10
124.267512045
 20
277.1043490002
 30
0.0
 11
125.2651717439
 21
275.3763517131
 31
0.0
  0
LINE
  5
8F
330
1F
100
AcDbEntity
  8
0
  6
Continuous
 62
     7
100
AcDbLine
 10
121.1948523461
 20
307.3763517131
 30
0.0
 11
121.1948523461
 21
294.8908517131
 31
0.0
  0
LINE
  5
90
330
1F
100
AcDbEntity
  8
0
  6
Continuous
 62
     7
100
AcDbLine
 10
121.1948523461
 20
287.8618517131
 30
0.0
 11
121.1948523461
 21
282.0263517131
 31
0.0
  0
LINE
  5
91
330
1F
100
AcDbEntity
  8
0
  6
Continuous
 62
     7
100
AcDbLine
 10
121.1948523461
 20
278.392611882
 30
0.0
 11
121.1948523461
 21
275.3763517131
 31
0.0
  0
LINE
  5
92
330
1F
100
AcDbEntity
  8
0
  6
Continuous
 62
     7
100
AcDbLine
 10
122.192512045
 20
305.648299759
 30
0.0
 11
122.192512045
 21
294.659713866
 31
0.0
  0
LINE
  5
93
330
1F
100
AcDbEntity
  8
0
  6
Continuous
 62
     7
100
AcDbLine
 10
122.192512045
 20
277.1044465106
 30
0.0
 11
122.192512045
 21
288.0929895601
 31
0.0
  0
LINE
  5
94
330
1F
100
AcDbEntity
  8
0
  6
Continuous
 62
     9
100
AcDbLine
 10
122.442512045
 20
278.1513517131
 30
0.0
 11
122.442512045
 21
288.4624840084
 31
0.0
  0
LINE
  5
95
330
1F
100
AcDbEntity
  8
0
  6
Continuous
 62
     9
100
AcDbLine
 10
122.442512045
 20
294.2902194177
 30
0.0
 11
122.442512045
 21
304.6013517131
 31
0.0
  0
LINE
  5
96
330
1F
100
AcDbEntity
  8
0
  6
Continuous
 62
     7
100
AcDbLine
 10
143.3267148645
 20
278.208104358
 30
0.0
 11
176.3084711407
 21
280.803824871
 31
0.0
  0
LINE
  5
97
330
1F
100
AcDbEntity
  8
0
  6
Continuous
 62
     7
100
AcDbLine
 10
122.442512045
 20
278.1513517131
 30
0.0
 11
124.017512045
 21
278.1513517131
 31
0.0
  0
LINE
  5
98
330
1F
100
AcDbEntity
  8
0
  6
Continuous
 62
     7
100
AcDbLine
 10
115.5828132775
 20
278.392611882
 30
0.0
 11
121.1948523461
 21
278.392611882
 31
0.0
  0
LINE
  5
99
330
1F
100
AcDbEntity
  8
0
  6
Continuous
 62
     7
100
AcDbLine
 10
125.2651717439
 20
278.392611882
 30
0.0
 11
127.180012045
 21
278.392611882
 31
0.0
  0
LINE
  5
9A
330
1F
100
AcDbEntity
  8
0
  6
Continuous
 62
     7
100
AcDbLine
 10
107.0758348817
 20
279.3626256857
 30
0.0
 11
106.6558781248
 21
279.3626256857
 31
0.0
  0
LINE
  5
9B
330
1F
100
AcDbEntity
  8
0
  6
Continuous
 62
     7
100
AcDbLine
 10
106.230012045
 20
279.2626256857
 30
0.0
 11
91.8999880619
 21
279.9805991476
 31
0.0
  0
LINE
  5
9C
330
1F
100
AcDbEntity
  8
0
  6
Continuous
 62
     9
100
AcDbLine
 10
124.017512045
 20
278.1513517131
 30
0.0
 11
124.017512045
 21
288.4624840084
 31
0.0
  0
LINE
  5
9D
330
1F
100
AcDbEntity
  8
0
  6
Continuous
 62
     9
100
AcDbLine
 10
124.017512045
 20
294.2902194177
 30
0.0
 11
124.017512045
 21
304.6013517131
 31
0.0
  0
LINE
  5
9E
330
1F
100
AcDbEntity
  8
0
  6
Continuous
 62
     7
100
AcDbLine
 10
124.267512045
 20
277.1044465106
 30
0.0
 11
124.267512045
 21
288.0929895601
 31
0.0
  0
LINE
  5
9F
330
1F
100
AcDbEntity
  8
0
  6
Continuous
 62
     7
100
AcDbLine
 10
124.267512045
 20
294.659713866
 30
0.0
 11
124.267512045
 21
305.648299759
 31
0.0
  0
LINE
  5
A0
330
1F
100
AcDbEntity
  8
0
  6
Continuous
 62
     7
100
AcDbLine
 10
125.2651717439
 20
287.8618517131
 30
0.0
 11
125.2651717439
 21
282.0263517131
 31
0.0
  0
LINE
  5
A1
330
1F
100
AcDbEntity
  8
0
  6
Continuous
 62
     7
100
AcDbLine
 10
125.2651717439
 20
275.3763517131
 30
0.0
 11
125.2651717439
 21
278.392611882
 31
0.0
  0
LINE
  5
A2
330
1F
100
AcDbEntity
  8
0
  6
Continuous
 62
     7
100
AcDbLine
 10
125.2651717439
 20
294.8908517131
 30
0.0
 11
125.2651717439
 21
307.3763517131
 31
0.0
  0
LINE
  5
A3
330
1F
100
AcDbEntity
  8
0
  6
Continuous
 62
     7
100
AcDbLine
 10
128.180012045
 20
279.3763517131
 30
0.0
 11
142.080012045
 21
279.3763517131
 31
0.0
  0
LINE
  5
A4
330
1F
100
AcDbEntity
  8
0
  6
Continuous
 62
     7
100
AcDbLine
 10
118.67992704
 20
281.6263517131
 30
0.0
 11
122.192512045
 21
281.6263517131
 31
0.0
  0
LINE
  5
A5
330
1F
100
AcDbEntity
  8
0
  6
Continuous
 62
     7
100
AcDbLine
 10
124.267512045
 20
281.6263517131
 30
0.0
 11
127.180012045
 21
281.6263517131
 31
0.0
  0
LINE
  5
A6
330
1F
100
AcDbEntity
  8
0
  6
Continuous
 62
     7
100
AcDbLine
 10
118.67992704
 20
282.0263517131
 30
0.0
 11
122.192512045
 21
282.0263517131
 31
0.0
  0
LINE
  5
A7
330
1F
100
AcDbEntity
  8
0
  6
Continuous
 62
     7
100
AcDbLine
 10
124.267512045
 20
282.0263517131
 30
0.0
 11
127.180012045
 21
282.0263517131
 31
0.0
  0
LINE
  5
A8
330
1F
100
AcDbEntity
  8
0
  6
Continuous
 62
     7
100
AcDbLine
 10
127.180012045
 20
307.3762880779
 30
0.0
 11
127.180012045
 21
294.8908517131
 31
0.0
  0
LINE
  5
A9
330
1F
100
AcDbEntity
  8
FASEN
  6
Continuous
 62
     7
100
AcDbLine
 10
127.180012045
 20
294.8908517131
 30
0.0
 11
127.180012045
 21
294.4908517131
 31
0.0
  0
LINE
  5
AA
330
1F
100
AcDbEntity
  8
FASEN
  6
Continuous
 62
     7
100
AcDbLine
 10
127.180012045
 20
288.2618517131
 30
0.0
 11
127.180012045
 21
287.8618517131
 31
0.0
  0
LINE
  5
AB
330
1F
100
AcDbEntity
  8
0
  6
Continuous
 62
     7
100
AcDbLine
 10
127.180012045
 20
287.8618517131
 30
0.0
 11
127.180012045
 21
282.0263517131
 31
0.0
  0
LINE
  5
AC
330
1F
100
AcDbEntity
  8
0
  6
Continuous
 62
     7
100
AcDbLine
 10
127.180012045
 20
278.392611882
 30
0.0
 11
127.180012045
 21
275.3763601827
 31
0.0
  0
LINE
  5
AD
330
1F
100
AcDbEntity
  8
FASEN
  6
Continuous
 62
     7
100
AcDbLine
 10
127.180012045
 20
278.392611882
 30
0.0
 11
127.180012045
 21
282.0263517131
 31
0.0
  0
LINE
  5
AE
330
1F
100
AcDbEntity
  8
RUNDUNGEN
  6
Continuous
 62
     7
100
AcDbLine
 10
127.180012045
 20
288.2618517131
 30
0.0
 11
127.180012045
 21
289.7672320112
 31
0.0
  0
LINE
  5
AF
330
1F
100
AcDbEntity
  8
RUNDUNGEN
  6
Continuous
 62
     7
100
AcDbLine
 10
127.180012045
 20
292.9855402584
 30
0.0
 11
127.180012045
 21
294.4908517131
 31
0.0
  0
LINE
  5
B0
330
1F
100
AcDbEntity
  8
RUNDUNGEN
  6
Continuous
 62
     9
100
AcDbLine
 10
128.180012045
 20
303.3763517131
 30
0.0
 11
128.180012045
 21
279.3763517131
 31
0.0
  0
LINE
  5
B1
330
1F
100
AcDbEntity
  8
0
  6
Continuous
 62
     7
100
AcDbLine
 10
106.5523505067
 20
279.3489960162
 30
0.0
 11
106.6558781248
 21
279.3626256857
 31
0.0
  0
LINE
  5
B2
330
1F
100
AcDbEntity
  8
0
  6
Continuous
 62
     7
100
AcDbLine
 10
121.1948523461
 20
275.3763517131
 30
0.0
 11
122.192512045
 21
277.1043490002
 31
0.0
  0
LINE
  5
B3
330
1F
100
AcDbEntity
  8
0
  6
Continuous
 62
     7
100
AcDbLine
 10
106.5523505067
 20
279.3489960162
 30
0.0
 11
106.230012045
 21
279.2626256857
 31
0.0
  0
LINE
  5
B4
330
1F
100
AcDbEntity
  8
RUNDUNGEN
  6
Continuous
 62
     9
100
AcDbLine
 10
94.105973155
 20
286.4713517131
 30
0.0
 11
93.530012045
 21
286.4713517131
 31
0.0
  0
LINE
  5
B5
330
1F
100
AcDbEntity
  8
0
  6
Continuous
 62
     9
100
AcDbLine
 10
93.530012045
 20
286.4713517131
 30
0.0
 11
92.0501964013
 21
286.4713517131
 31
0.0
  0
LINE
  5
B6
330
1F
100
AcDbEntity
  8
DEFAULT_2
  6
HIDDEN
 62
     8
100
AcDbLine
 10
177.230012045
 20
287.3763517131
 30
0.0
 11
141.230012045
 21
287.3763517131
 31
0.0
  0
LINE
  5
B7
330
1F
100
AcDbEntity
  8
0
  6
Continuous
 62
     7
100
AcDbLine
 10
93.530012045
 20
287.8513517131
 30
0.0
 11
92.280012045
 21
287.8513517131
 31
0.0
  0
LINE
  5
B8
330
1F
100
AcDbEntity
  8
0
  6
Continuous
 62
     7
100
AcDbLine
 10
118.694512045
 20
287.8618517131
 30
0.0
 11
122.192512045
 21
287.8618517131
 31
0.0
  0
LINE
  5
B9
330
1F
100
AcDbEntity
  8
0
  6
Continuous
 62
     7
100
AcDbLine
 10
124.267512045
 20
287.8618517131
 30
0.0
 11
127.180012045
 21
287.8618517131
 31
0.0
  0
LINE
  5
BA
330
1F
100
AcDbEntity
  8
0
  6
Continuous
 62
     7
100
AcDbLine
 10
127.180012045
 20
288.2618517131
 30
0.0
 11
124.161527473
 21
288.2618517131
 31
0.0
  0
LINE
  5
BB
330
1F
100
AcDbEntity
  8
0
  6
Continuous
 62
     7
100
AcDbLine
 10
122.298496617
 20
288.2618517131
 30
0.0
 11
118.694512045
 21
288.2618517131
 31
0.0
  0
LINE
  5
BC
330
1F
100
AcDbEntity
  8
0
  6
Continuous
 62
     7
100
AcDbLine
 10
122.442512045
 20
288.4624840084
 30
0.0
 11
124.017512045
 21
288.4624840084
 31
0.0
  0
LINE
  5
BD
330
1F
100
AcDbEntity
  8
0
  6
Continuous
 62
     7
100
AcDbLine
 10
121.1948523461
 20
307.3763517131
 30
0.0
 11
122.192512045
 21
305.6483544259
 31
0.0
  0
LWPOLYLINE
  5
BE
330
1F
100
AcDbEntity
  8
TEIL_STARTBEZUEGE
  6
DOT_CENTER
 62
     7
100
AcDbPolyline
 90
        2
 70
     0
 43
0.25
 10
180.230012045
 20
291.3763517131
 10
88.330012045
 20
291.3763517131
  0
LINE
  5
BF
330
1F
100
AcDbEntity
  8
0
  6
Continuous
 62
     7
100
AcDbLine
 10
124.017512045
 20
294.2902194177
 30
0.0
 11
122.442512045
 21
294.2902194177
 31
0.0
  0
LINE
  5
C0
330
1F
100
AcDbEntity
  8
0
  6
Continuous
 62
     7
100
AcDbLine
 10
118.694512045
 20
294.4908517131
 30
0.0
 11
122.298496617
 21
294.4908517131
 31
0.0
  0
LINE
  5
C1
330
1F
100
AcDbEntity
  8
0
  6
Continuous
 62
     7
100
AcDbLine
 10
124.161527473
 20
294.4908517131
 30
0.0
 11
127.180012045
 21
294.4908517131
 31
0.0
  0
LINE
  5
C2
330
1F
100
AcDbEntity
  8
0
  6
Continuous
 62
     7
100
AcDbLine
 10
118.694512045
 20
294.8908517131
 30
0.0
 11
122.192512045
 21
294.8908517131
 31
0.0
  0
LINE
  5
C3
330
1F
100
AcDbEntity
  8
0
  6
Continuous
 62
     7
100
AcDbLine
 10
124.267512045
 20
294.8908517131
 30
0.0
 11
127.180012045
 21
294.8908517131
 31
0.0
  0
LINE
  5
C4
330
1F
100
AcDbEntity
  8
0
  6
Continuous
 62
     7
100
AcDbLine
 10
93.530012045
 20
294.9013517131
 30
0.0
 11
92.280012045
 21
294.9013517131
 31
0.0
  0
LINE
  5
C5
330
1F
100
AcDbEntity
  8
DEFAULT_2
  6
HIDDEN
 62
     8
100
AcDbLine
 10
177.230012045
 20
295.3763517131
 30
0.0
 11
141.230012045
 21
295.3763517131
 31
0.0
  0
LINE
  5
C6
330
1F
100
AcDbEntity
  8
0
  6
Continuous
 62
     9
100
AcDbLine
 10
93.530012045
 20
296.2813517131
 30
0.0
 11
92.0501964013
 21
296.2813517131
 31
0.0
  0
LINE
  5
C7
330
1F
100
AcDbEntity
  8
RUNDUNGEN
  6
Continuous
 62
     9
100
AcDbLine
 10
93.530012045
 20
296.2813517131
 30
0.0
 11
94.105973155
 21
296.2813517131
 31
0.0
  0
LINE
  5
C8
330
1F
100
AcDbEntity
  8
0
  6
Continuous
 62
     7
100
AcDbLine
 10
106.5523505067
 20
303.4037074099
 30
0.0
 11
106.230012045
 21
303.4900777405
 31
0.0
  0
LINE
  5
C9
330
1F
100
AcDbEntity
  8
DEFAULT_2
  6
HIDDEN
 62
     8
100
AcDbLine
 10
141.230012045
 20
295.3763517131
 30
0.0
 11
141.230012045
 21
287.3763517131
 31
0.0
  0
LINE
  5
CA
330
1F
100
AcDbEntity
  8
RUNDUNGEN
  6
Continuous
 62
     9
100
AcDbLine
 10
142.080012045
 20
303.3763517131
 30
0.0
 11
142.080012045
 21
279.3763517131
 31
0.0
  0
LINE
  5
CB
330
1F
100
AcDbEntity
  8
RUNDUNGEN
  6
Continuous
 62
     9
100
AcDbLine
 10
142.679825726
 20
278.7913032356
 30
0.0
 11
142.679825726
 21
303.9614001905
 31
0.0
  0
LINE
  5
CC
330
1F
100
AcDbEntity
  8
RUNDUNGEN
  6
Continuous
 62
     9
100
AcDbLine
 10
143.3267148645
 20
278.208104358
 30
0.0
 11
143.3267148645
 21
304.5445990681
 31
0.0
  0
LINE
  5
CD
330
1F
100
AcDbEntity
  8
0
  6
Continuous
 62
     7
100
AcDbLine
 10
106.5523505067
 20
303.4037074099
 30
0.0
 11
106.6558781248
 21
303.3900777405
 31
0.0
  0
LINE
  5
CE
330
1F
100
AcDbEntity
  8
RUNDUNGEN
  6
Continuous
 62
     7
100
AcDbLine
 10
142.080012045
 20
303.3763517131
 30
0.0
 11
128.180012045
 21
303.3763517131
 31
0.0
  0
LINE
  5
CF
330
1F
100
AcDbEntity
  8
0
  6
Continuous
 62
     7
100
AcDbLine
 10
128.180012045
 20
303.3763517131
 30
0.0
 11
142.080012045
 21
303.3763517131
 31
0.0
  0
LINE
  5
D0
330
1F
100
AcDbEntity
  8
0
  6
Continuous
 62
     7
100
AcDbLine
 10
107.0758348817
 20
303.3900777405
 30
0.0
 11
106.6558781248
 21
303.3900777405
 31
0.0
  0
LINE
  5
D1
330
1F
100
AcDbEntity
  8
0
  6
Continuous
 62
     7
100
AcDbLine
 10
106.230012045
 20
303.4900777405
 30
0.0
 11
91.8999880619
 21
302.7721042786
 31
0.0
  0
LINE
  5
D2
330
1F
100
AcDbEntity
  8
0
  6
Continuous
 62
     7
100
AcDbLine
 10
122.442512045
 20
304.6013517131
 30
0.0
 11
124.017512045
 21
304.6013517131
 31
0.0
  0
LINE
  5
D3
330
1F
100
AcDbEntity
  8
RUNDUNGEN
  6
Continuous
 62
     7
100
AcDbLine
 10
176.3084711407
 20
301.9488785551
 30
0.0
 11
143.3267148645
 21
304.5445990681
 31
0.0
  0
LINE
  5
D4
330
1F
100
AcDbEntity
  8
0
  6
Continuous
 62
     7
100
AcDbLine
 10
143.3267148645
 20
304.5445990681
 30
0.0
 11
176.3084711407
 21
301.9488785551
 31
0.0
  0
LINE
  5
D5
330
1F
100
AcDbEntity
  8
BEZUGSACHSEN
  6
Continuous
 62
     7
100
AcDbLine
 10
121.1948523461
 20
307.3763517131
 30
0.0
 11
119.230012045
 21
307.3763517131
 31
0.0
  0
LINE
  5
D6
330
1F
100
AcDbEntity
  8
BEZUGSACHSEN
  6
Continuous
 62
     7
100
AcDbLine
 10
109.230012045
 20
307.3763517131
 30
0.0
 11
107.230012045
 21
307.3763517131
 31
0.0
  0
LINE
  5
D7
330
1F
100
AcDbEntity
  8
0
  6
Continuous
 62
     7
100
AcDbLine
 10
107.230012045
 20
307.3763517131
 30
0.0
 11
109.230012045
 21
307.3763517131
 31
0.0
  0
LINE
  5
D8
330
1F
100
AcDbEntity
  8
0
  6
Continuous
 62
     7
100
AcDbLine
 10
119.230012045
 20
307.3763517131
 30
0.0
 11
121.1948523461
 21
307.3763517131
 31
0.0
  0
LINE
  5
D9
330
1F
100
AcDbEntity
  8
0
  6
Continuous
 62
     7
100
AcDbLine
 10
125.2651717439
 20
307.3763517131
 30
0.0
 11
127.180012045
 21
307.3763517131
 31
0.0
  0
LINE
  5
DA
330
1F
100
AcDbEntity
  8
RUNDUNGEN
  6
Continuous
 62
     9
100
AcDbLine
 10
176.3084711407
 20
280.803824871
 30
0.0
 11
176.3084711407
 21
301.9488785551
 31
0.0
  0
LINE
  5
DB
330
1F
100
AcDbEntity
  8
RUNDUNGEN
  6
Continuous
 62
     7
100
AcDbLine
 10
177.230012045
 20
281.8007422047
 30
0.0
 11
177.230012045
 21
300.9519612214
 31
0.0
  0
LWPOLYLINE
  5
DC
330
1F
100
AcDbEntity
  8
1
  6
Continuous
 62
     7
100
AcDbPolyline
 90
        2
 70
     0
 43
0.25
 10
177.230012045
 20
300.9519612214
 10
177.230012045
 20
301.8763517130466
  0
LWPOLYLINE
  5
DD
330
1F
100
AcDbEntity
  8
1
  6
Continuous
 62
     7
100
AcDbPolyline
 90
        2
 70
     0
 43
0.25
 10
176.3084711407
 20
301.9488785551
 10
177.2300120449949
 20
301.8763517130466
  0
LWPOLYLINE
  5
DE
330
1F
100
AcDbEntity
  8
1
  6
Continuous
 62
     7
100
AcDbPolyline
 90
        2
 70
     0
 43
0.25
 10
176.3084711407
 20
280.803824871
 10
177.230012045
 20
280.8763517130486
  0
LWPOLYLINE
  5
DF
330
1F
100
AcDbEntity
  8
1
  6
Continuous
 62
     7
100
AcDbPolyline
 90
        2
 70
     0
 43
0.25
 10
177.230012045
 20
281.8007422047
 10
177.230012045
 20
280.8763517130486
  0
LWPOLYLINE
  5
E0
330
1F
100
AcDbEntity
  8
1
  6
Continuous
 62
     7
100
AcDbPolyline
 90
        2
 70
     0
 43
0.25
 10
143.3267148645
 20
304.5445990681
 10
143.4267148645
 20
304.5445990681
  0
ARC
  5
E1
330
1F
100
AcDbEntity
  8
FASEN
  6
Continuous
 62
     7
100
AcDbCircle
 10
120.0990317678
 20
284.8641510462
 30
0.0
 40
7.891580868599881
100
AcDbArc
 50
231.4754833830966
 51
235.090411674833
  0
ARC
  5
E2
330
1F
100
AcDbEntity
  8
FASEN
  6
Continuous
 62
     7
100
AcDbCircle
 10
118.67992704
 20
278.5263517131
 30
0.0
 40
3.5
100
AcDbArc
 50
90.0
 51
177.3161918300953
  0
ARC
  5
E3
330
1F
100
AcDbEntity
  8
FASEN
  6
Continuous
 62
     7
100
AcDbCircle
 10
118.67992704
 20
278.5263517131
 30
0.0
 40
3.099981417500032
100
AcDbArc
 50
90.0
 51
182.4726151194931
  0
ARC
  5
E4
330
1F
100
AcDbEntity
  8
RUNDUNGEN
  6
Continuous
 62
     7
100
AcDbCircle
 10
93.530012045
 20
288.7513517131
 30
0.0
 40
0.9000000000000341
100
AcDbArc
 50
270.0
 51
352.9880362120754
  0
ARC
  5
E5
330
1F
100
AcDbEntity
  8
0
  6
Continuous
 62
     7
100
AcDbCircle
 10
91.930012045
 20
280.5798474771
 30
0.0
 40
0.5999999999999943
100
AcDbArc
 50
179.9999999522486
 51
267.131722929483
  0
ARC
  5
E6
330
1F
100
AcDbEntity
  8
0
  6
Continuous
 62
     7
100
AcDbCircle
 10
107.0758348817
 20
278.9626256857
 30
0.0
 40
0.3999999999998922
100
AcDbArc
 50
67.30156454046652
 51
90.0
  0
ARC
  5
E7
330
1F
100
AcDbEntity
  8
0
  6
Continuous
 62
     7
100
AcDbCircle
 10
122.442512045
 20
277.9013517131
 30
0.0
 40
0.25
100
AcDbArc
 50
90.0
 51
180.0
  0
ARC
  5
E8
330
1F
100
AcDbEntity
  8
0
  6
Continuous
 62
     7
100
AcDbCircle
 10
39.6383370483
 20
316.6868647823
 30
0.0
 40
90.09947276600693
100
AcDbArc
 50
334.8479477141801
 51
336.3847181612001
  0
ARC
  5
E9
330
1F
100
AcDbEntity
  8
0
  6
Continuous
 62
     7
100
AcDbCircle
 10
118.694512045
 20
291.3763517131
 30
0.0
 40
3.514499999999998
100
AcDbArc
 50
90.0
 51
270.0
  0
ARC
  5
EA
330
1F
100
AcDbEntity
  8
FASEN
  6
Continuous
 62
     7
100
AcDbCircle
 10
118.694512045
 20
291.3763517131
 30
0.0
 40
3.114489022599969
100
AcDbArc
 50
90.0
 51
270.0
  0
ARC
  5
EB
330
1F
100
AcDbEntity
  8
RUNDUNGEN
  6
Continuous
 62
     7
100
AcDbCircle
 10
93.530012045
 20
294.0013517131
 30
0.0
 40
0.9000000000000257
100
AcDbArc
 50
7.01196202158862
 51
90.0
  0
ARC
  5
EC
330
1F
100
AcDbEntity
  8
0
  6
Continuous
 62
     7
100
AcDbCircle
 10
91.930012045
 20
302.172855949
 30
0.0
 40
0.600000000074665
100
AcDbArc
 50
92.8682770700389
 51
180.0
  0
ARC
  5
ED
330
1F
100
AcDbEntity
  8
0
  6
Continuous
 62
     7
100
AcDbCircle
 10
106.6558781248
 20
303.7900777405
 30
0.0
 40
0.4000000000967822
100
AcDbArc
 50
254.9999999949662
 51
270.0
  0
ARC
  5
EE
330
1F
100
AcDbEntity
  8
0
  6
Continuous
 62
     7
100
AcDbCircle
 10
107.0758348817
 20
303.7900777405
 30
0.0
 40
0.4000000000000341
100
AcDbArc
 50
270.0
 51
292.6984354595335
  0
ARC
  5
EF
330
1F
100
AcDbEntity
  8
0
  6
Continuous
 62
     7
100
AcDbCircle
 10
122.442512045
 20
304.8513517131
 30
0.0
 40
0.25
100
AcDbArc
 50
180.0
 51
270.0
  0
ARC
  5
F0
330
1F
100
AcDbEntity
  8
0
  6
Continuous
 62
     7
100
AcDbCircle
 10
152.1968341826
 20
-240.3397794051
 30
0.0
 40
540.1736479691001
100
AcDbArc
 50
96.23504095310001
 51
96.40370831109296
  0
ARC
  5
F1
330
1F
100
AcDbEntity
  8
RUNDUNGEN
  6
Continuous
 62
     7
100
AcDbCircle
 10
176.230012045
 20
281.8007422047
 30
0.0
 40
0.9999999999647582
100
AcDbArc
 50
274.4999999985585
 51
0.0
  0
ARC
  5
F2
330
1F
100
AcDbEntity
  8
RUNDUNGEN
  6
Continuous
 62
     7
100
AcDbCircle
 10
128.180012045
 20
278.3763517131
 30
0.0
 40
1.0
100
AcDbArc
 50
90.0
 51
173.5714276858737
  0
ARC
  5
F3
330
1F
100
AcDbEntity
  8
RUNDUNGEN
  6
Continuous
 62
     7
100
AcDbCircle
 10
143.2796394071
 20
278.8062547582
 30
0.0
 40
0.6000000000523416
100
AcDbArc
 50
181.4279130440916
 51
274.499999996803
  0
ARC
  5
F4
330
1F
100
AcDbEntity
  8
RUNDUNGEN
  6
Continuous
 62
     7
100
AcDbCircle
 10
142.080012045
 20
278.7763517131
 30
0.0
 40
0.5999999999498664
100
AcDbArc
 50
1.42791303478991
 51
90.0
  0
ARC
  5
F5
330
1F
100
AcDbEntity
  8
0
  6
Continuous
 62
     7
100
AcDbCircle
 10
124.017512045
 20
277.9013517131
 30
0.0
 40
0.25
100
AcDbArc
 50
0.0
 51
90.0
  0
ARC
  5
F6
330
1F
100
AcDbEntity
  8
0
  6
Continuous
 62
     7
100
AcDbCircle
 10
152.1968341826
 20
823.0924828312
 30
0.0
 40
540.1736479691231
100
AcDbArc
 50
263.5962916889071
 51
263.7649590469
  0
ARC
  5
F7
330
1F
100
AcDbEntity
  8
0
  6
Continuous
 62
     7
100
AcDbCircle
 10
206.8216870416
 20
316.6868647823
 30
0.0
 40
90.09947276599954
100
AcDbArc
 50
203.6152818387999
 51
205.152052285847
  0
ARC
  5
F8
330
1F
100
AcDbEntity
  8
RUNDUNGEN
  6
Continuous
 62
     7
100
AcDbCircle
 10
176.230012045
 20
300.9519612214
 30
0.0
 40
1.0
100
AcDbArc
 50
0.0
 51
85.50000000144182
  0
ARC
  5
F9
330
1F
100
AcDbEntity
  8
RUNDUNGEN
  6
Continuous
 62
     7
100
AcDbCircle
 10
128.180012045
 20
304.3763517131
 30
0.0
 40
1.000000000000014
100
AcDbArc
 50
180.0
 51
270.0
  0
ARC
  5
FA
330
1F
100
AcDbEntity
  8
RUNDUNGEN
  6
Continuous
 62
     7
100
AcDbCircle
 10
143.2796394071
 20
303.9464486679
 30
0.0
 40
0.5999999999574054
100
AcDbArc
 50
85.5000000031975
 51
178.572086955903
  0
ARC
  5
FB
330
1F
100
AcDbEntity
  8
RUNDUNGEN
  6
Continuous
 62
     7
100
AcDbCircle
 10
142.080012045
 20
303.9763517131
 30
0.0
 40
0.5999999999999659
100
AcDbArc
 50
270.0
 51
358.5720869556704
  0
ARC
  5
FC
330
1F
100
AcDbEntity
  8
0
  6
Continuous
 62
     7
100
AcDbCircle
 10
124.017512045
 20
304.8513517131
 30
0.0
 40
0.25
100
AcDbArc
 50
270.0
 51
0.0
  0
CIRCLE
  5
FD
330
1F
100
AcDbEntity
  8
FASEN
  6
Continuous
 62
     7
100
AcDbCircle
 10
102.230012045
 20
291.3763517131
 30
0.0
 40
2.0
  0
SPLINE
  5
FE
330
1F
100
AcDbEntity
  8
BEZUGSACHSEN
  6
Continuous
 62
     7
100
AcDbSpline
210
0.0
220
0.0
230
1.0
 70
     8
 71
     3
 72
    15
 73
    11
 74
     9
 42
0.0000000001
 43
0.0000000001
 44
0.00000001
 40
0.0
 40
0.0
 40
0.0
 40
0.0
 40
0.9628201223049752
 40
1.926005549752824
 40
2.746145156444013
 40
3.566131340662338
 40
4.124321693093936
 40
4.682477186156556
 40
4.882745115151067
 40
5.08300034711059
 40
5.08300034711059
 40
5.08300034711059
 40
5.08300034711059
 10
114.230012045
 20
306.5750358666
 30
0.0
 10
113.9090223546701
 20
306.5809683699986
 30
0.0
 10
113.2669211867917
 20
306.5928356276564
 30
0.0
 10
112.3550109729991
 20
306.6824307923753
 30
0.0
 10
111.4967114658058
 20
306.8118946791411
 30
0.0
 10
110.778211117647
 20
306.9574831494965
 30
0.0
 10
110.1509544779995
 20
307.1099765586376
 30
0.0
 10
109.727778945025
 20
307.2265601891041
 30
0.0
 10
109.4213265002844
 20
307.3171620459744
 30
0.0
 10
109.2937821823287
 20
307.3566222410357
 30
0.0
 10
109.230012045
 20
307.3763517131
 30
0.0
 11
114.230012045
 21
306.5750358666
 31
0.0
 11
113.2676762471578
 21
306.6055710939081
 31
0.0
 11
112.3087448100376
 21
306.6959960160838
 31
0.0
 11
111.4978313666626
 21
306.8186677806314
 31
0.0
 11
110.6940605691009
 21
306.9809325250957
 31
0.0
 11
110.15164892519
 21
307.1127129413098
 31
0.0
 11
109.6134687335181
 21
307.2606981964129
 31
0.0
 11
109.4214443062511
 21
307.3175652582021
 31
0.0
 11
109.230012045
 21
307.3763517131
 31
0.0
  0
SPLINE
  5
FF
330
1F
100
AcDbEntity
  8
BEZUGSACHSEN
  6
Continuous
 62
     7
100
AcDbSpline
210
0.0
220
0.0
230
1.0
 70
     8
 71
     3
 72
    15
 73
    11
 74
     9
 42
0.0000000001
 43
0.0000000001
 44
0.00000001
 40
0.0
 40
0.0
 40
0.0
 40
0.0
 40
0.2002489395079713
 40
0.400510576515263
 40
0.9586560729658011
 40
1.516836421086539
 40
2.336828142819084
 40
3.156973315793965
 40
4.120169472756933
 40
5.083000289855166
 40
5.083000289855166
 40
5.083000289855166
 40
5.083000289855166
 10
119.230012045
 20
307.3763517131
 30
0.0
 10
119.1662439080469
 20
307.3566228722273
 30
0.0
 10
119.0387035906942
 20
307.3171639395041
 30
0.0
 10
118.7322584037796
 20
307.2265640852484
 30
0.0
 10
118.3090914458312
 20
307.1099823441012
 30
0.0
 10
117.6818397411575
 20
306.9574890592568
 30
0.0
 10
116.9633392284771
 20
306.8118995081123
 30
0.0
 10
116.105032678377
 20
306.6824335468471
 30
0.0
 10
115.1931136141042
 20
306.5928362067507
 30
0.0
 10
114.5510053017698
 20
306.5809685629426
 30
0.0
 10
114.230012045
 20
306.5750358666
 30
0.0
 11
119.230012045
 21
307.3763517131
 31
0.0
 11
119.0385857945438
 21
307.3175671197922
 31
0.0
 11
118.8465674229364
 21
307.260701768109
 31
0.0
 11
118.3083970184634
 21
307.1127186239425
 31
0.0
 11
117.7659953028372
 21
306.9809397185214
 31
0.0
 11
116.9622193172705
 21
306.8186726894116
 31
0.0
 11
116.1513005240181
 21
306.6959990756874
 31
0.0
 11
115.1923585149826
 21
306.6055719774523
 31
0.0
 11
114.230012045
 21
306.5750358666
 31
0.0
  0
SPLINE
  5
100
330
1F
100
AcDbEntity
  8
RUNDUNGEN
  6
Continuous
 62
     7
100
AcDbSpline
210
0.0
220
0.0
230
1.0
 70
     8
 71
     3
 72
    11
 73
     7
 74
     5
 42
0.0000000001
 43
0.0000000001
 44
0.00000001
 40
0.0
 40
0.0
 40
0.0
 40
0.0
 40
0.2720357132138659
 40
0.5444507174259943
 40
0.8204954810717365
 40
1.095557810873354
 40
1.095557810873354
 40
1.095557810873354
 40
1.095557810873354
 10
94.105973155
 20
296.2813517131
 30
0.0
 10
94.15112299744816
 20
296.2025973317644
 30
0.0
 10
94.24148563337616
 20
296.0449787642901
 30
0.0
 10
94.3437884050739
 20
295.7906138954361
 30
0.0
 10
94.41531158733305
 20
295.5239108788825
 30
0.0
 10
94.42511771942799
 20
295.3400181431894
 30
0.0
 10
94.430012045
 20
295.248235684
 30
0.0
 11
94.105973155
 21
296.2813517131
 31
0.0
 11
94.2358109424465
 21
296.0423002997706
 31
0.0
 11
94.33821669055472
 21
295.7898661553402
 31
0.0
 11
94.40584853199589
 21
295.5222346072008
 31
0.0
 11
94.430012045
 21
295.248235684
 31
0.0
  0
SPLINE
  5
101
330
1F
100
AcDbEntity
  8
RUNDUNGEN
  6
Continuous
 62
     7
100
AcDbSpline
210
0.0
220
0.0
230
1.0
 70
     8
 71
     3
 72
    15
 73
    11
 74
     9
 42
0.0000000001
 43
0.0000000001
 44
0.00000001
 40
0.0
 40
0.0
 40
0.0
 40
0.0
 40
0.0931623162077442
 40
0.1866550545183843
 40
0.2771610325901084
 40
0.3676563365104236
 40
0.4555076254496761
 40
0.5433695151855371
 40
0.6298939392566252
 40
0.7163624469272898
 40
0.7163624469272898
 40
0.7163624469272898
 40
0.7163624469272898
 10
93.530012045
 20
296.6385944058
 30
0.0
 10
93.56112961522884
 20
296.6401036697852
 30
0.0
 10
93.62347512148038
 20
296.6431275507157
 30
0.0
 10
93.71490305881626
 20
296.6244310513273
 30
0.0
 10
93.80013498759368
 20
296.5901523084975
 30
0.0
 10
93.87680116132553
 20
296.5429947578066
 30
0.0
 10
93.94537171685386
 20
296.4863006365292
 30
0.0
 10
94.00570837862145
 20
296.4228407521329
 30
0.0
 10
94.0596266102543
 20
296.3544246577933
 30
0.0
 10
94.09052763612472
 20
296.3057041120269
 30
0.0
 10
94.105973155
 20
296.2813517131
 30
0.0
 11
93.530012045
 21
296.6385944058
 31
0.0
 11
93.62317217778387
 21
296.6392322309205
 31
0.0
 11
93.71496825890033
 21
296.6215017033344
 31
0.0
 11
93.79899129984905
 21
296.5878645117684
 31
0.0
 11
93.87628876864902
 21
296.5408060231744
 31
0.0
 11
93.94416118233735
 21
296.485028030844
 31
0.0
 11
94.00498087243432
 21
296.4216192225879
 31
0.0
 11
94.05842330607774
 21
296.3535723104823
 31
0.0
 11
94.105973155
 21
296.2813517131
 31
0.0
  0
SPLINE
  5
102
330
1F
100
AcDbEntity
  8
RUNDUNGEN
  6
Continuous
 62
     7
100
AcDbSpline
210
0.0
220
0.0
230
1.0
 70
     8
 71
     3
 72
    11
 73
     7
 74
     5
 42
0.0000000001
 43
0.0000000001
 44
0.00000001
 40
0.0
 40
0.0
 40
0.0
 40
0.0
 40
0.2750623373351058
 40
0.5511071090004693
 40
0.8235221051855519
 40
1.095557809841077
 40
1.095557809841077
 40
1.095557809841077
 40
1.095557809841077
 10
94.430012045
 20
287.5044677422
 30
0.0
 10
94.42511771862048
 20
287.4126852804952
 30
0.0
 10
94.41531158489947
 20
287.2287925396091
 30
0.0
 10
94.34378839705913
 20
286.9620895219707
 30
0.0
 10
94.24148562806997
 20
286.7077246553364
 30
0.0
 10
94.1511229956502
 20
286.5501060921931
 30
0.0
 10
94.105973155
 20
286.4713517131
 30
0.0
 11
94.430012045
 21
287.5044677422
 31
0.0
 11
94.40584852883629
 21
287.2304688117151
 31
0.0
 11
94.33821668192824
 21
286.9628372566855
 31
0.0
 11
94.23581093715165
 21
286.710403119566
 31
0.0
 11
94.105973155
 21
286.4713517131
 31
0.0
  0
SPLINE
  5
103
330
1F
100
AcDbEntity
  8
RUNDUNGEN
  6
Continuous
 62
     7
100
AcDbSpline
210
0.0
220
0.0
230
1.0
 70
     8
 71
     3
 72
    15
 73
    11
 74
     9
 42
0.0000000001
 43
0.0000000001
 44
0.00000001
 40
0.0
 40
0.0
 40
0.0
 40
0.0
 40
0.0864708478950301
 40
0.1729975735783824
 40
0.2608622577330706
 40
0.3487164648848993
 40
0.4392125794508798
 40
0.5297191468541474
 40
0.6232058226629446
 40
0.7163622618420942
 40
0.7163622618420942
 40
0.7163622618420942
 40
0.7163622618420942
 10
94.105973155
 20
286.4713517131
 30
0.0
 10
94.09052721933884
 20
286.4469986534768
 30
0.0
 10
94.05962536679459
 20
286.3982767971913
 30
0.0
 10
94.00570525660282
 20
286.3298589892938
 30
0.0
 10
93.94536573081251
 20
286.2663980975918
 30
0.0
 10
93.87679245584259
 20
286.2097038639509
 30
0.0
 10
93.80012461426631
 20
286.1625463435928
 30
0.0
 10
93.71489364061519
 20
286.1282691768126
 30
0.0
 10
93.62346909191217
 20
286.1095755374322
 30
0.0
 10
93.56112762605392
 20
286.1125996429759
 30
0.0
 10
93.530012045
 20
286.1141090204
 30
0.0
 11
94.105973155
 21
286.4713517131
 31
0.0
 11
94.05842196540056
 21
286.3991291965046
 31
0.0
 11
94.00497771916461
 21
286.3310807813743
 31
0.0
 11
93.9441551865665
 21
286.267670827503
 31
0.0
 11
93.87627957494499
 21
286.2118921303035
 31
0.0
 11
93.79898084400575
 21
286.1648341559875
 31
0.0
 11
93.71495676653325
 21
286.1311979679155
 31
0.0
 11
93.62316629493428
 21
286.1134703657816
 31
0.0
 11
93.530012045
 21
286.1141090204
 31
0.0
  0
SPLINE
  5
104
330
1F
100
AcDbEntity
  8
0
  6
Continuous
 62
     7
100
AcDbSpline
210
0.0
220
0.0
230
1.0
 70
     8
 71
     3
 72
    25
 73
    21
 74
    19
 42
0.0000000001
 43
0.0000000001
 44
0.00000001
 40
0.0
 40
0.0
 40
0.0
 40
0.0
 40
0.0515355899027963
 40
0.1032261446216451
 40
0.1471729977218753
 40
0.1906825403933719
 40
0.2104686839727057
 40
0.230260271356841
 40
0.2498850528131879
 40
0.2695082949377949
 40
0.3114337745856586
 40
0.353700062635988
 40
0.401800148549184
 40
0.449804938750778
 40
0.5032236943603698
 40
0.5566554562867938
 40
0.6141450524806165
 40
0.6716326392842704
 40
0.7320826683021934
 40
0.7925231052834576
 40
0.7925231052834576
 40
0.7925231052834576
 40
0.7925231052834576
 10
91.330012045
 20
296.5186349269
 30
0.0
 10
91.33043300102526
 20
296.5358266993942
 30
0.0
 10
91.33127617886845
 20
296.570261939141
 30
0.0
 10
91.340452020286
 20
296.6187381750622
 30
0.0
 10
91.35665154561659
 20
296.6624328265952
 30
0.0
 10
91.3765249361287
 20
296.6927392458961
 30
0.0
 10
91.39653788866599
 20
296.7120094856447
 30
0.0
 10
91.41262034794627
 20
296.7235735111122
 30
0.0
 10
91.43021278807312
 20
296.7325520031399
 30
0.0
 10
91.45585991955559
 20
296.7414163845735
 30
0.0
 10
91.49059179611098
 20
296.7457810523101
 30
0.0
 10
91.53473390298043
 20
296.7421068173578
 30
0.0
 10
91.57968755501966
 20
296.7310063572551
 30
0.0
 10
91.62618516443858
 20
296.7128079725204
 30
0.0
 10
91.67237019402633
 20
296.6896118181221
 30
0.0
 10
91.71924584632357
 20
296.661179478411
 30
0.0
 10
91.76530565659561
 20
296.6290259921012
 30
0.0
 10
91.81127995205432
 20
296.5928556925779
 30
0.0
 10
91.85634432994782
 20
296.5540226850304
 30
0.0
 10
91.8854409208042
 20
296.5261359659208
 30
0.0
 10
91.8999880619
 20
296.5121937127
 30
0.0
 11
91.330012045
 21
296.5186349269
 31
0.0
 11
91.33266889211049
 21
296.5701019861716
 31
0.0
 11
91.34244550692303
 21
296.6208595594976
 31
0.0
 11
91.35822382682001
 21
296.6618762697343
 31
0.0
 11
91.38258272024555
 21
296.6979279633778
 31
0.0
 11
91.39684109369392
 21
296.711646209051
 31
0.0
 11
91.41292727287022
 21
296.7231762468086
 31
0.0
 11
91.43038965667441
 21
296.7321315356975
 31
0.0
 11
91.44892980239977
 21
296.7385607368892
 31
0.0
 11
91.49045933547109
 21
296.7443091041863
 31
0.0
 11
91.53261346338188
 21
296.741231994238
 31
0.0
 11
91.5793837508515
 21
296.7299999652643
 31
0.0
 11
91.62421244128876
 21
296.7128288151578
 31
0.0
 11
91.67201884854757
 21
296.6889937385714
 31
0.0
 11
91.71778634461572
 21
296.6614203911827
 31
0.0
 11
91.76497766764489
 21
296.6285869828722
 31
0.0
 11
91.81023915871481
 21
296.5931437880016
 31
0.0
 11
91.85598558026933
 21
296.5536283362995
 31
0.0
 11
91.8999880619
 21
296.5121937127
 31
0.0
  0
SPLINE
  5
105
330
1F
100
AcDbEntity
  8
FASEN
  6
Continuous
 62
     7
100
AcDbSpline
210
0.0
220
0.0
230
1.0
 70
     8
 71
     3
 72
    39
 73
    35
 74
    33
 42
0.0000000001
 43
0.0000000001
 44
0.00000001
 40
0.0
 40
0.0
 40
0.0
 40
0.0
 40
0.2553577284506523
 40
0.5109896322834977
 40
0.766307557638481
 40
1.021546002049567
 40
1.276529593096548
 40
1.531532755283086
 40
1.78637492610514
 40
2.041212220203231
 40
2.296179460809369
 40
2.551148967882114
 40
2.806438834108255
 40
3.061729585063352
 40
3.317263360076826
 40
3.572798987418649
 40
3.828233599900401
 40
4.083666629216166
 40
4.338551083433351
 40
4.593435980522699
 40
4.847479663901126
 40
5.101516738102637
 40
5.354764944518392
 40
5.608016841143004
 40
5.860907654966135
 40
6.113791644680483
 40
6.366940163543753
 40
6.620098299662876
 40
6.87404458780663
 40
7.1279735895325
 40
7.382778237806155
 40
7.637655536151398
 40
7.893216235413647
 40
8.148518090357019
 40
8.148518090357019
 40
8.148518090357019
 40
8.148518090357019
 10
99.6307637154
 20
291.3763517131
 30
0.0
 10
99.63317327427448
 20
291.4615066825651
 30
0.0
 10
99.63799497914599
 20
291.6319080516488
 30
0.0
 10
99.67724350245459
 20
291.8849513504674
 30
0.0
 10
99.73935683983699
 20
292.1330072267596
 30
0.0
 10
99.82602446633302
 20
292.3735014519033
 30
0.0
 10
99.93596207512823
 20
292.6041192710579
 30
0.0
 10
100.068132714829
 20
292.8226220089436
 30
0.0
 10
100.2213636909354
 20
293.0268401927252
 30
0.0
 10
100.3940297986555
 20
293.2148961449008
 30
0.0
 10
100.5845313546526
 20
293.3849203707084
 30
0.0
 10
100.7909439341142
 20
293.5354794998598
 30
0.0
 10
101.0112621717849
 20
293.6650475150726
 30
0.0
 10
101.2433225938378
 20
293.7726092281964
 30
0.0
 10
101.4848287190325
 20
293.8570888061549
 30
0.0
 10
101.7334037945407
 20
293.9178738794136
 30
0.0
 10
101.9866490338028
 20
293.9543834998485
 30
0.0
 10
102.2420131662436
 20
293.9663925043537
 30
0.0
 10
102.4971620973011
 20
293.9537434154728
 30
0.0
 10
102.7494549283761
 20
293.9166696330314
 30
0.0
 10
102.99669557399
 20
293.8553946360415
 30
0.0
 10
103.2363139048826
 20
293.7705903238677
 30
0.0
 10
103.4662108915552
 20
293.6627823254028
 30
0.0
 10
103.6841192442946
 20
293.5331729555988
 30
0.0
 10
103.8880722585414
 20
293.3827567391543
 30
0.0
 10
104.0761814463539
 20
293.2129876648082
 30
0.0
 10
104.2465172905448
 20
293.0252684566238
 30
0.0
 10
104.3976826790829
 20
292.8213589773898
 30
0.0
 10
104.528039100308
 20
292.6032489254779
 30
0.0
 10
104.6365363536814
 20
292.3728964561516
 30
0.0
 10
104.7220710250136
 20
292.1326891695537
 30
0.0
 10
104.7833861924993
 20
291.8847636653323
 30
0.0
 10
104.8220496353022
 20
291.631839821047
 30
0.0
 10
104.8268576068032
 20
291.4614856440109
 30
0.0
 10
104.8292603745
 20
291.3763517131
 30
0.0
 11
99.6307637154
 21
291.3763517131
 31
0.0
 11
99.64332417012677
 21
291.631400344652
 31
0.0
 11
99.68107726836354
 21
291.8842290887274
 31
0.0
 11
99.7434672799607
 21
292.131806812807
 31
0.0
 11
99.82994201739767
 21
292.3719500685745
 31
0.0
 11
99.93967470639272
 21
292.6021138551899
 31
0.0
 11
100.071677417858
 21
292.820292444632
 31
0.0
 11
100.2246045781023
 21
293.0241497861454
 31
0.0
 11
100.3969664640543
 21
293.2118554779459
 31
0.0
 11
100.5871627087947
 21
293.3816603137692
 31
0.0
 11
100.793157211097
 21
293.5319124836641
 31
0.0
 11
101.0131912626995
 21
293.6613649148238
 31
0.0
 11
101.2448091202954
 21
293.768726619197
 31
0.0
 11
101.4859988821124
 21
293.8531363873952
 31
0.0
 11
101.7342207224857
 21
293.9138354384806
 31
0.0
 11
101.9870388488523
 21
293.9503023582048
 31
0.0
 11
102.2421907789553
 21
293.962282551448
 31
0.0
 11
102.4967627050957
 21
293.9496643335567
 31
0.0
 11
102.7489343271478
 21
293.9125727739254
 31
0.0
 11
102.9955144647786
 21
293.8514464392532
 31
0.0
 11
103.2349777733471
 21
293.7666398421143
 31
0.0
 11
103.4642685298481
 21
293.6591205274029
 31
0.0
 11
103.6819105209812
 21
293.5296273351511
 31
0.0
 11
103.8854389199652
 21
293.3795275199508
 31
0.0
 11
104.0731462749651
 21
293.2100687900702
 31
0.0
 11
104.2432838297818
 21
293.0226191033709
 31
0.0
 11
104.3940445175674
 21
292.8192468906629
 31
0.0
 11
104.5243558058558
 21
292.601284312667
 31
0.0
 11
104.6325784186146
 21
292.37157187503
 31
0.0
 11
104.7180008246521
 21
292.131512671231
 31
0.0
 11
104.7795600358993
 21
291.884181110927
 31
0.0
 11
104.816810810604
 21
291.6313498415173
 31
0.0
 11
104.8292603745
 21
291.3763517131
 31
0.0
  0
SPLINE
  5
106
330
1F
100
AcDbEntity
  8
RUNDUNGEN
  6
Continuous
 62
     7
100
AcDbSpline
210
0.0
220
0.0
230
1.0
 70
     8
 71
     3
 72
    11
 73
     7
 74
     5
 42
0.0000000001
 43
0.0000000001
 44
0.00000001
 40
0.0
 40
0.0
 40
0.0
 40
0.0
 40
0.4023342606921046
 40
0.8046703154142799
 40
1.207005812823005
 40
1.609340219190133
 40
1.609340219190133
 40
1.609340219190133
 40
1.609340219190133
 10
127.180012045
 20
292.985699407
 30
0.0
 10
127.1802377824556
 20
292.8515880397874
 30
0.0
 10
127.1806892583733
 20
292.5833647073524
 30
0.0
 10
127.1829052014845
 20
292.1810351412352
 30
0.0
 10
127.1846052885635
 20
291.7787030160851
 30
0.0
 10
127.1848848349142
 20
291.5104796870015
 30
0.0
 10
127.1850246079
 20
291.3763682043
 30
0.0
 11
127.180012045
 21
292.985699407
 31
0.0
 11
127.1809457109917
 21
292.5833662296526
 31
0.0
 11
127.1828192262411
 21
292.1810345370531
 31
0.0
 11
127.1843918285215
 21
291.7787021130587
 31
0.0
 11
127.1850246079
 21
291.3763682043
 31
0.0
  0
SPLINE
  5
107
330
1F
100
AcDbEntity
  8
RUNDUNGEN
  6
Continuous
 62
     7
100
AcDbSpline
210
0.0
220
0.0
230
1.0
 70
     8
 71
     3
 72
    11
 73
     7
 74
     5
 42
0.0000000001
 43
0.0000000001
 44
0.00000001
 40
0.0
 40
0.0
 40
0.0
 40
0.0
 40
0.4023426519914921
 40
0.804686395038959
 40
1.207030695386383
 40
1.609373201653463
 40
1.609373201653463
 40
1.609373201653463
 40
1.609373201653463
 10
127.1850246079
 20
291.3763682043
 30
0.0
 10
127.1848848629961
 20
291.2422539730188
 30
0.0
 10
127.1846053728093
 20
290.974025146771
 30
0.0
 10
127.1829052895078
 20
290.5716847758355
 30
0.0
 10
127.1806892844849
 20
290.1693469643196
 30
0.0
 10
127.1802377911594
 20
289.9011181348311
 30
0.0
 10
127.180012045
 20
289.7670040191
 30
0.0
 11
127.1850246079
 21
291.3763682043
 31
0.0
 11
127.1843918993558
 21
290.9740260497953
 31
0.0
 11
127.1828193033161
 21
290.5716853800748
 31
0.0
 11
127.1809457430698
 21
290.1693454419702
 31
0.0
 11
127.180012045
 21
289.7670040191
 31
0.0
  0
SPLINE
  5
108
330
1F
100
AcDbEntity
  8
FASEN
  6
Continuous
 62
     7
100
AcDbSpline
210
0.0
220
0.0
230
1.0
 70
     8
 71
     3
 72
    39
 73
    35
 74
    33
 42
0.0000000001
 43
0.0000000001
 44
0.00000001
 40
0.0
 40
0.0
 40
0.0
 40
0.0
 40
0.2552997431370008
 40
0.5108651139538889
 40
0.765743625504564
 40
1.020544604182488
 40
1.274474439960617
 40
1.52842225989959
 40
1.781580156255313
 40
2.034730868757609
 40
2.287617452065549
 40
2.540506722718391
 40
2.793756933026406
 40
3.047007599946036
 40
3.301045674675662
 40
3.555087452366481
 40
3.809971905063791
 40
4.064857118441792
 40
4.320289560626827
 40
4.575724060066432
 40
4.83126071248025
 40
5.086793620597022
 40
5.342082704489824
 40
5.597373532580316
 40
5.852343573238679
 40
6.107309239587365
 40
6.362145686737734
 40
6.616987169849404
 40
6.871987286016016
 40
7.126970727552626
 40
7.382214249685516
 40
7.637530302499135
 40
7.893156983692128
 40
8.148517859275582
 40
8.148517859275582
 40
8.148517859275582
 40
8.148517859275582
 10
104.8292603745
 20
291.3763517131
 30
0.0
 10
104.8268772189057
 20
291.2912172428848
 30
0.0
 10
104.8221084281528
 20
291.1208597239407
 30
0.0
 10
104.7833825199519
 20
290.8679420097883
 30
0.0
 10
104.7220704537024
 20
290.6200175340539
 30
0.0
 10
104.6365509765207
 20
290.3798048766135
 30
0.0
 10
104.5280566276892
 20
290.1494511131001
 30
0.0
 10
104.397691995891
 20
289.9313445784648
 30
0.0
 10
104.2465083901319
 20
289.7274469484765
 30
0.0
 10
104.0761652473528
 20
289.539733795964
 30
0.0
 10
103.8880761467074
 20
289.3699422215551
 30
0.0
 10
103.6841384459388
 20
289.2195036570911
 30
0.0
 10
103.4662192999629
 20
289.089910591214
 30
0.0
 10
103.2363113465836
 20
288.9821262780312
 30
0.0
 10
102.9966956240471
 20
288.8973157146227
 30
0.0
 10
102.7494586675762
 20
288.8360264785254
 30
0.0
 10
102.4971657681755
 20
288.7989537019538
 30
0.0
 10
102.2420165471145
 20
288.7863118577292
 30
0.0
 10
101.9866527590906
 20
288.7983262727379
 30
0.0
 10
101.7334076703794
 20
288.8348352984552
 30
0.0
 10
101.4848299162813
 20
288.8956086032596
 30
0.0
 10
101.2433216771566
 20
288.9800826280032
 30
0.0
 10
101.0112691707397
 20
289.0876614846806
 30
0.0
 10
100.7909595529687
 20
289.2172424807466
 30
0.0
 10
100.5845381575066
 20
289.3677880974499
 30
0.0
 10
100.3940224491127
 20
289.5377961246497
 30
0.0
 10
100.2213552606655
 20
289.7258504971011
 30
0.0
 10
100.0681330676745
 20
289.9300737443784
 30
0.0
 10
99.93597743976298
 20
290.1485840675379
 30
0.0
 10
99.82604629283612
 20
290.379204906406
 30
0.0
 10
99.73935974979696
 20
290.6196924034587
 30
0.0
 10
99.67723809322486
 20
290.867748583078
 30
0.0
 10
99.6380618456038
 20
291.1207993563351
 30
0.0
 10
99.63319558168988
 20
291.2911971400294
 30
0.0
 10
99.6307637154
 20
291.3763517131
 30
0.0
 11
104.8292603745
 21
291.3763517131
 31
0.0
 11
104.8168495930012
 21
291.1213538085039
 31
0.0
 11
104.7795669922387
 21
290.868522508145
 31
0.0
 11
104.7180017638694
 21
290.6211911953152
 31
0.0
 11
104.6325915987322
 21
290.3811315310097
 31
0.0
 11
104.5243716637724
 21
290.1514169098477
 31
0.0
 11
104.3940518692606
 21
289.933457632894
 31
0.0
 11
104.2432773025863
 21
289.7300960078724
 31
0.0
 11
104.0731346734824
 21
289.542647964399
 31
0.0
 11
103.8854407760326
 21
289.373170458879
 31
0.0
 11
103.6819253370145
 21
289.2230556718239
 31
0.0
 11
103.4642782569679
 21
289.0935743312058
 31
0.0
 11
103.2349770129905
 21
288.9860715879589
 31
0.0
 11
102.9955136132201
 21
288.9012622513104
 31
0.0
 11
102.7489379054649
 21
288.8401259678338
 31
0.0
 11
102.4967668108056
 21
288.8030338764241
 31
0.0
 11
102.2421938350478
 21
288.7904215010511
 31
0.0
 11
101.9870427132371
 21
288.8024063898445
 31
0.0
 11
101.7342244855111
 21
288.8388718150225
 31
0.0
 11
101.4859994871589
 21
288.8995622666599
 31
0.0
 11
101.2448096209776
 21
288.9839691122473
 31
0.0
 11
101.0131992249222
 21
289.0913429488833
 31
0.0
 11
100.7931698159391
 21
289.2208051676563
 31
0.0
 11
100.5871679941354
 21
289.3710482075846
 31
0.0
 11
100.396961411462
 21
289.5408390993437
 31
0.0
 11
100.2245977796603
 21
289.7285420381282
 31
0.0
 11
100.0716783815069
 21
289.9324043425961
 31
0.0
 11
99.9396892374004
 21
290.1505875799976
 31
0.0
 11
99.82996033835968
 21
290.3807530078385
 31
0.0
 11
99.74347122494532
 21
290.6208964833934
 31
0.0
 11
99.68108499987551
 21
290.8684732305767
 31
0.0
 11
99.64336810985193
 21
291.1213020982811
 31
0.0
 11
99.6307637154
 21
291.3763517131
 31
0.0
  0
SPLINE
  5
109
330
1F
100
AcDbEntity
  8
0
  6
Continuous
 62
     7
100
AcDbSpline
210
0.0
220
0.0
230
1.0
 70
     8
 71
     3
 72
    25
 73
    21
 74
    19
 42
0.0000000001
 43
0.0000000001
 44
0.00000001
 40
0.0
 40
0.0
 40
0.0
 40
0.0
 40
0.0604406726965738
 40
0.1208909376045038
 40
0.1783788231153779
 40
0.2358687181006075
 40
0.2893007100142438
 40
0.3427196954325326
 40
0.3907247441071631
 40
0.4388250890260729
 40
0.4810912365469138
 40
0.5230165750016461
 40
0.5426397734887244
 40
0.5622645057259205
 40
0.5820559875330593
 40
0.6018420342402957
 40
0.6453512809659538
 40
0.6892978001980878
 40
0.7409879875179292
 40
0.7925232210629483
 40
0.7925232210629483
 40
0.7925232210629483
 40
0.7925232210629483
 10
91.8999880619
 20
286.2405097135
 30
0.0
 10
91.88544086308772
 20
286.22656740688
 30
0.0
 10
91.8563441567562
 20
286.1986805809322
 30
0.0
 10
91.81127956934827
 20
286.1598474225368
 30
0.0
 10
91.76530503251736
 20
286.1236769798523
 30
0.0
 10
91.71924495973664
 20
286.0915233862666
 30
0.0
 10
91.67236904157335
 20
286.0630909951643
 30
0.0
 10
91.62618373433384
 20
286.0398948555853
 30
0.0
 10
91.57968581761484
 20
286.0216965645337
 30
0.0
 10
91.53473197722856
 20
286.0105963234932
 30
0.0
 10
91.4905898525756
 20
286.0069223806728
 30
0.0
 10
91.45585811362214
 20
286.0112873055367
 30
0.0
 10
91.43021113727211
 20
286.0201519009865
 30
0.0
 10
91.41261885565805
 20
286.0291305644151
 30
0.0
 10
91.39653663261703
 20
286.0406947777506
 30
0.0
 10
91.37652408264245
 20
286.0599651904429
 30
0.0
 10
91.3566511001523
 20
286.0902715545341
 30
0.0
 10
91.3404518737844
 20
286.1339659533976
 30
0.0
 10
91.33127617351607
 20
286.1824418481438
 30
0.0
 10
91.33043299927006
 20
286.2168768458727
 30
0.0
 10
91.330012045
 20
286.2340684992
 30
0.0
 11
91.8999880619
 21
286.2405097135
 31
0.0
 11
91.85598540367843
 21
286.1990749335989
 31
0.0
 11
91.81023878920757
 21
286.1595593443727
 31
0.0
 11
91.76497703946804
 21
286.1241159953348
 31
0.0
 11
91.71778543380128
 21
286.0912824700899
 31
0.0
 11
91.67201769164483
 21
286.0637090854997
 31
0.0
 11
91.62421101358676
 21
286.039874037017
 31
0.0
 11
91.57938201246132
 21
286.0227029754205
 31
0.0
 11
91.53261141020441
 21
286.0114711480606
 31
0.0
 11
91.49045740165533
 21
286.0083943332306
 31
0.0
 11
91.44892805395074
 21
286.0141430099283
 31
0.0
 11
91.43038801044445
 21
286.0205723726999
 31
0.0
 11
91.41292577448621
 21
286.0295278420187
 31
0.0
 11
91.3968398439215
 21
286.0410580453989
 31
0.0
 11
91.38258173164691
 21
286.0547764228054
 31
0.0
 11
91.35822333693854
 21
286.090828096246
 31
0.0
 11
91.34244532153689
 21
286.1318445658966
 31
0.0
 11
91.33266886361524
 21
286.1826017952898
 31
0.0
 11
91.330012045
 21
286.2340684992
 31
0.0
  0
SPLINE
  5
10A
330
1F
100
AcDbEntity
  8
0
  6
Continuous
 62
     7
100
AcDbSpline
210
0.0
220
0.0
230
1.0
 70
     8
 71
     3
 72
    19
 73
    15
 74
    13
 42
0.0000000001
 43
0.0000000001
 44
0.00000001
 40
0.0
 40
0.0
 40
0.0
 40
0.0
 40
0.0161946968122285
 40
0.0325629813940173
 40
0.0487883951483701
 40
0.064985478333623
 40
0.0811702247485336
 40
0.0973487887265344
 40
0.113523875338179
 40
0.1297004759767057
 40
0.1620346809463486
 40
0.1943842542166641
 40
0.2267297212586288
 40
0.2590669272906693
 40
0.2590669272906693
 40
0.2590669272906693
 40
0.2590669272906693
 10
124.017512045
 20
288.4624840084
 30
0.0
 10
124.0229191323873
 20
288.4619727632593
 30
0.0
 10
124.0337912646679
 20
288.4609447930416
 30
0.0
 10
124.0488341595678
 20
288.4541409556252
 30
0.0
 10
124.0622380532383
 20
288.444856011992
 30
0.0
 10
124.0739978394974
 20
288.4336355020853
 30
0.0
 10
124.0846360193993
 20
288.4214181912642
 30
0.0
 10
124.0942905237523
 20
288.4084170510832
 30
0.0
 10
124.103139165591
 20
288.3948660155274
 30
0.0
 10
124.1140279593962
 20
288.3762483006179
 30
0.0
 10
124.1262991979987
 20
288.3522238941382
 30
0.0
 10
124.1392754681257
 20
288.3225861437508
 30
0.0
 10
124.1510561191615
 20
288.2924525308849
 30
0.0
 10
124.1580373189241
 20
288.2720511171663
 30
0.0
 10
124.161527473
 20
288.2618517131
 30
0.0
 11
124.017512045
 21
288.4624840084
 31
0.0
 11
124.033527516675
 21
288.4600813282575
 31
0.0
 11
124.0486019564932
 21
288.4537030836465
 31
0.0
 11
124.0619796125596
 21
288.4445214514567
 31
0.0
 11
124.0738155907747
 21
288.4334645475772
 31
0.0
 11
124.0844741465804
 21
288.421285007165
 31
0.0
 11
124.0941571456001
 21
288.4083240865813
 31
0.0
 11
124.1030256762424
 21
288.3947969807881
 31
0.0
 11
124.1112186847858
 21
288.3808486110186
 31
0.0
 11
124.1260055600928
 21
288.3520936265868
 31
0.0
 11
124.1390766340386
 21
288.3225023792884
 31
0.0
 11
124.1508390912176
 21
288.2923714344099
 31
0.0
 11
124.161527473
 21
288.2618517131
 31
0.0
  0
SPLINE
  5
10B
330
1F
100
AcDbEntity
  8
0
  6
Continuous
 62
     7
100
AcDbSpline
210
0.0
220
0.0
230
1.0
 70
     8
 71
     3
 72
    19
 73
    15
 74
    13
 42
0.0000000001
 43
0.0000000001
 44
0.00000001
 40
0.0
 40
0.0
 40
0.0
 40
0.0
 40
0.0323151378576674
 40
0.0646399977684407
 40
0.0969742998980333
 40
0.1292882109558525
 40
0.1454536097196364
 40
0.1616217905965286
 40
0.1778063534054962
 40
0.1939890917952653
 40
0.2101993891917097
 40
0.2264513049859507
 40
0.2428488340107842
 40
0.2590606653115941
 40
0.2590606653115941
 40
0.2590606653115941
 40
0.2590606653115941
 10
122.298496617
 20
288.2618517131
 30
0.0
 10
122.3019854392901
 20
288.2720438054405
 30
0.0
 10
122.3089641334872
 20
288.2924310564263
 30
0.0
 10
122.3207377973499
 20
288.3225464086481
 30
0.0
 10
122.3336831812338
 20
288.3521769330152
 30
0.0
 10
122.3459430753037
 20
288.3761908106784
 30
0.0
 10
122.3568495967454
 20
288.3947834728017
 30
0.0
 10
122.3656967506445
 20
288.4083296220517
 30
0.0
 10
122.3753061123358
 20
288.4213619256662
 30
0.0
 10
122.3859178199837
 20
288.4336121259623
 30
0.0
 10
122.3977202275312
 20
288.4448104500807
 30
0.0
 10
122.4111675874196
 20
288.4540658356833
 30
0.0
 10
122.4262122090798
 20
288.4609197156341
 30
0.0
 10
122.4370994325388
 20
288.461964560808
 30
0.0
 10
122.442512045
 20
288.4624840084
 30
0.0
 11
122.298496617
 21
288.2618517131
 31
0.0
 11
122.3091803328404
 21
288.2923496859933
 31
0.0
 11
122.3209319369758
 21
288.3224627457597
 31
0.0
 11
122.3339804191229
 21
288.3520472722536
 31
0.0
 11
122.3487590970455
 21
288.3807836521006
 31
0.0
 11
122.3569593639559
 21
288.3947147590125
 31
0.0
 11
122.3658201264421
 21
288.4082386993048
 31
0.0
 11
122.375472069247
 21
288.4212302378361
 31
0.0
 11
122.3861072413641
 21
288.4334275381862
 31
0.0
 11
122.3979740209271
 21
288.4444707842889
 31
0.0
 11
122.4113918919464
 21
288.4536405991339
 31
0.0
 11
122.4264834650103
 21
288.4600533505385
 31
0.0
 11
122.442512045
 21
288.4624840084
 31
0.0
  0
SPLINE
  5
10C
330
1F
100
AcDbEntity
  8
0
  6
Continuous
 62
     7
100
AcDbSpline
210
0.0
220
0.0
230
1.0
 70
     8
 71
     3
 72
    19
 73
    15
 74
    13
 42
0.0000000001
 43
0.0000000001
 44
0.00000001
 40
0.0
 40
0.0
 40
0.0
 40
0.0
 40
0.0162157579216069
 40
0.0326226840450573
 40
0.0488914582742876
 40
0.0651130425685971
 40
0.0812845012673588
 40
0.0974608274966924
 40
0.1136293935265189
 40
0.129793713518981
 40
0.1620993999881666
 40
0.1944270046170711
 40
0.2267452805357325
 40
0.2590534186304145
 40
0.2590534186304145
 40
0.2590534186304145
 40
0.2590534186304145
 10
122.442512045
 20
294.2902194177
 30
0.0
 10
122.4370982181508
 20
294.2907427204125
 30
0.0
 10
122.4262067406367
 20
294.2917954950736
 30
0.0
 10
122.4111631602639
 20
294.298674095861
 30
0.0
 10
122.3976967371244
 20
294.3079206814111
 30
0.0
 10
122.3858765765212
 20
294.3191100946634
 30
0.0
 10
122.3752754301658
 20
294.3313666256414
 30
0.0
 10
122.3656840699835
 20
294.3444039535524
 30
0.0
 10
122.3568390991804
 20
294.3579476734236
 30
0.0
 10
122.3459277036543
 20
294.3765340653402
 30
0.0
 10
122.3336709625372
 20
294.4005438650734
 30
0.0
 10
122.3207339330141
 20
294.4301701426511
 30
0.0
 10
122.3089626638489
 20
294.4602791135751
 30
0.0
 10
122.3019849344219
 20
294.4806619123955
 30
0.0
 10
122.298496617
 20
294.4908517131
 30
0.0
 11
122.442512045
 21
294.2902194177
 31
0.0
 11
122.4264814934843
 21
294.2926632309243
 31
0.0
 11
122.4113866711467
 21
294.2990923493256
 31
0.0
 11
122.3979484765979
 21
294.3082622971002
 31
0.0
 11
122.3860645280243
 21
294.3193036540511
 31
0.0
 11
122.3754428297831
 21
294.3314977347019
 31
0.0
 11
122.3658067792561
 21
294.3444908121095
 31
0.0
 11
122.3569477167845
 21
294.3580163265021
 31
0.0
 11
122.3487446984252
 21
294.3719445615165
 31
0.0
 11
122.3339691183305
 21
294.4006732860115
 31
0.0
 11
122.3209271219002
 21
294.4302533527821
 31
0.0
 11
122.3091786556412
 21
294.460360569507
 31
0.0
 11
122.298496617
 21
294.4908517131
 31
0.0
  0
SPLINE
  5
10D
330
1F
100
AcDbEntity
  8
0
  6
Continuous
 62
     7
100
AcDbSpline
210
0.0
220
0.0
230
1.0
 70
     8
 71
     3
 72
    19
 73
    15
 74
    13
 42
0.0000000001
 43
0.0000000001
 44
0.00000001
 40
0.0
 40
0.0
 40
0.0
 40
0.0
 40
0.0323407212670378
 40
0.0646896690169553
 40
0.0970430073955229
 40
0.1293811554199443
 40
0.145560463338999
 40
0.1617380091035301
 40
0.1779190470172881
 40
0.1941069133270532
 40
0.2103064804166956
 40
0.2265329505097317
 40
0.2428873474486099
 40
0.2590698531268926
 40
0.2590698531268926
 40
0.2590698531268926
 40
0.2590698531268926
 10
124.161527473
 20
294.4908517131
 30
0.0
 10
124.1580369228816
 20
294.4806512056484
 30
0.0
 10
124.1510549347563
 20
294.4602475960504
 30
0.0
 10
124.1392727148258
 20
294.4301107404317
 30
0.0
 10
124.1262945151252
 20
294.4004697583718
 30
0.0
 10
124.1140212482039
 20
294.3764424870009
 30
0.0
 10
124.1031305822806
 20
294.3578223447049
 30
0.0
 10
124.0942795697701
 20
294.3442697772525
 30
0.0
 10
124.0846210802609
 20
294.3312682215876
 30
0.0
 10
124.0739796673369
 20
294.3190502597359
 30
0.0
 10
124.0622198494506
 20
294.3078267705142
 30
0.0
 10
124.0488180567443
 20
294.2985437675947
 30
0.0
 10
124.033778543508
 20
294.2917532975201
 30
0.0
 10
124.0229150807445
 20
294.2907289070343
 30
0.0
 10
124.017512045
 20
294.2902194177
 30
0.0
 11
124.161527473
 21
294.4908517131
 31
0.0
 11
124.150837843884
 21
294.4603287040505
 31
0.0
 11
124.1390738662326
 21
294.430194616204
 31
0.0
 11
124.1260008504854
 21
294.4006001105735
 31
0.0
 11
124.1112116649302
 21
294.3718418803035
 31
0.0
 11
124.1030169107494
 21
294.3578913961307
 31
0.0
 11
124.0941459398894
 21
294.344362949695
 31
0.0
 11
124.0844594679653
 21
294.3314015358203
 31
0.0
 11
124.0737977470468
 21
294.319220619487
 31
0.0
 11
124.0619606240844
 21
294.3081613024256
 31
0.0
 11
124.0485810126115
 21
294.2989806527474
 31
0.0
 11
124.0335162127012
 21
294.2926152695777
 31
0.0
 11
124.017512045
 21
294.2902194177
 31
0.0
  0
SPLINE
  5
10E
330
1F
100
AcDbEntity
  8
0
  6
Continuous
 62
     7
100
AcDbSpline
210
0.0
220
0.0
230
1.0
 70
     8
 71
     3
 72
    11
 73
     7
 74
     5
 42
0.0000000001
 43
0.0000000001
 44
0.00000001
 40
0.0
 40
0.0
 40
0.0
 40
0.0
 40
0.0552416255774487
 40
0.1107067482615054
 40
0.1596632274380509
 40
0.2081601314809739
 40
0.2081601314809739
 40
0.2081601314809739
 40
0.2081601314809739
 10
122.298496617
 20
294.4908517131
 30
0.0
 10
122.2831187866793
 20
294.5011467599696
 30
0.0
 10
122.2523009102623
 20
294.5217785055098
 30
0.0
 10
122.2185519239474
 20
294.563900089228
 30
0.0
 10
122.1968217925996
 20
294.6109280616665
 30
0.0
 10
122.1939441039545
 20
294.6435031375678
 30
0.0
 10
122.192512045
 20
294.659713866
 30
0.0
 11
122.298496617
 21
294.4908517131
 31
0.0
 11
122.2542099263054
 21
294.5238718012852
 31
0.0
 11
122.2192170255276
 21
294.5669052386278
 31
0.0
 11
122.1995250896587
 21
294.6117267124445
 31
0.0
 11
122.192512045
 21
294.659713866
 31
0.0
  0
SPLINE
  5
10F
330
1F
100
AcDbEntity
  8
0
  6
Continuous
 62
     7
100
AcDbSpline
210
0.0
220
0.0
230
1.0
 70
     8
 71
     3
 72
    11
 73
     7
 74
     5
 42
0.0000000001
 43
0.0000000001
 44
0.00000001
 40
0.0
 40
0.0
 40
0.0
 40
0.0
 40
0.0484884450420322
 40
0.0974363655317653
 40
0.1529099108798781
 40
0.2081599366811318
 40
0.2081599366811318
 40
0.2081599366811318
 40
0.2081599366811318
 10
124.267512045
 20
294.659713866
 30
0.0
 10
124.2660804696154
 20
294.6435059698574
 30
0.0
 10
124.2632037532692
 20
294.6109365919018
 30
0.0
 10
124.2414779660082
 20
294.5639101889175
 30
0.0
 10
124.2077298039927
 20
294.5217839384152
 30
0.0
 10
124.1769075095017
 20
294.5011485692154
 30
0.0
 10
124.161527473
 20
294.4908517131
 30
0.0
 11
124.267512045
 21
294.659713866
 31
0.0
 11
124.2605013008294
 21
294.6117349251116
 31
0.0
 11
124.2408155989729
 21
294.5669200608065
 31
0.0
 11
124.2058201232511
 21
294.5238778616005
 31
0.0
 11
124.161527473
 21
294.4908517131
 31
0.0
  0
SPLINE
  5
110
330
1F
100
AcDbEntity
  8
0
  6
Continuous
 62
     7
100
AcDbSpline
210
0.0
220
0.0
230
1.0
 70
     8
 71
     3
 72
    11
 73
     7
 74
     5
 42
0.0000000001
 43
0.0000000001
 44
0.00000001
 40
0.0
 40
0.0
 40
0.0
 40
0.0
 40
0.0484969040664378
 40
0.0974533832667553
 40
0.1529185059421857
 40
0.2081601315563074
 40
0.2081601315563074
 40
0.2081601315563074
 40
0.2081601315563074
 10
122.192512045
 20
288.0929895601
 30
0.0
 10
122.1939441039551
 20
288.1092002885395
 30
0.0
 10
122.1968217926016
 20
288.1417753644554
 30
0.0
 10
122.2185519239341
 20
288.1888033369186
 30
0.0
 10
122.2523009102837
 20
288.230924920627
 30
0.0
 10
122.2831187866822
 20
288.2515566662065
 30
0.0
 10
122.298496617
 20
288.2618517131
 30
0.0
 11
122.192512045
 21
288.0929895601
 31
0.0
 11
122.1995250896588
 21
288.1409767136793
 31
0.0
 11
122.2192170255276
 21
288.185798187522
 31
0.0
 11
122.2542099263054
 21
288.2288316248534
 31
0.0
 11
122.298496617
 21
288.2618517131
 31
0.0
  0
SPLINE
  5
111
330
1F
100
AcDbEntity
  8
0
  6
Continuous
 62
     7
100
AcDbSpline
210
0.0
220
0.0
230
1.0
 70
     8
 71
     3
 72
    11
 73
     7
 74
     5
 42
0.0000000001
 43
0.0000000001
 44
0.00000001
 40
0.0
 40
0.0
 40
0.0
 40
0.0
 40
0.0552500258189677
 40
0.110723571204667
 40
0.1596714917118925
 40
0.2081599367566808
 40
0.2081599367566808
 40
0.2081599367566808
 40
0.2081599367566808
 10
124.161527473
 20
288.2618517131
 30
0.0
 10
124.176907509503
 20
288.2515548569751
 30
0.0
 10
124.207729804002
 20
288.2309194877528
 30
0.0
 10
124.2414779660018
 20
288.1887932372072
 30
0.0
 10
124.263203753268
 20
288.1417668342061
 30
0.0
 10
124.2660804696152
 20
288.1091974562436
 30
0.0
 10
124.267512045
 20
288.0929895601
 30
0.0
 11
124.161527473
 21
288.2618517131
 31
0.0
 11
124.2058201232511
 21
288.2288255645699
 31
0.0
 11
124.2408155989729
 21
288.1857833653154
 31
0.0
 11
124.2605013008294
 21
288.1409685009912
 31
0.0
 11
124.267512045
 21
288.0929895601
 31
0.0
  0
SPLINE
  5
112
330
1F
100
AcDbEntity
  8
0
  6
Continuous
 62
     7
100
AcDbSpline
210
0.0
220
0.0
230
1.0
 70
     8
 71
     3
 72
    11
 73
     7
 74
     5
 42
0.0000000001
 43
0.0000000001
 44
0.00000001
 40
0.0
 40
0.0
 40
0.0
 40
0.0
 40
0.255205951008092
 40
0.5103908165087963
 40
0.6573137755240761
 40
0.8040138994612424
 40
0.8040138994612424
 40
0.8040138994612424
 40
0.8040138994612424
 10
92.0501964013
 20
286.4713517131
 30
0.0
 10
92.08920655651407
 20
286.5470648193074
 30
0.0
 10
92.16722364386328
 20
286.698484776189
 30
0.0
 10
92.23625877426366
 20
286.9073919991198
 30
0.0
 10
92.2735942451443
 20
287.0870319386736
 30
0.0
 10
92.27787386100357
 20
287.1849670305076
 30
0.0
 10
92.280012045
 20
287.2338974142
 30
0.0
 11
92.0501964013
 21
286.4713517131
 31
0.0
 11
92.16112318550424
 21
286.7011893209366
 31
0.0
 11
92.24163778720938
 21
286.9433395108867
 31
0.0
 11
92.26967954710007
 21
287.087561615947
 31
0.0
 11
92.280012045
 21
287.2338974142
 31
0.0
  0
SPLINE
  5
113
330
1F
100
AcDbEntity
  8
0
  6
Continuous
 62
     7
100
AcDbSpline
210
0.0
220
0.0
230
1.0
 70
     8
 71
     3
 72
    11
 73
     7
 74
     5
 42
0.0000000001
 43
0.0000000001
 44
0.00000001
 40
0.0
 40
0.0
 40
0.0
 40
0.0
 40
0.2243303823009983
 40
0.4487450664826749
 40
0.6263697311352747
 40
0.8039157766160094
 40
0.8039157766160094
 40
0.8039157766160094
 40
0.8039157766160094
 10
92.280012045
 20
295.5188060119
 30
0.0
 10
92.27503786752952
 20
295.5936388697247
 30
0.0
 10
92.26508764332542
 20
295.7433327070693
 30
0.0
 10
92.20472600481305
 20
295.9445961862662
 30
0.0
 10
92.13300694944706
 20
296.124112268993
 30
0.0
 10
92.07779584357895
 20
296.2289463002787
 30
0.0
 10
92.0501964013
 20
296.2813517131
 30
0.0
 11
92.280012045
 21
295.5188060119
 31
0.0
 11
92.25676909398116
 21
295.7419290399613
 31
0.0
 11
92.19678786167657
 21
295.9581793630769
 31
0.0
 11
92.13018058136738
 21
296.1228426306952
 31
0.0
 11
92.0501964013
 21
296.2813517131
 31
0.0
  0
SPLINE
  5
114
330
1F
100
AcDbEntity
  8
0
  6
Continuous
 62
     7
100
AcDbSpline
210
0.0
220
0.0
230
1.0
 70
    24
 71
     3
 72
     9
 73
     5
 74
     3
 42
0.0000000001
 43
0.0000000001
 44
0.00000001
 40
0.0
 40
0.0
 40
0.0
 40
0.0
 40
0.0347035328576192
 40
0.06940706571462
 40
0.06940706571462
 40
0.06940706571462
 40
0.06940706571462
 10
91.9495111972593
 20
296.463564504946
 30
0.0
 10
91.9412573413301
 20
296.4716693728489
 30
0.0
 10
91.92474962947185
 20
296.4878791086544
 30
0.0
 10
91.90824191761325
 20
296.5040888444595
 30
0.0
 10
91.899988061684
 20
296.512193712362
 30
0.0
 11
91.9495111972593
 21
296.463564504946
 31
0.0
 11
91.9247496294716
 21
296.4878791086544
 31
0.0
 11
91.899988061684
 21
296.512193712362
 31
0.0
  0
SPLINE
  5
115
330
1F
100
AcDbEntity
  8
0
  6
Continuous
 62
     7
100
AcDbSpline
210
0.0
220
0.0
230
1.0
 70
    24
 71
     3
 72
     9
 73
     5
 74
     3
 42
0.0000000001
 43
0.0000000001
 44
0.00000001
 40
0.0
 40
0.0
 40
0.0
 40
0.0
 40
0.0347035328570406
 40
0.0694070657146598
 40
0.0694070657146598
 40
0.0694070657146598
 40
0.0694070657146598
 10
91.899988061684
 20
286.240509713738
 30
0.0
 10
91.90824191761324
 20
286.2486145816405
 30
0.0
 10
91.92474962947182
 20
286.2648243174456
 30
0.0
 10
91.9412573413301
 20
286.2810340532512
 30
0.0
 10
91.9495111972593
 20
286.289138921154
 30
0.0
 11
91.899988061684
 21
286.240509713738
 31
0.0
 11
91.9247496294716
 21
286.2648243174456
 31
0.0
 11
91.9495111972593
 21
286.289138921154
 31
0.0
  0
DIMENSION
  5
122
330
1F
100
AcDbEntity
  8
1
100
AcDbDimension
  2
*D2
 10
188.910619417312
 20
295.3763517131
 30
0.0
 11
185.160619417312
 21
291.545191328609
 31
0.0
 70
    32
  1
<>
 71
     5
 42
-1.0
 53
90.0
  3
ME10_DIM_10
100
AcDbAlignedDimension
 13
177.230012045
 23
287.3763517131
 33
0.0
 14
177.230012045
 24
295.3763517131
 34
0.0
 50
90.0
100
AcDbRotatedDimension
  0
DIMENSION
  5
12D
330
1F
100
AcDbEntity
  8
1
100
AcDbDimension
  2
*D3
 10
198.86747792018
 20
301.8763517130466
 30
0.0
 11
195.11747792018
 21
291.055509762894
 31
0.0
 70
    32
  1
<>
 71
     5
 42
-1.0
 53
90.0
  3
ME10_DIM_11
100
AcDbAlignedDimension
 13
177.230012045
 23
280.8763517130486
 33
0.0
 14
177.230012045
 24
301.8763517130466
 34
0.0
 50
90.0
100
AcDbRotatedDimension
  0
DIMENSION
  5
138
330
1F
100
AcDbEntity
  8
1
100
AcDbDimension
  2
*D4
 10
177.230012045
 20
317.824768688637
 30
0.0
 11
151.531593234415
 21
321.574768688637
 31
0.0
 70
    32
  1
<>
 71
     5
 42
-1.0
 53
0.00013888888889
  3
ME10_DIM_12
100
AcDbAlignedDimension
 13
127.180012045
 23
307.3762880779
 33
0.0
 14
177.230012045
 24
300.9519612214
 34
0.0
100
AcDbRotatedDimension
  0
DIMENSION
  5
143
330
1F
100
AcDbEntity
  8
1
100
AcDbDimension
  2
*D5
 10
177.230012045
 20
326.0790504322309
 30
0.0
 11
143.324627219173
 21
329.8290504322309
 31
0.0
 70
    32
  1
<>
 71
     5
 42
-1.0
 53
0.00013888888889
  3
ME10_DIM_13
100
AcDbAlignedDimension
 13
107.230012045
 23
307.3763517131
 33
0.0
 14
177.230012045
 24
300.9519612214
 34
0.0
100
AcDbRotatedDimension
  0
DIMENSION
  5
14E
330
1F
100
AcDbEntity
  8
1
100
AcDbDimension
  2
*D6
 10
177.230012045
 20
334.065873951511
 30
0.0
 11
136.677919074399
 21
337.815873951511
 31
0.0
 70
    32
  1
<>
 71
     5
 42
-1.0
 53
0.00013888888889
  3
ME10_DIM_14
100
AcDbAlignedDimension
 13
91.330012045
 23
302.1728559479
 33
0.0
 14
177.230012045
 24
300.9519612214
 34
0.0
100
AcDbRotatedDimension
  0
INSERT
  5
155
330
1F
100
AcDbEntity
  8
1
100
AcDbBlockReference
  2
*D7
 10
0.0
 20
0.0
 30
0.0
  0
DIMENSION
  5
160
330
1F
100
AcDbEntity
  8
1
100
AcDbDimension
  2
*D8
 10
163.8402247646608
 20
303.7386210690231
 30
0.0
 11
166.7364045312185
 21
310.9845251725624
 31
0.0
 70
    37
  1
<>
 71
     5
 42
-1.0
  3
ME10_DIM_15
100
AcDb3PointAngularDimension
 13
163.7927670442028
 23
302.9338858296022
 33
0.0
 14
143.4267148645
 24
304.5445990681
 34
0.0
 15
143.3267148645
 25
304.5445990681
 35
0.0
  0
ENDSEC
  0
SECTION
  2
OBJECTS
  0
DICTIONARY
  5
C
330
0
100
AcDbDictionary
281
     1
  3
ACAD_GROUP
350
D
  3
ACAD_LAYOUT
350
1A
  3
ACAD_MLEADERSTYLE
350
163
  3
ACAD_MLINESTYLE
350
17
  3
ACAD_PLOTSETTINGS
350
19
  3
ACAD_PLOTSTYLENAME
350
E
  3
ACAD_SCALELIST
350
4C
  3
ACAD_VISUALSTYLE
350
2A
  3
AcDbVariableDictionary
350
161
  0
DICTIONARY
  5
D
102
{ACAD_REACTORS
330
C
102
}
330
C
100
AcDbDictionary
281
     1
  0
DICTIONARY
  5
1A
102
{ACAD_REACTORS
330
C
102
}
330
C
100
AcDbDictionary
281
     1
  3
Layout1
350
1E
  3
Layout2
350
26
  3
Model
350
22
  0
DICTIONARY
  5
163
102
{ACAD_REACTORS
330
C
102
}
330
C
100
AcDbDictionary
281
     1
  0
DICTIONARY
  5
17
102
{ACAD_REACTORS
330
C
102
}
330
C
100
AcDbDictionary
281
     1
  3
Standard
350
18
  0
DICTIONARY
  5
19
102
{ACAD_REACTORS
330
C
102
}
330
C
100
AcDbDictionary
281
     1
  0
ACDBDICTIONARYWDFLT
  5
E
102
{ACAD_REACTORS
330
C
102
}
330
C
100
AcDbDictionary
281
     1
  3
Normal
350
F
100
AcDbDictionaryWithDefault
340
F
  0
DICTIONARY
  5
4C
102
{ACAD_REACTORS
330
C
102
}
330
C
100
AcDbDictionary
281
     1
  3
A0
350
4D
  3
A1
350
4E
  3
A2
350
4F
  3
A3
350
50
  3
A4
350
51
  3
A5
350
52
  3
A6
350
53
  3
A7
350
54
  3
A8
350
55
  3
A9
350
56
  3
B0
350
57
  3
B1
350
58
  3
B2
350
59
  3
B3
350
5A
  3
B4
350
5B
  3
B5
350
5C
  3
B6
350
5D
  3
B7
350
5E
  3
B8
350
5F
  3
B9
350
60
  3
C0
350
61
  3
C1
350
62
  3
C2
350
63
  3
C3
350
64
  3
C4
350
65
  3
C5
350
66
  3
C6
350
67
  3
C7
350
68
  3
C8
350
69
  3
C9
350
6A
  3
D0
350
6B
  3
D1
350
6C
  3
D2
350
6D
  0
DICTIONARY
  5
2A
102
{ACAD_REACTORS
330
C
102
}
330
C
100
AcDbDictionary
281
     1
  3
2dWireframe
350
2F
  3
3D Hidden
350
31
  3
3dWireframe
350
30
  3
Basic
350
32
  3
Brighten
350
36
  3
ColorChange
350
3A
  3
Conceptual
350
34
  3
Dim
350
35
  3
Facepattern
350
39
  3
Flat
350
2B
  3
FlatWithEdges
350
2C
  3
Gouraud
350
2D
  3
GouraudWithEdges
350
2E
  3
Linepattern
350
38
  3
Realistic
350
33
  3
Thicken
350
37
  0
DICTIONARY
  5
161
102
{ACAD_REACTORS
330
C
102
}
330
C
100
AcDbDictionary
281
     1
  3
CANNOSCALE
350
164
  0
LAYOUT
  5
1E
102
{ACAD_REACTORS
330
1A
102
}
330
1A
100
AcDbPlotSettings
  1

  2
none_device
  4

  6

 40
0.0
 41
0.0
 42
0.0
 43
0.0
 44
0.0
 45
0.0
 46
0.0
 47
0.0
 48
0.0
 49
0.0
140
0.0
141
0.0
142
1.0
143
1.0
 70
   688
 72
     0
 73
     0
 74
     5
  7

 75
    16
147
1.0
148
0.0
149
0.0
100
AcDbLayout
  1
Layout1
 70
     1
 71
     1
 10
0.0
 20
0.0
 11
12.0
 21
9.0
 12
0.0
 22
0.0
 32
0.0
 14
1.00000000000000E+20
 24
1.00000000000000E+20
 34
1.00000000000000E+20
 15
-1.00000000000000E+20
 25
-1.00000000000000E+20
 35
-1.00000000000000E+20
146
0.0
 13
0.0
 23
0.0
 33
0.0
 16
1.0
 26
0.0
 36
0.0
 17
0.0
 27
1.0
 37
0.0
 76
     0
330
1B
  0
LAYOUT
  5
26
102
{ACAD_REACTORS
330
1A
102
}
330
1A
100
AcDbPlotSettings
  1

  2
none_device
  4

  6

 40
0.0
 41
0.0
 42
0.0
 43
0.0
 44
0.0
 45
0.0
 46
0.0
 47
0.0
 48
0.0
 49
0.0
140
0.0
141
0.0
142
1.0
143
1.0
 70
   688
 72
     0
 73
     0
 74
     5
  7

 75
    16
147
1.0
148
0.0
149
0.0
100
AcDbLayout
  1
Layout2
 70
     1
 71
     2
 10
0.0
 20
0.0
 11
0.0
 21
0.0
 12
0.0
 22
0.0
 32
0.0
 14
0.0
 24
0.0
 34
0.0
 15
0.0
 25
0.0
 35
0.0
146
0.0
 13
0.0
 23
0.0
 33
0.0
 16
1.0
 26
0.0
 36
0.0
 17
0.0
 27
1.0
 37
0.0
 76
     0
330
23
  0
LAYOUT
  5
22
102
{ACAD_REACTORS
330
1A
102
}
330
1A
100
AcDbPlotSettings
  1

  2
none_device
  4

  6

 40
0.0
 41
0.0
 42
0.0
 43
0.0
 44
0.0
 45
0.0
 46
0.0
 47
0.0
 48
0.0
 49
0.0
140
0.0
141
0.0
142
1.0
143
1.0
 70
  1712
 72
     0
 73
     0
 74
     0
  7

 75
     0
147
1.0
148
0.0
149
0.0
100
AcDbLayout
  1
Model
 70
     1
 71
     0
 10
0.0
 20
0.0
 11
12.0
 21
9.0
 12
0.0
 22
0.0
 32
0.0
 14
70.3651840118496
 24
252.5172574676348
 34
0.0
 15
200.86747792018
 25
361.286644384941
 35
0.0
146
0.0
 13
0.0
 23
0.0
 33
0.0
 16
1.0
 26
0.0
 36
0.0
 17
0.0
 27
1.0
 37
0.0
 76
     0
330
1F
331
29
  0
MLINESTYLE
  5
18
102
{ACAD_REACTORS
330
17
102
}
330
17
100
AcDbMlineStyle
  2
Standard
 70
     0
  3

 62
   256
 51
90.0
 52
90.0
 71
     2
 49
0.5
 62
   256
  6
BYLAYER
 49
-0.5
 62
   256
  6
BYLAYER
  0
ACDBPLACEHOLDER
  5
F
102
{ACAD_REACTORS
330
E
102
}
330
E
  0
SCALE
  5
4D
102
{ACAD_REACTORS
330
4C
102
}
330
4C
100
AcDbScale
 70
     0
300
1:1
140
1.0
141
1.0
290
     1
  0
SCALE
  5
4E
102
{ACAD_REACTORS
330
4C
102
}
330
4C
100
AcDbScale
 70
     0
300
1:2
140
1.0
141
2.0
290
     0
  0
SCALE
  5
4F
102
{ACAD_REACTORS
330
4C
102
}
330
4C
100
AcDbScale
 70
     0
300
1:4
140
1.0
141
4.0
290
     0
  0
SCALE
  5
50
102
{ACAD_REACTORS
330
4C
102
}
330
4C
100
AcDbScale
 70
     0
300
1:5
140
1.0
141
5.0
290
     0
  0
SCALE
  5
51
102
{ACAD_REACTORS
330
4C
102
}
330
4C
100
AcDbScale
 70
     0
300
1:8
140
1.0
141
8.0
290
     0
  0
SCALE
  5
52
102
{ACAD_REACTORS
330
4C
102
}
330
4C
100
AcDbScale
 70
     0
300
1:10
140
1.0
141
10.0
290
     0
  0
SCALE
  5
53
102
{ACAD_REACTORS
330
4C
102
}
330
4C
100
AcDbScale
 70
     0
300
1:16
140
1.0
141
16.0
290
     0
  0
SCALE
  5
54
102
{ACAD_REACTORS
330
4C
102
}
330
4C
100
AcDbScale
 70
     0
300
1:20
140
1.0
141
20.0
290
     0
  0
SCALE
  5
55
102
{ACAD_REACTORS
330
4C
102
}
330
4C
100
AcDbScale
 70
     0
300
1:30
140
1.0
141
30.0
290
     0
  0
SCALE
  5
56
102
{ACAD_REACTORS
330
4C
102
}
330
4C
100
AcDbScale
 70
     0
300
1:40
140
1.0
141
40.0
290
     0
  0
SCALE
  5
57
102
{ACAD_REACTORS
330
4C
102
}
330
4C
100
AcDbScale
 70
     0
300
1:50
140
1.0
141
50.0
290
     0
  0
SCALE
  5
58
102
{ACAD_REACTORS
330
4C
102
}
330
4C
100
AcDbScale
 70
     0
300
1:100
140
1.0
141
100.0
290
     0
  0
SCALE
  5
59
102
{ACAD_REACTORS
330
4C
102
}
330
4C
100
AcDbScale
 70
     0
300
2:1
140
2.0
141
1.0
290
     0
  0
SCALE
  5
5A
102
{ACAD_REACTORS
330
4C
102
}
330
4C
100
AcDbScale
 70
     0
300
4:1
140
4.0
141
1.0
290
     0
  0
SCALE
  5
5B
102
{ACAD_REACTORS
330
4C
102
}
330
4C
100
AcDbScale
 70
     0
300
8:1
140
8.0
141
1.0
290
     0
  0
SCALE
  5
5C
102
{ACAD_REACTORS
330
4C
102
}
330
4C
100
AcDbScale
 70
     0
300
10:1
140
10.0
141
1.0
290
     0
  0
SCALE
  5
5D
102
{ACAD_REACTORS
330
4C
102
}
330
4C
100
AcDbScale
 70
     0
300
100:1
140
100.0
141
1.0
290
     0
  0
SCALE
  5
5E
102
{ACAD_REACTORS
330
4C
102
}
330
4C
100
AcDbScale
 70
     0
300
1/128" = 1'-0"
140
0.0078125
141
12.0
290
     0
  0
SCALE
  5
5F
102
{ACAD_REACTORS
330
4C
102
}
330
4C
100
AcDbScale
 70
     0
300
1/64" = 1'-0"
140
0.015625
141
12.0
290
     0
  0
SCALE
  5
60
102
{ACAD_REACTORS
330
4C
102
}
330
4C
100
AcDbScale
 70
     0
300
1/32" = 1'-0"
140
0.03125
141
12.0
290
     0
  0
SCALE
  5
61
102
{ACAD_REACTORS
330
4C
102
}
330
4C
100
AcDbScale
 70
     0
300
1/16" = 1'-0"
140
0.0625
141
12.0
290
     0
  0
SCALE
  5
62
102
{ACAD_REACTORS
330
4C
102
}
330
4C
100
AcDbScale
 70
     0
300
3/32" = 1'-0"
140
0.09375
141
12.0
290
     0
  0
SCALE
  5
63
102
{ACAD_REACTORS
330
4C
102
}
330
4C
100
AcDbScale
 70
     0
300
1/8" = 1'-0"
140
0.125
141
12.0
290
     0
  0
SCALE
  5
64
102
{ACAD_REACTORS
330
4C
102
}
330
4C
100
AcDbScale
 70
     0
300
3/16" = 1'-0"
140
0.1875
141
12.0
290
     0
  0
SCALE
  5
65
102
{ACAD_REACTORS
330
4C
102
}
330
4C
100
AcDbScale
 70
     0
300
1/4" = 1'-0"
140
0.25
141
12.0
290
     0
  0
SCALE
  5
66
102
{ACAD_REACTORS
330
4C
102
}
330
4C
100
AcDbScale
 70
     0
300
3/8" = 1'-0"
140
0.375
141
12.0
290
     0
  0
SCALE
  5
67
102
{ACAD_REACTORS
330
4C
102
}
330
4C
100
AcDbScale
 70
     0
300
1/2" = 1'-0"
140
0.5
141
12.0
290
     0
  0
SCALE
  5
68
102
{ACAD_REACTORS
330
4C
102
}
330
4C
100
AcDbScale
 70
     0
300
3/4" = 1'-0"
140
0.75
141
12.0
290
     0
  0
SCALE
  5
69
102
{ACAD_REACTORS
330
4C
102
}
330
4C
100
AcDbScale
 70
     0
300
1" = 1'-0"
140
1.0
141
12.0
290
     0
  0
SCALE
  5
6A
102
{ACAD_REACTORS
330
4C
102
}
330
4C
100
AcDbScale
 70
     0
300
1-1/2" = 1'-0"
140
1.5
141
12.0
290
     0
  0
SCALE
  5
6B
102
{ACAD_REACTORS
330
4C
102
}
330
4C
100
AcDbScale
 70
     0
300
3" = 1'-0"
140
3.0
141
12.0
290
     0
  0
SCALE
  5
6C
102
{ACAD_REACTORS
330
4C
102
}
330
4C
100
AcDbScale
 70
     0
300
6" = 1'-0"
140
6.0
141
12.0
290
     0
  0
SCALE
  5
6D
102
{ACAD_REACTORS
330
4C
102
}
330
4C
100
AcDbScale
 70
     0
300
1'-0" = 1'-0"
140
12.0
141
12.0
290
     0
  0
VISUALSTYLE
  5
2F
102
{ACAD_REACTORS
330
2A
102
}
330
2A
100
AcDbVisualStyle
  2
2dWireframe
 70
     4
 71
     0
 72
     2
 73
     0
 90
        0
 40
-0.6
 41
-30.0
 62
     5
 63
     7
 74
     1
 91
        4
 64
     7
 65
   257
 75
     1
175
     1
 42
1.0
 92
        0
 66
   257
 43
1.0
 76
     1
 77
     6
 78
     2
 67
     7
 79
     5
170
     0
171
     0
290
     0
174
     0
 93
        1
 44
0.0
173
     0
291
     0
 45
0.0
1001
ACAD
1000
AcDbSavedByObjectVersion
1070
     0
  0
VISUALSTYLE
  5
31
102
{ACAD_REACTORS
330
2A
102
}
330
2A
100
AcDbVisualStyle
  2
3D Hidden
 70
     6
 71
     1
 72
     2
 73
     2
 90
        0
 40
-0.6
 41
-30.0
 62
     5
 63
     7
 74
     2
 91
        2
 64
     7
 65
   257
 75
     2
175
     1
 42
40.0
 92
        0
 66
   257
 43
1.0
 76
     1
 77
     6
 78
     2
 67
     7
 79
     3
170
     0
171
     0
290
     0
174
     0
 93
        1
 44
0.0
173
     0
291
     0
 45
0.0
1001
ACAD
1000
AcDbSavedByObjectVersion
1070
     0
  0
VISUALSTYLE
  5
30
102
{ACAD_REACTORS
330
2A
102
}
330
2A
100
AcDbVisualStyle
  2
3dWireframe
 70
     5
 71
     0
 72
     2
 73
     0
 90
        0
 40
-0.6
 41
-30.0
 62
     5
 63
     7
 74
     1
 91
        4
 64
     7
 65
   257
 75
     1
175
     1
 42
1.0
 92
        0
 66
   257
 43
1.0
 76
     1
 77
     6
 78
     2
 67
     7
 79
     5
170
     0
171
     0
290
     0
174
     0
 93
        1
 44
0.0
173
     0
291
     0
 45
0.0
1001
ACAD
1000
AcDbSavedByObjectVersion
1070
     0
  0
VISUALSTYLE
  5
32
102
{ACAD_REACTORS
330
2A
102
}
330
2A
100
AcDbVisualStyle
  2
Basic
 70
     7
 71
     1
 72
     0
 73
     1
 90
        0
 40
-0.6
 41
-30.0
 62
     5
 63
     7
 74
     0
 91
        4
 64
     7
 65
   257
 75
     1
175
     1
 42
1.0
 92
        8
 66
     7
 43
1.0
 76
     1
 77
     6
 78
     2
 67
     7
 79
     5
170
     0
171
     0
290
     0
174
     0
 93
        1
 44
0.0
173
     0
291
     1
 45
0.0
1001
ACAD
1000
AcDbSavedByObjectVersion
1070
     0
  0
VISUALSTYLE
  5
36
102
{ACAD_REACTORS
330
2A
102
}
330
2A
100
AcDbVisualStyle
  2
Brighten
 70
    12
 71
     2
 72
     2
 73
     0
 90
        0
 40
-0.6
 41
-30.0
 62
     5
 63
     7
 74
     1
 91
        4
 64
     7
 65
   257
 75
     1
175
     1
 42
1.0
 92
        8
 66
     7
 43
1.0
 76
     1
 77
     6
 78
     2
 67
     7
 79
     5
170
     0
171
     0
290
     0
174
     0
 93
        1
 44
50.0
173
     0
291
     1
 45
0.0
1001
ACAD
1000
AcDbSavedByObjectVersion
1070
     0
  0
VISUALSTYLE
  5
3A
102
{ACAD_REACTORS
330
2A
102
}
330
2A
100
AcDbVisualStyle
  2
ColorChange
 70
    16
 71
     2
 72
     2
 73
     3
 90
        0
 40
-0.6
 41
-30.0
 62
     5
 63
     8
 74
     1
 91
        4
 64
     7
 65
   257
 75
     1
175
     1
 42
1.0
 92
        8
 66
     8
 43
1.0
 76
     1
 77
     6
 78
     2
 67
     7
 79
     5
170
     0
171
     0
290
     0
174
     0
 93
        1
 44
0.0
173
     0
291
     1
 45
0.0
1001
ACAD
1000
AcDbSavedByObjectVersion
1070
     0
  0
VISUALSTYLE
  5
34
102
{ACAD_REACTORS
330
2A
102
}
330
2A
100
AcDbVisualStyle
  2
Conceptual
 70
     9
 71
     3
 72
     2
 73
     0
 90
        0
 40
-0.6
 41
-30.0
 62
     5
 63
     7
 74
     2
 91
        2
 64
     7
 65
   257
 75
     1
175
     1
 42
40.0
 92
        8
 66
     7
 43
1.0
 76
     1
 77
     6
 78
     2
 67
     7
 79
     3
170
     0
171
     0
290
     0
174
     0
 93
        1
 44
0.0
173
     0
291
     0
 45
0.0
1001
ACAD
1000
AcDbSavedByObjectVersion
1070
     0
  0
VISUALSTYLE
  5
35
102
{ACAD_REACTORS
330
2A
102
}
330
2A
100
AcDbVisualStyle
  2
Dim
 70
    11
 71
     2
 72
     2
 73
     0
 90
        0
 40
-0.6
 41
-30.0
 62
     5
 63
     7
 74
     1
 91
        4
 64
     7
 65
   257
 75
     1
175
     1
 42
1.0
 92
        8
 66
     7
 43
1.0
 76
     1
 77
     6
 78
     2
 67
     7
 79
     5
170
     0
171
     0
290
     0
174
     0
 93
        1
 44
-50.0
173
     0
291
     1
 45
0.0
1001
ACAD
1000
AcDbSavedByObjectVersion
1070
     0
  0
VISUALSTYLE
  5
39
102
{ACAD_REACTORS
330
2A
102
}
330
2A
100
AcDbVisualStyle
  2
Facepattern
 70
    15
 71
     2
 72
     2
 73
     0
 90
        0
 40
-0.6
 41
-30.0
 62
     5
 63
     7
 74
     1
 91
        4
 64
     7
 65
   257
 75
     1
175
     1
 42
1.0
 92
        8
 66
     7
 43
1.0
 76
     1
 77
     6
 78
     2
 67
     7
 79
     5
170
     0
171
     0
290
     0
174
     0
 93
        1
 44
0.0
173
     0
291
     1
 45
0.0
1001
ACAD
1000
AcDbSavedByObjectVersion
1070
     0
  0
VISUALSTYLE
  5
2B
102
{ACAD_REACTORS
330
2A
102
}
330
2A
100
AcDbVisualStyle
  2
Flat
 70
     0
 71
     2
 72
     1
 73
     1
 90
        2
 40
-0.6
 41
30.0
 62
     5
 63
     7
 74
     0
 91
        4
 64
     7
 65
   257
 75
     1
175
     1
 42
1.0
 92
        8
 66
     7
 43
1.0
 76
     1
 77
     6
 78
     2
 67
     7
 79
     5
170
     0
171
     0
290
     0
174
     0
 93
       13
 44
0.0
173
     0
291
     1
 45
0.0
1001
ACAD
1000
AcDbSavedByObjectVersion
1070
     0
  0
VISUALSTYLE
  5
2C
102
{ACAD_REACTORS
330
2A
102
}
330
2A
100
AcDbVisualStyle
  2
FlatWithEdges
 70
     1
 71
     2
 72
     1
 73
     1
 90
        2
 40
-0.6
 41
30.0
 62
     5
 63
     7
 74
     1
 91
        4
 64
     7
 65
   257
 75
     1
175
     1
 42
1.0
 92
        0
 66
   257
 43
1.0
 76
     1
 77
     6
 78
     2
 67
     7
 79
     5
170
     0
171
     0
290
     0
174
     0
 93
       13
 44
0.0
173
     0
291
     1
 45
0.0
1001
ACAD
1000
AcDbSavedByObjectVersion
1070
     0
  0
VISUALSTYLE
  5
2D
102
{ACAD_REACTORS
330
2A
102
}
330
2A
100
AcDbVisualStyle
  2
Gouraud
 70
     2
 71
     2
 72
     2
 73
     1
 90
        2
 40
-0.6
 41
30.0
 62
     5
 63
     7
 74
     0
 91
        4
 64
     7
 65
   257
 75
     1
175
     1
 42
1.0
 92
        0
 66
     7
 43
1.0
 76
     1
 77
     6
 78
     2
 67
     7
 79
     5
170
     0
171
     0
290
     0
174
     0
 93
       13
 44
0.0
173
     0
291
     1
 45
0.0
1001
ACAD
1000
AcDbSavedByObjectVersion
1070
     0
  0
VISUALSTYLE
  5
2E
102
{ACAD_REACTORS
330
2A
102
}
330
2A
100
AcDbVisualStyle
  2
GouraudWithEdges
 70
     3
 71
     2
 72
     2
 73
     1
 90
        2
 40
-0.6
 41
30.0
 62
     5
 63
     7
 74
     1
 91
        4
 64
     7
 65
   257
 75
     1
175
     1
 42
1.0
 92
        0
 66
   257
 43
1.0
 76
     1
 77
     6
 78
     2
 67
     7
 79
     5
170
     0
171
     0
290
     0
174
     0
 93
       13
 44
0.0
173
     0
291
     1
 45
0.0
1001
ACAD
1000
AcDbSavedByObjectVersion
1070
     0
  0
VISUALSTYLE
  5
38
102
{ACAD_REACTORS
330
2A
102
}
330
2A
100
AcDbVisualStyle
  2
Linepattern
 70
    14
 71
     2
 72
     2
 73
     0
 90
        0
 40
-0.6
 41
-30.0
 62
     5
 63
     7
 74
     1
 91
        4
 64
     7
 65
   257
 75
     7
175
     7
 42
1.0
 92
        8
 66
     7
 43
1.0
 76
     1
 77
     6
 78
     2
 67
     7
 79
     5
170
     0
171
     0
290
     0
174
     0
 93
        1
 44
0.0
173
     0
291
     1
 45
0.0
1001
ACAD
1000
AcDbSavedByObjectVersion
1070
     0
  0
VISUALSTYLE
  5
33
102
{ACAD_REACTORS
330
2A
102
}
330
2A
100
AcDbVisualStyle
  2
Realistic
 70
     8
 71
     2
 72
     2
 73
     0
 90
        0
 40
-0.6
 41
-30.0
 62
     5
 63
     7
 74
     1
 91
        0
 64
     7
 65
   257
 75
     1
175
     1
 42
1.0
 92
        8
 66
     8
 43
1.0
 76
     1
 77
     6
 78
     2
 67
     7
 79
     5
170
     0
171
     0
290
     0
174
     0
 93
       13
 44
0.0
173
     0
291
     0
 45
0.0
1001
ACAD
1000
AcDbSavedByObjectVersion
1070
     0
  0
VISUALSTYLE
  5
37
102
{ACAD_REACTORS
330
2A
102
}
330
2A
100
AcDbVisualStyle
  2
Thicken
 70
    13
 71
     2
 72
     2
 73
     0
 90
        0
 40
-0.6
 41
-30.0
 62
     5
 63
     7
 74
     1
 91
        4
 64
     7
 65
   257
 75
     1
175
     1
 42
1.0
 92
       12
 66
     7
 43
1.0
 76
     1
 77
     6
 78
     2
 67
     7
 79
     5
170
     0
171
     0
290
     0
174
     0
 93
        1
 44
0.0
173
     0
291
     1
 45
0.0
1001
ACAD
1000
AcDbSavedByObjectVersion
1070
     0
  0
DICTIONARYVAR
  5
164
102
{ACAD_REACTORS
330
161
102
}
330
161
100
DictionaryVariables
280
     0
  1
1:1
  0
ENDSEC
  0
EOF
