  0
SECTION
  2
HEADER
  9
$ACADVER
  1
AC1015
  9
$ACADMAINTVER
 70
     6
  9
$DWGCODEPAGE
  3
ANSI_1252
  9
$INSBASE
 10
0.0
 20
0.0
 30
0.0
  9
$EXTMIN
 10
24.6709787273737
 20
236.707298916
 30
0.0
  9
$EXTMAX
 10
249.451185625334
 20
365.634794256077
 30
0.0
  9
$LIMMIN
 10
0.0
 20
0.0
  9
$LIMMAX
 10
12.0
 20
9.0
  9
$ORTHOMODE
 70
     0
  9
$REGENMODE
 70
     1
  9
$FILLMODE
 70
     1
  9
$QTEXTMODE
 70
     0
  9
$MIRRTEXT
 70
     1
  9
$LTSCALE
 40
1.0
  9
$ATTMODE
 70
     1
  9
$TEXTSIZE
 40
0.2
  9
$TRACEWID
 40
0.05
  9
$TEXTSTYLE
  7
Standard
  9
$CLAYER
  8
0
  9
$CELTYPE
  6
ByLayer
  9
$CECOLOR
 62
   256
  9
$CELTSCALE
 40
1.0
  9
$DISPSILH
 70
     0
  9
$DIMSCALE
 40
1.0
  9
$DIMASZ
 40
0.18
  9
$DIMEXO
 40
0.0625
  9
$DIMDLI
 40
0.38
  9
$DIMRND
 40
0.0
  9
$DIMDLE
 40
0.0
  9
$DIMEXE
 40
0.18
  9
$DIMTP
 40
0.0
  9
$DIMTM
 40
0.0
  9
$DIMTXT
 40
0.18
  9
$DIMCEN
 40
0.09
  9
$DIMTSZ
 40
0.0
  9
$DIMTOL
 70
     0
  9
$DIMLIM
 70
     0
  9
$DIMTIH
 70
     1
  9
$DIMTOH
 70
     1
  9
$DIMSE1
 70
     0
  9
$DIMSE2
 70
     0
  9
$DIMTAD
 70
     0
  9
$DIMZIN
 70
     0
  9
$DIMBLK
  1

  9
$DIMASO
 70
     1
  9
$DIMSHO
 70
     1
  9
$DIMPOST
  1

  9
$DIMAPOST
  1

  9
$DIMALT
 70
     0
  9
$DIMALTD
 70
     2
  9
$DIMALTF
 40
25.4
  9
$DIMLFAC
 40
1.0
  9
$DIMTOFL
 70
     0
  9
$DIMTVP
 40
0.0
  9
$DIMTIX
 70
     0
  9
$DIMSOXD
 70
     0
  9
$DIMSAH
 70
     0
  9
$DIMBLK1
  1

  9
$DIMBLK2
  1

  9
$DIMSTYLE
  2
Standard
  9
$DIMCLRD
 70
     0
  9
$DIMCLRE
 70
     0
  9
$DIMCLRT
 70
     0
  9
$DIMTFAC
 40
1.0
  9
$DIMGAP
 40
0.09
  9
$DIMJUST
 70
     0
  9
$DIMSD1
 70
     0
  9
$DIMSD2
 70
     0
  9
$DIMTOLJ
 70
     1
  9
$DIMTZIN
 70
     0
  9
$DIMALTZ
 70
     0
  9
$DIMALTTZ
 70
     0
  9
$DIMUPT
 70
     0
  9
$DIMDEC
 70
     4
  9
$DIMTDEC
 70
     4
  9
$DIMALTU
 70
     2
  9
$DIMALTTD
 70
     2
  9
$DIMTXSTY
  7
Standard
  9
$DIMAUNIT
 70
     0
  9
$DIMADEC
 70
     0
  9
$DIMALTRND
 40
0.0
  9
$DIMAZIN
 70
     0
  9
$DIMDSEP
 70
    46
  9
$DIMATFIT
 70
     3
  9
$DIMFRAC
 70
     0
  9
$DIMLDRBLK
  1

  9
$DIMLUNIT
 70
     2
  9
$DIMLWD
 70
    -2
  9
$DIMLWE
 70
    -2
  9
$DIMTMOVE
 70
     0
  9
$LUNITS
 70
     2
  9
$LUPREC
 70
     4
  9
$SKETCHINC
 40
0.1
  9
$FILLETRAD
 40
0.5
  9
$AUNITS
 70
     0
  9
$AUPREC
 70
     0
  9
$MENU
  1
.
  9
$ELEVATION
 40
0.0
  9
$PELEVATION
 40
0.0
  9
$THICKNESS
 40
0.0
  9
$LIMCHECK
 70
     0
  9
$CHAMFERA
 40
0.5
  9
$CHAMFERB
 40
0.5
  9
$CHAMFERC
 40
1.0
  9
$CHAMFERD
 40
0.0
  9
$SKPOLY
 70
     0
  9
$TDCREATE
 40
2456748.731388495
  9
$TDUCREATE
 40
2456748.648055162
  9
$TDUPDATE
 40
2456748.731388507
  9
$TDUUPDATE
 40
2456748.648055173
  9
$TDINDWG
 40
0.0000000116
  9
$TDUSRTIMER
 40
0.0000000116
  9
$USRTIMER
 70
     1
  9
$ANGBASE
 50
0.0
  9
$ANGDIR
 70
     0
  9
$PDMODE
 70
     0
  9
$PDSIZE
 40
0.0
  9
$PLINEWID
 40
0.0
  9
$SPLFRAME
 70
     0
  9
$SPLINETYPE
 70
     6
  9
$SPLINESEGS
 70
     8
  9
$HANDSEED
  5
155
  9
$SURFTAB1
 70
     6
  9
$SURFTAB2
 70
     6
  9
$SURFTYPE
 70
     6
  9
$SURFU
 70
     6
  9
$SURFV
 70
     6
  9
$UCSBASE
  2

  9
$UCSNAME
  2

  9
$UCSORG
 10
0.0
 20
0.0
 30
0.0
  9
$UCSXDIR
 10
1.0
 20
0.0
 30
0.0
  9
$UCSYDIR
 10
0.0
 20
1.0
 30
0.0
  9
$UCSORTHOREF
  2

  9
$UCSORTHOVIEW
 70
     0
  9
$UCSORGTOP
 10
0.0
 20
0.0
 30
0.0
  9
$UCSORGBOTTOM
 10
0.0
 20
0.0
 30
0.0
  9
$UCSORGLEFT
 10
0.0
 20
0.0
 30
0.0
  9
$UCSORGRIGHT
 10
0.0
 20
0.0
 30
0.0
  9
$UCSORGFRONT
 10
0.0
 20
0.0
 30
0.0
  9
$UCSORGBACK
 10
0.0
 20
0.0
 30
0.0
  9
$PUCSBASE
  2

  9
$PUCSNAME
  2

  9
$PUCSORG
 10
0.0
 20
0.0
 30
0.0
  9
$PUCSXDIR
 10
1.0
 20
0.0
 30
0.0
  9
$PUCSYDIR
 10
0.0
 20
1.0
 30
0.0
  9
$PUCSORTHOREF
  2

  9
$PUCSORTHOVIEW
 70
     0
  9
$PUCSORGTOP
 10
0.0
 20
0.0
 30
0.0
  9
$PUCSORGBOTTOM
 10
0.0
 20
0.0
 30
0.0
  9
$PUCSORGLEFT
 10
0.0
 20
0.0
 30
0.0
  9
$PUCSORGRIGHT
 10
0.0
 20
0.0
 30
0.0
  9
$PUCSORGFRONT
 10
0.0
 20
0.0
 30
0.0
  9
$PUCSORGBACK
 10
0.0
 20
0.0
 30
0.0
  9
$USERI1
 70
     0
  9
$USERI2
 70
     0
  9
$USERI3
 70
     0
  9
$USERI4
 70
     0
  9
$USERI5
 70
     0
  9
$USERR1
 40
16.5
  9
$USERR2
 40
0.0
  9
$USERR3
 40
0.0
  9
$USERR4
 40
0.0
  9
$USERR5
 40
0.0
  9
$WORLDVIEW
 70
     1
  9
$SHADEDGE
 70
     3
  9
$SHADEDIF
 70
    70
  9
$TILEMODE
 70
     1
  9
$MAXACTVP
 70
    64
  9
$PINSBASE
 10
0.0
 20
0.0
 30
0.0
  9
$PLIMCHECK
 70
     0
  9
$PEXTMIN
 10
1.00000000000000E+20
 20
1.00000000000000E+20
 30
1.00000000000000E+20
  9
$PEXTMAX
 10
-1.00000000000000E+20
 20
-1.00000000000000E+20
 30
-1.00000000000000E+20
  9
$PLIMMIN
 10
0.0
 20
0.0
  9
$PLIMMAX
 10
12.0
 20
9.0
  9
$UNITMODE
 70
     0
  9
$VISRETAIN
 70
     1
  9
$PLINEGEN
 70
     0
  9
$PSLTSCALE
 70
     1
  9
$TREEDEPTH
 70
  3020
  9
$CMLSTYLE
  2
Standard
  9
$CMLJUST
 70
     0
  9
$CMLSCALE
 40
1.0
  9
$PROXYGRAPHICS
 70
     1
  9
$MEASUREMENT
 70
     1
  9
$CELWEIGHT
370
    -1
  9
$ENDCAPS
280
     0
  9
$JOINSTYLE
280
     0
  9
$LWDISPLAY
290
     0
  9
$INSUNITS
 70
     1
  9
$HYPERLINKBASE
  1

  9
$STYLESHEET
  1

  9
$XEDIT
290
     1
  9
$CEPSNTYPE
380
     0
  9
$PSTYLEMODE
290
     1
  9
$FINGERPRINTGUID
  2
{4A259A0E-BB5A-4046-BC0E-4C507991F08F}
  9
$VERSIONGUID
  2
{FAEB1C32-E019-11D5-929B-00C0DF256EC4}
  9
$EXTNAMES
290
     1
  9
$PSVPSCALE
 40
0.0
  9
$OLESTARTUP
290
     0
  0
ENDSEC
  0
SECTION
  2
CLASSES
  0
CLASS
  1
ACDBDICTIONARYWDFLT
  2
AcDbDictionaryWithDefault
  3
ObjectDBX Classes
 90
        0
280
     0
281
     0
  0
CLASS
  1
VISUALSTYLE
  2
AcDbVisualStyle
  3
ObjectDBX Classes
 90
     4095
280
     0
281
     0
  0
CLASS
  1
SCALE
  2
AcDbScale
  3
ObjectDBX Classes
 90
     1153
280
     0
281
     0
  0
CLASS
  1

  2
exOdDbPolyline
  3

 90
        0
280
     0
281
     1
  0
CLASS
  1

  2
exOdDbCircle
  3

 90
        0
280
     0
281
     1
  0
CLASS
  1

  2
exOdDbSpline
  3

 90
        0
280
     0
281
     1
  0
CLASS
  1
DICTIONARYVAR
  2
AcDbDictionaryVar
  3
ObjectDBX Classes
 90
        0
280
     0
281
     0
  0
CLASS
  1
ACDBPLACEHOLDER
  2
AcDbPlaceHolder
  3
ObjectDBX Classes
 90
        0
280
     0
281
     0
  0
CLASS
  1
LAYOUT
  2
AcDbLayout
  3
ObjectDBX Classes
 90
        0
280
     0
281
     0
  0
ENDSEC
  0
SECTION
  2
TABLES
  0
TABLE
  2
VPORT
  5
8
330
0
100
AcDbSymbolTable
 70
     1
  0
VPORT
  5
29
330
8
100
AcDbSymbolTableRecord
100
AcDbViewportTableRecord
  2
*Active
 70
     0
 10
0.0
 20
0.0
 11
1.0
 21
1.0
 12
137.0610821763539
 22
301.1710465860385
 13
0.0
 23
0.0
 14
0.5
 24
0.5
 15
0.5
 25
0.5
 16
0.0
 26
0.0
 36
1.0
 17
0.0
 27
0.0
 37
0.0
 40
154.2781141494636
 41
1.60267857142857
 42
50.0
 43
0.0
 44
0.0
 50
0.0
 51
0.0
 71
     0
 72
   100
 73
     1
 74
     3
 75
     0
 76
     0
 77
     0
 78
     0
281
     0
 65
     1
110
0.0
120
0.0
130
0.0
111
1.0
121
0.0
131
0.0
112
0.0
122
1.0
132
0.0
 79
     0
146
0.0
  0
ENDTAB
  0
TABLE
  2
LTYPE
  5
5
330
0
100
AcDbSymbolTable
 70
     8
  0
LTYPE
  5
14
330
5
100
AcDbSymbolTableRecord
100
AcDbLinetypeTableRecord
  2
ByBlock
 70
     0
  3

 72
    65
 73
     0
 40
0.0
  0
LTYPE
  5
15
330
5
100
AcDbSymbolTableRecord
100
AcDbLinetypeTableRecord
  2
ByLayer
 70
     0
  3

 72
    65
 73
     0
 40
0.0
  0
LTYPE
  5
16
330
5
100
AcDbSymbolTableRecord
100
AcDbLinetypeTableRecord
  2
Continuous
 70
     0
  3
Solid line
 72
    65
 73
     0
 40
0.0
  0
LTYPE
  5
3B
330
5
100
AcDbSymbolTableRecord
100
AcDbLinetypeTableRecord
  2
DASHED
 70
     0
  3
Dashed
 72
    65
 73
     2
 40
15.0
 49
7.0
 74
     0
 49
-8.0
 74
     0
  0
LTYPE
  5
3C
330
5
100
AcDbSymbolTableRecord
100
AcDbLinetypeTableRecord
  2
DOTTED
 70
     0
  3
Dotted
 72
    65
 73
     2
 40
1.0
 49
0.0
 74
     0
 49
-1.0
 74
     0
  0
LTYPE
  5
3D
330
5
100
AcDbSymbolTableRecord
100
AcDbLinetypeTableRecord
  2
DOT_CENTER
 70
     0
  3
Dot_Center
 72
    65
 73
     4
 40
14.0
 49
12.0
 74
     0
 49
-1.0
 74
     0
 49
0.0
 74
     0
 49
-1.0
 74
     0
  0
LTYPE
  5
3E
330
5
100
AcDbSymbolTableRecord
100
AcDbLinetypeTableRecord
  2
LONG_DASHED
 70
     0
  3
Long_Dashed
 72
    65
 73
     2
 40
15.0
 49
10.0
 74
     0
 49
-5.0
 74
     0
  0
LTYPE
  5
3F
330
5
100
AcDbSymbolTableRecord
100
AcDbLinetypeTableRecord
  2
DASH_CENTER
 70
     0
  3
Dash_Center
 72
    65
 73
     4
 40
14.0
 49
11.0
 74
     0
 49
-1.0
 74
     0
 49
1.0
 74
     0
 49
-1.0
 74
     0
  0
LTYPE
  5
40
330
5
100
AcDbSymbolTableRecord
100
AcDbLinetypeTableRecord
  2
PHANTOM
 70
     0
  3
Phantom
 72
    65
 73
     6
 40
13.0
 49
10.0
 74
     0
 49
-1.0
 74
     0
 49
0.0
 74
     0
 49
-1.0
 74
     0
 49
0.0
 74
     0
 49
-1.0
 74
     0
  0
LTYPE
  5
41
330
5
100
AcDbSymbolTableRecord
100
AcDbLinetypeTableRecord
  2
CENTER_DASH_DASH
 70
     0
  3
Center_Dash_Dash
 72
    65
 73
     6
 40
14.0
 49
9.0
 74
     0
 49
-1.0
 74
     0
 49
1.0
 74
     0
 49
-1.0
 74
     0
 49
1.0
 74
     0
 49
-1.0
 74
     0
  0
ENDTAB
  0
TABLE
  2
LAYER
  5
2
330
0
100
AcDbSymbolTable
 70
     6
  0
LAYER
  5
10
330
2
100
AcDbSymbolTableRecord
100
AcDbLayerTableRecord
  2
0
 70
     0
 62
     7
  6
Continuous
370
    -3
390
F
  0
LAYER
  5
42
330
2
100
AcDbSymbolTableRecord
100
AcDbLayerTableRecord
  2
1
 70
     0
 62
     7
  6
Continuous
370
    -3
390
F
  0
LAYER
  5
43
330
2
100
AcDbSymbolTableRecord
100
AcDbLayerTableRecord
  2
BEZUGSACHSEN
 70
     0
 62
     7
  6
Continuous
370
    -3
390
F
  0
LAYER
  5
44
330
2
100
AcDbSymbolTableRecord
100
AcDbLayerTableRecord
  2
DEFAULT_2
 70
     0
 62
     7
  6
Continuous
370
    -3
390
F
  0
LAYER
  5
45
330
2
100
AcDbSymbolTableRecord
100
AcDbLayerTableRecord
  2
FASEN
 70
     0
 62
     7
  6
Continuous
370
    -3
390
F
  0
LAYER
  5
46
330
2
100
AcDbSymbolTableRecord
100
AcDbLayerTableRecord
  2
RUNDUNGEN
 70
     0
 62
     7
  6
Continuous
370
    -3
390
F
  0
ENDTAB
  0
TABLE
  2
STYLE
  5
3
330
0
100
AcDbSymbolTable
 70
     2
  0
STYLE
  5
11
330
3
100
AcDbSymbolTableRecord
100
AcDbTextStyleTableRecord
  2
Standard
 70
     0
 40
0.0
 41
1.0
 50
0.0
 71
     0
 42
0.2
  3
txt
  4

  0
STYLE
  5
6D
330
3
100
AcDbSymbolTableRecord
100
AcDbTextStyleTableRecord
  2
CONVERTER_11
 70
     0
 40
0.0
 41
0.72
 50
0.0
 71
     0
 42
0.2
  3
txt.shx
  4

  0
ENDTAB
  0
TABLE
  2
VIEW
  5
6
330
0
100
AcDbSymbolTable
 70
     0
  0
ENDTAB
  0
TABLE
  2
UCS
  5
7
330
0
100
AcDbSymbolTable
 70
     0
  0
ENDTAB
  0
TABLE
  2
APPID
  5
9
330
0
100
AcDbSymbolTable
 70
     1
  0
APPID
  5
12
330
9
100
AcDbSymbolTableRecord
100
AcDbRegAppTableRecord
  2
ACAD
 70
     0
  0
ENDTAB
  0
TABLE
  2
DIMSTYLE
  5
A
330
0
100
AcDbSymbolTable
 70
     8
100
AcDbDimStyleTable
  0
DIMSTYLE
105
27
330
A
100
AcDbSymbolTableRecord
100
AcDbDimStyleTableRecord
  2
Standard
 70
     0
340
11
  0
DIMSTYLE
105
106
102
{ACAD_REACTORS
330
107
102
}
330
A
100
AcDbSymbolTableRecord
100
AcDbDimStyleTableRecord
  2
ME10_DIM_10
 70
     0
  3
\U+2300<>
 41
3.5
 42
2.0
 44
2.0
 71
     1
 73
     0
 74
     0
 77
     1
 78
     8
140
3.5
146
0.7
147
2.0
172
     1
173
     1
176
     2
177
     2
178
     3
271
     2
272
     0
340
6D
  0
DIMSTYLE
105
111
102
{ACAD_REACTORS
330
112
102
}
330
A
100
AcDbSymbolTableRecord
100
AcDbDimStyleTableRecord
  2
ME10_DIM_11
 70
     0
  3
\U+2300<>
 41
3.5
 42
2.0
 44
2.0
 71
     1
 73
     0
 74
     0
 77
     1
 78
     8
140
3.5
146
0.7
147
2.0
172
     1
173
     1
176
     2
177
     2
178
     3
271
     2
272
     0
340
6D
  0
DIMSTYLE
105
11C
102
{ACAD_REACTORS
330
11D
102
}
330
A
100
AcDbSymbolTableRecord
100
AcDbDimStyleTableRecord
  2
ME10_DIM_12
 70
     0
  3
\U+2300<>
 41
3.5
 42
2.0
 44
2.0
 71
     1
 73
     0
 74
     0
 77
     1
 78
     8
140
3.5
146
0.7
147
2.0
172
     1
173
     1
176
     2
177
     2
178
     3
271
     2
272
     0
340
6D
  0
DIMSTYLE
105
127
102
{ACAD_REACTORS
330
128
102
}
330
A
100
AcDbSymbolTableRecord
100
AcDbDimStyleTableRecord
  2
ME10_DIM_13
 70
     0
  3
<>
 41
3.5
 42
2.0
 44
2.0
 71
     1
 73
     0
 74
     0
 77
     1
 78
     8
140
3.5
146
0.7
147
2.0
172
     1
173
     1
176
     2
177
     2
178
     3
271
     2
272
     0
340
6D
  0
DIMSTYLE
105
132
102
{ACAD_REACTORS
330
133
102
}
330
A
100
AcDbSymbolTableRecord
100
AcDbDimStyleTableRecord
  2
ME10_DIM_14
 70
     0
  3
<>
 41
3.5
 42
2.0
 44
2.0
 71
     1
 73
     0
 74
     0
 77
     1
 78
     8
140
3.5
146
0.7
147
2.0
172
     1
173
     1
176
     2
177
     2
178
     3
271
     2
272
     0
340
6D
  0
DIMSTYLE
105
13D
102
{ACAD_REACTORS
330
13E
102
}
330
A
100
AcDbSymbolTableRecord
100
AcDbDimStyleTableRecord
  2
ME10_DIM_15
 70
     0
  3
<>
 41
3.5
 42
2.0
 44
2.0
 71
     1
 73
     0
 74
     0
 77
     1
 78
     8
140
3.5
146
0.7
147
2.0
172
     1
173
     1
176
     2
177
     2
178
     3
271
     2
272
     0
340
6D
  0
DIMSTYLE
105
14F
102
{ACAD_REACTORS
330
150
102
}
330
A
100
AcDbSymbolTableRecord
100
AcDbDimStyleTableRecord
  2
ME10_DIM_16
 70
     0
  3
<>
 41
3.5
 42
2.0
 44
2.0
 71
     1
 73
     0
 74
     0
 77
     1
 78
     8
140
3.5
146
0.7
147
2.0
172
     1
173
     1
176
     2
177
     2
178
     3
271
     2
272
     0
340
6D
  0
ENDTAB
  0
TABLE
  2
BLOCK_RECORD
  5
1
330
0
100
AcDbSymbolTable
 70
    10
  0
BLOCK_RECORD
  5
1F
330
1
100
AcDbSymbolTableRecord
100
AcDbBlockTableRecord
  2
*Model_Space
340
22
  0
BLOCK_RECORD
  5
1B
330
1
100
AcDbSymbolTableRecord
100
AcDbBlockTableRecord
  2
*Paper_Space
340
1E
  0
BLOCK_RECORD
  5
23
330
1
100
AcDbSymbolTableRecord
100
AcDbBlockTableRecord
  2
*Paper_Space0
340
26
  0
BLOCK_RECORD
  5
47
330
1
100
AcDbSymbolTableRecord
100
AcDbBlockTableRecord
  2
Urheberrecht_DE-EN
340
0
102
{BLKREFS
331
6C
102
}
  0
BLOCK_RECORD
  5
FD
330
1
100
AcDbSymbolTableRecord
100
AcDbBlockTableRecord
  2
*D2
340
0
  0
BLOCK_RECORD
  5
108
330
1
100
AcDbSymbolTableRecord
100
AcDbBlockTableRecord
  2
*D3
340
0
  0
BLOCK_RECORD
  5
113
330
1
100
AcDbSymbolTableRecord
100
AcDbBlockTableRecord
  2
*D4
340
0
  0
BLOCK_RECORD
  5
11E
330
1
100
AcDbSymbolTableRecord
100
AcDbBlockTableRecord
  2
*D5
340
0
  0
BLOCK_RECORD
  5
129
330
1
100
AcDbSymbolTableRecord
100
AcDbBlockTableRecord
  2
*D6
340
0
  0
BLOCK_RECORD
  5
134
330
1
100
AcDbSymbolTableRecord
100
AcDbBlockTableRecord
  2
*D7
340
0
  0
BLOCK_RECORD
  5
13F
330
1
100
AcDbSymbolTableRecord
100
AcDbBlockTableRecord
  2
*D8
340
0
102
{BLKREFS
331
145
102
}
  0
BLOCK_RECORD
  5
146
330
1
100
AcDbSymbolTableRecord
100
AcDbBlockTableRecord
  2
*D9
340
0
  0
ENDTAB
  0
ENDSEC
  0
SECTION
  2
BLOCKS
  0
BLOCK
  5
20
330
1F
100
AcDbEntity
  8
0
100
AcDbBlockBegin
  2
*Model_Space
 70
     0
 10
0.0
 20
0.0
 30
0.0
  3
*Model_Space
  1

  0
ENDBLK
  5
21
330
1F
100
AcDbEntity
  8
0
100
AcDbBlockEnd
  0
BLOCK
  5
1C
330
1B
100
AcDbEntity
 67
     1
  8
0
100
AcDbBlockBegin
  2
*Paper_Space
 70
     0
 10
0.0
 20
0.0
 30
0.0
  3
*Paper_Space
  1

  0
ENDBLK
  5
1D
330
1B
100
AcDbEntity
 67
     1
  8
0
100
AcDbBlockEnd
  0
BLOCK
  5
24
330
23
100
AcDbEntity
  8
0
100
AcDbBlockBegin
  2
*Paper_Space0
 70
     0
 10
0.0
 20
0.0
 30
0.0
  3
*Paper_Space0
  1

  0
ENDBLK
  5
25
330
23
100
AcDbEntity
  8
0
100
AcDbBlockEnd
  0
BLOCK
  5
48
330
47
100
AcDbEntity
  8
0
100
AcDbBlockBegin
  2
Urheberrecht_DE-EN
 70
     0
 10
38.6709787273737
 20
302.131265958356
 30
0.0
  3
Urheberrecht_DE-EN
  1

  0
MTEXT
  5
6E
330
47
100
AcDbEntity
  8
1
 62
     1
100
AcDbMText
 10
38.6709787273737
 20
302.131265958356
 30
0.0
 40
2.0
 41
0.0
 71
     7
 72
     1
  1
We own the copyright of this document. It \Pdetermined and may neither be copied or \Pmade accessible to outsiders without our\Ppermission.
  7
CONVERTER_11
 11
0.0
 21
1.0
 31
0.0
 73
     1
 44
0.90036014405762
  0
MTEXT
  5
6F
330
47
100
AcDbEntity
  8
1
 62
     1
100
AcDbMText
 10
38.6709787273737
 20
245.8418790410498
 30
0.0
 40
2.0
 41
0.0
 71
     7
 72
     1
  1
F\U+00fcr diese Unterlage behalten wir das Ur-\Pheberrecht. Sie darf nur f\U+00fcr den von uns \Pbestimmten Zweck benutzt und ohne unsere \PZustimmung weder vervielf\U+00e4ltigt noch\PDritten zug\U+00e4nglich gemacht werden.
  7
CONVERTER_11
 11
0.0
 21
1.0
 31
0.0
 73
     1
 44
0.90036014405762
  0
ENDBLK
  5
49
330
47
100
AcDbEntity
  8
0
100
AcDbBlockEnd
  0
BLOCK
  5
104
330
FD
100
AcDbEntity
  8
0
100
AcDbBlockBegin
  2
*D2
 70
     1
 10
0.0
 20
0.0
 30
0.0
  3
*D2
  1

  0
LINE
  5
FE
330
FD
100
AcDbEntity
  8
1
  6
Continuous
 62
     2
100
AcDbLine
 10
229.741424884573
 20
302.707298916
 30
0.0
 11
229.741424884573
 21
270.707298916
 31
0.0
  0
LINE
  5
FF
330
FD
100
AcDbEntity
  8
1
  6
Continuous
 62
     2
100
AcDbLine
 10
219.6031266729
 20
302.707298916
 30
0.0
 11
231.741424884573
 21
302.707298916
 31
0.0
  0
LINE
  5
100
330
FD
100
AcDbEntity
  8
1
  6
Continuous
 62
     2
100
AcDbLine
 10
219.6031266729
 20
270.707298916
 30
0.0
 11
231.741424884573
 21
270.707298916
 31
0.0
  0
SOLID
  5
101
330
FD
100
AcDbEntity
  8
1
 62
     2
100
AcDbTrace
 10
230.2022086261289
 20
299.207298916
 30
0.0
 11
229.2806411430171
 21
299.207298916
 31
0.0
 12
229.741424884573
 22
302.707298916
 32
0.0
 13
229.741424884573
 23
302.707298916
 33
0.0
  0
SOLID
  5
102
330
FD
100
AcDbEntity
  8
1
 62
     2
100
AcDbTrace
 10
229.2806411430171
 20
274.207298916
 30
0.0
 11
230.2022086261289
 21
274.207298916
 31
0.0
 12
229.741424884573
 22
270.707298916
 32
0.0
 13
229.741424884573
 23
270.707298916
 33
0.0
  0
MTEXT
  5
103
330
FD
100
AcDbEntity
  8
1
 62
     3
100
AcDbMText
 10
227.741424884573
 20
277.678678516952
 30
0.0
 40
3.5
 41
0.0
 71
     7
 72
     1
  1
\C3;%%c\C3;\C3;32\C2;\H2.45;\S^ ;\C3;
  7
CONVERTER_11
 11
0.0
 21
1.0
 31
0.0
 73
     1
 44
0.60024009603842
  0
ENDBLK
  5
105
330
FD
100
AcDbEntity
  8
0
100
AcDbBlockEnd
  0
BLOCK
  5
10F
330
108
100
AcDbEntity
  8
0
100
AcDbBlockBegin
  2
*D3
 70
     1
 10
0.0
 20
0.0
 30
0.0
  3
*D3
  1

  0
LINE
  5
109
330
108
100
AcDbEntity
  8
1
  6
Continuous
 62
     2
100
AcDbLine
 10
238.515067820363
 20
308.7072989159466
 30
0.0
 11
238.515067820363
 21
264.7072989159486
 31
0.0
  0
LINE
  5
10A
330
108
100
AcDbEntity
  8
1
  6
Continuous
 62
     2
100
AcDbLine
 10
219.6031266729
 20
308.7072989159466
 30
0.0
 11
240.515067820363
 21
308.7072989159466
 31
0.0
  0
LINE
  5
10B
330
108
100
AcDbEntity
  8
1
  6
Continuous
 62
     2
100
AcDbLine
 10
219.6031266729
 20
264.7072989159486
 30
0.0
 11
240.515067820363
 21
264.7072989159486
 31
0.0
  0
SOLID
  5
10C
330
108
100
AcDbEntity
  8
1
 62
     2
100
AcDbTrace
 10
238.9758515619189
 20
305.2072989159466
 30
0.0
 11
238.0542840788071
 21
305.2072989159466
 31
0.0
 12
238.515067820363
 22
308.7072989159466
 32
0.0
 13
238.515067820363
 23
308.7072989159466
 33
0.0
  0
SOLID
  5
10D
330
108
100
AcDbEntity
  8
1
 62
     2
100
AcDbTrace
 10
238.0542840788071
 20
268.2072989159486
 30
0.0
 11
238.9758515619189
 21
268.2072989159486
 31
0.0
 12
238.515067820363
 22
264.7072989159486
 32
0.0
 13
238.515067820363
 23
264.7072989159486
 33
0.0
  0
MTEXT
  5
10E
330
108
100
AcDbEntity
  8
1
 62
     3
100
AcDbMText
 10
236.515067820363
 20
278.003628255315
 30
0.0
 40
3.5
 41
0.0
 71
     7
 72
     1
  1
\C3;%%c\C3;\C3;44\C2;\H2.45;\S^ ;\C3;
  7
CONVERTER_11
 11
0.0
 21
1.0
 31
0.0
 73
     1
 44
0.60024009603842
  0
ENDBLK
  5
110
330
108
100
AcDbEntity
  8
0
100
AcDbBlockEnd
  0
BLOCK
  5
11A
330
113
100
AcDbEntity
  8
0
100
AcDbBlockBegin
  2
*D4
 70
     1
 10
0.0
 20
0.0
 30
0.0
  3
*D4
  1

  0
LINE
  5
114
330
113
100
AcDbEntity
  8
1
  6
Continuous
 62
     2
100
AcDbLine
 10
247.451185625334
 20
313.207298916
 30
0.0
 11
247.451185625334
 21
260.207298916
 31
0.0
  0
LINE
  5
115
330
113
100
AcDbEntity
  8
1
  6
Continuous
 62
     2
100
AcDbLine
 10
162.4252053601
 20
313.207298916
 30
0.0
 11
249.451185625334
 21
313.207298916
 31
0.0
  0
LINE
  5
116
330
113
100
AcDbEntity
  8
1
  6
Continuous
 62
     2
100
AcDbLine
 10
162.4252053601
 20
260.207298916
 30
0.0
 11
249.451185625334
 21
260.207298916
 31
0.0
  0
SOLID
  5
117
330
113
100
AcDbEntity
  8
1
 62
     2
100
AcDbTrace
 10
247.9119693668899
 20
309.707298916
 30
0.0
 11
246.9904018837781
 21
309.707298916
 31
0.0
 12
247.451185625334
 22
313.207298916
 32
0.0
 13
247.451185625334
 23
313.207298916
 33
0.0
  0
SOLID
  5
118
330
113
100
AcDbEntity
  8
1
 62
     2
100
AcDbTrace
 10
246.9904018837781
 20
263.707298916
 30
0.0
 11
247.9119693668899
 21
263.707298916
 31
0.0
 12
247.451185625334
 22
260.207298916
 32
0.0
 13
247.451185625334
 23
260.207298916
 33
0.0
  0
MTEXT
  5
119
330
113
100
AcDbEntity
  8
1
 62
     3
100
AcDbMText
 10
245.451185625334
 20
278.816002601221
 30
0.0
 40
3.5
 41
0.0
 71
     7
 72
     1
  1
\C3;%%c\C3;\C3;53\C2;\H2.45;\S^ ;\C3;
  7
CONVERTER_11
 11
0.0
 21
1.0
 31
0.0
 73
     1
 44
0.60024009603842
  0
ENDBLK
  5
11B
330
113
100
AcDbEntity
  8
0
100
AcDbBlockEnd
  0
BLOCK
  5
125
330
11E
100
AcDbEntity
  8
0
100
AcDbBlockBegin
  2
*D5
 70
     1
 10
0.0
 20
0.0
 30
0.0
  3
*D5
  1

  0
LINE
  5
11F
330
11E
100
AcDbEntity
  8
1
  6
Continuous
 62
     2
100
AcDbLine
 10
217.6031266729
 20
344.699681683854
 30
0.0
 11
126.6031266729
 21
344.699681683854
 31
0.0
  0
LINE
  5
120
330
11E
100
AcDbEntity
  8
1
  6
Continuous
 62
     2
100
AcDbLine
 10
217.6031266729
 20
309.7829084243
 30
0.0
 11
217.6031266729
 21
346.699681683854
 31
0.0
  0
LINE
  5
121
330
11E
100
AcDbEntity
  8
1
  6
Continuous
 62
     2
100
AcDbLine
 10
126.6031266729
 20
338.7072619948
 30
0.0
 11
126.6031266729
 21
346.699681683854
 31
0.0
  0
SOLID
  5
122
330
11E
100
AcDbEntity
  8
1
 62
     2
100
AcDbTrace
 10
214.1031266729
 20
344.2388979422981
 30
0.0
 11
214.1031266729
 21
345.1604654254099
 31
0.0
 12
217.6031266729
 22
344.699681683854
 32
0.0
 13
217.6031266729
 23
344.699681683854
 33
0.0
  0
SOLID
  5
123
330
11E
100
AcDbEntity
  8
1
 62
     2
100
AcDbTrace
 10
130.1031266729
 20
345.1604654254099
 30
0.0
 11
130.1031266729
 21
344.2388979422981
 31
0.0
 12
126.6031266729
 22
344.699681683854
 32
0.0
 13
126.6031266729
 23
344.699681683854
 33
0.0
  0
MTEXT
  5
124
330
11E
100
AcDbEntity
  8
1
 62
     3
100
AcDbMText
 10
169.89542171767
 20
346.699681683854
 30
0.0
 40
3.5
 41
0.0
 71
     7
 72
     1
  1
\C3;\C3;\C3;91\C2;\H2.45;\S^ ;\C3;
  7
CONVERTER_11
 11
0.9999999999970619
 21
2.424068405545306E-6
 31
0.0
 73
     1
 44
0.60024009603842
  0
ENDBLK
  5
126
330
11E
100
AcDbEntity
  8
0
100
AcDbBlockEnd
  0
BLOCK
  5
130
330
129
100
AcDbEntity
  8
0
100
AcDbBlockBegin
  2
*D6
 70
     1
 10
0.0
 20
0.0
 30
0.0
  3
*D6
  1

  0
LINE
  5
12A
330
129
100
AcDbEntity
  8
1
  6
Continuous
 62
     2
100
AcDbLine
 10
217.6031266729
 20
352.336000535375
 30
0.0
 11
97.6031266729
 21
352.336000535375
 31
0.0
  0
LINE
  5
12B
330
129
100
AcDbEntity
  8
1
  6
Continuous
 62
     2
100
AcDbLine
 10
217.6031266729
 20
309.7829084243
 30
0.0
 11
217.6031266729
 21
354.336000535375
 31
0.0
  0
LINE
  5
12C
330
129
100
AcDbEntity
  8
1
  6
Continuous
 62
     2
100
AcDbLine
 10
97.6031266729
 20
338.707298916
 30
0.0
 11
97.6031266729
 21
354.336000535375
 31
0.0
  0
SOLID
  5
12D
330
129
100
AcDbEntity
  8
1
 62
     2
100
AcDbTrace
 10
214.1031266729
 20
351.8752167938191
 30
0.0
 11
214.1031266729
 21
352.7967842769309
 31
0.0
 12
217.6031266729
 22
352.336000535375
 32
0.0
 13
217.6031266729
 23
352.336000535375
 33
0.0
  0
SOLID
  5
12E
330
129
100
AcDbEntity
  8
1
 62
     2
100
AcDbTrace
 10
101.1031266729
 20
352.7967842769309
 30
0.0
 11
101.1031266729
 21
351.8752167938191
 31
0.0
 12
97.6031266729
 22
352.336000535375
 32
0.0
 13
97.6031266729
 23
352.336000535375
 33
0.0
  0
MTEXT
  5
12F
330
129
100
AcDbEntity
  8
1
 62
     3
100
AcDbMText
 10
155.150007575623
 20
354.336000535375
 30
0.0
 40
3.5
 41
0.0
 71
     7
 72
     1
  1
\C3;\C3;\C3;120\C2;\H2.45;\S^ ;\C3;
  7
CONVERTER_11
 11
0.9999999999970619
 21
2.424068405545306E-6
 31
0.0
 73
     1
 44
0.60024009603842
  0
ENDBLK
  5
131
330
129
100
AcDbEntity
  8
0
100
AcDbBlockEnd
  0
BLOCK
  5
13B
330
134
100
AcDbEntity
  8
0
100
AcDbBlockBegin
  2
*D7
 70
     1
 10
0.0
 20
0.0
 30
0.0
  3
*D7
  1

  0
LINE
  5
135
330
134
100
AcDbEntity
  8
1
  6
Continuous
 62
     2
100
AcDbLine
 10
217.6031266729
 20
360.134794256077
 30
0.0
 11
47.6031266729
 21
360.134794256077
 31
0.0
  0
LINE
  5
136
330
134
100
AcDbEntity
  8
1
  6
Continuous
 62
     2
100
AcDbLine
 10
217.6031266729
 20
309.7829084243
 30
0.0
 11
217.6031266729
 21
362.134794256077
 31
0.0
  0
LINE
  5
137
330
134
100
AcDbEntity
  8
1
  6
Continuous
 62
     2
100
AcDbLine
 10
47.6031266729
 20
322.3074904785
 30
0.0
 11
47.6031266729
 21
362.134794256077
 31
0.0
  0
SOLID
  5
138
330
134
100
AcDbEntity
  8
1
 62
     2
100
AcDbTrace
 10
214.1031266729
 20
359.6740105145211
 30
0.0
 11
214.1031266729
 21
360.5955779976329
 31
0.0
 12
217.6031266729
 22
360.134794256077
 32
0.0
 13
217.6031266729
 23
360.134794256077
 33
0.0
  0
SOLID
  5
139
330
134
100
AcDbEntity
  8
1
 62
     2
100
AcDbTrace
 10
51.1031266729
 20
360.5955779976329
 30
0.0
 11
51.1031266729
 21
359.6740105145211
 31
0.0
 12
47.6031266729
 22
360.134794256077
 32
0.0
 13
47.6031266729
 23
360.134794256077
 33
0.0
  0
MTEXT
  5
13A
330
134
100
AcDbEntity
  8
1
 62
     3
100
AcDbMText
 10
136.790347358137
 20
362.134794256077
 30
0.0
 40
3.5
 41
0.0
 71
     7
 72
     1
  1
\C3;\C3;\C3;170\C2;\H2.45;\S^ ;\C3;
  7
CONVERTER_11
 11
0.9999999999970619
 21
2.424068405545306E-6
 31
0.0
 73
     1
 44
0.60024009603842
  0
ENDBLK
  5
13C
330
134
100
AcDbEntity
  8
0
100
AcDbBlockEnd
  0
BLOCK
  5
143
330
13F
100
AcDbEntity
  8
0
100
AcDbBlockBegin
  2
*D8
 70
     1
 10
0.0
 20
0.0
 30
0.0
  3
*D8
  1

  0
LINE
  5
140
330
13F
100
AcDbEntity
  8
1
  6
Continuous
 62
     2
100
AcDbLine
 10
136.4510687104783
 20
323.9378998342829
 30
0.0
 11
128.817005927915
 21
314.5527001465684
 31
0.0
  0
SOLID
  5
141
330
13F
100
AcDbEntity
  8
1
 62
     2
100
AcDbTrace
 10
130.6681157897529
 20
317.5586465758796
 30
0.0
 11
131.3830369352263
 21
316.9771189482607
 31
0.0
 12
128.817005927915
 22
314.5527001465684
 32
0.0
 13
128.817005927915
 23
314.5527001465684
 33
0.0
  0
MTEXT
  5
142
330
13F
100
AcDbEntity
  8
1
 62
     3
100
AcDbMText
 10
130.2173664660364
 20
319.4437529377475
 30
0.0
 40
3.5
 41
0.0
 71
     7
 72
     1
  1
\C3; R\C3;\C3;6\C2;\H2.45;\S^ ;\C3;
  7
CONVERTER_11
 11
0.6310201241641665
 21
0.7757664615719347
 31
0.0
 73
     1
 44
0.60024009603842
  0
ENDBLK
  5
144
330
13F
100
AcDbEntity
  8
0
100
AcDbBlockEnd
  0
BLOCK
  5
14D
330
146
100
AcDbEntity
  8
0
100
AcDbBlockBegin
  2
*D9
 70
     1
 10
0.0
 20
0.0
 30
0.0
  3
*D9
  1

  0
LINE
  5
147
330
146
100
AcDbEntity
  8
1
  6
Continuous
 62
     2
100
AcDbLine
 10
195.0618470793259
 20
313.207298916
 30
0.0
 11
197.0618470793259
 21
313.207298916
 31
0.0
  0
LINE
  5
148
330
146
100
AcDbEntity
  8
1
  6
Continuous
 62
     2
100
AcDbLine
 10
162.4252053601
 20
313.207298916
 30
0.0
 11
195.0618470793259
 21
313.207298916
 31
0.0
  0
ARC
  5
149
330
146
100
AcDbEntity
  8
1
  6
Continuous
 62
     2
100
AcDbCircle
 10
160.4252053601
 20
313.207298916
 30
0.0
 40
34.63664171922583
100
AcDbArc
 50
346.8154732238552
 51
17.3756860662265
  0
SOLID
  5
14A
330
146
100
AcDbEntity
  8
1
 62
     2
100
AcDbTrace
 10
194.961553019558
 20
306.9595439113326
 30
0.0
 11
194.0476504413015
 21
307.0781554764732
 31
0.0
 12
194.9550738722966
 22
310.4897393276138
 32
0.0
 13
194.9550738722966
 23
310.4897393276138
 33
0.0
  0
SOLID
  5
14B
330
146
100
AcDbEntity
  8
1
 62
     2
100
AcDbTrace
 10
194.4248907158961
 20
316.6795616145251
 30
0.0
 11
195.3452821936472
 21
316.7261035699204
 31
0.0
 12
195.0618470793259
 22
313.207298916
 32
0.0
 13
195.0618470793259
 23
313.207298916
 33
0.0
  0
MTEXT
  5
14C
330
146
100
AcDbEntity
  8
1
 62
     3
100
AcDbMText
 10
195.5523957449589
 20
324.1991248393302
 30
0.0
 40
3.5
 41
0.0
 71
     7
 72
     1
  1
\C3;\C3;\C3;4.5%%d\C2;\H2.45;\S^ ;\C3;
  7
CONVERTER_11
 11
0.2055959249279134
 21
-0.9786369682640422
 31
0.0
 73
     1
 44
0.60024009603842
  0
ENDBLK
  5
14E
330
146
100
AcDbEntity
  8
0
100
AcDbBlockEnd
  0
ENDSEC
  0
SECTION
  2
ENTITIES
  0
INSERT
  5
6C
330
1F
100
AcDbEntity
  8
0
100
AcDbBlockReference
  2
Urheberrecht_DE-EN
 10
38.6709787273737
 20
302.131265958356
 30
0.0
  0
LINE
  5
70
330
1F
100
AcDbEntity
  8
BEZUGSACHSEN
  6
Continuous
 62
     7
100
AcDbLine
 10
47.6031266729
 20
253.107107353
 30
0.0
 11
47.6031266729
 21
274.697298916
 31
0.0
  0
LINE
  5
71
330
1F
100
AcDbEntity
  8
BEZUGSACHSEN
  6
Continuous
 62
     7
100
AcDbLine
 10
47.6031266729
 20
298.717298916
 30
0.0
 11
47.6031266729
 21
320.3074904785
 31
0.0
  0
LINE
  5
72
330
1F
100
AcDbEntity
  8
BEZUGSACHSEN
  6
Continuous
 62
     9
100
AcDbLine
 10
49.5030521882
 20
322.3049851843
 30
0.0
 11
49.5030521882
 21
302.3838313022
 31
0.0
  0
LINE
  5
73
330
1F
100
AcDbEntity
  8
BEZUGSACHSEN
  6
Continuous
 62
     9
100
AcDbLine
 10
49.5030521882
 20
271.0307665297
 30
0.0
 11
49.5030521882
 21
251.1096126476
 31
0.0
  0
LINE
  5
74
330
1F
100
AcDbEntity
  8
BEZUGSACHSEN
  6
Continuous
 62
     7
100
AcDbLine
 10
49.6031266729
 20
274.3036589676
 30
0.0
 11
49.6031266729
 21
276.697298916
 31
0.0
  0
LINE
  5
75
330
1F
100
AcDbEntity
  8
BEZUGSACHSEN
  6
Continuous
 62
     7
100
AcDbLine
 10
49.6031266729
 20
296.717298916
 30
0.0
 11
49.6031266729
 21
299.1109388643
 31
0.0
  0
LINE
  5
76
330
1F
100
AcDbEntity
  8
BEZUGSACHSEN
  6
Continuous
 62
     9
100
AcDbLine
 10
55.6031266729
 20
270.3486513285
 30
0.0
 11
55.6031266729
 21
276.697298916
 31
0.0
  0
LINE
  5
77
330
1F
100
AcDbEntity
  8
BEZUGSACHSEN
  6
Continuous
 62
     9
100
AcDbLine
 10
55.6031266729
 20
296.717298916
 30
0.0
 11
55.6031266729
 21
303.0659465034
 31
0.0
  0
LINE
  5
78
330
1F
100
AcDbEntity
  8
BEZUGSACHSEN
  6
Continuous
 62
     7
100
AcDbLine
 10
57.6031266729
 20
299.5769544417
 30
0.0
 11
57.6031266729
 21
273.8376433902
 31
0.0
  0
LINE
  5
79
330
1F
100
AcDbEntity
  8
BEZUGSACHSEN
  6
Continuous
 62
     7
100
AcDbLine
 10
48.8700795999
 20
271.697298916
 30
0.0
 11
48.7489693485
 21
271.4649629205
 31
0.0
  0
LINE
  5
7A
330
1F
100
AcDbEntity
  8
BEZUGSACHSEN
  6
Continuous
 62
     7
100
AcDbLine
 10
48.7489693485
 20
301.9496349114
 30
0.0
 11
48.8700795999
 21
301.717298916
 31
0.0
  0
LWPOLYLINE
  5
7B
330
1F
100
AcDbEntity
  8
BEZUGSACHSEN
  6
DOT_CENTER
 62
     7
100
AcDbPolyline
 90
        2
 70
     0
 43
0.25
 10
82.6031266729
 20
286.707298916
 10
82.6031266729
 20
277.707298916
  0
LWPOLYLINE
  5
7C
330
1F
100
AcDbEntity
  8
BEZUGSACHSEN
  6
DOT_CENTER
 62
     7
100
AcDbPolyline
 90
        2
 70
     0
 43
0.25
 10
82.6031266729
 20
286.707298916
 10
82.6031266729
 20
295.707298916
  0
LINE
  5
7D
330
1F
100
AcDbEntity
  8
BEZUGSACHSEN
  6
Continuous
 62
     7
100
AcDbLine
 10
47.6031266729
 20
274.697298916
 30
0.0
 11
49.6031266729
 21
276.697298916
 31
0.0
  0
LINE
  5
7E
330
1F
100
AcDbEntity
  8
BEZUGSACHSEN
  6
Continuous
 62
     7
100
AcDbLine
 10
114.3555314087
 20
236.707298916
 30
0.0
 11
97.6031266729
 21
236.707298916
 31
0.0
  0
LINE
  5
7F
330
1F
100
AcDbEntity
  8
BEZUGSACHSEN
  6
Continuous
 62
     7
100
AcDbLine
 10
120.8507219371
 20
236.707298916
 30
0.0
 11
126.6031266729
 21
236.707298916
 31
0.0
  0
LINE
  5
80
330
1F
100
AcDbEntity
  8
BEZUGSACHSEN
  6
Continuous
 62
     7
100
AcDbLine
 10
116.7281266729
 20
240.707298916
 30
0.0
 11
118.4781266729
 21
240.707298916
 31
0.0
  0
LINE
  5
81
330
1F
100
AcDbEntity
  8
BEZUGSACHSEN
  6
Continuous
 62
     7
100
AcDbLine
 10
49.6031266729
 20
296.717298916
 30
0.0
 11
47.6031266729
 21
298.717298916
 31
0.0
  0
LINE
  5
82
330
1F
100
AcDbEntity
  8
FASEN
  6
Continuous
 62
     7
100
AcDbLine
 10
103.0046126373
 20
247.8775422852
 30
0.0
 11
114.3555314087
 21
247.8775422852
 31
0.0
  0
LINE
  5
83
330
1F
100
AcDbEntity
  8
0
  6
Continuous
 62
     7
100
AcDbLine
 10
120.8507219371
 20
247.8775422852
 30
0.0
 11
126.6031266729
 21
247.8775422852
 31
0.0
  0
LINE
  5
84
330
1F
100
AcDbEntity
  8
BEZUGSACHSEN
  6
Continuous
 62
     7
100
AcDbLine
 10
95.1031266729
 20
248.825048916
 30
0.0
 11
49.5030521882
 21
251.1096126476
 31
0.0
  0
LINE
  5
85
330
1F
100
AcDbEntity
  8
BEZUGSACHSEN
  6
Continuous
 62
     7
100
AcDbLine
 10
95.1031266729
 20
324.589548916
 30
0.0
 11
95.1031266729
 21
248.825048916
 31
0.0
  0
LINE
  5
86
330
1F
100
AcDbEntity
  8
BEZUGSACHSEN
  6
Continuous
 62
     9
100
AcDbLine
 10
95.7223702869
 20
248.9909747422
 30
0.0
 11
95.7223702869
 21
324.4236230897
 31
0.0
  0
LINE
  5
87
330
1F
100
AcDbEntity
  8
BEZUGSACHSEN
  6
Continuous
 62
     9
100
AcDbLine
 10
95.981189332
 20
249.025048916
 30
0.0
 11
95.981189332
 21
324.389548916
 31
0.0
  0
LINE
  5
88
330
1F
100
AcDbEntity
  8
BEZUGSACHSEN
  6
Continuous
 62
     9
100
AcDbLine
 10
96.9025553842
 20
249.025048916
 30
0.0
 11
96.9025553842
 21
324.389548916
 31
0.0
  0
LINE
  5
89
330
1F
100
AcDbEntity
  8
BEZUGSACHSEN
  6
Continuous
 62
     7
100
AcDbLine
 10
97.6031266729
 20
336.707298916
 30
0.0
 11
97.6031266729
 21
236.707298916
 31
0.0
  0
LINE
  5
8A
330
1F
100
AcDbEntity
  8
BEZUGSACHSEN
  6
Continuous
 62
     7
100
AcDbLine
 10
119.4781266729
 20
334.3298941801
 30
0.0
 11
120.8507219371
 21
336.707298916
 31
0.0
  0
LINE
  5
8B
330
1F
100
AcDbEntity
  8
BEZUGSACHSEN
  6
Continuous
 62
     7
100
AcDbLine
 10
96.9025553842
 20
249.025048916
 30
0.0
 11
95.981189332
 21
249.025048916
 31
0.0
  0
LINE
  5
8C
330
1F
100
AcDbEntity
  8
0
  6
Continuous
 62
     7
100
AcDbLine
 10
116.7281266729
 20
253.1849183322
 30
0.0
 11
118.4781266729
 21
253.1849183322
 31
0.0
  0
LINE
  5
8D
330
1F
100
AcDbEntity
  8
BEZUGSACHSEN
  6
Continuous
 62
     7
100
AcDbLine
 10
119.4781266729
 20
239.0847036518
 30
0.0
 11
120.8507219371
 21
236.707298916
 31
0.0
  0
LWPOLYLINE
  5
8E
330
1F
100
AcDbEntity
  8
BEZUGSACHSEN
  6
DOT_CENTER
 62
     7
100
AcDbPolyline
 90
        2
 70
     0
 43
0.25
 10
104.6031266729
 20
328.8566707713
 10
104.6031266729
 20
339.707298916
  0
LINE
  5
8F
330
1F
100
AcDbEntity
  8
BEZUGSACHSEN
  6
Continuous
 62
     9
100
AcDbLine
 10
47.6031266729
 20
273.2611149469
 30
0.0
 11
49.6031266729
 21
274.3036589676
 31
0.0
  0
LINE
  5
90
330
1F
100
AcDbEntity
  8
BEZUGSACHSEN
  6
Continuous
 62
     7
100
AcDbLine
 10
95.7223702869
 20
248.9909747422
 30
0.0
 11
95.1031266729
 21
248.825048916
 31
0.0
  0
LINE
  5
91
330
1F
100
AcDbEntity
  8
RUNDUNGEN
  6
Continuous
 62
     7
100
AcDbLine
 10
216.6815857686
 20
264.6347720739
 30
0.0
 11
160.4252053601
 21
260.207298916
 31
0.0
  0
LINE
  5
92
330
1F
100
AcDbEntity
  8
0
  6
Continuous
 62
     7
100
AcDbLine
 10
160.4252053601
 20
260.207298916
 30
0.0
 11
216.6815857686
 21
264.6347720739
 31
0.0
  0
LINE
  5
93
330
1F
100
AcDbEntity
  8
FASEN
  6
Continuous
 62
     7
100
AcDbLine
 10
110.5750005948
 20
254.807298916
 30
0.0
 11
126.6031266729
 21
254.807298916
 31
0.0
  0
LINE
  5
94
330
1F
100
AcDbEntity
  8
0
  6
Continuous
 62
     7
100
AcDbLine
 10
110.5750005948
 20
255.207298916
 30
0.0
 11
126.6031266729
 21
255.207298916
 31
0.0
  0
LINE
  5
95
330
1F
100
AcDbEntity
  8
RUNDUNGEN
  6
Continuous
 62
     7
100
AcDbLine
 10
160.4252053601
 20
260.207298916
 30
0.0
 11
132.6031266729
 21
260.207298916
 31
0.0
  0
LINE
  5
96
330
1F
100
AcDbEntity
  8
0
  6
Continuous
 62
     7
100
AcDbLine
 10
132.6031266729
 20
260.207298916
 30
0.0
 11
160.4252053601
 21
260.207298916
 31
0.0
  0
LINE
  5
97
330
1F
100
AcDbEntity
  8
BEZUGSACHSEN
  6
Continuous
 62
     9
100
AcDbLine
 10
49.6031266729
 20
299.1109388643
 30
0.0
 11
47.6031266729
 21
300.153482885
 31
0.0
  0
LINE
  5
98
330
1F
100
AcDbEntity
  8
FASEN
  6
Continuous
 62
     9
100
AcDbLine
 10
110.5750005948
 20
254.807298916
 30
0.0
 11
110.5750005948
 21
255.207298916
 31
0.0
  0
LINE
  5
99
330
1F
100
AcDbEntity
  8
FASEN
  6
Continuous
 62
     9
100
AcDbLine
 10
112.6031266729
 20
277.107298916
 30
0.0
 11
112.6031266729
 21
276.707298916
 31
0.0
  0
LINE
  5
9A
330
1F
100
AcDbEntity
  8
FASEN
  6
Continuous
 62
     9
100
AcDbLine
 10
112.6031266729
 20
296.307298916
 30
0.0
 11
112.6031266729
 21
296.707298916
 31
0.0
  0
LINE
  5
9B
330
1F
100
AcDbEntity
  8
0
  6
Continuous
 62
     7
100
AcDbLine
 10
114.3555314087
 20
336.707298916
 30
0.0
 11
114.3555314087
 21
296.707298916
 31
0.0
  0
LINE
  5
9C
330
1F
100
AcDbEntity
  8
0
  6
Continuous
 62
     7
100
AcDbLine
 10
114.3555314087
 20
276.707298916
 30
0.0
 11
114.3555314087
 21
255.207298916
 31
0.0
  0
LINE
  5
9D
330
1F
100
AcDbEntity
  8
0
  6
Continuous
 62
     7
100
AcDbLine
 10
114.3555314087
 20
247.8775422852
 30
0.0
 11
114.3555314087
 21
236.707298916
 31
0.0
  0
LINE
  5
9E
330
1F
100
AcDbEntity
  8
0
  6
Continuous
 62
     7
100
AcDbLine
 10
115.7281266729
 20
334.3298607536
 30
0.0
 11
115.7281266729
 21
296.707298916
 31
0.0
  0
LINE
  5
9F
330
1F
100
AcDbEntity
  8
0
  6
Continuous
 62
     7
100
AcDbLine
 10
115.7281266729
 20
276.707298916
 30
0.0
 11
115.7281266729
 21
255.207298916
 31
0.0
  0
LINE
  5
A0
330
1F
100
AcDbEntity
  8
0
  6
Continuous
 62
     7
100
AcDbLine
 10
115.7281266729
 20
239.0847411857
 30
0.0
 11
115.7281266729
 21
251.8253551628
 31
0.0
  0
LINE
  5
A1
330
1F
100
AcDbEntity
  8
0
  6
Continuous
 62
     9
100
AcDbLine
 10
116.7281266729
 20
240.707298916
 30
0.0
 11
116.7281266729
 21
253.1849183322
 31
0.0
  0
LINE
  5
A2
330
1F
100
AcDbEntity
  8
0
  6
Continuous
 62
     9
100
AcDbLine
 10
116.7281266729
 20
255.207298916
 30
0.0
 11
116.7281266729
 21
276.707298916
 31
0.0
  0
LINE
  5
A3
330
1F
100
AcDbEntity
  8
0
  6
Continuous
 62
     9
100
AcDbLine
 10
116.7281266729
 20
296.707298916
 30
0.0
 11
116.7281266729
 21
332.707298916
 31
0.0
  0
LINE
  5
A4
330
1F
100
AcDbEntity
  8
0
  6
Continuous
 62
     9
100
AcDbLine
 10
118.4781266729
 20
240.707298916
 30
0.0
 11
118.4781266729
 21
253.1849183322
 31
0.0
  0
LINE
  5
A5
330
1F
100
AcDbEntity
  8
0
  6
Continuous
 62
     9
100
AcDbLine
 10
118.4781266729
 20
255.207298916
 30
0.0
 11
118.4781266729
 21
276.707298916
 31
0.0
  0
LINE
  5
A6
330
1F
100
AcDbEntity
  8
0
  6
Continuous
 62
     9
100
AcDbLine
 10
118.4781266729
 20
296.707298916
 30
0.0
 11
118.4781266729
 21
332.707298916
 31
0.0
  0
LINE
  5
A7
330
1F
100
AcDbEntity
  8
0
  6
Continuous
 62
     7
100
AcDbLine
 10
119.4781266729
 20
239.0847411857
 30
0.0
 11
119.4781266729
 21
251.8253551628
 31
0.0
  0
LINE
  5
A8
330
1F
100
AcDbEntity
  8
0
  6
Continuous
 62
     7
100
AcDbLine
 10
119.4781266729
 20
255.207298916
 30
0.0
 11
119.4781266729
 21
276.707298916
 31
0.0
  0
LINE
  5
A9
330
1F
100
AcDbEntity
  8
0
  6
Continuous
 62
     7
100
AcDbLine
 10
119.4781266729
 20
296.707298916
 30
0.0
 11
119.4781266729
 21
334.3298607536
 31
0.0
  0
LWPOLYLINE
  5
AA
330
1F
100
AcDbEntity
  8
DEFAULT_2
  6
DASHED
 62
     8
100
AcDbPolyline
 90
        2
 70
     0
 43
0.35
 10
217.6031266729
 20
270.707298916
 10
159.6031266729
 20
270.707298916
  0
LINE
  5
AB
330
1F
100
AcDbEntity
  8
BEZUGSACHSEN
  6
Continuous
 62
     9
100
AcDbLine
 10
57.1569726198
 20
271.697298916
 30
0.0
 11
48.8700795999
 21
271.697298916
 31
0.0
  0
LINE
  5
AC
330
1F
100
AcDbEntity
  8
0
  6
Continuous
 62
     7
100
AcDbLine
 10
120.8507219371
 20
336.707298916
 30
0.0
 11
120.8507219371
 21
296.707298916
 31
0.0
  0
LINE
  5
AD
330
1F
100
AcDbEntity
  8
0
  6
Continuous
 62
     7
100
AcDbLine
 10
120.8507219371
 20
276.707298916
 30
0.0
 11
120.8507219371
 21
255.207298916
 31
0.0
  0
LINE
  5
AE
330
1F
100
AcDbEntity
  8
0
  6
Continuous
 62
     7
100
AcDbLine
 10
120.8507219371
 20
247.8775422852
 30
0.0
 11
120.8507219371
 21
236.707298916
 31
0.0
  0
LINE
  5
AF
330
1F
100
AcDbEntity
  8
0
  6
Continuous
 62
     7
100
AcDbLine
 10
126.6031266729
 20
336.7072619948
 30
0.0
 11
126.6031266729
 21
296.707298916
 31
0.0
  0
LINE
  5
B0
330
1F
100
AcDbEntity
  8
0
  6
Continuous
 62
     7
100
AcDbLine
 10
126.6031266729
 20
276.707298916
 30
0.0
 11
126.6031266729
 21
255.207298916
 31
0.0
  0
LINE
  5
B1
330
1F
100
AcDbEntity
  8
0
  6
Continuous
 62
     7
100
AcDbLine
 10
126.6031266729
 20
247.8775422852
 30
0.0
 11
126.6031266729
 21
236.7073007837
 31
0.0
  0
LINE
  5
B2
330
1F
100
AcDbEntity
  8
FASEN
  6
Continuous
 62
     7
100
AcDbLine
 10
126.6031266729
 20
247.8775422852
 30
0.0
 11
126.6031266729
 21
255.207298916
 31
0.0
  0
LINE
  5
B3
330
1F
100
AcDbEntity
  8
FASEN
  6
Continuous
 62
     7
100
AcDbLine
 10
126.6031266729
 20
276.707298916
 30
0.0
 11
126.6031266729
 21
296.707298916
 31
0.0
  0
LINE
  5
B4
330
1F
100
AcDbEntity
  8
BEZUGSACHSEN
  6
Continuous
 62
     7
100
AcDbLine
 10
55.6031266729
 20
276.697298916
 30
0.0
 11
49.6031266729
 21
276.697298916
 31
0.0
  0
LINE
  5
B5
330
1F
100
AcDbEntity
  8
0
  6
Continuous
 62
     7
100
AcDbLine
 10
112.6031266729
 20
276.707298916
 30
0.0
 11
126.6031266729
 21
276.707298916
 31
0.0
  0
LINE
  5
B6
330
1F
100
AcDbEntity
  8
FASEN
  6
Continuous
 62
     7
100
AcDbLine
 10
126.6031266729
 20
277.107298916
 30
0.0
 11
112.6031266729
 21
277.107298916
 31
0.0
  0
LINE
  5
B7
330
1F
100
AcDbEntity
  8
RUNDUNGEN
  6
Continuous
 62
     9
100
AcDbLine
 10
132.6031266729
 20
313.207298916
 30
0.0
 11
132.6031266729
 21
260.207298916
 31
0.0
  0
LWPOLYLINE
  5
B8
330
1F
100
AcDbEntity
  8
BEZUGSACHSEN
  6
DOT_CENTER
 62
     7
100
AcDbPolyline
 90
        2
 70
     0
 43
0.25
 10
220.6031266729
 20
286.707298916
 10
44.6031266729
 20
286.707298916
  0
LINE
  5
B9
330
1F
100
AcDbEntity
  8
BEZUGSACHSEN
  6
Continuous
 62
     7
100
AcDbLine
 10
114.3555314087
 20
236.707298916
 30
0.0
 11
115.7281266729
 21
239.0847036518
 31
0.0
  0
LINE
  5
BA
330
1F
100
AcDbEntity
  8
FASEN
  6
Continuous
 62
     7
100
AcDbLine
 10
112.6031266729
 20
296.307298916
 30
0.0
 11
126.6031266729
 21
296.307298916
 31
0.0
  0
LINE
  5
BB
330
1F
100
AcDbEntity
  8
0
  6
Continuous
 62
     7
100
AcDbLine
 10
112.6031266729
 20
296.707298916
 30
0.0
 11
126.6031266729
 21
296.707298916
 31
0.0
  0
LINE
  5
BC
330
1F
100
AcDbEntity
  8
BEZUGSACHSEN
  6
Continuous
 62
     7
100
AcDbLine
 10
55.6031266729
 20
296.717298916
 30
0.0
 11
49.6031266729
 21
296.717298916
 31
0.0
  0
LINE
  5
BD
330
1F
100
AcDbEntity
  8
BEZUGSACHSEN
  6
Continuous
 62
     7
100
AcDbLine
 10
114.3555314087
 20
336.707298916
 30
0.0
 11
115.7281266729
 21
334.3298941801
 31
0.0
  0
LINE
  5
BE
330
1F
100
AcDbEntity
  8
BEZUGSACHSEN
  6
Continuous
 62
     9
100
AcDbLine
 10
48.8700795999
 20
301.717298916
 30
0.0
 11
57.1569726198
 21
301.717298916
 31
0.0
  0
LWPOLYLINE
  5
BF
330
1F
100
AcDbEntity
  8
DEFAULT_2
  6
DASHED
 62
     8
100
AcDbPolyline
 90
        2
 70
     0
 43
0.35
 10
217.6031266729
 20
302.707298916
 10
159.6031266729
 20
302.707298916
  0
LWPOLYLINE
  5
C0
330
1F
100
AcDbEntity
  8
DEFAULT_2
  6
DASHED
 62
     8
100
AcDbPolyline
 90
        2
 70
     0
 43
0.35
 10
159.6031266729
 20
302.707298916
 10
159.6031266729
 20
270.707298916
  0
LINE
  5
C1
330
1F
100
AcDbEntity
  8
RUNDUNGEN
  6
Continuous
 62
     7
100
AcDbLine
 10
160.4252053601
 20
313.207298916
 30
0.0
 11
132.6031266729
 21
313.207298916
 31
0.0
  0
LINE
  5
C2
330
1F
100
AcDbEntity
  8
0
  6
Continuous
 62
     7
100
AcDbLine
 10
132.6031266729
 20
313.207298916
 30
0.0
 11
160.4252053601
 21
313.207298916
 31
0.0
  0
LINE
  5
C3
330
1F
100
AcDbEntity
  8
BEZUGSACHSEN
  6
Continuous
 62
     7
100
AcDbLine
 10
95.7223702869
 20
324.4236230897
 30
0.0
 11
95.1031266729
 21
324.589548916
 31
0.0
  0
LINE
  5
C4
330
1F
100
AcDbEntity
  8
0
  6
Continuous
 62
     7
100
AcDbLine
 10
160.4252053601
 20
313.207298916
 30
0.0
 11
160.4252053601
 21
260.207298916
 31
0.0
  0
LINE
  5
C5
330
1F
100
AcDbEntity
  8
RUNDUNGEN
  6
Continuous
 62
     7
100
AcDbLine
 10
216.6815857686
 20
308.779825758
 30
0.0
 11
160.4252053601
 21
313.207298916
 31
0.0
  0
LINE
  5
C6
330
1F
100
AcDbEntity
  8
0
  6
Continuous
 62
     7
100
AcDbLine
 10
160.4252053601
 20
313.207298916
 30
0.0
 11
216.6815857686
 21
308.779825758
 31
0.0
  0
LINE
  5
C7
330
1F
100
AcDbEntity
  8
BEZUGSACHSEN
  6
Continuous
 62
     7
100
AcDbLine
 10
95.1031266729
 20
324.589548916
 30
0.0
 11
49.5030521882
 21
322.3049851843
 31
0.0
  0
LINE
  5
C8
330
1F
100
AcDbEntity
  8
BEZUGSACHSEN
  6
Continuous
 62
     7
100
AcDbLine
 10
96.9025553842
 20
324.389548916
 30
0.0
 11
95.981189332
 21
324.389548916
 31
0.0
  0
LINE
  5
C9
330
1F
100
AcDbEntity
  8
BEZUGSACHSEN
  6
Continuous
 62
     7
100
AcDbLine
 10
116.7281266729
 20
332.707298916
 30
0.0
 11
118.4781266729
 21
332.707298916
 31
0.0
  0
LINE
  5
CA
330
1F
100
AcDbEntity
  8
BEZUGSACHSEN
  6
Continuous
 62
     7
100
AcDbLine
 10
114.3555314087
 20
336.707298916
 30
0.0
 11
109.6031266729
 21
336.707298916
 31
0.0
  0
LINE
  5
CB
330
1F
100
AcDbEntity
  8
BEZUGSACHSEN
  6
Continuous
 62
     7
100
AcDbLine
 10
99.6031266729
 20
336.707298916
 30
0.0
 11
97.6031266729
 21
336.707298916
 31
0.0
  0
LINE
  5
CC
330
1F
100
AcDbEntity
  8
BEZUGSACHSEN
  6
Continuous
 62
     7
100
AcDbLine
 10
120.8507219371
 20
336.707298916
 30
0.0
 11
126.6031266729
 21
336.707298916
 31
0.0
  0
LINE
  5
CD
330
1F
100
AcDbEntity
  8
RUNDUNGEN
  6
Continuous
 62
     9
100
AcDbLine
 10
216.6815857686
 20
264.6347720739
 30
0.0
 11
216.6815857686
 21
308.779825758
 31
0.0
  0
LINE
  5
CE
330
1F
100
AcDbEntity
  8
RUNDUNGEN
  6
Continuous
 62
     7
100
AcDbLine
 10
217.6031266729
 20
265.6316894076
 30
0.0
 11
217.6031266729
 21
307.7829084243
 31
0.0
  0
LWPOLYLINE
  5
CF
330
1F
100
AcDbEntity
  8
1
  6
Continuous
 62
     7
100
AcDbPolyline
 90
        2
 70
     0
 43
0.25
 10
217.6031266729
 20
307.7829084243
 10
217.6031266729
 20
308.7072989159466
  0
LWPOLYLINE
  5
D0
330
1F
100
AcDbEntity
  8
1
  6
Continuous
 62
     7
100
AcDbPolyline
 90
        2
 70
     0
 43
0.25
 10
216.6815857686
 20
308.779825758
 10
217.6031266728949
 20
308.7072989159466
  0
LWPOLYLINE
  5
D1
330
1F
100
AcDbEntity
  8
1
  6
Continuous
 62
     7
100
AcDbPolyline
 90
        2
 70
     0
 43
0.25
 10
216.6815857686
 20
264.6347720739
 10
217.6031266729
 20
264.7072989159486
  0
LWPOLYLINE
  5
D2
330
1F
100
AcDbEntity
  8
1
  6
Continuous
 62
     7
100
AcDbPolyline
 90
        2
 70
     0
 43
0.25
 10
217.6031266729
 20
265.6316894076
 10
217.6031266729
 20
264.7072989159486
  0
ARC
  5
D3
330
1F
100
AcDbEntity
  8
FASEN
  6
Continuous
 62
     7
100
AcDbCircle
 10
115.5037806958
 20
262.238562186
 30
0.0
 40
19.03859487319976
100
AcDbArc
 50
227.4837701982999
 51
228.9651953374996
  0
ARC
  5
D4
330
1F
100
AcDbEntity
  8
FASEN
  6
Continuous
 62
     7
100
AcDbCircle
 10
110.5750005948
 20
247.207298916
 30
0.0
 40
8.0
100
AcDbArc
 50
90.0
 51
172.8323734889971
  0
ARC
  5
D5
330
1F
100
AcDbEntity
  8
FASEN
  6
Continuous
 62
     7
100
AcDbCircle
 10
110.5750005948
 20
247.207298916
 30
0.0
 40
7.59998219489998
100
AcDbArc
 50
90.0
 51
174.9405171273014
  0
ARC
  5
D6
330
1F
100
AcDbEntity
  8
BEZUGSACHSEN
  6
Continuous
 62
     7
100
AcDbCircle
 10
55.6031266729
 20
278.697298916
 30
0.0
 40
2.0
100
AcDbArc
 50
270.0
 51
355.235536186493
  0
ARC
  5
D7
330
1F
100
AcDbEntity
  8
BEZUGSACHSEN
  6
Continuous
 62
     7
100
AcDbCircle
 10
49.6031266729
 20
253.1071073529
 30
0.0
 40
2.0
100
AcDbArc
 50
179.9999999971348
 51
267.131879513702
  0
ARC
  5
D8
330
1F
100
AcDbEntity
  8
BEZUGSACHSEN
  6
Continuous
 62
     7
100
AcDbCircle
 10
116.7281266729
 20
239.707298916
 30
0.0
 40
1.0
100
AcDbArc
 50
90.0
 51
180.0
  0
ARC
  5
D9
330
1F
100
AcDbEntity
  8
BEZUGSACHSEN
  6
Continuous
 62
     7
100
AcDbCircle
 10
95.981189332
 20
248.025048916
 30
0.0
 40
1.0
100
AcDbArc
 50
90.0
 51
105.0000000011813
  0
ARC
  5
DA
330
1F
100
AcDbEntity
  8
BEZUGSACHSEN
  6
Continuous
 62
     7
100
AcDbCircle
 10
96.9025553842
 20
248.025048916
 30
0.0
 40
1.000000000000057
100
AcDbArc
 50
45.52164291270316
 51
90.0
  0
ARC
  5
DB
330
1F
100
AcDbEntity
  8
0
  6
Continuous
 62
     7
100
AcDbCircle
 10
-126.9946532103
 20
356.1417665066
 30
0.0
 40
264.5204223909507
100
AcDbArc
 50
335.8400764706018
 51
336.5770705490999
  0
ARC
  5
DC
330
1F
100
AcDbEntity
  8
BEZUGSACHSEN
  6
Continuous
 62
     7
100
AcDbCircle
 10
104.618334684
 20
386.7600686828
 30
0.0
 40
50.30340021035248
100
AcDbArc
 50
264.2781515101899
 51
269.9826780126002
  0
ARC
  5
DD
330
1F
100
AcDbEntity
  8
BEZUGSACHSEN
  6
Continuous
 62
     7
100
AcDbCircle
 10
104.5879186718
 20
386.7600684821
 30
0.0
 40
50.30340000969741
100
AcDbArc
 50
270.0173219760583
 51
275.7218485012679
  0
ARC
  5
DE
330
1F
100
AcDbEntity
  8
0
  6
Continuous
 62
     7
100
AcDbCircle
 10
112.6031266729
 20
286.707298916
 30
0.0
 40
10.0
100
AcDbArc
 50
90.0
 51
270.0
  0
ARC
  5
DF
330
1F
100
AcDbEntity
  8
FASEN
  6
Continuous
 62
     7
100
AcDbCircle
 10
112.6031266729
 20
286.707298916
 30
0.0
 40
9.599999195900011
100
AcDbArc
 50
90.0
 51
270.0
  0
ARC
  5
E0
330
1F
100
AcDbEntity
  8
BEZUGSACHSEN
  6
Continuous
 62
     7
100
AcDbCircle
 10
55.6031266729
 20
294.717298916
 30
0.0
 40
1.999999999999992
100
AcDbArc
 50
4.76446378498877
 51
90.0
  0
ARC
  5
E1
330
1F
100
AcDbEntity
  8
BEZUGSACHSEN
  6
Continuous
 62
     7
100
AcDbCircle
 10
49.6031266729
 20
320.307490479
 30
0.0
 40
2.000000000047347
100
AcDbArc
 50
92.86812048629807
 51
180.0000000143254
  0
ARC
  5
E2
330
1F
100
AcDbEntity
  8
BEZUGSACHSEN
  6
Continuous
 62
     7
100
AcDbCircle
 10
116.7281266729
 20
333.707298916
 30
0.0
 40
1.0
100
AcDbArc
 50
180.0
 51
270.0
  0
ARC
  5
E3
330
1F
100
AcDbEntity
  8
BEZUGSACHSEN
  6
Continuous
 62
     7
100
AcDbCircle
 10
95.981189332
 20
325.389548916
 30
0.0
 40
1.000000000009914
100
AcDbArc
 50
255.0000000003019
 51
270.0
  0
ARC
  5
E4
330
1F
100
AcDbEntity
  8
BEZUGSACHSEN
  6
Continuous
 62
     7
100
AcDbCircle
 10
96.9025553842
 20
325.389548916
 30
0.0
 40
1.0
100
AcDbArc
 50
270.0
 51
314.4783570872957
  0
ARC
  5
E5
330
1F
100
AcDbEntity
  8
BEZUGSACHSEN
  6
Continuous
 62
     7
100
AcDbCircle
 10
233.9331732753
 20
-1319.3354604117
 30
0.0
 40
1632.1727637359
100
AcDbArc
 50
96.2726189838
 51
96.48809068979999
  0
ARC
  5
E6
330
1F
100
AcDbEntity
  8
RUNDUNGEN
  6
Continuous
 62
     7
100
AcDbCircle
 10
132.6031266729
 20
254.207298916
 30
0.0
 40
6.0
100
AcDbArc
 50
90.0
 51
180.0
  0
ARC
  5
E7
330
1F
100
AcDbEntity
  8
RUNDUNGEN
  6
Continuous
 62
     7
100
AcDbCircle
 10
216.6031266729
 20
265.6316894076
 30
0.0
 40
0.9999999999647582
100
AcDbArc
 50
274.4999999985585
 51
0.0
  0
ARC
  5
E8
330
1F
100
AcDbEntity
  8
BEZUGSACHSEN
  6
Continuous
 62
     7
100
AcDbCircle
 10
118.4781266729
 20
239.707298916
 30
0.0
 40
1.0
100
AcDbArc
 50
0.0
 51
90.0
  0
ARC
  5
E9
330
1F
100
AcDbEntity
  8
BEZUGSACHSEN
  6
Continuous
 62
     7
100
AcDbCircle
 10
233.9331732764
 20
1892.7500582529
 30
0.0
 40
1632.1727637452
100
AcDbArc
 50
263.5119093102
 51
263.7273810162
  0
ARC
  5
EA
330
1F
100
AcDbEntity
  8
0
  6
Continuous
 62
     7
100
AcDbCircle
 10
362.2009065558
 20
356.1417665065
 30
0.0
 40
264.5204223905999
100
AcDbArc
 50
203.4229294508999
 51
204.159923529405
  0
ARC
  5
EB
330
1F
100
AcDbEntity
  8
RUNDUNGEN
  6
Continuous
 62
     7
100
AcDbCircle
 10
132.6031266729
 20
319.207298916
 30
0.0
 40
6.0
100
AcDbArc
 50
180.0
 51
270.0
  0
ARC
  5
EC
330
1F
100
AcDbEntity
  8
RUNDUNGEN
  6
Continuous
 62
     7
100
AcDbCircle
 10
216.6031266729
 20
307.7829084243
 30
0.0
 40
1.0
100
AcDbArc
 50
0.0
 51
85.50000000144182
  0
ARC
  5
ED
330
1F
100
AcDbEntity
  8
BEZUGSACHSEN
  6
Continuous
 62
     7
100
AcDbCircle
 10
118.4781266729
 20
333.707298916
 30
0.0
 40
1.0
100
AcDbArc
 50
270.0
 51
0.0
  0
CIRCLE
  5
EE
330
1F
100
AcDbEntity
  8
BEZUGSACHSEN
  6
Continuous
 62
     7
100
AcDbCircle
 10
82.6031266729
 20
286.707298916
 30
0.0
 40
6.0
  0
SPLINE
  5
EF
330
1F
100
AcDbEntity
  8
BEZUGSACHSEN
  6
Continuous
 62
     7
100
AcDbSpline
210
0.0
220
0.0
230
1.0
 70
     8
 71
     3
 72
    19
 73
    15
 74
    13
 42
0.0000000001
 43
0.0000000001
 44
0.00000001
 40
0.0
 40
0.0
 40
0.0
 40
0.0
 40
0.1462385988338154
 40
0.2927479275035234
 40
0.436479070622745
 40
0.5801659236484015
 40
0.720379997292463
 40
0.8606059382777927
 40
0.9980411883923958
 40
1.135484020420424
 40
1.40541563106429
 40
1.675815514061977
 40
1.943997429497816
 40
2.211934834724672
 40
2.211934834724672
 40
2.211934834724672
 40
2.211934834724672
 10
55.6031266729
 20
303.0659465034
 30
0.0
 10
55.65184147825849
 20
303.069254580712
 30
0.0
 10
55.74936127413427
 20
303.0758768595413
 30
0.0
 10
55.89469753444581
 20
303.0595175467877
 30
0.0
 10
56.03535447155549
 20
303.0243457807162
 30
0.0
 10
56.16820660501148
 20
302.9715400941075
 30
0.0
 10
56.29266106809351
 20
302.9038683063977
 30
0.0
 10
56.40746362526897
 20
302.8245681050236
 30
0.0
 10
56.51357356303519
 20
302.7354834654434
 30
0.0
 10
56.64267602818294
 20
302.6075359298642
 30
0.0
 10
56.78571587806122
 20
302.4317336409558
 30
0.0
 10
56.93062347975633
 20
302.2040481750769
 30
0.0
 10
57.05526022819888
 20
301.9653855556068
 30
0.0
 10
57.12307879936726
 20
301.7999693151738
 30
0.0
 10
57.1569726198
 20
301.717298916
 30
0.0
 11
55.6031266729
 21
303.0659465034
 31
0.0
 11
55.7492605347782
 21
303.0714802364474
 31
0.0
 11
55.89496989559025
 21
303.0561908427709
 31
0.0
 11
56.03439997712803
 21
303.0212925066397
 31
0.0
 11
56.16803231406896
 21
302.9684880536445
 31
0.0
 11
56.29134610490043
 21
302.9017520405883
 31
0.0
 11
56.40687721623013
 21
302.8222795494978
 31
0.0
 11
56.51228976599298
 21
302.7340942767672
 31
0.0
 11
56.6100782696605
 21
302.6375130124022
 31
0.0
 11
56.78132666552176
 21
302.4288576474107
 31
0.0
 11
56.92766908605233
 21
302.2014813234928
 31
0.0
 11
57.05153671185909
 21
301.9636192814519
 31
0.0
 11
57.1569726198
 21
301.717298916
 31
0.0
  0
SPLINE
  5
F0
330
1F
100
AcDbEntity
  8
BEZUGSACHSEN
  6
Continuous
 62
     7
100
AcDbSpline
210
0.0
220
0.0
230
1.0
 70
     8
 71
     3
 72
    11
 73
     7
 74
     5
 42
0.0000000001
 43
0.0000000001
 44
0.00000001
 40
0.0
 40
0.0
 40
0.0
 40
0.0
 40
0.5521269407067614
 40
1.105196183364691
 40
1.651906304756662
 40
2.198197048721927
 40
2.198197048721927
 40
2.198197048721927
 40
2.198197048721927
 10
57.6031266729
 20
273.8376433902
 30
0.0
 10
57.59654123527218
 20
273.653508199788
 30
0.0
 10
57.58335912080642
 20
273.2849235598028
 30
0.0
 10
57.48587075700569
 20
272.7414991550991
 30
0.0
 10
57.34623344399341
 20
272.2102250255764
 30
0.0
 10
57.22004342176355
 20
271.8682305454954
 30
0.0
 10
57.1569726198
 20
271.697298916
 30
0.0
 11
57.6031266729
 21
273.8376433902
 31
0.0
 11
57.57038209047319
 21
273.2864882841038
 31
0.0
 11
57.47831543752982
 21
272.7411358122198
 31
0.0
 11
57.33782395269641
 21
272.2127854554283
 31
0.0
 11
57.1569726198
 21
271.697298916
 31
0.0
  0
SPLINE
  5
F1
330
1F
100
AcDbEntity
  8
BEZUGSACHSEN
  6
Continuous
 62
     7
100
AcDbSpline
210
0.0
220
0.0
230
1.0
 70
     8
 71
     3
 72
    19
 73
    15
 74
    13
 42
0.0000000001
 43
0.0000000001
 44
0.00000001
 40
0.0
 40
0.0
 40
0.0
 40
0.0
 40
0.2679411643368338
 40
0.5361267937438302
 40
0.8065304774339406
 40
1.076465993285797
 40
1.213913376198432
 40
1.351353104925136
 40
1.491586367101062
 40
1.631807897579952
 40
1.775491562770198
 40
1.919219204744513
 40
2.065713007410303
 40
2.211936409360073
 40
2.211936409360073
 40
2.211936409360073
 40
2.211936409360073
 10
57.1569726198
 20
271.697298916
 30
0.0
 10
57.12307837602688
 20
271.6146273362845
 30
0.0
 10
57.05525896393529
 20
271.4492087486765
 30
0.0
 10
56.93062045761739
 20
271.2105427749985
 30
0.0
 10
56.78570965830261
 20
270.9828547789592
 30
0.0
 10
56.64266602677936
 20
270.8070502876375
 30
0.0
 10
56.51355963985178
 20
270.6791005685388
 30
0.0
 10
56.40744454076701
 20
270.590013547753
 30
0.0
 10
56.29263511311413
 20
270.5107119074471
 30
0.0
 10
56.16817550089292
 20
270.4430414400184
 30
0.0
 10
56.03532194577691
 20
270.3902387533287
 30
0.0
 10
55.89467114690559
 20
270.3550724893239
 30
0.0
 10
55.74934576380016
 20
270.3387202873841
 30
0.0
 10
55.65183634473631
 20
270.3453430207355
 30
0.0
 10
55.6031266729
 20
270.3486513285
 30
0.0
 11
57.1569726198
 21
271.697298916
 31
0.0
 11
57.051535360143
 21
271.4509750401329
 31
0.0
 11
56.92766584454939
 21
271.2131097948215
 31
0.0
 11
56.78132035824909
 21
270.9857309242273
 31
0.0
 11
56.61006816712312
 21
270.777073622048
 31
0.0
 11
56.51227572842114
 21
270.680489865638
 31
0.0
 11
56.40685873914158
 21
270.5923029198711
 31
0.0
 11
56.29132009541885
 21
270.5128284609096
 31
0.0
 11
56.16799808553797
 21
270.4460919679782
 31
0.0
 11
56.03436739736828
 21
270.3932920170143
 31
0.0
 11
55.89493969617251
 21
270.3583985906024
 31
0.0
 11
55.74924525762226
 21
270.343115763802
 31
0.0
 11
55.6031266729
 21
270.3486513285
 31
0.0
  0
SPLINE
  5
F2
330
1F
100
AcDbEntity
  8
BEZUGSACHSEN
  6
Continuous
 62
     7
100
AcDbSpline
210
0.0
220
0.0
230
1.0
 70
     8
 71
     3
 72
    47
 73
    43
 74
    41
 42
0.0000000001
 43
0.0000000001
 44
0.00000001
 40
0.0
 40
0.0
 40
0.0
 40
0.0
 40
0.6366022431821741
 40
1.273595002171232
 40
1.592921746398884
 40
1.912076344884404
 40
2.231392290413807
 40
2.550826842715969
 40
3.189774321146216
 40
3.82908169699625
 40
4.468337152521969
 40
5.107221744801721
 40
5.426176341291724
 40
5.745033356831395
 40
6.063356731594485
 40
6.381780214891093
 40
7.017059195670328
 40
7.652639340990921
 40
8.287532214239782
 40
8.922347946495725
 40
9.559226748551326
 40
10.19613435933139
 40
10.83451785501052
 40
11.47287689973969
 40
12.11234487365046
 40
12.75189588947474
 40
13.39354300518087
 40
14.03487957352975
 40
14.35615205768381
 40
14.67732107708857
 40
14.99840882470597
 40
15.31959604121228
 40
15.96011121026494
 40
16.60099592087109
 40
17.23809108077327
 40
17.87482555201151
 40
18.19205670334318
 40
18.50917199102234
 40
18.82571084630866
 40
19.14241581829464
 40
19.77338974994998
 40
20.40398930738623
 40
20.40398930738623
 40
20.40398930738623
 40
20.40398930738623
 10
76.1037110786
 20
286.7072988965
 30
0.0
 10
76.10971672248671
 20
286.9195787061952
 30
0.0
 10
76.12173169434844
 20
287.3442685460209
 30
0.0
 10
76.20299703955646
 20
287.8704113071365
 30
0.0
 10
76.29571663615752
 20
288.2853856832609
 30
0.0
 10
76.38100960030167
 20
288.5932096589507
 30
0.0
 10
76.48124821374161
 20
288.896502335726
 30
0.0
 10
76.6347337628968
 20
289.2939396982631
 30
0.0
 10
76.86320570966974
 20
289.7760392751519
 30
0.0
 10
77.19282067021912
 20
290.3248551480089
 30
0.0
 10
77.57504788731217
 20
290.8383906873709
 30
0.0
 10
77.93390258444097
 20
291.2328934494593
 30
0.0
 10
78.2428559380061
 20
291.5257667475043
 30
0.0
 10
78.48475104697982
 20
291.7334885686091
 30
0.0
 10
78.73639430046892
 20
291.9289979657163
 30
0.0
 10
79.08368840763276
 20
292.1724931683543
 30
0.0
 10
79.5394287423945
 20
292.4443752383777
 30
0.0
 10
80.1149081670788
 20
292.7157043509026
 30
0.0
 10
80.71401893223148
 20
292.9294879817505
 30
0.0
 10
81.33146933467648
 20
293.0841777131601
 30
0.0
 10
81.96173989635636
 20
293.1779846968274
 30
0.0
 10
82.59933383107678
 20
293.2101114216323
 30
0.0
 10
83.23751247531493
 20
293.1796818486824
 30
0.0
 10
83.87052489651676
 20
293.0870105935094
 30
0.0
 10
84.49175858094165
 20
292.9325186322427
 30
0.0
 10
85.0958943328912
 20
292.7174814996769
 30
0.0
 10
85.67637340646009
 20
292.4435581339786
 30
0.0
 10
86.13600243068808
 20
292.1683912559506
 30
0.0
 10
86.48590141935075
 20
291.9217815570998
 30
0.0
 10
86.73903304850063
 20
291.7238773647188
 30
0.0
 10
86.98203168785045
 20
291.5136988352923
 30
0.0
 10
87.29127603134498
 20
291.2181794951126
 30
0.0
 10
87.64959622214542
 20
290.8207085123581
 30
0.0
 10
88.02954664050097
 20
290.3050417508313
 30
0.0
 10
88.35601967011064
 20
289.7554455943769
 30
0.0
 10
88.58139081010336
 20
289.2743400526713
 30
0.0
 10
88.73248179326325
 20
288.8783498650479
 30
0.0
 10
88.83089471081311
 20
288.5769235142525
 30
0.0
 10
88.91456148898234
 20
288.2712281463166
 30
0.0
 10
89.00538084642126
 20
287.8596761285939
 30
0.0
 10
89.08489582210045
 20
287.3382509120855
 30
0.0
 10
89.09666810671575
 20
286.9175746229448
 30
0.0
 10
89.1025525023
 20
286.7072988966
 30
0.0
 11
76.1037110786
 21
286.7072988965
 31
0.0
 11
76.1349597496398
 21
287.3431337308578
 31
0.0
 11
76.22840095201342
 21
287.9732357199861
 31
0.0
 11
76.29834145904785
 21
288.2848089779124
 31
0.0
 11
76.38348279802399
 21
288.5923973556704
 31
0.0
 11
76.48370733616194
 21
288.8955767003237
 31
0.0
 11
76.59878722591398
 21
289.1935616868232
 31
0.0
 11
76.8723831201583
 21
289.7709689666916
 31
0.0
 11
77.20160263383644
 21
290.3189912587836
 31
0.0
 11
77.58322688918382
 21
290.8318367181083
 31
0.0
 11
78.01316152531263
 21
291.3044144692872
 31
0.0
 11
78.24463378637375
 21
291.523851537672
 31
0.0
 11
78.48653618740103
 21
291.7315845989216
 31
0.0
 11
78.73790999455552
 21
291.9268817571119
 31
0.0
 11
78.99863927284743
 21
292.1096760627019
 31
0.0
 11
79.54417291705725
 21
292.4352101261347
 31
0.0
 11
80.11908273717597
 21
292.706209793767
 31
0.0
 11
80.71702892492078
 21
292.9196326535164
 31
0.0
 11
81.33282145712974
 21
293.0738745777631
 31
0.0
 11
81.96275373907615
 21
293.1676825127664
 31
0.0
 11
82.598856860795
 21
293.1996844378507
 31
0.0
 11
83.23651781983031
 21
293.1693201680971
 31
0.0
 11
83.8681353527576
 21
293.076791458572
 31
0.0
 11
84.4887082248638
 21
292.9224911019185
 31
0.0
 11
85.09120903198635
 21
292.7079723865145
 31
0.0
 11
85.67151622835286
 21
292.4341940474531
 31
0.0
 11
86.22174121639881
 21
292.1047019285317
 31
0.0
 11
86.48434852054626
 21
291.9196251528872
 31
0.0
 11
86.7373689779381
 21
291.7218116367499
 31
0.0
 11
86.98021727930241
 21
291.5117591571299
 31
0.0
 11
87.21241971470945
 21
291.2898509395306
 31
0.0
 11
87.64133577244371
 21
290.8141507217418
 31
0.0
 11
88.02144643111679
 21
290.2981574083628
 31
0.0
 11
88.34688557684197
 21
289.7504534689937
 31
0.0
 11
88.61696643497164
 21
289.1738365104025
 31
0.0
 11
88.73005688015584
 21
288.8774479907476
 31
0.0
 11
88.82850098349502
 21
288.5760000446647
 31
0.0
 11
88.91198378887063
 21
288.2706683101322
 31
0.0
 11
88.98053321231467
 21
287.9614709365565
 31
0.0
 11
89.07196029023919
 21
287.3371559584799
 31
0.0
 11
89.1025525023
 21
286.7072988966
 31
0.0
  0
SPLINE
  5
F3
330
1F
100
AcDbEntity
  8
BEZUGSACHSEN
  6
Continuous
 62
     7
100
AcDbSpline
210
0.0
220
0.0
230
1.0
 70
     8
 71
     3
 72
    47
 73
    43
 74
    41
 42
0.0000000001
 43
0.0000000001
 44
0.00000001
 40
0.0
 40
0.0
 40
0.0
 40
0.0
 40
0.6302393214779816
 40
1.260854867358751
 40
1.577476088428998
 40
1.893930800240259
 40
2.210999113877246
 40
2.528183472217071
 40
3.164887038271783
 40
3.801951183429841
 40
4.442851001646897
 40
5.083381259805227
 40
5.404527292323773
 40
5.725573838765924
 40
6.046670710036622
 40
6.36787102715867
 40
7.009090242542455
 40
7.650619763955437
 40
8.290330346516592
 40
8.929958764525438
 40
9.56864701139337
 40
10.20735923016515
 40
10.84445705816828
 40
11.48152626495203
 40
12.1164346222108
 40
12.75141965577799
 40
13.38691908736513
 40
14.02211738531267
 40
14.34050449143916
 40
14.6587915379353
 40
14.97761586869986
 40
15.2965377494611
 40
15.9353769410107
 40
16.57458694066638
 40
17.21386274992241
 40
17.8527785907563
 40
18.17219860083146
 40
18.49150024076493
 40
18.81067156636745
 40
19.13001452423711
 40
19.76719627024043
 40
20.40398968279551
 40
20.40398968279551
 40
20.40398968279551
 40
20.40398968279551
 10
89.1025403107
 20
286.7072989347
 30
0.0
 10
89.09667110895549
 20
286.497142912804
 30
0.0
 10
89.08492920181821
 20
286.076705415361
 30
0.0
 10
89.00548245926161
 20
285.555541973097
 30
0.0
 10
88.91475095419636
 20
285.1441505056738
 30
0.0
 10
88.83114557190171
 20
284.8385126653887
 30
0.0
 10
88.73279363053538
 20
284.5371288192037
 30
0.0
 10
88.5817748196801
 20
284.1411556396068
 30
0.0
 10
88.35649223207824
 20
283.6600488309151
 30
0.0
 10
88.03011419733436
 20
283.1104146059044
 30
0.0
 10
87.6502471353024
 20
282.594686743238
 30
0.0
 10
87.29199269602385
 20
282.1971613410347
 30
0.0
 10
86.98281195835777
 20
281.9016079860994
 30
0.0
 10
86.73988700232832
 20
281.6914230776659
 30
0.0
 10
86.48683809900163
 20
281.4935136133507
 30
0.0
 10
86.13705559053734
 20
281.246890261891
 30
0.0
 10
85.67757035278049
 20
280.9716836526153
 30
0.0
 10
85.09717464580805
 20
280.6976435459023
 30
0.0
 10
84.49302033795465
 20
280.4824550685511
 30
0.0
 10
83.87160519053901
 20
280.327793229513
 30
0.0
 10
83.23833597910772
 20
280.2349828564773
 30
0.0
 10
82.59987651468796
 20
280.2044721066692
 30
0.0
 10
81.9620435011491
 20
280.2365738490519
 30
0.0
 10
81.3316135141615
 20
280.3303869114277
 30
0.0
 10
80.71403984466497
 20
280.4851007277168
 30
0.0
 10
80.11489643323212
 20
280.6988972997904
 30
0.0
 10
79.53943921176588
 20
280.9702186682467
 30
0.0
 10
79.08375381881078
 20
281.2420635518954
 30
0.0
 10
78.7364979210602
 20
281.4855241044871
 30
0.0
 10
78.48487833975548
 20
281.6810066308067
 30
0.0
 10
78.24300328948122
 20
281.8886996894954
 30
0.0
 10
77.93406700579871
 20
282.1815372376182
 30
0.0
 10
77.57522424890401
 20
282.5759948865436
 30
0.0
 10
77.19299734365839
 20
283.0894795524942
 30
0.0
 10
76.86337289840722
 20
283.6382473312225
 30
0.0
 10
76.63488545248777
 20
284.1203107477172
 30
0.0
 10
76.48138395251905
 20
284.5177203068804
 30
0.0
 10
76.38112714959283
 20
284.8210026701647
 30
0.0
 10
76.29581065667179
 20
285.1288265418746
 30
0.0
 10
76.20304820131742
 20
285.5438674089847
 30
0.0
 10
76.12175583442189
 20
286.0701402080655
 30
0.0
 10
76.10971603488234
 20
286.4949558577618
 30
0.0
 10
76.1036979701
 20
286.7072989364
 30
0.0
 11
89.1025403107
 21
286.7072989347
 31
0.0
 11
89.07200073197876
 21
286.0777999780142
 31
0.0
 11
88.98066945645195
 21
285.4538331801658
 31
0.0
 11
88.91217471776544
 21
285.144709469648
 31
0.0
 11
88.82875589292867
 21
284.839447476779
 31
0.0
 11
88.73036914908961
 21
284.5380302175695
 31
0.0
 11
88.61733851798708
 21
284.2416689623285
 31
0.0
 11
88.34735838147473
 21
283.665038962315
 31
0.0
 11
88.0220217596214
 21
283.1173101904516
 31
0.0
 11
87.64198526482943
 21
282.6012434897075
 31
0.0
 11
87.21313476716871
 21
282.125463853455
 31
0.0
 11
86.9809976327987
 21
281.9035469206876
 31
0.0
 11
86.73821513946235
 21
281.6934813454217
 31
0.0
 11
86.48528553116402
 21
281.4956687725506
 31
0.0
 11
86.2227711353297
 21
281.3105854515866
 31
0.0
 11
85.67271295372878
 21
280.9810432251098
 31
0.0
 11
85.09257212206316
 21
280.70718789418
 31
0.0
 11
84.48996681174035
 21
280.4924870105966
 31
0.0
 11
83.86926754140036
 21
280.3380301268915
 31
0.0
 11
83.23733872749679
 21
280.245355152677
 31
0.0
 11
82.59935260034685
 21
280.2149084784319
 31
0.0
 11
81.96305761223653
 21
280.2468823826664
 31
0.0
 11
81.33293433813093
 21
280.3407004708078
 31
0.0
 11
80.7170504298895
 21
280.4949588050601
 31
0.0
 11
80.11901796007051
 21
280.7084140881911
 31
0.0
 11
79.5441822115238
 21
280.9793815949891
 31
0.0
 11
78.99871552398243
 21
281.3048704127664
 31
0.0
 11
78.73801323120551
 21
281.4876398409771
 31
0.0
 11
78.48666397939718
 21
281.6829093920664
 31
0.0
 11
78.24478068104762
 21
281.8906145288999
 31
0.0
 11
78.01332484974742
 21
282.1100213751591
 31
0.0
 11
77.5834018188672
 21
282.5825483057975
 31
0.0
 11
77.20178067940941
 21
283.0953394227045
 31
0.0
 11
76.87254920523036
 21
283.6433177039437
 31
0.0
 11
76.59893489808633
 21
284.2206812485103
 31
0.0
 11
76.48384264562635
 21
284.5186458710079
 31
0.0
 11
76.38360295719949
 21
284.8218051395917
 31
0.0
 11
76.29843587698224
 21
285.1294037474139
 31
0.0
 11
76.22847284950856
 21
285.4409885665686
 31
0.0
 11
76.13498395256832
 21
286.0712745362591
 31
0.0
 11
76.1036979701
 21
286.7072989364
 31
0.0
  0
SPLINE
  5
F4
330
1F
100
AcDbEntity
  8
BEZUGSACHSEN
  6
Continuous
 62
     7
100
AcDbSpline
210
0.0
220
0.0
230
1.0
 70
     8
 71
     3
 72
    27
 73
    23
 74
    21
 42
0.0000000001
 43
0.0000000001
 44
0.00000001
 40
0.0
 40
0.0
 40
0.0
 40
0.0
 40
0.121976513951634
 40
0.2439857714748813
 40
0.3566831398333629
 40
0.4694418149629618
 40
0.5721317672948504
 40
0.6745445881155919
 40
0.722520652122203
 40
0.7704888797708649
 40
0.817141293604595
 40
0.8637898734267481
 40
0.910231800082568
 40
0.9566751324135758
 40
1.004175175748929
 40
1.051683100138872
 40
1.153672388738605
 40
1.256049376665245
 40
1.370745138059236
 40
1.485385401813119
 40
1.611534903846258
 40
1.737631875976254
 40
1.737631875976254
 40
1.737631875976254
 40
1.737631875976254
 10
48.7489693485
 20
271.4649629205
 30
0.0
 10
48.71371433089661
 20
271.4446833952351
 30
0.0
 10
48.64319483177621
 20
271.404118900837
 30
0.0
 10
48.53554242859035
 20
271.3533230399453
 30
0.0
 10
48.42738441271906
 20
271.3115714040762
 30
0.0
 10
48.32180519175066
 20
271.2821568189348
 30
0.0
 10
48.21697364660491
 20
271.2652422315467
 30
0.0
 10
48.13224597675557
 20
271.2633770083185
 30
0.0
 10
48.06642204035179
 20
271.2703323163382
 30
0.0
 10
48.01971483713773
 20
271.2795294434916
 30
0.0
 10
47.97453421983369
 20
271.2930628884788
 30
0.0
 10
47.93139460918194
 20
271.3108561472849
 30
0.0
 10
47.89044013260381
 20
271.3330845049887
 30
0.0
 10
47.85179270613305
 20
271.3596195366906
 30
0.0
 10
47.81588662750093
 20
271.3903148142208
 30
0.0
 10
47.77044730597072
 20
271.4378522873383
 30
0.0
 10
47.72190416591249
 20
271.5070216544446
 30
0.0
 10
47.67567845698046
 20
271.6031797091572
 30
0.0
 10
47.64171258317864
 20
271.7087551421193
 30
0.0
 10
47.61875715895887
 20
271.8251728330011
 30
0.0
 10
47.60531260059466
 20
271.9469201416747
 30
0.0
 10
47.60385521429882
 20
272.0310235052195
 30
0.0
 10
47.6031266729
 20
272.0730664298
 30
0.0
 11
48.7489693485
 21
271.4649629205
 31
0.0
 11
48.64242472443946
 21
271.4055784693398
 31
0.0
 11
48.53213183527079
 21
271.3534081950431
 31
0.0
 11
48.42681382741836
 21
271.3132981706486
 31
0.0
 11
48.3180900988753
 21
271.2834038623496
 31
0.0
 11
48.21662594675416
 21
271.2675845025565
 31
0.0
 11
48.11422640616976
 21
271.2659352734744
 31
0.0
 11
48.06652254995721
 21
271.27103868606
 31
0.0
 11
48.01947177969576
 21
271.280375488594
 31
0.0
 11
47.97479221226234
 21
271.2937987508828
 31
0.0
 11
47.93168607566642
 21
271.3116299310793
 31
0.0
 11
47.89086348286956
 21
271.3337741959992
 31
0.0
 11
47.8525762263234
 21
271.360062389246
 31
0.0
 11
47.81643912931356
 21
271.3908903690137
 31
0.0
 11
47.78358662894667
 21
271.4252082375298
 31
0.0
 11
47.72441423472371
 21
271.5082771411641
 31
0.0
 11
47.67951451114911
 21
271.6002829153299
 31
0.0
 11
47.64387635156903
 21
271.7093014424869
 31
0.0
 11
47.62102478817164
 21
271.821641088756
 31
0.0
 11
47.6072580318322
 21
271.9470371544164
 31
0.0
 11
47.6031266729
 21
272.0730664298
 31
0.0
  0
SPLINE
  5
F5
330
1F
100
AcDbEntity
  8
BEZUGSACHSEN
  6
Continuous
 62
     7
100
AcDbSpline
210
0.0
220
0.0
230
1.0
 70
     8
 71
     3
 72
    27
 73
    23
 74
    21
 42
0.0000000001
 43
0.0000000001
 44
0.00000001
 40
0.0
 40
0.0
 40
0.0
 40
0.0
 40
0.1260969825526707
 40
0.252246495921448
 40
0.3668867952585916
 40
0.4815825894074185
 40
0.5839596006938178
 40
0.6859489161676235
 40
0.7334568411093312
 40
0.7809568849726143
 40
0.8274002265297506
 40
0.8738421608069696
 40
0.9204907319871303
 40
0.9671431400116179
 40
1.015111401884803
 40
1.063087497182053
 40
1.165500418785431
 40
1.268190479025714
 40
1.380949153973968
 40
1.49364651784895
 40
1.615655563801292
 40
1.737631867650046
 40
1.737631867650046
 40
1.737631867650046
 40
1.737631867650046
 10
47.6031266729
 20
301.3415314021
 30
0.0
 10
47.60385521437628
 20
301.383574330161
 30
0.0
 10
47.60531260083238
 20
301.4676777009713
 30
0.0
 10
47.61875716279521
 20
301.5894250285358
 30
0.0
 10
47.64171259611998
 20
301.7058427449107
 30
0.0
 10
47.67567849647163
 20
301.811418202698
 30
0.0
 10
47.72190425529315
 20
301.9075762649807
 30
0.0
 10
47.77044742384328
 20
301.9767456306764
 30
0.0
 10
47.81588674943257
 20
302.0242831122939
 30
0.0
 10
47.85179282754634
 20
302.0549783957729
 30
0.0
 10
47.89044025864914
 20
302.0815134314868
 30
0.0
 10
47.93139474585703
 20
302.1037417773833
 30
0.0
 10
47.97453437202942
 20
302.1215349942597
 30
0.0
 10
48.01971500663068
 20
302.1350684013206
 30
0.0
 10
48.06642222960053
 20
302.1442655266563
 30
0.0
 10
48.13224622078999
 20
302.1512208470324
 30
0.0
 10
48.21697397279378
 20
302.1493555903622
 30
0.0
 10
48.32180557629748
 20
302.1324409293803
 30
0.0
 10
48.42738481865964
 20
302.1030262965074
 30
0.0
 10
48.53554275675796
 20
302.0612746590563
 30
0.0
 10
48.64319501802377
 20
302.0104788319372
 30
0.0
 10
48.71371439283759
 20
301.9699144037041
 30
0.0
 10
48.7489693485
 20
301.9496349114
 30
0.0
 11
47.6031266729
 21
301.3415314021
 31
0.0
 11
47.60725803246707
 21
301.4675606878911
 31
0.0
 11
47.62102479160495
 21
301.592956764648
 31
0.0
 11
47.64387636771824
 21
301.7052964446424
 31
0.0
 11
47.67951455710168
 21
301.8143149965173
 31
0.0
 11
47.7244143218798
 21
301.9063207765684
 31
0.0
 11
47.78358675083417
 21
301.9893896884575
 31
0.0
 11
47.81643925101879
 21
302.0237075579119
 31
0.0
 11
47.85257634596957
 21
302.0545355409068
 31
0.0
 11
47.89086361084126
 21
302.0808237383276
 31
0.0
 11
47.93168621877998
 21
302.1029679913178
 31
0.0
 11
47.97479236239658
 21
302.1207991319334
 31
0.0
 11
48.0194719344307
 21
302.1342223587188
 31
0.0
 11
48.06652274016182
 21
302.1435591583411
 31
0.0
 11
48.1142266274128
 21
302.1486625749532
 31
0.0
 11
48.21662626827244
 21
302.1470133135563
 31
0.0
 11
48.31809051860758
 21
302.1311938832226
 31
0.0
 11
48.42681423506441
 21
302.1012995316508
 31
0.0
 11
48.53213222736173
 21
302.0611894790102
 31
0.0
 11
48.64242491326713
 21
302.009019269791
 31
0.0
 11
48.7489693485
 21
301.9496349114
 31
0.0
  0
SPLINE
  5
F6
330
1F
100
AcDbEntity
  8
BEZUGSACHSEN
  6
Continuous
 62
     7
100
AcDbSpline
210
0.0
220
0.0
230
1.0
 70
     8
 71
     3
 72
    15
 73
    11
 74
     9
 42
0.0000000001
 43
0.0000000001
 44
0.00000001
 40
0.0
 40
0.0
 40
0.0
 40
0.0
 40
0.11103716136506
 40
0.2222522337255544
 40
0.333398019183501
 40
0.4445069475017719
 40
0.5556201065559503
 40
0.6667525642506624
 40
0.7778876033638991
 40
0.8889820915909217
 40
0.8889820915909217
 40
0.8889820915909217
 40
0.8889820915909217
 10
49.5030521882
 20
271.0307665297
 30
0.0
 10
49.46641046131913
 20
271.036298682512
 30
0.0
 10
49.3930682977883
 20
271.0473718521129
 30
0.0
 10
49.2865517477776
 20
271.0803904156519
 30
0.0
 10
49.18413884003515
 20
271.1239807031358
 30
0.0
 10
49.08668887441394
 20
271.177760210983
 30
0.0
 10
48.9943840786848
 20
271.2398553463565
 30
0.0
 10
48.90738745055843
 20
271.3091420199911
 30
0.0
 10
48.82513469507813
 20
271.3840239715698
 30
0.0
 10
48.77435470870073
 20
271.4379865530944
 30
0.0
 10
48.7489693485
 20
271.4649629205
 30
0.0
 11
49.5030521882
 21
271.0307665297
 31
0.0
 11
49.39370990308978
 21
271.0500930889096
 31
0.0
 11
49.28721794952148
 21
271.0821595222217
 31
0.0
 11
49.18494976891431
 21
271.1256865811663
 31
0.0
 11
49.08754690245978
 21
271.1791456829028
 31
0.0
 11
48.99527513567314
 21
271.2410492786713
 31
0.0
 11
48.90817803226438
 21
271.3100747647694
 31
0.0
 11
48.82613812777783
 21
271.3850444319057
 31
0.0
 11
48.7489693485
 21
271.4649629205
 31
0.0
  0
SPLINE
  5
F7
330
1F
100
AcDbEntity
  8
BEZUGSACHSEN
  6
Continuous
 62
     7
100
AcDbSpline
210
0.0
220
0.0
230
1.0
 70
     8
 71
     3
 72
    15
 73
    11
 74
     9
 42
0.0000000001
 43
0.0000000001
 44
0.00000001
 40
0.0
 40
0.0
 40
0.0
 40
0.0
 40
0.111094483115778
 40
0.2222295181063934
 40
0.3333620401541378
 40
0.4444752609924375
 40
0.5555842177976629
 40
0.6667300353884366
 40
0.7779450181579963
 40
0.8889820871697256
 40
0.8889820871697256
 40
0.8889820871697256
 40
0.8889820871697256
 10
48.7489693485
 20
301.9496349114
 30
0.0
 10
48.77435470806886
 20
301.9766112770738
 30
0.0
 10
48.82513469340859
 20
302.0305738553749
 30
0.0
 10
48.9073874626279
 20
302.1054558187937
 30
0.0
 10
48.99438411455953
 20
302.174742527723
 30
0.0
 10
49.08668895498846
 20
302.2368376908165
 30
0.0
 10
49.18413897699433
 20
302.2906171829191
 30
0.0
 10
49.28655189087414
 20
302.3342074284919
 30
0.0
 10
49.39306838945783
 20
302.3672259843409
 30
0.0
 10
49.46641049217929
 20
302.3782991509534
 30
0.0
 10
49.5030521882
 20
302.3838313022
 30
0.0
 11
48.7489693485
 21
301.9496349114
 31
0.0
 11
48.82613812558628
 21
302.0295533950053
 31
0.0
 11
48.90817802580327
 21
302.1045230607025
 31
0.0
 11
48.99527517439456
 21
302.1735485933984
 31
0.0
 11
49.08754699597861
 21
302.2354522183862
 31
0.0
 11
49.18494990407406
 21
302.2889113034597
 31
0.0
 11
49.28721812747433
 21
302.3324383439112
 31
0.0
 11
49.39370999557899
 21
302.3645047503206
 31
0.0
 11
49.5030521882
 21
302.3838313022
 31
0.0
  0
SPLINE
  5
F8
330
1F
100
AcDbEntity
  8
0
  6
Continuous
 62
     7
100
AcDbSpline
210
0.0
220
0.0
230
1.0
 70
     8
 71
     3
 72
    19
 73
    15
 74
    13
 42
0.0000000001
 43
0.0000000001
 44
0.00000001
 40
0.0
 40
0.0
 40
0.0
 40
0.0
 40
0.1162460235696104
 40
0.2327881717828528
 40
0.3491890045674256
 40
0.4655468550296582
 40
0.581907136944124
 40
0.6982738488603212
 40
0.8146206072065568
 40
0.9309998277478696
 40
1.163276323391193
 40
1.396138921741843
 40
1.629013178042973
 40
1.861351539702975
 40
1.861351539702975
 40
1.861351539702975
 40
1.861351539702975
 10
116.7281266729
 20
253.1849183322
 30
0.0
 10
116.6893426020598
 20
253.1830773853121
 30
0.0
 10
116.6116756619965
 20
253.1793908019159
 30
0.0
 10
116.4980655769327
 20
253.1509853169713
 30
0.0
 10
116.3898778889854
 20
253.107131402771
 30
0.0
 10
116.2889020230246
 20
253.0485347145487
 30
0.0
 10
116.1961335663016
 20
252.9778498532218
 30
0.0
 10
116.1120461873183
 20
252.8970922481357
 30
0.0
 10
116.0367425439435
 20
252.8081246093939
 30
0.0
 10
115.9480912997754
 20
252.6807651616423
 30
0.0
 10
115.8580945540401
 20
252.5079797835512
 30
0.0
 10
115.7832010348761
 20
252.2870547933634
 30
0.0
 10
115.7366641095336
 20
252.0580348737743
 30
0.0
 10
115.7309702988115
 20
251.9028554809396
 30
0.0
 10
115.7281266729
 20
251.8253551628
 30
0.0
 11
116.7281266729
 21
253.1849183322
 31
0.0
 11
116.6122553213496
 21
253.175592674817
 31
0.0
 11
116.4989307966615
 21
253.1483966380767
 31
0.0
 11
116.3910576640524
 21
253.1046640285726
 31
0.0
 11
116.2902689245422
 21
253.0465195589118
 31
0.0
 11
116.1975816194947
 21
252.9761720025204
 31
0.0
 11
116.1135062538692
 21
252.8957198767739
 31
0.0
 11
116.0382074959375
 21
252.8070256535594
 31
0.0
 11
115.9715807666222
 21
252.7116055198635
 31
0.0
 11
115.8636909805137
 21
252.50590631111
 31
0.0
 11
115.7879328436619
 21
252.2857116372159
 31
0.0
 11
115.7429728298453
 21
252.0572187130247
 31
0.0
 11
115.7281266729
 21
251.8253551628
 31
0.0
  0
SPLINE
  5
F9
330
1F
100
AcDbEntity
  8
0
  6
Continuous
 62
     7
100
AcDbSpline
210
0.0
220
0.0
230
1.0
 70
     8
 71
     3
 72
    19
 73
    15
 74
    13
 42
0.0000000001
 43
0.0000000001
 44
0.00000001
 40
0.0
 40
0.0
 40
0.0
 40
0.0
 40
0.2323383481159185
 40
0.4652125957009639
 40
0.6980761132671712
 40
0.9303535187254056
 40
1.046733461806
 40
1.163080940882987
 40
1.279447997434845
 40
1.395808629517892
 40
1.512165904488839
 40
1.628566140332262
 40
1.745106920524958
 40
1.861351602787965
 40
1.861351602787965
 40
1.861351602787965
 40
1.861351602787965
 10
119.4781266729
 20
251.8253551628
 30
0.0
 10
119.4752830472945
 20
251.9028554764589
 30
0.0
 10
119.4695892371255
 20
252.0580348619424
 30
0.0
 10
119.4230522612858
 20
252.287055075957
 30
0.0
 10
119.3481585155254
 20
252.5079806378511
 30
0.0
 10
119.2581612112759
 20
252.6807667020713
 30
0.0
 10
119.1695092734736
 20
252.8081266278036
 30
0.0
 10
119.0942050091211
 20
252.8970945267195
 30
0.0
 10
119.0101170352967
 20
252.9778521966593
 30
0.0
 10
118.9173483014609
 20
253.0485367630083
 30
0.0
 10
118.8163724892184
 20
253.1071329871665
 30
0.0
 10
118.708185439708
 20
253.150986238322
 30
0.0
 10
118.5945763303539
 20
253.1793909977723
 30
0.0
 10
118.5169102955618
 20
253.1830774504194
 30
0.0
 10
118.4781266729
 20
253.1849183322
 30
0.0
 11
119.4781266729
 21
251.8253551628
 31
0.0
 11
119.4632805187822
 21
252.0572186996339
 31
0.0
 11
119.4183205171936
 21
252.2857116173479
 31
0.0
 11
119.3425620385112
 21
252.5059071457336
 31
0.0
 11
119.2346716273336
 21
252.7116070540037
 31
0.0
 11
119.1680443034894
 21
252.8070276538174
 31
0.0
 11
119.0927448469226
 21
252.8957222293466
 31
0.0
 11
119.0086689805921
 21
252.9761743303219
 31
0.0
 11
118.9159811546228
 21
253.0465217795708
 31
0.0
 11
118.8151927197182
 21
253.1046656255749
 31
0.0
 11
118.7073199909266
 21
253.1483976423071
 31
0.0
 11
118.5939967023727
 21
253.175592967627
 31
0.0
 11
118.4781266729
 21
253.1849183322
 31
0.0
  0
SPLINE
  5
FA
330
1F
100
AcDbEntity
  8
BEZUGSACHSEN
  6
Continuous
 62
     7
100
AcDbSpline
210
0.0
220
0.0
230
1.0
 70
     8
 71
     3
 72
    11
 73
     7
 74
     5
 42
0.0000000001
 43
0.0000000001
 44
0.00000001
 40
0.0
 40
0.0
 40
0.0
 40
0.0
 40
0.5462907431866928
 40
1.093000863684058
 40
1.646070107214104
 40
2.198197048811252
 40
2.198197048811252
 40
2.198197048811252
 40
2.198197048811252
 10
57.1569726198
 20
301.717298916
 30
0.0
 10
57.22004342166396
 20
301.546367286745
 30
0.0
 10
57.34623344368122
 20
301.204372807181
 30
0.0
 10
57.48587075672003
 20
300.6730986779476
 30
0.0
 10
57.5833591207322
 20
300.1296742729822
 30
0.0
 10
57.5965412352474
 20
299.7610896324092
 30
0.0
 10
57.6031266729
 20
299.5769544417
 30
0.0
 11
57.1569726198
 21
301.717298916
 31
0.0
 11
57.33782395242919
 21
301.2018123773031
 31
0.0
 11
57.47831543712751
 21
300.6734620214013
 31
0.0
 11
57.57038209035792
 21
300.1281095486813
 31
0.0
 11
57.6031266729
 21
299.5769544417
 31
0.0
  0
SPLINE
  5
FB
330
1F
100
AcDbEntity
  8
BEZUGSACHSEN
  6
Continuous
 62
     7
100
AcDbSpline
210
0.0
220
0.0
230
1.0
 70
     8
 71
     3
 72
    11
 73
     7
 74
     5
 42
0.0000000001
 43
0.0000000001
 44
0.00000001
 40
0.0
 40
0.0
 40
0.0
 40
0.0
 40
0.9140556660003448
 40
1.828030949185949
 40
2.279806974871129
 40
2.730944124762513
 40
2.730944124762513
 40
2.730944124762513
 40
2.730944124762513
 10
48.8700795997854
 20
271.697298916185
 30
0.0
 10
49.00273430674878
 20
271.9720155138516
 30
0.0
 10
49.26803205491039
 20
272.5214245503789
 30
0.0
 10
49.48338726822304
 20
273.2541354714836
 30
0.0
 10
49.58708148188538
 20
273.8520806775897
 30
0.0
 10
49.59778079940649
 20
274.1532038930166
 30
0.0
 10
49.6031266729
 20
274.3036589676
 30
0.0
 11
48.8700795997854
 21
271.697298916185
 31
0.0
 11
49.24488712956089
 21
272.5309757577555
 31
0.0
 11
49.50417848995878
 21
273.407399632771
 31
0.0
 11
49.57689546345738
 21
273.8532850655327
 31
0.0
 11
49.6031266729
 21
274.3036589676
 31
0.0
  0
SPLINE
  5
FC
330
1F
100
AcDbEntity
  8
BEZUGSACHSEN
  6
Continuous
 62
     7
100
AcDbSpline
210
0.0
220
0.0
230
1.0
 70
     8
 71
     3
 72
    11
 73
     7
 74
     5
 42
0.0000000001
 43
0.0000000001
 44
0.00000001
 40
0.0
 40
0.0
 40
0.0
 40
0.0
 40
0.8249192367595058
 40
1.650116892030085
 40
2.190492152392521
 40
2.730585915477291
 40
2.730585915477291
 40
2.730585915477291
 40
2.730585915477291
 10
49.6031266729
 20
299.1109388643
 30
0.0
 10
49.58539336856371
 20
299.3861291563063
 30
0.0
 10
49.54992077472318
 20
299.9366026198006
 30
0.0
 10
49.34148595808241
 20
300.6413362049872
 30
0.0
 10
49.11125952710069
 20
301.2335499300707
 30
0.0
 10
48.95045894429879
 20
301.556077263516
 30
0.0
 10
48.8700795997854
 20
301.717298915815
 30
0.0
 11
49.6031266729
 21
299.1109388643
 31
0.0
 11
49.51955121878427
 21
299.9316135200834
 31
0.0
 11
49.30158977667248
 21
300.7275054599953
 31
0.0
 11
49.10365469811331
 21
301.230324638913
 31
0.0
 11
48.8700795997854
 21
301.717298915815
 31
0.0
  0
DIMENSION
  5
107
330
1F
100
AcDbEntity
  8
1
100
AcDbDimension
  2
*D2
 10
229.741424884573
 20
302.707298916
 30
0.0
 11
225.991424884573
 21
286.533678516952
 31
0.0
 70
    32
  1
<>
 71
     5
 42
-1.0
 53
90.0
  3
ME10_DIM_10
100
AcDbAlignedDimension
 13
217.6031266729
 23
270.707298916
 33
0.0
 14
217.6031266729
 24
302.707298916
 34
0.0
 50
90.0
100
AcDbRotatedDimension
  0
DIMENSION
  5
112
330
1F
100
AcDbEntity
  8
1
100
AcDbDimension
  2
*D3
 10
238.515067820363
 20
308.7072989159466
 30
0.0
 11
234.765067820363
 21
286.858628255315
 31
0.0
 70
    32
  1
<>
 71
     5
 42
-1.0
 53
90.0
  3
ME10_DIM_11
100
AcDbAlignedDimension
 13
217.6031266729
 23
264.7072989159486
 33
0.0
 14
217.6031266729
 24
308.7072989159466
 34
0.0
 50
90.0
100
AcDbRotatedDimension
  0
DIMENSION
  5
11D
330
1F
100
AcDbEntity
  8
1
100
AcDbDimension
  2
*D4
 10
247.451185625334
 20
313.207298916
 30
0.0
 11
243.701185625334
 21
287.671002601221
 31
0.0
 70
    32
  1
<>
 71
     5
 42
-1.0
 53
90.0
  3
ME10_DIM_12
100
AcDbAlignedDimension
 13
160.4252053601
 23
260.207298916
 33
0.0
 14
160.4252053601
 24
313.207298916
 34
0.0
 50
90.0
100
AcDbRotatedDimension
  0
DIMENSION
  5
128
330
1F
100
AcDbEntity
  8
1
100
AcDbDimension
  2
*D5
 10
217.6031266729
 20
344.699681683854
 30
0.0
 11
171.57542171767
 21
348.449681683854
 31
0.0
 70
    32
  1
<>
 71
     5
 42
-1.0
 53
0.00013888888889
  3
ME10_DIM_13
100
AcDbAlignedDimension
 13
126.6031266729
 23
336.7072619948
 33
0.0
 14
217.6031266729
 24
307.7829084243
 34
0.0
100
AcDbRotatedDimension
  0
DIMENSION
  5
133
330
1F
100
AcDbEntity
  8
1
100
AcDbDimension
  2
*D6
 10
217.6031266729
 20
352.336000535375
 30
0.0
 11
158.090007575623
 21
356.086000535375
 31
0.0
 70
    32
  1
<>
 71
     5
 42
-1.0
 53
0.00013888888889
  3
ME10_DIM_14
100
AcDbAlignedDimension
 13
97.6031266729
 23
336.707298916
 33
0.0
 14
217.6031266729
 24
307.7829084243
 34
0.0
100
AcDbRotatedDimension
  0
DIMENSION
  5
13E
330
1F
100
AcDbEntity
  8
1
100
AcDbDimension
  2
*D7
 10
217.6031266729
 20
360.134794256077
 30
0.0
 11
139.730347358137
 21
363.884794256077
 31
0.0
 70
    32
  1
<>
 71
     5
 42
-1.0
 53
0.00013888888889
  3
ME10_DIM_15
100
AcDbAlignedDimension
 13
47.6031266729
 23
320.3074904785
 33
0.0
 14
217.6031266729
 24
307.7829084243
 34
0.0
100
AcDbRotatedDimension
  0
INSERT
  5
145
330
1F
100
AcDbEntity
  8
1
100
AcDbBlockReference
  2
*D8
 10
0.0
 20
0.0
 30
0.0
  0
DIMENSION
  5
150
330
1F
100
AcDbEntity
  8
1
100
AcDbDimension
  2
*D9
 10
195.0351434838163
 20
311.8474707435671
 30
0.0
 11
197.9917920340412
 21
321.0994360251407
 31
0.0
 70
    37
  1
<>
 71
     5
 42
-1.0
  3
ME10_DIM_16
100
AcDb3PointAngularDimension
 13
194.9550738722966
 23
310.4897393276138
 33
0.0
 14
163.8888695320226
 24
313.207298916
 34
0.0
 15
160.4252053601
 25
313.207298916
 35
0.0
  0
ENDSEC
  0
SECTION
  2
OBJECTS
  0
DICTIONARY
  5
C
330
0
100
AcDbDictionary
281
     1
  3
ACAD_GROUP
350
D
  3
ACAD_LAYOUT
350
1A
  3
ACAD_MLEADERSTYLE
350
153
  3
ACAD_MLINESTYLE
350
17
  3
ACAD_PLOTSETTINGS
350
19
  3
ACAD_PLOTSTYLENAME
350
E
  3
ACAD_SCALELIST
350
4A
  3
ACAD_VISUALSTYLE
350
2A
  3
AcDbVariableDictionary
350
151
  0
DICTIONARY
  5
D
102
{ACAD_REACTORS
330
C
102
}
330
C
100
AcDbDictionary
281
     1
  0
DICTIONARY
  5
1A
102
{ACAD_REACTORS
330
C
102
}
330
C
100
AcDbDictionary
281
     1
  3
Layout1
350
1E
  3
Layout2
350
26
  3
Model
350
22
  0
DICTIONARY
  5
153
102
{ACAD_REACTORS
330
C
102
}
330
C
100
AcDbDictionary
281
     1
  0
DICTIONARY
  5
17
102
{ACAD_REACTORS
330
C
102
}
330
C
100
AcDbDictionary
281
     1
  3
Standard
350
18
  0
DICTIONARY
  5
19
102
{ACAD_REACTORS
330
C
102
}
330
C
100
AcDbDictionary
281
     1
  0
ACDBDICTIONARYWDFLT
  5
E
102
{ACAD_REACTORS
330
C
102
}
330
C
100
AcDbDictionary
281
     1
  3
Normal
350
F
100
AcDbDictionaryWithDefault
340
F
  0
DICTIONARY
  5
4A
102
{ACAD_REACTORS
330
C
102
}
330
C
100
AcDbDictionary
281
     1
  3
A0
350
4B
  3
A1
350
4C
  3
A2
350
4D
  3
A3
350
4E
  3
A4
350
4F
  3
A5
350
50
  3
A6
350
51
  3
A7
350
52
  3
A8
350
53
  3
A9
350
54
  3
B0
350
55
  3
B1
350
56
  3
B2
350
57
  3
B3
350
58
  3
B4
350
59
  3
B5
350
5A
  3
B6
350
5B
  3
B7
350
5C
  3
B8
350
5D
  3
B9
350
5E
  3
C0
350
5F
  3
C1
350
60
  3
C2
350
61
  3
C3
350
62
  3
C4
350
63
  3
C5
350
64
  3
C6
350
65
  3
C7
350
66
  3
C8
350
67
  3
C9
350
68
  3
D0
350
69
  3
D1
350
6A
  3
D2
350
6B
  0
DICTIONARY
  5
2A
102
{ACAD_REACTORS
330
C
102
}
330
C
100
AcDbDictionary
281
     1
  3
2dWireframe
350
2F
  3
3D Hidden
350
31
  3
3dWireframe
350
30
  3
Basic
350
32
  3
Brighten
350
36
  3
ColorChange
350
3A
  3
Conceptual
350
34
  3
Dim
350
35
  3
Facepattern
350
39
  3
Flat
350
2B
  3
FlatWithEdges
350
2C
  3
Gouraud
350
2D
  3
GouraudWithEdges
350
2E
  3
Linepattern
350
38
  3
Realistic
350
33
  3
Thicken
350
37
  0
DICTIONARY
  5
151
102
{ACAD_REACTORS
330
C
102
}
330
C
100
AcDbDictionary
281
     1
  3
CANNOSCALE
350
154
  0
LAYOUT
  5
1E
102
{ACAD_REACTORS
330
1A
102
}
330
1A
100
AcDbPlotSettings
  1

  2
none_device
  4

  6

 40
0.0
 41
0.0
 42
0.0
 43
0.0
 44
0.0
 45
0.0
 46
0.0
 47
0.0
 48
0.0
 49
0.0
140
0.0
141
0.0
142
1.0
143
1.0
 70
   688
 72
     0
 73
     0
 74
     5
  7

 75
    16
147
1.0
148
0.0
149
0.0
100
AcDbLayout
  1
Layout1
 70
     1
 71
     1
 10
0.0
 20
0.0
 11
12.0
 21
9.0
 12
0.0
 22
0.0
 32
0.0
 14
1.00000000000000E+20
 24
1.00000000000000E+20
 34
1.00000000000000E+20
 15
-1.00000000000000E+20
 25
-1.00000000000000E+20
 35
-1.00000000000000E+20
146
0.0
 13
0.0
 23
0.0
 33
0.0
 16
1.0
 26
0.0
 36
0.0
 17
0.0
 27
1.0
 37
0.0
 76
     0
330
1B
  0
LAYOUT
  5
26
102
{ACAD_REACTORS
330
1A
102
}
330
1A
100
AcDbPlotSettings
  1

  2
none_device
  4

  6

 40
0.0
 41
0.0
 42
0.0
 43
0.0
 44
0.0
 45
0.0
 46
0.0
 47
0.0
 48
0.0
 49
0.0
140
0.0
141
0.0
142
1.0
143
1.0
 70
   688
 72
     0
 73
     0
 74
     5
  7

 75
    16
147
1.0
148
0.0
149
0.0
100
AcDbLayout
  1
Layout2
 70
     1
 71
     2
 10
0.0
 20
0.0
 11
0.0
 21
0.0
 12
0.0
 22
0.0
 32
0.0
 14
0.0
 24
0.0
 34
0.0
 15
0.0
 25
0.0
 35
0.0
146
0.0
 13
0.0
 23
0.0
 33
0.0
 16
1.0
 26
0.0
 36
0.0
 17
0.0
 27
1.0
 37
0.0
 76
     0
330
23
  0
LAYOUT
  5
22
102
{ACAD_REACTORS
330
1A
102
}
330
1A
100
AcDbPlotSettings
  1

  2
none_device
  4

  6

 40
0.0
 41
0.0
 42
0.0
 43
0.0
 44
0.0
 45
0.0
 46
0.0
 47
0.0
 48
0.0
 49
0.0
140
0.0
141
0.0
142
1.0
143
1.0
 70
  1712
 72
     0
 73
     0
 74
     0
  7

 75
     0
147
1.0
148
0.0
149
0.0
100
AcDbLayout
  1
Model
 70
     1
 71
     0
 10
0.0
 20
0.0
 11
12.0
 21
9.0
 12
0.0
 22
0.0
 32
0.0
 14
24.6709787273737
 24
236.707298916
 34
0.0
 15
249.451185625334
 25
365.634794256077
 35
0.0
146
0.0
 13
0.0
 23
0.0
 33
0.0
 16
1.0
 26
0.0
 36
0.0
 17
0.0
 27
1.0
 37
0.0
 76
     0
330
1F
331
29
  0
MLINESTYLE
  5
18
102
{ACAD_REACTORS
330
17
102
}
330
17
100
AcDbMlineStyle
  2
Standard
 70
     0
  3

 62
   256
 51
90.0
 52
90.0
 71
     2
 49
0.5
 62
   256
  6
BYLAYER
 49
-0.5
 62
   256
  6
BYLAYER
  0
ACDBPLACEHOLDER
  5
F
102
{ACAD_REACTORS
330
E
102
}
330
E
  0
SCALE
  5
4B
102
{ACAD_REACTORS
330
4A
102
}
330
4A
100
AcDbScale
 70
     0
300
1:1
140
1.0
141
1.0
290
     1
  0
SCALE
  5
4C
102
{ACAD_REACTORS
330
4A
102
}
330
4A
100
AcDbScale
 70
     0
300
1:2
140
1.0
141
2.0
290
     0
  0
SCALE
  5
4D
102
{ACAD_REACTORS
330
4A
102
}
330
4A
100
AcDbScale
 70
     0
300
1:4
140
1.0
141
4.0
290
     0
  0
SCALE
  5
4E
102
{ACAD_REACTORS
330
4A
102
}
330
4A
100
AcDbScale
 70
     0
300
1:5
140
1.0
141
5.0
290
     0
  0
SCALE
  5
4F
102
{ACAD_REACTORS
330
4A
102
}
330
4A
100
AcDbScale
 70
     0
300
1:8
140
1.0
141
8.0
290
     0
  0
SCALE
  5
50
102
{ACAD_REACTORS
330
4A
102
}
330
4A
100
AcDbScale
 70
     0
300
1:10
140
1.0
141
10.0
290
     0
  0
SCALE
  5
51
102
{ACAD_REACTORS
330
4A
102
}
330
4A
100
AcDbScale
 70
     0
300
1:16
140
1.0
141
16.0
290
     0
  0
SCALE
  5
52
102
{ACAD_REACTORS
330
4A
102
}
330
4A
100
AcDbScale
 70
     0
300
1:20
140
1.0
141
20.0
290
     0
  0
SCALE
  5
53
102
{ACAD_REACTORS
330
4A
102
}
330
4A
100
AcDbScale
 70
     0
300
1:30
140
1.0
141
30.0
290
     0
  0
SCALE
  5
54
102
{ACAD_REACTORS
330
4A
102
}
330
4A
100
AcDbScale
 70
     0
300
1:40
140
1.0
141
40.0
290
     0
  0
SCALE
  5
55
102
{ACAD_REACTORS
330
4A
102
}
330
4A
100
AcDbScale
 70
     0
300
1:50
140
1.0
141
50.0
290
     0
  0
SCALE
  5
56
102
{ACAD_REACTORS
330
4A
102
}
330
4A
100
AcDbScale
 70
     0
300
1:100
140
1.0
141
100.0
290
     0
  0
SCALE
  5
57
102
{ACAD_REACTORS
330
4A
102
}
330
4A
100
AcDbScale
 70
     0
300
2:1
140
2.0
141
1.0
290
     0
  0
SCALE
  5
58
102
{ACAD_REACTORS
330
4A
102
}
330
4A
100
AcDbScale
 70
     0
300
4:1
140
4.0
141
1.0
290
     0
  0
SCALE
  5
59
102
{ACAD_REACTORS
330
4A
102
}
330
4A
100
AcDbScale
 70
     0
300
8:1
140
8.0
141
1.0
290
     0
  0
SCALE
  5
5A
102
{ACAD_REACTORS
330
4A
102
}
330
4A
100
AcDbScale
 70
     0
300
10:1
140
10.0
141
1.0
290
     0
  0
SCALE
  5
5B
102
{ACAD_REACTORS
330
4A
102
}
330
4A
100
AcDbScale
 70
     0
300
100:1
140
100.0
141
1.0
290
     0
  0
SCALE
  5
5C
102
{ACAD_REACTORS
330
4A
102
}
330
4A
100
AcDbScale
 70
     0
300
1/128" = 1'-0"
140
0.0078125
141
12.0
290
     0
  0
SCALE
  5
5D
102
{ACAD_REACTORS
330
4A
102
}
330
4A
100
AcDbScale
 70
     0
300
1/64" = 1'-0"
140
0.015625
141
12.0
290
     0
  0
SCALE
  5
5E
102
{ACAD_REACTORS
330
4A
102
}
330
4A
100
AcDbScale
 70
     0
300
1/32" = 1'-0"
140
0.03125
141
12.0
290
     0
  0
SCALE
  5
5F
102
{ACAD_REACTORS
330
4A
102
}
330
4A
100
AcDbScale
 70
     0
300
1/16" = 1'-0"
140
0.0625
141
12.0
290
     0
  0
SCALE
  5
60
102
{ACAD_REACTORS
330
4A
102
}
330
4A
100
AcDbScale
 70
     0
300
3/32" = 1'-0"
140
0.09375
141
12.0
290
     0
  0
SCALE
  5
61
102
{ACAD_REACTORS
330
4A
102
}
330
4A
100
AcDbScale
 70
     0
300
1/8" = 1'-0"
140
0.125
141
12.0
290
     0
  0
SCALE
  5
62
102
{ACAD_REACTORS
330
4A
102
}
330
4A
100
AcDbScale
 70
     0
300
3/16" = 1'-0"
140
0.1875
141
12.0
290
     0
  0
SCALE
  5
63
102
{ACAD_REACTORS
330
4A
102
}
330
4A
100
AcDbScale
 70
     0
300
1/4" = 1'-0"
140
0.25
141
12.0
290
     0
  0
SCALE
  5
64
102
{ACAD_REACTORS
330
4A
102
}
330
4A
100
AcDbScale
 70
     0
300
3/8" = 1'-0"
140
0.375
141
12.0
290
     0
  0
SCALE
  5
65
102
{ACAD_REACTORS
330
4A
102
}
330
4A
100
AcDbScale
 70
     0
300
1/2" = 1'-0"
140
0.5
141
12.0
290
     0
  0
SCALE
  5
66
102
{ACAD_REACTORS
330
4A
102
}
330
4A
100
AcDbScale
 70
     0
300
3/4" = 1'-0"
140
0.75
141
12.0
290
     0
  0
SCALE
  5
67
102
{ACAD_REACTORS
330
4A
102
}
330
4A
100
AcDbScale
 70
     0
300
1" = 1'-0"
140
1.0
141
12.0
290
     0
  0
SCALE
  5
68
102
{ACAD_REACTORS
330
4A
102
}
330
4A
100
AcDbScale
 70
     0
300
1-1/2" = 1'-0"
140
1.5
141
12.0
290
     0
  0
SCALE
  5
69
102
{ACAD_REACTORS
330
4A
102
}
330
4A
100
AcDbScale
 70
     0
300
3" = 1'-0"
140
3.0
141
12.0
290
     0
  0
SCALE
  5
6A
102
{ACAD_REACTORS
330
4A
102
}
330
4A
100
AcDbScale
 70
     0
300
6" = 1'-0"
140
6.0
141
12.0
290
     0
  0
SCALE
  5
6B
102
{ACAD_REACTORS
330
4A
102
}
330
4A
100
AcDbScale
 70
     0
300
1'-0" = 1'-0"
140
12.0
141
12.0
290
     0
  0
VISUALSTYLE
  5
2F
102
{ACAD_REACTORS
330
2A
102
}
330
2A
100
AcDbVisualStyle
  2
2dWireframe
 70
     4
 71
     0
 72
     2
 73
     0
 90
        0
 40
-0.6
 41
-30.0
 62
     5
 63
     7
 74
     1
 91
        4
 64
     7
 65
   257
 75
     1
175
     1
 42
1.0
 92
        0
 66
   257
 43
1.0
 76
     1
 77
     6
 78
     2
 67
     7
 79
     5
170
     0
171
     0
290
     0
174
     0
 93
        1
 44
0.0
173
     0
291
     0
 45
0.0
1001
ACAD
1000
AcDbSavedByObjectVersion
1070
     0
  0
VISUALSTYLE
  5
31
102
{ACAD_REACTORS
330
2A
102
}
330
2A
100
AcDbVisualStyle
  2
3D Hidden
 70
     6
 71
     1
 72
     2
 73
     2
 90
        0
 40
-0.6
 41
-30.0
 62
     5
 63
     7
 74
     2
 91
        2
 64
     7
 65
   257
 75
     2
175
     1
 42
40.0
 92
        0
 66
   257
 43
1.0
 76
     1
 77
     6
 78
     2
 67
     7
 79
     3
170
     0
171
     0
290
     0
174
     0
 93
        1
 44
0.0
173
     0
291
     0
 45
0.0
1001
ACAD
1000
AcDbSavedByObjectVersion
1070
     0
  0
VISUALSTYLE
  5
30
102
{ACAD_REACTORS
330
2A
102
}
330
2A
100
AcDbVisualStyle
  2
3dWireframe
 70
     5
 71
     0
 72
     2
 73
     0
 90
        0
 40
-0.6
 41
-30.0
 62
     5
 63
     7
 74
     1
 91
        4
 64
     7
 65
   257
 75
     1
175
     1
 42
1.0
 92
        0
 66
   257
 43
1.0
 76
     1
 77
     6
 78
     2
 67
     7
 79
     5
170
     0
171
     0
290
     0
174
     0
 93
        1
 44
0.0
173
     0
291
     0
 45
0.0
1001
ACAD
1000
AcDbSavedByObjectVersion
1070
     0
  0
VISUALSTYLE
  5
32
102
{ACAD_REACTORS
330
2A
102
}
330
2A
100
AcDbVisualStyle
  2
Basic
 70
     7
 71
     1
 72
     0
 73
     1
 90
        0
 40
-0.6
 41
-30.0
 62
     5
 63
     7
 74
     0
 91
        4
 64
     7
 65
   257
 75
     1
175
     1
 42
1.0
 92
        8
 66
     7
 43
1.0
 76
     1
 77
     6
 78
     2
 67
     7
 79
     5
170
     0
171
     0
290
     0
174
     0
 93
        1
 44
0.0
173
     0
291
     1
 45
0.0
1001
ACAD
1000
AcDbSavedByObjectVersion
1070
     0
  0
VISUALSTYLE
  5
36
102
{ACAD_REACTORS
330
2A
102
}
330
2A
100
AcDbVisualStyle
  2
Brighten
 70
    12
 71
     2
 72
     2
 73
     0
 90
        0
 40
-0.6
 41
-30.0
 62
     5
 63
     7
 74
     1
 91
        4
 64
     7
 65
   257
 75
     1
175
     1
 42
1.0
 92
        8
 66
     7
 43
1.0
 76
     1
 77
     6
 78
     2
 67
     7
 79
     5
170
     0
171
     0
290
     0
174
     0
 93
        1
 44
50.0
173
     0
291
     1
 45
0.0
1001
ACAD
1000
AcDbSavedByObjectVersion
1070
     0
  0
VISUALSTYLE
  5
3A
102
{ACAD_REACTORS
330
2A
102
}
330
2A
100
AcDbVisualStyle
  2
ColorChange
 70
    16
 71
     2
 72
     2
 73
     3
 90
        0
 40
-0.6
 41
-30.0
 62
     5
 63
     8
 74
     1
 91
        4
 64
     7
 65
   257
 75
     1
175
     1
 42
1.0
 92
        8
 66
     8
 43
1.0
 76
     1
 77
     6
 78
     2
 67
     7
 79
     5
170
     0
171
     0
290
     0
174
     0
 93
        1
 44
0.0
173
     0
291
     1
 45
0.0
1001
ACAD
1000
AcDbSavedByObjectVersion
1070
     0
  0
VISUALSTYLE
  5
34
102
{ACAD_REACTORS
330
2A
102
}
330
2A
100
AcDbVisualStyle
  2
Conceptual
 70
     9
 71
     3
 72
     2
 73
     0
 90
        0
 40
-0.6
 41
-30.0
 62
     5
 63
     7
 74
     2
 91
        2
 64
     7
 65
   257
 75
     1
175
     1
 42
40.0
 92
        8
 66
     7
 43
1.0
 76
     1
 77
     6
 78
     2
 67
     7
 79
     3
170
     0
171
     0
290
     0
174
     0
 93
        1
 44
0.0
173
     0
291
     0
 45
0.0
1001
ACAD
1000
AcDbSavedByObjectVersion
1070
     0
  0
VISUALSTYLE
  5
35
102
{ACAD_REACTORS
330
2A
102
}
330
2A
100
AcDbVisualStyle
  2
Dim
 70
    11
 71
     2
 72
     2
 73
     0
 90
        0
 40
-0.6
 41
-30.0
 62
     5
 63
     7
 74
     1
 91
        4
 64
     7
 65
   257
 75
     1
175
     1
 42
1.0
 92
        8
 66
     7
 43
1.0
 76
     1
 77
     6
 78
     2
 67
     7
 79
     5
170
     0
171
     0
290
     0
174
     0
 93
        1
 44
-50.0
173
     0
291
     1
 45
0.0
1001
ACAD
1000
AcDbSavedByObjectVersion
1070
     0
  0
VISUALSTYLE
  5
39
102
{ACAD_REACTORS
330
2A
102
}
330
2A
100
AcDbVisualStyle
  2
Facepattern
 70
    15
 71
     2
 72
     2
 73
     0
 90
        0
 40
-0.6
 41
-30.0
 62
     5
 63
     7
 74
     1
 91
        4
 64
     7
 65
   257
 75
     1
175
     1
 42
1.0
 92
        8
 66
     7
 43
1.0
 76
     1
 77
     6
 78
     2
 67
     7
 79
     5
170
     0
171
     0
290
     0
174
     0
 93
        1
 44
0.0
173
     0
291
     1
 45
0.0
1001
ACAD
1000
AcDbSavedByObjectVersion
1070
     0
  0
VISUALSTYLE
  5
2B
102
{ACAD_REACTORS
330
2A
102
}
330
2A
100
AcDbVisualStyle
  2
Flat
 70
     0
 71
     2
 72
     1
 73
     1
 90
        2
 40
-0.6
 41
30.0
 62
     5
 63
     7
 74
     0
 91
        4
 64
     7
 65
   257
 75
     1
175
     1
 42
1.0
 92
        8
 66
     7
 43
1.0
 76
     1
 77
     6
 78
     2
 67
     7
 79
     5
170
     0
171
     0
290
     0
174
     0
 93
       13
 44
0.0
173
     0
291
     1
 45
0.0
1001
ACAD
1000
AcDbSavedByObjectVersion
1070
     0
  0
VISUALSTYLE
  5
2C
102
{ACAD_REACTORS
330
2A
102
}
330
2A
100
AcDbVisualStyle
  2
FlatWithEdges
 70
     1
 71
     2
 72
     1
 73
     1
 90
        2
 40
-0.6
 41
30.0
 62
     5
 63
     7
 74
     1
 91
        4
 64
     7
 65
   257
 75
     1
175
     1
 42
1.0
 92
        0
 66
   257
 43
1.0
 76
     1
 77
     6
 78
     2
 67
     7
 79
     5
170
     0
171
     0
290
     0
174
     0
 93
       13
 44
0.0
173
     0
291
     1
 45
0.0
1001
ACAD
1000
AcDbSavedByObjectVersion
1070
     0
  0
VISUALSTYLE
  5
2D
102
{ACAD_REACTORS
330
2A
102
}
330
2A
100
AcDbVisualStyle
  2
Gouraud
 70
     2
 71
     2
 72
     2
 73
     1
 90
        2
 40
-0.6
 41
30.0
 62
     5
 63
     7
 74
     0
 91
        4
 64
     7
 65
   257
 75
     1
175
     1
 42
1.0
 92
        0
 66
     7
 43
1.0
 76
     1
 77
     6
 78
     2
 67
     7
 79
     5
170
     0
171
     0
290
     0
174
     0
 93
       13
 44
0.0
173
     0
291
     1
 45
0.0
1001
ACAD
1000
AcDbSavedByObjectVersion
1070
     0
  0
VISUALSTYLE
  5
2E
102
{ACAD_REACTORS
330
2A
102
}
330
2A
100
AcDbVisualStyle
  2
GouraudWithEdges
 70
     3
 71
     2
 72
     2
 73
     1
 90
        2
 40
-0.6
 41
30.0
 62
     5
 63
     7
 74
     1
 91
        4
 64
     7
 65
   257
 75
     1
175
     1
 42
1.0
 92
        0
 66
   257
 43
1.0
 76
     1
 77
     6
 78
     2
 67
     7
 79
     5
170
     0
171
     0
290
     0
174
     0
 93
       13
 44
0.0
173
     0
291
     1
 45
0.0
1001
ACAD
1000
AcDbSavedByObjectVersion
1070
     0
  0
VISUALSTYLE
  5
38
102
{ACAD_REACTORS
330
2A
102
}
330
2A
100
AcDbVisualStyle
  2
Linepattern
 70
    14
 71
     2
 72
     2
 73
     0
 90
        0
 40
-0.6
 41
-30.0
 62
     5
 63
     7
 74
     1
 91
        4
 64
     7
 65
   257
 75
     7
175
     7
 42
1.0
 92
        8
 66
     7
 43
1.0
 76
     1
 77
     6
 78
     2
 67
     7
 79
     5
170
     0
171
     0
290
     0
174
     0
 93
        1
 44
0.0
173
     0
291
     1
 45
0.0
1001
ACAD
1000
AcDbSavedByObjectVersion
1070
     0
  0
VISUALSTYLE
  5
33
102
{ACAD_REACTORS
330
2A
102
}
330
2A
100
AcDbVisualStyle
  2
Realistic
 70
     8
 71
     2
 72
     2
 73
     0
 90
        0
 40
-0.6
 41
-30.0
 62
     5
 63
     7
 74
     1
 91
        0
 64
     7
 65
   257
 75
     1
175
     1
 42
1.0
 92
        8
 66
     8
 43
1.0
 76
     1
 77
     6
 78
     2
 67
     7
 79
     5
170
     0
171
     0
290
     0
174
     0
 93
       13
 44
0.0
173
     0
291
     0
 45
0.0
1001
ACAD
1000
AcDbSavedByObjectVersion
1070
     0
  0
VISUALSTYLE
  5
37
102
{ACAD_REACTORS
330
2A
102
}
330
2A
100
AcDbVisualStyle
  2
Thicken
 70
    13
 71
     2
 72
     2
 73
     0
 90
        0
 40
-0.6
 41
-30.0
 62
     5
 63
     7
 74
     1
 91
        4
 64
     7
 65
   257
 75
     1
175
     1
 42
1.0
 92
       12
 66
     7
 43
1.0
 76
     1
 77
     6
 78
     2
 67
     7
 79
     5
170
     0
171
     0
290
     0
174
     0
 93
        1
 44
0.0
173
     0
291
     1
 45
0.0
1001
ACAD
1000
AcDbSavedByObjectVersion
1070
     0
  0
DICTIONARYVAR
  5
154
102
{ACAD_REACTORS
330
151
102
}
330
151
100
DictionaryVariables
280
     0
  1
1:1
  0
ENDSEC
  0
EOF
