  0
SECTION
  2
HEADER
  9
$ACADVER
  1
AC1015
  9
$ACADMAINTVER
 70
     6
  9
$DWGCODEPAGE
  3
ANSI_1252
  9
$INSBASE
 10
0.0
 20
0.0
 30
0.0
  9
$EXTMIN
 10
43.72311407992291
 20
254.8662906099
 30
0.0
  9
$EXTMAX
 10
262.096248663649
 20
382.332400532651
 30
0.0
  9
$LIMMIN
 10
0.0
 20
0.0
  9
$LIMMAX
 10
12.0
 20
9.0
  9
$ORTHOMODE
 70
     0
  9
$REGENMODE
 70
     1
  9
$FILLMODE
 70
     1
  9
$QTEXTMODE
 70
     0
  9
$MIRRTEXT
 70
     1
  9
$LTSCALE
 40
1.0
  9
$ATTMODE
 70
     1
  9
$TEXTSIZE
 40
0.2
  9
$TRACEWID
 40
0.05
  9
$TEXTSTYLE
  7
Standard
  9
$CLAYER
  8
0
  9
$CELTYPE
  6
ByLayer
  9
$CECOLOR
 62
   256
  9
$CELTSCALE
 40
1.0
  9
$DISPSILH
 70
     0
  9
$DIMSCALE
 40
1.0
  9
$DIMASZ
 40
0.18
  9
$DIMEXO
 40
0.0625
  9
$DIMDLI
 40
0.38
  9
$DIMRND
 40
0.0
  9
$DIMDLE
 40
0.0
  9
$DIMEXE
 40
0.18
  9
$DIMTP
 40
0.0
  9
$DIMTM
 40
0.0
  9
$DIMTXT
 40
0.18
  9
$DIMCEN
 40
0.09
  9
$DIMTSZ
 40
0.0
  9
$DIMTOL
 70
     0
  9
$DIMLIM
 70
     0
  9
$DIMTIH
 70
     1
  9
$DIMTOH
 70
     1
  9
$DIMSE1
 70
     0
  9
$DIMSE2
 70
     0
  9
$DIMTAD
 70
     0
  9
$DIMZIN
 70
     0
  9
$DIMBLK
  1

  9
$DIMASO
 70
     1
  9
$DIMSHO
 70
     1
  9
$DIMPOST
  1

  9
$DIMAPOST
  1

  9
$DIMALT
 70
     0
  9
$DIMALTD
 70
     2
  9
$DIMALTF
 40
25.4
  9
$DIMLFAC
 40
1.0
  9
$DIMTOFL
 70
     0
  9
$DIMTVP
 40
0.0
  9
$DIMTIX
 70
     0
  9
$DIMSOXD
 70
     0
  9
$DIMSAH
 70
     0
  9
$DIMBLK1
  1

  9
$DIMBLK2
  1

  9
$DIMSTYLE
  2
Standard
  9
$DIMCLRD
 70
     0
  9
$DIMCLRE
 70
     0
  9
$DIMCLRT
 70
     0
  9
$DIMTFAC
 40
1.0
  9
$DIMGAP
 40
0.09
  9
$DIMJUST
 70
     0
  9
$DIMSD1
 70
     0
  9
$DIMSD2
 70
     0
  9
$DIMTOLJ
 70
     1
  9
$DIMTZIN
 70
     0
  9
$DIMALTZ
 70
     0
  9
$DIMALTTZ
 70
     0
  9
$DIMUPT
 70
     0
  9
$DIMDEC
 70
     4
  9
$DIMTDEC
 70
     4
  9
$DIMALTU
 70
     2
  9
$DIMALTTD
 70
     2
  9
$DIMTXSTY
  7
Standard
  9
$DIMAUNIT
 70
     0
  9
$DIMADEC
 70
     0
  9
$DIMALTRND
 40
0.0
  9
$DIMAZIN
 70
     0
  9
$DIMDSEP
 70
    46
  9
$DIMATFIT
 70
     3
  9
$DIMFRAC
 70
     0
  9
$DIMLDRBLK
  1

  9
$DIMLUNIT
 70
     2
  9
$DIMLWD
 70
    -2
  9
$DIMLWE
 70
    -2
  9
$DIMTMOVE
 70
     0
  9
$LUNITS
 70
     2
  9
$LUPREC
 70
     4
  9
$SKETCHINC
 40
0.1
  9
$FILLETRAD
 40
0.5
  9
$AUNITS
 70
     0
  9
$AUPREC
 70
     0
  9
$MENU
  1
.
  9
$ELEVATION
 40
0.0
  9
$PELEVATION
 40
0.0
  9
$THICKNESS
 40
0.0
  9
$LIMCHECK
 70
     0
  9
$CHAMFERA
 40
0.5
  9
$CHAMFERB
 40
0.5
  9
$CHAMFERC
 40
1.0
  9
$CHAMFERD
 40
0.0
  9
$SKPOLY
 70
     0
  9
$TDCREATE
 40
2456748.731490127
  9
$TDUCREATE
 40
2456748.648156794
  9
$TDUPDATE
 40
2456748.731490139
  9
$TDUUPDATE
 40
2456748.648156805
  9
$TDINDWG
 40
0.0000000116
  9
$TDUSRTIMER
 40
0.0000000116
  9
$USRTIMER
 70
     1
  9
$ANGBASE
 50
0.0
  9
$ANGDIR
 70
     0
  9
$PDMODE
 70
     0
  9
$PDSIZE
 40
0.0
  9
$PLINEWID
 40
0.0
  9
$SPLFRAME
 70
     0
  9
$SPLINETYPE
 70
     6
  9
$SPLINESEGS
 70
     8
  9
$HANDSEED
  5
155
  9
$SURFTAB1
 70
     6
  9
$SURFTAB2
 70
     6
  9
$SURFTYPE
 70
     6
  9
$SURFU
 70
     6
  9
$SURFV
 70
     6
  9
$UCSBASE
  2

  9
$UCSNAME
  2

  9
$UCSORG
 10
0.0
 20
0.0
 30
0.0
  9
$UCSXDIR
 10
1.0
 20
0.0
 30
0.0
  9
$UCSYDIR
 10
0.0
 20
1.0
 30
0.0
  9
$UCSORTHOREF
  2

  9
$UCSORTHOVIEW
 70
     0
  9
$UCSORGTOP
 10
0.0
 20
0.0
 30
0.0
  9
$UCSORGBOTTOM
 10
0.0
 20
0.0
 30
0.0
  9
$UCSORGLEFT
 10
0.0
 20
0.0
 30
0.0
  9
$UCSORGRIGHT
 10
0.0
 20
0.0
 30
0.0
  9
$UCSORGFRONT
 10
0.0
 20
0.0
 30
0.0
  9
$UCSORGBACK
 10
0.0
 20
0.0
 30
0.0
  9
$PUCSBASE
  2

  9
$PUCSNAME
  2

  9
$PUCSORG
 10
0.0
 20
0.0
 30
0.0
  9
$PUCSXDIR
 10
1.0
 20
0.0
 30
0.0
  9
$PUCSYDIR
 10
0.0
 20
1.0
 30
0.0
  9
$PUCSORTHOREF
  2

  9
$PUCSORTHOVIEW
 70
     0
  9
$PUCSORGTOP
 10
0.0
 20
0.0
 30
0.0
  9
$PUCSORGBOTTOM
 10
0.0
 20
0.0
 30
0.0
  9
$PUCSORGLEFT
 10
0.0
 20
0.0
 30
0.0
  9
$PUCSORGRIGHT
 10
0.0
 20
0.0
 30
0.0
  9
$PUCSORGFRONT
 10
0.0
 20
0.0
 30
0.0
  9
$PUCSORGBACK
 10
0.0
 20
0.0
 30
0.0
  9
$USERI1
 70
     0
  9
$USERI2
 70
     0
  9
$USERI3
 70
     0
  9
$USERI4
 70
     0
  9
$USERI5
 70
     0
  9
$USERR1
 40
16.5
  9
$USERR2
 40
0.0
  9
$USERR3
 40
0.0
  9
$USERR4
 40
0.0
  9
$USERR5
 40
0.0
  9
$WORLDVIEW
 70
     1
  9
$SHADEDGE
 70
     3
  9
$SHADEDIF
 70
    70
  9
$TILEMODE
 70
     1
  9
$MAXACTVP
 70
    64
  9
$PINSBASE
 10
0.0
 20
0.0
 30
0.0
  9
$PLIMCHECK
 70
     0
  9
$PEXTMIN
 10
1.00000000000000E+20
 20
1.00000000000000E+20
 30
1.00000000000000E+20
  9
$PEXTMAX
 10
-1.00000000000000E+20
 20
-1.00000000000000E+20
 30
-1.00000000000000E+20
  9
$PLIMMIN
 10
0.0
 20
0.0
  9
$PLIMMAX
 10
12.0
 20
9.0
  9
$UNITMODE
 70
     0
  9
$VISRETAIN
 70
     1
  9
$PLINEGEN
 70
     0
  9
$PSLTSCALE
 70
     1
  9
$TREEDEPTH
 70
  3020
  9
$CMLSTYLE
  2
Standard
  9
$CMLJUST
 70
     0
  9
$CMLSCALE
 40
1.0
  9
$PROXYGRAPHICS
 70
     1
  9
$MEASUREMENT
 70
     1
  9
$CELWEIGHT
370
    -1
  9
$ENDCAPS
280
     0
  9
$JOINSTYLE
280
     0
  9
$LWDISPLAY
290
     0
  9
$INSUNITS
 70
     1
  9
$HYPERLINKBASE
  1

  9
$STYLESHEET
  1

  9
$XEDIT
290
     1
  9
$CEPSNTYPE
380
     0
  9
$PSTYLEMODE
290
     1
  9
$FINGERPRINTGUID
  2
{9A1029E1-8BE3-4449-9C16-B5D2A5A1B276}
  9
$VERSIONGUID
  2
{FAEB1C32-E019-11D5-929B-00C0DF256EC4}
  9
$EXTNAMES
290
     1
  9
$PSVPSCALE
 40
0.0
  9
$OLESTARTUP
290
     0
  0
ENDSEC
  0
SECTION
  2
CLASSES
  0
CLASS
  1
ACDBDICTIONARYWDFLT
  2
AcDbDictionaryWithDefault
  3
ObjectDBX Classes
 90
        0
280
     0
281
     0
  0
CLASS
  1
VISUALSTYLE
  2
AcDbVisualStyle
  3
ObjectDBX Classes
 90
     4095
280
     0
281
     0
  0
CLASS
  1
SCALE
  2
AcDbScale
  3
ObjectDBX Classes
 90
     1153
280
     0
281
     0
  0
CLASS
  1

  2
exOdDbPolyline
  3

 90
        0
280
     0
281
     1
  0
CLASS
  1

  2
exOdDbCircle
  3

 90
        0
280
     0
281
     1
  0
CLASS
  1

  2
exOdDbSpline
  3

 90
        0
280
     0
281
     1
  0
CLASS
  1
DICTIONARYVAR
  2
AcDbDictionaryVar
  3
ObjectDBX Classes
 90
        0
280
     0
281
     0
  0
CLASS
  1
ACDBPLACEHOLDER
  2
AcDbPlaceHolder
  3
ObjectDBX Classes
 90
        0
280
     0
281
     0
  0
CLASS
  1
LAYOUT
  2
AcDbLayout
  3
ObjectDBX Classes
 90
        0
280
     0
281
     0
  0
ENDSEC
  0
SECTION
  2
TABLES
  0
TABLE
  2
VPORT
  5
8
330
0
100
AcDbSymbolTable
 70
     1
  0
VPORT
  5
29
330
8
100
AcDbSymbolTableRecord
100
AcDbViewportTableRecord
  2
*Active
 70
     0
 10
0.0
 20
0.0
 11
1.0
 21
1.0
 12
152.909681371786
 22
318.5993455712755
 13
0.0
 23
0.0
 14
0.5
 24
0.5
 15
0.5
 25
0.5
 16
0.0
 26
0.0
 36
1.0
 17
0.0
 27
0.0
 37
0.0
 40
149.8806138201396
 41
1.60267857142857
 42
50.0
 43
0.0
 44
0.0
 50
0.0
 51
0.0
 71
     0
 72
   100
 73
     1
 74
     3
 75
     0
 76
     0
 77
     0
 78
     0
281
     0
 65
     1
110
0.0
120
0.0
130
0.0
111
1.0
121
0.0
131
0.0
112
0.0
122
1.0
132
0.0
 79
     0
146
0.0
  0
ENDTAB
  0
TABLE
  2
LTYPE
  5
5
330
0
100
AcDbSymbolTable
 70
     8
  0
LTYPE
  5
14
330
5
100
AcDbSymbolTableRecord
100
AcDbLinetypeTableRecord
  2
ByBlock
 70
     0
  3

 72
    65
 73
     0
 40
0.0
  0
LTYPE
  5
15
330
5
100
AcDbSymbolTableRecord
100
AcDbLinetypeTableRecord
  2
ByLayer
 70
     0
  3

 72
    65
 73
     0
 40
0.0
  0
LTYPE
  5
16
330
5
100
AcDbSymbolTableRecord
100
AcDbLinetypeTableRecord
  2
Continuous
 70
     0
  3
Solid line
 72
    65
 73
     0
 40
0.0
  0
LTYPE
  5
3B
330
5
100
AcDbSymbolTableRecord
100
AcDbLinetypeTableRecord
  2
DASHED
 70
     0
  3
Dashed
 72
    65
 73
     2
 40
15.0
 49
7.0
 74
     0
 49
-8.0
 74
     0
  0
LTYPE
  5
3C
330
5
100
AcDbSymbolTableRecord
100
AcDbLinetypeTableRecord
  2
DOTTED
 70
     0
  3
Dotted
 72
    65
 73
     2
 40
1.0
 49
0.0
 74
     0
 49
-1.0
 74
     0
  0
LTYPE
  5
3D
330
5
100
AcDbSymbolTableRecord
100
AcDbLinetypeTableRecord
  2
DOT_CENTER
 70
     0
  3
Dot_Center
 72
    65
 73
     4
 40
14.0
 49
12.0
 74
     0
 49
-1.0
 74
     0
 49
0.0
 74
     0
 49
-1.0
 74
     0
  0
LTYPE
  5
3E
330
5
100
AcDbSymbolTableRecord
100
AcDbLinetypeTableRecord
  2
LONG_DASHED
 70
     0
  3
Long_Dashed
 72
    65
 73
     2
 40
15.0
 49
10.0
 74
     0
 49
-5.0
 74
     0
  0
LTYPE
  5
3F
330
5
100
AcDbSymbolTableRecord
100
AcDbLinetypeTableRecord
  2
DASH_CENTER
 70
     0
  3
Dash_Center
 72
    65
 73
     4
 40
14.0
 49
11.0
 74
     0
 49
-1.0
 74
     0
 49
1.0
 74
     0
 49
-1.0
 74
     0
  0
LTYPE
  5
40
330
5
100
AcDbSymbolTableRecord
100
AcDbLinetypeTableRecord
  2
PHANTOM
 70
     0
  3
Phantom
 72
    65
 73
     6
 40
13.0
 49
10.0
 74
     0
 49
-1.0
 74
     0
 49
0.0
 74
     0
 49
-1.0
 74
     0
 49
0.0
 74
     0
 49
-1.0
 74
     0
  0
LTYPE
  5
41
330
5
100
AcDbSymbolTableRecord
100
AcDbLinetypeTableRecord
  2
CENTER_DASH_DASH
 70
     0
  3
Center_Dash_Dash
 72
    65
 73
     6
 40
14.0
 49
9.0
 74
     0
 49
-1.0
 74
     0
 49
1.0
 74
     0
 49
-1.0
 74
     0
 49
1.0
 74
     0
 49
-1.0
 74
     0
  0
ENDTAB
  0
TABLE
  2
LAYER
  5
2
330
0
100
AcDbSymbolTable
 70
     6
  0
LAYER
  5
10
330
2
100
AcDbSymbolTableRecord
100
AcDbLayerTableRecord
  2
0
 70
     0
 62
     7
  6
Continuous
370
    -3
390
F
  0
LAYER
  5
42
330
2
100
AcDbSymbolTableRecord
100
AcDbLayerTableRecord
  2
1
 70
     0
 62
     7
  6
Continuous
370
    -3
390
F
  0
LAYER
  5
43
330
2
100
AcDbSymbolTableRecord
100
AcDbLayerTableRecord
  2
BEZUGSACHSEN
 70
     0
 62
     7
  6
Continuous
370
    -3
390
F
  0
LAYER
  5
44
330
2
100
AcDbSymbolTableRecord
100
AcDbLayerTableRecord
  2
DEFAULT_2
 70
     0
 62
     7
  6
Continuous
370
    -3
390
F
  0
LAYER
  5
45
330
2
100
AcDbSymbolTableRecord
100
AcDbLayerTableRecord
  2
FASEN
 70
     0
 62
     7
  6
Continuous
370
    -3
390
F
  0
LAYER
  5
46
330
2
100
AcDbSymbolTableRecord
100
AcDbLayerTableRecord
  2
RUNDUNGEN
 70
     0
 62
     7
  6
Continuous
370
    -3
390
F
  0
ENDTAB
  0
TABLE
  2
STYLE
  5
3
330
0
100
AcDbSymbolTable
 70
     2
  0
STYLE
  5
11
330
3
100
AcDbSymbolTableRecord
100
AcDbTextStyleTableRecord
  2
Standard
 70
     0
 40
0.0
 41
1.0
 50
0.0
 71
     0
 42
0.2
  3
txt
  4

  0
STYLE
  5
6D
330
3
100
AcDbSymbolTableRecord
100
AcDbTextStyleTableRecord
  2
CONVERTER_11
 70
     0
 40
0.0
 41
0.72
 50
0.0
 71
     0
 42
0.2
  3
txt.shx
  4

  0
ENDTAB
  0
TABLE
  2
VIEW
  5
6
330
0
100
AcDbSymbolTable
 70
     0
  0
ENDTAB
  0
TABLE
  2
UCS
  5
7
330
0
100
AcDbSymbolTable
 70
     0
  0
ENDTAB
  0
TABLE
  2
APPID
  5
9
330
0
100
AcDbSymbolTable
 70
     1
  0
APPID
  5
12
330
9
100
AcDbSymbolTableRecord
100
AcDbRegAppTableRecord
  2
ACAD
 70
     0
  0
ENDTAB
  0
TABLE
  2
DIMSTYLE
  5
A
330
0
100
AcDbSymbolTable
 70
     8
100
AcDbDimStyleTable
  0
DIMSTYLE
105
27
330
A
100
AcDbSymbolTableRecord
100
AcDbDimStyleTableRecord
  2
Standard
 70
     0
340
11
  0
DIMSTYLE
105
106
102
{ACAD_REACTORS
330
107
102
}
330
A
100
AcDbSymbolTableRecord
100
AcDbDimStyleTableRecord
  2
ME10_DIM_10
 70
     0
  3
\U+2300<>
 41
3.5
 42
2.0
 44
2.0
 71
     1
 73
     0
 74
     0
 77
     1
 78
     8
140
3.5
146
0.7
147
2.0
172
     1
173
     1
176
     2
177
     2
178
     3
271
     2
272
     0
340
6D
  0
DIMSTYLE
105
111
102
{ACAD_REACTORS
330
112
102
}
330
A
100
AcDbSymbolTableRecord
100
AcDbDimStyleTableRecord
  2
ME10_DIM_11
 70
     0
  3
\U+2300<>
 41
3.5
 42
2.0
 44
2.0
 71
     1
 73
     0
 74
     0
 77
     1
 78
     8
140
3.5
146
0.7
147
2.0
172
     1
173
     1
176
     2
177
     2
178
     3
271
     2
272
     0
340
6D
  0
DIMSTYLE
105
11C
102
{ACAD_REACTORS
330
11D
102
}
330
A
100
AcDbSymbolTableRecord
100
AcDbDimStyleTableRecord
  2
ME10_DIM_12
 70
     0
  3
\U+2300<>
 41
3.5
 42
2.0
 44
2.0
 71
     1
 73
     0
 74
     0
 77
     1
 78
     8
140
3.5
146
0.7
147
2.0
172
     1
173
     1
176
     2
177
     2
178
     3
271
     2
272
     0
340
6D
  0
DIMSTYLE
105
127
102
{ACAD_REACTORS
330
128
102
}
330
A
100
AcDbSymbolTableRecord
100
AcDbDimStyleTableRecord
  2
ME10_DIM_13
 70
     0
  3
<>
 41
3.5
 42
2.0
 44
2.0
 71
     1
 73
     0
 74
     0
 77
     1
 78
     8
140
3.5
146
0.7
147
2.0
172
     1
173
     1
176
     2
177
     2
178
     3
271
     2
272
     0
340
6D
  0
DIMSTYLE
105
132
102
{ACAD_REACTORS
330
133
102
}
330
A
100
AcDbSymbolTableRecord
100
AcDbDimStyleTableRecord
  2
ME10_DIM_14
 70
     0
  3
<>
 41
3.5
 42
2.0
 44
2.0
 71
     1
 73
     0
 74
     0
 77
     1
 78
     8
140
3.5
146
0.7
147
2.0
172
     1
173
     1
176
     2
177
     2
178
     3
271
     2
272
     0
340
6D
  0
DIMSTYLE
105
13D
102
{ACAD_REACTORS
330
13E
102
}
330
A
100
AcDbSymbolTableRecord
100
AcDbDimStyleTableRecord
  2
ME10_DIM_15
 70
     0
  3
<>
 41
3.5
 42
2.0
 44
2.0
 71
     1
 73
     0
 74
     0
 77
     1
 78
     8
140
3.5
146
0.7
147
2.0
172
     1
173
     1
176
     2
177
     2
178
     3
271
     2
272
     0
340
6D
  0
DIMSTYLE
105
14F
102
{ACAD_REACTORS
330
150
102
}
330
A
100
AcDbSymbolTableRecord
100
AcDbDimStyleTableRecord
  2
ME10_DIM_16
 70
     0
  3
<>
 41
3.5
 42
2.0
 44
2.0
 71
     1
 73
     0
 74
     0
 77
     1
 78
     8
140
3.5
146
0.7
147
2.0
172
     1
173
     1
176
     2
177
     2
178
     3
271
     2
272
     0
340
6D
  0
ENDTAB
  0
TABLE
  2
BLOCK_RECORD
  5
1
330
0
100
AcDbSymbolTable
 70
    10
  0
BLOCK_RECORD
  5
1F
330
1
100
AcDbSymbolTableRecord
100
AcDbBlockTableRecord
  2
*Model_Space
340
22
  0
BLOCK_RECORD
  5
1B
330
1
100
AcDbSymbolTableRecord
100
AcDbBlockTableRecord
  2
*Paper_Space
340
1E
  0
BLOCK_RECORD
  5
23
330
1
100
AcDbSymbolTableRecord
100
AcDbBlockTableRecord
  2
*Paper_Space0
340
26
  0
BLOCK_RECORD
  5
47
330
1
100
AcDbSymbolTableRecord
100
AcDbBlockTableRecord
  2
Urheberrecht_DE-EN
340
0
102
{BLKREFS
331
6C
102
}
  0
BLOCK_RECORD
  5
FD
330
1
100
AcDbSymbolTableRecord
100
AcDbBlockTableRecord
  2
*D2
340
0
  0
BLOCK_RECORD
  5
108
330
1
100
AcDbSymbolTableRecord
100
AcDbBlockTableRecord
  2
*D3
340
0
  0
BLOCK_RECORD
  5
113
330
1
100
AcDbSymbolTableRecord
100
AcDbBlockTableRecord
  2
*D4
340
0
  0
BLOCK_RECORD
  5
11E
330
1
100
AcDbSymbolTableRecord
100
AcDbBlockTableRecord
  2
*D5
340
0
  0
BLOCK_RECORD
  5
129
330
1
100
AcDbSymbolTableRecord
100
AcDbBlockTableRecord
  2
*D6
340
0
  0
BLOCK_RECORD
  5
134
330
1
100
AcDbSymbolTableRecord
100
AcDbBlockTableRecord
  2
*D7
340
0
  0
BLOCK_RECORD
  5
13F
330
1
100
AcDbSymbolTableRecord
100
AcDbBlockTableRecord
  2
*D8
340
0
102
{BLKREFS
331
145
102
}
  0
BLOCK_RECORD
  5
146
330
1
100
AcDbSymbolTableRecord
100
AcDbBlockTableRecord
  2
*D9
340
0
  0
ENDTAB
  0
ENDSEC
  0
SECTION
  2
BLOCKS
  0
BLOCK
  5
20
330
1F
100
AcDbEntity
  8
0
100
AcDbBlockBegin
  2
*Model_Space
 70
     0
 10
0.0
 20
0.0
 30
0.0
  3
*Model_Space
  1

  0
ENDBLK
  5
21
330
1F
100
AcDbEntity
  8
0
100
AcDbBlockEnd
  0
BLOCK
  5
1C
330
1B
100
AcDbEntity
 67
     1
  8
0
100
AcDbBlockBegin
  2
*Paper_Space
 70
     0
 10
0.0
 20
0.0
 30
0.0
  3
*Paper_Space
  1

  0
ENDBLK
  5
1D
330
1B
100
AcDbEntity
 67
     1
  8
0
100
AcDbBlockEnd
  0
BLOCK
  5
24
330
23
100
AcDbEntity
  8
0
100
AcDbBlockBegin
  2
*Paper_Space0
 70
     0
 10
0.0
 20
0.0
 30
0.0
  3
*Paper_Space0
  1

  0
ENDBLK
  5
25
330
23
100
AcDbEntity
  8
0
100
AcDbBlockEnd
  0
BLOCK
  5
48
330
47
100
AcDbEntity
  8
0
100
AcDbBlockBegin
  2
Urheberrecht_DE-EN
 70
     0
 10
57.72311407992291
 20
317.263538324235
 30
0.0
  3
Urheberrecht_DE-EN
  1

  0
MTEXT
  5
6E
330
47
100
AcDbEntity
  8
1
 62
     1
100
AcDbMText
 10
57.72311407992291
 20
317.263538324235
 30
0.0
 40
2.0
 41
0.0
 71
     7
 72
     1
  1
We own the copyright of this document. It \Pdetermined and may neither be copied or \Pmade accessible to outsiders without our\Ppermission.
  7
CONVERTER_11
 11
0.0
 21
1.0
 31
0.0
 73
     1
 44
0.90036014405762
  0
MTEXT
  5
6F
330
47
100
AcDbEntity
  8
1
 62
     1
100
AcDbMText
 10
57.72311407992291
 20
260.9741514069288
 30
0.0
 40
2.0
 41
0.0
 71
     7
 72
     1
  1
F\U+00fcr diese Unterlage behalten wir das Ur-\Pheberrecht. Sie darf nur f\U+00fcr den von uns \Pbestimmten Zweck benutzt und ohne unsere \PZustimmung weder vervielf\U+00e4ltigt noch\PDritten zug\U+00e4nglich gemacht werden.
  7
CONVERTER_11
 11
0.0
 21
1.0
 31
0.0
 73
     1
 44
0.90036014405762
  0
ENDBLK
  5
49
330
47
100
AcDbEntity
  8
0
100
AcDbBlockEnd
  0
BLOCK
  5
104
330
FD
100
AcDbEntity
  8
0
100
AcDbBlockBegin
  2
*D2
 70
     1
 10
0.0
 20
0.0
 30
0.0
  3
*D2
  1

  0
LINE
  5
FE
330
FD
100
AcDbEntity
  8
1
  6
Continuous
 62
     2
100
AcDbLine
 10
243.352568475338
 20
317.3662906099
 30
0.0
 11
243.352568475338
 21
292.3662906099
 31
0.0
  0
LINE
  5
FF
330
FD
100
AcDbEntity
  8
1
  6
Continuous
 62
     2
100
AcDbLine
 10
232.9899386878
 20
317.3662906099
 30
0.0
 11
245.352568475338
 21
317.3662906099
 31
0.0
  0
LINE
  5
100
330
FD
100
AcDbEntity
  8
1
  6
Continuous
 62
     2
100
AcDbLine
 10
232.9899386878
 20
292.3662906099
 30
0.0
 11
245.352568475338
 21
292.3662906099
 31
0.0
  0
SOLID
  5
101
330
FD
100
AcDbEntity
  8
1
 62
     2
100
AcDbTrace
 10
243.8133522168939
 20
313.8662906099
 30
0.0
 11
242.8917847337821
 21
313.8662906099
 31
0.0
 12
243.352568475338
 22
317.3662906099
 32
0.0
 13
243.352568475338
 23
317.3662906099
 33
0.0
  0
SOLID
  5
102
330
FD
100
AcDbEntity
  8
1
 62
     2
100
AcDbTrace
 10
242.8917847337821
 20
295.8662906099
 30
0.0
 11
243.8133522168939
 21
295.8662906099
 31
0.0
 12
243.352568475338
 22
292.3662906099
 32
0.0
 13
243.352568475338
 23
292.3662906099
 33
0.0
  0
MTEXT
  5
103
330
FD
100
AcDbEntity
  8
1
 62
     3
100
AcDbMText
 10
241.352568475338
 20
296.494765882552
 30
0.0
 40
3.5
 41
0.0
 71
     7
 72
     1
  1
\C3;%%c\C3;\C3;25\C2;\H2.45;\S^ ;\C3;
  7
CONVERTER_11
 11
0.0
 21
1.0
 31
0.0
 73
     1
 44
0.60024009603842
  0
ENDBLK
  5
105
330
FD
100
AcDbEntity
  8
0
100
AcDbBlockEnd
  0
BLOCK
  5
10F
330
108
100
AcDbEntity
  8
0
100
AcDbBlockBegin
  2
*D3
 70
     1
 10
0.0
 20
0.0
 30
0.0
  3
*D3
  1

  0
LINE
  5
109
330
108
100
AcDbEntity
  8
1
  6
Continuous
 62
     2
100
AcDbLine
 10
251.402414719718
 20
326.8662906099466
 30
0.0
 11
251.402414719718
 21
282.8662906099486
 31
0.0
  0
LINE
  5
10A
330
108
100
AcDbEntity
  8
1
  6
Continuous
 62
     2
100
AcDbLine
 10
232.9899386878
 20
326.8662906099466
 30
0.0
 11
253.402414719718
 21
326.8662906099466
 31
0.0
  0
LINE
  5
10B
330
108
100
AcDbEntity
  8
1
  6
Continuous
 62
     2
100
AcDbLine
 10
232.9899386878
 20
282.8662906099486
 30
0.0
 11
253.402414719718
 21
282.8662906099486
 31
0.0
  0
SOLID
  5
10C
330
108
100
AcDbEntity
  8
1
 62
     2
100
AcDbTrace
 10
251.8631984612739
 20
323.3662906099466
 30
0.0
 11
250.9416309781621
 21
323.3662906099466
 31
0.0
 12
251.402414719718
 22
326.8662906099466
 32
0.0
 13
251.402414719718
 23
326.8662906099466
 33
0.0
  0
SOLID
  5
10D
330
108
100
AcDbEntity
  8
1
 62
     2
100
AcDbTrace
 10
250.9416309781621
 20
286.3662906099486
 30
0.0
 11
251.8631984612739
 21
286.3662906099486
 31
0.0
 12
251.402414719718
 22
282.8662906099486
 32
0.0
 13
251.402414719718
 23
282.8662906099486
 33
0.0
  0
MTEXT
  5
10E
330
108
100
AcDbEntity
  8
1
 62
     3
100
AcDbMText
 10
249.402414719718
 20
296.494765882552
 30
0.0
 40
3.5
 41
0.0
 71
     7
 72
     1
  1
\C3;%%c\C3;\C3;44\C2;\H2.45;\S^ ;\C3;
  7
CONVERTER_11
 11
0.0
 21
1.0
 31
0.0
 73
     1
 44
0.60024009603842
  0
ENDBLK
  5
110
330
108
100
AcDbEntity
  8
0
100
AcDbBlockEnd
  0
BLOCK
  5
11A
330
113
100
AcDbEntity
  8
0
100
AcDbBlockBegin
  2
*D4
 70
     1
 10
0.0
 20
0.0
 30
0.0
  3
*D4
  1

  0
LINE
  5
114
330
113
100
AcDbEntity
  8
1
  6
Continuous
 62
     2
100
AcDbLine
 10
260.096248663649
 20
331.3662906099
 30
0.0
 11
260.096248663649
 21
278.3662906099
 31
0.0
  0
LINE
  5
115
330
113
100
AcDbEntity
  8
1
  6
Continuous
 62
     2
100
AcDbLine
 10
175.812017375
 20
331.3662906099
 30
0.0
 11
262.096248663649
 21
331.3662906099
 31
0.0
  0
LINE
  5
116
330
113
100
AcDbEntity
  8
1
  6
Continuous
 62
     2
100
AcDbLine
 10
175.812017375
 20
278.3662906099
 30
0.0
 11
262.096248663649
 21
278.3662906099
 31
0.0
  0
SOLID
  5
117
330
113
100
AcDbEntity
  8
1
 62
     2
100
AcDbTrace
 10
260.5570324052049
 20
327.8662906099
 30
0.0
 11
259.6354649220931
 21
327.8662906099
 31
0.0
 12
260.096248663649
 22
331.3662906099
 32
0.0
 13
260.096248663649
 23
331.3662906099
 33
0.0
  0
SOLID
  5
118
330
113
100
AcDbEntity
  8
1
 62
     2
100
AcDbTrace
 10
259.6354649220931
 20
281.8662906099
 30
0.0
 11
260.5570324052049
 21
281.8662906099
 31
0.0
 12
260.096248663649
 22
278.3662906099
 32
0.0
 13
260.096248663649
 23
278.3662906099
 33
0.0
  0
MTEXT
  5
119
330
113
100
AcDbEntity
  8
1
 62
     3
100
AcDbMText
 10
258.096248663649
 20
296.494765882552
 30
0.0
 40
3.5
 41
0.0
 71
     7
 72
     1
  1
\C3;%%c\C3;\C3;53\C2;\H2.45;\S^ ;\C3;
  7
CONVERTER_11
 11
0.0
 21
1.0
 31
0.0
 73
     1
 44
0.60024009603842
  0
ENDBLK
  5
11B
330
113
100
AcDbEntity
  8
0
100
AcDbBlockEnd
  0
BLOCK
  5
125
330
11E
100
AcDbEntity
  8
0
100
AcDbBlockBegin
  2
*D5
 70
     1
 10
0.0
 20
0.0
 30
0.0
  3
*D5
  1

  0
LINE
  5
11F
330
11E
100
AcDbEntity
  8
1
  6
Continuous
 62
     2
100
AcDbLine
 10
230.9899386878
 20
361.859686518103
 30
0.0
 11
144.9899386878
 21
361.859686518103
 31
0.0
  0
LINE
  5
120
330
11E
100
AcDbEntity
  8
1
  6
Continuous
 62
     2
100
AcDbLine
 10
230.9899386878
 20
327.9419001183
 30
0.0
 11
230.9899386878
 21
363.859686518103
 31
0.0
  0
LINE
  5
121
330
11E
100
AcDbEntity
  8
1
  6
Continuous
 62
     2
100
AcDbLine
 10
144.9899386878
 20
356.8662536888
 30
0.0
 11
144.9899386878
 21
363.859686518103
 31
0.0
  0
SOLID
  5
122
330
11E
100
AcDbEntity
  8
1
 62
     2
100
AcDbTrace
 10
227.4899386878
 20
361.3989027765471
 30
0.0
 11
227.4899386878
 21
362.3204702596589
 31
0.0
 12
230.9899386878
 22
361.859686518103
 32
0.0
 13
230.9899386878
 23
361.859686518103
 33
0.0
  0
SOLID
  5
123
330
11E
100
AcDbEntity
  8
1
 62
     2
100
AcDbTrace
 10
148.4899386878
 20
362.3204702596589
 30
0.0
 11
148.4899386878
 21
361.3989027765471
 31
0.0
 12
144.9899386878
 22
361.859686518103
 32
0.0
 13
144.9899386878
 23
361.859686518103
 33
0.0
  0
MTEXT
  5
124
330
11E
100
AcDbEntity
  8
1
 62
     3
100
AcDbMText
 10
186.674610938438
 20
363.859686518103
 30
0.0
 40
3.5
 41
0.0
 71
     7
 72
     1
  1
\C3;\C3;\C3;86\C2;\H2.45;\S^ ;\C3;
  7
CONVERTER_11
 11
0.9999999999970619
 21
2.424068405545306E-6
 31
0.0
 73
     1
 44
0.60024009603842
  0
ENDBLK
  5
126
330
11E
100
AcDbEntity
  8
0
100
AcDbBlockEnd
  0
BLOCK
  5
130
330
129
100
AcDbEntity
  8
0
100
AcDbBlockBegin
  2
*D6
 70
     1
 10
0.0
 20
0.0
 30
0.0
  3
*D6
  1

  0
LINE
  5
12A
330
129
100
AcDbEntity
  8
1
  6
Continuous
 62
     2
100
AcDbLine
 10
230.9899386878
 20
369.426541987821
 30
0.0
 11
115.9899386878
 21
369.426541987821
 31
0.0
  0
LINE
  5
12B
330
129
100
AcDbEntity
  8
1
  6
Continuous
 62
     2
100
AcDbLine
 10
230.9899386878
 20
327.9419001183
 30
0.0
 11
230.9899386878
 21
371.426541987821
 31
0.0
  0
LINE
  5
12C
330
129
100
AcDbEntity
  8
1
  6
Continuous
 62
     2
100
AcDbLine
 10
115.9899386878
 20
356.8662906099
 30
0.0
 11
115.9899386878
 21
371.426541987821
 31
0.0
  0
SOLID
  5
12D
330
129
100
AcDbEntity
  8
1
 62
     2
100
AcDbTrace
 10
227.4899386878
 20
368.9657582462651
 30
0.0
 11
227.4899386878
 21
369.8873257293769
 31
0.0
 12
230.9899386878
 22
369.426541987821
 32
0.0
 13
230.9899386878
 23
369.426541987821
 33
0.0
  0
SOLID
  5
12E
330
129
100
AcDbEntity
  8
1
 62
     2
100
AcDbTrace
 10
119.4899386878
 20
369.8873257293769
 30
0.0
 11
119.4899386878
 21
368.9657582462651
 31
0.0
 12
115.9899386878
 22
369.426541987821
 32
0.0
 13
115.9899386878
 23
369.426541987821
 33
0.0
  0
MTEXT
  5
12F
330
129
100
AcDbEntity
  8
1
 62
     3
100
AcDbMText
 10
171.120899999002
 20
371.426541987821
 30
0.0
 40
3.5
 41
0.0
 71
     7
 72
     1
  1
\C3;\C3;\C3;115\C2;\H2.45;\S^ ;\C3;
  7
CONVERTER_11
 11
0.9999999999970619
 21
2.424068405545306E-6
 31
0.0
 73
     1
 44
0.60024009603842
  0
ENDBLK
  5
131
330
129
100
AcDbEntity
  8
0
100
AcDbBlockEnd
  0
BLOCK
  5
13B
330
134
100
AcDbEntity
  8
0
100
AcDbBlockBegin
  2
*D7
 70
     1
 10
0.0
 20
0.0
 30
0.0
  3
*D7
  1

  0
LINE
  5
135
330
134
100
AcDbEntity
  8
1
  6
Continuous
 62
     2
100
AcDbLine
 10
230.9899386878
 20
376.832400532651
 30
0.0
 11
65.9899386878
 21
376.832400532651
 31
0.0
  0
LINE
  5
136
330
134
100
AcDbEntity
  8
1
  6
Continuous
 62
     2
100
AcDbLine
 10
230.9899386878
 20
327.9419001183
 30
0.0
 11
230.9899386878
 21
378.832400532651
 31
0.0
  0
LINE
  5
137
330
134
100
AcDbEntity
  8
1
  6
Continuous
 62
     2
100
AcDbLine
 10
65.9899386878
 20
340.4664821725
 30
0.0
 11
65.9899386878
 21
378.832400532651
 31
0.0
  0
SOLID
  5
138
330
134
100
AcDbEntity
  8
1
 62
     2
100
AcDbTrace
 10
227.4899386878
 20
376.3716167910951
 30
0.0
 11
227.4899386878
 21
377.2931842742069
 31
0.0
 12
230.9899386878
 22
376.832400532651
 32
0.0
 13
230.9899386878
 23
376.832400532651
 33
0.0
  0
SOLID
  5
139
330
134
100
AcDbEntity
  8
1
 62
     2
100
AcDbTrace
 10
69.4899386878
 20
377.2931842742069
 30
0.0
 11
69.4899386878
 21
376.3716167910951
 31
0.0
 12
65.9899386878
 22
376.832400532651
 32
0.0
 13
65.9899386878
 23
376.832400532651
 33
0.0
  0
MTEXT
  5
13A
330
134
100
AcDbEntity
  8
1
 62
     3
100
AcDbMText
 10
152.991238261365
 20
378.832400532651
 30
0.0
 40
3.5
 41
0.0
 71
     7
 72
     1
  1
\C3;\C3;\C3;165\C2;\H2.45;\S^ ;\C3;
  7
CONVERTER_11
 11
0.9999999999970619
 21
2.424068405545306E-6
 31
0.0
 73
     1
 44
0.60024009603842
  0
ENDBLK
  5
13C
330
134
100
AcDbEntity
  8
0
100
AcDbBlockEnd
  0
BLOCK
  5
143
330
13F
100
AcDbEntity
  8
0
100
AcDbBlockBegin
  2
*D8
 70
     1
 10
0.0
 20
0.0
 30
0.0
  3
*D8
  1

  0
LINE
  5
140
330
13F
100
AcDbEntity
  8
1
  6
Continuous
 62
     2
100
AcDbLine
 10
156.1850540575582
 20
343.3220391355584
 30
0.0
 11
147.0458662191985
 21
332.8447541053012
 31
0.0
  0
SOLID
  5
141
330
13F
100
AcDbEntity
  8
1
 62
     2
100
AcDbTrace
 10
148.9993334078543
 20
335.7852111444921
 30
0.0
 11
149.6938169105778
 21
335.1794229881422
 31
0.0
 12
147.0458662191985
 22
332.8447541053012
 32
0.0
 13
147.0458662191985
 23
332.8447541053012
 33
0.0
  0
MTEXT
  5
142
330
13F
100
AcDbEntity
  8
1
 62
     3
100
AcDbMText
 10
149.8003722698547
 20
339.0450964810718
 30
0.0
 40
3.5
 41
0.0
 71
     7
 72
     1
  1
\C3; R\C3;\C3;6\C2;\H2.45;\S^ ;\C3;
  7
CONVERTER_11
 11
0.6573454114335922
 21
0.7535894174331281
 31
0.0
 73
     1
 44
0.60024009603842
  0
ENDBLK
  5
144
330
13F
100
AcDbEntity
  8
0
100
AcDbBlockEnd
  0
BLOCK
  5
14D
330
146
100
AcDbEntity
  8
0
100
AcDbBlockBegin
  2
*D9
 70
     1
 10
0.0
 20
0.0
 30
0.0
  3
*D9
  1

  0
LINE
  5
147
330
146
100
AcDbEntity
  8
1
  6
Continuous
 62
     2
100
AcDbLine
 10
210.8551756994386
 20
331.3662906099
 30
0.0
 11
212.8551756994386
 21
331.3662906099
 31
0.0
  0
LINE
  5
148
330
146
100
AcDbEntity
  8
1
  6
Continuous
 62
     2
100
AcDbLine
 10
175.812017375
 20
331.3662906099
 30
0.0
 11
210.8551756994386
 21
331.3662906099
 31
0.0
  0
ARC
  5
149
330
146
100
AcDbEntity
  8
1
  6
Continuous
 62
     2
100
AcDbCircle
 10
173.812017375
 20
331.3662906099
 30
0.0
 40
37.04315832443854
100
AcDbArc
 50
347.3796653404055
 51
17.31763286392099
  0
SOLID
  5
14A
330
146
100
AcDbEntity
  8
1
 62
     2
100
AcDbTrace
 10
210.7590503863228
 20
324.9297627719764
 30
0.0
 11
209.8447634087413
 21
325.0453739676014
 31
0.0
 12
210.7409840048547
 22
328.4599179048768
 32
0.0
 13
210.7409840048547
 23
328.4599179048768
 33
0.0
  0
SOLID
  5
14B
330
146
100
AcDbEntity
  8
1
 62
     2
100
AcDbTrace
 10
210.2296198819647
 20
334.8406253053067
 30
0.0
 11
211.1501591677869
 21
334.8841459807024
 31
0.0
 12
210.8551756994386
 22
331.3662906099
 32
0.0
 13
210.8551756994386
 23
331.3662906099
 33
0.0
  0
MTEXT
  5
14C
330
146
100
AcDbEntity
  8
1
 62
     3
100
AcDbMText
 10
211.2377843016155
 20
343.035755332064
 30
0.0
 40
3.5
 41
0.0
 71
     7
 72
     1
  1
\C3;\C3;\C3;4.5%%d\C2;\H2.45;\S^ ;\C3;
  7
CONVERTER_11
 11
0.2103716273541626
 21
-0.9776214903552199
 31
0.0
 73
     1
 44
0.60024009603842
  0
ENDBLK
  5
14E
330
146
100
AcDbEntity
  8
0
100
AcDbBlockEnd
  0
ENDSEC
  0
SECTION
  2
ENTITIES
  0
INSERT
  5
6C
330
1F
100
AcDbEntity
  8
0
100
AcDbBlockReference
  2
Urheberrecht_DE-EN
 10
57.72311407992291
 20
317.263538324235
 30
0.0
  0
LINE
  5
70
330
1F
100
AcDbEntity
  8
BEZUGSACHSEN
  6
Continuous
 62
     7
100
AcDbLine
 10
65.9899386878
 20
271.266099047
 30
0.0
 11
65.9899386878
 21
292.8562906099
 31
0.0
  0
LINE
  5
71
330
1F
100
AcDbEntity
  8
BEZUGSACHSEN
  6
Continuous
 62
     7
100
AcDbLine
 10
65.9899386878
 20
316.8762906099
 30
0.0
 11
65.9899386878
 21
338.4664821725
 31
0.0
  0
LINE
  5
72
330
1F
100
AcDbEntity
  8
BEZUGSACHSEN
  6
Continuous
 62
     9
100
AcDbLine
 10
67.889864203
 20
340.4639768783
 30
0.0
 11
67.889864203
 21
320.5428229962
 31
0.0
  0
LINE
  5
73
330
1F
100
AcDbEntity
  8
BEZUGSACHSEN
  6
Continuous
 62
     9
100
AcDbLine
 10
67.889864203
 20
289.1897582237
 30
0.0
 11
67.889864203
 21
269.2686043416
 31
0.0
  0
LINE
  5
74
330
1F
100
AcDbEntity
  8
BEZUGSACHSEN
  6
Continuous
 62
     7
100
AcDbLine
 10
67.9899386878
 20
292.4626506616
 30
0.0
 11
67.9899386878
 21
294.8562906099
 31
0.0
  0
LINE
  5
75
330
1F
100
AcDbEntity
  8
BEZUGSACHSEN
  6
Continuous
 62
     7
100
AcDbLine
 10
67.9899386878
 20
314.8762906099
 30
0.0
 11
67.9899386878
 21
317.2699305583
 31
0.0
  0
LINE
  5
76
330
1F
100
AcDbEntity
  8
BEZUGSACHSEN
  6
Continuous
 62
     9
100
AcDbLine
 10
73.9899386878
 20
288.5076430225
 30
0.0
 11
73.9899386878
 21
294.8562906099
 31
0.0
  0
LINE
  5
77
330
1F
100
AcDbEntity
  8
BEZUGSACHSEN
  6
Continuous
 62
     9
100
AcDbLine
 10
73.9899386878
 20
314.8762906099
 30
0.0
 11
73.9899386878
 21
321.2249381974
 31
0.0
  0
LINE
  5
78
330
1F
100
AcDbEntity
  8
BEZUGSACHSEN
  6
Continuous
 62
     7
100
AcDbLine
 10
75.9899386878
 20
317.7359461357
 30
0.0
 11
75.9899386878
 21
291.9966350842
 31
0.0
  0
LINE
  5
79
330
1F
100
AcDbEntity
  8
BEZUGSACHSEN
  6
Continuous
 62
     7
100
AcDbLine
 10
67.2568916148
 20
289.8562906099
 30
0.0
 11
67.1357813634
 21
289.6239546145
 31
0.0
  0
LINE
  5
7A
330
1F
100
AcDbEntity
  8
BEZUGSACHSEN
  6
Continuous
 62
     7
100
AcDbLine
 10
67.1357813634
 20
320.1086266054
 30
0.0
 11
67.2568916148
 21
319.8762906099
 31
0.0
  0
LWPOLYLINE
  5
7B
330
1F
100
AcDbEntity
  8
BEZUGSACHSEN
  6
DOT_CENTER
 62
     7
100
AcDbPolyline
 90
        2
 70
     0
 43
0.25
 10
100.9899386878
 20
304.8662906099
 10
100.9899386878
 20
295.8662906099
  0
LWPOLYLINE
  5
7C
330
1F
100
AcDbEntity
  8
BEZUGSACHSEN
  6
DOT_CENTER
 62
     7
100
AcDbPolyline
 90
        2
 70
     0
 43
0.25
 10
100.9899386878
 20
304.8662906099
 10
100.9899386878
 20
313.8662906099
  0
LINE
  5
7D
330
1F
100
AcDbEntity
  8
BEZUGSACHSEN
  6
Continuous
 62
     7
100
AcDbLine
 10
65.9899386878
 20
292.8562906099
 30
0.0
 11
67.9899386878
 21
294.8562906099
 31
0.0
  0
LINE
  5
7E
330
1F
100
AcDbEntity
  8
BEZUGSACHSEN
  6
Continuous
 62
     7
100
AcDbLine
 10
132.7423434236
 20
254.8662906099
 30
0.0
 11
115.9899386878
 21
254.8662906099
 31
0.0
  0
LINE
  5
7F
330
1F
100
AcDbEntity
  8
BEZUGSACHSEN
  6
Continuous
 62
     7
100
AcDbLine
 10
139.237533952
 20
254.8662906099
 30
0.0
 11
144.9899386878
 21
254.8662906099
 31
0.0
  0
LINE
  5
80
330
1F
100
AcDbEntity
  8
BEZUGSACHSEN
  6
Continuous
 62
     7
100
AcDbLine
 10
135.1149386878
 20
258.8662906099
 30
0.0
 11
136.8649386878
 21
258.8662906099
 31
0.0
  0
LINE
  5
81
330
1F
100
AcDbEntity
  8
BEZUGSACHSEN
  6
Continuous
 62
     7
100
AcDbLine
 10
67.9899386878
 20
314.8762906099
 30
0.0
 11
65.9899386878
 21
316.8762906099
 31
0.0
  0
LINE
  5
82
330
1F
100
AcDbEntity
  8
FASEN
  6
Continuous
 62
     7
100
AcDbLine
 10
121.3914246522
 20
266.0365339792
 30
0.0
 11
132.7423434236
 21
266.0365339792
 31
0.0
  0
LINE
  5
83
330
1F
100
AcDbEntity
  8
0
  6
Continuous
 62
     7
100
AcDbLine
 10
139.237533952
 20
266.0365339792
 30
0.0
 11
144.9899386878
 21
266.0365339792
 31
0.0
  0
LINE
  5
84
330
1F
100
AcDbEntity
  8
BEZUGSACHSEN
  6
Continuous
 62
     7
100
AcDbLine
 10
113.4899386878
 20
266.9840406099
 30
0.0
 11
67.889864203
 21
269.2686043416
 31
0.0
  0
LINE
  5
85
330
1F
100
AcDbEntity
  8
BEZUGSACHSEN
  6
Continuous
 62
     7
100
AcDbLine
 10
113.4899386878
 20
342.7485406099
 30
0.0
 11
113.4899386878
 21
266.9840406099
 31
0.0
  0
LINE
  5
86
330
1F
100
AcDbEntity
  8
BEZUGSACHSEN
  6
Continuous
 62
     9
100
AcDbLine
 10
114.1091823018
 20
267.1499664362
 30
0.0
 11
114.1091823018
 21
342.5826147837
 31
0.0
  0
LINE
  5
87
330
1F
100
AcDbEntity
  8
BEZUGSACHSEN
  6
Continuous
 62
     9
100
AcDbLine
 10
114.3680013469
 20
267.1840406099
 30
0.0
 11
114.3680013469
 21
342.5485406099
 31
0.0
  0
LINE
  5
88
330
1F
100
AcDbEntity
  8
BEZUGSACHSEN
  6
Continuous
 62
     9
100
AcDbLine
 10
115.2893673991
 20
267.1840406099
 30
0.0
 11
115.2893673991
 21
342.5485406099
 31
0.0
  0
LINE
  5
89
330
1F
100
AcDbEntity
  8
BEZUGSACHSEN
  6
Continuous
 62
     7
100
AcDbLine
 10
115.9899386878
 20
354.8662906099
 30
0.0
 11
115.9899386878
 21
254.8662906099
 31
0.0
  0
LINE
  5
8A
330
1F
100
AcDbEntity
  8
BEZUGSACHSEN
  6
Continuous
 62
     7
100
AcDbLine
 10
137.8649386878
 20
352.4888858741
 30
0.0
 11
139.237533952
 21
354.8662906099
 31
0.0
  0
LINE
  5
8B
330
1F
100
AcDbEntity
  8
BEZUGSACHSEN
  6
Continuous
 62
     7
100
AcDbLine
 10
115.2893673991
 20
267.1840406099
 30
0.0
 11
114.3680013469
 21
267.1840406099
 31
0.0
  0
LINE
  5
8C
330
1F
100
AcDbEntity
  8
0
  6
Continuous
 62
     7
100
AcDbLine
 10
135.1149386878
 20
271.3439100262
 30
0.0
 11
136.8649386878
 21
271.3439100262
 31
0.0
  0
LINE
  5
8D
330
1F
100
AcDbEntity
  8
FASEN
  6
Continuous
 62
     7
100
AcDbLine
 10
128.9618126096
 20
272.9662906099
 30
0.0
 11
144.9899386878
 21
272.9662906099
 31
0.0
  0
LINE
  5
8E
330
1F
100
AcDbEntity
  8
0
  6
Continuous
 62
     7
100
AcDbLine
 10
128.9618126096
 20
273.3662906099
 30
0.0
 11
144.9899386878
 21
273.3662906099
 31
0.0
  0
LINE
  5
8F
330
1F
100
AcDbEntity
  8
BEZUGSACHSEN
  6
Continuous
 62
     7
100
AcDbLine
 10
137.8649386878
 20
257.2436953458
 30
0.0
 11
139.237533952
 21
254.8662906099
 31
0.0
  0
LWPOLYLINE
  5
90
330
1F
100
AcDbEntity
  8
BEZUGSACHSEN
  6
DOT_CENTER
 62
     7
100
AcDbPolyline
 90
        2
 70
     0
 43
0.25
 10
122.9899386878
 20
347.0156624653
 10
122.9899386878
 20
357.8662906099
  0
LINE
  5
91
330
1F
100
AcDbEntity
  8
BEZUGSACHSEN
  6
Continuous
 62
     9
100
AcDbLine
 10
65.9899386878
 20
291.4201066409
 30
0.0
 11
67.9899386878
 21
292.4626506616
 31
0.0
  0
LINE
  5
92
330
1F
100
AcDbEntity
  8
BEZUGSACHSEN
  6
Continuous
 62
     7
100
AcDbLine
 10
114.1091823018
 20
267.1499664362
 30
0.0
 11
113.4899386878
 21
266.9840406099
 31
0.0
  0
LINE
  5
93
330
1F
100
AcDbEntity
  8
RUNDUNGEN
  6
Continuous
 62
     7
100
AcDbLine
 10
230.0683977835
 20
282.7937637679
 30
0.0
 11
173.812017375
 21
278.3662906099
 31
0.0
  0
LINE
  5
94
330
1F
100
AcDbEntity
  8
0
  6
Continuous
 62
     7
100
AcDbLine
 10
173.812017375
 20
278.3662906099
 30
0.0
 11
230.0683977835
 21
282.7937637679
 31
0.0
  0
LINE
  5
95
330
1F
100
AcDbEntity
  8
RUNDUNGEN
  6
Continuous
 62
     7
100
AcDbLine
 10
173.812017375
 20
278.3662906099
 30
0.0
 11
150.9899386878
 21
278.3662906099
 31
0.0
  0
LINE
  5
96
330
1F
100
AcDbEntity
  8
0
  6
Continuous
 62
     7
100
AcDbLine
 10
150.9899386878
 20
278.3662906099
 30
0.0
 11
173.812017375
 21
278.3662906099
 31
0.0
  0
LINE
  5
97
330
1F
100
AcDbEntity
  8
BEZUGSACHSEN
  6
Continuous
 62
     9
100
AcDbLine
 10
67.9899386878
 20
317.2699305583
 30
0.0
 11
65.9899386878
 21
318.312474579
 31
0.0
  0
LINE
  5
98
330
1F
100
AcDbEntity
  8
FASEN
  6
Continuous
 62
     9
100
AcDbLine
 10
128.9618126096
 20
272.9662906099
 30
0.0
 11
128.9618126096
 21
273.3662906099
 31
0.0
  0
LINE
  5
99
330
1F
100
AcDbEntity
  8
FASEN
  6
Continuous
 62
     9
100
AcDbLine
 10
130.9899386878
 20
295.2662906099
 30
0.0
 11
130.9899386878
 21
294.8662906099
 31
0.0
  0
LINE
  5
9A
330
1F
100
AcDbEntity
  8
FASEN
  6
Continuous
 62
     9
100
AcDbLine
 10
130.9899386878
 20
314.4662906099
 30
0.0
 11
130.9899386878
 21
314.8662906099
 31
0.0
  0
LINE
  5
9B
330
1F
100
AcDbEntity
  8
0
  6
Continuous
 62
     7
100
AcDbLine
 10
132.7423434236
 20
354.8662906099
 30
0.0
 11
132.7423434236
 21
314.8662906099
 31
0.0
  0
LINE
  5
9C
330
1F
100
AcDbEntity
  8
0
  6
Continuous
 62
     7
100
AcDbLine
 10
132.7423434236
 20
294.8662906099
 30
0.0
 11
132.7423434236
 21
273.3662906099
 31
0.0
  0
LINE
  5
9D
330
1F
100
AcDbEntity
  8
0
  6
Continuous
 62
     7
100
AcDbLine
 10
132.7423434236
 20
266.0365339792
 30
0.0
 11
132.7423434236
 21
254.8662906099
 31
0.0
  0
LINE
  5
9E
330
1F
100
AcDbEntity
  8
0
  6
Continuous
 62
     7
100
AcDbLine
 10
134.1149386878
 20
352.4888524476
 30
0.0
 11
134.1149386878
 21
314.8662906099
 31
0.0
  0
LINE
  5
9F
330
1F
100
AcDbEntity
  8
0
  6
Continuous
 62
     7
100
AcDbLine
 10
134.1149386878
 20
294.8662906099
 30
0.0
 11
134.1149386878
 21
273.3662906099
 31
0.0
  0
LINE
  5
A0
330
1F
100
AcDbEntity
  8
0
  6
Continuous
 62
     7
100
AcDbLine
 10
134.1149386878
 20
257.2437328797
 30
0.0
 11
134.1149386878
 21
269.9843468568
 31
0.0
  0
LINE
  5
A1
330
1F
100
AcDbEntity
  8
0
  6
Continuous
 62
     9
100
AcDbLine
 10
135.1149386878
 20
258.8662906099
 30
0.0
 11
135.1149386878
 21
271.3439100262
 31
0.0
  0
LINE
  5
A2
330
1F
100
AcDbEntity
  8
0
  6
Continuous
 62
     9
100
AcDbLine
 10
135.1149386878
 20
273.3662906099
 30
0.0
 11
135.1149386878
 21
294.8662906099
 31
0.0
  0
LINE
  5
A3
330
1F
100
AcDbEntity
  8
0
  6
Continuous
 62
     9
100
AcDbLine
 10
135.1149386878
 20
314.8662906099
 30
0.0
 11
135.1149386878
 21
350.8662906099
 31
0.0
  0
LINE
  5
A4
330
1F
100
AcDbEntity
  8
BEZUGSACHSEN
  6
Continuous
 62
     9
100
AcDbLine
 10
75.5437846347
 20
289.8562906099
 30
0.0
 11
67.2568916148
 21
289.8562906099
 31
0.0
  0
LWPOLYLINE
  5
A5
330
1F
100
AcDbEntity
  8
DEFAULT_2
  6
DASHED
 62
     8
100
AcDbPolyline
 90
        2
 70
     0
 43
0.35
 10
230.9899386878
 20
292.3662906099
 10
172.9899386878
 20
292.3662906099
  0
LINE
  5
A6
330
1F
100
AcDbEntity
  8
0
  6
Continuous
 62
     9
100
AcDbLine
 10
136.8649386878
 20
258.8662906099
 30
0.0
 11
136.8649386878
 21
271.3439100262
 31
0.0
  0
LINE
  5
A7
330
1F
100
AcDbEntity
  8
0
  6
Continuous
 62
     9
100
AcDbLine
 10
136.8649386878
 20
273.3662906099
 30
0.0
 11
136.8649386878
 21
294.8662906099
 31
0.0
  0
LINE
  5
A8
330
1F
100
AcDbEntity
  8
0
  6
Continuous
 62
     9
100
AcDbLine
 10
136.8649386878
 20
314.8662906099
 30
0.0
 11
136.8649386878
 21
350.8662906099
 31
0.0
  0
LINE
  5
A9
330
1F
100
AcDbEntity
  8
0
  6
Continuous
 62
     7
100
AcDbLine
 10
137.8649386878
 20
257.2437328797
 30
0.0
 11
137.8649386878
 21
269.9843468568
 31
0.0
  0
LINE
  5
AA
330
1F
100
AcDbEntity
  8
0
  6
Continuous
 62
     7
100
AcDbLine
 10
137.8649386878
 20
273.3662906099
 30
0.0
 11
137.8649386878
 21
294.8662906099
 31
0.0
  0
LINE
  5
AB
330
1F
100
AcDbEntity
  8
0
  6
Continuous
 62
     7
100
AcDbLine
 10
137.8649386878
 20
314.8662906099
 30
0.0
 11
137.8649386878
 21
352.4888524476
 31
0.0
  0
LINE
  5
AC
330
1F
100
AcDbEntity
  8
0
  6
Continuous
 62
     7
100
AcDbLine
 10
139.237533952
 20
354.8662906099
 30
0.0
 11
139.237533952
 21
314.8662906099
 31
0.0
  0
LINE
  5
AD
330
1F
100
AcDbEntity
  8
0
  6
Continuous
 62
     7
100
AcDbLine
 10
139.237533952
 20
294.8662906099
 30
0.0
 11
139.237533952
 21
273.3662906099
 31
0.0
  0
LINE
  5
AE
330
1F
100
AcDbEntity
  8
0
  6
Continuous
 62
     7
100
AcDbLine
 10
139.237533952
 20
266.0365339792
 30
0.0
 11
139.237533952
 21
254.8662906099
 31
0.0
  0
LINE
  5
AF
330
1F
100
AcDbEntity
  8
BEZUGSACHSEN
  6
Continuous
 62
     7
100
AcDbLine
 10
73.9899386878
 20
294.8562906099
 30
0.0
 11
67.9899386878
 21
294.8562906099
 31
0.0
  0
LINE
  5
B0
330
1F
100
AcDbEntity
  8
0
  6
Continuous
 62
     7
100
AcDbLine
 10
130.9899386878
 20
294.8662906099
 30
0.0
 11
144.9899386878
 21
294.8662906099
 31
0.0
  0
LINE
  5
B1
330
1F
100
AcDbEntity
  8
FASEN
  6
Continuous
 62
     7
100
AcDbLine
 10
144.9899386878
 20
295.2662906099
 30
0.0
 11
130.9899386878
 21
295.2662906099
 31
0.0
  0
LINE
  5
B2
330
1F
100
AcDbEntity
  8
0
  6
Continuous
 62
     7
100
AcDbLine
 10
144.9899386878
 20
354.8662536888
 30
0.0
 11
144.9899386878
 21
314.8662906099
 31
0.0
  0
LINE
  5
B3
330
1F
100
AcDbEntity
  8
0
  6
Continuous
 62
     7
100
AcDbLine
 10
144.9899386878
 20
294.8662906099
 30
0.0
 11
144.9899386878
 21
273.3662906099
 31
0.0
  0
LINE
  5
B4
330
1F
100
AcDbEntity
  8
0
  6
Continuous
 62
     7
100
AcDbLine
 10
144.9899386878
 20
266.0365339792
 30
0.0
 11
144.9899386878
 21
254.8662924777
 31
0.0
  0
LINE
  5
B5
330
1F
100
AcDbEntity
  8
FASEN
  6
Continuous
 62
     7
100
AcDbLine
 10
144.9899386878
 20
266.0365339792
 30
0.0
 11
144.9899386878
 21
273.3662906099
 31
0.0
  0
LINE
  5
B6
330
1F
100
AcDbEntity
  8
FASEN
  6
Continuous
 62
     7
100
AcDbLine
 10
144.9899386878
 20
294.8662906099
 30
0.0
 11
144.9899386878
 21
314.8662906099
 31
0.0
  0
LWPOLYLINE
  5
B7
330
1F
100
AcDbEntity
  8
BEZUGSACHSEN
  6
DOT_CENTER
 62
     7
100
AcDbPolyline
 90
        2
 70
     0
 43
0.25
 10
233.9899386878
 20
304.8662906099
 10
62.9899386878
 20
304.8662906099
  0
LINE
  5
B8
330
1F
100
AcDbEntity
  8
RUNDUNGEN
  6
Continuous
 62
     9
100
AcDbLine
 10
150.9899386878
 20
331.3662906099
 30
0.0
 11
150.9899386878
 21
278.3662906099
 31
0.0
  0
LINE
  5
B9
330
1F
100
AcDbEntity
  8
BEZUGSACHSEN
  6
Continuous
 62
     7
100
AcDbLine
 10
132.7423434236
 20
254.8662906099
 30
0.0
 11
134.1149386878
 21
257.2436953458
 31
0.0
  0
LINE
  5
BA
330
1F
100
AcDbEntity
  8
FASEN
  6
Continuous
 62
     7
100
AcDbLine
 10
130.9899386878
 20
314.4662906099
 30
0.0
 11
144.9899386878
 21
314.4662906099
 31
0.0
  0
LINE
  5
BB
330
1F
100
AcDbEntity
  8
0
  6
Continuous
 62
     7
100
AcDbLine
 10
130.9899386878
 20
314.8662906099
 30
0.0
 11
144.9899386878
 21
314.8662906099
 31
0.0
  0
LINE
  5
BC
330
1F
100
AcDbEntity
  8
BEZUGSACHSEN
  6
Continuous
 62
     7
100
AcDbLine
 10
73.9899386878
 20
314.8762906099
 30
0.0
 11
67.9899386878
 21
314.8762906099
 31
0.0
  0
LWPOLYLINE
  5
BD
330
1F
100
AcDbEntity
  8
DEFAULT_2
  6
DASHED
 62
     8
100
AcDbPolyline
 90
        2
 70
     0
 43
0.35
 10
230.9899386878
 20
317.3662906099
 10
172.9899386878
 20
317.3662906099
  0
LINE
  5
BE
330
1F
100
AcDbEntity
  8
BEZUGSACHSEN
  6
Continuous
 62
     7
100
AcDbLine
 10
132.7423434236
 20
354.8662906099
 30
0.0
 11
134.1149386878
 21
352.4888858741
 31
0.0
  0
LINE
  5
BF
330
1F
100
AcDbEntity
  8
BEZUGSACHSEN
  6
Continuous
 62
     9
100
AcDbLine
 10
67.2568916148
 20
319.8762906099
 30
0.0
 11
75.5437846347
 21
319.8762906099
 31
0.0
  0
LWPOLYLINE
  5
C0
330
1F
100
AcDbEntity
  8
DEFAULT_2
  6
DASHED
 62
     8
100
AcDbPolyline
 90
        2
 70
     0
 43
0.35
 10
172.9899386878
 20
317.3662906099
 10
172.9899386878
 20
292.3662906099
  0
LINE
  5
C1
330
1F
100
AcDbEntity
  8
0
  6
Continuous
 62
     7
100
AcDbLine
 10
173.812017375
 20
331.3662906099
 30
0.0
 11
173.812017375
 21
278.3662906099
 31
0.0
  0
LINE
  5
C2
330
1F
100
AcDbEntity
  8
RUNDUNGEN
  6
Continuous
 62
     7
100
AcDbLine
 10
173.812017375
 20
331.3662906099
 30
0.0
 11
150.9899386878
 21
331.3662906099
 31
0.0
  0
LINE
  5
C3
330
1F
100
AcDbEntity
  8
0
  6
Continuous
 62
     7
100
AcDbLine
 10
150.9899386878
 20
331.3662906099
 30
0.0
 11
173.812017375
 21
331.3662906099
 31
0.0
  0
LINE
  5
C4
330
1F
100
AcDbEntity
  8
RUNDUNGEN
  6
Continuous
 62
     7
100
AcDbLine
 10
230.0683977835
 20
326.938817452
 30
0.0
 11
173.812017375
 21
331.3662906099
 31
0.0
  0
LINE
  5
C5
330
1F
100
AcDbEntity
  8
0
  6
Continuous
 62
     7
100
AcDbLine
 10
173.812017375
 20
331.3662906099
 30
0.0
 11
230.0683977835
 21
326.938817452
 31
0.0
  0
LINE
  5
C6
330
1F
100
AcDbEntity
  8
BEZUGSACHSEN
  6
Continuous
 62
     7
100
AcDbLine
 10
114.1091823018
 20
342.5826147837
 30
0.0
 11
113.4899386878
 21
342.7485406099
 31
0.0
  0
LINE
  5
C7
330
1F
100
AcDbEntity
  8
BEZUGSACHSEN
  6
Continuous
 62
     7
100
AcDbLine
 10
115.2893673991
 20
342.5485406099
 30
0.0
 11
114.3680013469
 21
342.5485406099
 31
0.0
  0
LINE
  5
C8
330
1F
100
AcDbEntity
  8
BEZUGSACHSEN
  6
Continuous
 62
     7
100
AcDbLine
 10
113.4899386878
 20
342.7485406099
 30
0.0
 11
67.889864203
 21
340.4639768783
 31
0.0
  0
LINE
  5
C9
330
1F
100
AcDbEntity
  8
BEZUGSACHSEN
  6
Continuous
 62
     7
100
AcDbLine
 10
135.1149386878
 20
350.8662906099
 30
0.0
 11
136.8649386878
 21
350.8662906099
 31
0.0
  0
LINE
  5
CA
330
1F
100
AcDbEntity
  8
BEZUGSACHSEN
  6
Continuous
 62
     7
100
AcDbLine
 10
132.7423434236
 20
354.8662906099
 30
0.0
 11
127.9899386878
 21
354.8662906099
 31
0.0
  0
LINE
  5
CB
330
1F
100
AcDbEntity
  8
BEZUGSACHSEN
  6
Continuous
 62
     7
100
AcDbLine
 10
117.9899386878
 20
354.8662906099
 30
0.0
 11
115.9899386878
 21
354.8662906099
 31
0.0
  0
LINE
  5
CC
330
1F
100
AcDbEntity
  8
BEZUGSACHSEN
  6
Continuous
 62
     7
100
AcDbLine
 10
139.237533952
 20
354.8662906099
 30
0.0
 11
144.9899386878
 21
354.8662906099
 31
0.0
  0
LINE
  5
CD
330
1F
100
AcDbEntity
  8
RUNDUNGEN
  6
Continuous
 62
     9
100
AcDbLine
 10
230.0683977835
 20
282.7937637679
 30
0.0
 11
230.0683977835
 21
326.938817452
 31
0.0
  0
LINE
  5
CE
330
1F
100
AcDbEntity
  8
RUNDUNGEN
  6
Continuous
 62
     7
100
AcDbLine
 10
230.9899386878
 20
283.7906811016
 30
0.0
 11
230.9899386878
 21
325.9419001183
 31
0.0
  0
LWPOLYLINE
  5
CF
330
1F
100
AcDbEntity
  8
1
  6
Continuous
 62
     7
100
AcDbPolyline
 90
        2
 70
     0
 43
0.25
 10
230.9899386878
 20
325.9419001183
 10
230.9899386878
 20
326.8662906099467
  0
LWPOLYLINE
  5
D0
330
1F
100
AcDbEntity
  8
1
  6
Continuous
 62
     7
100
AcDbPolyline
 90
        2
 70
     0
 43
0.25
 10
230.0683977835
 20
326.938817452
 10
230.9899386877949
 20
326.8662906099467
  0
LWPOLYLINE
  5
D1
330
1F
100
AcDbEntity
  8
1
  6
Continuous
 62
     7
100
AcDbPolyline
 90
        2
 70
     0
 43
0.25
 10
230.0683977835
 20
282.7937637679
 10
230.9899386878
 20
282.8662906099486
  0
LWPOLYLINE
  5
D2
330
1F
100
AcDbEntity
  8
1
  6
Continuous
 62
     7
100
AcDbPolyline
 90
        2
 70
     0
 43
0.25
 10
230.9899386878
 20
283.7906811016
 10
230.9899386878
 20
282.8662906099486
  0
ARC
  5
D3
330
1F
100
AcDbEntity
  8
FASEN
  6
Continuous
 62
     7
100
AcDbCircle
 10
133.8905927107
 20
280.39755388
 30
0.0
 40
19.03859487319971
100
AcDbArc
 50
227.4837701982999
 51
228.9651953374995
  0
ARC
  5
D4
330
1F
100
AcDbEntity
  8
FASEN
  6
Continuous
 62
     7
100
AcDbCircle
 10
128.9618126096
 20
265.3662906099
 30
0.0
 40
8.0
100
AcDbArc
 50
90.0
 51
172.8323734889967
  0
ARC
  5
D5
330
1F
100
AcDbEntity
  8
FASEN
  6
Continuous
 62
     7
100
AcDbCircle
 10
128.9618126096
 20
265.3662906099
 30
0.0
 40
7.599982194900008
100
AcDbArc
 50
90.0
 51
174.9405171273009
  0
ARC
  5
D6
330
1F
100
AcDbEntity
  8
BEZUGSACHSEN
  6
Continuous
 62
     7
100
AcDbCircle
 10
73.9899386878
 20
296.8562906099
 30
0.0
 40
2.0
100
AcDbArc
 50
270.0
 51
355.2355361864949
  0
ARC
  5
D7
330
1F
100
AcDbEntity
  8
BEZUGSACHSEN
  6
Continuous
 62
     7
100
AcDbCircle
 10
67.9899386878
 20
271.2660990469
 30
0.0
 40
2.0
100
AcDbArc
 50
179.9999999971356
 51
267.1318795108406
  0
ARC
  5
D8
330
1F
100
AcDbEntity
  8
BEZUGSACHSEN
  6
Continuous
 62
     7
100
AcDbCircle
 10
135.1149386878
 20
257.8662906099
 30
0.0
 40
1.0
100
AcDbArc
 50
90.0
 51
180.0
  0
ARC
  5
D9
330
1F
100
AcDbEntity
  8
BEZUGSACHSEN
  6
Continuous
 62
     7
100
AcDbCircle
 10
114.3680013469
 20
266.1840406099
 30
0.0
 40
1.0
100
AcDbArc
 50
90.0
 51
104.999999999699
  0
ARC
  5
DA
330
1F
100
AcDbEntity
  8
BEZUGSACHSEN
  6
Continuous
 62
     7
100
AcDbCircle
 10
115.2893673991
 20
266.1840406099
 30
0.0
 40
1.000000000000385
100
AcDbArc
 50
45.52164291268168
 51
90.0
  0
ARC
  5
DB
330
1F
100
AcDbEntity
  8
0
  6
Continuous
 62
     7
100
AcDbCircle
 10
-108.6078411954
 20
374.3007582006
 30
0.0
 40
264.5204223909507
100
AcDbArc
 50
335.8400764706018
 51
336.5770705490999
  0
ARC
  5
DC
330
1F
100
AcDbEntity
  8
BEZUGSACHSEN
  6
Continuous
 62
     7
100
AcDbCircle
 10
123.0051466989
 20
404.9190603768
 30
0.0
 40
50.30340021045203
100
AcDbArc
 50
264.2781515102013
 51
269.9826780126002
  0
ARC
  5
DD
330
1F
100
AcDbEntity
  8
BEZUGSACHSEN
  6
Continuous
 62
     7
100
AcDbCircle
 10
122.9747306867
 20
404.9190601761
 30
0.0
 40
50.30340000969741
100
AcDbArc
 50
270.0173219760583
 51
275.7218485012565
  0
ARC
  5
DE
330
1F
100
AcDbEntity
  8
0
  6
Continuous
 62
     7
100
AcDbCircle
 10
130.9899386878
 20
304.8662906099
 30
0.0
 40
10.0
100
AcDbArc
 50
90.0
 51
270.0
  0
ARC
  5
DF
330
1F
100
AcDbEntity
  8
FASEN
  6
Continuous
 62
     7
100
AcDbCircle
 10
130.9899386878
 20
304.8662906099
 30
0.0
 40
9.599999195900011
100
AcDbArc
 50
90.0
 51
270.0
  0
ARC
  5
E0
330
1F
100
AcDbEntity
  8
BEZUGSACHSEN
  6
Continuous
 62
     7
100
AcDbCircle
 10
73.9899386878
 20
312.8762906099
 30
0.0
 40
1.999999999999973
100
AcDbArc
 50
4.76446378498719
 51
90.0
  0
ARC
  5
E1
330
1F
100
AcDbEntity
  8
BEZUGSACHSEN
  6
Continuous
 62
     7
100
AcDbCircle
 10
67.9899386878
 20
338.466482173
 30
0.0
 40
2.000000000052408
100
AcDbArc
 50
92.86812048915944
 51
180.0000000143238
  0
ARC
  5
E2
330
1F
100
AcDbEntity
  8
BEZUGSACHSEN
  6
Continuous
 62
     7
100
AcDbCircle
 10
135.1149386878
 20
351.8662906099
 30
0.0
 40
1.0
100
AcDbArc
 50
180.0
 51
270.0
  0
ARC
  5
E3
330
1F
100
AcDbEntity
  8
BEZUGSACHSEN
  6
Continuous
 62
     7
100
AcDbCircle
 10
114.3680013469
 20
343.5485406099
 30
0.0
 40
0.9999999999132787
100
AcDbArc
 50
254.9999999988183
 51
270.0
  0
ARC
  5
E4
330
1F
100
AcDbEntity
  8
BEZUGSACHSEN
  6
Continuous
 62
     7
100
AcDbCircle
 10
115.2893673991
 20
343.5485406099
 30
0.0
 40
1.0
100
AcDbArc
 50
270.0
 51
314.4783570873183
  0
ARC
  5
E5
330
1F
100
AcDbEntity
  8
BEZUGSACHSEN
  6
Continuous
 62
     7
100
AcDbCircle
 10
252.319985286
 20
-1301.17646868
 30
0.0
 40
1632.172763698
100
AcDbArc
 50
96.2726189838
 51
96.48809068979999
  0
ARC
  5
E6
330
1F
100
AcDbEntity
  8
RUNDUNGEN
  6
Continuous
 62
     7
100
AcDbCircle
 10
150.9899386878
 20
272.3662906099
 30
0.0
 40
6.0
100
AcDbArc
 50
90.0
 51
180.0
  0
ARC
  5
E7
330
1F
100
AcDbEntity
  8
RUNDUNGEN
  6
Continuous
 62
     7
100
AcDbCircle
 10
229.9899386878
 20
283.7906811016
 30
0.0
 40
0.9999999999648148
100
AcDbArc
 50
274.4999999985582
 51
0.0
  0
ARC
  5
E8
330
1F
100
AcDbEntity
  8
BEZUGSACHSEN
  6
Continuous
 62
     7
100
AcDbCircle
 10
136.8649386878
 20
257.8662906099
 30
0.0
 40
1.0
100
AcDbArc
 50
0.0
 51
90.0
  0
ARC
  5
E9
330
1F
100
AcDbEntity
  8
BEZUGSACHSEN
  6
Continuous
 62
     7
100
AcDbCircle
 10
252.319985286
 20
1910.9090498997
 30
0.0
 40
1632.1727636978
100
AcDbArc
 50
263.5119093102
 51
263.7273810162
  0
ARC
  5
EA
330
1F
100
AcDbEntity
  8
0
  6
Continuous
 62
     7
100
AcDbCircle
 10
380.5877185706
 20
374.3007582005
 30
0.0
 40
264.5204223905999
100
AcDbArc
 50
203.4229294508999
 51
204.1599235294139
  0
ARC
  5
EB
330
1F
100
AcDbEntity
  8
RUNDUNGEN
  6
Continuous
 62
     7
100
AcDbCircle
 10
150.9899386878
 20
337.3662906099
 30
0.0
 40
6.0
100
AcDbArc
 50
180.0
 51
270.0
  0
ARC
  5
EC
330
1F
100
AcDbEntity
  8
RUNDUNGEN
  6
Continuous
 62
     7
100
AcDbCircle
 10
229.9899386878
 20
325.9419001183
 30
0.0
 40
1.0
100
AcDbArc
 50
0.0
 51
85.50000000144182
  0
ARC
  5
ED
330
1F
100
AcDbEntity
  8
BEZUGSACHSEN
  6
Continuous
 62
     7
100
AcDbCircle
 10
136.8649386878
 20
351.8662906099
 30
0.0
 40
1.0
100
AcDbArc
 50
270.0
 51
0.0
  0
CIRCLE
  5
EE
330
1F
100
AcDbEntity
  8
BEZUGSACHSEN
  6
Continuous
 62
     7
100
AcDbCircle
 10
100.9899386878
 20
304.8662906099
 30
0.0
 40
6.0
  0
SPLINE
  5
EF
330
1F
100
AcDbEntity
  8
BEZUGSACHSEN
  6
Continuous
 62
     7
100
AcDbSpline
210
0.0
220
0.0
230
1.0
 70
     8
 71
     3
 72
    19
 73
    15
 74
    13
 42
0.0000000001
 43
0.0000000001
 44
0.00000001
 40
0.0
 40
0.0
 40
0.0
 40
0.0
 40
0.1462385987747094
 40
0.2927479274788237
 40
0.4364790706168145
 40
0.5801659236312822
 40
0.720379997247342
 40
0.8606059382146968
 40
0.9980411883382141
 40
1.13548402038514
 40
1.405415631047142
 40
1.675815514046987
 40
1.943997429494033
 40
2.211934834801255
 40
2.211934834801255
 40
2.211934834801255
 40
2.211934834801255
 10
73.9899386878
 20
321.2249381974
 30
0.0
 10
74.03865349313875
 20
321.2282462747108
 30
0.0
 10
74.13617328900622
 20
321.2348685535402
 30
0.0
 10
74.28150954931594
 20
321.2185092407882
 30
0.0
 10
74.4221664864412
 20
321.183337474721
 30
0.0
 10
74.5550186198903
 20
321.1305317881117
 30
0.0
 10
74.67947308294742
 20
321.0628600003952
 30
0.0
 10
74.79427564010255
 20
320.9835597990146
 30
0.0
 10
74.90038557787672
 20
320.8944751594398
 30
0.0
 10
75.02948804305616
 20
320.7665276238709
 30
0.0
 10
75.17252789295708
 20
320.5907253349622
 30
0.0
 10
75.31743549465767
 20
320.3630398690744
 30
0.0
 10
75.44207224311594
 20
320.1243772495765
 30
0.0
 10
75.50989081427005
 20
319.9589610091041
 30
0.0
 10
75.5437846347
 20
319.8762906099
 30
0.0
 11
73.9899386878
 21
321.2249381974
 31
0.0
 11
74.13607254961906
 21
321.2304719304474
 31
0.0
 11
74.2817819104657
 21
321.215182536771
 31
0.0
 11
74.4212119920228
 21
321.1802842006397
 31
0.0
 11
74.55484432895173
 21
321.1274797476445
 31
0.0
 11
74.67815811975136
 21
321.0607437345884
 31
0.0
 11
74.7936892310592
 21
320.9812712434977
 31
0.0
 11
74.89910178083363
 21
320.8930859707671
 31
0.0
 11
74.99689028452782
 21
320.7965047064022
 31
0.0
 11
75.16813868041767
 21
320.5878493414107
 31
0.0
 11
75.31448110095232
 21
320.3604730174928
 31
0.0
 11
75.4383487267591
 21
320.1226109754394
 31
0.0
 11
75.5437846347
 21
319.8762906099
 31
0.0
  0
SPLINE
  5
F0
330
1F
100
AcDbEntity
  8
BEZUGSACHSEN
  6
Continuous
 62
     7
100
AcDbSpline
210
0.0
220
0.0
230
1.0
 70
     8
 71
     3
 72
    11
 73
     7
 74
     5
 42
0.0000000001
 43
0.0000000001
 44
0.00000001
 40
0.0
 40
0.0
 40
0.0
 40
0.0
 40
0.5521269407068186
 40
1.105196183364693
 40
1.651906304768807
 40
2.198197048816616
 40
2.198197048816616
 40
2.198197048816616
 40
2.198197048816616
 10
75.9899386878
 20
291.9966350842
 30
0.0
 10
75.98335325017213
 20
291.812499893788
 30
0.0
 10
75.97017113570621
 20
291.4439152538031
 30
0.0
 10
75.8726827719059
 20
290.9004908490946
 30
0.0
 10
75.73304545888072
 20
290.3692167195435
 30
0.0
 10
75.60685543666204
 20
290.0272222394252
 30
0.0
 10
75.5437846347
 20
289.8562906099
 30
0.0
 11
75.9899386878
 21
291.9966350842
 31
0.0
 11
75.95719410537319
 21
291.4454799781038
 31
0.0
 11
75.86512745242982
 21
290.9001275062198
 31
0.0
 11
75.7246359675964
 21
290.3717771494157
 31
0.0
 11
75.5437846347
 21
289.8562906099
 31
0.0
  0
SPLINE
  5
F1
330
1F
100
AcDbEntity
  8
BEZUGSACHSEN
  6
Continuous
 62
     7
100
AcDbSpline
210
0.0
220
0.0
230
1.0
 70
     8
 71
     3
 72
    19
 73
    15
 74
    13
 42
0.0000000001
 43
0.0000000001
 44
0.00000001
 40
0.0
 40
0.0
 40
0.0
 40
0.0
 40
0.2679411643353918
 40
0.5361267936930516
 40
0.8065304773715863
 40
1.076465993222723
 40
1.213913376120635
 40
1.35135310483731
 40
1.491586367023231
 40
1.63180789752232
 40
1.775491562733935
 40
1.919219204712315
 40
2.065713007344621
 40
2.211936409268279
 40
2.211936409268279
 40
2.211936409268279
 40
2.211936409268279
 10
75.5437846347
 20
289.8562906099
 30
0.0
 10
75.50989039090092
 20
289.7736190301961
 30
0.0
 10
75.44207097876344
 20
289.6082004426262
 30
0.0
 10
75.31743247247441
 20
289.3695344689581
 30
0.0
 10
75.1725216731379
 20
289.1418464729551
 30
0.0
 10
75.0294780416159
 20
288.9660419816471
 30
0.0
 10
74.90037165471205
 20
288.838092262537
 30
0.0
 10
74.79425655564853
 20
288.749005241734
 30
0.0
 10
74.67944712801
 20
288.6697036013956
 30
0.0
 10
74.55498751578018
 20
288.6020331339431
 30
0.0
 10
74.42213396063507
 20
288.5492304472812
 30
0.0
 10
74.2814831617581
 20
288.5140641833145
 30
0.0
 10
74.13615777867159
 20
288.4977119813836
 30
0.0
 10
74.0386483596276
 20
288.5043347147353
 30
0.0
 10
73.9899386878
 20
288.5076430225
 30
0.0
 11
75.5437846347
 21
289.8562906099
 31
0.0
 11
75.43834737498106
 21
289.6099667340609
 31
0.0
 11
75.31447785940443
 21
289.3721014887964
 31
0.0
 11
75.16813237309117
 21
289.1447226182243
 31
0.0
 11
74.99688018196267
 21
288.9360653160479
 31
0.0
 11
74.89908774328335
 21
288.839481559636
 31
0.0
 11
74.79367075402865
 21
288.751294613855
 31
0.0
 11
74.67813211031522
 21
288.6718201548624
 31
0.0
 11
74.55481010042186
 21
288.6050836619116
 31
0.0
 11
74.421179412222
 21
288.5522837109658
 31
0.0
 11
74.28175171101422
 21
288.5173902845852
 31
0.0
 11
74.13605727249606
 21
288.5021074577999
 31
0.0
 11
73.9899386878
 21
288.5076430225
 31
0.0
  0
SPLINE
  5
F2
330
1F
100
AcDbEntity
  8
BEZUGSACHSEN
  6
Continuous
 62
     7
100
AcDbSpline
210
0.0
220
0.0
230
1.0
 70
     8
 71
     3
 72
    47
 73
    43
 74
    41
 42
0.0000000001
 43
0.0000000001
 44
0.00000001
 40
0.0
 40
0.0
 40
0.0
 40
0.0
 40
0.6366022431819697
 40
1.273595002166765
 40
1.592921746388135
 40
1.912076344866832
 40
2.231392290393059
 40
2.550826842696762
 40
3.189774321140567
 40
3.829081697001802
 40
4.46833715251453
 40
5.107221744773026
 40
5.426176341258762
 40
5.745033356797797
 40
6.063356731560922
 40
6.381780214857498
 40
7.017059195635667
 40
7.652639340950018
 40
8.28753221418964
 40
8.922347946451593
 40
9.559226748535906
 40
10.19613435933466
 40
10.83451785499711
 40
11.47287689970761
 40
12.11234487362849
 40
12.75189588947105
 40
13.39354300518419
 40
14.03487957353376
 40
14.35615205768786
 40
14.67732107709259
 40
14.99840882471001
 40
15.3195960412163
 40
15.96011121026728
 40
16.60099592086297
 40
17.23809108074728
 40
17.87482555198348
 40
18.19205670332328
 40
18.5091719910101
 40
18.8257108463003
 40
19.14241581829409
 40
19.77338974998336
 40
20.40398930737073
 40
20.40398930737073
 40
20.40398930737073
 40
20.40398930737073
 10
94.4905230935
 20
304.8662905905
 30
0.0
 10
94.4965287373867
 20
305.0785704001951
 30
0.0
 10
94.50854370924833
 20
305.5032602400191
 30
0.0
 10
94.58980905443502
 20
306.029403001133
 30
0.0
 10
94.68252865099501
 20
306.4443773772605
 30
0.0
 10
94.76782161511161
 20
306.7522013529527
 30
0.0
 10
94.86806022854239
 20
307.0554940297282
 30
0.0
 10
95.02154577770514
 20
307.4529313922671
 30
0.0
 10
95.25001772450972
 20
307.9350309691511
 30
0.0
 10
95.57963268508155
 20
308.4838468419975
 30
0.0
 10
95.96185990214896
 20
308.9973823813676
 30
0.0
 10
96.3207145992515
 20
309.3918851434634
 30
0.0
 10
96.62966795280752
 20
309.6847584415056
 30
0.0
 10
96.87156306178
 20
309.8924802626092
 30
0.0
 10
97.12320631526892
 20
310.0879896597165
 30
0.0
 10
97.47050042243245
 20
310.3314848623539
 30
0.0
 10
97.92624075719218
 20
310.6033669323764
 30
0.0
 10
98.50172018187673
 20
310.8746960448893
 30
0.0
 10
99.1008309470389
 20
311.0884796757031
 30
0.0
 10
99.71828134950174
 20
311.243169407075
 30
0.0
 10
100.3485519112012
 20
311.3369763907264
 30
0.0
 10
100.9861458459315
 20
311.3691031155323
 30
0.0
 10
101.6243244901642
 20
311.3386735425828
 30
0.0
 10
102.2573369113581
 20
311.2460022874187
 30
0.0
 10
102.878570595795
 20
311.0915103261912
 30
0.0
 10
103.4827063477725
 20
310.8764731936669
 30
0.0
 10
104.0631854213576
 20
310.6025498279801
 30
0.0
 10
104.522814445588
 20
310.3273829499508
 30
0.0
 10
104.8727134342507
 20
310.0807732510999
 30
0.0
 10
105.1258450634007
 20
309.8828690587188
 30
0.0
 10
105.3688437027505
 20
309.6726905292923
 30
0.0
 10
105.6780880462445
 20
309.377171189113
 30
0.0
 10
106.0364082370425
 20
308.9797002063616
 30
0.0
 10
106.4163586553834
 20
308.4640334448354
 30
0.0
 10
106.7428316849548
 20
307.9144372883696
 30
0.0
 10
106.9682028249337
 20
307.4333317466637
 30
0.0
 10
107.1192938081257
 20
307.0373415590483
 30
0.0
 10
107.2177067257031
 20
306.7359152082546
 30
0.0
 10
107.3013735038827
 20
306.4302198403147
 30
0.0
 10
107.3921928613129
 20
306.0186678225735
 30
0.0
 10
107.4717078369176
 20
305.4972426060589
 30
0.0
 10
107.4834801215884
 20
305.0765663169267
 30
0.0
 10
107.4893645172
 20
304.8662905906
 30
0.0
 11
94.4905230935
 21
304.8662905905
 31
0.0
 11
94.52177176453564
 21
305.5021254248578
 31
0.0
 11
94.6152129668802
 21
306.1322274139861
 31
0.0
 11
94.68515347388595
 21
306.4438006719124
 31
0.0
 11
94.77029481283651
 21
306.7513890496704
 31
0.0
 11
94.87051935096434
 21
307.0545683943237
 31
0.0
 11
94.98559924072066
 21
307.3525533808232
 31
0.0
 11
95.25919513499665
 21
307.9299606606916
 31
0.0
 11
95.58841464869644
 21
308.4779829527837
 31
0.0
 11
95.97003890402213
 21
308.9908284121083
 31
0.0
 11
96.39997354011929
 21
309.4634061632872
 31
0.0
 11
96.63144580117459
 21
309.6828432316721
 31
0.0
 11
96.87334820220103
 21
309.8905762929216
 31
0.0
 11
97.12472200935552
 21
310.085873451112
 31
0.0
 11
97.38545128764743
 21
310.2686677567019
 31
0.0
 11
97.93098493185727
 21
310.5942018201326
 31
0.0
 11
98.50589475197597
 21
310.8652014877503
 31
0.0
 11
99.10384093972284
 21
311.0786243474665
 31
0.0
 11
99.71963347194634
 21
311.2328662716799
 31
0.0
 11
100.349565753924
 21
311.3266742066684
 31
0.0
 11
100.9856688756616
 21
311.3586761317507
 31
0.0
 11
101.6233298346803
 21
311.3283118619991
 31
0.0
 11
102.2549473675909
 21
311.2357831524887
 31
0.0
 11
102.8755202397158
 21
311.0814827958685
 31
0.0
 11
103.4780210468696
 21
310.8669640804978
 31
0.0
 11
104.0583282432508
 21
310.593185741451
 31
0.0
 11
104.6085532312988
 21
310.2636936225317
 31
0.0
 11
104.8711605354463
 21
310.0786168468872
 31
0.0
 11
105.1241809928381
 21
309.8808033307499
 31
0.0
 11
105.3670292942024
 21
309.6707508511299
 31
0.0
 11
105.5992317296095
 21
309.4488426335306
 31
0.0
 11
106.0281477873412
 21
308.9731424157418
 31
0.0
 11
106.4082584459967
 21
308.4571491023628
 31
0.0
 11
106.7336975916869
 21
307.9094451629937
 31
0.0
 11
107.0037784498117
 21
307.3328282044025
 31
0.0
 11
107.1168688950187
 21
307.0364396847476
 31
0.0
 11
107.2153129983826
 21
306.7349917386647
 31
0.0
 11
107.2987958037677
 21
306.4296600041308
 31
0.0
 11
107.3673452272035
 21
306.1204626305453
 31
0.0
 11
107.4587723050878
 21
305.4961476524285
 31
0.0
 11
107.4893645172
 21
304.8662905906
 31
0.0
  0
SPLINE
  5
F3
330
1F
100
AcDbEntity
  8
BEZUGSACHSEN
  6
Continuous
 62
     7
100
AcDbSpline
210
0.0
220
0.0
230
1.0
 70
     8
 71
     3
 72
    47
 73
    43
 74
    41
 42
0.0000000001
 43
0.0000000001
 44
0.00000001
 40
0.0
 40
0.0
 40
0.0
 40
0.0
 40
0.6302393214782401
 40
1.260854867363156
 40
1.57747608843961
 40
1.893930800257669
 40
2.210999113897804
 40
2.528183472236078
 40
3.164887038277376
 40
3.801951183424372
 40
4.442851001654128
 40
5.083381259833727
 40
5.404527292356526
 40
5.725573838799359
 40
6.046670710070057
 40
6.367871027192093
 40
7.009090242574045
 40
7.650619763973816
 40
8.290330346505488
 40
8.929958764496227
 40
9.568647011382781
 40
10.20735923018576
 40
10.8444570582034
 40
11.48152626498922
 40
12.11643462224736
 40
12.75141965580866
 40
13.38691908737539
 40
14.02211738528043
 40
14.34050449138223
 40
14.65879153787298
 40
14.97761586866522
 40
15.29653774946578
 40
15.93537694105666
 40
16.57458694071819
 40
17.21386274997209
 40
17.85277859079349
 40
18.17219860085832
 40
18.49150024078379
 40
18.81067156638376
 40
19.13001452425522
 40
19.76719627026622
 40
20.40398968282313
 40
20.40398968282313
 40
20.40398968282313
 40
20.40398968282313
 10
107.4893523256
 20
304.8662906287
 30
0.0
 10
107.4834831238555
 20
304.6561346068038
 30
0.0
 10
107.4717412167182
 20
304.2356971093594
 30
0.0
 10
107.3922944741402
 20
303.7145336670935
 30
0.0
 10
107.3015629690338
 20
303.3031421996735
 30
0.0
 10
107.2179575867117
 20
302.9975043593906
 30
0.0
 10
107.1196056453362
 20
302.6961205132059
 30
0.0
 10
106.9685868344883
 20
302.3001473336107
 30
0.0
 10
106.7433042469181
 20
301.8190405249143
 30
0.0
 10
106.416926212197
 20
301.2694062998929
 30
0.0
 10
106.0370591501392
 20
300.7536784372348
 30
0.0
 10
105.6788047108345
 20
300.3561530350385
 30
0.0
 10
105.3696239731591
 20
300.0605996801007
 30
0.0
 10
105.1266990171285
 20
299.8504147716658
 30
0.0
 10
104.8736501138016
 20
299.6525053073507
 30
0.0
 10
104.5238676053378
 20
299.4058819558912
 30
0.0
 10
104.0643823675854
 20
299.1306753466181
 30
0.0
 10
103.4839866606294
 20
298.8566352399059
 30
0.0
 10
102.8798323527996
 20
298.6414467625492
 30
0.0
 10
102.2584172053939
 20
298.4867849235088
 30
0.0
 10
101.6251479939513
 20
298.3939745504773
 30
0.0
 10
100.9866885295102
 20
298.3634638006694
 30
0.0
 10
100.3488555159553
 20
298.3955655430511
 30
0.0
 10
99.71842552896231
 20
298.4893786054275
 30
0.0
 10
99.10085185946737
 20
298.6440924217162
 30
0.0
 10
98.50170844803884
 20
298.8578889937725
 30
0.0
 10
97.92625122657611
 20
299.1292103621814
 30
0.0
 10
97.47056583363505
 20
299.4010552457995
 30
0.0
 10
97.12330993591476
 20
299.6445157983927
 30
0.0
 10
96.87169035462279
 20
299.8399983247273
 30
0.0
 10
96.62981530433964
 20
300.047691383437
 30
0.0
 10
96.32087902063176
 20
300.3405289315853
 30
0.0
 10
95.96203626371494
 20
300.7349865805297
 30
0.0
 10
95.57980935845981
 20
301.2484712464919
 30
0.0
 10
95.25018491320986
 20
301.7972390252177
 30
0.0
 10
95.02169746730992
 20
302.2793024417139
 30
0.0
 10
94.86819596738113
 20
302.6767120008816
 30
0.0
 10
94.76793916448261
 20
302.9799943641675
 30
0.0
 10
94.68262267157115
 20
303.2878182358767
 30
0.0
 10
94.58986021620657
 20
303.7028591029865
 30
0.0
 10
94.50856784925105
 20
304.2291319020617
 30
0.0
 10
94.49652804969202
 20
304.6539475517612
 30
0.0
 10
94.4905099849
 20
304.8662906304
 30
0.0
 11
107.4893523256
 21
304.8662906287
 31
0.0
 11
107.4588127468746
 21
304.2367916720141
 31
0.0
 11
107.3674814713188
 21
303.6128248741658
 31
0.0
 11
107.2989867326036
 21
303.303701163648
 31
0.0
 11
107.2155679077412
 21
302.9984391707789
 31
0.0
 11
107.117181163892
 21
302.6970219115694
 31
0.0
 11
107.0041505327937
 21
302.4006606563285
 31
0.0
 11
106.734170396313
 21
301.824030656315
 31
0.0
 11
106.4088337744814
 21
301.2763018844515
 31
0.0
 11
106.0287972796679
 21
300.7602351837076
 31
0.0
 11
105.5999467819754
 21
300.284455547455
 31
0.0
 11
105.3678096475995
 21
300.0625386146876
 31
0.0
 11
105.1250271542623
 21
299.8524730394216
 31
0.0
 11
104.872097545964
 21
299.6546604665505
 31
0.0
 11
104.6095831501297
 21
299.4695771455866
 31
0.0
 11
104.0595249685309
 21
299.1400349191098
 31
0.0
 11
103.4793841368799
 21
298.86617958818
 31
0.0
 11
102.8767788265883
 21
298.6514787045967
 31
0.0
 11
102.256079556267
 21
298.4970218208914
 31
0.0
 11
101.6241507423446
 21
298.404346846677
 31
0.0
 11
100.9861646151635
 21
298.3739001724319
 31
0.0
 11
100.3498696270386
 21
298.4058740766664
 31
0.0
 11
99.71974635293093
 21
298.4996921648079
 31
0.0
 11
99.10386244468948
 21
298.6539504990575
 31
0.0
 11
98.50582997487051
 21
298.867405782171
 31
0.0
 11
97.93099422632795
 21
299.13837328893
 31
0.0
 11
97.38552753881565
 21
299.4638621066731
 31
0.0
 11
97.12482524606587
 21
299.6466315348795
 31
0.0
 11
96.87347599427217
 21
299.8419010859789
 31
0.0
 11
96.63159269590808
 21
300.0496062228379
 31
0.0
 11
96.40013686458082
 21
300.2690130691257
 31
0.0
 11
95.97021383367138
 21
300.7415399997933
 31
0.0
 11
95.58859269420941
 21
301.2543311167045
 31
0.0
 11
95.25936122003452
 21
301.8023093979437
 31
0.0
 11
94.98574691291965
 21
302.3796729425104
 31
0.0
 11
94.87065466048834
 21
302.6776375650079
 31
0.0
 11
94.77041497208697
 21
302.9807968335917
 31
0.0
 11
94.68524789187927
 21
303.2883954414139
 31
0.0
 11
94.6152848643974
 21
303.5999802605686
 31
0.0
 11
94.52179596740442
 21
304.2302662302591
 31
0.0
 11
94.4905099849
 21
304.8662906304
 31
0.0
  0
SPLINE
  5
F4
330
1F
100
AcDbEntity
  8
BEZUGSACHSEN
  6
Continuous
 62
     7
100
AcDbSpline
210
0.0
220
0.0
230
1.0
 70
     8
 71
     3
 72
    27
 73
    23
 74
    21
 42
0.0000000001
 43
0.0000000001
 44
0.00000001
 40
0.0
 40
0.0
 40
0.0
 40
0.0
 40
0.1219765139516464
 40
0.2439857714748938
 40
0.3566831398333753
 40
0.4694418149629606
 40
0.5721317672948492
 40
0.6745445881155907
 40
0.7225206521221946
 40
0.7704888797708496
 40
0.8171412936045905
 40
0.8637898734267654
 40
0.910231800082579
 40
0.956675132413543
 40
1.004175175749031
 40
1.051683100138778
 40
1.153672388731368
 40
1.256049376645756
 40
1.370745138047831
 40
1.48538540182603
 40
1.611534903874107
 40
1.73763187600641
 40
1.73763187600641
 40
1.73763187600641
 40
1.73763187600641
 10
67.1357813634
 20
289.6239546145
 30
0.0
 10
67.10052634579661
 20
289.6036750892351
 30
0.0
 10
67.03000684667622
 20
289.563110594837
 30
0.0
 10
66.92235444349032
 20
289.5123147339453
 30
0.0
 10
66.81419642761905
 20
289.4705630980762
 30
0.0
 10
66.70861720665067
 20
289.4411485129349
 30
0.0
 10
66.60378566150493
 20
289.4242339255467
 30
0.0
 10
66.51905799165556
 20
289.4223687023184
 30
0.0
 10
66.4532340552518
 20
289.4293240103382
 30
0.0
 10
66.40652685203773
 20
289.4385211374916
 30
0.0
 10
66.36134623473367
 20
289.4520545824788
 30
0.0
 10
66.31820662408191
 20
289.4698478412848
 30
0.0
 10
66.27725214750383
 20
289.4920761989887
 30
0.0
 10
66.23860472103298
 20
289.5186112306905
 30
0.0
 10
66.20269864240103
 20
289.5493065082209
 30
0.0
 10
66.15725932086667
 20
289.5968439813303
 30
0.0
 10
66.1087161807766
 20
289.666013348404
 30
0.0
 10
66.06249047180332
 20
289.7621714030956
 30
0.0
 10
66.02852459802331
 20
289.8677468360746
 30
0.0
 10
66.00556917384611
 20
289.9841645269802
 30
0.0
 10
65.99212461549494
 20
290.1059118356683
 30
0.0
 10
65.99066722919888
 20
290.1900151992187
 30
0.0
 10
65.9899386878
 20
290.2320581238
 30
0.0
 11
67.1357813634
 21
289.6239546145
 31
0.0
 11
67.02923673933945
 21
289.5645701633399
 31
0.0
 11
66.91894385017078
 21
289.5123998890431
 31
0.0
 11
66.81362584231834
 21
289.4722898646486
 31
0.0
 11
66.7049021137753
 21
289.4423955563496
 31
0.0
 11
66.60343796165417
 21
289.4265761965565
 31
0.0
 11
66.50103842106977
 21
289.4249269674744
 31
0.0
 11
66.45333456485722
 21
289.43003038006
 31
0.0
 11
66.40628379459578
 21
289.439367182594
 31
0.0
 11
66.36160422716233
 21
289.4527904448828
 31
0.0
 11
66.31849809056641
 21
289.4706216250793
 31
0.0
 11
66.27767549776955
 21
289.4927658899992
 31
0.0
 11
66.23938824122341
 21
289.5190540832459
 31
0.0
 11
66.20325114421286
 21
289.5498820630131
 31
0.0
 11
66.17039864384097
 21
289.584199931524
 31
0.0
 11
66.11122624958715
 21
289.6672688351276
 31
0.0
 11
66.06632652598609
 21
289.7592746092669
 31
0.0
 11
66.03068836641859
 21
289.8682931364365
 31
0.0
 11
66.00783680305236
 21
289.9806327827367
 31
0.0
 11
65.9940700467298
 21
290.106028848414
 31
0.0
 11
65.9899386878
 21
290.2320581238
 31
0.0
  0
SPLINE
  5
F5
330
1F
100
AcDbEntity
  8
BEZUGSACHSEN
  6
Continuous
 62
     7
100
AcDbSpline
210
0.0
220
0.0
230
1.0
 70
     8
 71
     3
 72
    27
 73
    23
 74
    21
 42
0.0000000001
 43
0.0000000001
 44
0.00000001
 40
0.0
 40
0.0
 40
0.0
 40
0.0
 40
0.1260969825525347
 40
0.2522464959195254
 40
0.3668867952504598
 40
0.4815825893953833
 40
0.583959600687449
 40
0.685948916135806
 40
0.7334568410428157
 40
0.7809568848815625
 40
0.8274002264432128
 40
0.873842160734215
 40
0.9204907319212774
 40
0.9671431399561585
 40
1.015111401852903
 40
1.063087497173115
 40
1.165500418774575
 40
1.26819047898085
 40
1.380949153910145
 40
1.493646517782518
 40
1.615655563746195
 40
1.737631867671355
 40
1.737631867671355
 40
1.737631867671355
 40
1.737631867671355
 10
65.9899386878
 20
319.5005230961
 30
0.0
 10
65.99066722927628
 20
319.5425660241609
 30
0.0
 10
65.99212461573237
 20
319.6266693949705
 30
0.0
 10
66.00556917768078
 20
319.7484167225331
 30
0.0
 10
66.0285246109663
 20
319.8648344389113
 30
0.0
 10
66.06249051130196
 20
319.9704098967045
 30
0.0
 10
66.10871627014943
 20
320.0665679589671
 30
0.0
 10
66.15725943870078
 20
320.1357373246381
 30
0.0
 10
66.20269876427184
 20
320.1832748062337
 30
0.0
 10
66.238604842368
 20
320.2139700897044
 30
0.0
 10
66.27725227345309
 20
320.2405051254391
 30
0.0
 10
66.31820676065291
 20
320.2627334713688
 30
0.0
 10
66.36134638683112
 20
320.2805266882606
 30
0.0
 10
66.40652702144654
 20
320.2940600953224
 30
0.0
 10
66.45323424443617
 20
320.303257220656
 30
0.0
 10
66.5190582356405
 20
320.3102125410309
 30
0.0
 10
66.60378598764011
 20
320.3083472843649
 30
0.0
 10
66.70861759112486
 20
320.2914326233783
 30
0.0
 10
66.81419683346712
 20
320.2620179905044
 30
0.0
 10
66.92235477156285
 20
320.2202663530555
 30
0.0
 10
67.03000703285097
 20
320.1694705259193
 30
0.0
 10
67.10052640770705
 20
320.1289060977018
 30
0.0
 10
67.1357813634
 20
320.1086266054
 30
0.0
 11
65.9899386878
 21
319.5005230961
 31
0.0
 11
65.99407004736466
 21
319.626552381891
 31
0.0
 11
66.00783680648566
 21
319.751948458648
 31
0.0
 11
66.03068838256779
 21
319.8642881386424
 31
0.0
 11
66.06632657193867
 21
319.9733066905173
 31
0.0
 11
66.1112263367388
 21
320.0653124705639
 31
0.0
 11
66.17039876569295
 21
320.148381382422
 31
0.0
 11
66.20325126585448
 21
320.1826992518505
 31
0.0
 11
66.23938836078129
 21
320.2135272348356
 31
0.0
 11
66.27767562564273
 21
320.2398154322794
 31
0.0
 11
66.31849823357999
 21
320.2619596853011
 31
0.0
 11
66.36160437719803
 21
320.2797908259313
 31
0.0
 11
66.40628394924236
 21
320.2932140527188
 31
0.0
 11
66.45333475499751
 21
320.3025508523411
 31
0.0
 11
66.50103864227158
 21
320.3076542689532
 31
0.0
 11
66.60343828312931
 21
320.3060050075563
 31
0.0
 11
66.70490253343003
 21
320.2901855772226
 31
0.0
 11
66.81362624986721
 21
320.2602912256509
 31
0.0
 11
66.91894424216171
 21
320.2201811730102
 31
0.0
 11
67.02923692807963
 21
320.1680109637909
 31
0.0
 11
67.1357813634
 21
320.1086266054
 31
0.0
  0
SPLINE
  5
F6
330
1F
100
AcDbEntity
  8
BEZUGSACHSEN
  6
Continuous
 62
     7
100
AcDbSpline
210
0.0
220
0.0
230
1.0
 70
     8
 71
     3
 72
    15
 73
    11
 74
     9
 42
0.0000000001
 43
0.0000000001
 44
0.00000001
 40
0.0
 40
0.0
 40
0.0
 40
0.0
 40
0.1110371613045292
 40
0.2222522336839786
 40
0.333398019133286
 40
0.4445069474378869
 40
0.5556201065050229
 40
0.6667525642071024
 40
0.7778876032965325
 40
0.8889820915054253
 40
0.8889820915054253
 40
0.8889820915054253
 40
0.8889820915054253
 10
67.889864203
 20
289.1897582237
 30
0.0
 10
67.85322247614017
 20
289.1952903765144
 30
0.0
 10
67.77988031262518
 20
289.206363546124
 30
0.0
 10
67.67336376262712
 20
289.2393821096458
 30
0.0
 10
67.5709508548868
 20
289.2829723971341
 30
0.0
 10
67.47350088927527
 20
289.3367519049914
 30
0.0
 10
67.38119609353777
 20
289.3988470403552
 30
0.0
 10
67.29419946540294
 20
289.4681337139787
 30
0.0
 10
67.21194670995251
 20
289.5430156655736
 30
0.0
 10
67.16116672359264
 20
289.5969782470953
 30
0.0
 10
67.1357813634
 20
289.6239546145
 30
0.0
 11
67.889864203
 21
289.1897582237
 31
0.0
 11
67.78052191795125
 21
289.2090847829097
 31
0.0
 11
67.67402996436316
 21
289.2411512162217
 31
0.0
 11
67.57176178376535
 21
289.2846782751662
 31
0.0
 11
67.47435891732644
 21
289.3381373769028
 31
0.0
 11
67.3820871505242
 21
289.4000409726713
 31
0.0
 11
67.29499004710604
 21
289.4690664587694
 31
0.0
 11
67.21295014265179
 21
289.5440361259058
 31
0.0
 11
67.1357813634
 21
289.6239546145
 31
0.0
  0
SPLINE
  5
F7
330
1F
100
AcDbEntity
  8
BEZUGSACHSEN
  6
Continuous
 62
     7
100
AcDbSpline
210
0.0
220
0.0
230
1.0
 70
     8
 71
     3
 72
    15
 73
    11
 74
     9
 42
0.0000000001
 43
0.0000000001
 44
0.00000001
 40
0.0
 40
0.0
 40
0.0
 40
0.0
 40
0.1110944830745313
 40
0.2222295180904899
 40
0.3333620401537785
 40
0.4444752609825229
 40
0.5555842177612965
 40
0.6667300353415442
 40
0.7779450181300358
 40
0.8889820870812442
 40
0.8889820870812442
 40
0.8889820870812442
 40
0.8889820870812442
 10
67.1357813634
 20
320.1086266054
 30
0.0
 10
67.16116672294503
 20
320.1356029710779
 30
0.0
 10
67.21194670825228
 20
320.1895655494034
 30
0.0
 10
67.29419947750523
 20
320.2644475127869
 30
0.0
 10
67.38119612944891
 20
320.333734221716
 30
0.0
 10
67.47350096986796
 20
320.3958293848115
 30
0.0
 10
67.57095099185096
 20
320.4496088769232
 30
0.0
 10
67.6733639057243
 20
320.4931991224981
 30
0.0
 10
67.77988040429472
 20
320.5262176783298
 30
0.0
 10
67.85322250700032
 20
320.5372908449509
 30
0.0
 10
67.889864203
 20
320.5428229962
 30
0.0
 11
67.1357813634
 21
320.1086266054
 31
0.0
 11
67.2129501404269
 21
320.1885450890053
 31
0.0
 11
67.29499004067827
 21
320.2635147547024
 31
0.0
 11
67.38208718928935
 21
320.3325402873984
 31
0.0
 11
67.47435901086193
 21
320.3944439123861
 31
0.0
 11
67.57176191892718
 21
320.4479029974597
 31
0.0
 11
67.67403014231601
 21
320.4914300379112
 31
0.0
 11
67.78052201044046
 21
320.5234964443206
 31
0.0
 11
67.889864203
 21
320.5428229962
 31
0.0
  0
SPLINE
  5
F8
330
1F
100
AcDbEntity
  8
0
  6
Continuous
 62
     7
100
AcDbSpline
210
0.0
220
0.0
230
1.0
 70
     8
 71
     3
 72
    19
 73
    15
 74
    13
 42
0.0000000001
 43
0.0000000001
 44
0.00000001
 40
0.0
 40
0.0
 40
0.0
 40
0.0
 40
0.1162460235955585
 40
0.2327881718402031
 40
0.3491890046160626
 40
0.4655468550647832
 40
0.581907136994191
 40
0.6982738489329663
 40
0.814620607288083
 40
0.9309998278272318
 40
1.163276323454701
 40
1.396138921792609
 40
1.629013178090359
 40
1.861351539750201
 40
1.861351539750201
 40
1.861351539750201
 40
1.861351539750201
 10
135.1149386878
 20
271.3439100262
 30
0.0
 10
135.0761546169513
 20
271.3420690793116
 30
0.0
 10
134.9984876768691
 20
271.3383824959144
 30
0.0
 10
134.8848775917865
 20
271.3099770109786
 30
0.0
 10
134.7766899038367
 20
271.2661230967728
 30
0.0
 10
134.6757140378858
 20
271.2075264085395
 30
0.0
 10
134.5829455811493
 20
271.136841547219
 30
0.0
 10
134.4988582021362
 20
271.0560839421414
 30
0.0
 10
134.4235545587467
 20
270.9671163033983
 30
0.0
 10
134.3349033145843
 20
270.839756855646
 30
0.0
 10
134.2449065688791
 20
270.6669714775495
 30
0.0
 10
134.1700130497598
 20
270.4460464873584
 30
0.0
 10
134.1234761244336
 20
270.2170265677729
 30
0.0
 10
134.1177823137115
 20
270.0618471749397
 30
0.0
 10
134.1149386878
 20
269.9843468568
 30
0.0
 11
135.1149386878
 21
271.3439100262
 31
0.0
 11
134.9990673362235
 21
271.334584368817
 31
0.0
 11
134.8857428115032
 21
271.3073883320767
 31
0.0
 11
134.7778696789034
 21
271.2636557225727
 31
0.0
 11
134.6770809394089
 21
271.2055112529118
 31
0.0
 11
134.5843936343426
 21
271.1351636965204
 31
0.0
 11
134.5003182686858
 21
271.0547115707739
 31
0.0
 11
134.4250195107404
 21
270.9660173475594
 31
0.0
 11
134.3583927814289
 21
270.8705972138635
 31
0.0
 11
134.2505029953545
 21
270.66489800511
 31
0.0
 11
134.1747448585419
 21
270.4447033312159
 31
0.0
 11
134.1297848447428
 21
270.2162104070247
 31
0.0
 11
134.1149386878
 21
269.9843468568
 31
0.0
  0
SPLINE
  5
F9
330
1F
100
AcDbEntity
  8
0
  6
Continuous
 62
     7
100
AcDbSpline
210
0.0
220
0.0
230
1.0
 70
     8
 71
     3
 72
    19
 73
    15
 74
    13
 42
0.0000000001
 43
0.0000000001
 44
0.00000001
 40
0.0
 40
0.0
 40
0.0
 40
0.0
 40
0.2323383481160774
 40
0.4652125957045085
 40
0.6980761132820937
 40
0.9303535187426648
 40
1.046733461811419
 40
1.163080940881824
 40
1.279447997448344
 40
1.395808629545088
 40
1.512165904499759
 40
1.628566140314248
 40
1.745106920492739
 40
1.861351602753706
 40
1.861351602753706
 40
1.861351602753706
 40
1.861351602753706
 10
137.8649386878
 20
269.9843468568
 30
0.0
 10
137.8620950621945
 20
270.061847170459
 30
0.0
 10
137.8564012520255
 20
270.2170265559438
 30
0.0
 10
137.8098642761695
 20
270.4460467699616
 30
0.0
 10
137.7349705303662
 20
270.6669723318475
 30
0.0
 10
137.6449732261098
 20
270.8397583960614
 30
0.0
 10
137.5563212883349
 20
270.9671183218056
 30
0.0
 10
137.4810170239909
 20
271.0560862207284
 30
0.0
 10
137.3969290501464
 20
271.1368438906587
 30
0.0
 10
137.3041603163
 20
271.2075284569988
 30
0.0
 10
137.2031845040746
 20
271.2661246811641
 30
0.0
 10
137.0949974545872
 20
271.309977932325
 30
0.0
 10
136.9813883452478
 20
271.3383826917731
 30
0.0
 10
136.9037223104611
 20
271.3420691444195
 30
0.0
 10
136.8649386878
 20
271.3439100262
 30
0.0
 11
137.8649386878
 21
269.9843468568
 31
0.0
 11
137.8500925336797
 21
270.216210393634
 31
0.0
 11
137.8051325320736
 21
270.444703311348
 31
0.0
 11
137.7293740533562
 21
270.6648988397336
 31
0.0
 11
137.6214836421736
 21
270.8705987480037
 31
0.0
 11
137.5548563183501
 21
270.9660193478175
 31
0.0
 11
137.4795568617934
 21
271.0547139233466
 31
0.0
 11
137.3954809954427
 21
271.1351660243218
 31
0.0
 11
137.3027931694561
 21
271.2055134735709
 31
0.0
 11
137.2020047345703
 21
271.2636573195749
 31
0.0
 11
137.0941320058099
 21
271.3073893363071
 31
0.0
 11
136.9808087172707
 21
271.334584661627
 31
0.0
 11
136.8649386878
 21
271.3439100262
 31
0.0
  0
SPLINE
  5
FA
330
1F
100
AcDbEntity
  8
BEZUGSACHSEN
  6
Continuous
 62
     7
100
AcDbSpline
210
0.0
220
0.0
230
1.0
 70
     8
 71
     3
 72
    11
 73
     7
 74
     5
 42
0.0000000001
 43
0.0000000001
 44
0.00000001
 40
0.0
 40
0.0
 40
0.0
 40
0.0
 40
0.5462907430762524
 40
1.093000863563829
 40
1.646070107101644
 40
2.198197048700582
 40
2.198197048700582
 40
2.198197048700582
 40
2.198197048700582
 10
75.5437846347
 20
319.8762906099
 30
0.0
 10
75.60685543653061
 20
319.7053589806721
 30
0.0
 10
75.7330454584928
 20
319.3633645011313
 30
0.0
 10
75.87268277153933
 20
318.8320903719415
 30
0.0
 10
75.97017113560989
 20
318.2886659669858
 30
0.0
 10
75.98335325013997
 20
317.9200813264095
 30
0.0
 10
75.9899386878
 20
317.7359461357
 30
0.0
 11
75.5437846347
 21
319.8762906099
 31
0.0
 11
75.72463596724478
 21
319.3608040712905
 31
0.0
 11
75.86512745195225
 21
318.8324537154014
 31
0.0
 11
75.95719410522968
 21
318.2871012426814
 31
0.0
 11
75.9899386878
 21
317.7359461357
 31
0.0
  0
SPLINE
  5
FB
330
1F
100
AcDbEntity
  8
BEZUGSACHSEN
  6
Continuous
 62
     7
100
AcDbSpline
210
0.0
220
0.0
230
1.0
 70
     8
 71
     3
 72
    11
 73
     7
 74
     5
 42
0.0000000001
 43
0.0000000001
 44
0.00000001
 40
0.0
 40
0.0
 40
0.0
 40
0.0
 40
0.9140556660002959
 40
1.828030949185949
 40
2.279806974883473
 40
2.730944124862192
 40
2.730944124862192
 40
2.730944124862192
 40
2.730944124862192
 10
67.2568916146854
 20
289.856290610085
 30
0.0
 10
67.38954632164868
 20
290.1310072077516
 30
0.0
 10
67.65484406981008
 20
290.6804162442788
 30
0.0
 10
67.87019928312529
 20
291.4131271653875
 30
0.0
 10
67.97389349678976
 20
292.011072371527
 30
0.0
 10
67.98459281430766
 20
292.3121955869873
 30
0.0
 10
67.9899386878
 20
292.4626506616
 30
0.0
 11
67.2568916146854
 21
289.856290610085
 31
0.0
 11
67.6316991444609
 21
290.6899674516554
 31
0.0
 11
67.89099050485876
 21
291.566391326671
 31
0.0
 11
67.96370747835738
 21
292.0122767594452
 31
0.0
 11
67.9899386878
 21
292.4626506616
 31
0.0
  0
SPLINE
  5
FC
330
1F
100
AcDbEntity
  8
BEZUGSACHSEN
  6
Continuous
 62
     7
100
AcDbSpline
210
0.0
220
0.0
230
1.0
 70
     8
 71
     3
 72
    11
 73
     7
 74
     5
 42
0.0000000001
 43
0.0000000001
 44
0.00000001
 40
0.0
 40
0.0
 40
0.0
 40
0.0
 40
0.8249192366724734
 40
1.650116891930993
 40
2.19049215229345
 40
2.730585915378198
 40
2.730585915378198
 40
2.730585915378198
 40
2.730585915378198
 10
67.9899386878
 20
317.2699305583
 30
0.0
 10
67.97220538346183
 20
317.5451208502769
 30
0.0
 10
67.93673278961587
 20
318.0955943137377
 30
0.0
 10
67.72829797298049
 20
318.8003278988906
 30
0.0
 10
67.49807154200069
 20
319.3925416239707
 30
0.0
 10
67.3372709591988
 20
319.715068957416
 30
0.0
 10
67.2568916146854
 20
319.876290609715
 30
0.0
 11
67.9899386878
 21
317.2699305583
 31
0.0
 11
67.90636323368429
 21
318.090605213996
 31
0.0
 11
67.68840179157249
 21
318.8864971538953
 31
0.0
 11
67.49046671301326
 21
319.3893163328131
 31
0.0
 11
67.2568916146854
 21
319.876290609715
 31
0.0
  0
DIMENSION
  5
107
330
1F
100
AcDbEntity
  8
1
100
AcDbDimension
  2
*D2
 10
243.352568475338
 20
317.3662906099
 30
0.0
 11
239.602568475338
 21
305.349765882552
 31
0.0
 70
    32
  1
<>
 71
     5
 42
-1.0
 53
90.0
  3
ME10_DIM_10
100
AcDbAlignedDimension
 13
230.9899386878
 23
292.3662906099
 33
0.0
 14
230.9899386878
 24
317.3662906099
 34
0.0
 50
90.0
100
AcDbRotatedDimension
  0
DIMENSION
  5
112
330
1F
100
AcDbEntity
  8
1
100
AcDbDimension
  2
*D3
 10
251.402414719718
 20
326.8662906099466
 30
0.0
 11
247.652414719718
 21
305.349765882552
 31
0.0
 70
    32
  1
<>
 71
     5
 42
-1.0
 53
90.0
  3
ME10_DIM_11
100
AcDbAlignedDimension
 13
230.9899386878
 23
282.8662906099486
 33
0.0
 14
230.9899386878
 24
326.8662906099467
 34
0.0
 50
90.0
100
AcDbRotatedDimension
  0
DIMENSION
  5
11D
330
1F
100
AcDbEntity
  8
1
100
AcDbDimension
  2
*D4
 10
260.096248663649
 20
331.3662906099
 30
0.0
 11
256.346248663649
 21
305.349765882552
 31
0.0
 70
    32
  1
<>
 71
     5
 42
-1.0
 53
90.0
  3
ME10_DIM_12
100
AcDbAlignedDimension
 13
173.812017375
 23
278.3662906099
 33
0.0
 14
173.812017375
 24
331.3662906099
 34
0.0
 50
90.0
100
AcDbRotatedDimension
  0
DIMENSION
  5
128
330
1F
100
AcDbEntity
  8
1
100
AcDbDimension
  2
*D5
 10
230.9899386878
 20
361.859686518103
 30
0.0
 11
188.774610938438
 21
365.609686518103
 31
0.0
 70
    32
  1
<>
 71
     5
 42
-1.0
 53
0.00013888888889
  3
ME10_DIM_13
100
AcDbAlignedDimension
 13
144.9899386878
 23
354.8662536888
 33
0.0
 14
230.9899386878
 24
325.9419001183
 34
0.0
100
AcDbRotatedDimension
  0
DIMENSION
  5
133
330
1F
100
AcDbEntity
  8
1
100
AcDbDimension
  2
*D6
 10
230.9899386878
 20
369.426541987821
 30
0.0
 11
173.640899999002
 21
373.176541987821
 31
0.0
 70
    32
  1
<>
 71
     5
 42
-1.0
 53
0.00013888888889
  3
ME10_DIM_14
100
AcDbAlignedDimension
 13
115.9899386878
 23
354.8662906099
 33
0.0
 14
230.9899386878
 24
325.9419001183
 34
0.0
100
AcDbRotatedDimension
  0
DIMENSION
  5
13E
330
1F
100
AcDbEntity
  8
1
100
AcDbDimension
  2
*D7
 10
230.9899386878
 20
376.832400532651
 30
0.0
 11
155.931238261365
 21
380.582400532651
 31
0.0
 70
    32
  1
<>
 71
     5
 42
-1.0
 53
0.00013888888889
  3
ME10_DIM_15
100
AcDbAlignedDimension
 13
65.9899386878
 23
338.4664821725
 33
0.0
 14
230.9899386878
 24
325.9419001183
 34
0.0
100
AcDbRotatedDimension
  0
INSERT
  5
145
330
1F
100
AcDbEntity
  8
1
100
AcDbBlockReference
  2
*D8
 10
0.0
 20
0.0
 30
0.0
  0
DIMENSION
  5
150
330
1F
100
AcDbEntity
  8
1
100
AcDbDimension
  2
*D9
 10
210.8266167668416
 20
329.9119830389564
 30
0.0
 11
213.6922856124341
 21
339.9480137115281
 31
0.0
 70
    37
  1
<>
 71
     5
 42
-1.0
  3
ME10_DIM_16
100
AcDb3PointAngularDimension
 13
210.7409840048547
 23
328.4599179048768
 33
0.0
 14
177.5163332074439
 24
331.3662906099
 34
0.0
 15
173.812017375
 25
331.3662906099
 35
0.0
  0
ENDSEC
  0
SECTION
  2
OBJECTS
  0
DICTIONARY
  5
C
330
0
100
AcDbDictionary
281
     1
  3
ACAD_GROUP
350
D
  3
ACAD_LAYOUT
350
1A
  3
ACAD_MLEADERSTYLE
350
153
  3
ACAD_MLINESTYLE
350
17
  3
ACAD_PLOTSETTINGS
350
19
  3
ACAD_PLOTSTYLENAME
350
E
  3
ACAD_SCALELIST
350
4A
  3
ACAD_VISUALSTYLE
350
2A
  3
AcDbVariableDictionary
350
151
  0
DICTIONARY
  5
D
102
{ACAD_REACTORS
330
C
102
}
330
C
100
AcDbDictionary
281
     1
  0
DICTIONARY
  5
1A
102
{ACAD_REACTORS
330
C
102
}
330
C
100
AcDbDictionary
281
     1
  3
Layout1
350
1E
  3
Layout2
350
26
  3
Model
350
22
  0
DICTIONARY
  5
153
102
{ACAD_REACTORS
330
C
102
}
330
C
100
AcDbDictionary
281
     1
  0
DICTIONARY
  5
17
102
{ACAD_REACTORS
330
C
102
}
330
C
100
AcDbDictionary
281
     1
  3
Standard
350
18
  0
DICTIONARY
  5
19
102
{ACAD_REACTORS
330
C
102
}
330
C
100
AcDbDictionary
281
     1
  0
ACDBDICTIONARYWDFLT
  5
E
102
{ACAD_REACTORS
330
C
102
}
330
C
100
AcDbDictionary
281
     1
  3
Normal
350
F
100
AcDbDictionaryWithDefault
340
F
  0
DICTIONARY
  5
4A
102
{ACAD_REACTORS
330
C
102
}
330
C
100
AcDbDictionary
281
     1
  3
A0
350
4B
  3
A1
350
4C
  3
A2
350
4D
  3
A3
350
4E
  3
A4
350
4F
  3
A5
350
50
  3
A6
350
51
  3
A7
350
52
  3
A8
350
53
  3
A9
350
54
  3
B0
350
55
  3
B1
350
56
  3
B2
350
57
  3
B3
350
58
  3
B4
350
59
  3
B5
350
5A
  3
B6
350
5B
  3
B7
350
5C
  3
B8
350
5D
  3
B9
350
5E
  3
C0
350
5F
  3
C1
350
60
  3
C2
350
61
  3
C3
350
62
  3
C4
350
63
  3
C5
350
64
  3
C6
350
65
  3
C7
350
66
  3
C8
350
67
  3
C9
350
68
  3
D0
350
69
  3
D1
350
6A
  3
D2
350
6B
  0
DICTIONARY
  5
2A
102
{ACAD_REACTORS
330
C
102
}
330
C
100
AcDbDictionary
281
     1
  3
2dWireframe
350
2F
  3
3D Hidden
350
31
  3
3dWireframe
350
30
  3
Basic
350
32
  3
Brighten
350
36
  3
ColorChange
350
3A
  3
Conceptual
350
34
  3
Dim
350
35
  3
Facepattern
350
39
  3
Flat
350
2B
  3
FlatWithEdges
350
2C
  3
Gouraud
350
2D
  3
GouraudWithEdges
350
2E
  3
Linepattern
350
38
  3
Realistic
350
33
  3
Thicken
350
37
  0
DICTIONARY
  5
151
102
{ACAD_REACTORS
330
C
102
}
330
C
100
AcDbDictionary
281
     1
  3
CANNOSCALE
350
154
  0
LAYOUT
  5
1E
102
{ACAD_REACTORS
330
1A
102
}
330
1A
100
AcDbPlotSettings
  1

  2
none_device
  4

  6

 40
0.0
 41
0.0
 42
0.0
 43
0.0
 44
0.0
 45
0.0
 46
0.0
 47
0.0
 48
0.0
 49
0.0
140
0.0
141
0.0
142
1.0
143
1.0
 70
   688
 72
     0
 73
     0
 74
     5
  7

 75
    16
147
1.0
148
0.0
149
0.0
100
AcDbLayout
  1
Layout1
 70
     1
 71
     1
 10
0.0
 20
0.0
 11
12.0
 21
9.0
 12
0.0
 22
0.0
 32
0.0
 14
1.00000000000000E+20
 24
1.00000000000000E+20
 34
1.00000000000000E+20
 15
-1.00000000000000E+20
 25
-1.00000000000000E+20
 35
-1.00000000000000E+20
146
0.0
 13
0.0
 23
0.0
 33
0.0
 16
1.0
 26
0.0
 36
0.0
 17
0.0
 27
1.0
 37
0.0
 76
     0
330
1B
  0
LAYOUT
  5
26
102
{ACAD_REACTORS
330
1A
102
}
330
1A
100
AcDbPlotSettings
  1

  2
none_device
  4

  6

 40
0.0
 41
0.0
 42
0.0
 43
0.0
 44
0.0
 45
0.0
 46
0.0
 47
0.0
 48
0.0
 49
0.0
140
0.0
141
0.0
142
1.0
143
1.0
 70
   688
 72
     0
 73
     0
 74
     5
  7

 75
    16
147
1.0
148
0.0
149
0.0
100
AcDbLayout
  1
Layout2
 70
     1
 71
     2
 10
0.0
 20
0.0
 11
0.0
 21
0.0
 12
0.0
 22
0.0
 32
0.0
 14
0.0
 24
0.0
 34
0.0
 15
0.0
 25
0.0
 35
0.0
146
0.0
 13
0.0
 23
0.0
 33
0.0
 16
1.0
 26
0.0
 36
0.0
 17
0.0
 27
1.0
 37
0.0
 76
     0
330
23
  0
LAYOUT
  5
22
102
{ACAD_REACTORS
330
1A
102
}
330
1A
100
AcDbPlotSettings
  1

  2
none_device
  4

  6

 40
0.0
 41
0.0
 42
0.0
 43
0.0
 44
0.0
 45
0.0
 46
0.0
 47
0.0
 48
0.0
 49
0.0
140
0.0
141
0.0
142
1.0
143
1.0
 70
  1712
 72
     0
 73
     0
 74
     0
  7

 75
     0
147
1.0
148
0.0
149
0.0
100
AcDbLayout
  1
Model
 70
     1
 71
     0
 10
0.0
 20
0.0
 11
12.0
 21
9.0
 12
0.0
 22
0.0
 32
0.0
 14
43.72311407992291
 24
254.8662906099
 34
0.0
 15
262.096248663649
 25
382.332400532651
 35
0.0
146
0.0
 13
0.0
 23
0.0
 33
0.0
 16
1.0
 26
0.0
 36
0.0
 17
0.0
 27
1.0
 37
0.0
 76
     0
330
1F
331
29
  0
MLINESTYLE
  5
18
102
{ACAD_REACTORS
330
17
102
}
330
17
100
AcDbMlineStyle
  2
Standard
 70
     0
  3

 62
   256
 51
90.0
 52
90.0
 71
     2
 49
0.5
 62
   256
  6
BYLAYER
 49
-0.5
 62
   256
  6
BYLAYER
  0
ACDBPLACEHOLDER
  5
F
102
{ACAD_REACTORS
330
E
102
}
330
E
  0
SCALE
  5
4B
102
{ACAD_REACTORS
330
4A
102
}
330
4A
100
AcDbScale
 70
     0
300
1:1
140
1.0
141
1.0
290
     1
  0
SCALE
  5
4C
102
{ACAD_REACTORS
330
4A
102
}
330
4A
100
AcDbScale
 70
     0
300
1:2
140
1.0
141
2.0
290
     0
  0
SCALE
  5
4D
102
{ACAD_REACTORS
330
4A
102
}
330
4A
100
AcDbScale
 70
     0
300
1:4
140
1.0
141
4.0
290
     0
  0
SCALE
  5
4E
102
{ACAD_REACTORS
330
4A
102
}
330
4A
100
AcDbScale
 70
     0
300
1:5
140
1.0
141
5.0
290
     0
  0
SCALE
  5
4F
102
{ACAD_REACTORS
330
4A
102
}
330
4A
100
AcDbScale
 70
     0
300
1:8
140
1.0
141
8.0
290
     0
  0
SCALE
  5
50
102
{ACAD_REACTORS
330
4A
102
}
330
4A
100
AcDbScale
 70
     0
300
1:10
140
1.0
141
10.0
290
     0
  0
SCALE
  5
51
102
{ACAD_REACTORS
330
4A
102
}
330
4A
100
AcDbScale
 70
     0
300
1:16
140
1.0
141
16.0
290
     0
  0
SCALE
  5
52
102
{ACAD_REACTORS
330
4A
102
}
330
4A
100
AcDbScale
 70
     0
300
1:20
140
1.0
141
20.0
290
     0
  0
SCALE
  5
53
102
{ACAD_REACTORS
330
4A
102
}
330
4A
100
AcDbScale
 70
     0
300
1:30
140
1.0
141
30.0
290
     0
  0
SCALE
  5
54
102
{ACAD_REACTORS
330
4A
102
}
330
4A
100
AcDbScale
 70
     0
300
1:40
140
1.0
141
40.0
290
     0
  0
SCALE
  5
55
102
{ACAD_REACTORS
330
4A
102
}
330
4A
100
AcDbScale
 70
     0
300
1:50
140
1.0
141
50.0
290
     0
  0
SCALE
  5
56
102
{ACAD_REACTORS
330
4A
102
}
330
4A
100
AcDbScale
 70
     0
300
1:100
140
1.0
141
100.0
290
     0
  0
SCALE
  5
57
102
{ACAD_REACTORS
330
4A
102
}
330
4A
100
AcDbScale
 70
     0
300
2:1
140
2.0
141
1.0
290
     0
  0
SCALE
  5
58
102
{ACAD_REACTORS
330
4A
102
}
330
4A
100
AcDbScale
 70
     0
300
4:1
140
4.0
141
1.0
290
     0
  0
SCALE
  5
59
102
{ACAD_REACTORS
330
4A
102
}
330
4A
100
AcDbScale
 70
     0
300
8:1
140
8.0
141
1.0
290
     0
  0
SCALE
  5
5A
102
{ACAD_REACTORS
330
4A
102
}
330
4A
100
AcDbScale
 70
     0
300
10:1
140
10.0
141
1.0
290
     0
  0
SCALE
  5
5B
102
{ACAD_REACTORS
330
4A
102
}
330
4A
100
AcDbScale
 70
     0
300
100:1
140
100.0
141
1.0
290
     0
  0
SCALE
  5
5C
102
{ACAD_REACTORS
330
4A
102
}
330
4A
100
AcDbScale
 70
     0
300
1/128" = 1'-0"
140
0.0078125
141
12.0
290
     0
  0
SCALE
  5
5D
102
{ACAD_REACTORS
330
4A
102
}
330
4A
100
AcDbScale
 70
     0
300
1/64" = 1'-0"
140
0.015625
141
12.0
290
     0
  0
SCALE
  5
5E
102
{ACAD_REACTORS
330
4A
102
}
330
4A
100
AcDbScale
 70
     0
300
1/32" = 1'-0"
140
0.03125
141
12.0
290
     0
  0
SCALE
  5
5F
102
{ACAD_REACTORS
330
4A
102
}
330
4A
100
AcDbScale
 70
     0
300
1/16" = 1'-0"
140
0.0625
141
12.0
290
     0
  0
SCALE
  5
60
102
{ACAD_REACTORS
330
4A
102
}
330
4A
100
AcDbScale
 70
     0
300
3/32" = 1'-0"
140
0.09375
141
12.0
290
     0
  0
SCALE
  5
61
102
{ACAD_REACTORS
330
4A
102
}
330
4A
100
AcDbScale
 70
     0
300
1/8" = 1'-0"
140
0.125
141
12.0
290
     0
  0
SCALE
  5
62
102
{ACAD_REACTORS
330
4A
102
}
330
4A
100
AcDbScale
 70
     0
300
3/16" = 1'-0"
140
0.1875
141
12.0
290
     0
  0
SCALE
  5
63
102
{ACAD_REACTORS
330
4A
102
}
330
4A
100
AcDbScale
 70
     0
300
1/4" = 1'-0"
140
0.25
141
12.0
290
     0
  0
SCALE
  5
64
102
{ACAD_REACTORS
330
4A
102
}
330
4A
100
AcDbScale
 70
     0
300
3/8" = 1'-0"
140
0.375
141
12.0
290
     0
  0
SCALE
  5
65
102
{ACAD_REACTORS
330
4A
102
}
330
4A
100
AcDbScale
 70
     0
300
1/2" = 1'-0"
140
0.5
141
12.0
290
     0
  0
SCALE
  5
66
102
{ACAD_REACTORS
330
4A
102
}
330
4A
100
AcDbScale
 70
     0
300
3/4" = 1'-0"
140
0.75
141
12.0
290
     0
  0
SCALE
  5
67
102
{ACAD_REACTORS
330
4A
102
}
330
4A
100
AcDbScale
 70
     0
300
1" = 1'-0"
140
1.0
141
12.0
290
     0
  0
SCALE
  5
68
102
{ACAD_REACTORS
330
4A
102
}
330
4A
100
AcDbScale
 70
     0
300
1-1/2" = 1'-0"
140
1.5
141
12.0
290
     0
  0
SCALE
  5
69
102
{ACAD_REACTORS
330
4A
102
}
330
4A
100
AcDbScale
 70
     0
300
3" = 1'-0"
140
3.0
141
12.0
290
     0
  0
SCALE
  5
6A
102
{ACAD_REACTORS
330
4A
102
}
330
4A
100
AcDbScale
 70
     0
300
6" = 1'-0"
140
6.0
141
12.0
290
     0
  0
SCALE
  5
6B
102
{ACAD_REACTORS
330
4A
102
}
330
4A
100
AcDbScale
 70
     0
300
1'-0" = 1'-0"
140
12.0
141
12.0
290
     0
  0
VISUALSTYLE
  5
2F
102
{ACAD_REACTORS
330
2A
102
}
330
2A
100
AcDbVisualStyle
  2
2dWireframe
 70
     4
 71
     0
 72
     2
 73
     0
 90
        0
 40
-0.6
 41
-30.0
 62
     5
 63
     7
 74
     1
 91
        4
 64
     7
 65
   257
 75
     1
175
     1
 42
1.0
 92
        0
 66
   257
 43
1.0
 76
     1
 77
     6
 78
     2
 67
     7
 79
     5
170
     0
171
     0
290
     0
174
     0
 93
        1
 44
0.0
173
     0
291
     0
 45
0.0
1001
ACAD
1000
AcDbSavedByObjectVersion
1070
     0
  0
VISUALSTYLE
  5
31
102
{ACAD_REACTORS
330
2A
102
}
330
2A
100
AcDbVisualStyle
  2
3D Hidden
 70
     6
 71
     1
 72
     2
 73
     2
 90
        0
 40
-0.6
 41
-30.0
 62
     5
 63
     7
 74
     2
 91
        2
 64
     7
 65
   257
 75
     2
175
     1
 42
40.0
 92
        0
 66
   257
 43
1.0
 76
     1
 77
     6
 78
     2
 67
     7
 79
     3
170
     0
171
     0
290
     0
174
     0
 93
        1
 44
0.0
173
     0
291
     0
 45
0.0
1001
ACAD
1000
AcDbSavedByObjectVersion
1070
     0
  0
VISUALSTYLE
  5
30
102
{ACAD_REACTORS
330
2A
102
}
330
2A
100
AcDbVisualStyle
  2
3dWireframe
 70
     5
 71
     0
 72
     2
 73
     0
 90
        0
 40
-0.6
 41
-30.0
 62
     5
 63
     7
 74
     1
 91
        4
 64
     7
 65
   257
 75
     1
175
     1
 42
1.0
 92
        0
 66
   257
 43
1.0
 76
     1
 77
     6
 78
     2
 67
     7
 79
     5
170
     0
171
     0
290
     0
174
     0
 93
        1
 44
0.0
173
     0
291
     0
 45
0.0
1001
ACAD
1000
AcDbSavedByObjectVersion
1070
     0
  0
VISUALSTYLE
  5
32
102
{ACAD_REACTORS
330
2A
102
}
330
2A
100
AcDbVisualStyle
  2
Basic
 70
     7
 71
     1
 72
     0
 73
     1
 90
        0
 40
-0.6
 41
-30.0
 62
     5
 63
     7
 74
     0
 91
        4
 64
     7
 65
   257
 75
     1
175
     1
 42
1.0
 92
        8
 66
     7
 43
1.0
 76
     1
 77
     6
 78
     2
 67
     7
 79
     5
170
     0
171
     0
290
     0
174
     0
 93
        1
 44
0.0
173
     0
291
     1
 45
0.0
1001
ACAD
1000
AcDbSavedByObjectVersion
1070
     0
  0
VISUALSTYLE
  5
36
102
{ACAD_REACTORS
330
2A
102
}
330
2A
100
AcDbVisualStyle
  2
Brighten
 70
    12
 71
     2
 72
     2
 73
     0
 90
        0
 40
-0.6
 41
-30.0
 62
     5
 63
     7
 74
     1
 91
        4
 64
     7
 65
   257
 75
     1
175
     1
 42
1.0
 92
        8
 66
     7
 43
1.0
 76
     1
 77
     6
 78
     2
 67
     7
 79
     5
170
     0
171
     0
290
     0
174
     0
 93
        1
 44
50.0
173
     0
291
     1
 45
0.0
1001
ACAD
1000
AcDbSavedByObjectVersion
1070
     0
  0
VISUALSTYLE
  5
3A
102
{ACAD_REACTORS
330
2A
102
}
330
2A
100
AcDbVisualStyle
  2
ColorChange
 70
    16
 71
     2
 72
     2
 73
     3
 90
        0
 40
-0.6
 41
-30.0
 62
     5
 63
     8
 74
     1
 91
        4
 64
     7
 65
   257
 75
     1
175
     1
 42
1.0
 92
        8
 66
     8
 43
1.0
 76
     1
 77
     6
 78
     2
 67
     7
 79
     5
170
     0
171
     0
290
     0
174
     0
 93
        1
 44
0.0
173
     0
291
     1
 45
0.0
1001
ACAD
1000
AcDbSavedByObjectVersion
1070
     0
  0
VISUALSTYLE
  5
34
102
{ACAD_REACTORS
330
2A
102
}
330
2A
100
AcDbVisualStyle
  2
Conceptual
 70
     9
 71
     3
 72
     2
 73
     0
 90
        0
 40
-0.6
 41
-30.0
 62
     5
 63
     7
 74
     2
 91
        2
 64
     7
 65
   257
 75
     1
175
     1
 42
40.0
 92
        8
 66
     7
 43
1.0
 76
     1
 77
     6
 78
     2
 67
     7
 79
     3
170
     0
171
     0
290
     0
174
     0
 93
        1
 44
0.0
173
     0
291
     0
 45
0.0
1001
ACAD
1000
AcDbSavedByObjectVersion
1070
     0
  0
VISUALSTYLE
  5
35
102
{ACAD_REACTORS
330
2A
102
}
330
2A
100
AcDbVisualStyle
  2
Dim
 70
    11
 71
     2
 72
     2
 73
     0
 90
        0
 40
-0.6
 41
-30.0
 62
     5
 63
     7
 74
     1
 91
        4
 64
     7
 65
   257
 75
     1
175
     1
 42
1.0
 92
        8
 66
     7
 43
1.0
 76
     1
 77
     6
 78
     2
 67
     7
 79
     5
170
     0
171
     0
290
     0
174
     0
 93
        1
 44
-50.0
173
     0
291
     1
 45
0.0
1001
ACAD
1000
AcDbSavedByObjectVersion
1070
     0
  0
VISUALSTYLE
  5
39
102
{ACAD_REACTORS
330
2A
102
}
330
2A
100
AcDbVisualStyle
  2
Facepattern
 70
    15
 71
     2
 72
     2
 73
     0
 90
        0
 40
-0.6
 41
-30.0
 62
     5
 63
     7
 74
     1
 91
        4
 64
     7
 65
   257
 75
     1
175
     1
 42
1.0
 92
        8
 66
     7
 43
1.0
 76
     1
 77
     6
 78
     2
 67
     7
 79
     5
170
     0
171
     0
290
     0
174
     0
 93
        1
 44
0.0
173
     0
291
     1
 45
0.0
1001
ACAD
1000
AcDbSavedByObjectVersion
1070
     0
  0
VISUALSTYLE
  5
2B
102
{ACAD_REACTORS
330
2A
102
}
330
2A
100
AcDbVisualStyle
  2
Flat
 70
     0
 71
     2
 72
     1
 73
     1
 90
        2
 40
-0.6
 41
30.0
 62
     5
 63
     7
 74
     0
 91
        4
 64
     7
 65
   257
 75
     1
175
     1
 42
1.0
 92
        8
 66
     7
 43
1.0
 76
     1
 77
     6
 78
     2
 67
     7
 79
     5
170
     0
171
     0
290
     0
174
     0
 93
       13
 44
0.0
173
     0
291
     1
 45
0.0
1001
ACAD
1000
AcDbSavedByObjectVersion
1070
     0
  0
VISUALSTYLE
  5
2C
102
{ACAD_REACTORS
330
2A
102
}
330
2A
100
AcDbVisualStyle
  2
FlatWithEdges
 70
     1
 71
     2
 72
     1
 73
     1
 90
        2
 40
-0.6
 41
30.0
 62
     5
 63
     7
 74
     1
 91
        4
 64
     7
 65
   257
 75
     1
175
     1
 42
1.0
 92
        0
 66
   257
 43
1.0
 76
     1
 77
     6
 78
     2
 67
     7
 79
     5
170
     0
171
     0
290
     0
174
     0
 93
       13
 44
0.0
173
     0
291
     1
 45
0.0
1001
ACAD
1000
AcDbSavedByObjectVersion
1070
     0
  0
VISUALSTYLE
  5
2D
102
{ACAD_REACTORS
330
2A
102
}
330
2A
100
AcDbVisualStyle
  2
Gouraud
 70
     2
 71
     2
 72
     2
 73
     1
 90
        2
 40
-0.6
 41
30.0
 62
     5
 63
     7
 74
     0
 91
        4
 64
     7
 65
   257
 75
     1
175
     1
 42
1.0
 92
        0
 66
     7
 43
1.0
 76
     1
 77
     6
 78
     2
 67
     7
 79
     5
170
     0
171
     0
290
     0
174
     0
 93
       13
 44
0.0
173
     0
291
     1
 45
0.0
1001
ACAD
1000
AcDbSavedByObjectVersion
1070
     0
  0
VISUALSTYLE
  5
2E
102
{ACAD_REACTORS
330
2A
102
}
330
2A
100
AcDbVisualStyle
  2
GouraudWithEdges
 70
     3
 71
     2
 72
     2
 73
     1
 90
        2
 40
-0.6
 41
30.0
 62
     5
 63
     7
 74
     1
 91
        4
 64
     7
 65
   257
 75
     1
175
     1
 42
1.0
 92
        0
 66
   257
 43
1.0
 76
     1
 77
     6
 78
     2
 67
     7
 79
     5
170
     0
171
     0
290
     0
174
     0
 93
       13
 44
0.0
173
     0
291
     1
 45
0.0
1001
ACAD
1000
AcDbSavedByObjectVersion
1070
     0
  0
VISUALSTYLE
  5
38
102
{ACAD_REACTORS
330
2A
102
}
330
2A
100
AcDbVisualStyle
  2
Linepattern
 70
    14
 71
     2
 72
     2
 73
     0
 90
        0
 40
-0.6
 41
-30.0
 62
     5
 63
     7
 74
     1
 91
        4
 64
     7
 65
   257
 75
     7
175
     7
 42
1.0
 92
        8
 66
     7
 43
1.0
 76
     1
 77
     6
 78
     2
 67
     7
 79
     5
170
     0
171
     0
290
     0
174
     0
 93
        1
 44
0.0
173
     0
291
     1
 45
0.0
1001
ACAD
1000
AcDbSavedByObjectVersion
1070
     0
  0
VISUALSTYLE
  5
33
102
{ACAD_REACTORS
330
2A
102
}
330
2A
100
AcDbVisualStyle
  2
Realistic
 70
     8
 71
     2
 72
     2
 73
     0
 90
        0
 40
-0.6
 41
-30.0
 62
     5
 63
     7
 74
     1
 91
        0
 64
     7
 65
   257
 75
     1
175
     1
 42
1.0
 92
        8
 66
     8
 43
1.0
 76
     1
 77
     6
 78
     2
 67
     7
 79
     5
170
     0
171
     0
290
     0
174
     0
 93
       13
 44
0.0
173
     0
291
     0
 45
0.0
1001
ACAD
1000
AcDbSavedByObjectVersion
1070
     0
  0
VISUALSTYLE
  5
37
102
{ACAD_REACTORS
330
2A
102
}
330
2A
100
AcDbVisualStyle
  2
Thicken
 70
    13
 71
     2
 72
     2
 73
     0
 90
        0
 40
-0.6
 41
-30.0
 62
     5
 63
     7
 74
     1
 91
        4
 64
     7
 65
   257
 75
     1
175
     1
 42
1.0
 92
       12
 66
     7
 43
1.0
 76
     1
 77
     6
 78
     2
 67
     7
 79
     5
170
     0
171
     0
290
     0
174
     0
 93
        1
 44
0.0
173
     0
291
     1
 45
0.0
1001
ACAD
1000
AcDbSavedByObjectVersion
1070
     0
  0
DICTIONARYVAR
  5
154
102
{ACAD_REACTORS
330
151
102
}
330
151
100
DictionaryVariables
280
     0
  1
1:1
  0
ENDSEC
  0
EOF
