  0
SECTION
  2
HEADER
  9
$ACADVER
  1
AC1015
  9
$ACADMAINTVER
 70
     6
  9
$DWGCODEPAGE
  3
ANSI_1252
  9
$INSBASE
 10
0.0
 20
0.0
 30
0.0
  9
$EXTMIN
 10
37.3896761397419
 20
251.6651164347
 30
0.0
  9
$EXTMAX
 10
246.862210043053
 20
380.051511058583
 30
0.0
  9
$LIMMIN
 10
0.0
 20
0.0
  9
$LIMMAX
 10
12.0
 20
9.0
  9
$ORTHOMODE
 70
     0
  9
$REGENMODE
 70
     1
  9
$FILLMODE
 70
     1
  9
$QTEXTMODE
 70
     0
  9
$MIRRTEXT
 70
     1
  9
$LTSCALE
 40
1.0
  9
$ATTMODE
 70
     1
  9
$TEXTSIZE
 40
0.2
  9
$TRACEWID
 40
0.05
  9
$TEXTSTYLE
  7
Standard
  9
$CLAYER
  8
0
  9
$CELTYPE
  6
ByLayer
  9
$CECOLOR
 62
   256
  9
$CELTSCALE
 40
1.0
  9
$DISPSILH
 70
     0
  9
$DIMSCALE
 40
1.0
  9
$DIMASZ
 40
0.18
  9
$DIMEXO
 40
0.0625
  9
$DIMDLI
 40
0.38
  9
$DIMRND
 40
0.0
  9
$DIMDLE
 40
0.0
  9
$DIMEXE
 40
0.18
  9
$DIMTP
 40
0.0
  9
$DIMTM
 40
0.0
  9
$DIMTXT
 40
0.18
  9
$DIMCEN
 40
0.09
  9
$DIMTSZ
 40
0.0
  9
$DIMTOL
 70
     0
  9
$DIMLIM
 70
     0
  9
$DIMTIH
 70
     1
  9
$DIMTOH
 70
     1
  9
$DIMSE1
 70
     0
  9
$DIMSE2
 70
     0
  9
$DIMTAD
 70
     0
  9
$DIMZIN
 70
     0
  9
$DIMBLK
  1

  9
$DIMASO
 70
     1
  9
$DIMSHO
 70
     1
  9
$DIMPOST
  1

  9
$DIMAPOST
  1

  9
$DIMALT
 70
     0
  9
$DIMALTD
 70
     2
  9
$DIMALTF
 40
25.4
  9
$DIMLFAC
 40
1.0
  9
$DIMTOFL
 70
     0
  9
$DIMTVP
 40
0.0
  9
$DIMTIX
 70
     0
  9
$DIMSOXD
 70
     0
  9
$DIMSAH
 70
     0
  9
$DIMBLK1
  1

  9
$DIMBLK2
  1

  9
$DIMSTYLE
  2
Standard
  9
$DIMCLRD
 70
     0
  9
$DIMCLRE
 70
     0
  9
$DIMCLRT
 70
     0
  9
$DIMTFAC
 40
1.0
  9
$DIMGAP
 40
0.09
  9
$DIMJUST
 70
     0
  9
$DIMSD1
 70
     0
  9
$DIMSD2
 70
     0
  9
$DIMTOLJ
 70
     1
  9
$DIMTZIN
 70
     0
  9
$DIMALTZ
 70
     0
  9
$DIMALTTZ
 70
     0
  9
$DIMUPT
 70
     0
  9
$DIMDEC
 70
     4
  9
$DIMTDEC
 70
     4
  9
$DIMALTU
 70
     2
  9
$DIMALTTD
 70
     2
  9
$DIMTXSTY
  7
Standard
  9
$DIMAUNIT
 70
     0
  9
$DIMADEC
 70
     0
  9
$DIMALTRND
 40
0.0
  9
$DIMAZIN
 70
     0
  9
$DIMDSEP
 70
    46
  9
$DIMATFIT
 70
     3
  9
$DIMFRAC
 70
     0
  9
$DIMLDRBLK
  1

  9
$DIMLUNIT
 70
     2
  9
$DIMLWD
 70
    -2
  9
$DIMLWE
 70
    -2
  9
$DIMTMOVE
 70
     0
  9
$LUNITS
 70
     2
  9
$LUPREC
 70
     4
  9
$SKETCHINC
 40
0.1
  9
$FILLETRAD
 40
0.5
  9
$AUNITS
 70
     0
  9
$AUPREC
 70
     0
  9
$MENU
  1
.
  9
$ELEVATION
 40
0.0
  9
$PELEVATION
 40
0.0
  9
$THICKNESS
 40
0.0
  9
$LIMCHECK
 70
     0
  9
$CHAMFERA
 40
0.5
  9
$CHAMFERB
 40
0.5
  9
$CHAMFERC
 40
1.0
  9
$CHAMFERD
 40
0.0
  9
$SKPOLY
 70
     0
  9
$TDCREATE
 40
2456748.731586887
  9
$TDUCREATE
 40
2456748.648253553
  9
$TDUPDATE
 40
2456748.731586898
  9
$TDUUPDATE
 40
2456748.648253565
  9
$TDINDWG
 40
0.0000000116
  9
$TDUSRTIMER
 40
0.0000000116
  9
$USRTIMER
 70
     1
  9
$ANGBASE
 50
0.0
  9
$ANGDIR
 70
     0
  9
$PDMODE
 70
     0
  9
$PDSIZE
 40
0.0
  9
$PLINEWID
 40
0.0
  9
$SPLFRAME
 70
     0
  9
$SPLINETYPE
 70
     6
  9
$SPLINESEGS
 70
     8
  9
$HANDSEED
  5
155
  9
$SURFTAB1
 70
     6
  9
$SURFTAB2
 70
     6
  9
$SURFTYPE
 70
     6
  9
$SURFU
 70
     6
  9
$SURFV
 70
     6
  9
$UCSBASE
  2

  9
$UCSNAME
  2

  9
$UCSORG
 10
0.0
 20
0.0
 30
0.0
  9
$UCSXDIR
 10
1.0
 20
0.0
 30
0.0
  9
$UCSYDIR
 10
0.0
 20
1.0
 30
0.0
  9
$UCSORTHOREF
  2

  9
$UCSORTHOVIEW
 70
     0
  9
$UCSORGTOP
 10
0.0
 20
0.0
 30
0.0
  9
$UCSORGBOTTOM
 10
0.0
 20
0.0
 30
0.0
  9
$UCSORGLEFT
 10
0.0
 20
0.0
 30
0.0
  9
$UCSORGRIGHT
 10
0.0
 20
0.0
 30
0.0
  9
$UCSORGFRONT
 10
0.0
 20
0.0
 30
0.0
  9
$UCSORGBACK
 10
0.0
 20
0.0
 30
0.0
  9
$PUCSBASE
  2

  9
$PUCSNAME
  2

  9
$PUCSORG
 10
0.0
 20
0.0
 30
0.0
  9
$PUCSXDIR
 10
1.0
 20
0.0
 30
0.0
  9
$PUCSYDIR
 10
0.0
 20
1.0
 30
0.0
  9
$PUCSORTHOREF
  2

  9
$PUCSORTHOVIEW
 70
     0
  9
$PUCSORGTOP
 10
0.0
 20
0.0
 30
0.0
  9
$PUCSORGBOTTOM
 10
0.0
 20
0.0
 30
0.0
  9
$PUCSORGLEFT
 10
0.0
 20
0.0
 30
0.0
  9
$PUCSORGRIGHT
 10
0.0
 20
0.0
 30
0.0
  9
$PUCSORGFRONT
 10
0.0
 20
0.0
 30
0.0
  9
$PUCSORGBACK
 10
0.0
 20
0.0
 30
0.0
  9
$USERI1
 70
     0
  9
$USERI2
 70
     0
  9
$USERI3
 70
     0
  9
$USERI4
 70
     0
  9
$USERI5
 70
     0
  9
$USERR1
 40
16.5
  9
$USERR2
 40
0.0
  9
$USERR3
 40
0.0
  9
$USERR4
 40
0.0
  9
$USERR5
 40
0.0
  9
$WORLDVIEW
 70
     1
  9
$SHADEDGE
 70
     3
  9
$SHADEDIF
 70
    70
  9
$TILEMODE
 70
     1
  9
$MAXACTVP
 70
    64
  9
$PINSBASE
 10
0.0
 20
0.0
 30
0.0
  9
$PLIMCHECK
 70
     0
  9
$PEXTMIN
 10
1.00000000000000E+20
 20
1.00000000000000E+20
 30
1.00000000000000E+20
  9
$PEXTMAX
 10
-1.00000000000000E+20
 20
-1.00000000000000E+20
 30
-1.00000000000000E+20
  9
$PLIMMIN
 10
0.0
 20
0.0
  9
$PLIMMAX
 10
12.0
 20
9.0
  9
$UNITMODE
 70
     0
  9
$VISRETAIN
 70
     1
  9
$PLINEGEN
 70
     0
  9
$PSLTSCALE
 70
     1
  9
$TREEDEPTH
 70
  3020
  9
$CMLSTYLE
  2
Standard
  9
$CMLJUST
 70
     0
  9
$CMLSCALE
 40
1.0
  9
$PROXYGRAPHICS
 70
     1
  9
$MEASUREMENT
 70
     1
  9
$CELWEIGHT
370
    -1
  9
$ENDCAPS
280
     0
  9
$JOINSTYLE
280
     0
  9
$LWDISPLAY
290
     0
  9
$INSUNITS
 70
     1
  9
$HYPERLINKBASE
  1

  9
$STYLESHEET
  1

  9
$XEDIT
290
     1
  9
$CEPSNTYPE
380
     0
  9
$PSTYLEMODE
290
     1
  9
$FINGERPRINTGUID
  2
{4FC5E1CE-0486-4423-AD5A-AD51E477D07E}
  9
$VERSIONGUID
  2
{FAEB1C32-E019-11D5-929B-00C0DF256EC4}
  9
$EXTNAMES
290
     1
  9
$PSVPSCALE
 40
0.0
  9
$OLESTARTUP
290
     0
  0
ENDSEC
  0
SECTION
  2
CLASSES
  0
CLASS
  1
ACDBDICTIONARYWDFLT
  2
AcDbDictionaryWithDefault
  3
ObjectDBX Classes
 90
        0
280
     0
281
     0
  0
CLASS
  1
VISUALSTYLE
  2
AcDbVisualStyle
  3
ObjectDBX Classes
 90
     4095
280
     0
281
     0
  0
CLASS
  1
SCALE
  2
AcDbScale
  3
ObjectDBX Classes
 90
     1153
280
     0
281
     0
  0
CLASS
  1

  2
exOdDbPolyline
  3

 90
        0
280
     0
281
     1
  0
CLASS
  1

  2
exOdDbCircle
  3

 90
        0
280
     0
281
     1
  0
CLASS
  1

  2
exOdDbSpline
  3

 90
        0
280
     0
281
     1
  0
CLASS
  1
DICTIONARYVAR
  2
AcDbDictionaryVar
  3
ObjectDBX Classes
 90
        0
280
     0
281
     0
  0
CLASS
  1
ACDBPLACEHOLDER
  2
AcDbPlaceHolder
  3
ObjectDBX Classes
 90
        0
280
     0
281
     0
  0
CLASS
  1
LAYOUT
  2
AcDbLayout
  3
ObjectDBX Classes
 90
        0
280
     0
281
     0
  0
ENDSEC
  0
SECTION
  2
TABLES
  0
TABLE
  2
VPORT
  5
8
330
0
100
AcDbSymbolTable
 70
     1
  0
VPORT
  5
29
330
8
100
AcDbSymbolTableRecord
100
AcDbViewportTableRecord
  2
*Active
 70
     0
 10
0.0
 20
0.0
 11
1.0
 21
1.0
 12
142.1259430913975
 22
315.8583137466415
 13
0.0
 23
0.0
 14
0.5
 24
0.5
 15
0.5
 25
0.5
 16
0.0
 26
0.0
 36
1.0
 17
0.0
 27
0.0
 37
0.0
 40
143.771677865671
 41
1.60267857142857
 42
50.0
 43
0.0
 44
0.0
 50
0.0
 51
0.0
 71
     0
 72
   100
 73
     1
 74
     3
 75
     0
 76
     0
 77
     0
 78
     0
281
     0
 65
     1
110
0.0
120
0.0
130
0.0
111
1.0
121
0.0
131
0.0
112
0.0
122
1.0
132
0.0
 79
     0
146
0.0
  0
ENDTAB
  0
TABLE
  2
LTYPE
  5
5
330
0
100
AcDbSymbolTable
 70
     8
  0
LTYPE
  5
14
330
5
100
AcDbSymbolTableRecord
100
AcDbLinetypeTableRecord
  2
ByBlock
 70
     0
  3

 72
    65
 73
     0
 40
0.0
  0
LTYPE
  5
15
330
5
100
AcDbSymbolTableRecord
100
AcDbLinetypeTableRecord
  2
ByLayer
 70
     0
  3

 72
    65
 73
     0
 40
0.0
  0
LTYPE
  5
16
330
5
100
AcDbSymbolTableRecord
100
AcDbLinetypeTableRecord
  2
Continuous
 70
     0
  3
Solid line
 72
    65
 73
     0
 40
0.0
  0
LTYPE
  5
3B
330
5
100
AcDbSymbolTableRecord
100
AcDbLinetypeTableRecord
  2
DASHED
 70
     0
  3
Dashed
 72
    65
 73
     2
 40
15.0
 49
7.0
 74
     0
 49
-8.0
 74
     0
  0
LTYPE
  5
3C
330
5
100
AcDbSymbolTableRecord
100
AcDbLinetypeTableRecord
  2
DOTTED
 70
     0
  3
Dotted
 72
    65
 73
     2
 40
1.0
 49
0.0
 74
     0
 49
-1.0
 74
     0
  0
LTYPE
  5
3D
330
5
100
AcDbSymbolTableRecord
100
AcDbLinetypeTableRecord
  2
DOT_CENTER
 70
     0
  3
Dot_Center
 72
    65
 73
     4
 40
14.0
 49
12.0
 74
     0
 49
-1.0
 74
     0
 49
0.0
 74
     0
 49
-1.0
 74
     0
  0
LTYPE
  5
3E
330
5
100
AcDbSymbolTableRecord
100
AcDbLinetypeTableRecord
  2
LONG_DASHED
 70
     0
  3
Long_Dashed
 72
    65
 73
     2
 40
15.0
 49
10.0
 74
     0
 49
-5.0
 74
     0
  0
LTYPE
  5
3F
330
5
100
AcDbSymbolTableRecord
100
AcDbLinetypeTableRecord
  2
DASH_CENTER
 70
     0
  3
Dash_Center
 72
    65
 73
     4
 40
14.0
 49
11.0
 74
     0
 49
-1.0
 74
     0
 49
1.0
 74
     0
 49
-1.0
 74
     0
  0
LTYPE
  5
40
330
5
100
AcDbSymbolTableRecord
100
AcDbLinetypeTableRecord
  2
PHANTOM
 70
     0
  3
Phantom
 72
    65
 73
     6
 40
13.0
 49
10.0
 74
     0
 49
-1.0
 74
     0
 49
0.0
 74
     0
 49
-1.0
 74
     0
 49
0.0
 74
     0
 49
-1.0
 74
     0
  0
LTYPE
  5
41
330
5
100
AcDbSymbolTableRecord
100
AcDbLinetypeTableRecord
  2
CENTER_DASH_DASH
 70
     0
  3
Center_Dash_Dash
 72
    65
 73
     6
 40
14.0
 49
9.0
 74
     0
 49
-1.0
 74
     0
 49
1.0
 74
     0
 49
-1.0
 74
     0
 49
1.0
 74
     0
 49
-1.0
 74
     0
  0
ENDTAB
  0
TABLE
  2
LAYER
  5
2
330
0
100
AcDbSymbolTable
 70
     6
  0
LAYER
  5
10
330
2
100
AcDbSymbolTableRecord
100
AcDbLayerTableRecord
  2
0
 70
     0
 62
     7
  6
Continuous
370
    -3
390
F
  0
LAYER
  5
42
330
2
100
AcDbSymbolTableRecord
100
AcDbLayerTableRecord
  2
1
 70
     0
 62
     7
  6
Continuous
370
    -3
390
F
  0
LAYER
  5
43
330
2
100
AcDbSymbolTableRecord
100
AcDbLayerTableRecord
  2
BEZUGSACHSEN
 70
     0
 62
     7
  6
Continuous
370
    -3
390
F
  0
LAYER
  5
44
330
2
100
AcDbSymbolTableRecord
100
AcDbLayerTableRecord
  2
DEFAULT_2
 70
     0
 62
     7
  6
Continuous
370
    -3
390
F
  0
LAYER
  5
45
330
2
100
AcDbSymbolTableRecord
100
AcDbLayerTableRecord
  2
FASEN
 70
     0
 62
     7
  6
Continuous
370
    -3
390
F
  0
LAYER
  5
46
330
2
100
AcDbSymbolTableRecord
100
AcDbLayerTableRecord
  2
RUNDUNGEN
 70
     0
 62
     7
  6
Continuous
370
    -3
390
F
  0
ENDTAB
  0
TABLE
  2
STYLE
  5
3
330
0
100
AcDbSymbolTable
 70
     2
  0
STYLE
  5
11
330
3
100
AcDbSymbolTableRecord
100
AcDbTextStyleTableRecord
  2
Standard
 70
     0
 40
0.0
 41
1.0
 50
0.0
 71
     0
 42
0.2
  3
txt
  4

  0
STYLE
  5
6D
330
3
100
AcDbSymbolTableRecord
100
AcDbTextStyleTableRecord
  2
CONVERTER_11
 70
     0
 40
0.0
 41
0.72
 50
0.0
 71
     0
 42
0.2
  3
txt.shx
  4

  0
ENDTAB
  0
TABLE
  2
VIEW
  5
6
330
0
100
AcDbSymbolTable
 70
     0
  0
ENDTAB
  0
TABLE
  2
UCS
  5
7
330
0
100
AcDbSymbolTable
 70
     0
  0
ENDTAB
  0
TABLE
  2
APPID
  5
9
330
0
100
AcDbSymbolTable
 70
     1
  0
APPID
  5
12
330
9
100
AcDbSymbolTableRecord
100
AcDbRegAppTableRecord
  2
ACAD
 70
     0
  0
ENDTAB
  0
TABLE
  2
DIMSTYLE
  5
A
330
0
100
AcDbSymbolTable
 70
     8
100
AcDbDimStyleTable
  0
DIMSTYLE
105
27
330
A
100
AcDbSymbolTableRecord
100
AcDbDimStyleTableRecord
  2
Standard
 70
     0
340
11
  0
DIMSTYLE
105
106
102
{ACAD_REACTORS
330
107
102
}
330
A
100
AcDbSymbolTableRecord
100
AcDbDimStyleTableRecord
  2
ME10_DIM_10
 70
     0
  3
\U+2300<>
 41
3.5
 42
2.0
 44
2.0
 71
     1
 73
     0
 74
     0
 77
     1
 78
     8
140
3.5
146
0.7
147
2.0
172
     1
173
     1
176
     2
177
     2
178
     3
271
     2
272
     0
340
6D
  0
DIMSTYLE
105
111
102
{ACAD_REACTORS
330
112
102
}
330
A
100
AcDbSymbolTableRecord
100
AcDbDimStyleTableRecord
  2
ME10_DIM_11
 70
     0
  3
\U+2300<>
 41
3.5
 42
2.0
 44
2.0
 71
     1
 73
     0
 74
     0
 77
     1
 78
     8
140
3.5
146
0.7
147
2.0
172
     1
173
     1
176
     2
177
     2
178
     3
271
     2
272
     0
340
6D
  0
DIMSTYLE
105
11C
102
{ACAD_REACTORS
330
11D
102
}
330
A
100
AcDbSymbolTableRecord
100
AcDbDimStyleTableRecord
  2
ME10_DIM_12
 70
     0
  3
\U+2300<>
 41
3.5
 42
2.0
 44
2.0
 71
     1
 73
     0
 74
     0
 77
     1
 78
     8
140
3.5
146
0.7
147
2.0
172
     1
173
     1
176
     2
177
     2
178
     3
271
     2
272
     0
340
6D
  0
DIMSTYLE
105
127
102
{ACAD_REACTORS
330
128
102
}
330
A
100
AcDbSymbolTableRecord
100
AcDbDimStyleTableRecord
  2
ME10_DIM_13
 70
     0
  3
<>
 41
3.5
 42
2.0
 44
2.0
 71
     1
 73
     0
 74
     0
 77
     1
 78
     8
140
3.5
146
0.7
147
2.0
172
     1
173
     1
176
     2
177
     2
178
     3
271
     2
272
     0
340
6D
  0
DIMSTYLE
105
132
102
{ACAD_REACTORS
330
133
102
}
330
A
100
AcDbSymbolTableRecord
100
AcDbDimStyleTableRecord
  2
ME10_DIM_14
 70
     0
  3
<>
 41
3.5
 42
2.0
 44
2.0
 71
     1
 73
     0
 74
     0
 77
     1
 78
     8
140
3.5
146
0.7
147
2.0
172
     1
173
     1
176
     2
177
     2
178
     3
271
     2
272
     0
340
6D
  0
DIMSTYLE
105
13D
102
{ACAD_REACTORS
330
13E
102
}
330
A
100
AcDbSymbolTableRecord
100
AcDbDimStyleTableRecord
  2
ME10_DIM_15
 70
     0
  3
<>
 41
3.5
 42
2.0
 44
2.0
 71
     1
 73
     0
 74
     0
 77
     1
 78
     8
140
3.5
146
0.7
147
2.0
172
     1
173
     1
176
     2
177
     2
178
     3
271
     2
272
     0
340
6D
  0
DIMSTYLE
105
14F
102
{ACAD_REACTORS
330
150
102
}
330
A
100
AcDbSymbolTableRecord
100
AcDbDimStyleTableRecord
  2
ME10_DIM_16
 70
     0
  3
<>
 41
3.5
 42
2.0
 44
2.0
 71
     1
 73
     0
 74
     0
 77
     1
 78
     8
140
3.5
146
0.7
147
2.0
172
     1
173
     1
176
     2
177
     2
178
     3
271
     2
272
     0
340
6D
  0
ENDTAB
  0
TABLE
  2
BLOCK_RECORD
  5
1
330
0
100
AcDbSymbolTable
 70
    10
  0
BLOCK_RECORD
  5
1F
330
1
100
AcDbSymbolTableRecord
100
AcDbBlockTableRecord
  2
*Model_Space
340
22
  0
BLOCK_RECORD
  5
1B
330
1
100
AcDbSymbolTableRecord
100
AcDbBlockTableRecord
  2
*Paper_Space
340
1E
  0
BLOCK_RECORD
  5
23
330
1
100
AcDbSymbolTableRecord
100
AcDbBlockTableRecord
  2
*Paper_Space0
340
26
  0
BLOCK_RECORD
  5
47
330
1
100
AcDbSymbolTableRecord
100
AcDbBlockTableRecord
  2
Urheberrecht_DE-EN
340
0
102
{BLKREFS
331
6C
102
}
  0
BLOCK_RECORD
  5
FD
330
1
100
AcDbSymbolTableRecord
100
AcDbBlockTableRecord
  2
*D2
340
0
  0
BLOCK_RECORD
  5
108
330
1
100
AcDbSymbolTableRecord
100
AcDbBlockTableRecord
  2
*D3
340
0
  0
BLOCK_RECORD
  5
113
330
1
100
AcDbSymbolTableRecord
100
AcDbBlockTableRecord
  2
*D4
340
0
  0
BLOCK_RECORD
  5
11E
330
1
100
AcDbSymbolTableRecord
100
AcDbBlockTableRecord
  2
*D5
340
0
  0
BLOCK_RECORD
  5
129
330
1
100
AcDbSymbolTableRecord
100
AcDbBlockTableRecord
  2
*D6
340
0
  0
BLOCK_RECORD
  5
134
330
1
100
AcDbSymbolTableRecord
100
AcDbBlockTableRecord
  2
*D7
340
0
  0
BLOCK_RECORD
  5
13F
330
1
100
AcDbSymbolTableRecord
100
AcDbBlockTableRecord
  2
*D8
340
0
102
{BLKREFS
331
145
102
}
  0
BLOCK_RECORD
  5
146
330
1
100
AcDbSymbolTableRecord
100
AcDbBlockTableRecord
  2
*D9
340
0
  0
ENDTAB
  0
ENDSEC
  0
SECTION
  2
BLOCKS
  0
BLOCK
  5
20
330
1F
100
AcDbEntity
  8
0
100
AcDbBlockBegin
  2
*Model_Space
 70
     0
 10
0.0
 20
0.0
 30
0.0
  3
*Model_Space
  1

  0
ENDBLK
  5
21
330
1F
100
AcDbEntity
  8
0
100
AcDbBlockEnd
  0
BLOCK
  5
1C
330
1B
100
AcDbEntity
 67
     1
  8
0
100
AcDbBlockBegin
  2
*Paper_Space
 70
     0
 10
0.0
 20
0.0
 30
0.0
  3
*Paper_Space
  1

  0
ENDBLK
  5
1D
330
1B
100
AcDbEntity
 67
     1
  8
0
100
AcDbBlockEnd
  0
BLOCK
  5
24
330
23
100
AcDbEntity
  8
0
100
AcDbBlockBegin
  2
*Paper_Space0
 70
     0
 10
0.0
 20
0.0
 30
0.0
  3
*Paper_Space0
  1

  0
ENDBLK
  5
25
330
23
100
AcDbEntity
  8
0
100
AcDbBlockEnd
  0
BLOCK
  5
48
330
47
100
AcDbEntity
  8
0
100
AcDbBlockBegin
  2
Urheberrecht_DE-EN
 70
     0
 10
51.3896761397419
 20
312.901963882425
 30
0.0
  3
Urheberrecht_DE-EN
  1

  0
MTEXT
  5
6E
330
47
100
AcDbEntity
  8
1
 62
     1
100
AcDbMText
 10
51.3896761397419
 20
312.901963882425
 30
0.0
 40
2.0
 41
0.0
 71
     7
 72
     1
  1
We own the copyright of this document. It \Pdetermined and may neither be copied or \Pmade accessible to outsiders without our\Ppermission.
  7
CONVERTER_11
 11
0.0
 21
1.0
 31
0.0
 73
     1
 44
0.90036014405762
  0
MTEXT
  5
6F
330
47
100
AcDbEntity
  8
1
 62
     1
100
AcDbMText
 10
51.3896761397419
 20
256.6125769651188
 30
0.0
 40
2.0
 41
0.0
 71
     7
 72
     1
  1
F\U+00fcr diese Unterlage behalten wir das Ur-\Pheberrecht. Sie darf nur f\U+00fcr den von uns \Pbestimmten Zweck benutzt und ohne unsere \PZustimmung weder vervielf\U+00e4ltigt noch\PDritten zug\U+00e4nglich gemacht werden.
  7
CONVERTER_11
 11
0.0
 21
1.0
 31
0.0
 73
     1
 44
0.90036014405762
  0
ENDBLK
  5
49
330
47
100
AcDbEntity
  8
0
100
AcDbBlockEnd
  0
BLOCK
  5
104
330
FD
100
AcDbEntity
  8
0
100
AcDbBlockBegin
  2
*D2
 70
     1
 10
0.0
 20
0.0
 30
0.0
  3
*D2
  1

  0
LINE
  5
FE
330
FD
100
AcDbEntity
  8
1
  6
Continuous
 62
     2
100
AcDbLine
 10
227.814425293376
 20
311.6651164347
 30
0.0
 11
227.814425293376
 21
291.6651164347
 31
0.0
  0
LINE
  5
FF
330
FD
100
AcDbEntity
  8
1
  6
Continuous
 62
     2
100
AcDbLine
 10
217.8045369379
 20
311.6651164347
 30
0.0
 11
229.814425293376
 21
311.6651164347
 31
0.0
  0
LINE
  5
100
330
FD
100
AcDbEntity
  8
1
  6
Continuous
 62
     2
100
AcDbLine
 10
217.8045369379
 20
291.6651164347
 30
0.0
 11
229.814425293376
 21
291.6651164347
 31
0.0
  0
SOLID
  5
101
330
FD
100
AcDbEntity
  8
1
 62
     2
100
AcDbTrace
 10
228.2752090349319
 20
308.1651164347
 30
0.0
 11
227.3536415518201
 21
308.1651164347
 31
0.0
 12
227.814425293376
 22
311.6651164347
 32
0.0
 13
227.814425293376
 23
311.6651164347
 33
0.0
  0
SOLID
  5
102
330
FD
100
AcDbEntity
  8
1
 62
     2
100
AcDbTrace
 10
227.3536415518201
 20
295.1651164347
 30
0.0
 11
228.2752090349319
 21
295.1651164347
 31
0.0
 12
227.814425293376
 22
291.6651164347
 32
0.0
 13
227.814425293376
 23
291.6651164347
 33
0.0
  0
MTEXT
  5
103
330
FD
100
AcDbEntity
  8
1
 62
     3
100
AcDbMText
 10
225.814425293376
 20
292.946080789612
 30
0.0
 40
3.5
 41
0.0
 71
     7
 72
     1
  1
\C3;%%c\C3;\C3;20\C2;\H2.45;\S^ ;\C3;
  7
CONVERTER_11
 11
0.0
 21
1.0
 31
0.0
 73
     1
 44
0.60024009603842
  0
ENDBLK
  5
105
330
FD
100
AcDbEntity
  8
0
100
AcDbBlockEnd
  0
BLOCK
  5
10F
330
108
100
AcDbEntity
  8
0
100
AcDbBlockBegin
  2
*D3
 70
     1
 10
0.0
 20
0.0
 30
0.0
  3
*D3
  1

  0
LINE
  5
109
330
108
100
AcDbEntity
  8
1
  6
Continuous
 62
     2
100
AcDbLine
 10
236.338317668214
 20
318.1651164347527
 30
0.0
 11
236.338317668214
 21
285.1651164346486
 31
0.0
  0
LINE
  5
10A
330
108
100
AcDbEntity
  8
1
  6
Continuous
 62
     2
100
AcDbLine
 10
217.8045369379094
 20
318.1651164347527
 30
0.0
 11
238.338317668214
 21
318.1651164347527
 31
0.0
  0
LINE
  5
10B
330
108
100
AcDbEntity
  8
1
  6
Continuous
 62
     2
100
AcDbLine
 10
217.8045369379
 20
285.1651164346486
 30
0.0
 11
238.338317668214
 21
285.1651164346486
 31
0.0
  0
SOLID
  5
10C
330
108
100
AcDbEntity
  8
1
 62
     2
100
AcDbTrace
 10
236.7991014097699
 20
314.6651164347527
 30
0.0
 11
235.8775339266581
 21
314.6651164347527
 31
0.0
 12
236.338317668214
 22
318.1651164347527
 32
0.0
 13
236.338317668214
 23
318.1651164347527
 33
0.0
  0
SOLID
  5
10D
330
108
100
AcDbEntity
  8
1
 62
     2
100
AcDbTrace
 10
235.8775339266581
 20
288.6651164346486
 30
0.0
 11
236.7991014097699
 21
288.6651164346486
 31
0.0
 12
236.338317668214
 22
285.1651164346486
 32
0.0
 13
236.338317668214
 23
285.1651164346486
 33
0.0
  0
MTEXT
  5
10E
330
108
100
AcDbEntity
  8
1
 62
     3
100
AcDbMText
 10
234.338317668214
 20
292.747850734384
 30
0.0
 40
3.5
 41
0.0
 71
     7
 72
     1
  1
\C3;%%c\C3;\C3;33\C2;\H2.45;\S^ ;\C3;
  7
CONVERTER_11
 11
0.0
 21
1.0
 31
0.0
 73
     1
 44
0.60024009603842
  0
ENDBLK
  5
110
330
108
100
AcDbEntity
  8
0
100
AcDbBlockEnd
  0
BLOCK
  5
11A
330
113
100
AcDbEntity
  8
0
100
AcDbBlockBegin
  2
*D4
 70
     1
 10
0.0
 20
0.0
 30
0.0
  3
*D4
  1

  0
LINE
  5
114
330
113
100
AcDbEntity
  8
1
  6
Continuous
 62
     2
100
AcDbLine
 10
244.862210043053
 20
322.6651164347
 30
0.0
 11
244.862210043053
 21
280.6651164347
 31
0.0
  0
LINE
  5
115
330
113
100
AcDbEntity
  8
1
  6
Continuous
 62
     2
100
AcDbLine
 10
160.6266156251
 20
322.6651164347
 30
0.0
 11
246.862210043053
 21
322.6651164347
 31
0.0
  0
LINE
  5
116
330
113
100
AcDbEntity
  8
1
  6
Continuous
 62
     2
100
AcDbLine
 10
160.6266156251
 20
280.6651164347
 30
0.0
 11
246.862210043053
 21
280.6651164347
 31
0.0
  0
SOLID
  5
117
330
113
100
AcDbEntity
  8
1
 62
     2
100
AcDbTrace
 10
245.3229937846089
 20
319.1651164347
 30
0.0
 11
244.4014263014971
 21
319.1651164347
 31
0.0
 12
244.862210043053
 22
322.6651164347
 32
0.0
 13
244.862210043053
 23
322.6651164347
 33
0.0
  0
SOLID
  5
118
330
113
100
AcDbEntity
  8
1
 62
     2
100
AcDbTrace
 10
244.4014263014971
 20
284.1651164347
 30
0.0
 11
245.3229937846089
 21
284.1651164347
 31
0.0
 12
244.862210043053
 22
280.6651164347
 32
0.0
 13
244.862210043053
 23
280.6651164347
 33
0.0
  0
MTEXT
  5
119
330
113
100
AcDbEntity
  8
1
 62
     3
100
AcDbMText
 10
242.862210043053
 20
292.946080789612
 30
0.0
 40
3.5
 41
0.0
 71
     7
 72
     1
  1
\C3;%%c\C3;\C3;42\C2;\H2.45;\S^ ;\C3;
  7
CONVERTER_11
 11
0.0
 21
1.0
 31
0.0
 73
     1
 44
0.60024009603842
  0
ENDBLK
  5
11B
330
113
100
AcDbEntity
  8
0
100
AcDbBlockEnd
  0
BLOCK
  5
125
330
11E
100
AcDbEntity
  8
0
100
AcDbBlockBegin
  2
*D5
 70
     1
 10
0.0
 20
0.0
 30
0.0
  3
*D5
  1

  0
LINE
  5
11F
330
11E
100
AcDbEntity
  8
1
  6
Continuous
 62
     2
100
AcDbLine
 10
215.8045369379
 20
359.882486971651
 30
0.0
 11
139.8045369379
 21
359.882486971651
 31
0.0
  0
LINE
  5
120
330
11E
100
AcDbEntity
  8
1
  6
Continuous
 62
     2
100
AcDbLine
 10
215.8045369379
 20
319.240725943
 30
0.0
 11
215.8045369379
 21
361.882486971651
 31
0.0
  0
LINE
  5
121
330
11E
100
AcDbEntity
  8
1
  6
Continuous
 62
     2
100
AcDbLine
 10
139.8045369379
 20
353.6650795136
 30
0.0
 11
139.8045369379
 21
361.882486971651
 31
0.0
  0
SOLID
  5
122
330
11E
100
AcDbEntity
  8
1
 62
     2
100
AcDbTrace
 10
212.3045369379
 20
359.4217032300951
 30
0.0
 11
212.3045369379
 21
360.3432707132069
 31
0.0
 12
215.8045369379
 22
359.882486971651
 32
0.0
 13
215.8045369379
 23
359.882486971651
 33
0.0
  0
SOLID
  5
123
330
11E
100
AcDbEntity
  8
1
 62
     2
100
AcDbTrace
 10
143.3045369379
 20
360.3432707132069
 30
0.0
 11
143.3045369379
 21
359.4217032300951
 31
0.0
 12
139.8045369379
 22
359.882486971651
 32
0.0
 13
139.8045369379
 23
359.882486971651
 33
0.0
  0
MTEXT
  5
124
330
11E
100
AcDbEntity
  8
1
 62
     3
100
AcDbMText
 10
176.156911486175
 20
361.882486971651
 30
0.0
 40
3.5
 41
0.0
 71
     7
 72
     1
  1
\C3;\C3;\C3;76\C2;\H2.45;\S^ ;\C3;
  7
CONVERTER_11
 11
0.9999999999970619
 21
2.424068405545306E-6
 31
0.0
 73
     1
 44
0.60024009603842
  0
ENDBLK
  5
126
330
11E
100
AcDbEntity
  8
0
100
AcDbBlockEnd
  0
BLOCK
  5
130
330
129
100
AcDbEntity
  8
0
100
AcDbBlockBegin
  2
*D6
 70
     1
 10
0.0
 20
0.0
 30
0.0
  3
*D6
  1

  0
LINE
  5
12A
330
129
100
AcDbEntity
  8
1
  6
Continuous
 62
     2
100
AcDbLine
 10
215.8045369379
 20
367.216999015117
 30
0.0
 11
110.8045369379
 21
367.216999015117
 31
0.0
  0
LINE
  5
12B
330
129
100
AcDbEntity
  8
1
  6
Continuous
 62
     2
100
AcDbLine
 10
215.8045369379
 20
319.240725943
 30
0.0
 11
215.8045369379
 21
369.216999015117
 31
0.0
  0
LINE
  5
12C
330
129
100
AcDbEntity
  8
1
  6
Continuous
 62
     2
100
AcDbLine
 10
110.8045369379
 20
353.6651164347
 30
0.0
 11
110.8045369379
 21
369.216999015117
 31
0.0
  0
SOLID
  5
12D
330
129
100
AcDbEntity
  8
1
 62
     2
100
AcDbTrace
 10
212.3045369379
 20
366.7562152735611
 30
0.0
 11
212.3045369379
 21
367.6777827566729
 31
0.0
 12
215.8045369379
 22
367.216999015117
 32
0.0
 13
215.8045369379
 23
367.216999015117
 33
0.0
  0
SOLID
  5
12E
330
129
100
AcDbEntity
  8
1
 62
     2
100
AcDbTrace
 10
114.3045369379
 20
367.6777827566729
 30
0.0
 11
114.3045369379
 21
366.7562152735611
 31
0.0
 12
110.8045369379
 22
367.216999015117
 32
0.0
 13
110.8045369379
 23
367.216999015117
 33
0.0
  0
MTEXT
  5
12F
330
129
100
AcDbEntity
  8
1
 62
     3
100
AcDbMText
 10
162.828418006761
 20
369.216999015117
 30
0.0
 40
3.5
 41
0.0
 71
     7
 72
     1
  1
\C3;\C3;\C3;105\C2;\H2.45;\S^ ;\C3;
  7
CONVERTER_11
 11
0.9999999999970619
 21
2.424068405545306E-6
 31
0.0
 73
     1
 44
0.60024009603842
  0
ENDBLK
  5
131
330
129
100
AcDbEntity
  8
0
100
AcDbBlockEnd
  0
BLOCK
  5
13B
330
134
100
AcDbEntity
  8
0
100
AcDbBlockBegin
  2
*D7
 70
     1
 10
0.0
 20
0.0
 30
0.0
  3
*D7
  1

  0
LINE
  5
135
330
134
100
AcDbEntity
  8
1
  6
Continuous
 62
     2
100
AcDbLine
 10
215.8045369379
 20
374.551511058583
 30
0.0
 11
60.8045369379
 21
374.551511058583
 31
0.0
  0
LINE
  5
136
330
134
100
AcDbEntity
  8
1
  6
Continuous
 62
     2
100
AcDbLine
 10
215.8045369379
 20
319.240725943
 30
0.0
 11
215.8045369379
 21
376.551511058583
 31
0.0
  0
LINE
  5
137
330
134
100
AcDbEntity
  8
1
  6
Continuous
 62
     2
100
AcDbLine
 10
60.8045369379
 20
337.2653079973
 30
0.0
 11
60.8045369379
 21
376.551511058583
 31
0.0
  0
SOLID
  5
138
330
134
100
AcDbEntity
  8
1
 62
     2
100
AcDbTrace
 10
212.3045369379
 20
374.0907273170271
 30
0.0
 11
212.3045369379
 21
375.0122948001389
 31
0.0
 12
215.8045369379
 22
374.551511058583
 32
0.0
 13
215.8045369379
 23
374.551511058583
 33
0.0
  0
SOLID
  5
139
330
134
100
AcDbEntity
  8
1
 62
     2
100
AcDbTrace
 10
64.3045369379
 20
375.0122948001389
 30
0.0
 11
64.3045369379
 21
374.0907273170271
 31
0.0
 12
60.8045369379
 22
374.551511058583
 32
0.0
 13
60.8045369379
 23
374.551511058583
 33
0.0
  0
MTEXT
  5
13A
330
134
100
AcDbEntity
  8
1
 62
     3
100
AcDbMText
 10
143.203642539109
 20
376.551511058583
 30
0.0
 40
3.5
 41
0.0
 71
     7
 72
     1
  1
\C3;\C3;\C3;155\C2;\H2.45;\S^ ;\C3;
  7
CONVERTER_11
 11
0.9999999999970619
 21
2.424068405545306E-6
 31
0.0
 73
     1
 44
0.60024009603842
  0
ENDBLK
  5
13C
330
134
100
AcDbEntity
  8
0
100
AcDbBlockEnd
  0
BLOCK
  5
143
330
13F
100
AcDbEntity
  8
0
100
AcDbBlockBegin
  2
*D8
 70
     1
 10
0.0
 20
0.0
 30
0.0
  3
*D8
  1

  0
LINE
  5
140
330
13F
100
AcDbEntity
  8
1
  6
Continuous
 62
     2
100
AcDbLine
 10
150.6029552863186
 20
332.855667232
 30
0.0
 11
141.2853144392706
 21
324.7183927291587
 31
0.0
  0
SOLID
  5
141
330
13F
100
AcDbEntity
  8
1
 62
     2
100
AcDbTrace
 10
143.6184298774834
 20
327.3677122660314
 30
0.0
 11
144.2246252494589
 21
326.6735841820841
 31
0.0
 12
141.2853144392706
 22
324.7183927291587
 32
0.0
 13
141.2853144392706
 23
324.7183927291587
 33
0.0
  0
MTEXT
  5
142
330
13F
100
AcDbEntity
  8
1
 62
     3
100
AcDbMText
 10
143.6986088944997
 20
329.4812930823571
 30
0.0
 40
3.5
 41
0.0
 71
     7
 72
     1
  1
\C3; R\C3;\C3;6\C2;\H2.45;\S^ ;\C3;
  7
CONVERTER_11
 11
0.7532037497715721
 21
0.6577872842568812
 31
0.0
 73
     1
 44
0.60024009603842
  0
ENDBLK
  5
144
330
13F
100
AcDbEntity
  8
0
100
AcDbBlockEnd
  0
BLOCK
  5
14D
330
146
100
AcDbEntity
  8
0
100
AcDbBlockBegin
  2
*D9
 70
     1
 10
0.0
 20
0.0
 30
0.0
  3
*D9
  1

  0
LINE
  5
147
330
146
100
AcDbEntity
  8
1
  6
Continuous
 62
     2
100
AcDbLine
 10
190.5952843488931
 20
322.6651164347001
 30
0.0
 11
192.5952843488931
 21
322.6651164347001
 31
0.0
  0
LINE
  5
148
330
146
100
AcDbEntity
  8
1
  6
Continuous
 62
     2
100
AcDbLine
 10
160.6266156251
 20
322.6651164347001
 30
0.0
 11
190.5952843488931
 21
322.6651164347001
 31
0.0
  0
ARC
  5
149
330
146
100
AcDbEntity
  8
1
  6
Continuous
 62
     2
100
AcDbCircle
 10
158.6266156251
 20
322.6651164347001
 30
0.0
 40
31.96866872379311
100
AcDbArc
 50
346.0906985041566
 51
19.11276100451784
  0
SOLID
  5
14A
330
146
100
AcDbEntity
  8
1
 62
     2
100
AcDbTrace
 10
190.488329435568
 20
316.6266922414721
 30
0.0
 11
189.5749351139366
 21
316.7491562735005
 31
0.0
 12
190.4967356122225
 22
320.1568835950217
 32
0.0
 13
190.4967356122225
 23
320.1568835950217
 33
0.0
  0
SOLID
  5
14B
330
146
100
AcDbEntity
  8
1
 62
     2
100
AcDbTrace
 10
189.9436926580402
 20
326.1346625036972
 30
0.0
 11
190.86387970702
 21
326.1850849274674
 31
0.0
 12
190.5952843488931
 22
322.6651164347001
 32
0.0
 13
190.5952843488931
 23
322.6651164347001
 33
0.0
  0
MTEXT
  5
14C
330
146
100
AcDbEntity
  8
1
 62
     3
100
AcDbMText
 10
190.8961259267587
 20
333.8474858060786
 30
0.0
 40
3.5
 41
0.0
 71
     7
 72
     1
  1
\C3;\C3;\C3;4.5%%d\C2;\H2.45;\S^ ;\C3;
  7
CONVERTER_11
 11
0.2278678621352896
 21
-0.9736920649804499
 31
0.0
 73
     1
 44
0.60024009603842
  0
ENDBLK
  5
14E
330
146
100
AcDbEntity
  8
0
100
AcDbBlockEnd
  0
ENDSEC
  0
SECTION
  2
ENTITIES
  0
INSERT
  5
6C
330
1F
100
AcDbEntity
  8
0
100
AcDbBlockReference
  2
Urheberrecht_DE-EN
 10
51.3896761397419
 20
312.901963882425
 30
0.0
  0
LINE
  5
70
330
1F
100
AcDbEntity
  8
BEZUGSACHSEN
  6
Continuous
 62
     7
100
AcDbLine
 10
60.8045369379
 20
268.0649469161
 30
0.0
 11
60.8045369379
 21
289.6551164347
 31
0.0
  0
LINE
  5
71
330
1F
100
AcDbEntity
  8
BEZUGSACHSEN
  6
Continuous
 62
     7
100
AcDbLine
 10
60.8045369379
 20
313.6751164347
 30
0.0
 11
60.8045369379
 21
335.2653079973
 31
0.0
  0
LINE
  5
72
330
1F
100
AcDbEntity
  8
BEZUGSACHSEN
  6
Continuous
 62
     9
100
AcDbLine
 10
62.7044624532
 20
337.262802703
 30
0.0
 11
62.7044624532
 21
317.3416488209
 31
0.0
  0
LINE
  5
73
330
1F
100
AcDbEntity
  8
BEZUGSACHSEN
  6
Continuous
 62
     9
100
AcDbLine
 10
62.7044624532
 20
285.9885840484
 30
0.0
 11
62.7044624532
 21
266.0674301664
 31
0.0
  0
LINE
  5
74
330
1F
100
AcDbEntity
  8
BEZUGSACHSEN
  6
Continuous
 62
     7
100
AcDbLine
 10
62.8045369379
 20
289.2614764863
 30
0.0
 11
62.8045369379
 21
291.6551164347
 31
0.0
  0
LINE
  5
75
330
1F
100
AcDbEntity
  8
BEZUGSACHSEN
  6
Continuous
 62
     7
100
AcDbLine
 10
62.8045369379
 20
311.6751164347
 30
0.0
 11
62.8045369379
 21
314.0687563831
 31
0.0
  0
LINE
  5
76
330
1F
100
AcDbEntity
  8
BEZUGSACHSEN
  6
Continuous
 62
     9
100
AcDbLine
 10
68.8045369379
 20
285.3064688473
 30
0.0
 11
68.8045369379
 21
291.6551164347
 31
0.0
  0
LINE
  5
77
330
1F
100
AcDbEntity
  8
BEZUGSACHSEN
  6
Continuous
 62
     9
100
AcDbLine
 10
68.8045369379
 20
311.6751164347
 30
0.0
 11
68.8045369379
 21
318.0237640221
 31
0.0
  0
LINE
  5
78
330
1F
100
AcDbEntity
  8
BEZUGSACHSEN
  6
Continuous
 62
     7
100
AcDbLine
 10
70.8045369379
 20
314.5347719605
 30
0.0
 11
70.8045369379
 21
288.7954609089
 31
0.0
  0
LINE
  5
79
330
1F
100
AcDbEntity
  8
BEZUGSACHSEN
  6
Continuous
 62
     7
100
AcDbLine
 10
62.0714898649
 20
286.6551164347
 30
0.0
 11
61.9503796135
 21
286.4227804392
 31
0.0
  0
LINE
  5
7A
330
1F
100
AcDbEntity
  8
BEZUGSACHSEN
  6
Continuous
 62
     7
100
AcDbLine
 10
61.9503796135
 20
316.9074524301
 30
0.0
 11
62.0714898649
 21
316.6751164347
 31
0.0
  0
LINE
  5
7B
330
1F
100
AcDbEntity
  8
BEZUGSACHSEN
  6
Continuous
 62
     7
100
AcDbLine
 10
127.5569416737
 20
251.6651164347
 30
0.0
 11
110.8045369379
 21
251.6651164347
 31
0.0
  0
LINE
  5
7C
330
1F
100
AcDbEntity
  8
BEZUGSACHSEN
  6
Continuous
 62
     7
100
AcDbLine
 10
134.0521322021
 20
251.6651164347
 30
0.0
 11
139.8045369379
 21
251.6651164347
 31
0.0
  0
LWPOLYLINE
  5
7D
330
1F
100
AcDbEntity
  8
BEZUGSACHSEN
  6
DOT_CENTER
 62
     7
100
AcDbPolyline
 90
        2
 70
     0
 43
0.25
 10
95.8045369379
 20
301.6651164347
 10
95.8045369379
 20
292.6651164347
  0
LWPOLYLINE
  5
7E
330
1F
100
AcDbEntity
  8
BEZUGSACHSEN
  6
DOT_CENTER
 62
     7
100
AcDbPolyline
 90
        2
 70
     0
 43
0.25
 10
95.8045369379
 20
301.6651164347
 10
95.8045369379
 20
310.6651164347
  0
LINE
  5
7F
330
1F
100
AcDbEntity
  8
BEZUGSACHSEN
  6
Continuous
 62
     7
100
AcDbLine
 10
60.8045369379
 20
289.6551164347
 30
0.0
 11
62.8045369379
 21
291.6551164347
 31
0.0
  0
LINE
  5
80
330
1F
100
AcDbEntity
  8
BEZUGSACHSEN
  6
Continuous
 62
     7
100
AcDbLine
 10
129.9295369379
 20
255.6651164347
 30
0.0
 11
131.6795369379
 21
255.6651164347
 31
0.0
  0
LINE
  5
81
330
1F
100
AcDbEntity
  8
BEZUGSACHSEN
  6
Continuous
 62
     7
100
AcDbLine
 10
62.8045369379
 20
311.6751164347
 30
0.0
 11
60.8045369379
 21
313.6751164347
 31
0.0
  0
LINE
  5
82
330
1F
100
AcDbEntity
  8
FASEN
  6
Continuous
 62
     7
100
AcDbLine
 10
116.2060229023
 20
262.835359804
 30
0.0
 11
127.5569416737
 21
262.835359804
 31
0.0
  0
LINE
  5
83
330
1F
100
AcDbEntity
  8
0
  6
Continuous
 62
     7
100
AcDbLine
 10
134.0521322021
 20
262.835359804
 30
0.0
 11
139.8045369379
 21
262.835359804
 31
0.0
  0
LINE
  5
84
330
1F
100
AcDbEntity
  8
BEZUGSACHSEN
  6
Continuous
 62
     7
100
AcDbLine
 10
110.1039656492
 20
263.9828664347
 30
0.0
 11
109.182599597
 21
263.9828664347
 31
0.0
  0
LINE
  5
85
330
1F
100
AcDbEntity
  8
BEZUGSACHSEN
  6
Continuous
 62
     7
100
AcDbLine
 10
108.3045369379
 20
263.7828664347
 30
0.0
 11
62.7044624532
 21
266.0674301664
 31
0.0
  0
LINE
  5
86
330
1F
100
AcDbEntity
  8
BEZUGSACHSEN
  6
Continuous
 62
     7
100
AcDbLine
 10
108.3045369379
 20
339.5473664347
 30
0.0
 11
108.3045369379
 21
263.7828664347
 31
0.0
  0
LINE
  5
87
330
1F
100
AcDbEntity
  8
0
  6
Continuous
 62
     7
100
AcDbLine
 10
129.9295369379
 20
268.142735851
 30
0.0
 11
131.6795369379
 21
268.142735851
 31
0.0
  0
LINE
  5
88
330
1F
100
AcDbEntity
  8
FASEN
  6
Continuous
 62
     7
100
AcDbLine
 10
123.7764108598
 20
269.7651164347
 30
0.0
 11
139.8045369379
 21
269.7651164347
 31
0.0
  0
LINE
  5
89
330
1F
100
AcDbEntity
  8
0
  6
Continuous
 62
     7
100
AcDbLine
 10
123.7764108598
 20
270.1651164347
 30
0.0
 11
139.8045369379
 21
270.1651164347
 31
0.0
  0
LINE
  5
8A
330
1F
100
AcDbEntity
  8
BEZUGSACHSEN
  6
Continuous
 62
     9
100
AcDbLine
 10
108.9237805519
 20
263.948792261
 30
0.0
 11
108.9237805519
 21
339.3814406084
 31
0.0
  0
LINE
  5
8B
330
1F
100
AcDbEntity
  8
BEZUGSACHSEN
  6
Continuous
 62
     9
100
AcDbLine
 10
109.182599597
 20
263.9828664347
 30
0.0
 11
109.182599597
 21
339.3473664347
 31
0.0
  0
LINE
  5
8C
330
1F
100
AcDbEntity
  8
BEZUGSACHSEN
  6
Continuous
 62
     9
100
AcDbLine
 10
110.1039656492
 20
263.9828664347
 30
0.0
 11
110.1039656492
 21
339.3473664347
 31
0.0
  0
LINE
  5
8D
330
1F
100
AcDbEntity
  8
BEZUGSACHSEN
  6
Continuous
 62
     7
100
AcDbLine
 10
110.8045369379
 20
351.6651164347
 30
0.0
 11
110.8045369379
 21
251.6651164347
 31
0.0
  0
LINE
  5
8E
330
1F
100
AcDbEntity
  8
BEZUGSACHSEN
  6
Continuous
 62
     7
100
AcDbLine
 10
132.6795369379
 20
349.2877116989
 30
0.0
 11
134.0521322021
 21
351.6651164347
 31
0.0
  0
LINE
  5
8F
330
1F
100
AcDbEntity
  8
BEZUGSACHSEN
  6
Continuous
 62
     9
100
AcDbLine
 10
60.8045369379
 20
288.2189324657
 30
0.0
 11
62.8045369379
 21
289.2614764863
 31
0.0
  0
LINE
  5
90
330
1F
100
AcDbEntity
  8
BEZUGSACHSEN
  6
Continuous
 62
     7
100
AcDbLine
 10
108.9237805519
 20
263.948792261
 30
0.0
 11
108.3045369379
 21
263.7828664347
 31
0.0
  0
LINE
  5
91
330
1F
100
AcDbEntity
  8
BEZUGSACHSEN
  6
Continuous
 62
     9
100
AcDbLine
 10
62.8045369379
 20
314.0687563831
 30
0.0
 11
60.8045369379
 21
315.1113004037
 31
0.0
  0
LINE
  5
92
330
1F
100
AcDbEntity
  8
BEZUGSACHSEN
  6
Continuous
 62
     7
100
AcDbLine
 10
132.6795369379
 20
254.0425211705
 30
0.0
 11
134.0521322021
 21
251.6651164347
 31
0.0
  0
LWPOLYLINE
  5
93
330
1F
100
AcDbEntity
  8
BEZUGSACHSEN
  6
DOT_CENTER
 62
     7
100
AcDbPolyline
 90
        2
 70
     0
 43
0.25
 10
117.8045369379
 20
343.81448829
 10
117.8045369379
 20
354.6651164347
  0
LINE
  5
94
330
1F
100
AcDbEntity
  8
RUNDUNGEN
  6
Continuous
 62
     7
100
AcDbLine
 10
214.8829960336
 20
285.0925895926
 30
0.0
 11
158.6266156251
 21
280.6651164347
 31
0.0
  0
LINE
  5
95
330
1F
100
AcDbEntity
  8
0
  6
Continuous
 62
     7
100
AcDbLine
 10
158.6266156251
 20
280.6651164347
 30
0.0
 11
214.8829960336
 21
285.0925895926
 31
0.0
  0
LINE
  5
96
330
1F
100
AcDbEntity
  8
RUNDUNGEN
  6
Continuous
 62
     7
100
AcDbLine
 10
158.6266156251
 20
280.6651164347
 30
0.0
 11
145.8045369379
 21
280.6651164347
 31
0.0
  0
LINE
  5
97
330
1F
100
AcDbEntity
  8
0
  6
Continuous
 62
     7
100
AcDbLine
 10
145.8045369379
 20
280.6651164347
 30
0.0
 11
158.6266156251
 21
280.6651164347
 31
0.0
  0
LINE
  5
98
330
1F
100
AcDbEntity
  8
FASEN
  6
Continuous
 62
     9
100
AcDbLine
 10
123.7764108598
 20
269.7651164347
 30
0.0
 11
123.7764108598
 21
270.1651164347
 31
0.0
  0
LINE
  5
99
330
1F
100
AcDbEntity
  8
FASEN
  6
Continuous
 62
     9
100
AcDbLine
 10
125.8045369379
 20
292.0651164347
 30
0.0
 11
125.8045369379
 21
291.6651164347
 31
0.0
  0
LINE
  5
9A
330
1F
100
AcDbEntity
  8
FASEN
  6
Continuous
 62
     9
100
AcDbLine
 10
125.8045369379
 20
311.2651164347
 30
0.0
 11
125.8045369379
 21
311.6651164347
 31
0.0
  0
LINE
  5
9B
330
1F
100
AcDbEntity
  8
BEZUGSACHSEN
  6
Continuous
 62
     9
100
AcDbLine
 10
70.3583828848
 20
286.6551164347
 30
0.0
 11
62.0714898649
 21
286.6551164347
 31
0.0
  0
LINE
  5
9C
330
1F
100
AcDbEntity
  8
0
  6
Continuous
 62
     7
100
AcDbLine
 10
127.5569416737
 20
351.6651164347
 30
0.0
 11
127.5569416737
 21
311.6651164347
 31
0.0
  0
LINE
  5
9D
330
1F
100
AcDbEntity
  8
0
  6
Continuous
 62
     7
100
AcDbLine
 10
127.5569416737
 20
291.6651164347
 30
0.0
 11
127.5569416737
 21
270.1651164347
 31
0.0
  0
LINE
  5
9E
330
1F
100
AcDbEntity
  8
0
  6
Continuous
 62
     7
100
AcDbLine
 10
127.5569416737
 20
262.835359804
 30
0.0
 11
127.5569416737
 21
251.6651164347
 31
0.0
  0
LINE
  5
9F
330
1F
100
AcDbEntity
  8
0
  6
Continuous
 62
     7
100
AcDbLine
 10
128.9295369379
 20
349.2876782724
 30
0.0
 11
128.9295369379
 21
311.6651164347
 31
0.0
  0
LINE
  5
A0
330
1F
100
AcDbEntity
  8
0
  6
Continuous
 62
     7
100
AcDbLine
 10
128.9295369379
 20
291.6651164347
 30
0.0
 11
128.9295369379
 21
270.1651164347
 31
0.0
  0
LINE
  5
A1
330
1F
100
AcDbEntity
  8
0
  6
Continuous
 62
     7
100
AcDbLine
 10
128.9295369379
 20
254.0425587045
 30
0.0
 11
128.9295369379
 21
266.7831726815
 31
0.0
  0
LINE
  5
A2
330
1F
100
AcDbEntity
  8
0
  6
Continuous
 62
     9
100
AcDbLine
 10
129.9295369379
 20
255.6651164347
 30
0.0
 11
129.9295369379
 21
268.142735851
 31
0.0
  0
LINE
  5
A3
330
1F
100
AcDbEntity
  8
0
  6
Continuous
 62
     9
100
AcDbLine
 10
129.9295369379
 20
270.1651164347
 30
0.0
 11
129.9295369379
 21
291.6651164347
 31
0.0
  0
LINE
  5
A4
330
1F
100
AcDbEntity
  8
0
  6
Continuous
 62
     9
100
AcDbLine
 10
129.9295369379
 20
311.6651164347
 30
0.0
 11
129.9295369379
 21
347.6651164347
 31
0.0
  0
LINE
  5
A5
330
1F
100
AcDbEntity
  8
0
  6
Continuous
 62
     9
100
AcDbLine
 10
131.6795369379
 20
255.6651164347
 30
0.0
 11
131.6795369379
 21
268.142735851
 31
0.0
  0
LINE
  5
A6
330
1F
100
AcDbEntity
  8
0
  6
Continuous
 62
     9
100
AcDbLine
 10
131.6795369379
 20
270.1651164347
 30
0.0
 11
131.6795369379
 21
291.6651164347
 31
0.0
  0
LINE
  5
A7
330
1F
100
AcDbEntity
  8
0
  6
Continuous
 62
     9
100
AcDbLine
 10
131.6795369379
 20
311.6651164347
 30
0.0
 11
131.6795369379
 21
347.6651164347
 31
0.0
  0
LINE
  5
A8
330
1F
100
AcDbEntity
  8
0
  6
Continuous
 62
     7
100
AcDbLine
 10
132.6795369379
 20
254.0425587045
 30
0.0
 11
132.6795369379
 21
266.7831726815
 31
0.0
  0
LINE
  5
A9
330
1F
100
AcDbEntity
  8
0
  6
Continuous
 62
     7
100
AcDbLine
 10
132.6795369379
 20
270.1651164347
 30
0.0
 11
132.6795369379
 21
291.6651164347
 31
0.0
  0
LINE
  5
AA
330
1F
100
AcDbEntity
  8
0
  6
Continuous
 62
     7
100
AcDbLine
 10
132.6795369379
 20
311.6651164347
 30
0.0
 11
132.6795369379
 21
349.2876782724
 31
0.0
  0
LINE
  5
AB
330
1F
100
AcDbEntity
  8
BEZUGSACHSEN
  6
Continuous
 62
     7
100
AcDbLine
 10
68.8045369379
 20
291.6551164347
 30
0.0
 11
62.8045369379
 21
291.6551164347
 31
0.0
  0
LWPOLYLINE
  5
AC
330
1F
100
AcDbEntity
  8
DEFAULT_2
  6
DASHED
 62
     8
100
AcDbPolyline
 90
        2
 70
     0
 43
0.35
 10
215.8045369379
 20
291.6651164347
 10
163.8045369379
 20
291.6651164347
  0
LINE
  5
AD
330
1F
100
AcDbEntity
  8
0
  6
Continuous
 62
     7
100
AcDbLine
 10
125.8045369379
 20
291.6651164347
 30
0.0
 11
139.8045369379
 21
291.6651164347
 31
0.0
  0
LINE
  5
AE
330
1F
100
AcDbEntity
  8
FASEN
  6
Continuous
 62
     7
100
AcDbLine
 10
139.8045369379
 20
292.0651164347
 30
0.0
 11
125.8045369379
 21
292.0651164347
 31
0.0
  0
LINE
  5
AF
330
1F
100
AcDbEntity
  8
0
  6
Continuous
 62
     7
100
AcDbLine
 10
134.0521322021
 20
351.6651164347
 30
0.0
 11
134.0521322021
 21
311.6651164347
 31
0.0
  0
LINE
  5
B0
330
1F
100
AcDbEntity
  8
0
  6
Continuous
 62
     7
100
AcDbLine
 10
134.0521322021
 20
291.6651164347
 30
0.0
 11
134.0521322021
 21
270.1651164347
 31
0.0
  0
LINE
  5
B1
330
1F
100
AcDbEntity
  8
0
  6
Continuous
 62
     7
100
AcDbLine
 10
134.0521322021
 20
262.835359804
 30
0.0
 11
134.0521322021
 21
251.6651164347
 31
0.0
  0
LWPOLYLINE
  5
B2
330
1F
100
AcDbEntity
  8
BEZUGSACHSEN
  6
DOT_CENTER
 62
     7
100
AcDbPolyline
 90
        2
 70
     0
 43
0.25
 10
218.8045369379
 20
301.6651164347
 10
57.8045369379
 20
301.6651164347
  0
LINE
  5
B3
330
1F
100
AcDbEntity
  8
0
  6
Continuous
 62
     7
100
AcDbLine
 10
139.8045369379
 20
351.6650795136
 30
0.0
 11
139.8045369379
 21
311.6651164347
 31
0.0
  0
LINE
  5
B4
330
1F
100
AcDbEntity
  8
0
  6
Continuous
 62
     7
100
AcDbLine
 10
139.8045369379
 20
291.6651164347
 30
0.0
 11
139.8045369379
 21
270.1651164347
 31
0.0
  0
LINE
  5
B5
330
1F
100
AcDbEntity
  8
0
  6
Continuous
 62
     7
100
AcDbLine
 10
139.8045369379
 20
262.835359804
 30
0.0
 11
139.8045369379
 21
251.6651183025
 31
0.0
  0
LINE
  5
B6
330
1F
100
AcDbEntity
  8
FASEN
  6
Continuous
 62
     7
100
AcDbLine
 10
139.8045369379
 20
262.835359804
 30
0.0
 11
139.8045369379
 21
270.1651164347
 31
0.0
  0
LINE
  5
B7
330
1F
100
AcDbEntity
  8
FASEN
  6
Continuous
 62
     7
100
AcDbLine
 10
139.8045369379
 20
291.6651164347
 30
0.0
 11
139.8045369379
 21
311.6651164347
 31
0.0
  0
LINE
  5
B8
330
1F
100
AcDbEntity
  8
RUNDUNGEN
  6
Continuous
 62
     9
100
AcDbLine
 10
145.8045369379
 20
322.6651164347
 30
0.0
 11
145.8045369379
 21
280.6651164347
 31
0.0
  0
LINE
  5
B9
330
1F
100
AcDbEntity
  8
FASEN
  6
Continuous
 62
     7
100
AcDbLine
 10
125.8045369379
 20
311.2651164347
 30
0.0
 11
139.8045369379
 21
311.2651164347
 31
0.0
  0
LWPOLYLINE
  5
BA
330
1F
100
AcDbEntity
  8
DEFAULT_2
  6
DASHED
 62
     8
100
AcDbPolyline
 90
        2
 70
     0
 43
0.35
 10
215.8045369379
 20
311.6651164347
 10
163.8045369379
 20
311.6651164347
  0
LINE
  5
BB
330
1F
100
AcDbEntity
  8
0
  6
Continuous
 62
     7
100
AcDbLine
 10
125.8045369379
 20
311.6651164347
 30
0.0
 11
139.8045369379
 21
311.6651164347
 31
0.0
  0
LINE
  5
BC
330
1F
100
AcDbEntity
  8
BEZUGSACHSEN
  6
Continuous
 62
     7
100
AcDbLine
 10
68.8045369379
 20
311.6751164347
 30
0.0
 11
62.8045369379
 21
311.6751164347
 31
0.0
  0
LINE
  5
BD
330
1F
100
AcDbEntity
  8
BEZUGSACHSEN
  6
Continuous
 62
     7
100
AcDbLine
 10
127.5569416737
 20
251.6651164347
 30
0.0
 11
128.9295369379
 21
254.0425211705
 31
0.0
  0
LINE
  5
BE
330
1F
100
AcDbEntity
  8
BEZUGSACHSEN
  6
Continuous
 62
     9
100
AcDbLine
 10
62.0714898649
 20
316.6751164347
 30
0.0
 11
70.3583828848
 21
316.6751164347
 31
0.0
  0
LINE
  5
BF
330
1F
100
AcDbEntity
  8
BEZUGSACHSEN
  6
Continuous
 62
     7
100
AcDbLine
 10
127.5569416737
 20
351.6651164347
 30
0.0
 11
128.9295369379
 21
349.2877116989
 31
0.0
  0
LINE
  5
C0
330
1F
100
AcDbEntity
  8
0
  6
Continuous
 62
     7
100
AcDbLine
 10
158.6266156251
 20
322.6651164347
 30
0.0
 11
158.6266156251
 21
280.6651164347
 31
0.0
  0
LINE
  5
C1
330
1F
100
AcDbEntity
  8
RUNDUNGEN
  6
Continuous
 62
     7
100
AcDbLine
 10
158.6266156251
 20
322.6651164347
 30
0.0
 11
145.8045369379
 21
322.6651164347
 31
0.0
  0
LINE
  5
C2
330
1F
100
AcDbEntity
  8
0
  6
Continuous
 62
     7
100
AcDbLine
 10
145.8045369379
 20
322.6651164347
 30
0.0
 11
158.6266156251
 21
322.6651164347
 31
0.0
  0
LINE
  5
C3
330
1F
100
AcDbEntity
  8
RUNDUNGEN
  6
Continuous
 62
     7
100
AcDbLine
 10
214.8829960336
 20
318.2376432768
 30
0.0
 11
158.6266156251
 21
322.6651164347
 31
0.0
  0
LINE
  5
C4
330
1F
100
AcDbEntity
  8
0
  6
Continuous
 62
     7
100
AcDbLine
 10
158.6266156251
 20
322.6651164347
 30
0.0
 11
214.8829960336
 21
318.2376432768
 31
0.0
  0
LWPOLYLINE
  5
C5
330
1F
100
AcDbEntity
  8
DEFAULT_2
  6
DASHED
 62
     8
100
AcDbPolyline
 90
        2
 70
     0
 43
0.35
 10
163.8045369379
 20
311.6651164347
 10
163.8045369379
 20
291.6651164347
  0
LINE
  5
C6
330
1F
100
AcDbEntity
  8
BEZUGSACHSEN
  6
Continuous
 62
     7
100
AcDbLine
 10
108.9237805519
 20
339.3814406084
 30
0.0
 11
108.3045369379
 21
339.5473664347
 31
0.0
  0
LINE
  5
C7
330
1F
100
AcDbEntity
  8
BEZUGSACHSEN
  6
Continuous
 62
     7
100
AcDbLine
 10
110.1039656492
 20
339.3473664347
 30
0.0
 11
109.182599597
 21
339.3473664347
 31
0.0
  0
LINE
  5
C8
330
1F
100
AcDbEntity
  8
BEZUGSACHSEN
  6
Continuous
 62
     7
100
AcDbLine
 10
108.3045369379
 20
339.5473664347
 30
0.0
 11
62.7044624532
 21
337.262802703
 31
0.0
  0
LINE
  5
C9
330
1F
100
AcDbEntity
  8
BEZUGSACHSEN
  6
Continuous
 62
     7
100
AcDbLine
 10
129.9295369379
 20
347.6651164347
 30
0.0
 11
131.6795369379
 21
347.6651164347
 31
0.0
  0
LINE
  5
CA
330
1F
100
AcDbEntity
  8
BEZUGSACHSEN
  6
Continuous
 62
     7
100
AcDbLine
 10
127.5569416737
 20
351.6651164347
 30
0.0
 11
122.8045369379
 21
351.6651164347
 31
0.0
  0
LINE
  5
CB
330
1F
100
AcDbEntity
  8
BEZUGSACHSEN
  6
Continuous
 62
     7
100
AcDbLine
 10
112.8045369379
 20
351.6651164347
 30
0.0
 11
110.8045369379
 21
351.6651164347
 31
0.0
  0
LINE
  5
CC
330
1F
100
AcDbEntity
  8
BEZUGSACHSEN
  6
Continuous
 62
     7
100
AcDbLine
 10
134.0521322021
 20
351.6651164347
 30
0.0
 11
139.8045369379
 21
351.6651164347
 31
0.0
  0
LINE
  5
CD
330
1F
100
AcDbEntity
  8
RUNDUNGEN
  6
Continuous
 62
     9
100
AcDbLine
 10
214.8829960336
 20
285.0925895926
 30
0.0
 11
214.8829960336
 21
318.2376432768
 31
0.0
  0
LINE
  5
CE
330
1F
100
AcDbEntity
  8
RUNDUNGEN
  6
Continuous
 62
     7
100
AcDbLine
 10
215.8045369379
 20
317.240725943
 30
0.0
 11
215.8045369379
 21
286.0895069263
 31
0.0
  0
LWPOLYLINE
  5
CF
330
1F
100
AcDbEntity
  8
1
  6
Continuous
 62
     7
100
AcDbPolyline
 90
        2
 70
     0
 43
0.25
 10
215.8045369379
 20
317.240725943
 10
215.8045369379
 20
318.1651164347528
  0
LWPOLYLINE
  5
D0
330
1F
100
AcDbEntity
  8
1
  6
Continuous
 62
     7
100
AcDbPolyline
 90
        2
 70
     0
 43
0.25
 10
214.8829960336
 20
318.2376432768
 10
215.8045369379094
 20
318.1651164347528
  0
LWPOLYLINE
  5
D1
330
1F
100
AcDbEntity
  8
1
  6
Continuous
 62
     7
100
AcDbPolyline
 90
        2
 70
     0
 43
0.25
 10
214.8829960336
 20
285.0925895926
 10
215.8045369379
 20
285.1651164346486
  0
LWPOLYLINE
  5
D2
330
1F
100
AcDbEntity
  8
1
  6
Continuous
 62
     7
100
AcDbPolyline
 90
        2
 70
     0
 43
0.25
 10
215.8045369379
 20
286.0895069263
 10
215.8045369379
 20
285.1651164346486
  0
ARC
  5
D3
330
1F
100
AcDbEntity
  8
FASEN
  6
Continuous
 62
     7
100
AcDbCircle
 10
128.7051909607
 20
277.1963797047
 30
0.0
 40
19.03859487300019
100
AcDbArc
 50
227.4837701983004
 51
228.9651953375289
  0
ARC
  5
D4
330
1F
100
AcDbEntity
  8
FASEN
  6
Continuous
 62
     7
100
AcDbCircle
 10
123.7764108598
 20
262.1651164347
 30
0.0
 40
8.0
100
AcDbArc
 50
90.0
 51
172.8323734889971
  0
ARC
  5
D5
330
1F
100
AcDbEntity
  8
FASEN
  6
Continuous
 62
     7
100
AcDbCircle
 10
123.7764108598
 20
262.1651164347
 30
0.0
 40
7.599982194900008
100
AcDbArc
 50
90.0
 51
174.9405171273014
  0
ARC
  5
D6
330
1F
100
AcDbEntity
  8
BEZUGSACHSEN
  6
Continuous
 62
     7
100
AcDbCircle
 10
68.8045369379
 20
293.6551164347
 30
0.0
 40
2.0
100
AcDbArc
 50
270.0
 51
355.2355361864949
  0
ARC
  5
D7
330
1F
100
AcDbEntity
  8
BEZUGSACHSEN
  6
Continuous
 62
     7
100
AcDbCircle
 10
62.8045369379
 20
268.0649248716
 30
0.0
 40
2.0
100
AcDbArc
 50
180.0
 51
267.1318795135586
  0
ARC
  5
D8
330
1F
100
AcDbEntity
  8
BEZUGSACHSEN
  6
Continuous
 62
     7
100
AcDbCircle
 10
129.9295369379
 20
254.6651164347
 30
0.0
 40
1.0
100
AcDbArc
 50
90.0
 51
180.0
  0
ARC
  5
D9
330
1F
100
AcDbEntity
  8
BEZUGSACHSEN
  6
Continuous
 62
     7
100
AcDbCircle
 10
109.182599597
 20
262.9828664347
 30
0.0
 40
1.0
100
AcDbArc
 50
90.0
 51
104.9999999996989
  0
ARC
  5
DA
330
1F
100
AcDbEntity
  8
BEZUGSACHSEN
  6
Continuous
 62
     7
100
AcDbCircle
 10
110.1039656492
 20
262.9828664347
 30
0.0
 40
1.000000000000426
100
AcDbArc
 50
45.52164291268396
 51
90.0
  0
ARC
  5
DB
330
1F
100
AcDbEntity
  8
0
  6
Continuous
 62
     7
100
AcDbCircle
 10
-113.7932429446
 20
371.0995840251
 30
0.0
 40
264.5204223901892
100
AcDbArc
 50
335.840076470599
 51
336.5770705490999
  0
ARC
  5
DC
330
1F
100
AcDbEntity
  8
BEZUGSACHSEN
  6
Continuous
 62
     7
100
AcDbCircle
 10
117.819744949
 20
401.7178862016
 30
0.0
 40
50.30340021045197
100
AcDbArc
 50
264.2781515102013
 51
269.9826780126003
  0
ARC
  5
DD
330
1F
100
AcDbEntity
  8
BEZUGSACHSEN
  6
Continuous
 62
     7
100
AcDbCircle
 10
117.7893289368
 20
401.7178860007
 30
0.0
 40
50.30340000949738
100
AcDbArc
 50
270.0173219760584
 51
275.7218485012792
  0
ARC
  5
DE
330
1F
100
AcDbEntity
  8
0
  6
Continuous
 62
     7
100
AcDbCircle
 10
125.8045369379
 20
301.6651164347
 30
0.0
 40
10.0
100
AcDbArc
 50
90.0
 51
270.0
  0
ARC
  5
DF
330
1F
100
AcDbEntity
  8
FASEN
  6
Continuous
 62
     7
100
AcDbCircle
 10
125.8045369379
 20
301.6651164347
 30
0.0
 40
9.599999195900011
100
AcDbArc
 50
90.0
 51
270.0
  0
ARC
  5
E0
330
1F
100
AcDbEntity
  8
BEZUGSACHSEN
  6
Continuous
 62
     7
100
AcDbCircle
 10
68.8045369379
 20
309.6751164347
 30
0.0
 40
1.999999999999992
100
AcDbArc
 50
4.76446378498877
 51
90.0
  0
ARC
  5
E1
330
1F
100
AcDbEntity
  8
BEZUGSACHSEN
  6
Continuous
 62
     7
100
AcDbCircle
 10
62.8045369379
 20
335.2653079978
 30
0.0
 40
1.999999999947484
100
AcDbArc
 50
92.86812048644138
 51
180.0000000143238
  0
ARC
  5
E2
330
1F
100
AcDbEntity
  8
BEZUGSACHSEN
  6
Continuous
 62
     7
100
AcDbCircle
 10
129.9295369379
 20
348.6651164347
 30
0.0
 40
1.0
100
AcDbArc
 50
180.0
 51
270.0
  0
ARC
  5
E3
330
1F
100
AcDbEntity
  8
BEZUGSACHSEN
  6
Continuous
 62
     7
100
AcDbCircle
 10
109.182599597
 20
340.3473664347
 30
0.0
 40
1.000000000009918
100
AcDbArc
 50
255.0000000003011
 51
270.0
  0
ARC
  5
E4
330
1F
100
AcDbEntity
  8
BEZUGSACHSEN
  6
Continuous
 62
     7
100
AcDbCircle
 10
110.1039656492
 20
340.3473664347
 30
0.0
 40
1.0
100
AcDbArc
 50
270.0
 51
314.478357087316
  0
ARC
  5
E5
330
1F
100
AcDbEntity
  8
BEZUGSACHSEN
  6
Continuous
 62
     7
100
AcDbCircle
 10
247.1345835361
 20
-1304.3776428553
 30
0.0
 40
1632.172763697999
100
AcDbArc
 50
96.2726189838
 51
96.48809068979999
  0
ARC
  5
E6
330
1F
100
AcDbEntity
  8
RUNDUNGEN
  6
Continuous
 62
     7
100
AcDbCircle
 10
145.8045369379
 20
274.6651164347
 30
0.0
 40
6.0
100
AcDbArc
 50
90.0
 51
180.0
  0
ARC
  5
E7
330
1F
100
AcDbEntity
  8
RUNDUNGEN
  6
Continuous
 62
     7
100
AcDbCircle
 10
214.8045369379
 20
286.0895069263
 30
0.0
 40
0.9999999999647582
100
AcDbArc
 50
274.4999999985585
 51
0.0
  0
ARC
  5
E8
330
1F
100
AcDbEntity
  8
BEZUGSACHSEN
  6
Continuous
 62
     7
100
AcDbCircle
 10
131.6795369379
 20
254.6651164347
 30
0.0
 40
1.0
100
AcDbArc
 50
0.0
 51
90.0
  0
ARC
  5
E9
330
1F
100
AcDbEntity
  8
BEZUGSACHSEN
  6
Continuous
 62
     7
100
AcDbCircle
 10
247.1345835361
 20
1907.7078757245
 30
0.0
 40
1632.1727636978
100
AcDbArc
 50
263.5119093102
 51
263.7273810162
  0
ARC
  5
EA
330
1F
100
AcDbEntity
  8
0
  6
Continuous
 62
     7
100
AcDbCircle
 10
375.4023168204
 20
371.0995840251
 30
0.0
 40
264.5204223902001
100
AcDbArc
 50
203.4229294508999
 51
204.1599235294009
  0
ARC
  5
EB
330
1F
100
AcDbEntity
  8
RUNDUNGEN
  6
Continuous
 62
     7
100
AcDbCircle
 10
145.8045369379
 20
328.6651164347
 30
0.0
 40
6.0
100
AcDbArc
 50
180.0
 51
270.0
  0
ARC
  5
EC
330
1F
100
AcDbEntity
  8
BEZUGSACHSEN
  6
Continuous
 62
     7
100
AcDbCircle
 10
131.6795369379
 20
348.6651164347
 30
0.0
 40
1.0
100
AcDbArc
 50
270.0
 51
0.0
  0
ARC
  5
ED
330
1F
100
AcDbEntity
  8
RUNDUNGEN
  6
Continuous
 62
     7
100
AcDbCircle
 10
214.8045369379
 20
317.240725943
 30
0.0
 40
1.0
100
AcDbArc
 50
0.0
 51
85.50000000189128
  0
CIRCLE
  5
EE
330
1F
100
AcDbEntity
  8
BEZUGSACHSEN
  6
Continuous
 62
     7
100
AcDbCircle
 10
95.8045369379
 20
301.6651164347
 30
0.0
 40
6.0
  0
SPLINE
  5
EF
330
1F
100
AcDbEntity
  8
BEZUGSACHSEN
  6
Continuous
 62
     7
100
AcDbSpline
210
0.0
220
0.0
230
1.0
 70
     8
 71
     3
 72
    11
 73
     7
 74
     5
 42
0.0000000001
 43
0.0000000001
 44
0.00000001
 40
0.0
 40
0.0
 40
0.0
 40
0.0
 40
0.552126940703641
 40
1.10519618333971
 40
1.651906304698667
 40
2.198197048720038
 40
2.198197048720038
 40
2.198197048720038
 40
2.198197048720038
 10
70.8045369379
 20
288.7954609089
 30
0.0
 10
70.79795150027225
 20
288.6113257184891
 30
0.0
 10
70.78476938580678
 20
288.2427410785124
 30
0.0
 10
70.68728102200954
 20
287.6993166738269
 30
0.0
 10
70.54764370897706
 20
287.1680425443099
 30
0.0
 10
70.42145368676151
 20
286.8260480642159
 30
0.0
 10
70.3583828848
 20
286.6551164347
 30
0.0
 11
70.8045369379
 21
288.7954609089
 31
0.0
 11
70.77179235547318
 21
288.2443058028069
 31
0.0
 11
70.67972570252982
 21
287.6989533309451
 31
0.0
 11
70.5392342176964
 21
287.1706029741877
 31
0.0
 11
70.3583828848
 21
286.6551164347
 31
0.0
  0
SPLINE
  5
F0
330
1F
100
AcDbEntity
  8
BEZUGSACHSEN
  6
Continuous
 62
     7
100
AcDbSpline
210
0.0
220
0.0
230
1.0
 70
     8
 71
     3
 72
    19
 73
    15
 74
    13
 42
0.0000000001
 43
0.0000000001
 44
0.00000001
 40
0.0
 40
0.0
 40
0.0
 40
0.0
 40
0.2679411643110737
 40
0.5361267936765266
 40
0.8065304773515287
 40
1.076465993223065
 40
1.213913376155887
 40
1.351353104899066
 40
1.49158636708137
 40
1.631807897561059
 40
1.775491562750185
 40
1.91921920471929
 40
2.065713007380172
 40
2.211936409331006
 40
2.211936409331006
 40
2.211936409331006
 40
2.211936409331006
 10
70.3583828848
 20
286.6551164347
 30
0.0
 10
70.32448864102776
 20
286.5724448549933
 30
0.0
 10
70.25666922893993
 20
286.4070262674078
 30
0.0
 10
70.13203072261003
 20
286.168360293767
 30
0.0
 10
69.98711992329238
 20
285.9406722977448
 30
0.0
 10
69.84407629177332
 20
285.7648678064108
 30
0.0
 10
69.71496990485312
 20
285.6369180872783
 30
0.0
 10
69.6088548057715
 20
285.5478310664661
 30
0.0
 10
69.49404537811645
 20
285.4685294261486
 30
0.0
 10
69.36958576589353
 20
285.4008589587186
 30
0.0
 10
69.23673221077918
 20
285.3480562720298
 30
0.0
 10
69.09608141190552
 20
285.3128900080412
 30
0.0
 10
68.95075602879666
 20
285.2965378061623
 30
0.0
 10
68.85324660973579
 20
285.3031605395281
 30
0.0
 10
68.8045369379
 20
285.3064688473
 30
0.0
 11
70.3583828848
 21
286.6551164347
 31
0.0
 11
70.25294562514298
 21
286.4087925588609
 31
0.0
 11
70.12907610954937
 21
286.1709273135964
 31
0.0
 11
69.98273062324908
 21
285.9435484430201
 31
0.0
 11
69.81147843212312
 21
285.7348911408153
 31
0.0
 11
69.71368599342112
 21
285.6383073843767
 31
0.0
 11
69.60826900414158
 21
285.550120438584
 31
0.0
 11
69.49273036041885
 21
285.4706459796113
 31
0.0
 11
69.36940835053798
 21
285.4039094866782
 31
0.0
 11
69.23577766236828
 21
285.3511095357173
 31
0.0
 11
69.09634996117252
 21
285.3162161093269
 31
0.0
 11
68.95065552262226
 21
285.3009332825737
 31
0.0
 11
68.8045369379
 21
285.3064688473
 31
0.0
  0
SPLINE
  5
F1
330
1F
100
AcDbEntity
  8
BEZUGSACHSEN
  6
Continuous
 62
     7
100
AcDbSpline
210
0.0
220
0.0
230
1.0
 70
     8
 71
     3
 72
    47
 73
    43
 74
    41
 42
0.0000000001
 43
0.0000000001
 44
0.00000001
 40
0.0
 40
0.0
 40
0.0
 40
0.0
 40
0.6366022432335546
 40
1.273595002182803
 40
1.592921746402468
 40
1.912076344897192
 40
2.231392290450019
 40
2.550826842773502
 40
3.189774321199121
 40
3.829081697019236
 40
4.468337152530872
 40
5.107221744808816
 40
5.426176341299875
 40
5.745033356846683
 40
6.063356731625478
 40
6.381780214938533
 40
7.017059195731616
 40
7.652639341047736
 40
8.287532214285372
 40
8.922347946533236
 40
9.559226748586692
 40
10.19613435936665
 40
10.83451785504568
 40
11.47287689977274
 40
12.11234487367608
 40
12.75189588949504
 40
13.39354300521166
 40
14.03487957357704
 40
14.35615205773355
 40
14.67732107713208
 40
14.99840882473327
 40
15.31959604122386
 40
15.96011121028032
 40
16.60099592091471
 40
17.23809108083179
 40
17.8748255520723
 40
18.19205670340248
 40
18.50917199107121
 40
18.82571084633423
 40
19.14241581830178
 40
19.77338974998052
 40
20.40398930744862
 40
20.40398930744862
 40
20.40398930744862
 40
20.40398930744862
 10
89.3051213436
 20
301.6651164152
 30
0.0
 10
89.31112698748527
 20
301.8773962249124
 30
0.0
 10
89.32314195934322
 20
302.3020860647422
 30
0.0
 10
89.40440730455816
 20
302.8282288258583
 30
0.0
 10
89.49712690115966
 20
303.2432032019692
 30
0.0
 10
89.58241986530389
 20
303.5510271776675
 30
0.0
 10
89.68265847874142
 20
303.8543198544625
 30
0.0
 10
89.83614402788909
 20
304.2517572170168
 30
0.0
 10
90.0646159746633
 20
304.7338567939012
 30
0.0
 10
90.39423093522436
 20
305.2826726667321
 30
0.0
 10
90.7764581523162
 20
305.7962082060755
 30
0.0
 10
91.13531284944162
 20
306.1907109681599
 30
0.0
 10
91.4442662030084
 20
306.4835842662065
 30
0.0
 10
91.68616131198351
 20
306.6913060873215
 30
0.0
 10
91.93780456546921
 20
306.8868154844541
 30
0.0
 10
92.28509867262603
 20
307.1303106871289
 30
0.0
 10
92.74083900738647
 20
307.4021927571736
 30
0.0
 10
93.31631843207563
 20
307.6735218696889
 30
0.0
 10
93.91542919723315
 20
307.8873055005012
 30
0.0
 10
94.53287959967963
 20
308.0419952318732
 30
0.0
 10
95.16315016135722
 20
308.1358022155275
 30
0.0
 10
95.80074409607677
 20
308.1679289403323
 30
0.0
 10
96.43892274031406
 20
308.1374993673824
 30
0.0
 10
97.07193516151376
 20
308.0448281122224
 30
0.0
 10
97.69316884594234
 20
307.8903361509927
 30
0.0
 10
98.29730459789945
 20
307.6752990184461
 30
0.0
 10
98.87778367146306
 20
307.4013756527169
 30
0.0
 10
99.33741269568429
 20
307.1262087746596
 30
0.0
 10
99.68731168434728
 20
306.8795990758024
 30
0.0
 10
99.94044331349643
 20
306.6816948834315
 30
0.0
 10
100.1834419528507
 20
306.4715163540299
 30
0.0
 10
100.4926862963557
 20
306.1759970138743
 30
0.0
 10
100.851006487153
 20
305.7785260311078
 30
0.0
 10
101.2309569054962
 20
305.262859269553
 30
0.0
 10
101.5574299351078
 20
304.7132631130826
 30
0.0
 10
101.7828010751028
 20
304.2321575713723
 30
0.0
 10
101.9338920582617
 20
303.8361673837521
 30
0.0
 10
102.0323049758109
 20
303.5347410329688
 30
0.0
 10
102.1159717539831
 20
303.229045665052
 30
0.0
 10
102.2067911114263
 20
302.8174936473363
 30
0.0
 10
102.2863060870997
 20
302.2960684308143
 30
0.0
 10
102.2980783717155
 20
301.8753921416553
 30
0.0
 10
102.3039627673
 20
301.6651164153
 30
0.0
 11
89.3051213436
 21
301.6651164152
 31
0.0
 11
89.3363700146398
 21
302.3009512496092
 31
0.0
 11
89.42981121701341
 21
302.9310532386973
 31
0.0
 11
89.49975172404784
 21
303.2426264966154
 31
0.0
 11
89.58489306302398
 21
303.550214874383
 31
0.0
 11
89.68511760116193
 21
303.8533942190609
 31
0.0
 11
89.80019749091399
 21
304.1513792055833
 31
0.0
 11
90.0737933851583
 21
304.7287864854466
 31
0.0
 11
90.40301289883644
 21
305.2768087775037
 31
0.0
 11
90.78463715418383
 21
305.7896542368108
 31
0.0
 11
91.21457179031263
 21
306.2622319879872
 31
0.0
 11
91.44604405137376
 21
306.4816690563736
 31
0.0
 11
91.68794645240102
 21
306.6894021176341
 31
0.0
 11
91.93932025955553
 21
306.88469927585
 31
0.0
 11
92.20004953784743
 21
307.0674935814687
 31
0.0
 11
92.74558318205727
 21
307.3930276449285
 31
0.0
 11
93.32049300217598
 21
307.6640273125503
 31
0.0
 11
93.91843918992076
 21
307.8774501722664
 31
0.0
 11
94.53423172212972
 21
308.0316920964799
 31
0.0
 11
95.16416400407614
 21
308.1255000314684
 31
0.0
 11
95.80026712579499
 21
308.1575019565507
 31
0.0
 11
96.4379280848303
 21
308.1271376867991
 31
0.0
 11
97.06954561775761
 21
308.0346089772887
 31
0.0
 11
97.6901184898638
 21
307.8803086206659
 31
0.0
 11
98.29261929698637
 21
307.6657899052779
 31
0.0
 11
98.87292649335286
 21
307.3920115661919
 31
0.0
 11
99.42315148139882
 21
307.0625194472383
 31
0.0
 11
99.68575878554627
 21
306.8774426715896
 31
0.0
 11
99.93877924293811
 21
306.6796291554624
 31
0.0
 11
100.1816275443024
 21
306.4695766758672
 31
0.0
 11
100.4138299797094
 21
306.2476684582906
 31
0.0
 11
100.8427460374437
 21
305.7719682404967
 31
0.0
 11
101.2228566961168
 21
305.2559749270827
 31
0.0
 11
101.548295841842
 21
304.7082709876962
 31
0.0
 11
101.8183766999717
 21
304.1316540291025
 31
0.0
 11
101.9314671451558
 21
303.8352655094491
 31
0.0
 11
102.029911248495
 21
303.5338175633772
 31
0.0
 11
102.1133940538706
 21
303.2284858288689
 31
0.0
 11
102.1819434773147
 21
302.9192884553121
 31
0.0
 11
102.2733705552392
 21
302.2949734772118
 31
0.0
 11
102.3039627673
 21
301.6651164153
 31
0.0
  0
SPLINE
  5
F2
330
1F
100
AcDbEntity
  8
BEZUGSACHSEN
  6
Continuous
 62
     7
100
AcDbSpline
210
0.0
220
0.0
230
1.0
 70
     8
 71
     3
 72
    47
 73
    43
 74
    41
 42
0.0000000001
 43
0.0000000001
 44
0.00000001
 40
0.0
 40
0.0
 40
0.0
 40
0.0
 40
0.6302393214460739
 40
1.260854867303387
 40
1.577476088392118
 40
1.89393080022668
 40
2.210999113873398
 40
2.528183472209245
 40
3.164887038235322
 40
3.801951183374718
 40
4.442851001608195
 40
5.083381259787902
 40
5.404527292311385
 40
5.725573838755594
 40
6.046670710023796
 40
6.367871027139331
 40
7.009090242512001
 40
7.650619763916742
 40
8.29033034646739
 40
8.929958764471747
 40
9.568647011342392
 40
10.20735923011566
 40
10.84445705811807
 40
11.48152626490152
 40
12.11643462216029
 40
12.75141965572746
 40
13.38691908731463
 40
14.02211738526213
 40
14.34050449138863
 40
14.65879153788477
 40
14.97761586864989
 40
15.29653774941512
 40
15.93537694098814
 40
16.57458694066123
 40
17.21386274990221
 40
17.85277859073394
 40
18.17219860082882
 40
18.49150024077537
 40
18.81067156636554
 40
19.13001452422036
 40
19.76719627024061
 40
20.40398968273775
 40
20.40398968273775
 40
20.40398968273775
 40
20.40398968273775
 10
102.3039505757
 20
301.6651164534
 30
0.0
 10
102.2980813739558
 20
301.4549604315145
 30
0.0
 10
102.2863394668189
 20
301.0345229340898
 30
0.0
 10
102.2068927242564
 20
300.5133594918393
 30
0.0
 10
102.1161612191956
 20
300.1019680244091
 30
0.0
 10
102.0325558369038
 20
299.7963301841054
 30
0.0
 10
101.9342038955377
 20
299.4949463379101
 30
0.0
 10
101.7831850846832
 20
299.0989731583209
 30
0.0
 10
101.5579024970763
 20
298.6178663496501
 30
0.0
 10
101.2315244623232
 20
298.0682321246575
 30
0.0
 10
100.851657400301
 20
297.5525042619771
 30
0.0
 10
100.4934029610066
 20
297.1549788597658
 30
0.0
 10
100.1842222232962
 20
296.8594255048627
 30
0.0
 10
99.94129726724893
 20
296.6492405964486
 30
0.0
 10
99.68824836394093
 20
296.4513311321144
 30
0.0
 10
99.33846585551552
 20
296.204707780611
 30
0.0
 10
98.87898061777894
 20
295.9295011713145
 30
0.0
 10
98.29858491080978
 20
295.6554610646157
 30
0.0
 10
97.69443060295148
 20
295.4402725873002
 30
0.0
 10
97.07301545553506
 20
295.2856107482871
 30
0.0
 10
96.43974624410872
 20
295.1928003752275
 30
0.0
 10
95.80128677968916
 20
295.1622896253816
 30
0.0
 10
95.16345376614873
 20
295.1943913677519
 30
0.0
 10
94.5330237791614
 20
295.2882044301278
 30
0.0
 10
93.91545010966496
 20
295.4429182464169
 30
0.0
 10
93.31630669823207
 20
295.6567148184902
 30
0.0
 10
92.74084947676592
 20
295.9280361869467
 30
0.0
 10
92.28516408381078
 20
296.1998810705955
 30
0.0
 10
91.93790818606021
 20
296.4433416231871
 30
0.0
 10
91.6862886047553
 20
296.6388241495067
 30
0.0
 10
91.44441355447995
 20
296.8465172081965
 30
0.0
 10
91.13547727079396
 20
297.1393547563294
 30
0.0
 10
90.77663451390612
 20
297.533812405282
 30
0.0
 10
90.39440760866907
 20
298.0472970712482
 30
0.0
 10
90.06478316340355
 20
298.5960648499673
 30
0.0
 10
89.83629571748064
 20
299.0781282664624
 30
0.0
 10
89.68279421752032
 20
299.4755378256398
 30
0.0
 10
89.58253741459708
 20
299.7788201889321
 30
0.0
 10
89.49722092167156
 20
300.0866440606358
 30
0.0
 10
89.40445846630358
 20
300.5016849277387
 30
0.0
 10
89.3231660993487
 20
301.0279577267942
 30
0.0
 10
89.3111262998577
 20
301.4527733764797
 30
0.0
 10
89.3051082351
 20
301.6651164551
 30
0.0
 11
102.3039505757
 21
301.6651164534
 31
0.0
 11
102.2734109969788
 21
301.0356174967461
 31
0.0
 11
102.182079721452
 21
300.4116506989214
 31
0.0
 11
102.1135849827654
 21
300.1025269883847
 31
0.0
 11
102.0301661579287
 21
299.7972649954915
 31
0.0
 11
101.9317794140896
 21
299.4958477362718
 31
0.0
 11
101.8187487829871
 21
299.1994864810351
 31
0.0
 11
101.5487686464747
 21
298.6228564810532
 31
0.0
 11
101.2234320246214
 21
298.0751277092115
 31
0.0
 11
100.8433955298253
 21
297.55906100845
 31
0.0
 11
100.4145450321355
 21
297.083281372195
 31
0.0
 11
100.1824078977384
 21
296.8613644394488
 31
0.0
 11
99.93962540438739
 21
296.6512988641966
 31
0.0
 11
99.68669579610365
 21
296.4534862913109
 31
0.0
 11
99.4241814002964
 21
296.2684029703199
 31
0.0
 11
98.87412321872462
 21
295.9388607438161
 31
0.0
 11
98.29398238706315
 21
295.6650054128967
 31
0.0
 11
97.69137707674035
 21
295.4503045293446
 31
0.0
 11
97.07067780640037
 21
295.2958476456581
 31
0.0
 11
96.4387489924968
 21
295.2031726714249
 31
0.0
 11
95.80076286534685
 21
295.1727259971485
 31
0.0
 11
95.16446787723653
 21
295.2046999013685
 31
0.0
 11
94.53434460313093
 21
295.2985179895079
 31
0.0
 11
93.91846069488948
 21
295.4527763237601
 31
0.0
 11
93.32042822507051
 21
295.6662316068911
 31
0.0
 11
92.7455924765238
 21
295.9371991136891
 31
0.0
 11
92.20012578898243
 21
296.2626879314664
 31
0.0
 11
91.93942349620552
 21
296.4454573596771
 31
0.0
 11
91.68807424439719
 21
296.6407269107664
 31
0.0
 11
91.44619094604761
 21
296.8484320476007
 31
0.0
 11
91.21473511474741
 21
297.0678388938658
 31
0.0
 11
90.7848120838672
 21
297.5403658245358
 31
0.0
 11
90.4031909444094
 21
298.0531569414645
 31
0.0
 11
90.07395947023035
 21
298.6011352226861
 31
0.0
 11
89.80034516308632
 21
299.1784987672504
 31
0.0
 11
89.68525291062636
 21
299.4764633897691
 31
0.0
 11
89.58501322219946
 21
299.7796226583667
 31
0.0
 11
89.49984614198085
 21
300.0872212661757
 31
0.0
 11
89.42988311449741
 21
300.398806085313
 31
0.0
 11
89.33639421751691
 21
301.0290920550146
 31
0.0
 11
89.3051082351
 21
301.6651164551
 31
0.0
  0
SPLINE
  5
F3
330
1F
100
AcDbEntity
  8
BEZUGSACHSEN
  6
Continuous
 62
     7
100
AcDbSpline
210
0.0
220
0.0
230
1.0
 70
     8
 71
     3
 72
    27
 73
    23
 74
    21
 42
0.0000000001
 43
0.0000000001
 44
0.00000001
 40
0.0
 40
0.0
 40
0.0
 40
0.0
 40
0.1219765139516063
 40
0.2439857714748665
 40
0.3566831398333281
 40
0.469441814962912
 40
0.5721317672948164
 40
0.6745445881155651
 40
0.722520652122162
 40
0.7704888797708239
 40
0.8171412936045445
 40
0.8637898734267259
 40
0.9102318000825395
 40
0.9566751324134771
 40
1.00417517574883
 40
1.051683100138855
 40
1.153672388740028
 40
1.256049376677648
 40
1.370745138102708
 40
1.485385401889845
 40
1.611534903927447
 40
1.737631875972337
 40
1.737631875972337
 40
1.737631875972337
 40
1.737631875972337
 10
61.9503796135
 20
286.4227804392
 30
0.0
 10
61.91512459589661
 20
286.4025009139351
 30
0.0
 10
61.84460509677618
 20
286.361936419537
 30
0.0
 10
61.73695269359034
 20
286.3111405586454
 30
0.0
 10
61.62879467771909
 20
286.2693889227762
 30
0.0
 10
61.52321545675065
 20
286.239974337635
 30
0.0
 10
61.41838391160492
 20
286.2230597502467
 30
0.0
 10
61.33365624175558
 20
286.2211945270185
 30
0.0
 10
61.26783230535179
 20
286.2281498350383
 30
0.0
 10
61.22112510213773
 20
286.2373469621916
 30
0.0
 10
61.17594448483368
 20
286.2508804071788
 30
0.0
 10
61.13280487418193
 20
286.2686736659849
 30
0.0
 10
61.09185039760385
 20
286.2909020236887
 30
0.0
 10
61.05320297113305
 20
286.3174370553905
 30
0.0
 10
61.01729689250091
 20
286.3481323329207
 30
0.0
 10
60.97185757097046
 20
286.3956698060388
 30
0.0
 10
60.92331443090988
 20
286.4648391731486
 30
0.0
 10
60.8770887219769
 20
286.5609972278774
 30
0.0
 10
60.84312284817862
 20
286.6665726608671
 30
0.0
 10
60.82016742396168
 20
286.7829903517725
 30
0.0
 10
60.80672286559758
 20
286.9047376604301
 30
0.0
 10
60.80526547929961
 20
286.9888410239479
 30
0.0
 10
60.8045369379
 20
287.0308839485
 30
0.0
 11
61.9503796135
 21
286.4227804392
 31
0.0
 11
61.84383498943946
 21
286.3633959880399
 31
0.0
 11
61.73354210027077
 21
286.3112257137431
 31
0.0
 11
61.62822409241836
 21
286.2711156893487
 31
0.0
 11
61.51950036387531
 21
286.2412213810497
 31
0.0
 11
61.41803621175416
 21
286.2254020212565
 31
0.0
 11
61.31563667116976
 21
286.2237527921745
 31
0.0
 11
61.26793281495721
 21
286.22885620476
 31
0.0
 11
61.22088204469577
 21
286.238193007294
 31
0.0
 11
61.17620247726234
 21
286.2516162695828
 31
0.0
 11
61.13309634066641
 21
286.2694474497793
 31
0.0
 11
61.09227374786956
 21
286.2915917146993
 31
0.0
 11
61.05398649132341
 21
286.3178799079459
 31
0.0
 11
61.01784939431356
 21
286.3487078877137
 31
0.0
 11
60.98499689394668
 21
286.3830257562298
 31
0.0
 11
60.92582449972371
 21
286.4660946598659
 31
0.0
 11
60.88092477614912
 21
286.5581004340439
 31
0.0
 11
60.84528661656903
 21
286.6671189612337
 31
0.0
 11
60.82243505317165
 21
286.7794586075366
 31
0.0
 11
60.80866829683221
 21
286.9048546732015
 31
0.0
 11
60.8045369379
 21
287.0308839485
 31
0.0
  0
SPLINE
  5
F4
330
1F
100
AcDbEntity
  8
BEZUGSACHSEN
  6
Continuous
 62
     7
100
AcDbSpline
210
0.0
220
0.0
230
1.0
 70
     8
 71
     3
 72
    27
 73
    23
 74
    21
 42
0.0000000001
 43
0.0000000001
 44
0.00000001
 40
0.0
 40
0.0
 40
0.0
 40
0.0
 40
0.1260969825526139
 40
0.2522464959213913
 40
0.3668867952557484
 40
0.4815825893855071
 40
0.5839596006351668
 40
0.6859489160643699
 40
0.7334568409830821
 40
0.7809568848271063
 40
0.8274002263774509
 40
0.8738421606660184
 40
0.9204907318767016
 40
0.9671431399330732
 40
1.015111401821187
 40
1.063087497121129
 40
1.165500418723977
 40
1.268190478958273
 40
1.380949153902072
 40
1.493646517783218
 40
1.615655563756056
 40
1.737631867618952
 40
1.737631867618952
 40
1.737631867618952
 40
1.737631867618952
 10
60.8045369379
 20
316.2993489209
 30
0.0
 10
60.80526547937627
 20
316.3413918489611
 30
0.0
 10
60.80672286583236
 20
316.4254952197712
 30
0.0
 10
60.82016742779515
 20
316.5472425473348
 30
0.0
 10
60.84312286111817
 20
316.6636602637026
 30
0.0
 10
60.87708876146726
 20
316.7692357214707
 30
0.0
 10
60.92331452029141
 20
316.8653937837153
 30
0.0
 10
60.97185768881983
 20
316.9345631493805
 30
0.0
 10
61.0172970143696
 20
316.9821006309953
 30
0.0
 10
61.05320309246009
 20
317.0127959144769
 30
0.0
 10
61.09185052355683
 20
317.0393309501915
 30
0.0
 10
61.13280501077872
 20
317.0615592960878
 30
0.0
 10
61.1759446369797
 20
317.0793525129595
 30
0.0
 10
61.22112527160827
 20
317.0928859200181
 30
0.0
 10
61.26783249459447
 20
317.1020830453554
 30
0.0
 10
61.33365648578861
 20
317.1090383657385
 30
0.0
 10
61.41838423779055
 20
317.1071731091002
 30
0.0
 10
61.52321584129865
 20
317.0902584481639
 30
0.0
 10
61.62879508366468
 20
317.0608438153056
 30
0.0
 10
61.7369530217651
 20
317.0190921778363
 30
0.0
 10
61.84460528301963
 20
316.9682963506617
 30
0.0
 10
61.91512465783683
 20
316.927731922412
 30
0.0
 10
61.9503796135
 20
316.9074524301
 30
0.0
 11
60.8045369379
 21
316.2993489209
 31
0.0
 11
60.80866829746707
 21
316.4253782066911
 31
0.0
 11
60.82243505660495
 21
316.5507742834479
 31
0.0
 11
60.84528663271823
 21
316.6631139634395
 31
0.0
 11
60.88092482210169
 21
316.7721325152943
 31
0.0
 11
60.92582458687536
 21
316.8641382953067
 31
0.0
 11
60.98499701579865
 21
316.9472072071633
 31
0.0
 11
61.01784951595519
 21
316.9815250766127
 31
0.0
 11
61.05398661088128
 21
317.0123530596068
 31
0.0
 11
61.09227387574477
 21
317.0386412570276
 31
0.0
 11
61.13309648369641
 21
317.0607855100178
 31
0.0
 11
61.17620262734606
 21
317.0786166506334
 31
0.0
 11
61.22088219941346
 21
317.0920398774188
 31
0.0
 11
61.26793300515966
 21
317.1013766770417
 31
0.0
 11
61.3156368924128
 21
317.106480093659
 31
0.0
 11
61.41803653327244
 21
317.104830832295
 31
0.0
 11
61.51950078360758
 21
317.0890114020002
 31
0.0
 11
61.62822450006441
 21
317.0591170504451
 31
0.0
 11
61.73354249236172
 21
317.0190069977872
 31
0.0
 11
61.84383517826713
 21
316.9668367885201
 31
0.0
 11
61.9503796135
 21
316.9074524301
 31
0.0
  0
SPLINE
  5
F5
330
1F
100
AcDbEntity
  8
BEZUGSACHSEN
  6
Continuous
 62
     7
100
AcDbSpline
210
0.0
220
0.0
230
1.0
 70
     8
 71
     3
 72
    15
 73
    11
 74
     9
 42
0.0000000001
 43
0.0000000001
 44
0.00000001
 40
0.0
 40
0.0
 40
0.0
 40
0.0
 40
0.1110371613799305
 40
0.2222522337398253
 40
0.333398019184698
 40
0.4445069474869209
 40
0.555620106534722
 40
0.6667525642417318
 40
0.7778876033781622
 40
0.888982091562453
 40
0.888982091562453
 40
0.888982091562453
 40
0.888982091562453
 10
62.7044624532
 20
285.9885840484
 30
0.0
 10
62.66782072632022
 20
285.9941162012474
 30
0.0
 10
62.59447856279664
 20
286.0051893709179
 30
0.0
 10
62.48796201278343
 20
286.0382079344353
 30
0.0
 10
62.38554910503663
 20
286.0817982218855
 30
0.0
 10
62.28809913940947
 20
286.1355777296978
 30
0.0
 10
62.19579434367759
 20
286.1976728650623
 30
0.0
 10
62.10879771555109
 20
286.2669595387143
 30
0.0
 10
62.02654496010673
 20
286.3418414903268
 30
0.0
 10
61.97576497370523
 20
286.3958040718187
 30
0.0
 10
61.9503796135
 20
286.4227804392
 30
0.0
 11
62.7044624532
 21
285.9885840484
 31
0.0
 11
62.59512016808978
 21
286.0079106076951
 31
0.0
 11
62.48862821452148
 21
286.0399770410051
 31
0.0
 11
62.38636003391431
 21
286.0835040999163
 31
0.0
 11
62.28895716745977
 21
286.1369632016194
 31
0.0
 11
62.19668540067315
 21
286.1988667973765
 31
0.0
 11
62.10958829726437
 21
286.2678922834943
 31
0.0
 11
62.02754839277783
 21
286.3428619506651
 31
0.0
 11
61.9503796135
 21
286.4227804392
 31
0.0
  0
SPLINE
  5
F6
330
1F
100
AcDbEntity
  8
BEZUGSACHSEN
  6
Continuous
 62
     7
100
AcDbSpline
210
0.0
220
0.0
230
1.0
 70
     8
 71
     3
 72
    15
 73
    11
 74
     9
 42
0.0000000001
 43
0.0000000001
 44
0.00000001
 40
0.0
 40
0.0
 40
0.0
 40
0.0
 40
0.1110944831771973
 40
0.2222295181664322
 40
0.3333620401947583
 40
0.4444752610225757
 40
0.5555842178353558
 40
0.6667300354298026
 40
0.7779450181900299
 40
0.8889820871972277
 40
0.8889820871972277
 40
0.8889820871972277
 40
0.8889820871972277
 10
61.9503796135
 20
316.9074524301
 30
0.0
 10
61.97576497306505
 20
316.934428795806
 30
0.0
 10
62.02654495838281
 20
316.988391374156
 30
0.0
 10
62.10879772762214
 20
317.0632733375752
 30
0.0
 10
62.195794379563
 20
317.1325600464762
 30
0.0
 10
62.28809921999743
 20
317.1946552095468
 30
0.0
 10
62.38554924199224
 20
317.2484347016676
 30
0.0
 10
62.48796215586673
 20
317.292024947259
 30
0.0
 10
62.59447865446137
 20
317.3250435030636
 30
0.0
 10
62.66782075717994
 20
317.3361166696608
 30
0.0
 10
62.7044624532
 20
317.3416488209
 30
0.0
 11
61.9503796135
 21
316.9074524301
 31
0.0
 11
62.02754839058628
 21
316.9873709137907
 31
0.0
 11
62.10958829080327
 21
317.0623405794859
 31
0.0
 11
62.19668543939456
 21
317.1313661121505
 31
0.0
 11
62.28895726097861
 21
317.1932697371195
 31
0.0
 11
62.38636016907407
 21
317.2467288222086
 31
0.0
 11
62.48862839247434
 21
317.2902558626696
 31
0.0
 11
62.59512026057899
 21
317.3223222690467
 31
0.0
 11
62.7044624532
 21
317.3416488209
 31
0.0
  0
SPLINE
  5
F7
330
1F
100
AcDbEntity
  8
0
  6
Continuous
 62
     7
100
AcDbSpline
210
0.0
220
0.0
230
1.0
 70
     8
 71
     3
 72
    19
 73
    15
 74
    13
 42
0.0000000001
 43
0.0000000001
 44
0.00000001
 40
0.0
 40
0.0
 40
0.0
 40
0.0
 40
0.1162460235718655
 40
0.2327881717960303
 40
0.349189004588809
 40
0.4655468550526323
 40
0.5819071369683433
 40
0.6982738488924755
 40
0.8146206072540241
 40
0.9309998278035719
 40
1.163276323417111
 40
1.396138921740038
 40
1.629013178066567
 40
1.861351539752051
 40
1.861351539752051
 40
1.861351539752051
 40
1.861351539752051
 10
129.9295369379
 20
268.142735851
 30
0.0
 10
129.890752867059
 20
268.1408949041047
 30
0.0
 10
129.8130859269913
 20
268.1372083206934
 30
0.0
 10
129.6994758419345
 20
268.1088028356893
 30
0.0
 10
129.5912881539886
 20
268.0649489214731
 30
0.0
 10
129.4903122880246
 20
268.0063522332487
 30
0.0
 10
129.3975438312989
 20
267.9356673719196
 30
0.0
 10
129.313456452306
 20
267.8549097668325
 30
0.0
 10
129.2381528089084
 20
267.7659421280966
 30
0.0
 10
129.1495015647135
 20
267.638582680366
 30
0.0
 10
129.059504818978
 20
267.4657973022904
 30
0.0
 10
128.9846112998532
 20
267.2448723120999
 30
0.0
 10
128.9380743745347
 20
267.0158523924993
 30
0.0
 10
128.9323805638118
 20
266.860672999648
 30
0.0
 10
128.9295369379
 20
266.7831726815
 30
0.0
 11
129.9295369379
 21
268.142735851
 31
0.0
 11
129.8136655863496
 21
268.1334101935889
 31
0.0
 11
129.7003410616615
 21
268.1062141568017
 31
0.0
 11
129.5924679290524
 21
268.0624815472758
 31
0.0
 11
129.4916791895422
 21
268.0043370776118
 31
0.0
 11
129.3989918844931
 21
267.9339895212204
 31
0.0
 11
129.3149165188567
 21
267.8535373954739
 31
0.0
 11
129.2396177609003
 21
267.7648431722603
 31
0.0
 11
129.1729910315622
 21
267.6694230385702
 31
0.0
 11
129.0651012454587
 21
267.4637238298478
 31
0.0
 11
128.9893431086419
 21
267.2435291559709
 31
0.0
 11
128.9443830948428
 21
267.0150362317504
 31
0.0
 11
128.9295369379
 21
266.7831726815
 31
0.0
  0
SPLINE
  5
F8
330
1F
100
AcDbEntity
  8
0
  6
Continuous
 62
     7
100
AcDbSpline
210
0.0
220
0.0
230
1.0
 70
     8
 71
     3
 72
    19
 73
    15
 74
    13
 42
0.0000000001
 43
0.0000000001
 44
0.00000001
 40
0.0
 40
0.0
 40
0.0
 40
0.0
 40
0.2323383481159194
 40
0.4652125957009648
 40
0.6980761132671768
 40
0.930353518725398
 40
1.046733461807725
 40
1.16308094089584
 40
1.279447997469292
 40
1.395808629563668
 40
1.512165904526775
 40
1.62856614036671
 40
1.745106920566939
 40
1.861351602832035
 40
1.861351602832035
 40
1.861351602832035
 40
1.861351602832035
 10
132.6795369379
 20
266.7831726815
 30
0.0
 10
132.6766933122945
 20
266.8606729951589
 30
0.0
 10
132.6709995021255
 20
267.0158523806424
 30
0.0
 10
132.6244625262857
 20
267.2448725946569
 30
0.0
 10
132.5495687805253
 20
267.4657981565512
 30
0.0
 10
132.4595714762756
 20
267.6385842207719
 30
0.0
 10
132.3709195384707
 20
267.7659441465075
 30
0.0
 10
132.2956152741168
 20
267.8549120454365
 30
0.0
 10
132.2115273003007
 20
267.9356697154054
 30
0.0
 10
132.1187585664702
 20
268.0063542817773
 30
0.0
 10
132.0177827542159
 20
268.0649505059183
 30
0.0
 10
131.9095957047016
 20
268.1088037570542
 30
0.0
 10
131.7959865953577
 20
268.13720851655
 30
0.0
 10
131.7183205605625
 20
268.140894969212
 30
0.0
 10
131.6795369379
 20
268.142735851
 30
0.0
 11
132.6795369379
 21
266.7831726815
 31
0.0
 11
132.6646907837822
 21
267.0150362183339
 31
0.0
 11
132.6197307821936
 21
267.2435291360479
 31
0.0
 11
132.5439723035112
 21
267.4637246644336
 31
0.0
 11
132.4360818923336
 21
267.6694245727037
 31
0.0
 11
132.3694545684894
 21
267.7648451725195
 31
0.0
 11
132.2941551119226
 21
267.8535397480633
 31
0.0
 11
132.2100792455921
 21
267.9339918490698
 31
0.0
 11
132.1173914196228
 21
268.0043392983375
 31
0.0
 11
132.0166029847182
 21
268.0624831443259
 31
0.0
 11
131.9087302559266
 21
268.1062151610488
 31
0.0
 11
131.7954069673727
 21
268.133410486401
 31
0.0
 11
131.6795369379
 21
268.142735851
 31
0.0
  0
SPLINE
  5
F9
330
1F
100
AcDbEntity
  8
BEZUGSACHSEN
  6
Continuous
 62
     7
100
AcDbSpline
210
0.0
220
0.0
230
1.0
 70
     8
 71
     3
 72
    11
 73
     7
 74
     5
 42
0.0000000001
 43
0.0000000001
 44
0.00000001
 40
0.0
 40
0.0
 40
0.0
 40
0.0
 40
0.5462907431305873
 40
1.093000863660972
 40
1.64607010720049
 40
2.198197048713487
 40
2.198197048713487
 40
2.198197048713487
 40
2.198197048713487
 10
70.3583828848
 20
316.6751164347
 30
0.0
 10
70.42145368666601
 20
316.5041848054653
 30
0.0
 10
70.54764370869768
 20
316.1621903259145
 30
0.0
 10
70.68728102171463
 20
315.6309161966794
 30
0.0
 10
70.7847693857274
 20
315.087491791729
 30
0.0
 10
70.79795150024617
 20
314.7189071511809
 30
0.0
 10
70.8045369379
 20
314.5347719605
 30
0.0
 11
70.3583828848
 21
316.6751164347
 31
0.0
 11
70.53923421742918
 21
316.1596298960625
 31
0.0
 11
70.67972570212751
 21
315.6312795401266
 31
0.0
 11
70.77179235535793
 21
315.085927067397
 31
0.0
 11
70.8045369379
 21
314.5347719605
 31
0.0
  0
SPLINE
  5
FA
330
1F
100
AcDbEntity
  8
BEZUGSACHSEN
  6
Continuous
 62
     7
100
AcDbSpline
210
0.0
220
0.0
230
1.0
 70
     8
 71
     3
 72
    19
 73
    15
 74
    13
 42
0.0000000001
 43
0.0000000001
 44
0.00000001
 40
0.0
 40
0.0
 40
0.0
 40
0.0
 40
0.146238598777938
 40
0.2927479274823134
 40
0.4364790706305564
 40
0.580165923671254
 40
0.720379997322019
 40
0.8606059383084762
 40
0.9980411884231686
 40
1.135484020451057
 40
1.405415631094971
 40
1.67581551409261
 40
1.9439974295285
 40
2.211934834755356
 40
2.211934834755356
 40
2.211934834755356
 40
2.211934834755356
 10
68.8045369379
 20
318.0237640221
 30
0.0
 10
68.85325174323833
 20
318.0270720994465
 30
0.0
 10
68.95077153910397
 20
318.033694378347
 30
0.0
 10
69.09610779942133
 20
318.0173350655729
 30
0.0
 10
69.23676473654909
 20
317.9821632994683
 30
0.0
 10
69.36961687000795
 20
317.9293576128213
 30
0.0
 10
69.49407133309097
 20
317.8616858250991
 30
0.0
 10
69.60887389026875
 20
317.7823856237239
 30
0.0
 10
69.71498382803512
 20
317.6933009841432
 30
0.0
 10
69.84408629318301
 20
317.5653534485643
 30
0.0
 10
69.98712614306118
 20
317.3895511596558
 30
0.0
 10
70.13203374475637
 20
317.161865693777
 30
0.0
 10
70.25667049319887
 20
316.9232030743068
 30
0.0
 10
70.32448906436727
 20
316.7577868338738
 30
0.0
 10
70.3583828848
 20
316.6751164347
 30
0.0
 11
68.8045369379
 21
318.0237640221
 31
0.0
 11
68.95067079971905
 21
318.0292977552328
 31
0.0
 11
69.09638016056569
 21
318.0140083615538
 31
0.0
 11
69.23581024212497
 21
317.979110025389
 31
0.0
 11
69.36944257906896
 21
317.9263055723606
 31
0.0
 11
69.49275636990042
 21
317.8595695592903
 31
0.0
 11
69.60828748123012
 21
317.7800970681977
 31
0.0
 11
69.713700030993
 21
317.6919117954671
 31
0.0
 11
69.81148853466048
 21
317.5953305311022
 31
0.0
 11
69.98273693052175
 21
317.3866751661106
 31
0.0
 11
70.12907935105233
 21
317.1592988421928
 31
0.0
 11
70.25294697685908
 21
316.9214368001519
 31
0.0
 11
70.3583828848
 21
316.6751164347
 31
0.0
  0
SPLINE
  5
FB
330
1F
100
AcDbEntity
  8
BEZUGSACHSEN
  6
Continuous
 62
     7
100
AcDbSpline
210
0.0
220
0.0
230
1.0
 70
     8
 71
     3
 72
    11
 73
     7
 74
     5
 42
0.0000000001
 43
0.0000000001
 44
0.00000001
 40
0.0
 40
0.0
 40
0.0
 40
0.0
 40
0.9140556660003332
 40
1.828030949185931
 40
2.279806974871116
 40
2.730944124762558
 40
2.730944124762558
 40
2.730944124762558
 40
2.730944124762558
 10
62.0714898647854
 20
286.655116434885
 30
0.0
 10
62.20414457174878
 20
286.9298330325516
 30
0.0
 10
62.46944231991037
 20
287.4792420690788
 30
0.0
 10
62.68479753322299
 20
288.2119529901837
 30
0.0
 10
62.78849174688537
 20
288.8098981962897
 30
0.0
 10
62.79919106440647
 20
289.1110214117165
 30
0.0
 10
62.8045369379
 20
289.2614764863
 30
0.0
 11
62.0714898647854
 21
286.655116434885
 31
0.0
 11
62.44629739456086
 21
287.4887932764555
 31
0.0
 11
62.70558875495873
 21
288.365217151471
 31
0.0
 11
62.77830572845735
 21
288.8111025842327
 31
0.0
 11
62.8045369379
 21
289.2614764863
 31
0.0
  0
SPLINE
  5
FC
330
1F
100
AcDbEntity
  8
BEZUGSACHSEN
  6
Continuous
 62
     7
100
AcDbSpline
210
0.0
220
0.0
230
1.0
 70
     8
 71
     3
 72
    11
 73
     7
 74
     5
 42
0.0000000001
 43
0.0000000001
 44
0.00000001
 40
0.0
 40
0.0
 40
0.0
 40
0.0
 40
0.8249192366724182
 40
1.650116891930987
 40
2.190492152293428
 40
2.730585915378246
 40
2.730585915378246
 40
2.730585915378246
 40
2.730585915378246
 10
62.8045369379
 20
314.0687563831
 30
0.0
 10
62.7868036335618
 20
314.3439466750768
 30
0.0
 10
62.75133103971585
 20
314.8944201385377
 30
0.0
 10
62.54289622308048
 20
315.5991537236906
 30
0.0
 10
62.31266979210074
 20
316.1913674487707
 30
0.0
 10
62.15186920929881
 20
316.513894782216
 30
0.0
 10
62.0714898647854
 20
316.675116434515
 30
0.0
 11
62.8045369379
 21
314.0687563831
 31
0.0
 11
62.72096148378427
 21
314.8894310387959
 31
0.0
 11
62.50300004167249
 21
315.6853229786952
 31
0.0
 11
62.3050649631133
 21
316.188142157613
 31
0.0
 11
62.0714898647854
 21
316.675116434515
 31
0.0
  0
DIMENSION
  5
107
330
1F
100
AcDbEntity
  8
1
100
AcDbDimension
  2
*D2
 10
227.814425293376
 20
311.6651164347
 30
0.0
 11
224.064425293376
 21
301.801080789612
 31
0.0
 70
    32
  1
<>
 71
     5
 42
-1.0
 53
90.0
  3
ME10_DIM_10
100
AcDbAlignedDimension
 13
215.8045369379
 23
291.6651164347
 33
0.0
 14
215.8045369379
 24
311.6651164347
 34
0.0
 50
90.0
100
AcDbRotatedDimension
  0
DIMENSION
  5
112
330
1F
100
AcDbEntity
  8
1
100
AcDbDimension
  2
*D3
 10
236.338317668214
 20
318.1651164347527
 30
0.0
 11
232.588317668214
 21
301.602850734384
 31
0.0
 70
    32
  1
<>
 71
     5
 42
-1.0
 53
90.0
  3
ME10_DIM_11
100
AcDbAlignedDimension
 13
215.8045369379
 23
285.1651164346486
 33
0.0
 14
215.8045369379094
 24
318.1651164347528
 34
0.0
 50
90.0
100
AcDbRotatedDimension
  0
DIMENSION
  5
11D
330
1F
100
AcDbEntity
  8
1
100
AcDbDimension
  2
*D4
 10
244.862210043053
 20
322.6651164347
 30
0.0
 11
241.112210043053
 21
301.801080789612
 31
0.0
 70
    32
  1
<>
 71
     5
 42
-1.0
 53
90.0
  3
ME10_DIM_12
100
AcDbAlignedDimension
 13
158.6266156251
 23
280.6651164347
 33
0.0
 14
158.6266156251
 24
322.6651164347
 34
0.0
 50
90.0
100
AcDbRotatedDimension
  0
DIMENSION
  5
128
330
1F
100
AcDbEntity
  8
1
100
AcDbDimension
  2
*D5
 10
215.8045369379
 20
359.882486971651
 30
0.0
 11
178.256911486175
 21
363.632486971651
 31
0.0
 70
    32
  1
<>
 71
     5
 42
-1.0
 53
0.00013888888889
  3
ME10_DIM_13
100
AcDbAlignedDimension
 13
139.8045369379
 23
351.6650795136
 33
0.0
 14
215.8045369379
 24
317.240725943
 34
0.0
100
AcDbRotatedDimension
  0
DIMENSION
  5
133
330
1F
100
AcDbEntity
  8
1
100
AcDbDimension
  2
*D6
 10
215.8045369379
 20
367.216999015117
 30
0.0
 11
165.768418006761
 21
370.966999015117
 31
0.0
 70
    32
  1
<>
 71
     5
 42
-1.0
 53
0.00013888888889
  3
ME10_DIM_14
100
AcDbAlignedDimension
 13
110.8045369379
 23
351.6651164347
 33
0.0
 14
215.8045369379
 24
317.240725943
 34
0.0
100
AcDbRotatedDimension
  0
DIMENSION
  5
13E
330
1F
100
AcDbEntity
  8
1
100
AcDbDimension
  2
*D7
 10
215.8045369379
 20
374.551511058583
 30
0.0
 11
146.143642539109
 21
378.301511058583
 31
0.0
 70
    32
  1
<>
 71
     5
 42
-1.0
 53
0.00013888888889
  3
ME10_DIM_15
100
AcDbAlignedDimension
 13
60.8045369379
 23
335.2653079973
 33
0.0
 14
215.8045369379
 24
317.240725943
 34
0.0
100
AcDbRotatedDimension
  0
INSERT
  5
145
330
1F
100
AcDbEntity
  8
1
100
AcDbBlockReference
  2
*D8
 10
0.0
 20
0.0
 30
0.0
  0
DIMENSION
  5
150
330
1F
100
AcDbEntity
  8
1
100
AcDbDimension
  2
*D9
 10
190.570637663875
 20
321.4100323905481
 30
0.0
 11
193.4055999331227
 21
330.8042531151094
 31
0.0
 70
    37
  1
<>
 71
     5
 42
-1.0
  3
ME10_DIM_16
100
AcDb3PointAngularDimension
 13
190.4967356122225
 23
320.1568835950217
 33
0.0
 14
161.8234824974793
 24
322.6651164347001
 34
0.0
 15
158.6266156251
 25
322.6651164347001
 35
0.0
  0
ENDSEC
  0
SECTION
  2
OBJECTS
  0
DICTIONARY
  5
C
330
0
100
AcDbDictionary
281
     1
  3
ACAD_GROUP
350
D
  3
ACAD_LAYOUT
350
1A
  3
ACAD_MLEADERSTYLE
350
153
  3
ACAD_MLINESTYLE
350
17
  3
ACAD_PLOTSETTINGS
350
19
  3
ACAD_PLOTSTYLENAME
350
E
  3
ACAD_SCALELIST
350
4A
  3
ACAD_VISUALSTYLE
350
2A
  3
AcDbVariableDictionary
350
151
  0
DICTIONARY
  5
D
102
{ACAD_REACTORS
330
C
102
}
330
C
100
AcDbDictionary
281
     1
  0
DICTIONARY
  5
1A
102
{ACAD_REACTORS
330
C
102
}
330
C
100
AcDbDictionary
281
     1
  3
Layout1
350
1E
  3
Layout2
350
26
  3
Model
350
22
  0
DICTIONARY
  5
153
102
{ACAD_REACTORS
330
C
102
}
330
C
100
AcDbDictionary
281
     1
  0
DICTIONARY
  5
17
102
{ACAD_REACTORS
330
C
102
}
330
C
100
AcDbDictionary
281
     1
  3
Standard
350
18
  0
DICTIONARY
  5
19
102
{ACAD_REACTORS
330
C
102
}
330
C
100
AcDbDictionary
281
     1
  0
ACDBDICTIONARYWDFLT
  5
E
102
{ACAD_REACTORS
330
C
102
}
330
C
100
AcDbDictionary
281
     1
  3
Normal
350
F
100
AcDbDictionaryWithDefault
340
F
  0
DICTIONARY
  5
4A
102
{ACAD_REACTORS
330
C
102
}
330
C
100
AcDbDictionary
281
     1
  3
A0
350
4B
  3
A1
350
4C
  3
A2
350
4D
  3
A3
350
4E
  3
A4
350
4F
  3
A5
350
50
  3
A6
350
51
  3
A7
350
52
  3
A8
350
53
  3
A9
350
54
  3
B0
350
55
  3
B1
350
56
  3
B2
350
57
  3
B3
350
58
  3
B4
350
59
  3
B5
350
5A
  3
B6
350
5B
  3
B7
350
5C
  3
B8
350
5D
  3
B9
350
5E
  3
C0
350
5F
  3
C1
350
60
  3
C2
350
61
  3
C3
350
62
  3
C4
350
63
  3
C5
350
64
  3
C6
350
65
  3
C7
350
66
  3
C8
350
67
  3
C9
350
68
  3
D0
350
69
  3
D1
350
6A
  3
D2
350
6B
  0
DICTIONARY
  5
2A
102
{ACAD_REACTORS
330
C
102
}
330
C
100
AcDbDictionary
281
     1
  3
2dWireframe
350
2F
  3
3D Hidden
350
31
  3
3dWireframe
350
30
  3
Basic
350
32
  3
Brighten
350
36
  3
ColorChange
350
3A
  3
Conceptual
350
34
  3
Dim
350
35
  3
Facepattern
350
39
  3
Flat
350
2B
  3
FlatWithEdges
350
2C
  3
Gouraud
350
2D
  3
GouraudWithEdges
350
2E
  3
Linepattern
350
38
  3
Realistic
350
33
  3
Thicken
350
37
  0
DICTIONARY
  5
151
102
{ACAD_REACTORS
330
C
102
}
330
C
100
AcDbDictionary
281
     1
  3
CANNOSCALE
350
154
  0
LAYOUT
  5
1E
102
{ACAD_REACTORS
330
1A
102
}
330
1A
100
AcDbPlotSettings
  1

  2
none_device
  4

  6

 40
0.0
 41
0.0
 42
0.0
 43
0.0
 44
0.0
 45
0.0
 46
0.0
 47
0.0
 48
0.0
 49
0.0
140
0.0
141
0.0
142
1.0
143
1.0
 70
   688
 72
     0
 73
     0
 74
     5
  7

 75
    16
147
1.0
148
0.0
149
0.0
100
AcDbLayout
  1
Layout1
 70
     1
 71
     1
 10
0.0
 20
0.0
 11
12.0
 21
9.0
 12
0.0
 22
0.0
 32
0.0
 14
1.00000000000000E+20
 24
1.00000000000000E+20
 34
1.00000000000000E+20
 15
-1.00000000000000E+20
 25
-1.00000000000000E+20
 35
-1.00000000000000E+20
146
0.0
 13
0.0
 23
0.0
 33
0.0
 16
1.0
 26
0.0
 36
0.0
 17
0.0
 27
1.0
 37
0.0
 76
     0
330
1B
  0
LAYOUT
  5
26
102
{ACAD_REACTORS
330
1A
102
}
330
1A
100
AcDbPlotSettings
  1

  2
none_device
  4

  6

 40
0.0
 41
0.0
 42
0.0
 43
0.0
 44
0.0
 45
0.0
 46
0.0
 47
0.0
 48
0.0
 49
0.0
140
0.0
141
0.0
142
1.0
143
1.0
 70
   688
 72
     0
 73
     0
 74
     5
  7

 75
    16
147
1.0
148
0.0
149
0.0
100
AcDbLayout
  1
Layout2
 70
     1
 71
     2
 10
0.0
 20
0.0
 11
0.0
 21
0.0
 12
0.0
 22
0.0
 32
0.0
 14
0.0
 24
0.0
 34
0.0
 15
0.0
 25
0.0
 35
0.0
146
0.0
 13
0.0
 23
0.0
 33
0.0
 16
1.0
 26
0.0
 36
0.0
 17
0.0
 27
1.0
 37
0.0
 76
     0
330
23
  0
LAYOUT
  5
22
102
{ACAD_REACTORS
330
1A
102
}
330
1A
100
AcDbPlotSettings
  1

  2
none_device
  4

  6

 40
0.0
 41
0.0
 42
0.0
 43
0.0
 44
0.0
 45
0.0
 46
0.0
 47
0.0
 48
0.0
 49
0.0
140
0.0
141
0.0
142
1.0
143
1.0
 70
  1712
 72
     0
 73
     0
 74
     0
  7

 75
     0
147
1.0
148
0.0
149
0.0
100
AcDbLayout
  1
Model
 70
     1
 71
     0
 10
0.0
 20
0.0
 11
12.0
 21
9.0
 12
0.0
 22
0.0
 32
0.0
 14
37.3896761397419
 24
251.6651164347
 34
0.0
 15
246.862210043053
 25
380.051511058583
 35
0.0
146
0.0
 13
0.0
 23
0.0
 33
0.0
 16
1.0
 26
0.0
 36
0.0
 17
0.0
 27
1.0
 37
0.0
 76
     0
330
1F
331
29
  0
MLINESTYLE
  5
18
102
{ACAD_REACTORS
330
17
102
}
330
17
100
AcDbMlineStyle
  2
Standard
 70
     0
  3

 62
   256
 51
90.0
 52
90.0
 71
     2
 49
0.5
 62
   256
  6
BYLAYER
 49
-0.5
 62
   256
  6
BYLAYER
  0
ACDBPLACEHOLDER
  5
F
102
{ACAD_REACTORS
330
E
102
}
330
E
  0
SCALE
  5
4B
102
{ACAD_REACTORS
330
4A
102
}
330
4A
100
AcDbScale
 70
     0
300
1:1
140
1.0
141
1.0
290
     1
  0
SCALE
  5
4C
102
{ACAD_REACTORS
330
4A
102
}
330
4A
100
AcDbScale
 70
     0
300
1:2
140
1.0
141
2.0
290
     0
  0
SCALE
  5
4D
102
{ACAD_REACTORS
330
4A
102
}
330
4A
100
AcDbScale
 70
     0
300
1:4
140
1.0
141
4.0
290
     0
  0
SCALE
  5
4E
102
{ACAD_REACTORS
330
4A
102
}
330
4A
100
AcDbScale
 70
     0
300
1:5
140
1.0
141
5.0
290
     0
  0
SCALE
  5
4F
102
{ACAD_REACTORS
330
4A
102
}
330
4A
100
AcDbScale
 70
     0
300
1:8
140
1.0
141
8.0
290
     0
  0
SCALE
  5
50
102
{ACAD_REACTORS
330
4A
102
}
330
4A
100
AcDbScale
 70
     0
300
1:10
140
1.0
141
10.0
290
     0
  0
SCALE
  5
51
102
{ACAD_REACTORS
330
4A
102
}
330
4A
100
AcDbScale
 70
     0
300
1:16
140
1.0
141
16.0
290
     0
  0
SCALE
  5
52
102
{ACAD_REACTORS
330
4A
102
}
330
4A
100
AcDbScale
 70
     0
300
1:20
140
1.0
141
20.0
290
     0
  0
SCALE
  5
53
102
{ACAD_REACTORS
330
4A
102
}
330
4A
100
AcDbScale
 70
     0
300
1:30
140
1.0
141
30.0
290
     0
  0
SCALE
  5
54
102
{ACAD_REACTORS
330
4A
102
}
330
4A
100
AcDbScale
 70
     0
300
1:40
140
1.0
141
40.0
290
     0
  0
SCALE
  5
55
102
{ACAD_REACTORS
330
4A
102
}
330
4A
100
AcDbScale
 70
     0
300
1:50
140
1.0
141
50.0
290
     0
  0
SCALE
  5
56
102
{ACAD_REACTORS
330
4A
102
}
330
4A
100
AcDbScale
 70
     0
300
1:100
140
1.0
141
100.0
290
     0
  0
SCALE
  5
57
102
{ACAD_REACTORS
330
4A
102
}
330
4A
100
AcDbScale
 70
     0
300
2:1
140
2.0
141
1.0
290
     0
  0
SCALE
  5
58
102
{ACAD_REACTORS
330
4A
102
}
330
4A
100
AcDbScale
 70
     0
300
4:1
140
4.0
141
1.0
290
     0
  0
SCALE
  5
59
102
{ACAD_REACTORS
330
4A
102
}
330
4A
100
AcDbScale
 70
     0
300
8:1
140
8.0
141
1.0
290
     0
  0
SCALE
  5
5A
102
{ACAD_REACTORS
330
4A
102
}
330
4A
100
AcDbScale
 70
     0
300
10:1
140
10.0
141
1.0
290
     0
  0
SCALE
  5
5B
102
{ACAD_REACTORS
330
4A
102
}
330
4A
100
AcDbScale
 70
     0
300
100:1
140
100.0
141
1.0
290
     0
  0
SCALE
  5
5C
102
{ACAD_REACTORS
330
4A
102
}
330
4A
100
AcDbScale
 70
     0
300
1/128" = 1'-0"
140
0.0078125
141
12.0
290
     0
  0
SCALE
  5
5D
102
{ACAD_REACTORS
330
4A
102
}
330
4A
100
AcDbScale
 70
     0
300
1/64" = 1'-0"
140
0.015625
141
12.0
290
     0
  0
SCALE
  5
5E
102
{ACAD_REACTORS
330
4A
102
}
330
4A
100
AcDbScale
 70
     0
300
1/32" = 1'-0"
140
0.03125
141
12.0
290
     0
  0
SCALE
  5
5F
102
{ACAD_REACTORS
330
4A
102
}
330
4A
100
AcDbScale
 70
     0
300
1/16" = 1'-0"
140
0.0625
141
12.0
290
     0
  0
SCALE
  5
60
102
{ACAD_REACTORS
330
4A
102
}
330
4A
100
AcDbScale
 70
     0
300
3/32" = 1'-0"
140
0.09375
141
12.0
290
     0
  0
SCALE
  5
61
102
{ACAD_REACTORS
330
4A
102
}
330
4A
100
AcDbScale
 70
     0
300
1/8" = 1'-0"
140
0.125
141
12.0
290
     0
  0
SCALE
  5
62
102
{ACAD_REACTORS
330
4A
102
}
330
4A
100
AcDbScale
 70
     0
300
3/16" = 1'-0"
140
0.1875
141
12.0
290
     0
  0
SCALE
  5
63
102
{ACAD_REACTORS
330
4A
102
}
330
4A
100
AcDbScale
 70
     0
300
1/4" = 1'-0"
140
0.25
141
12.0
290
     0
  0
SCALE
  5
64
102
{ACAD_REACTORS
330
4A
102
}
330
4A
100
AcDbScale
 70
     0
300
3/8" = 1'-0"
140
0.375
141
12.0
290
     0
  0
SCALE
  5
65
102
{ACAD_REACTORS
330
4A
102
}
330
4A
100
AcDbScale
 70
     0
300
1/2" = 1'-0"
140
0.5
141
12.0
290
     0
  0
SCALE
  5
66
102
{ACAD_REACTORS
330
4A
102
}
330
4A
100
AcDbScale
 70
     0
300
3/4" = 1'-0"
140
0.75
141
12.0
290
     0
  0
SCALE
  5
67
102
{ACAD_REACTORS
330
4A
102
}
330
4A
100
AcDbScale
 70
     0
300
1" = 1'-0"
140
1.0
141
12.0
290
     0
  0
SCALE
  5
68
102
{ACAD_REACTORS
330
4A
102
}
330
4A
100
AcDbScale
 70
     0
300
1-1/2" = 1'-0"
140
1.5
141
12.0
290
     0
  0
SCALE
  5
69
102
{ACAD_REACTORS
330
4A
102
}
330
4A
100
AcDbScale
 70
     0
300
3" = 1'-0"
140
3.0
141
12.0
290
     0
  0
SCALE
  5
6A
102
{ACAD_REACTORS
330
4A
102
}
330
4A
100
AcDbScale
 70
     0
300
6" = 1'-0"
140
6.0
141
12.0
290
     0
  0
SCALE
  5
6B
102
{ACAD_REACTORS
330
4A
102
}
330
4A
100
AcDbScale
 70
     0
300
1'-0" = 1'-0"
140
12.0
141
12.0
290
     0
  0
VISUALSTYLE
  5
2F
102
{ACAD_REACTORS
330
2A
102
}
330
2A
100
AcDbVisualStyle
  2
2dWireframe
 70
     4
 71
     0
 72
     2
 73
     0
 90
        0
 40
-0.6
 41
-30.0
 62
     5
 63
     7
 74
     1
 91
        4
 64
     7
 65
   257
 75
     1
175
     1
 42
1.0
 92
        0
 66
   257
 43
1.0
 76
     1
 77
     6
 78
     2
 67
     7
 79
     5
170
     0
171
     0
290
     0
174
     0
 93
        1
 44
0.0
173
     0
291
     0
 45
0.0
1001
ACAD
1000
AcDbSavedByObjectVersion
1070
     0
  0
VISUALSTYLE
  5
31
102
{ACAD_REACTORS
330
2A
102
}
330
2A
100
AcDbVisualStyle
  2
3D Hidden
 70
     6
 71
     1
 72
     2
 73
     2
 90
        0
 40
-0.6
 41
-30.0
 62
     5
 63
     7
 74
     2
 91
        2
 64
     7
 65
   257
 75
     2
175
     1
 42
40.0
 92
        0
 66
   257
 43
1.0
 76
     1
 77
     6
 78
     2
 67
     7
 79
     3
170
     0
171
     0
290
     0
174
     0
 93
        1
 44
0.0
173
     0
291
     0
 45
0.0
1001
ACAD
1000
AcDbSavedByObjectVersion
1070
     0
  0
VISUALSTYLE
  5
30
102
{ACAD_REACTORS
330
2A
102
}
330
2A
100
AcDbVisualStyle
  2
3dWireframe
 70
     5
 71
     0
 72
     2
 73
     0
 90
        0
 40
-0.6
 41
-30.0
 62
     5
 63
     7
 74
     1
 91
        4
 64
     7
 65
   257
 75
     1
175
     1
 42
1.0
 92
        0
 66
   257
 43
1.0
 76
     1
 77
     6
 78
     2
 67
     7
 79
     5
170
     0
171
     0
290
     0
174
     0
 93
        1
 44
0.0
173
     0
291
     0
 45
0.0
1001
ACAD
1000
AcDbSavedByObjectVersion
1070
     0
  0
VISUALSTYLE
  5
32
102
{ACAD_REACTORS
330
2A
102
}
330
2A
100
AcDbVisualStyle
  2
Basic
 70
     7
 71
     1
 72
     0
 73
     1
 90
        0
 40
-0.6
 41
-30.0
 62
     5
 63
     7
 74
     0
 91
        4
 64
     7
 65
   257
 75
     1
175
     1
 42
1.0
 92
        8
 66
     7
 43
1.0
 76
     1
 77
     6
 78
     2
 67
     7
 79
     5
170
     0
171
     0
290
     0
174
     0
 93
        1
 44
0.0
173
     0
291
     1
 45
0.0
1001
ACAD
1000
AcDbSavedByObjectVersion
1070
     0
  0
VISUALSTYLE
  5
36
102
{ACAD_REACTORS
330
2A
102
}
330
2A
100
AcDbVisualStyle
  2
Brighten
 70
    12
 71
     2
 72
     2
 73
     0
 90
        0
 40
-0.6
 41
-30.0
 62
     5
 63
     7
 74
     1
 91
        4
 64
     7
 65
   257
 75
     1
175
     1
 42
1.0
 92
        8
 66
     7
 43
1.0
 76
     1
 77
     6
 78
     2
 67
     7
 79
     5
170
     0
171
     0
290
     0
174
     0
 93
        1
 44
50.0
173
     0
291
     1
 45
0.0
1001
ACAD
1000
AcDbSavedByObjectVersion
1070
     0
  0
VISUALSTYLE
  5
3A
102
{ACAD_REACTORS
330
2A
102
}
330
2A
100
AcDbVisualStyle
  2
ColorChange
 70
    16
 71
     2
 72
     2
 73
     3
 90
        0
 40
-0.6
 41
-30.0
 62
     5
 63
     8
 74
     1
 91
        4
 64
     7
 65
   257
 75
     1
175
     1
 42
1.0
 92
        8
 66
     8
 43
1.0
 76
     1
 77
     6
 78
     2
 67
     7
 79
     5
170
     0
171
     0
290
     0
174
     0
 93
        1
 44
0.0
173
     0
291
     1
 45
0.0
1001
ACAD
1000
AcDbSavedByObjectVersion
1070
     0
  0
VISUALSTYLE
  5
34
102
{ACAD_REACTORS
330
2A
102
}
330
2A
100
AcDbVisualStyle
  2
Conceptual
 70
     9
 71
     3
 72
     2
 73
     0
 90
        0
 40
-0.6
 41
-30.0
 62
     5
 63
     7
 74
     2
 91
        2
 64
     7
 65
   257
 75
     1
175
     1
 42
40.0
 92
        8
 66
     7
 43
1.0
 76
     1
 77
     6
 78
     2
 67
     7
 79
     3
170
     0
171
     0
290
     0
174
     0
 93
        1
 44
0.0
173
     0
291
     0
 45
0.0
1001
ACAD
1000
AcDbSavedByObjectVersion
1070
     0
  0
VISUALSTYLE
  5
35
102
{ACAD_REACTORS
330
2A
102
}
330
2A
100
AcDbVisualStyle
  2
Dim
 70
    11
 71
     2
 72
     2
 73
     0
 90
        0
 40
-0.6
 41
-30.0
 62
     5
 63
     7
 74
     1
 91
        4
 64
     7
 65
   257
 75
     1
175
     1
 42
1.0
 92
        8
 66
     7
 43
1.0
 76
     1
 77
     6
 78
     2
 67
     7
 79
     5
170
     0
171
     0
290
     0
174
     0
 93
        1
 44
-50.0
173
     0
291
     1
 45
0.0
1001
ACAD
1000
AcDbSavedByObjectVersion
1070
     0
  0
VISUALSTYLE
  5
39
102
{ACAD_REACTORS
330
2A
102
}
330
2A
100
AcDbVisualStyle
  2
Facepattern
 70
    15
 71
     2
 72
     2
 73
     0
 90
        0
 40
-0.6
 41
-30.0
 62
     5
 63
     7
 74
     1
 91
        4
 64
     7
 65
   257
 75
     1
175
     1
 42
1.0
 92
        8
 66
     7
 43
1.0
 76
     1
 77
     6
 78
     2
 67
     7
 79
     5
170
     0
171
     0
290
     0
174
     0
 93
        1
 44
0.0
173
     0
291
     1
 45
0.0
1001
ACAD
1000
AcDbSavedByObjectVersion
1070
     0
  0
VISUALSTYLE
  5
2B
102
{ACAD_REACTORS
330
2A
102
}
330
2A
100
AcDbVisualStyle
  2
Flat
 70
     0
 71
     2
 72
     1
 73
     1
 90
        2
 40
-0.6
 41
30.0
 62
     5
 63
     7
 74
     0
 91
        4
 64
     7
 65
   257
 75
     1
175
     1
 42
1.0
 92
        8
 66
     7
 43
1.0
 76
     1
 77
     6
 78
     2
 67
     7
 79
     5
170
     0
171
     0
290
     0
174
     0
 93
       13
 44
0.0
173
     0
291
     1
 45
0.0
1001
ACAD
1000
AcDbSavedByObjectVersion
1070
     0
  0
VISUALSTYLE
  5
2C
102
{ACAD_REACTORS
330
2A
102
}
330
2A
100
AcDbVisualStyle
  2
FlatWithEdges
 70
     1
 71
     2
 72
     1
 73
     1
 90
        2
 40
-0.6
 41
30.0
 62
     5
 63
     7
 74
     1
 91
        4
 64
     7
 65
   257
 75
     1
175
     1
 42
1.0
 92
        0
 66
   257
 43
1.0
 76
     1
 77
     6
 78
     2
 67
     7
 79
     5
170
     0
171
     0
290
     0
174
     0
 93
       13
 44
0.0
173
     0
291
     1
 45
0.0
1001
ACAD
1000
AcDbSavedByObjectVersion
1070
     0
  0
VISUALSTYLE
  5
2D
102
{ACAD_REACTORS
330
2A
102
}
330
2A
100
AcDbVisualStyle
  2
Gouraud
 70
     2
 71
     2
 72
     2
 73
     1
 90
        2
 40
-0.6
 41
30.0
 62
     5
 63
     7
 74
     0
 91
        4
 64
     7
 65
   257
 75
     1
175
     1
 42
1.0
 92
        0
 66
     7
 43
1.0
 76
     1
 77
     6
 78
     2
 67
     7
 79
     5
170
     0
171
     0
290
     0
174
     0
 93
       13
 44
0.0
173
     0
291
     1
 45
0.0
1001
ACAD
1000
AcDbSavedByObjectVersion
1070
     0
  0
VISUALSTYLE
  5
2E
102
{ACAD_REACTORS
330
2A
102
}
330
2A
100
AcDbVisualStyle
  2
GouraudWithEdges
 70
     3
 71
     2
 72
     2
 73
     1
 90
        2
 40
-0.6
 41
30.0
 62
     5
 63
     7
 74
     1
 91
        4
 64
     7
 65
   257
 75
     1
175
     1
 42
1.0
 92
        0
 66
   257
 43
1.0
 76
     1
 77
     6
 78
     2
 67
     7
 79
     5
170
     0
171
     0
290
     0
174
     0
 93
       13
 44
0.0
173
     0
291
     1
 45
0.0
1001
ACAD
1000
AcDbSavedByObjectVersion
1070
     0
  0
VISUALSTYLE
  5
38
102
{ACAD_REACTORS
330
2A
102
}
330
2A
100
AcDbVisualStyle
  2
Linepattern
 70
    14
 71
     2
 72
     2
 73
     0
 90
        0
 40
-0.6
 41
-30.0
 62
     5
 63
     7
 74
     1
 91
        4
 64
     7
 65
   257
 75
     7
175
     7
 42
1.0
 92
        8
 66
     7
 43
1.0
 76
     1
 77
     6
 78
     2
 67
     7
 79
     5
170
     0
171
     0
290
     0
174
     0
 93
        1
 44
0.0
173
     0
291
     1
 45
0.0
1001
ACAD
1000
AcDbSavedByObjectVersion
1070
     0
  0
VISUALSTYLE
  5
33
102
{ACAD_REACTORS
330
2A
102
}
330
2A
100
AcDbVisualStyle
  2
Realistic
 70
     8
 71
     2
 72
     2
 73
     0
 90
        0
 40
-0.6
 41
-30.0
 62
     5
 63
     7
 74
     1
 91
        0
 64
     7
 65
   257
 75
     1
175
     1
 42
1.0
 92
        8
 66
     8
 43
1.0
 76
     1
 77
     6
 78
     2
 67
     7
 79
     5
170
     0
171
     0
290
     0
174
     0
 93
       13
 44
0.0
173
     0
291
     0
 45
0.0
1001
ACAD
1000
AcDbSavedByObjectVersion
1070
     0
  0
VISUALSTYLE
  5
37
102
{ACAD_REACTORS
330
2A
102
}
330
2A
100
AcDbVisualStyle
  2
Thicken
 70
    13
 71
     2
 72
     2
 73
     0
 90
        0
 40
-0.6
 41
-30.0
 62
     5
 63
     7
 74
     1
 91
        4
 64
     7
 65
   257
 75
     1
175
     1
 42
1.0
 92
       12
 66
     7
 43
1.0
 76
     1
 77
     6
 78
     2
 67
     7
 79
     5
170
     0
171
     0
290
     0
174
     0
 93
        1
 44
0.0
173
     0
291
     1
 45
0.0
1001
ACAD
1000
AcDbSavedByObjectVersion
1070
     0
  0
DICTIONARYVAR
  5
154
102
{ACAD_REACTORS
330
151
102
}
330
151
100
DictionaryVariables
280
     0
  1
1:1
  0
ENDSEC
  0
EOF
