  0
SECTION
  2
HEADER
  9
$ACADVER
  1
AC1015
  9
$ACADMAINTVER
 70
     6
  9
$DWGCODEPAGE
  3
ANSI_1252
  9
$INSBASE
 10
0.0
 20
0.0
 30
0.0
  9
$EXTMIN
 10
21.0432198427951
 20
249.787004818
 30
0.0
  9
$EXTMAX
 10
223.84034973431
 20
378.769102325248
 30
0.0
  9
$LIMMIN
 10
0.0
 20
0.0
  9
$LIMMAX
 10
12.0
 20
9.0
  9
$ORTHOMODE
 70
     0
  9
$REGENMODE
 70
     1
  9
$FILLMODE
 70
     1
  9
$QTEXTMODE
 70
     0
  9
$MIRRTEXT
 70
     1
  9
$LTSCALE
 40
1.0
  9
$ATTMODE
 70
     1
  9
$TEXTSIZE
 40
0.2
  9
$TRACEWID
 40
0.05
  9
$TEXTSTYLE
  7
Standard
  9
$CLAYER
  8
0
  9
$CELTYPE
  6
ByLayer
  9
$CECOLOR
 62
   256
  9
$CELTSCALE
 40
1.0
  9
$DISPSILH
 70
     0
  9
$DIMSCALE
 40
1.0
  9
$DIMASZ
 40
0.18
  9
$DIMEXO
 40
0.0625
  9
$DIMDLI
 40
0.38
  9
$DIMRND
 40
0.0
  9
$DIMDLE
 40
0.0
  9
$DIMEXE
 40
0.18
  9
$DIMTP
 40
0.0
  9
$DIMTM
 40
0.0
  9
$DIMTXT
 40
0.18
  9
$DIMCEN
 40
0.09
  9
$DIMTSZ
 40
0.0
  9
$DIMTOL
 70
     0
  9
$DIMLIM
 70
     0
  9
$DIMTIH
 70
     1
  9
$DIMTOH
 70
     1
  9
$DIMSE1
 70
     0
  9
$DIMSE2
 70
     0
  9
$DIMTAD
 70
     0
  9
$DIMZIN
 70
     0
  9
$DIMBLK
  1

  9
$DIMASO
 70
     1
  9
$DIMSHO
 70
     1
  9
$DIMPOST
  1

  9
$DIMAPOST
  1

  9
$DIMALT
 70
     0
  9
$DIMALTD
 70
     2
  9
$DIMALTF
 40
25.4
  9
$DIMLFAC
 40
1.0
  9
$DIMTOFL
 70
     0
  9
$DIMTVP
 40
0.0
  9
$DIMTIX
 70
     0
  9
$DIMSOXD
 70
     0
  9
$DIMSAH
 70
     0
  9
$DIMBLK1
  1

  9
$DIMBLK2
  1

  9
$DIMSTYLE
  2
Standard
  9
$DIMCLRD
 70
     0
  9
$DIMCLRE
 70
     0
  9
$DIMCLRT
 70
     0
  9
$DIMTFAC
 40
1.0
  9
$DIMGAP
 40
0.09
  9
$DIMJUST
 70
     0
  9
$DIMSD1
 70
     0
  9
$DIMSD2
 70
     0
  9
$DIMTOLJ
 70
     1
  9
$DIMTZIN
 70
     0
  9
$DIMALTZ
 70
     0
  9
$DIMALTTZ
 70
     0
  9
$DIMUPT
 70
     0
  9
$DIMDEC
 70
     4
  9
$DIMTDEC
 70
     4
  9
$DIMALTU
 70
     2
  9
$DIMALTTD
 70
     2
  9
$DIMTXSTY
  7
Standard
  9
$DIMAUNIT
 70
     0
  9
$DIMADEC
 70
     0
  9
$DIMALTRND
 40
0.0
  9
$DIMAZIN
 70
     0
  9
$DIMDSEP
 70
    46
  9
$DIMATFIT
 70
     3
  9
$DIMFRAC
 70
     0
  9
$DIMLDRBLK
  1

  9
$DIMLUNIT
 70
     2
  9
$DIMLWD
 70
    -2
  9
$DIMLWE
 70
    -2
  9
$DIMTMOVE
 70
     0
  9
$LUNITS
 70
     2
  9
$LUPREC
 70
     4
  9
$SKETCHINC
 40
0.1
  9
$FILLETRAD
 40
0.5
  9
$AUNITS
 70
     0
  9
$AUPREC
 70
     0
  9
$MENU
  1
.
  9
$ELEVATION
 40
0.0
  9
$PELEVATION
 40
0.0
  9
$THICKNESS
 40
0.0
  9
$LIMCHECK
 70
     0
  9
$CHAMFERA
 40
0.5
  9
$CHAMFERB
 40
0.5
  9
$CHAMFERC
 40
1.0
  9
$CHAMFERD
 40
0.0
  9
$SKPOLY
 70
     0
  9
$TDCREATE
 40
2456748.732216412
  9
$TDUCREATE
 40
2456748.648883079
  9
$TDUPDATE
 40
2456748.732216424
  9
$TDUUPDATE
 40
2456748.64888309
  9
$TDINDWG
 40
0.0000000116
  9
$TDUSRTIMER
 40
0.0000000116
  9
$USRTIMER
 70
     1
  9
$ANGBASE
 50
0.0
  9
$ANGDIR
 70
     0
  9
$PDMODE
 70
     0
  9
$PDSIZE
 40
0.0
  9
$PLINEWID
 40
0.0
  9
$SPLFRAME
 70
     0
  9
$SPLINETYPE
 70
     6
  9
$SPLINESEGS
 70
     8
  9
$HANDSEED
  5
155
  9
$SURFTAB1
 70
     6
  9
$SURFTAB2
 70
     6
  9
$SURFTYPE
 70
     6
  9
$SURFU
 70
     6
  9
$SURFV
 70
     6
  9
$UCSBASE
  2

  9
$UCSNAME
  2

  9
$UCSORG
 10
0.0
 20
0.0
 30
0.0
  9
$UCSXDIR
 10
1.0
 20
0.0
 30
0.0
  9
$UCSYDIR
 10
0.0
 20
1.0
 30
0.0
  9
$UCSORTHOREF
  2

  9
$UCSORTHOVIEW
 70
     0
  9
$UCSORGTOP
 10
0.0
 20
0.0
 30
0.0
  9
$UCSORGBOTTOM
 10
0.0
 20
0.0
 30
0.0
  9
$UCSORGLEFT
 10
0.0
 20
0.0
 30
0.0
  9
$UCSORGRIGHT
 10
0.0
 20
0.0
 30
0.0
  9
$UCSORGFRONT
 10
0.0
 20
0.0
 30
0.0
  9
$UCSORGBACK
 10
0.0
 20
0.0
 30
0.0
  9
$PUCSBASE
  2

  9
$PUCSNAME
  2

  9
$PUCSORG
 10
0.0
 20
0.0
 30
0.0
  9
$PUCSXDIR
 10
1.0
 20
0.0
 30
0.0
  9
$PUCSYDIR
 10
0.0
 20
1.0
 30
0.0
  9
$PUCSORTHOREF
  2

  9
$PUCSORTHOVIEW
 70
     0
  9
$PUCSORGTOP
 10
0.0
 20
0.0
 30
0.0
  9
$PUCSORGBOTTOM
 10
0.0
 20
0.0
 30
0.0
  9
$PUCSORGLEFT
 10
0.0
 20
0.0
 30
0.0
  9
$PUCSORGRIGHT
 10
0.0
 20
0.0
 30
0.0
  9
$PUCSORGFRONT
 10
0.0
 20
0.0
 30
0.0
  9
$PUCSORGBACK
 10
0.0
 20
0.0
 30
0.0
  9
$USERI1
 70
     0
  9
$USERI2
 70
     0
  9
$USERI3
 70
     0
  9
$USERI4
 70
     0
  9
$USERI5
 70
     0
  9
$USERR1
 40
16.5
  9
$USERR2
 40
0.0
  9
$USERR3
 40
0.0
  9
$USERR4
 40
0.0
  9
$USERR5
 40
0.0
  9
$WORLDVIEW
 70
     1
  9
$SHADEDGE
 70
     3
  9
$SHADEDIF
 70
    70
  9
$TILEMODE
 70
     1
  9
$MAXACTVP
 70
    64
  9
$PINSBASE
 10
0.0
 20
0.0
 30
0.0
  9
$PLIMCHECK
 70
     0
  9
$PEXTMIN
 10
1.00000000000000E+20
 20
1.00000000000000E+20
 30
1.00000000000000E+20
  9
$PEXTMAX
 10
-1.00000000000000E+20
 20
-1.00000000000000E+20
 30
-1.00000000000000E+20
  9
$PLIMMIN
 10
0.0
 20
0.0
  9
$PLIMMAX
 10
12.0
 20
9.0
  9
$UNITMODE
 70
     0
  9
$VISRETAIN
 70
     1
  9
$PLINEGEN
 70
     0
  9
$PSLTSCALE
 70
     1
  9
$TREEDEPTH
 70
  3020
  9
$CMLSTYLE
  2
Standard
  9
$CMLJUST
 70
     0
  9
$CMLSCALE
 40
1.0
  9
$PROXYGRAPHICS
 70
     1
  9
$MEASUREMENT
 70
     1
  9
$CELWEIGHT
370
    -1
  9
$ENDCAPS
280
     0
  9
$JOINSTYLE
280
     0
  9
$LWDISPLAY
290
     0
  9
$INSUNITS
 70
     1
  9
$HYPERLINKBASE
  1

  9
$STYLESHEET
  1

  9
$XEDIT
290
     1
  9
$CEPSNTYPE
380
     0
  9
$PSTYLEMODE
290
     1
  9
$FINGERPRINTGUID
  2
{2E89E9AA-6085-4EC0-B261-615BE632A99C}
  9
$VERSIONGUID
  2
{FAEB1C32-E019-11D5-929B-00C0DF256EC4}
  9
$EXTNAMES
290
     1
  9
$PSVPSCALE
 40
0.0
  9
$OLESTARTUP
290
     0
  0
ENDSEC
  0
SECTION
  2
CLASSES
  0
CLASS
  1
ACDBDICTIONARYWDFLT
  2
AcDbDictionaryWithDefault
  3
ObjectDBX Classes
 90
        0
280
     0
281
     0
  0
CLASS
  1
VISUALSTYLE
  2
AcDbVisualStyle
  3
ObjectDBX Classes
 90
     4095
280
     0
281
     0
  0
CLASS
  1
SCALE
  2
AcDbScale
  3
ObjectDBX Classes
 90
     1153
280
     0
281
     0
  0
CLASS
  1

  2
exOdDbPolyline
  3

 90
        0
280
     0
281
     1
  0
CLASS
  1

  2
exOdDbCircle
  3

 90
        0
280
     0
281
     1
  0
CLASS
  1

  2
exOdDbSpline
  3

 90
        0
280
     0
281
     1
  0
CLASS
  1
DICTIONARYVAR
  2
AcDbDictionaryVar
  3
ObjectDBX Classes
 90
        0
280
     0
281
     0
  0
CLASS
  1
ACDBPLACEHOLDER
  2
AcDbPlaceHolder
  3
ObjectDBX Classes
 90
        0
280
     0
281
     0
  0
CLASS
  1
LAYOUT
  2
AcDbLayout
  3
ObjectDBX Classes
 90
        0
280
     0
281
     0
  0
ENDSEC
  0
SECTION
  2
TABLES
  0
TABLE
  2
VPORT
  5
8
330
0
100
AcDbSymbolTable
 70
     1
  0
VPORT
  5
29
330
8
100
AcDbSymbolTableRecord
100
AcDbViewportTableRecord
  2
*Active
 70
     0
 10
0.0
 20
0.0
 11
1.0
 21
1.0
 12
122.4417847885526
 22
314.278053571624
 13
0.0
 23
0.0
 14
0.5
 24
0.5
 15
0.5
 25
0.5
 16
0.0
 26
0.0
 36
1.0
 17
0.0
 27
0.0
 37
0.0
 40
141.8803072579728
 41
1.60267857142857
 42
50.0
 43
0.0
 44
0.0
 50
0.0
 51
0.0
 71
     0
 72
   100
 73
     1
 74
     3
 75
     0
 76
     0
 77
     0
 78
     0
281
     0
 65
     1
110
0.0
120
0.0
130
0.0
111
1.0
121
0.0
131
0.0
112
0.0
122
1.0
132
0.0
 79
     0
146
0.0
  0
ENDTAB
  0
TABLE
  2
LTYPE
  5
5
330
0
100
AcDbSymbolTable
 70
     8
  0
LTYPE
  5
14
330
5
100
AcDbSymbolTableRecord
100
AcDbLinetypeTableRecord
  2
ByBlock
 70
     0
  3

 72
    65
 73
     0
 40
0.0
  0
LTYPE
  5
15
330
5
100
AcDbSymbolTableRecord
100
AcDbLinetypeTableRecord
  2
ByLayer
 70
     0
  3

 72
    65
 73
     0
 40
0.0
  0
LTYPE
  5
16
330
5
100
AcDbSymbolTableRecord
100
AcDbLinetypeTableRecord
  2
Continuous
 70
     0
  3
Solid line
 72
    65
 73
     0
 40
0.0
  0
LTYPE
  5
3B
330
5
100
AcDbSymbolTableRecord
100
AcDbLinetypeTableRecord
  2
DASHED
 70
     0
  3
Dashed
 72
    65
 73
     2
 40
15.0
 49
7.0
 74
     0
 49
-8.0
 74
     0
  0
LTYPE
  5
3C
330
5
100
AcDbSymbolTableRecord
100
AcDbLinetypeTableRecord
  2
DOTTED
 70
     0
  3
Dotted
 72
    65
 73
     2
 40
1.0
 49
0.0
 74
     0
 49
-1.0
 74
     0
  0
LTYPE
  5
3D
330
5
100
AcDbSymbolTableRecord
100
AcDbLinetypeTableRecord
  2
DOT_CENTER
 70
     0
  3
Dot_Center
 72
    65
 73
     4
 40
14.0
 49
12.0
 74
     0
 49
-1.0
 74
     0
 49
0.0
 74
     0
 49
-1.0
 74
     0
  0
LTYPE
  5
3E
330
5
100
AcDbSymbolTableRecord
100
AcDbLinetypeTableRecord
  2
LONG_DASHED
 70
     0
  3
Long_Dashed
 72
    65
 73
     2
 40
15.0
 49
10.0
 74
     0
 49
-5.0
 74
     0
  0
LTYPE
  5
3F
330
5
100
AcDbSymbolTableRecord
100
AcDbLinetypeTableRecord
  2
DASH_CENTER
 70
     0
  3
Dash_Center
 72
    65
 73
     4
 40
14.0
 49
11.0
 74
     0
 49
-1.0
 74
     0
 49
1.0
 74
     0
 49
-1.0
 74
     0
  0
LTYPE
  5
40
330
5
100
AcDbSymbolTableRecord
100
AcDbLinetypeTableRecord
  2
PHANTOM
 70
     0
  3
Phantom
 72
    65
 73
     6
 40
13.0
 49
10.0
 74
     0
 49
-1.0
 74
     0
 49
0.0
 74
     0
 49
-1.0
 74
     0
 49
0.0
 74
     0
 49
-1.0
 74
     0
  0
LTYPE
  5
41
330
5
100
AcDbSymbolTableRecord
100
AcDbLinetypeTableRecord
  2
CENTER_DASH_DASH
 70
     0
  3
Center_Dash_Dash
 72
    65
 73
     6
 40
14.0
 49
9.0
 74
     0
 49
-1.0
 74
     0
 49
1.0
 74
     0
 49
-1.0
 74
     0
 49
1.0
 74
     0
 49
-1.0
 74
     0
  0
ENDTAB
  0
TABLE
  2
LAYER
  5
2
330
0
100
AcDbSymbolTable
 70
     6
  0
LAYER
  5
10
330
2
100
AcDbSymbolTableRecord
100
AcDbLayerTableRecord
  2
0
 70
     0
 62
     7
  6
Continuous
370
    -3
390
F
  0
LAYER
  5
42
330
2
100
AcDbSymbolTableRecord
100
AcDbLayerTableRecord
  2
1
 70
     0
 62
     7
  6
Continuous
370
    -3
390
F
  0
LAYER
  5
43
330
2
100
AcDbSymbolTableRecord
100
AcDbLayerTableRecord
  2
BEZUGSACHSEN
 70
     0
 62
     7
  6
Continuous
370
    -3
390
F
  0
LAYER
  5
44
330
2
100
AcDbSymbolTableRecord
100
AcDbLayerTableRecord
  2
DEFAULT_2
 70
     0
 62
     7
  6
Continuous
370
    -3
390
F
  0
LAYER
  5
45
330
2
100
AcDbSymbolTableRecord
100
AcDbLayerTableRecord
  2
FASEN
 70
     0
 62
     7
  6
Continuous
370
    -3
390
F
  0
LAYER
  5
46
330
2
100
AcDbSymbolTableRecord
100
AcDbLayerTableRecord
  2
RUNDUNGEN
 70
     0
 62
     7
  6
Continuous
370
    -3
390
F
  0
ENDTAB
  0
TABLE
  2
STYLE
  5
3
330
0
100
AcDbSymbolTable
 70
     2
  0
STYLE
  5
11
330
3
100
AcDbSymbolTableRecord
100
AcDbTextStyleTableRecord
  2
Standard
 70
     0
 40
0.0
 41
1.0
 50
0.0
 71
     0
 42
0.2
  3
txt
  4

  0
STYLE
  5
6D
330
3
100
AcDbSymbolTableRecord
100
AcDbTextStyleTableRecord
  2
CONVERTER_11
 70
     0
 40
0.0
 41
0.72
 50
0.0
 71
     0
 42
0.2
  3
txt.shx
  4

  0
ENDTAB
  0
TABLE
  2
VIEW
  5
6
330
0
100
AcDbSymbolTable
 70
     0
  0
ENDTAB
  0
TABLE
  2
UCS
  5
7
330
0
100
AcDbSymbolTable
 70
     0
  0
ENDTAB
  0
TABLE
  2
APPID
  5
9
330
0
100
AcDbSymbolTable
 70
     1
  0
APPID
  5
12
330
9
100
AcDbSymbolTableRecord
100
AcDbRegAppTableRecord
  2
ACAD
 70
     0
  0
ENDTAB
  0
TABLE
  2
DIMSTYLE
  5
A
330
0
100
AcDbSymbolTable
 70
     8
100
AcDbDimStyleTable
  0
DIMSTYLE
105
27
330
A
100
AcDbSymbolTableRecord
100
AcDbDimStyleTableRecord
  2
Standard
 70
     0
340
11
  0
DIMSTYLE
105
106
102
{ACAD_REACTORS
330
107
102
}
330
A
100
AcDbSymbolTableRecord
100
AcDbDimStyleTableRecord
  2
ME10_DIM_10
 70
     0
  3
\U+2300<>
 41
3.5
 42
2.0
 44
2.0
 71
     1
 73
     0
 74
     0
 77
     1
 78
     8
140
3.5
146
0.7
147
2.0
172
     1
173
     1
176
     2
177
     2
178
     3
271
     2
272
     0
340
6D
  0
DIMSTYLE
105
111
102
{ACAD_REACTORS
330
112
102
}
330
A
100
AcDbSymbolTableRecord
100
AcDbDimStyleTableRecord
  2
ME10_DIM_11
 70
     0
  3
\U+2300<>
 41
3.5
 42
2.0
 44
2.0
 71
     1
 73
     0
 74
     0
 77
     1
 78
     8
140
3.5
146
0.7
147
2.0
172
     1
173
     1
176
     2
177
     2
178
     3
271
     2
272
     0
340
6D
  0
DIMSTYLE
105
11C
102
{ACAD_REACTORS
330
11D
102
}
330
A
100
AcDbSymbolTableRecord
100
AcDbDimStyleTableRecord
  2
ME10_DIM_12
 70
     0
  3
\U+2300<>
 41
3.5
 42
2.0
 44
2.0
 71
     1
 73
     0
 74
     0
 77
     1
 78
     8
140
3.5
146
0.7
147
2.0
172
     1
173
     1
176
     2
177
     2
178
     3
271
     2
272
     0
340
6D
  0
DIMSTYLE
105
127
102
{ACAD_REACTORS
330
128
102
}
330
A
100
AcDbSymbolTableRecord
100
AcDbDimStyleTableRecord
  2
ME10_DIM_13
 70
     0
  3
<>
 41
3.5
 42
2.0
 44
2.0
 71
     1
 73
     0
 74
     0
 77
     1
 78
     8
140
3.5
146
0.7
147
2.0
172
     1
173
     1
176
     2
177
     2
178
     3
271
     2
272
     0
340
6D
  0
DIMSTYLE
105
132
102
{ACAD_REACTORS
330
133
102
}
330
A
100
AcDbSymbolTableRecord
100
AcDbDimStyleTableRecord
  2
ME10_DIM_14
 70
     0
  3
<>
 41
3.5
 42
2.0
 44
2.0
 71
     1
 73
     0
 74
     0
 77
     1
 78
     8
140
3.5
146
0.7
147
2.0
172
     1
173
     1
176
     2
177
     2
178
     3
271
     2
272
     0
340
6D
  0
DIMSTYLE
105
13D
102
{ACAD_REACTORS
330
13E
102
}
330
A
100
AcDbSymbolTableRecord
100
AcDbDimStyleTableRecord
  2
ME10_DIM_15
 70
     0
  3
<>
 41
3.5
 42
2.0
 44
2.0
 71
     1
 73
     0
 74
     0
 77
     1
 78
     8
140
3.5
146
0.7
147
2.0
172
     1
173
     1
176
     2
177
     2
178
     3
271
     2
272
     0
340
6D
  0
DIMSTYLE
105
14F
102
{ACAD_REACTORS
330
150
102
}
330
A
100
AcDbSymbolTableRecord
100
AcDbDimStyleTableRecord
  2
ME10_DIM_16
 70
     0
  3
<>
 41
3.5
 42
2.0
 44
2.0
 71
     1
 73
     0
 74
     0
 77
     1
 78
     8
140
3.5
146
0.7
147
2.0
172
     1
173
     1
176
     2
177
     2
178
     3
271
     2
272
     0
340
6D
  0
ENDTAB
  0
TABLE
  2
BLOCK_RECORD
  5
1
330
0
100
AcDbSymbolTable
 70
    10
  0
BLOCK_RECORD
  5
1F
330
1
100
AcDbSymbolTableRecord
100
AcDbBlockTableRecord
  2
*Model_Space
340
22
  0
BLOCK_RECORD
  5
1B
330
1
100
AcDbSymbolTableRecord
100
AcDbBlockTableRecord
  2
*Paper_Space
340
1E
  0
BLOCK_RECORD
  5
23
330
1
100
AcDbSymbolTableRecord
100
AcDbBlockTableRecord
  2
*Paper_Space0
340
26
  0
BLOCK_RECORD
  5
47
330
1
100
AcDbSymbolTableRecord
100
AcDbBlockTableRecord
  2
Urheberrecht_DE-EN
340
0
102
{BLKREFS
331
6C
102
}
  0
BLOCK_RECORD
  5
FD
330
1
100
AcDbSymbolTableRecord
100
AcDbBlockTableRecord
  2
*D2
340
0
  0
BLOCK_RECORD
  5
108
330
1
100
AcDbSymbolTableRecord
100
AcDbBlockTableRecord
  2
*D3
340
0
  0
BLOCK_RECORD
  5
113
330
1
100
AcDbSymbolTableRecord
100
AcDbBlockTableRecord
  2
*D4
340
0
  0
BLOCK_RECORD
  5
11E
330
1
100
AcDbSymbolTableRecord
100
AcDbBlockTableRecord
  2
*D5
340
0
  0
BLOCK_RECORD
  5
129
330
1
100
AcDbSymbolTableRecord
100
AcDbBlockTableRecord
  2
*D6
340
0
  0
BLOCK_RECORD
  5
134
330
1
100
AcDbSymbolTableRecord
100
AcDbBlockTableRecord
  2
*D7
340
0
  0
BLOCK_RECORD
  5
13F
330
1
100
AcDbSymbolTableRecord
100
AcDbBlockTableRecord
  2
*D8
340
0
102
{BLKREFS
331
145
102
}
  0
BLOCK_RECORD
  5
146
330
1
100
AcDbSymbolTableRecord
100
AcDbBlockTableRecord
  2
*D9
340
0
  0
ENDTAB
  0
ENDSEC
  0
SECTION
  2
BLOCKS
  0
BLOCK
  5
20
330
1F
100
AcDbEntity
  8
0
100
AcDbBlockBegin
  2
*Model_Space
 70
     0
 10
0.0
 20
0.0
 30
0.0
  3
*Model_Space
  1

  0
ENDBLK
  5
21
330
1F
100
AcDbEntity
  8
0
100
AcDbBlockEnd
  0
BLOCK
  5
1C
330
1B
100
AcDbEntity
 67
     1
  8
0
100
AcDbBlockBegin
  2
*Paper_Space
 70
     0
 10
0.0
 20
0.0
 30
0.0
  3
*Paper_Space
  1

  0
ENDBLK
  5
1D
330
1B
100
AcDbEntity
 67
     1
  8
0
100
AcDbBlockEnd
  0
BLOCK
  5
24
330
23
100
AcDbEntity
  8
0
100
AcDbBlockBegin
  2
*Paper_Space0
 70
     0
 10
0.0
 20
0.0
 30
0.0
  3
*Paper_Space0
  1

  0
ENDBLK
  5
25
330
23
100
AcDbEntity
  8
0
100
AcDbBlockEnd
  0
BLOCK
  5
48
330
47
100
AcDbEntity
  8
0
100
AcDbBlockBegin
  2
Urheberrecht_DE-EN
 70
     0
 10
35.0432198427951
 20
315.367912914228
 30
0.0
  3
Urheberrecht_DE-EN
  1

  0
MTEXT
  5
6E
330
47
100
AcDbEntity
  8
1
 62
     1
100
AcDbMText
 10
35.0432198427951
 20
315.367912914228
 30
0.0
 40
2.0
 41
0.0
 71
     7
 72
     1
  1
We own the copyright of this document. It \Pdetermined and may neither be copied or \Pmade accessible to outsiders without our\Ppermission.
  7
CONVERTER_11
 11
0.0
 21
1.0
 31
0.0
 73
     1
 44
0.90036014405762
  0
MTEXT
  5
6F
330
47
100
AcDbEntity
  8
1
 62
     1
100
AcDbMText
 10
35.0432198427951
 20
259.0785259969218
 30
0.0
 40
2.0
 41
0.0
 71
     7
 72
     1
  1
F\U+00fcr diese Unterlage behalten wir das Ur-\Pheberrecht. Sie darf nur f\U+00fcr den von uns \Pbestimmten Zweck benutzt und ohne unsere \PZustimmung weder vervielf\U+00e4ltigt noch\PDritten zug\U+00e4nglich gemacht werden.
  7
CONVERTER_11
 11
0.0
 21
1.0
 31
0.0
 73
     1
 44
0.90036014405762
  0
ENDBLK
  5
49
330
47
100
AcDbEntity
  8
0
100
AcDbBlockEnd
  0
BLOCK
  5
104
330
FD
100
AcDbEntity
  8
0
100
AcDbBlockBegin
  2
*D2
 70
     1
 10
0.0
 20
0.0
 30
0.0
  3
*D2
  1

  0
LINE
  5
FE
330
FD
100
AcDbEntity
  8
1
  6
Continuous
 62
     2
100
AcDbLine
 10
203.539222747939
 20
308.787004818
 30
0.0
 11
203.539222747939
 21
290.787004818
 31
0.0
  0
LINE
  5
FF
330
FD
100
AcDbEntity
  8
1
  6
Continuous
 62
     2
100
AcDbLine
 10
194.6453091542
 20
308.787004818
 30
0.0
 11
205.539222747939
 21
308.787004818
 31
0.0
  0
LINE
  5
100
330
FD
100
AcDbEntity
  8
1
  6
Continuous
 62
     2
100
AcDbLine
 10
194.6453091542
 20
290.787004818
 30
0.0
 11
205.539222747939
 21
290.787004818
 31
0.0
  0
SOLID
  5
101
330
FD
100
AcDbEntity
  8
1
 62
     2
100
AcDbTrace
 10
204.0000064894949
 20
305.287004818
 30
0.0
 11
203.0784390063831
 21
305.287004818
 31
0.0
 12
203.539222747939
 22
308.787004818
 32
0.0
 13
203.539222747939
 23
308.787004818
 33
0.0
  0
SOLID
  5
102
330
FD
100
AcDbEntity
  8
1
 62
     2
100
AcDbTrace
 10
203.0784390063831
 20
294.287004818
 30
0.0
 11
204.0000064894949
 21
294.287004818
 31
0.0
 12
203.539222747939
 22
290.787004818
 32
0.0
 13
203.539222747939
 23
290.787004818
 33
0.0
  0
MTEXT
  5
103
330
FD
100
AcDbEntity
  8
1
 62
     3
100
AcDbMText
 10
201.539222747939
 20
290.989941341708
 30
0.0
 40
3.5
 41
0.0
 71
     7
 72
     1
  1
\C3;%%c\C3;\C3;18\C2;\H2.45;\S^ ;\C3;
  7
CONVERTER_11
 11
0.0
 21
1.0
 31
0.0
 73
     1
 44
0.60024009603842
  0
ENDBLK
  5
105
330
FD
100
AcDbEntity
  8
0
100
AcDbBlockEnd
  0
BLOCK
  5
10F
330
108
100
AcDbEntity
  8
0
100
AcDbBlockBegin
  2
*D3
 70
     1
 10
0.0
 20
0.0
 30
0.0
  3
*D3
  1

  0
LINE
  5
109
330
108
100
AcDbEntity
  8
1
  6
Continuous
 62
     2
100
AcDbLine
 10
212.304499357201
 20
316.2870048180528
 30
0.0
 11
212.304499357201
 21
283.2870048179487
 31
0.0
  0
LINE
  5
10A
330
108
100
AcDbEntity
  8
1
  6
Continuous
 62
     2
100
AcDbLine
 10
194.6453091542
 20
316.2870048180528
 30
0.0
 11
214.304499357201
 21
316.2870048180528
 31
0.0
  0
LINE
  5
10B
330
108
100
AcDbEntity
  8
1
  6
Continuous
 62
     2
100
AcDbLine
 10
194.6453091542
 20
283.2870048179487
 30
0.0
 11
214.304499357201
 21
283.2870048179487
 31
0.0
  0
SOLID
  5
10C
330
108
100
AcDbEntity
  8
1
 62
     2
100
AcDbTrace
 10
212.7652830987569
 20
312.7870048180528
 30
0.0
 11
211.8437156156451
 21
312.7870048180528
 31
0.0
 12
212.304499357201
 22
316.2870048180528
 32
0.0
 13
212.304499357201
 23
316.2870048180528
 33
0.0
  0
SOLID
  5
10D
330
108
100
AcDbEntity
  8
1
 62
     2
100
AcDbTrace
 10
211.8437156156451
 20
286.7870048179487
 30
0.0
 11
212.7652830987569
 21
286.7870048179487
 31
0.0
 12
212.304499357201
 22
283.2870048179487
 32
0.0
 13
212.304499357201
 23
283.2870048179487
 33
0.0
  0
MTEXT
  5
10E
330
108
100
AcDbEntity
  8
1
 62
     3
100
AcDbMText
 10
210.304499357201
 20
291.147871667593
 30
0.0
 40
3.5
 41
0.0
 71
     7
 72
     1
  1
\C3;%%c\C3;\C3;33\C2;\H2.45;\S^ ;\C3;
  7
CONVERTER_11
 11
0.0
 21
1.0
 31
0.0
 73
     1
 44
0.60024009603842
  0
ENDBLK
  5
110
330
108
100
AcDbEntity
  8
0
100
AcDbBlockEnd
  0
BLOCK
  5
11A
330
113
100
AcDbEntity
  8
0
100
AcDbBlockBegin
  2
*D4
 70
     1
 10
0.0
 20
0.0
 30
0.0
  3
*D4
  1

  0
LINE
  5
114
330
113
100
AcDbEntity
  8
1
  6
Continuous
 62
     2
100
AcDbLine
 10
221.84034973431
 20
320.787004818
 30
0.0
 11
221.84034973431
 21
278.787004818
 31
0.0
  0
LINE
  5
115
330
113
100
AcDbEntity
  8
1
  6
Continuous
 62
     2
100
AcDbLine
 10
137.4673878414
 20
320.787004818
 30
0.0
 11
223.84034973431
 21
320.787004818
 31
0.0
  0
LINE
  5
116
330
113
100
AcDbEntity
  8
1
  6
Continuous
 62
     2
100
AcDbLine
 10
137.4673878414
 20
278.787004818
 30
0.0
 11
223.84034973431
 21
278.787004818
 31
0.0
  0
SOLID
  5
117
330
113
100
AcDbEntity
  8
1
 62
     2
100
AcDbTrace
 10
222.3011334758659
 20
317.287004818
 30
0.0
 11
221.3795659927541
 21
317.287004818
 31
0.0
 12
221.84034973431
 22
320.787004818
 32
0.0
 13
221.84034973431
 23
320.787004818
 33
0.0
  0
SOLID
  5
118
330
113
100
AcDbEntity
  8
1
 62
     2
100
AcDbTrace
 10
221.3795659927541
 20
282.287004818
 30
0.0
 11
222.3011334758659
 21
282.287004818
 31
0.0
 12
221.84034973431
 22
278.787004818
 32
0.0
 13
221.84034973431
 23
278.787004818
 33
0.0
  0
MTEXT
  5
119
330
113
100
AcDbEntity
  8
1
 62
     3
100
AcDbMText
 10
219.84034973431
 20
291.629480272498
 30
0.0
 40
3.5
 41
0.0
 71
     7
 72
     1
  1
\C3;%%c\C3;\C3;42\C2;\H2.45;\S^ ;\C3;
  7
CONVERTER_11
 11
0.0
 21
1.0
 31
0.0
 73
     1
 44
0.60024009603842
  0
ENDBLK
  5
11B
330
113
100
AcDbEntity
  8
0
100
AcDbBlockEnd
  0
BLOCK
  5
125
330
11E
100
AcDbEntity
  8
0
100
AcDbBlockBegin
  2
*D5
 70
     1
 10
0.0
 20
0.0
 30
0.0
  3
*D5
  1

  0
LINE
  5
11F
330
11E
100
AcDbEntity
  8
1
  6
Continuous
 62
     2
100
AcDbLine
 10
192.6453091542
 20
357.601618523952
 30
0.0
 11
121.6453091542
 21
357.601618523952
 31
0.0
  0
LINE
  5
120
330
11E
100
AcDbEntity
  8
1
  6
Continuous
 62
     2
100
AcDbLine
 10
192.6453091542
 20
317.3626143263
 30
0.0
 11
192.6453091542
 21
359.601618523952
 31
0.0
  0
LINE
  5
121
330
11E
100
AcDbEntity
  8
1
  6
Continuous
 62
     2
100
AcDbLine
 10
121.6453091542
 20
351.7869678969
 30
0.0
 11
121.6453091542
 21
359.601618523952
 31
0.0
  0
SOLID
  5
122
330
11E
100
AcDbEntity
  8
1
 62
     2
100
AcDbTrace
 10
189.1453091542
 20
357.1408347823962
 30
0.0
 11
189.1453091542
 21
358.0624022655079
 31
0.0
 12
192.6453091542
 22
357.601618523952
 32
0.0
 13
192.6453091542
 23
357.601618523952
 33
0.0
  0
SOLID
  5
123
330
11E
100
AcDbEntity
  8
1
 62
     2
100
AcDbTrace
 10
125.1453091542
 20
358.0624022655079
 30
0.0
 11
125.1453091542
 21
357.1408347823962
 31
0.0
 12
121.6453091542
 22
357.601618523952
 32
0.0
 13
121.6453091542
 23
357.601618523952
 33
0.0
  0
MTEXT
  5
124
330
11E
100
AcDbEntity
  8
1
 62
     3
100
AcDbMText
 10
154.949094800187
 20
359.601618523952
 30
0.0
 40
3.5
 41
0.0
 71
     7
 72
     1
  1
\C3;\C3;\C3;71\C2;\H2.45;\S^ ;\C3;
  7
CONVERTER_11
 11
0.9999999999970619
 21
2.424068405545306E-6
 31
0.0
 73
     1
 44
0.60024009603842
  0
ENDBLK
  5
126
330
11E
100
AcDbEntity
  8
0
100
AcDbBlockEnd
  0
BLOCK
  5
130
330
129
100
AcDbEntity
  8
0
100
AcDbBlockBegin
  2
*D6
 70
     1
 10
0.0
 20
0.0
 30
0.0
  3
*D6
  1

  0
LINE
  5
12A
330
129
100
AcDbEntity
  8
1
  6
Continuous
 62
     2
100
AcDbLine
 10
192.6453091542
 20
365.445000206186
 30
0.0
 11
92.6453091542
 21
365.445000206186
 31
0.0
  0
LINE
  5
12B
330
129
100
AcDbEntity
  8
1
  6
Continuous
 62
     2
100
AcDbLine
 10
192.6453091542
 20
317.3626143263
 30
0.0
 11
192.6453091542
 21
367.445000206186
 31
0.0
  0
LINE
  5
12C
330
129
100
AcDbEntity
  8
1
  6
Continuous
 62
     2
100
AcDbLine
 10
92.6453091542
 20
351.787004818
 30
0.0
 11
92.6453091542
 21
367.445000206186
 31
0.0
  0
SOLID
  5
12D
330
129
100
AcDbEntity
  8
1
 62
     2
100
AcDbTrace
 10
189.1453091542
 20
364.9842164646302
 30
0.0
 11
189.1453091542
 21
365.9057839477419
 31
0.0
 12
192.6453091542
 22
365.445000206186
 32
0.0
 13
192.6453091542
 23
365.445000206186
 33
0.0
  0
SOLID
  5
12E
330
129
100
AcDbEntity
  8
1
 62
     2
100
AcDbTrace
 10
96.1453091542
 20
365.9057839477419
 30
0.0
 11
96.1453091542
 21
364.9842164646302
 31
0.0
 12
92.6453091542
 22
365.445000206186
 32
0.0
 13
92.6453091542
 23
365.445000206186
 33
0.0
  0
MTEXT
  5
12F
330
129
100
AcDbEntity
  8
1
 62
     3
100
AcDbMText
 10
140.663478792193
 20
367.445000206186
 30
0.0
 40
3.5
 41
0.0
 71
     7
 72
     1
  1
\C3;\C3;\C3;100\C2;\H2.45;\S^ ;\C3;
  7
CONVERTER_11
 11
0.9999999999970619
 21
2.424068405545306E-6
 31
0.0
 73
     1
 44
0.60024009603842
  0
ENDBLK
  5
131
330
129
100
AcDbEntity
  8
0
100
AcDbBlockEnd
  0
BLOCK
  5
13B
330
134
100
AcDbEntity
  8
0
100
AcDbBlockBegin
  2
*D7
 70
     1
 10
0.0
 20
0.0
 30
0.0
  3
*D7
  1

  0
LINE
  5
135
330
134
100
AcDbEntity
  8
1
  6
Continuous
 62
     2
100
AcDbLine
 10
192.6453091542
 20
373.269102325248
 30
0.0
 11
42.64530915420001
 21
373.269102325248
 31
0.0
  0
LINE
  5
136
330
134
100
AcDbEntity
  8
1
  6
Continuous
 62
     2
100
AcDbLine
 10
192.6453091542
 20
317.3626143263
 30
0.0
 11
192.6453091542
 21
375.269102325248
 31
0.0
  0
LINE
  5
137
330
134
100
AcDbEntity
  8
1
  6
Continuous
 62
     2
100
AcDbLine
 10
42.64530915420001
 20
335.3871963806
 30
0.0
 11
42.64530915420001
 21
375.269102325248
 31
0.0
  0
SOLID
  5
138
330
134
100
AcDbEntity
  8
1
 62
     2
100
AcDbTrace
 10
189.1453091542
 20
372.8083185836921
 30
0.0
 11
189.1453091542
 21
373.7298860668039
 31
0.0
 12
192.6453091542
 22
373.269102325248
 32
0.0
 13
192.6453091542
 23
373.269102325248
 33
0.0
  0
SOLID
  5
139
330
134
100
AcDbEntity
  8
1
 62
     2
100
AcDbTrace
 10
46.14530915420001
 20
373.7298860668039
 30
0.0
 11
46.14530915420001
 21
372.8083185836921
 31
0.0
 12
42.64530915420001
 22
373.269102325248
 32
0.0
 13
42.64530915420001
 23
373.269102325248
 33
0.0
  0
MTEXT
  5
13A
330
134
100
AcDbEntity
  8
1
 62
     3
100
AcDbMText
 10
123.542803120307
 20
375.269102325248
 30
0.0
 40
3.5
 41
0.0
 71
     7
 72
     1
  1
\C3;\C3;\C3;150\C2;\H2.45;\S^ ;\C3;
  7
CONVERTER_11
 11
0.9999999999970619
 21
2.424068405545306E-6
 31
0.0
 73
     1
 44
0.60024009603842
  0
ENDBLK
  5
13C
330
134
100
AcDbEntity
  8
0
100
AcDbBlockEnd
  0
BLOCK
  5
143
330
13F
100
AcDbEntity
  8
0
100
AcDbBlockBegin
  2
*D8
 70
     1
 10
0.0
 20
0.0
 30
0.0
  3
*D8
  1

  0
LINE
  5
140
330
13F
100
AcDbEntity
  8
1
  6
Continuous
 62
     2
100
AcDbLine
 10
132.1357956175709
 20
330.7492356890408
 30
0.0
 11
123.1463003795103
 21
322.8172541904083
 31
0.0
  0
SOLID
  5
141
330
13F
100
AcDbEntity
  8
1
 62
     2
100
AcDbTrace
 10
125.4658560735418
 20
325.4784537392525
 30
0.0
 11
126.0755882559503
 21
324.7874303737544
 31
0.0
 12
123.1463003795103
 22
322.8172541904083
 32
0.0
 13
123.1463003795103
 23
322.8172541904083
 33
0.0
  0
MTEXT
  5
142
330
13F
100
AcDbEntity
  8
1
 62
     3
100
AcDbMText
 10
125.2487712236741
 20
327.3396470044822
 30
0.0
 40
3.5
 41
0.0
 71
     7
 72
     1
  1
\C3; R\C3;\C3;6\C2;\H2.45;\S^ ;\C3;
  7
CONVERTER_11
 11
0.7498347957816192
 21
0.661625104598622
 31
0.0
 73
     1
 44
0.60024009603842
  0
ENDBLK
  5
144
330
13F
100
AcDbEntity
  8
0
100
AcDbBlockEnd
  0
BLOCK
  5
14D
330
146
100
AcDbEntity
  8
0
100
AcDbBlockBegin
  2
*D9
 70
     1
 10
0.0
 20
0.0
 30
0.0
  3
*D9
  1

  0
LINE
  5
147
330
146
100
AcDbEntity
  8
1
  6
Continuous
 62
     2
100
AcDbLine
 10
176.7980647452846
 20
320.787004818
 30
0.0
 11
178.7980647452846
 21
320.787004818
 31
0.0
  0
LINE
  5
148
330
146
100
AcDbEntity
  8
1
  6
Continuous
 62
     2
100
AcDbLine
 10
137.4673878414
 20
320.787004818
 30
0.0
 11
176.7980647452846
 21
320.787004818
 31
0.0
  0
ARC
  5
149
330
146
100
AcDbEntity
  8
1
  6
Continuous
 62
     2
100
AcDbCircle
 10
135.4673878414
 20
320.787004818
 30
0.0
 40
41.33067690388462
100
AcDbArc
 50
348.222044133412
 51
15.30337960097135
  0
SOLID
  5
14A
330
146
100
AcDbEntity
  8
1
 62
     2
100
AcDbTrace
 10
176.7060226042419
 20
314.0142130806797
 30
0.0
 11
175.7911800254744
 21
314.1253422037887
 31
0.0
 12
176.6706560618074
 22
317.5442372823189
 32
0.0
 13
176.6706560618074
 23
317.5442372823189
 33
0.0
  0
SOLID
  5
14B
330
146
100
AcDbEntity
  8
1
 62
     2
100
AcDbTrace
 10
176.1895432563097
 20
324.2643634785264
 30
0.0
 11
177.1102847712283
 21
324.3033723061733
 31
0.0
 12
176.7980647452846
 22
320.787004818
 32
0.0
 13
176.7980647452846
 23
320.787004818
 33
0.0
  0
MTEXT
  5
14C
330
146
100
AcDbEntity
  8
1
 62
     3
100
AcDbMText
 10
177.4004916710296
 20
332.2612624916949
 30
0.0
 40
3.5
 41
0.0
 71
     7
 72
     1
  1
\C3;\C3;\C3;4.5%%d\C2;\H2.45;\S^ ;\C3;
  7
CONVERTER_11
 11
0.1846273787556029
 21
-0.9828085932743137
 31
0.0
 73
     1
 44
0.60024009603842
  0
ENDBLK
  5
14E
330
146
100
AcDbEntity
  8
0
100
AcDbBlockEnd
  0
ENDSEC
  0
SECTION
  2
ENTITIES
  0
INSERT
  5
6C
330
1F
100
AcDbEntity
  8
0
100
AcDbBlockReference
  2
Urheberrecht_DE-EN
 10
35.0432198427951
 20
315.367912914228
 30
0.0
  0
LINE
  5
70
330
1F
100
AcDbEntity
  8
BEZUGSACHSEN
  6
Continuous
 62
     7
100
AcDbLine
 10
42.6453091542
 20
266.1868352994
 30
0.0
 11
42.6453091542
 21
287.777004818
 31
0.0
  0
LINE
  5
71
330
1F
100
AcDbEntity
  8
BEZUGSACHSEN
  6
Continuous
 62
     7
100
AcDbLine
 10
42.6453091542
 20
311.797004818
 30
0.0
 11
42.6453091542
 21
333.3871963806
 31
0.0
  0
LINE
  5
72
330
1F
100
AcDbEntity
  8
BEZUGSACHSEN
  6
Continuous
 62
     9
100
AcDbLine
 10
44.5452346694
 20
335.3846910863
 30
0.0
 11
44.5452346694
 21
315.4635372042
 31
0.0
  0
LINE
  5
73
330
1F
100
AcDbEntity
  8
BEZUGSACHSEN
  6
Continuous
 62
     9
100
AcDbLine
 10
44.5452346694
 20
284.1104724317
 30
0.0
 11
44.5452346694
 21
264.1893185497
 31
0.0
  0
LINE
  5
74
330
1F
100
AcDbEntity
  8
BEZUGSACHSEN
  6
Continuous
 62
     7
100
AcDbLine
 10
44.6453091542
 20
287.3833648696
 30
0.0
 11
44.6453091542
 21
289.777004818
 31
0.0
  0
LINE
  5
75
330
1F
100
AcDbEntity
  8
BEZUGSACHSEN
  6
Continuous
 62
     7
100
AcDbLine
 10
44.6453091542
 20
309.797004818
 30
0.0
 11
44.6453091542
 21
312.1906447664
 31
0.0
  0
LINE
  5
76
330
1F
100
AcDbEntity
  8
BEZUGSACHSEN
  6
Continuous
 62
     9
100
AcDbLine
 10
50.6453091542
 20
283.4283572305
 30
0.0
 11
50.6453091542
 21
289.777004818
 31
0.0
  0
LINE
  5
77
330
1F
100
AcDbEntity
  8
BEZUGSACHSEN
  6
Continuous
 62
     9
100
AcDbLine
 10
50.6453091542
 20
309.797004818
 30
0.0
 11
50.6453091542
 21
316.1456524054
 31
0.0
  0
LINE
  5
78
330
1F
100
AcDbEntity
  8
BEZUGSACHSEN
  6
Continuous
 62
     7
100
AcDbLine
 10
52.6453091542
 20
312.6566603438
 30
0.0
 11
52.6453091542
 21
286.9173492922
 31
0.0
  0
LINE
  5
79
330
1F
100
AcDbEntity
  8
BEZUGSACHSEN
  6
Continuous
 62
     7
100
AcDbLine
 10
43.9122620812
 20
284.777004818
 30
0.0
 11
43.7911518298
 21
284.5446688225
 31
0.0
  0
LINE
  5
7A
330
1F
100
AcDbEntity
  8
BEZUGSACHSEN
  6
Continuous
 62
     7
100
AcDbLine
 10
43.7911518298
 20
315.0293408134
 30
0.0
 11
43.9122620812
 21
314.797004818
 31
0.0
  0
LINE
  5
7B
330
1F
100
AcDbEntity
  8
BEZUGSACHSEN
  6
Continuous
 62
     7
100
AcDbLine
 10
109.39771389
 20
249.787004818
 30
0.0
 11
92.6453091542
 21
249.787004818
 31
0.0
  0
LINE
  5
7C
330
1F
100
AcDbEntity
  8
BEZUGSACHSEN
  6
Continuous
 62
     7
100
AcDbLine
 10
115.8929044184
 20
249.787004818
 30
0.0
 11
121.6453091542
 21
249.787004818
 31
0.0
  0
LINE
  5
7D
330
1F
100
AcDbEntity
  8
BEZUGSACHSEN
  6
Continuous
 62
     7
100
AcDbLine
 10
42.6453091542
 20
287.777004818
 30
0.0
 11
44.6453091542
 21
289.777004818
 31
0.0
  0
LINE
  5
7E
330
1F
100
AcDbEntity
  8
BEZUGSACHSEN
  6
Continuous
 62
     7
100
AcDbLine
 10
111.7703091542
 20
253.787004818
 30
0.0
 11
113.5203091542
 21
253.787004818
 31
0.0
  0
LINE
  5
7F
330
1F
100
AcDbEntity
  8
BEZUGSACHSEN
  6
Continuous
 62
     7
100
AcDbLine
 10
44.6453091542
 20
309.797004818
 30
0.0
 11
42.6453091542
 21
311.797004818
 31
0.0
  0
LWPOLYLINE
  5
80
330
1F
100
AcDbEntity
  8
BEZUGSACHSEN
  6
DOT_CENTER
 62
     7
100
AcDbPolyline
 90
        2
 70
     0
 43
0.25
 10
77.6453091542
 20
299.787004818
 10
77.6453091542
 20
290.787004818
  0
LWPOLYLINE
  5
81
330
1F
100
AcDbEntity
  8
BEZUGSACHSEN
  6
DOT_CENTER
 62
     7
100
AcDbPolyline
 90
        2
 70
     0
 43
0.25
 10
77.6453091542
 20
299.787004818
 10
77.6453091542
 20
308.787004818
  0
LINE
  5
82
330
1F
100
AcDbEntity
  8
FASEN
  6
Continuous
 62
     7
100
AcDbLine
 10
98.0467951186
 20
260.9572481873
 30
0.0
 11
109.39771389
 21
260.9572481873
 31
0.0
  0
LINE
  5
83
330
1F
100
AcDbEntity
  8
0
  6
Continuous
 62
     7
100
AcDbLine
 10
115.8929044184
 20
260.9572481873
 30
0.0
 11
121.6453091542
 21
260.9572481873
 31
0.0
  0
LINE
  5
84
330
1F
100
AcDbEntity
  8
BEZUGSACHSEN
  6
Continuous
 62
     7
100
AcDbLine
 10
91.9447378655
 20
262.104754818
 30
0.0
 11
91.0233718133
 21
262.104754818
 31
0.0
  0
LINE
  5
85
330
1F
100
AcDbEntity
  8
BEZUGSACHSEN
  6
Continuous
 62
     7
100
AcDbLine
 10
90.1453091542
 20
261.904754818
 30
0.0
 11
44.5452346694
 21
264.1893185497
 31
0.0
  0
LINE
  5
86
330
1F
100
AcDbEntity
  8
BEZUGSACHSEN
  6
Continuous
 62
     7
100
AcDbLine
 10
90.7645527682
 20
262.0706806443
 30
0.0
 11
90.1453091542
 21
261.904754818
 31
0.0
  0
LINE
  5
87
330
1F
100
AcDbEntity
  8
0
  6
Continuous
 62
     7
100
AcDbLine
 10
111.7703091542
 20
266.2646242343
 30
0.0
 11
113.5203091542
 21
266.2646242343
 31
0.0
  0
LINE
  5
88
330
1F
100
AcDbEntity
  8
FASEN
  6
Continuous
 62
     7
100
AcDbLine
 10
105.617183076
 20
267.887004818
 30
0.0
 11
121.6453091542
 21
267.887004818
 31
0.0
  0
LINE
  5
89
330
1F
100
AcDbEntity
  8
0
  6
Continuous
 62
     7
100
AcDbLine
 10
105.617183076
 20
268.287004818
 30
0.0
 11
121.6453091542
 21
268.287004818
 31
0.0
  0
LINE
  5
8A
330
1F
100
AcDbEntity
  8
BEZUGSACHSEN
  6
Continuous
 62
     7
100
AcDbLine
 10
90.1453091542
 20
337.669254818
 30
0.0
 11
90.1453091542
 21
261.904754818
 31
0.0
  0
LINE
  5
8B
330
1F
100
AcDbEntity
  8
BEZUGSACHSEN
  6
Continuous
 62
     9
100
AcDbLine
 10
90.7645527682
 20
262.0706806443
 30
0.0
 11
90.7645527682
 21
337.5033289917
 31
0.0
  0
LINE
  5
8C
330
1F
100
AcDbEntity
  8
BEZUGSACHSEN
  6
Continuous
 62
     9
100
AcDbLine
 10
91.0233718133
 20
262.104754818
 30
0.0
 11
91.0233718133
 21
337.469254818
 31
0.0
  0
LINE
  5
8D
330
1F
100
AcDbEntity
  8
BEZUGSACHSEN
  6
Continuous
 62
     9
100
AcDbLine
 10
91.9447378655
 20
262.104754818
 30
0.0
 11
91.9447378655
 21
337.469254818
 31
0.0
  0
LINE
  5
8E
330
1F
100
AcDbEntity
  8
BEZUGSACHSEN
  6
Continuous
 62
     7
100
AcDbLine
 10
92.6453091542
 20
349.787004818
 30
0.0
 11
92.6453091542
 21
249.787004818
 31
0.0
  0
LINE
  5
8F
330
1F
100
AcDbEntity
  8
BEZUGSACHSEN
  6
Continuous
 62
     7
100
AcDbLine
 10
114.5203091542
 20
347.4096000822
 30
0.0
 11
115.8929044184
 21
349.787004818
 31
0.0
  0
LINE
  5
90
330
1F
100
AcDbEntity
  8
BEZUGSACHSEN
  6
Continuous
 62
     7
100
AcDbLine
 10
114.5203091542
 20
252.1644095538
 30
0.0
 11
115.8929044184
 21
249.787004818
 31
0.0
  0
LWPOLYLINE
  5
91
330
1F
100
AcDbEntity
  8
BEZUGSACHSEN
  6
DOT_CENTER
 62
     7
100
AcDbPolyline
 90
        2
 70
     0
 43
0.25
 10
99.6453091542
 20
341.9363766733
 10
99.6453091542
 20
352.787004818
  0
LINE
  5
92
330
1F
100
AcDbEntity
  8
BEZUGSACHSEN
  6
Continuous
 62
     9
100
AcDbLine
 10
42.6453091542
 20
286.340820849
 30
0.0
 11
44.6453091542
 21
287.3833648696
 31
0.0
  0
LINE
  5
93
330
1F
100
AcDbEntity
  8
RUNDUNGEN
  6
Continuous
 62
     7
100
AcDbLine
 10
191.7237682499
 20
283.2144779759
 30
0.0
 11
135.4673878414
 21
278.787004818
 31
0.0
  0
LINE
  5
94
330
1F
100
AcDbEntity
  8
0
  6
Continuous
 62
     7
100
AcDbLine
 10
135.4673878414
 20
278.787004818
 30
0.0
 11
191.7237682499
 21
283.2144779759
 31
0.0
  0
LINE
  5
95
330
1F
100
AcDbEntity
  8
RUNDUNGEN
  6
Continuous
 62
     7
100
AcDbLine
 10
135.4673878414
 20
278.787004818
 30
0.0
 11
127.6453091542
 21
278.787004818
 31
0.0
  0
LINE
  5
96
330
1F
100
AcDbEntity
  8
0
  6
Continuous
 62
     7
100
AcDbLine
 10
127.6453091542
 20
278.787004818
 30
0.0
 11
135.4673878414
 21
278.787004818
 31
0.0
  0
LINE
  5
97
330
1F
100
AcDbEntity
  8
BEZUGSACHSEN
  6
Continuous
 62
     9
100
AcDbLine
 10
44.6453091542
 20
312.1906447664
 30
0.0
 11
42.6453091542
 21
313.233188787
 31
0.0
  0
LINE
  5
98
330
1F
100
AcDbEntity
  8
FASEN
  6
Continuous
 62
     9
100
AcDbLine
 10
105.617183076
 20
267.887004818
 30
0.0
 11
105.617183076
 21
268.287004818
 31
0.0
  0
LINE
  5
99
330
1F
100
AcDbEntity
  8
BEZUGSACHSEN
  6
Continuous
 62
     9
100
AcDbLine
 10
52.1991551011
 20
284.777004818
 30
0.0
 11
43.9122620812
 21
284.777004818
 31
0.0
  0
LINE
  5
9A
330
1F
100
AcDbEntity
  8
FASEN
  6
Continuous
 62
     9
100
AcDbLine
 10
107.6453091542
 20
290.187004818
 30
0.0
 11
107.6453091542
 21
289.787004818
 31
0.0
  0
LINE
  5
9B
330
1F
100
AcDbEntity
  8
FASEN
  6
Continuous
 62
     9
100
AcDbLine
 10
107.6453091542
 20
309.387004818
 30
0.0
 11
107.6453091542
 21
309.787004818
 31
0.0
  0
LINE
  5
9C
330
1F
100
AcDbEntity
  8
0
  6
Continuous
 62
     7
100
AcDbLine
 10
109.39771389
 20
349.787004818
 30
0.0
 11
109.39771389
 21
309.787004818
 31
0.0
  0
LINE
  5
9D
330
1F
100
AcDbEntity
  8
0
  6
Continuous
 62
     7
100
AcDbLine
 10
109.39771389
 20
289.787004818
 30
0.0
 11
109.39771389
 21
268.287004818
 31
0.0
  0
LINE
  5
9E
330
1F
100
AcDbEntity
  8
0
  6
Continuous
 62
     7
100
AcDbLine
 10
109.39771389
 20
260.9572481873
 30
0.0
 11
109.39771389
 21
249.787004818
 31
0.0
  0
LINE
  5
9F
330
1F
100
AcDbEntity
  8
0
  6
Continuous
 62
     7
100
AcDbLine
 10
110.7703091542
 20
347.4095666557
 30
0.0
 11
110.7703091542
 21
309.787004818
 31
0.0
  0
LINE
  5
A0
330
1F
100
AcDbEntity
  8
0
  6
Continuous
 62
     7
100
AcDbLine
 10
110.7703091542
 20
289.787004818
 30
0.0
 11
110.7703091542
 21
268.287004818
 31
0.0
  0
LINE
  5
A1
330
1F
100
AcDbEntity
  8
0
  6
Continuous
 62
     7
100
AcDbLine
 10
110.7703091542
 20
252.1644470877
 30
0.0
 11
110.7703091542
 21
264.9050610648
 31
0.0
  0
LINE
  5
A2
330
1F
100
AcDbEntity
  8
0
  6
Continuous
 62
     9
100
AcDbLine
 10
111.7703091542
 20
253.787004818
 30
0.0
 11
111.7703091542
 21
266.2646242343
 31
0.0
  0
LINE
  5
A3
330
1F
100
AcDbEntity
  8
0
  6
Continuous
 62
     9
100
AcDbLine
 10
111.7703091542
 20
268.287004818
 30
0.0
 11
111.7703091542
 21
289.787004818
 31
0.0
  0
LINE
  5
A4
330
1F
100
AcDbEntity
  8
0
  6
Continuous
 62
     9
100
AcDbLine
 10
111.7703091542
 20
309.787004818
 30
0.0
 11
111.7703091542
 21
345.787004818
 31
0.0
  0
LINE
  5
A5
330
1F
100
AcDbEntity
  8
BEZUGSACHSEN
  6
Continuous
 62
     7
100
AcDbLine
 10
50.6453091542
 20
289.777004818
 30
0.0
 11
44.6453091542
 21
289.777004818
 31
0.0
  0
LINE
  5
A6
330
1F
100
AcDbEntity
  8
0
  6
Continuous
 62
     7
100
AcDbLine
 10
107.6453091542
 20
289.787004818
 30
0.0
 11
121.6453091542
 21
289.787004818
 31
0.0
  0
LINE
  5
A7
330
1F
100
AcDbEntity
  8
FASEN
  6
Continuous
 62
     7
100
AcDbLine
 10
121.6453091542
 20
290.187004818
 30
0.0
 11
107.6453091542
 21
290.187004818
 31
0.0
  0
LWPOLYLINE
  5
A8
330
1F
100
AcDbEntity
  8
DEFAULT_2
  6
DASHED
 62
     8
100
AcDbPolyline
 90
        2
 70
     0
 43
0.35
 10
192.6453091542
 20
290.787004818
 10
142.6453091542
 20
290.787004818
  0
LINE
  5
A9
330
1F
100
AcDbEntity
  8
0
  6
Continuous
 62
     9
100
AcDbLine
 10
113.5203091542
 20
253.787004818
 30
0.0
 11
113.5203091542
 21
266.2646242343
 31
0.0
  0
LINE
  5
AA
330
1F
100
AcDbEntity
  8
0
  6
Continuous
 62
     9
100
AcDbLine
 10
113.5203091542
 20
268.287004818
 30
0.0
 11
113.5203091542
 21
289.787004818
 31
0.0
  0
LINE
  5
AB
330
1F
100
AcDbEntity
  8
0
  6
Continuous
 62
     9
100
AcDbLine
 10
113.5203091542
 20
309.787004818
 30
0.0
 11
113.5203091542
 21
345.787004818
 31
0.0
  0
LINE
  5
AC
330
1F
100
AcDbEntity
  8
0
  6
Continuous
 62
     7
100
AcDbLine
 10
114.5203091542
 20
252.1644470877
 30
0.0
 11
114.5203091542
 21
264.9050610648
 31
0.0
  0
LINE
  5
AD
330
1F
100
AcDbEntity
  8
0
  6
Continuous
 62
     7
100
AcDbLine
 10
114.5203091542
 20
268.287004818
 30
0.0
 11
114.5203091542
 21
289.787004818
 31
0.0
  0
LINE
  5
AE
330
1F
100
AcDbEntity
  8
0
  6
Continuous
 62
     7
100
AcDbLine
 10
114.5203091542
 20
309.787004818
 30
0.0
 11
114.5203091542
 21
347.4095666557
 31
0.0
  0
LINE
  5
AF
330
1F
100
AcDbEntity
  8
0
  6
Continuous
 62
     7
100
AcDbLine
 10
115.8929044184
 20
349.787004818
 30
0.0
 11
115.8929044184
 21
309.787004818
 31
0.0
  0
LINE
  5
B0
330
1F
100
AcDbEntity
  8
0
  6
Continuous
 62
     7
100
AcDbLine
 10
115.8929044184
 20
289.787004818
 30
0.0
 11
115.8929044184
 21
268.287004818
 31
0.0
  0
LINE
  5
B1
330
1F
100
AcDbEntity
  8
0
  6
Continuous
 62
     7
100
AcDbLine
 10
115.8929044184
 20
260.9572481873
 30
0.0
 11
115.8929044184
 21
249.787004818
 31
0.0
  0
LWPOLYLINE
  5
B2
330
1F
100
AcDbEntity
  8
BEZUGSACHSEN
  6
DOT_CENTER
 62
     7
100
AcDbPolyline
 90
        2
 70
     0
 43
0.25
 10
195.6453091542
 20
299.787004818
 10
39.6453091542
 20
299.787004818
  0
LINE
  5
B3
330
1F
100
AcDbEntity
  8
0
  6
Continuous
 62
     7
100
AcDbLine
 10
121.6453091542
 20
349.7869678969
 30
0.0
 11
121.6453091542
 21
309.787004818
 31
0.0
  0
LINE
  5
B4
330
1F
100
AcDbEntity
  8
0
  6
Continuous
 62
     7
100
AcDbLine
 10
121.6453091542
 20
289.787004818
 30
0.0
 11
121.6453091542
 21
268.287004818
 31
0.0
  0
LINE
  5
B5
330
1F
100
AcDbEntity
  8
0
  6
Continuous
 62
     7
100
AcDbLine
 10
121.6453091542
 20
260.9572481873
 30
0.0
 11
121.6453091542
 21
249.7870066858
 31
0.0
  0
LINE
  5
B6
330
1F
100
AcDbEntity
  8
FASEN
  6
Continuous
 62
     7
100
AcDbLine
 10
121.6453091542
 20
260.9572481873
 30
0.0
 11
121.6453091542
 21
268.287004818
 31
0.0
  0
LINE
  5
B7
330
1F
100
AcDbEntity
  8
FASEN
  6
Continuous
 62
     7
100
AcDbLine
 10
121.6453091542
 20
289.787004818
 30
0.0
 11
121.6453091542
 21
309.787004818
 31
0.0
  0
LINE
  5
B8
330
1F
100
AcDbEntity
  8
RUNDUNGEN
  6
Continuous
 62
     9
100
AcDbLine
 10
127.6453091542
 20
320.787004818
 30
0.0
 11
127.6453091542
 21
278.787004818
 31
0.0
  0
LWPOLYLINE
  5
B9
330
1F
100
AcDbEntity
  8
DEFAULT_2
  6
DASHED
 62
     8
100
AcDbPolyline
 90
        2
 70
     0
 43
0.35
 10
192.6453091542
 20
308.787004818
 10
142.6453091542
 20
308.787004818
  0
LINE
  5
BA
330
1F
100
AcDbEntity
  8
FASEN
  6
Continuous
 62
     7
100
AcDbLine
 10
107.6453091542
 20
309.387004818
 30
0.0
 11
121.6453091542
 21
309.387004818
 31
0.0
  0
LINE
  5
BB
330
1F
100
AcDbEntity
  8
0
  6
Continuous
 62
     7
100
AcDbLine
 10
107.6453091542
 20
309.787004818
 30
0.0
 11
121.6453091542
 21
309.787004818
 31
0.0
  0
LINE
  5
BC
330
1F
100
AcDbEntity
  8
BEZUGSACHSEN
  6
Continuous
 62
     7
100
AcDbLine
 10
50.6453091542
 20
309.797004818
 30
0.0
 11
44.6453091542
 21
309.797004818
 31
0.0
  0
LINE
  5
BD
330
1F
100
AcDbEntity
  8
0
  6
Continuous
 62
     7
100
AcDbLine
 10
135.4673878414
 20
320.787004818
 30
0.0
 11
135.4673878414
 21
278.787004818
 31
0.0
  0
LINE
  5
BE
330
1F
100
AcDbEntity
  8
BEZUGSACHSEN
  6
Continuous
 62
     7
100
AcDbLine
 10
109.39771389
 20
249.787004818
 30
0.0
 11
110.7703091542
 21
252.1644095538
 31
0.0
  0
LINE
  5
BF
330
1F
100
AcDbEntity
  8
BEZUGSACHSEN
  6
Continuous
 62
     9
100
AcDbLine
 10
43.9122620812
 20
314.797004818
 30
0.0
 11
52.1991551011
 21
314.797004818
 31
0.0
  0
LINE
  5
C0
330
1F
100
AcDbEntity
  8
BEZUGSACHSEN
  6
Continuous
 62
     7
100
AcDbLine
 10
109.39771389
 20
349.787004818
 30
0.0
 11
110.7703091542
 21
347.4096000822
 31
0.0
  0
LINE
  5
C1
330
1F
100
AcDbEntity
  8
RUNDUNGEN
  6
Continuous
 62
     7
100
AcDbLine
 10
135.4673878414
 20
320.787004818
 30
0.0
 11
127.6453091542
 21
320.787004818
 31
0.0
  0
LINE
  5
C2
330
1F
100
AcDbEntity
  8
0
  6
Continuous
 62
     7
100
AcDbLine
 10
127.6453091542
 20
320.787004818
 30
0.0
 11
135.4673878414
 21
320.787004818
 31
0.0
  0
LINE
  5
C3
330
1F
100
AcDbEntity
  8
RUNDUNGEN
  6
Continuous
 62
     7
100
AcDbLine
 10
191.7237682499
 20
316.3595316601
 30
0.0
 11
135.4673878414
 21
320.787004818
 31
0.0
  0
LINE
  5
C4
330
1F
100
AcDbEntity
  8
0
  6
Continuous
 62
     7
100
AcDbLine
 10
135.4673878414
 20
320.787004818
 30
0.0
 11
191.7237682499
 21
316.3595316601
 31
0.0
  0
LWPOLYLINE
  5
C5
330
1F
100
AcDbEntity
  8
DEFAULT_2
  6
DASHED
 62
     8
100
AcDbPolyline
 90
        2
 70
     0
 43
0.35
 10
142.6453091542
 20
308.787004818
 10
142.6453091542
 20
290.787004818
  0
LINE
  5
C6
330
1F
100
AcDbEntity
  8
BEZUGSACHSEN
  6
Continuous
 62
     7
100
AcDbLine
 10
90.7645527682
 20
337.5033289917
 30
0.0
 11
90.1453091542
 21
337.669254818
 31
0.0
  0
LINE
  5
C7
330
1F
100
AcDbEntity
  8
BEZUGSACHSEN
  6
Continuous
 62
     7
100
AcDbLine
 10
90.1453091542
 20
337.669254818
 30
0.0
 11
44.5452346694
 21
335.3846910863
 31
0.0
  0
LINE
  5
C8
330
1F
100
AcDbEntity
  8
BEZUGSACHSEN
  6
Continuous
 62
     7
100
AcDbLine
 10
91.9447378655
 20
337.469254818
 30
0.0
 11
91.0233718133
 21
337.469254818
 31
0.0
  0
LINE
  5
C9
330
1F
100
AcDbEntity
  8
BEZUGSACHSEN
  6
Continuous
 62
     7
100
AcDbLine
 10
111.7703091542
 20
345.787004818
 30
0.0
 11
113.5203091542
 21
345.787004818
 31
0.0
  0
LINE
  5
CA
330
1F
100
AcDbEntity
  8
BEZUGSACHSEN
  6
Continuous
 62
     7
100
AcDbLine
 10
109.39771389
 20
349.787004818
 30
0.0
 11
104.6453091542
 21
349.787004818
 31
0.0
  0
LINE
  5
CB
330
1F
100
AcDbEntity
  8
BEZUGSACHSEN
  6
Continuous
 62
     7
100
AcDbLine
 10
94.6453091542
 20
349.787004818
 30
0.0
 11
92.6453091542
 21
349.787004818
 31
0.0
  0
LINE
  5
CC
330
1F
100
AcDbEntity
  8
BEZUGSACHSEN
  6
Continuous
 62
     7
100
AcDbLine
 10
115.8929044184
 20
349.787004818
 30
0.0
 11
121.6453091542
 21
349.787004818
 31
0.0
  0
LINE
  5
CD
330
1F
100
AcDbEntity
  8
RUNDUNGEN
  6
Continuous
 62
     9
100
AcDbLine
 10
191.7237682499
 20
283.2144779759
 30
0.0
 11
191.7237682499
 21
316.3595316601
 31
0.0
  0
LINE
  5
CE
330
1F
100
AcDbEntity
  8
RUNDUNGEN
  6
Continuous
 62
     7
100
AcDbLine
 10
192.6453091542
 20
284.2113953096
 30
0.0
 11
192.6453091542
 21
315.3626143263
 31
0.0
  0
LWPOLYLINE
  5
CF
330
1F
100
AcDbEntity
  8
1
  6
Continuous
 62
     7
100
AcDbPolyline
 90
        2
 70
     0
 43
0.25
 10
192.6453091542
 20
315.3626143263
 10
192.6453091542
 20
316.2870048180528
  0
LWPOLYLINE
  5
D0
330
1F
100
AcDbEntity
  8
1
  6
Continuous
 62
     7
100
AcDbPolyline
 90
        2
 70
     0
 43
0.25
 10
191.7237682499
 20
316.3595316601
 10
192.6453091542093
 20
316.2870048180528
  0
LWPOLYLINE
  5
D1
330
1F
100
AcDbEntity
  8
1
  6
Continuous
 62
     7
100
AcDbPolyline
 90
        2
 70
     0
 43
0.25
 10
191.7237682499
 20
283.2144779759
 10
192.6453091542
 20
283.2870048179487
  0
LWPOLYLINE
  5
D2
330
1F
100
AcDbEntity
  8
1
  6
Continuous
 62
     7
100
AcDbPolyline
 90
        2
 70
     0
 43
0.25
 10
192.6453091542
 20
284.2113953096
 10
192.6453091542
 20
283.2870048179487
  0
ARC
  5
D3
330
1F
100
AcDbEntity
  8
FASEN
  6
Continuous
 62
     7
100
AcDbCircle
 10
110.545963177
 20
275.318268088
 30
0.0
 40
19.03859487300018
100
AcDbArc
 50
227.4837701983004
 51
228.9651953375289
  0
ARC
  5
D4
330
1F
100
AcDbEntity
  8
FASEN
  6
Continuous
 62
     7
100
AcDbCircle
 10
105.617183076
 20
260.287004818
 30
0.0
 40
8.0
100
AcDbArc
 50
90.0
 51
172.8323734889971
  0
ARC
  5
D5
330
1F
100
AcDbEntity
  8
FASEN
  6
Continuous
 62
     7
100
AcDbCircle
 10
105.617183076
 20
260.287004818
 30
0.0
 40
7.599982194900008
100
AcDbArc
 50
90.0
 51
174.9405171273017
  0
ARC
  5
D6
330
1F
100
AcDbEntity
  8
BEZUGSACHSEN
  6
Continuous
 62
     7
100
AcDbCircle
 10
50.6453091542
 20
291.777004818
 30
0.0
 40
2.0
100
AcDbArc
 50
270.0
 51
355.235536186493
  0
ARC
  5
D7
330
1F
100
AcDbEntity
  8
BEZUGSACHSEN
  6
Continuous
 62
     7
100
AcDbCircle
 10
44.6453091542
 20
266.1868132549
 30
0.0
 40
2.0
100
AcDbArc
 50
180.0
 51
267.1318795106974
  0
ARC
  5
D8
330
1F
100
AcDbEntity
  8
BEZUGSACHSEN
  6
Continuous
 62
     7
100
AcDbCircle
 10
111.7703091542
 20
252.787004818
 30
0.0
 40
1.0
100
AcDbArc
 50
90.0
 51
180.0
  0
ARC
  5
D9
330
1F
100
AcDbEntity
  8
BEZUGSACHSEN
  6
Continuous
 62
     7
100
AcDbCircle
 10
91.0233718133
 20
261.104754818
 30
0.0
 40
1.0
100
AcDbArc
 50
90.0
 51
104.9999999996981
  0
ARC
  5
DA
330
1F
100
AcDbEntity
  8
BEZUGSACHSEN
  6
Continuous
 62
     7
100
AcDbCircle
 10
91.9447378655
 20
261.104754818
 30
0.0
 40
1.000000000000077
100
AcDbArc
 50
45.5216429127043
 51
90.0
  0
ARC
  5
DB
330
1F
100
AcDbEntity
  8
0
  6
Continuous
 62
     7
100
AcDbCircle
 10
-131.9524707283
 20
369.2214724084
 30
0.0
 40
264.5204223901892
100
AcDbArc
 50
335.840076470599
 51
336.5770705490999
  0
ARC
  5
DC
330
1F
100
AcDbEntity
  8
BEZUGSACHSEN
  6
Continuous
 62
     7
100
AcDbCircle
 10
99.6605171653
 20
399.8397745847
 30
0.0
 40
50.30340021025299
100
AcDbArc
 50
264.2781515101786
 51
269.9826780126
  0
ARC
  5
DD
330
1F
100
AcDbEntity
  8
BEZUGSACHSEN
  6
Continuous
 62
     7
100
AcDbCircle
 10
99.6301011531
 20
399.8397743841
 30
0.0
 40
50.30340000969741
100
AcDbArc
 50
270.017321976058
 51
275.7218485012679
  0
ARC
  5
DE
330
1F
100
AcDbEntity
  8
0
  6
Continuous
 62
     7
100
AcDbCircle
 10
107.6453091542
 20
299.787004818
 30
0.0
 40
10.0
100
AcDbArc
 50
90.0
 51
270.0
  0
ARC
  5
DF
330
1F
100
AcDbEntity
  8
FASEN
  6
Continuous
 62
     7
100
AcDbCircle
 10
107.6453091542
 20
299.787004818
 30
0.0
 40
9.599999195900011
100
AcDbArc
 50
90.0
 51
270.0
  0
ARC
  5
E0
330
1F
100
AcDbEntity
  8
BEZUGSACHSEN
  6
Continuous
 62
     7
100
AcDbCircle
 10
50.6453091542
 20
307.797004818
 30
0.0
 40
1.999999999999984
100
AcDbArc
 50
4.76446378498879
 51
90.0
  0
ARC
  5
E1
330
1F
100
AcDbEntity
  8
BEZUGSACHSEN
  6
Continuous
 62
     7
100
AcDbCircle
 10
44.6453091542
 20
333.3871963811
 30
0.0
 40
1.999999999952488
100
AcDbArc
 50
92.86812048930264
 51
180.0000000143238
  0
ARC
  5
E2
330
1F
100
AcDbEntity
  8
BEZUGSACHSEN
  6
Continuous
 62
     7
100
AcDbCircle
 10
111.7703091542
 20
346.787004818
 30
0.0
 40
1.0
100
AcDbArc
 50
180.0
 51
270.0
  0
ARC
  5
E3
330
1F
100
AcDbEntity
  8
BEZUGSACHSEN
  6
Continuous
 62
     7
100
AcDbCircle
 10
91.0233718133
 20
338.469254818
 30
0.0
 40
1.000000000009914
100
AcDbArc
 50
255.0000000003019
 51
270.0
  0
ARC
  5
E4
330
1F
100
AcDbEntity
  8
BEZUGSACHSEN
  6
Continuous
 62
     7
100
AcDbCircle
 10
91.9447378655
 20
338.469254818
 30
0.0
 40
1.0
100
AcDbArc
 50
270.0
 51
314.4783570872957
  0
ARC
  5
E5
330
1F
100
AcDbEntity
  8
BEZUGSACHSEN
  6
Continuous
 62
     7
100
AcDbCircle
 10
228.9753557566
 20
-1306.2557545097
 30
0.0
 40
1632.1727637359
100
AcDbArc
 50
96.2726189838
 51
96.48809068979999
  0
ARC
  5
E6
330
1F
100
AcDbEntity
  8
RUNDUNGEN
  6
Continuous
 62
     7
100
AcDbCircle
 10
127.6453091542
 20
272.787004818
 30
0.0
 40
6.0
100
AcDbArc
 50
90.0
 51
180.0
  0
ARC
  5
E7
330
1F
100
AcDbEntity
  8
RUNDUNGEN
  6
Continuous
 62
     7
100
AcDbCircle
 10
191.6453091542
 20
284.2113953096
 30
0.0
 40
0.9999999999647582
100
AcDbArc
 50
274.4999999985585
 51
0.0
  0
ARC
  5
E8
330
1F
100
AcDbEntity
  8
BEZUGSACHSEN
  6
Continuous
 62
     7
100
AcDbCircle
 10
113.5203091542
 20
252.787004818
 30
0.0
 40
1.0
100
AcDbArc
 50
0.0
 51
90.0
  0
ARC
  5
E9
330
1F
100
AcDbEntity
  8
BEZUGSACHSEN
  6
Continuous
 62
     7
100
AcDbCircle
 10
228.9753557566
 20
1905.8297641455
 30
0.0
 40
1632.1727637357
100
AcDbArc
 50
263.5119093102
 51
263.7273810162
  0
ARC
  5
EA
330
1F
100
AcDbEntity
  8
0
  6
Continuous
 62
     7
100
AcDbCircle
 10
357.2430890367
 20
369.2214724084
 30
0.0
 40
264.5204223902001
100
AcDbArc
 50
203.4229294508999
 51
204.1599235294009
  0
ARC
  5
EB
330
1F
100
AcDbEntity
  8
RUNDUNGEN
  6
Continuous
 62
     7
100
AcDbCircle
 10
127.6453091542
 20
326.787004818
 30
0.0
 40
6.0
100
AcDbArc
 50
180.0
 51
270.0
  0
ARC
  5
EC
330
1F
100
AcDbEntity
  8
BEZUGSACHSEN
  6
Continuous
 62
     7
100
AcDbCircle
 10
113.5203091542
 20
346.787004818
 30
0.0
 40
1.0
100
AcDbArc
 50
270.0
 51
0.0
  0
ARC
  5
ED
330
1F
100
AcDbEntity
  8
RUNDUNGEN
  6
Continuous
 62
     7
100
AcDbCircle
 10
191.6453091542
 20
315.3626143263
 30
0.0
 40
1.0
100
AcDbArc
 50
0.0
 51
85.50000000189128
  0
CIRCLE
  5
EE
330
1F
100
AcDbEntity
  8
BEZUGSACHSEN
  6
Continuous
 62
     7
100
AcDbCircle
 10
77.6453091542
 20
299.787004818
 30
0.0
 40
6.0
  0
SPLINE
  5
EF
330
1F
100
AcDbEntity
  8
BEZUGSACHSEN
  6
Continuous
 62
     7
100
AcDbSpline
210
0.0
220
0.0
230
1.0
 70
     8
 71
     3
 72
    19
 73
    15
 74
    13
 42
0.0000000001
 43
0.0000000001
 44
0.00000001
 40
0.0
 40
0.0
 40
0.0
 40
0.0
 40
0.1462385987779309
 40
0.2927479274823204
 40
0.4364790706284403
 40
0.5801659236551362
 40
0.7203799972778911
 40
0.8606059382463793
 40
0.9980411883699075
 40
1.135484020416864
 40
1.405415631078865
 40
1.675815514078758
 40
1.943997429514655
 40
2.211934834741453
 40
2.211934834741453
 40
2.211934834741453
 40
2.211934834741453
 10
50.6453091542
 20
316.1456524054
 30
0.0
 10
50.69402395953833
 20
316.1489604827465
 30
0.0
 10
50.79154375540398
 20
316.1555827616471
 30
0.0
 10
50.9368800157206
 20
316.1392234488728
 30
0.0
 10
51.07753695284327
 20
316.1040516827701
 30
0.0
 10
51.21038908628752
 20
316.051245996125
 30
0.0
 10
51.33484354934495
 20
315.9835742083969
 30
0.0
 10
51.44964610650229
 20
315.9042740070149
 30
0.0
 10
51.55575604427676
 20
315.8151893674398
 30
0.0
 10
51.68485850945612
 20
315.6872418318709
 30
0.0
 10
51.82789835935701
 20
315.5114395429623
 30
0.0
 10
51.97280596105604
 20
315.2837540770775
 30
0.0
 10
52.09744270949886
 20
315.0450914576068
 30
0.0
 10
52.16526128066727
 20
314.8796752171738
 30
0.0
 10
52.1991551011
 20
314.797004818
 30
0.0
 11
50.6453091542
 21
316.1456524054
 31
0.0
 11
50.79144301601904
 21
316.1511861385328
 31
0.0
 11
50.9371523768657
 21
316.1358967448538
 31
0.0
 11
51.07658245842281
 21
316.1009984086891
 31
0.0
 11
51.21021479535172
 21
316.0481939556606
 31
0.0
 11
51.33352858615136
 21
315.9814579425904
 31
0.0
 11
51.44905969745921
 21
315.9019854514978
 31
0.0
 11
51.55447224723365
 21
315.8138001787672
 31
0.0
 11
51.65226075092783
 21
315.7172189144022
 31
0.0
 11
51.82350914681768
 21
315.5085635494107
 31
0.0
 11
51.96985156735233
 21
315.2811872254928
 31
0.0
 11
52.0937191931591
 21
315.0433251834519
 31
0.0
 11
52.1991551011
 21
314.797004818
 31
0.0
  0
SPLINE
  5
F0
330
1F
100
AcDbEntity
  8
BEZUGSACHSEN
  6
Continuous
 62
     7
100
AcDbSpline
210
0.0
220
0.0
230
1.0
 70
     8
 71
     3
 72
    11
 73
     7
 74
     5
 42
0.0000000001
 43
0.0000000001
 44
0.00000001
 40
0.0
 40
0.0
 40
0.0
 40
0.0
 40
0.5521269407036968
 40
1.105196183339769
 40
1.651906304698672
 40
2.19819704872004
 40
2.19819704872004
 40
2.19819704872004
 40
2.19819704872004
 10
52.6453091542
 20
286.9173492922
 30
0.0
 10
52.63872371657224
 20
286.733214101789
 30
0.0
 10
52.62554160210681
 20
286.3646294618124
 30
0.0
 10
52.52805323830955
 20
285.8212050571269
 30
0.0
 10
52.38841592527704
 20
285.2899309276099
 30
0.0
 10
52.26222590306153
 20
284.9479364475159
 30
0.0
 10
52.1991551011
 20
284.777004818
 30
0.0
 11
52.6453091542
 21
286.9173492922
 31
0.0
 11
52.6125645717732
 21
286.3661941861069
 31
0.0
 11
52.52049791882982
 21
285.820841714245
 31
0.0
 11
52.3800064339964
 21
285.2924913574877
 31
0.0
 11
52.1991551011
 21
284.777004818
 31
0.0
  0
SPLINE
  5
F1
330
1F
100
AcDbEntity
  8
BEZUGSACHSEN
  6
Continuous
 62
     7
100
AcDbSpline
210
0.0
220
0.0
230
1.0
 70
     8
 71
     3
 72
    19
 73
    15
 74
    13
 42
0.0000000001
 43
0.0000000001
 44
0.00000001
 40
0.0
 40
0.0
 40
0.0
 40
0.0
 40
0.2679411643344683
 40
0.5361267936841334
 40
0.8065304773471742
 40
1.076465993216758
 40
1.213913376149575
 40
1.351353104892723
 40
1.491586367076716
 40
1.631807897568789
 40
1.775491562785938
 40
1.91921920476672
 40
2.065713007396987
 40
2.211936409318323
 40
2.211936409318323
 40
2.211936409318323
 40
2.211936409318323
 10
52.1991551011
 20
284.777004818
 30
0.0
 10
52.16526085730106
 20
284.6943332382964
 30
0.0
 10
52.09744144516476
 20
284.5289146507293
 30
0.0
 10
51.97280293889216
 20
284.2902486770628
 30
0.0
 10
51.82789213958853
 20
284.0625606810408
 30
0.0
 10
51.68484850807292
 20
283.8867561897104
 30
0.0
 10
51.55574212115313
 20
283.7588064705783
 30
0.0
 10
51.44962702207107
 20
283.6697194497658
 30
0.0
 10
51.3348175944121
 20
283.5904178094456
 30
0.0
 10
51.21035798217301
 20
283.5227473420146
 30
0.0
 10
51.07750442703747
 20
283.4699446553337
 30
0.0
 10
50.93685362816034
 20
283.4347783913435
 30
0.0
 10
50.79152824507155
 20
283.4184261894685
 30
0.0
 10
50.69401882602754
 20
283.4250489227636
 30
0.0
 10
50.6453091542
 20
283.4283572305
 30
0.0
 11
52.1991551011
 21
284.777004818
 31
0.0
 11
52.09371784138354
 21
284.5306809421609
 31
0.0
 11
51.96984832582422
 21
284.2928156968964
 31
0.0
 11
51.82350283954594
 21
284.0654368263201
 31
0.0
 11
51.65225064842313
 21
283.8567795241153
 31
0.0
 11
51.55445820972113
 21
283.7601957676766
 31
0.0
 11
51.44904122044158
 21
283.672008821884
 31
0.0
 11
51.33350257671684
 21
283.5925343629113
 31
0.0
 11
51.21018056682186
 21
283.5257978699782
 31
0.0
 11
51.076549878622
 21
283.4729979190174
 31
0.0
 11
50.93712217741422
 21
283.4381044926269
 31
0.0
 11
50.79142773889605
 21
283.4228216658612
 31
0.0
 11
50.6453091542
 21
283.4283572305
 31
0.0
  0
SPLINE
  5
F2
330
1F
100
AcDbEntity
  8
BEZUGSACHSEN
  6
Continuous
 62
     7
100
AcDbSpline
210
0.0
220
0.0
230
1.0
 70
     8
 71
     3
 72
    47
 73
    43
 74
    41
 42
0.0000000001
 43
0.0000000001
 44
0.00000001
 40
0.0
 40
0.0
 40
0.0
 40
0.0
 40
0.6366022432335553
 40
1.273595002182804
 40
1.592921746402071
 40
1.912076344893825
 40
2.231392290439007
 40
2.550826842754163
 40
3.18977432118096
 40
3.829081697010035
 40
4.468337152508727
 40
5.107221744765363
 40
5.426176341252183
 40
5.745033356798413
 40
6.063356731577173
 40
6.381780214890249
 40
7.017059195685084
 40
7.652639341014392
 40
8.287532214283452
 40
8.922347946563614
 40
9.559226748629474
 40
10.196134359397
 40
10.83451785504482
 40
11.47287689975327
 40
12.11234487367475
 40
12.75189588952314
 40
13.39354300525299
 40
14.03487957362014
 40
14.35615205777672
 40
14.67732107717522
 40
14.99840882477646
 40
15.31959604126701
 40
15.96011121032346
 40
16.60099592095785
 40
17.23809108087499
 40
17.87482555211545
 40
18.19205670344563
 40
18.50917199111435
 40
18.82571084637701
 40
19.14241581834244
 40
19.7733897500154
 40
20.403989307486
 40
20.403989307486
 40
20.403989307486
 40
20.403989307486
 10
71.1458935599
 20
299.7870047985
 30
0.0
 10
71.15189920378528
 20
299.9992846082125
 30
0.0
 10
71.16391417564326
 20
300.4239744480423
 30
0.0
 10
71.24517952085813
 20
300.9501172091582
 30
0.0
 10
71.33789911745939
 20
301.365091585268
 30
0.0
 10
71.42319208159381
 20
301.6729155609648
 30
0.0
 10
71.52343069500367
 20
301.9762082377621
 30
0.0
 10
71.67691624411955
 20
302.373645600324
 30
0.0
 10
71.90538819090582
 20
302.855745177205
 30
0.0
 10
72.2350031514874
 20
303.4045610500215
 30
0.0
 10
72.61723036855292
 20
303.918096589372
 30
0.0
 10
72.9760850656522
 20
304.312599351464
 30
0.0
 10
73.28503841920977
 20
304.6054726495076
 30
0.0
 10
73.52693352818363
 20
304.8131944706216
 30
0.0
 10
73.77857678166926
 20
305.008703867754
 30
0.0
 10
74.12587088882643
 20
305.2521990704292
 30
0.0
 10
74.58161122359138
 20
305.5240811404762
 30
0.0
 10
75.1570906482975
 20
305.7954102529927
 30
0.0
 10
75.7562014134837
 20
306.0091938838011
 30
0.0
 10
76.37365181595669
 20
306.163883615171
 30
0.0
 10
77.0039223776448
 20
306.2576905988262
 30
0.0
 10
77.64151631235386
 20
306.2898173236325
 30
0.0
 10
78.2796949565705
 20
306.2593877506823
 30
0.0
 10
78.91270737775888
 20
306.1667164955185
 30
0.0
 10
79.53394106219741
 20
306.0122245342906
 30
0.0
 10
80.13807681417813
 20
305.7971874017497
 30
0.0
 10
80.7185558877581
 20
305.5232640360197
 30
0.0
 10
81.17818491198385
 20
305.24809715796
 30
0.0
 10
81.52808390064723
 20
305.0014874591025
 30
0.0
 10
81.78121552979647
 20
304.8035832667316
 30
0.0
 10
82.02421416915064
 20
304.5934047373298
 30
0.0
 10
82.33345851265575
 20
304.2978853971745
 30
0.0
 10
82.69177870345302
 20
303.9004144144079
 30
0.0
 10
83.07172912179624
 20
303.384747652853
 30
0.0
 10
83.39820215140776
 20
302.8351514963827
 30
0.0
 10
83.62357329140283
 20
302.3540459546722
 30
0.0
 10
83.77466427456172
 20
301.9580557670522
 30
0.0
 10
83.87307719211103
 20
301.6566294162691
 30
0.0
 10
83.95674397028259
 20
301.3509340483528
 30
0.0
 10
84.04756332771657
 20
300.9393820306371
 30
0.0
 10
84.12707830332207
 20
300.4179568141092
 30
0.0
 10
84.13885058798958
 20
299.9972805249545
 30
0.0
 10
84.1447349836
 20
299.7870047986
 30
0.0
 11
71.1458935599
 21
299.7870047985
 31
0.0
 11
71.17714223093981
 21
300.4228396329092
 31
0.0
 11
71.27058343331342
 21
301.0529416219973
 31
0.0
 11
71.34052394034629
 21
301.3645148799154
 31
0.0
 11
71.4256652793115
 21
301.6721032576829
 31
0.0
 11
71.52588981742475
 21
301.9752826023609
 31
0.0
 11
71.64096970715399
 21
302.2732675888832
 31
0.0
 11
71.91456560140081
 21
302.8506748687466
 31
0.0
 11
72.24378511509644
 21
303.3986971608036
 31
0.0
 11
72.62540937042215
 21
303.9115426201108
 31
0.0
 11
73.05534400651929
 21
304.3841203712872
 31
0.0
 11
73.28681626757458
 21
304.6035574396736
 31
0.0
 11
73.52871866860103
 21
304.8112905009341
 31
0.0
 11
73.78009247575554
 21
305.00658765915
 31
0.0
 11
74.04082175404743
 21
305.1893819647687
 31
0.0
 11
74.58635539825934
 21
305.5149160282284
 31
0.0
 11
75.16126521839263
 21
305.7859156958502
 31
0.0
 11
75.75921140617073
 21
305.9993385555665
 31
0.0
 11
76.37500393841302
 21
306.1535804797799
 31
0.0
 11
77.00493622037197
 21
306.2473884147685
 31
0.0
 11
77.64103934207837
 21
306.2793903398507
 31
0.0
 11
78.27870030108244
 21
306.2490260700991
 31
0.0
 11
78.91031783399093
 21
306.1564973605887
 31
0.0
 11
79.53089070611583
 21
306.0021970039659
 31
0.0
 11
80.13339151326963
 21
305.7876782885779
 31
0.0
 11
80.71369870965079
 21
305.5138999494919
 31
0.0
 11
81.2639236976988
 21
305.1844078305384
 31
0.0
 11
81.52653100184625
 21
304.9993310548896
 31
0.0
 11
81.7795514592381
 21
304.8015175387624
 31
0.0
 11
82.02239976060243
 21
304.5914650591671
 31
0.0
 11
82.25460219600946
 21
304.3695568415906
 31
0.0
 11
82.6835182537437
 21
303.8938566237968
 31
0.0
 11
83.06362891241679
 21
303.3778633103827
 31
0.0
 11
83.38906805814197
 21
302.8301593709962
 31
0.0
 11
83.65914891627165
 21
302.2535424124025
 31
0.0
 11
83.77223936145585
 21
301.9571538927491
 31
0.0
 11
83.87068346479501
 21
301.6557059466772
 31
0.0
 11
83.95416627016924
 21
301.350374212169
 31
0.0
 11
84.02271569360349
 21
301.0411768386121
 31
0.0
 11
84.11414277148776
 21
300.4168618605118
 31
0.0
 11
84.1447349836
 21
299.7870047986
 31
0.0
  0
SPLINE
  5
F3
330
1F
100
AcDbEntity
  8
BEZUGSACHSEN
  6
Continuous
 62
     7
100
AcDbSpline
210
0.0
220
0.0
230
1.0
 70
     8
 71
     3
 72
    47
 73
    43
 74
    41
 42
0.0000000001
 43
0.0000000001
 44
0.00000001
 40
0.0
 40
0.0
 40
0.0
 40
0.0
 40
0.6302393214461299
 40
1.260854867303389
 40
1.577476088392403
 40
1.893930800229888
 40
2.210999113884198
 40
2.528183472228184
 40
3.164887038253312
 40
3.801951183383689
 40
4.44285100162748
 40
5.083381259808989
 40
5.404527292316045
 40
5.725573838741507
 40
6.04667071000175
 40
6.367871027120781
 40
7.009090242522084
 40
7.650619763955278
 40
8.290330346501435
 40
8.929958764480396
 40
9.568647011336003
 40
10.20735923012032
 40
10.84445705815679
 40
11.48152626497348
 40
12.11643462224632
 40
12.75141965581548
 40
13.38691908739889
 40
14.02211738532143
 40
14.34050449142441
 40
14.65879153790036
 40
14.97761586865782
 40
15.29653774942609
 40
15.93537694102051
 40
16.57458694070651
 40
17.21386274993632
 40
17.85277859075444
 40
18.17219860084728
 40
18.49150024079361
 40
18.81067156638367
 40
19.13001452423856
 40
19.7671962702588
 40
20.40398968275589
 40
20.40398968275589
 40
20.40398968275589
 40
20.40398968275589
 10
84.144722792
 20
299.7870048367
 30
0.0
 10
84.13885359025576
 20
299.5768488148145
 30
0.0
 10
84.12711168311894
 20
299.1564113173899
 30
0.0
 10
84.04766494055646
 20
298.6352478751393
 30
0.0
 10
83.9569334354953
 20
298.2238564077079
 30
0.0
 10
83.87332805319377
 20
297.918218567403
 30
0.0
 10
83.77497611180011
 20
297.6168347212098
 30
0.0
 10
83.6239573009135
 20
297.220861541628
 30
0.0
 10
83.39867471331884
 20
296.7397547329541
 30
0.0
 10
83.07229667858661
 20
296.1901205079475
 30
0.0
 10
82.69242961654285
 20
295.6743926452804
 30
0.0
 10
82.33417517724479
 20
295.2768672430764
 30
0.0
 10
82.02499443955966
 20
294.9813138881634
 30
0.0
 10
81.78206948353497
 20
294.7711289797447
 30
0.0
 10
81.52902058023632
 20
294.573219515411
 30
0.0
 10
81.17923807180173
 20
294.3265961639063
 30
0.0
 10
80.71975283403845
 20
294.0513895546148
 30
0.0
 10
80.13935712705413
 20
293.7773494479103
 30
0.0
 10
79.53520281921216
 20
293.5621609705529
 30
0.0
 10
78.91378767181692
 20
293.4074991315107
 30
0.0
 10
78.28051846039529
 20
293.3146887584762
 30
0.0
 10
77.64205899596428
 20
293.2841780086692
 30
0.0
 10
77.00422598239923
 20
293.3162797510523
 30
0.0
 10
76.37379599538424
 20
293.4100928134258
 30
0.0
 10
75.75622232587067
 20
293.5648066297148
 30
0.0
 10
75.1570789144339
 20
293.7786032017897
 30
0.0
 10
74.58162169297552
 20
294.0499245702418
 30
0.0
 10
74.12593630003958
 20
294.3217694538902
 30
0.0
 10
73.77868040232119
 20
294.5652300064879
 30
0.0
 10
73.52706082104069
 20
294.7607125328109
 30
0.0
 10
73.28518577077601
 20
294.9684055915001
 30
0.0
 10
72.9762494870831
 20
295.2612431396336
 30
0.0
 10
72.61740673016945
 20
295.6557007885787
 30
0.0
 10
72.23517982490658
 20
296.1691854545369
 30
0.0
 10
71.90555537966361
 20
296.7179532332665
 30
0.0
 10
71.67706793377243
 20
297.2000166497662
 30
0.0
 10
71.52356643382004
 20
297.5974262089406
 30
0.0
 10
71.42330963089708
 20
297.9007085722321
 30
0.0
 10
71.33799313797154
 20
298.2085324439358
 30
0.0
 10
71.24523068260356
 20
298.6235733110387
 30
0.0
 10
71.1639383156487
 20
299.1498461100941
 30
0.0
 10
71.1518985161577
 20
299.5746617597796
 30
0.0
 10
71.1458804514
 20
299.7870048384
 30
0.0
 11
84.144722792
 21
299.7870048367
 31
0.0
 11
84.11418321327876
 21
299.1575058800461
 31
0.0
 11
84.02285193775195
 21
298.5335390822215
 31
0.0
 11
83.95435719906386
 21
298.2244153716848
 31
0.0
 11
83.87093837421622
 21
297.9191533787915
 31
0.0
 11
83.77255163035251
 21
297.6177361195719
 31
0.0
 11
83.65952099922713
 21
297.3213748643352
 31
0.0
 11
83.38954086271717
 21
296.7447448643532
 31
0.0
 11
83.06420424088138
 21
296.1970160925115
 31
0.0
 11
82.68416774606787
 21
295.6809493917501
 31
0.0
 11
82.25531724837543
 21
295.205169755495
 31
0.0
 11
82.02318011400111
 21
294.9832528227488
 31
0.0
 11
81.78039762067488
 21
294.7731872474967
 31
0.0
 11
81.52746801240124
 21
294.5753746746109
 31
0.0
 11
81.26495361658972
 21
294.3902913536199
 31
0.0
 11
80.71489543498582
 21
294.060749127114
 31
0.0
 11
80.13475460329981
 21
293.78689379618
 31
0.0
 11
79.5321492929929
 21
293.5721929125967
 31
0.0
 11
78.91145002268374
 21
293.4177360288914
 31
0.0
 11
78.27952120879262
 21
293.325061054677
 31
0.0
 11
77.64153508163012
 21
293.2946143804319
 31
0.0
 11
77.00524009348642
 21
293.3265882846664
 31
0.0
 11
76.37511681934753
 21
293.4204063728079
 31
0.0
 11
75.75923291109156
 21
293.57466470706
 31
0.0
 11
75.16120044127051
 21
293.7881199901911
 31
0.0
 11
74.58636469272795
 21
294.0590874969892
 31
0.0
 11
74.04089800521565
 21
294.3845763147664
 31
0.0
 11
73.78019571246742
 21
294.5673457429771
 31
0.0
 11
73.52884646068465
 21
294.7626152940664
 31
0.0
 11
73.28696316234522
 21
294.9703204309008
 31
0.0
 11
73.05550733104077
 21
295.1897272771657
 31
0.0
 11
72.62558430012888
 21
295.6622542078359
 31
0.0
 11
72.2439631606494
 21
296.1750453247645
 31
0.0
 11
71.91473168649203
 21
296.7230236059862
 31
0.0
 11
71.64111737937965
 21
297.3003871505504
 31
0.0
 11
71.52602512692552
 21
297.5983517730691
 31
0.0
 11
71.42578543849947
 21
297.9015110416668
 31
0.0
 11
71.34061835828085
 21
298.2091096494756
 31
0.0
 11
71.2706553307974
 21
298.520694468613
 31
0.0
 11
71.17716643381691
 21
299.1509804383147
 31
0.0
 11
71.1458804514
 21
299.7870048384
 31
0.0
  0
SPLINE
  5
F4
330
1F
100
AcDbEntity
  8
BEZUGSACHSEN
  6
Continuous
 62
     7
100
AcDbSpline
210
0.0
220
0.0
230
1.0
 70
     8
 71
     3
 72
    27
 73
    23
 74
    21
 42
0.0000000001
 43
0.0000000001
 44
0.00000001
 40
0.0
 40
0.0
 40
0.0
 40
0.0
 40
0.1219765139516402
 40
0.243985771474894
 40
0.3566831398333825
 40
0.4694418149629663
 40
0.5721317672948619
 40
0.6745445881155964
 40
0.7225206521222003
 40
0.7704888797708692
 40
0.8171412936045993
 40
0.8637898734267807
 40
0.9102318000825734
 40
0.9566751324135754
 40
1.004175175749474
 40
1.051683100142912
 40
1.153672388761934
 40
1.256049376711162
 40
1.370745138132313
 40
1.485385401913296
 40
1.611534903948999
 40
1.737631875993867
 40
1.737631875993867
 40
1.737631875993867
 40
1.737631875993867
 10
43.7911518298
 20
284.5446688225
 30
0.0
 10
43.75589681219662
 20
284.5243892972351
 30
0.0
 10
43.68537731307621
 20
284.4838248028369
 30
0.0
 10
43.57772490989031
 20
284.4330289419453
 30
0.0
 10
43.4695668940191
 20
284.3912773060762
 30
0.0
 10
43.36398767305064
 20
284.3618627209348
 30
0.0
 10
43.25915612790492
 20
284.3449481335467
 30
0.0
 10
43.17442845805557
 20
284.3430829103185
 30
0.0
 10
43.10860452165178
 20
284.3500382183382
 30
0.0
 10
43.06189731843774
 20
284.3592353454916
 30
0.0
 10
43.01671670113368
 20
284.3727687904789
 30
0.0
 10
42.97357709048197
 20
284.3905620492849
 30
0.0
 10
42.93262261390379
 20
284.4127904069887
 30
0.0
 10
42.89397518743291
 20
284.4393254386907
 30
0.0
 10
42.85806910879979
 20
284.4700207162218
 30
0.0
 10
42.81262978726166
 20
284.5175581893421
 30
0.0
 10
42.76408664717485
 20
284.5867275564455
 30
0.0
 10
42.71786093820762
 20
284.6828856111688
 30
0.0
 10
42.68389506442497
 20
284.7884610441664
 30
0.0
 10
42.6609396402473
 20
284.9048787350752
 30
0.0
 10
42.64749508189753
 20
285.0266260437309
 30
0.0
 10
42.6460376955996
 20
285.110729407248
 30
0.0
 10
42.6453091542
 20
285.1527723318
 30
0.0
 11
43.7911518298
 21
284.5446688225
 31
0.0
 11
43.68460720573946
 21
284.4852843713398
 31
0.0
 11
43.57431431657078
 21
284.4331140970431
 31
0.0
 11
43.46899630871836
 21
284.3930040726486
 31
0.0
 11
43.36027258017531
 21
284.3631097643496
 31
0.0
 11
43.25880842805416
 21
284.3472904045565
 31
0.0
 11
43.15640888746977
 21
284.3456411754744
 31
0.0
 11
43.10870503125722
 21
284.35074458806
 31
0.0
 11
43.06165426099577
 21
284.360081390594
 31
0.0
 11
43.01697469356235
 21
284.3735046528828
 31
0.0
 11
42.97386855696642
 21
284.3913358330793
 31
0.0
 11
42.93304596416955
 21
284.4134800979992
 31
0.0
 11
42.8947587076234
 21
284.439768291246
 31
0.0
 11
42.85862161061284
 21
284.4705962710137
 31
0.0
 11
42.82576911024096
 21
284.5049141395298
 31
0.0
 11
42.76659671598715
 21
284.5879830431658
 31
0.0
 11
42.72169699238609
 21
284.6799888173439
 31
0.0
 11
42.68605883281858
 21
284.7890073445336
 31
0.0
 11
42.66320726945235
 21
284.9013469908367
 31
0.0
 11
42.6494405131298
 21
285.0267430565015
 31
0.0
 11
42.6453091542
 21
285.1527723318
 31
0.0
  0
SPLINE
  5
F5
330
1F
100
AcDbEntity
  8
BEZUGSACHSEN
  6
Continuous
 62
     7
100
AcDbSpline
210
0.0
220
0.0
230
1.0
 70
     8
 71
     3
 72
    15
 73
    11
 74
     9
 42
0.0000000001
 43
0.0000000001
 44
0.00000001
 40
0.0
 40
0.0
 40
0.0
 40
0.0
 40
0.1110371613193968
 40
0.2222522336982794
 40
0.3333980191325974
 40
0.4445069474083622
 40
0.5556201064440376
 40
0.6667525641494213
 40
0.7778876032858901
 40
0.8889820914701401
 40
0.8889820914701401
 40
0.8889820914701401
 40
0.8889820914701401
 10
44.5452346694
 20
284.1104724317
 30
0.0
 10
44.50859294254123
 20
284.1160045845496
 30
0.0
 10
44.43525077903345
 20
284.1270777542289
 30
0.0
 10
44.32873422903364
 20
284.1600963177291
 30
0.0
 10
44.22632132129326
 20
284.2036866051815
 30
0.0
 10
44.1288713556896
 20
284.2574661130022
 30
0.0
 10
44.03656655997352
 20
284.3195612483655
 30
0.0
 10
43.94956993185068
 20
284.3888479220147
 30
0.0
 10
43.86731717640676
 20
284.4637298736269
 30
0.0
 10
43.81653719000525
 20
284.5176924551188
 30
0.0
 10
43.7911518298
 20
284.5446688225
 30
0.0
 11
44.5452346694
 21
284.1104724317
 31
0.0
 11
44.43589238435124
 21
284.129798990995
 31
0.0
 11
44.32940043076314
 21
284.1618654243051
 31
0.0
 11
44.22713225016743
 21
284.2053924832163
 31
0.0
 11
44.1297293837431
 21
284.2588515849195
 31
0.0
 11
44.03745761697107
 21
284.3207551806765
 31
0.0
 11
43.95036051356438
 21
284.3897806667944
 31
0.0
 11
43.86832060907783
 21
284.4647503339652
 31
0.0
 11
43.7911518298
 21
284.5446688225
 31
0.0
  0
SPLINE
  5
F6
330
1F
100
AcDbEntity
  8
BEZUGSACHSEN
  6
Continuous
 62
     7
100
AcDbSpline
210
0.0
220
0.0
230
1.0
 70
     8
 71
     3
 72
    27
 73
    23
 74
    21
 42
0.0000000001
 43
0.0000000001
 44
0.00000001
 40
0.0
 40
0.0
 40
0.0
 40
0.0
 40
0.1260969825524776
 40
0.2522464959194699
 40
0.3668867952476206
 40
0.4815825893734109
 40
0.5839596006347297
 40
0.6859489160817821
 40
0.7334568410039074
 40
0.7809568848485146
 40
0.8274002263972042
 40
0.8738421606731429
 40
0.9204907318546213
 40
0.9671431398889041
 40
1.015111401785804
 40
1.063087497106554
 40
1.165500418709295
 40
1.26819047892208
 40
1.380949153875815
 40
1.493646517767181
 40
1.615655563722959
 40
1.737631867638914
 40
1.737631867638914
 40
1.737631867638914
 40
1.737631867638914
 10
42.6453091542
 20
314.4212373042
 30
0.0
 10
42.64603769567628
 20
314.463280232261
 30
0.0
 10
42.64749508213235
 20
314.5473836030705
 30
0.0
 10
42.66093964408073
 20
314.6691309306322
 30
0.0
 10
42.68389507736455
 20
314.7855486470032
 30
0.0
 10
42.71786097769801
 20
314.8911241047791
 30
0.0
 10
42.76408673655635
 20
314.9872821670184
 30
0.0
 10
42.81262990511108
 20
315.0564515326772
 30
0.0
 10
42.85806923066849
 20
315.1039890142942
 30
0.0
 10
42.89397530875952
 20
315.1346842977764
 30
0.0
 10
42.93262273985231
 20
315.1612193334886
 30
0.0
 10
42.97357722705782
 20
315.1834476793837
 30
0.0
 10
43.01671685323336
 20
315.2012408962612
 30
0.0
 10
43.06189748784678
 20
315.2147743033223
 30
0.0
 10
43.10860471083641
 20
315.2239714286561
 30
0.0
 10
43.17442870204047
 20
315.2309267490367
 30
0.0
 10
43.25915645404228
 20
315.2290614924029
 30
0.0
 10
43.36398805754562
 20
315.2121468314598
 30
0.0
 10
43.46956729991125
 20
315.1827321986045
 30
0.0
 10
43.57772523801746
 20
315.1409805611451
 30
0.0
 10
43.68537749927456
 20
315.0901847339414
 30
0.0
 10
43.75589687411505
 20
315.0496203057091
 30
0.0
 10
43.7911518298
 20
315.0293408134
 30
0.0
 11
42.6453091542
 21
314.4212373042
 31
0.0
 11
42.64944051376465
 21
314.547266589991
 31
0.0
 11
42.66320727288566
 21
314.672662666748
 31
0.0
 11
42.6860588489678
 21
314.7850023467395
 31
0.0
 11
42.72169703833866
 21
314.8940208985943
 31
0.0
 11
42.7665968031388
 21
314.9860266786067
 31
0.0
 11
42.82576923209294
 21
315.0690955904632
 31
0.0
 11
42.85862173225447
 21
315.1034134599126
 31
0.0
 11
42.89475882718128
 21
315.1342414429068
 31
0.0
 11
42.93304609204272
 21
315.1605296403276
 31
0.0
 11
42.97386869997999
 21
315.1826738933178
 31
0.0
 11
43.01697484359804
 21
315.2005050339334
 31
0.0
 11
43.06165441564237
 21
315.2139282607188
 31
0.0
 11
43.10870522139752
 21
315.2232650603418
 31
0.0
 11
43.15640910867159
 21
315.228368476959
 31
0.0
 11
43.25880874953113
 21
315.226719215595
 31
0.0
 11
43.36027299984448
 21
315.2108997853002
 31
0.0
 11
43.46899671631161
 21
315.1810054337451
 31
0.0
 11
43.57431470861985
 21
315.1408953810871
 31
0.0
 11
43.68460739450639
 21
315.08872517182
 31
0.0
 11
43.7911518298
 21
315.0293408134
 31
0.0
  0
SPLINE
  5
F7
330
1F
100
AcDbEntity
  8
BEZUGSACHSEN
  6
Continuous
 62
     7
100
AcDbSpline
210
0.0
220
0.0
230
1.0
 70
     8
 71
     3
 72
    15
 73
    11
 74
     9
 42
0.0000000001
 43
0.0000000001
 44
0.00000001
 40
0.0
 40
0.0
 40
0.0
 40
0.0
 40
0.1110944831359964
 40
0.2222295181505746
 40
0.3333620401960357
 40
0.444475261026475
 40
0.5555842178392278
 40
0.6667300354336746
 40
0.7779450181819411
 40
0.8889820871029811
 40
0.8889820871029811
 40
0.8889820871029811
 40
0.8889820871029811
 10
43.7911518298
 20
315.0293408134
 30
0.0
 10
43.8165371893412
 20
315.05631717911
 30
0.0
 10
43.86731717462649
 20
315.1102797574843
 30
0.0
 10
43.9495699438999
 20
315.185161720869
 30
0.0
 10
44.0365665958565
 20
315.2544484297722
 30
0.0
 10
44.12887143629676
 20
315.3165435928464
 30
0.0
 10
44.22632145829215
 20
315.3703230849676
 30
0.0
 10
44.32873437216329
 20
315.4139133305573
 30
0.0
 10
44.43525087072535
 20
315.4469318863538
 30
0.0
 10
44.50859297340943
 20
315.4580050529588
 30
0.0
 10
44.5452346694
 20
315.4635372042
 30
0.0
 11
43.7911518298
 21
315.0293408134
 31
0.0
 11
43.86832060682691
 21
315.1092592970907
 31
0.0
 11
43.95036050707828
 21
315.1842289627858
 31
0.0
 11
44.03745765569143
 21
315.2532544954505
 31
0.0
 11
44.1297294772786
 21
315.3151581204195
 31
0.0
 11
44.22713238537406
 21
315.3686172055086
 31
0.0
 11
44.32940060877434
 21
315.4121442459696
 31
0.0
 11
44.4358924768665
 21
315.4442106523466
 31
0.0
 11
44.5452346694
 21
315.4635372042
 31
0.0
  0
SPLINE
  5
F8
330
1F
100
AcDbEntity
  8
0
  6
Continuous
 62
     7
100
AcDbSpline
210
0.0
220
0.0
230
1.0
 70
     8
 71
     3
 72
    19
 73
    15
 74
    13
 42
0.0000000001
 43
0.0000000001
 44
0.00000001
 40
0.0
 40
0.0
 40
0.0
 40
0.0
 40
0.1162460235718751
 40
0.232788171796067
 40
0.3491890045907766
 40
0.4655468550672047
 40
0.5819071370082153
 40
0.6982738489485101
 40
0.814620607303661
 40
0.9309998278427793
 40
1.163276323470248
 40
1.396138921808161
 40
1.629013178105908
 40
1.86135153976575
 40
1.86135153976575
 40
1.86135153976575
 40
1.86135153976575
 10
111.7703091542
 20
266.2646242343
 30
0.0
 10
111.7315250833591
 20
266.2627832874048
 30
0.0
 10
111.6538581432913
 20
266.2590967039936
 30
0.0
 10
111.5402480582339
 20
266.2306912189892
 30
0.0
 10
111.4320603702836
 20
266.1868373047708
 30
0.0
 10
111.3310845043061
 20
266.1282406165445
 30
0.0
 10
111.2383160475529
 20
266.0575557552224
 30
0.0
 10
111.1542286685365
 20
265.9767981501417
 30
0.0
 10
111.0789250251468
 20
265.8878305113981
 30
0.0
 10
110.9902737809842
 20
265.760471063646
 30
0.0
 10
110.9002770352791
 20
265.5876856855494
 30
0.0
 10
110.8253835161597
 20
265.3667606953585
 30
0.0
 10
110.7788465908336
 20
265.1377407757728
 30
0.0
 10
110.7731527801115
 20
264.9825613829396
 30
0.0
 10
110.7703091542
 20
264.9050610648
 30
0.0
 11
111.7703091542
 21
266.2646242343
 31
0.0
 11
111.6544378026496
 21
266.255298576889
 31
0.0
 11
111.5411132779615
 21
266.2281025401017
 31
0.0
 11
111.4332401453503
 21
266.1843699305758
 31
0.0
 11
111.3324514058256
 21
266.1262254609118
 31
0.0
 11
111.2397641007447
 21
266.0558779045204
 31
0.0
 11
111.1556887350859
 21
265.9754257787739
 31
0.0
 11
111.0803899771404
 21
265.8867315555594
 31
0.0
 11
111.0137632478289
 21
265.7913114218635
 31
0.0
 11
110.9058734617545
 21
265.58561221311
 31
0.0
 11
110.8301153249419
 21
265.3654175392159
 31
0.0
 11
110.7851553111428
 21
265.1369246150247
 31
0.0
 11
110.7703091542
 21
264.9050610648
 31
0.0
  0
SPLINE
  5
F9
330
1F
100
AcDbEntity
  8
0
  6
Continuous
 62
     7
100
AcDbSpline
210
0.0
220
0.0
230
1.0
 70
     8
 71
     3
 72
    19
 73
    15
 74
    13
 42
0.0000000001
 43
0.0000000001
 44
0.00000001
 40
0.0
 40
0.0
 40
0.0
 40
0.0
 40
0.2323383481160207
 40
0.4652125957045075
 40
0.6980761132821511
 40
0.9303535187426785
 40
1.046733461811923
 40
1.163080940884062
 40
1.27944799744958
 40
1.395808629542699
 40
1.512165904505807
 40
1.628566140345741
 40
1.745106920545957
 40
1.861351602811057
 40
1.861351602811057
 40
1.861351602811057
 40
1.861351602811057
 10
114.5203091542
 20
264.9050610648
 30
0.0
 10
114.5174655285945
 20
264.982561378459
 30
0.0
 10
114.5117717184255
 20
265.1377407639438
 30
0.0
 10
114.4652347425694
 20
265.3667609779615
 30
0.0
 10
114.3903409967663
 20
265.5876865398476
 30
0.0
 10
114.3003436925097
 20
265.7604726040616
 30
0.0
 10
114.2116917547343
 20
265.8878325298062
 30
0.0
 10
114.1363874904043
 20
265.9768004287399
 30
0.0
 10
114.0522995165979
 20
266.0575580987074
 30
0.0
 10
113.9595307827699
 20
266.1282426650774
 30
0.0
 10
113.8585549705159
 20
266.1868388892183
 30
0.0
 10
113.7503679210016
 20
266.2306921403541
 30
0.0
 10
113.6367588116578
 20
266.25909689985
 30
0.0
 10
113.5590927768625
 20
266.262783352512
 30
0.0
 10
113.5203091542
 20
266.2646242343
 30
0.0
 11
114.5203091542
 21
264.9050610648
 31
0.0
 11
114.5054630000797
 21
265.1369246016339
 31
0.0
 11
114.4605029984736
 21
265.3654175193479
 31
0.0
 11
114.3847445197562
 21
265.5856130477337
 31
0.0
 11
114.2768541085735
 21
265.7913129560037
 31
0.0
 11
114.2102267847522
 21
265.8867335558195
 31
0.0
 11
114.1349273282101
 21
265.9754281313633
 31
0.0
 11
114.0508514618906
 21
266.0558802323698
 31
0.0
 11
113.9581636359228
 21
266.1262276816375
 31
0.0
 11
113.8573752010182
 21
266.1843715276259
 31
0.0
 11
113.7495024722266
 21
266.2281035443488
 31
0.0
 11
113.6361791836727
 21
266.2552988697009
 31
0.0
 11
113.5203091542
 21
266.2646242343
 31
0.0
  0
SPLINE
  5
FA
330
1F
100
AcDbEntity
  8
BEZUGSACHSEN
  6
Continuous
 62
     7
100
AcDbSpline
210
0.0
220
0.0
230
1.0
 70
     8
 71
     3
 72
    11
 73
     7
 74
     5
 42
0.0000000001
 43
0.0000000001
 44
0.00000001
 40
0.0
 40
0.0
 40
0.0
 40
0.0
 40
0.546290743102647
 40
1.093000863635378
 40
1.64607010718272
 40
2.198197048697394
 40
2.198197048697394
 40
2.198197048697394
 40
2.198197048697394
 10
52.1991551011
 20
314.797004818
 30
0.0
 10
52.26222590293118
 20
314.626073188763
 30
0.0
 10
52.38841592489664
 20
314.2840787091978
 30
0.0
 10
52.52805323793412
 20
313.7528045799776
 30
0.0
 10
52.62554160200486
 20
313.2093801750326
 30
0.0
 10
52.63872371653869
 20
312.8407955344815
 30
0.0
 10
52.6453091542
 20
312.6566603438
 30
0.0
 11
52.1991551011
 21
314.797004818
 31
0.0
 11
52.38000643364479
 21
314.2815182793626
 31
0.0
 11
52.52049791835225
 21
313.7531679234266
 31
0.0
 11
52.61256457162967
 21
313.207815450697
 31
0.0
 11
52.6453091542
 21
312.6566603438
 31
0.0
  0
SPLINE
  5
FB
330
1F
100
AcDbEntity
  8
BEZUGSACHSEN
  6
Continuous
 62
     7
100
AcDbSpline
210
0.0
220
0.0
230
1.0
 70
     8
 71
     3
 72
    11
 73
     7
 74
     5
 42
0.0000000001
 43
0.0000000001
 44
0.00000001
 40
0.0
 40
0.0
 40
0.0
 40
0.0
 40
0.9140556660003536
 40
1.82803094918594
 40
2.279806974871068
 40
2.73094412476251
 40
2.73094412476251
 40
2.73094412476251
 40
2.73094412476251
 10
43.9122620810854
 20
284.777004818185
 30
0.0
 10
44.04491678804879
 20
285.0517214158515
 30
0.0
 10
44.31021453621045
 20
285.6011304523789
 30
0.0
 10
44.52556974952297
 20
286.3338413734836
 30
0.0
 10
44.6292639631854
 20
286.9317865795898
 30
0.0
 10
44.63996328070649
 20
287.2329097950164
 30
0.0
 10
44.6453091542
 20
287.3833648696
 30
0.0
 11
43.9122620810854
 21
284.777004818185
 31
0.0
 11
44.28706961086091
 21
285.6106816597555
 31
0.0
 11
44.54636097125874
 21
286.487105534771
 31
0.0
 11
44.61907794475736
 21
286.9329909675326
 31
0.0
 11
44.6453091542
 21
287.3833648696
 31
0.0
  0
SPLINE
  5
FC
330
1F
100
AcDbEntity
  8
BEZUGSACHSEN
  6
Continuous
 62
     7
100
AcDbSpline
210
0.0
220
0.0
230
1.0
 70
     8
 71
     3
 72
    11
 73
     7
 74
     5
 42
0.0000000001
 43
0.0000000001
 44
0.00000001
 40
0.0
 40
0.0
 40
0.0
 40
0.0
 40
0.8249192366724755
 40
1.650116891930991
 40
2.190492152293427
 40
2.730585915378194
 40
2.730585915378194
 40
2.730585915378194
 40
2.730585915378194
 10
44.6453091542
 20
312.1906447664
 30
0.0
 10
44.62757584986181
 20
312.4658350583769
 30
0.0
 10
44.59210325601586
 20
313.0163085218377
 30
0.0
 10
44.38366843938043
 20
313.7210421069906
 30
0.0
 10
44.15344200840079
 20
314.3132558320708
 30
0.0
 10
43.99264142559883
 20
314.6357831655159
 30
0.0
 10
43.9122620810854
 20
314.797004817815
 30
0.0
 11
44.6453091542
 21
312.1906447664
 31
0.0
 11
44.56173370008426
 21
313.0113194220959
 31
0.0
 11
44.34377225797247
 21
313.8072113619953
 31
0.0
 11
44.14583717941331
 21
314.310030540913
 31
0.0
 11
43.9122620810854
 21
314.797004817815
 31
0.0
  0
DIMENSION
  5
107
330
1F
100
AcDbEntity
  8
1
100
AcDbDimension
  2
*D2
 10
203.539222747939
 20
308.787004818
 30
0.0
 11
199.789222747939
 21
299.424941341708
 31
0.0
 70
    32
  1
<>
 71
     5
 42
-1.0
 53
90.0
  3
ME10_DIM_10
100
AcDbAlignedDimension
 13
192.6453091542
 23
290.787004818
 33
0.0
 14
192.6453091542
 24
308.787004818
 34
0.0
 50
90.0
100
AcDbRotatedDimension
  0
DIMENSION
  5
112
330
1F
100
AcDbEntity
  8
1
100
AcDbDimension
  2
*D3
 10
212.304499357201
 20
316.2870048180528
 30
0.0
 11
208.554499357201
 21
300.002871667593
 31
0.0
 70
    32
  1
<>
 71
     5
 42
-1.0
 53
90.0
  3
ME10_DIM_11
100
AcDbAlignedDimension
 13
192.6453091542
 23
283.2870048179487
 33
0.0
 14
192.6453091542
 24
316.2870048180528
 34
0.0
 50
90.0
100
AcDbRotatedDimension
  0
DIMENSION
  5
11D
330
1F
100
AcDbEntity
  8
1
100
AcDbDimension
  2
*D4
 10
221.84034973431
 20
320.787004818
 30
0.0
 11
218.09034973431
 21
300.484480272498
 31
0.0
 70
    32
  1
<>
 71
     5
 42
-1.0
 53
90.0
  3
ME10_DIM_12
100
AcDbAlignedDimension
 13
135.4673878414
 23
278.787004818
 33
0.0
 14
135.4673878414
 24
320.787004818
 34
0.0
 50
90.0
100
AcDbRotatedDimension
  0
DIMENSION
  5
128
330
1F
100
AcDbEntity
  8
1
100
AcDbDimension
  2
*D5
 10
192.6453091542
 20
357.601618523952
 30
0.0
 11
156.629094800187
 21
361.351618523952
 31
0.0
 70
    32
  1
<>
 71
     5
 42
-1.0
 53
0.00013888888889
  3
ME10_DIM_13
100
AcDbAlignedDimension
 13
121.6453091542
 23
349.7869678969
 33
0.0
 14
192.6453091542
 24
315.3626143263
 34
0.0
100
AcDbRotatedDimension
  0
DIMENSION
  5
133
330
1F
100
AcDbEntity
  8
1
100
AcDbDimension
  2
*D6
 10
192.6453091542
 20
365.445000206186
 30
0.0
 11
143.603478792193
 21
369.195000206186
 31
0.0
 70
    32
  1
<>
 71
     5
 42
-1.0
 53
0.00013888888889
  3
ME10_DIM_14
100
AcDbAlignedDimension
 13
92.6453091542
 23
349.787004818
 33
0.0
 14
192.6453091542
 24
315.3626143263
 34
0.0
100
AcDbRotatedDimension
  0
DIMENSION
  5
13E
330
1F
100
AcDbEntity
  8
1
100
AcDbDimension
  2
*D7
 10
192.6453091542
 20
373.269102325248
 30
0.0
 11
126.482803120307
 21
377.019102325248
 31
0.0
 70
    32
  1
<>
 71
     5
 42
-1.0
 53
0.00013888888889
  3
ME10_DIM_15
100
AcDbAlignedDimension
 13
42.6453091542
 23
333.3871963806
 33
0.0
 14
192.6453091542
 24
315.3626143263
 34
0.0
100
AcDbRotatedDimension
  0
INSERT
  5
145
330
1F
100
AcDbEntity
  8
1
100
AcDbBlockReference
  2
*D8
 10
0.0
 20
0.0
 30
0.0
  0
DIMENSION
  5
150
330
1F
100
AcDbEntity
  8
1
100
AcDbDimension
  2
*D9
 10
176.7662002912457
 20
319.1643700575647
 30
0.0
 11
179.7730644931607
 21
329.1101320272925
 31
0.0
 70
    37
  1
<>
 71
     5
 42
-1.0
  3
ME10_DIM_16
100
AcDb3PointAngularDimension
 13
176.6706560618074
 23
317.5442372823189
 33
0.0
 14
139.6004555317885
 24
320.787004818
 34
0.0
 15
135.4673878414
 25
320.787004818
 35
0.0
  0
ENDSEC
  0
SECTION
  2
OBJECTS
  0
DICTIONARY
  5
C
330
0
100
AcDbDictionary
281
     1
  3
ACAD_GROUP
350
D
  3
ACAD_LAYOUT
350
1A
  3
ACAD_MLEADERSTYLE
350
153
  3
ACAD_MLINESTYLE
350
17
  3
ACAD_PLOTSETTINGS
350
19
  3
ACAD_PLOTSTYLENAME
350
E
  3
ACAD_SCALELIST
350
4A
  3
ACAD_VISUALSTYLE
350
2A
  3
AcDbVariableDictionary
350
151
  0
DICTIONARY
  5
D
102
{ACAD_REACTORS
330
C
102
}
330
C
100
AcDbDictionary
281
     1
  0
DICTIONARY
  5
1A
102
{ACAD_REACTORS
330
C
102
}
330
C
100
AcDbDictionary
281
     1
  3
Layout1
350
1E
  3
Layout2
350
26
  3
Model
350
22
  0
DICTIONARY
  5
153
102
{ACAD_REACTORS
330
C
102
}
330
C
100
AcDbDictionary
281
     1
  0
DICTIONARY
  5
17
102
{ACAD_REACTORS
330
C
102
}
330
C
100
AcDbDictionary
281
     1
  3
Standard
350
18
  0
DICTIONARY
  5
19
102
{ACAD_REACTORS
330
C
102
}
330
C
100
AcDbDictionary
281
     1
  0
ACDBDICTIONARYWDFLT
  5
E
102
{ACAD_REACTORS
330
C
102
}
330
C
100
AcDbDictionary
281
     1
  3
Normal
350
F
100
AcDbDictionaryWithDefault
340
F
  0
DICTIONARY
  5
4A
102
{ACAD_REACTORS
330
C
102
}
330
C
100
AcDbDictionary
281
     1
  3
A0
350
4B
  3
A1
350
4C
  3
A2
350
4D
  3
A3
350
4E
  3
A4
350
4F
  3
A5
350
50
  3
A6
350
51
  3
A7
350
52
  3
A8
350
53
  3
A9
350
54
  3
B0
350
55
  3
B1
350
56
  3
B2
350
57
  3
B3
350
58
  3
B4
350
59
  3
B5
350
5A
  3
B6
350
5B
  3
B7
350
5C
  3
B8
350
5D
  3
B9
350
5E
  3
C0
350
5F
  3
C1
350
60
  3
C2
350
61
  3
C3
350
62
  3
C4
350
63
  3
C5
350
64
  3
C6
350
65
  3
C7
350
66
  3
C8
350
67
  3
C9
350
68
  3
D0
350
69
  3
D1
350
6A
  3
D2
350
6B
  0
DICTIONARY
  5
2A
102
{ACAD_REACTORS
330
C
102
}
330
C
100
AcDbDictionary
281
     1
  3
2dWireframe
350
2F
  3
3D Hidden
350
31
  3
3dWireframe
350
30
  3
Basic
350
32
  3
Brighten
350
36
  3
ColorChange
350
3A
  3
Conceptual
350
34
  3
Dim
350
35
  3
Facepattern
350
39
  3
Flat
350
2B
  3
FlatWithEdges
350
2C
  3
Gouraud
350
2D
  3
GouraudWithEdges
350
2E
  3
Linepattern
350
38
  3
Realistic
350
33
  3
Thicken
350
37
  0
DICTIONARY
  5
151
102
{ACAD_REACTORS
330
C
102
}
330
C
100
AcDbDictionary
281
     1
  3
CANNOSCALE
350
154
  0
LAYOUT
  5
1E
102
{ACAD_REACTORS
330
1A
102
}
330
1A
100
AcDbPlotSettings
  1

  2
none_device
  4

  6

 40
0.0
 41
0.0
 42
0.0
 43
0.0
 44
0.0
 45
0.0
 46
0.0
 47
0.0
 48
0.0
 49
0.0
140
0.0
141
0.0
142
1.0
143
1.0
 70
   688
 72
     0
 73
     0
 74
     5
  7

 75
    16
147
1.0
148
0.0
149
0.0
100
AcDbLayout
  1
Layout1
 70
     1
 71
     1
 10
0.0
 20
0.0
 11
12.0
 21
9.0
 12
0.0
 22
0.0
 32
0.0
 14
1.00000000000000E+20
 24
1.00000000000000E+20
 34
1.00000000000000E+20
 15
-1.00000000000000E+20
 25
-1.00000000000000E+20
 35
-1.00000000000000E+20
146
0.0
 13
0.0
 23
0.0
 33
0.0
 16
1.0
 26
0.0
 36
0.0
 17
0.0
 27
1.0
 37
0.0
 76
     0
330
1B
  0
LAYOUT
  5
26
102
{ACAD_REACTORS
330
1A
102
}
330
1A
100
AcDbPlotSettings
  1

  2
none_device
  4

  6

 40
0.0
 41
0.0
 42
0.0
 43
0.0
 44
0.0
 45
0.0
 46
0.0
 47
0.0
 48
0.0
 49
0.0
140
0.0
141
0.0
142
1.0
143
1.0
 70
   688
 72
     0
 73
     0
 74
     5
  7

 75
    16
147
1.0
148
0.0
149
0.0
100
AcDbLayout
  1
Layout2
 70
     1
 71
     2
 10
0.0
 20
0.0
 11
0.0
 21
0.0
 12
0.0
 22
0.0
 32
0.0
 14
0.0
 24
0.0
 34
0.0
 15
0.0
 25
0.0
 35
0.0
146
0.0
 13
0.0
 23
0.0
 33
0.0
 16
1.0
 26
0.0
 36
0.0
 17
0.0
 27
1.0
 37
0.0
 76
     0
330
23
  0
LAYOUT
  5
22
102
{ACAD_REACTORS
330
1A
102
}
330
1A
100
AcDbPlotSettings
  1

  2
none_device
  4

  6

 40
0.0
 41
0.0
 42
0.0
 43
0.0
 44
0.0
 45
0.0
 46
0.0
 47
0.0
 48
0.0
 49
0.0
140
0.0
141
0.0
142
1.0
143
1.0
 70
  1712
 72
     0
 73
     0
 74
     0
  7

 75
     0
147
1.0
148
0.0
149
0.0
100
AcDbLayout
  1
Model
 70
     1
 71
     0
 10
0.0
 20
0.0
 11
12.0
 21
9.0
 12
0.0
 22
0.0
 32
0.0
 14
21.0432198427951
 24
249.787004818
 34
0.0
 15
223.84034973431
 25
378.769102325248
 35
0.0
146
0.0
 13
0.0
 23
0.0
 33
0.0
 16
1.0
 26
0.0
 36
0.0
 17
0.0
 27
1.0
 37
0.0
 76
     0
330
1F
331
29
  0
MLINESTYLE
  5
18
102
{ACAD_REACTORS
330
17
102
}
330
17
100
AcDbMlineStyle
  2
Standard
 70
     0
  3

 62
   256
 51
90.0
 52
90.0
 71
     2
 49
0.5
 62
   256
  6
BYLAYER
 49
-0.5
 62
   256
  6
BYLAYER
  0
ACDBPLACEHOLDER
  5
F
102
{ACAD_REACTORS
330
E
102
}
330
E
  0
SCALE
  5
4B
102
{ACAD_REACTORS
330
4A
102
}
330
4A
100
AcDbScale
 70
     0
300
1:1
140
1.0
141
1.0
290
     1
  0
SCALE
  5
4C
102
{ACAD_REACTORS
330
4A
102
}
330
4A
100
AcDbScale
 70
     0
300
1:2
140
1.0
141
2.0
290
     0
  0
SCALE
  5
4D
102
{ACAD_REACTORS
330
4A
102
}
330
4A
100
AcDbScale
 70
     0
300
1:4
140
1.0
141
4.0
290
     0
  0
SCALE
  5
4E
102
{ACAD_REACTORS
330
4A
102
}
330
4A
100
AcDbScale
 70
     0
300
1:5
140
1.0
141
5.0
290
     0
  0
SCALE
  5
4F
102
{ACAD_REACTORS
330
4A
102
}
330
4A
100
AcDbScale
 70
     0
300
1:8
140
1.0
141
8.0
290
     0
  0
SCALE
  5
50
102
{ACAD_REACTORS
330
4A
102
}
330
4A
100
AcDbScale
 70
     0
300
1:10
140
1.0
141
10.0
290
     0
  0
SCALE
  5
51
102
{ACAD_REACTORS
330
4A
102
}
330
4A
100
AcDbScale
 70
     0
300
1:16
140
1.0
141
16.0
290
     0
  0
SCALE
  5
52
102
{ACAD_REACTORS
330
4A
102
}
330
4A
100
AcDbScale
 70
     0
300
1:20
140
1.0
141
20.0
290
     0
  0
SCALE
  5
53
102
{ACAD_REACTORS
330
4A
102
}
330
4A
100
AcDbScale
 70
     0
300
1:30
140
1.0
141
30.0
290
     0
  0
SCALE
  5
54
102
{ACAD_REACTORS
330
4A
102
}
330
4A
100
AcDbScale
 70
     0
300
1:40
140
1.0
141
40.0
290
     0
  0
SCALE
  5
55
102
{ACAD_REACTORS
330
4A
102
}
330
4A
100
AcDbScale
 70
     0
300
1:50
140
1.0
141
50.0
290
     0
  0
SCALE
  5
56
102
{ACAD_REACTORS
330
4A
102
}
330
4A
100
AcDbScale
 70
     0
300
1:100
140
1.0
141
100.0
290
     0
  0
SCALE
  5
57
102
{ACAD_REACTORS
330
4A
102
}
330
4A
100
AcDbScale
 70
     0
300
2:1
140
2.0
141
1.0
290
     0
  0
SCALE
  5
58
102
{ACAD_REACTORS
330
4A
102
}
330
4A
100
AcDbScale
 70
     0
300
4:1
140
4.0
141
1.0
290
     0
  0
SCALE
  5
59
102
{ACAD_REACTORS
330
4A
102
}
330
4A
100
AcDbScale
 70
     0
300
8:1
140
8.0
141
1.0
290
     0
  0
SCALE
  5
5A
102
{ACAD_REACTORS
330
4A
102
}
330
4A
100
AcDbScale
 70
     0
300
10:1
140
10.0
141
1.0
290
     0
  0
SCALE
  5
5B
102
{ACAD_REACTORS
330
4A
102
}
330
4A
100
AcDbScale
 70
     0
300
100:1
140
100.0
141
1.0
290
     0
  0
SCALE
  5
5C
102
{ACAD_REACTORS
330
4A
102
}
330
4A
100
AcDbScale
 70
     0
300
1/128" = 1'-0"
140
0.0078125
141
12.0
290
     0
  0
SCALE
  5
5D
102
{ACAD_REACTORS
330
4A
102
}
330
4A
100
AcDbScale
 70
     0
300
1/64" = 1'-0"
140
0.015625
141
12.0
290
     0
  0
SCALE
  5
5E
102
{ACAD_REACTORS
330
4A
102
}
330
4A
100
AcDbScale
 70
     0
300
1/32" = 1'-0"
140
0.03125
141
12.0
290
     0
  0
SCALE
  5
5F
102
{ACAD_REACTORS
330
4A
102
}
330
4A
100
AcDbScale
 70
     0
300
1/16" = 1'-0"
140
0.0625
141
12.0
290
     0
  0
SCALE
  5
60
102
{ACAD_REACTORS
330
4A
102
}
330
4A
100
AcDbScale
 70
     0
300
3/32" = 1'-0"
140
0.09375
141
12.0
290
     0
  0
SCALE
  5
61
102
{ACAD_REACTORS
330
4A
102
}
330
4A
100
AcDbScale
 70
     0
300
1/8" = 1'-0"
140
0.125
141
12.0
290
     0
  0
SCALE
  5
62
102
{ACAD_REACTORS
330
4A
102
}
330
4A
100
AcDbScale
 70
     0
300
3/16" = 1'-0"
140
0.1875
141
12.0
290
     0
  0
SCALE
  5
63
102
{ACAD_REACTORS
330
4A
102
}
330
4A
100
AcDbScale
 70
     0
300
1/4" = 1'-0"
140
0.25
141
12.0
290
     0
  0
SCALE
  5
64
102
{ACAD_REACTORS
330
4A
102
}
330
4A
100
AcDbScale
 70
     0
300
3/8" = 1'-0"
140
0.375
141
12.0
290
     0
  0
SCALE
  5
65
102
{ACAD_REACTORS
330
4A
102
}
330
4A
100
AcDbScale
 70
     0
300
1/2" = 1'-0"
140
0.5
141
12.0
290
     0
  0
SCALE
  5
66
102
{ACAD_REACTORS
330
4A
102
}
330
4A
100
AcDbScale
 70
     0
300
3/4" = 1'-0"
140
0.75
141
12.0
290
     0
  0
SCALE
  5
67
102
{ACAD_REACTORS
330
4A
102
}
330
4A
100
AcDbScale
 70
     0
300
1" = 1'-0"
140
1.0
141
12.0
290
     0
  0
SCALE
  5
68
102
{ACAD_REACTORS
330
4A
102
}
330
4A
100
AcDbScale
 70
     0
300
1-1/2" = 1'-0"
140
1.5
141
12.0
290
     0
  0
SCALE
  5
69
102
{ACAD_REACTORS
330
4A
102
}
330
4A
100
AcDbScale
 70
     0
300
3" = 1'-0"
140
3.0
141
12.0
290
     0
  0
SCALE
  5
6A
102
{ACAD_REACTORS
330
4A
102
}
330
4A
100
AcDbScale
 70
     0
300
6" = 1'-0"
140
6.0
141
12.0
290
     0
  0
SCALE
  5
6B
102
{ACAD_REACTORS
330
4A
102
}
330
4A
100
AcDbScale
 70
     0
300
1'-0" = 1'-0"
140
12.0
141
12.0
290
     0
  0
VISUALSTYLE
  5
2F
102
{ACAD_REACTORS
330
2A
102
}
330
2A
100
AcDbVisualStyle
  2
2dWireframe
 70
     4
 71
     0
 72
     2
 73
     0
 90
        0
 40
-0.6
 41
-30.0
 62
     5
 63
     7
 74
     1
 91
        4
 64
     7
 65
   257
 75
     1
175
     1
 42
1.0
 92
        0
 66
   257
 43
1.0
 76
     1
 77
     6
 78
     2
 67
     7
 79
     5
170
     0
171
     0
290
     0
174
     0
 93
        1
 44
0.0
173
     0
291
     0
 45
0.0
1001
ACAD
1000
AcDbSavedByObjectVersion
1070
     0
  0
VISUALSTYLE
  5
31
102
{ACAD_REACTORS
330
2A
102
}
330
2A
100
AcDbVisualStyle
  2
3D Hidden
 70
     6
 71
     1
 72
     2
 73
     2
 90
        0
 40
-0.6
 41
-30.0
 62
     5
 63
     7
 74
     2
 91
        2
 64
     7
 65
   257
 75
     2
175
     1
 42
40.0
 92
        0
 66
   257
 43
1.0
 76
     1
 77
     6
 78
     2
 67
     7
 79
     3
170
     0
171
     0
290
     0
174
     0
 93
        1
 44
0.0
173
     0
291
     0
 45
0.0
1001
ACAD
1000
AcDbSavedByObjectVersion
1070
     0
  0
VISUALSTYLE
  5
30
102
{ACAD_REACTORS
330
2A
102
}
330
2A
100
AcDbVisualStyle
  2
3dWireframe
 70
     5
 71
     0
 72
     2
 73
     0
 90
        0
 40
-0.6
 41
-30.0
 62
     5
 63
     7
 74
     1
 91
        4
 64
     7
 65
   257
 75
     1
175
     1
 42
1.0
 92
        0
 66
   257
 43
1.0
 76
     1
 77
     6
 78
     2
 67
     7
 79
     5
170
     0
171
     0
290
     0
174
     0
 93
        1
 44
0.0
173
     0
291
     0
 45
0.0
1001
ACAD
1000
AcDbSavedByObjectVersion
1070
     0
  0
VISUALSTYLE
  5
32
102
{ACAD_REACTORS
330
2A
102
}
330
2A
100
AcDbVisualStyle
  2
Basic
 70
     7
 71
     1
 72
     0
 73
     1
 90
        0
 40
-0.6
 41
-30.0
 62
     5
 63
     7
 74
     0
 91
        4
 64
     7
 65
   257
 75
     1
175
     1
 42
1.0
 92
        8
 66
     7
 43
1.0
 76
     1
 77
     6
 78
     2
 67
     7
 79
     5
170
     0
171
     0
290
     0
174
     0
 93
        1
 44
0.0
173
     0
291
     1
 45
0.0
1001
ACAD
1000
AcDbSavedByObjectVersion
1070
     0
  0
VISUALSTYLE
  5
36
102
{ACAD_REACTORS
330
2A
102
}
330
2A
100
AcDbVisualStyle
  2
Brighten
 70
    12
 71
     2
 72
     2
 73
     0
 90
        0
 40
-0.6
 41
-30.0
 62
     5
 63
     7
 74
     1
 91
        4
 64
     7
 65
   257
 75
     1
175
     1
 42
1.0
 92
        8
 66
     7
 43
1.0
 76
     1
 77
     6
 78
     2
 67
     7
 79
     5
170
     0
171
     0
290
     0
174
     0
 93
        1
 44
50.0
173
     0
291
     1
 45
0.0
1001
ACAD
1000
AcDbSavedByObjectVersion
1070
     0
  0
VISUALSTYLE
  5
3A
102
{ACAD_REACTORS
330
2A
102
}
330
2A
100
AcDbVisualStyle
  2
ColorChange
 70
    16
 71
     2
 72
     2
 73
     3
 90
        0
 40
-0.6
 41
-30.0
 62
     5
 63
     8
 74
     1
 91
        4
 64
     7
 65
   257
 75
     1
175
     1
 42
1.0
 92
        8
 66
     8
 43
1.0
 76
     1
 77
     6
 78
     2
 67
     7
 79
     5
170
     0
171
     0
290
     0
174
     0
 93
        1
 44
0.0
173
     0
291
     1
 45
0.0
1001
ACAD
1000
AcDbSavedByObjectVersion
1070
     0
  0
VISUALSTYLE
  5
34
102
{ACAD_REACTORS
330
2A
102
}
330
2A
100
AcDbVisualStyle
  2
Conceptual
 70
     9
 71
     3
 72
     2
 73
     0
 90
        0
 40
-0.6
 41
-30.0
 62
     5
 63
     7
 74
     2
 91
        2
 64
     7
 65
   257
 75
     1
175
     1
 42
40.0
 92
        8
 66
     7
 43
1.0
 76
     1
 77
     6
 78
     2
 67
     7
 79
     3
170
     0
171
     0
290
     0
174
     0
 93
        1
 44
0.0
173
     0
291
     0
 45
0.0
1001
ACAD
1000
AcDbSavedByObjectVersion
1070
     0
  0
VISUALSTYLE
  5
35
102
{ACAD_REACTORS
330
2A
102
}
330
2A
100
AcDbVisualStyle
  2
Dim
 70
    11
 71
     2
 72
     2
 73
     0
 90
        0
 40
-0.6
 41
-30.0
 62
     5
 63
     7
 74
     1
 91
        4
 64
     7
 65
   257
 75
     1
175
     1
 42
1.0
 92
        8
 66
     7
 43
1.0
 76
     1
 77
     6
 78
     2
 67
     7
 79
     5
170
     0
171
     0
290
     0
174
     0
 93
        1
 44
-50.0
173
     0
291
     1
 45
0.0
1001
ACAD
1000
AcDbSavedByObjectVersion
1070
     0
  0
VISUALSTYLE
  5
39
102
{ACAD_REACTORS
330
2A
102
}
330
2A
100
AcDbVisualStyle
  2
Facepattern
 70
    15
 71
     2
 72
     2
 73
     0
 90
        0
 40
-0.6
 41
-30.0
 62
     5
 63
     7
 74
     1
 91
        4
 64
     7
 65
   257
 75
     1
175
     1
 42
1.0
 92
        8
 66
     7
 43
1.0
 76
     1
 77
     6
 78
     2
 67
     7
 79
     5
170
     0
171
     0
290
     0
174
     0
 93
        1
 44
0.0
173
     0
291
     1
 45
0.0
1001
ACAD
1000
AcDbSavedByObjectVersion
1070
     0
  0
VISUALSTYLE
  5
2B
102
{ACAD_REACTORS
330
2A
102
}
330
2A
100
AcDbVisualStyle
  2
Flat
 70
     0
 71
     2
 72
     1
 73
     1
 90
        2
 40
-0.6
 41
30.0
 62
     5
 63
     7
 74
     0
 91
        4
 64
     7
 65
   257
 75
     1
175
     1
 42
1.0
 92
        8
 66
     7
 43
1.0
 76
     1
 77
     6
 78
     2
 67
     7
 79
     5
170
     0
171
     0
290
     0
174
     0
 93
       13
 44
0.0
173
     0
291
     1
 45
0.0
1001
ACAD
1000
AcDbSavedByObjectVersion
1070
     0
  0
VISUALSTYLE
  5
2C
102
{ACAD_REACTORS
330
2A
102
}
330
2A
100
AcDbVisualStyle
  2
FlatWithEdges
 70
     1
 71
     2
 72
     1
 73
     1
 90
        2
 40
-0.6
 41
30.0
 62
     5
 63
     7
 74
     1
 91
        4
 64
     7
 65
   257
 75
     1
175
     1
 42
1.0
 92
        0
 66
   257
 43
1.0
 76
     1
 77
     6
 78
     2
 67
     7
 79
     5
170
     0
171
     0
290
     0
174
     0
 93
       13
 44
0.0
173
     0
291
     1
 45
0.0
1001
ACAD
1000
AcDbSavedByObjectVersion
1070
     0
  0
VISUALSTYLE
  5
2D
102
{ACAD_REACTORS
330
2A
102
}
330
2A
100
AcDbVisualStyle
  2
Gouraud
 70
     2
 71
     2
 72
     2
 73
     1
 90
        2
 40
-0.6
 41
30.0
 62
     5
 63
     7
 74
     0
 91
        4
 64
     7
 65
   257
 75
     1
175
     1
 42
1.0
 92
        0
 66
     7
 43
1.0
 76
     1
 77
     6
 78
     2
 67
     7
 79
     5
170
     0
171
     0
290
     0
174
     0
 93
       13
 44
0.0
173
     0
291
     1
 45
0.0
1001
ACAD
1000
AcDbSavedByObjectVersion
1070
     0
  0
VISUALSTYLE
  5
2E
102
{ACAD_REACTORS
330
2A
102
}
330
2A
100
AcDbVisualStyle
  2
GouraudWithEdges
 70
     3
 71
     2
 72
     2
 73
     1
 90
        2
 40
-0.6
 41
30.0
 62
     5
 63
     7
 74
     1
 91
        4
 64
     7
 65
   257
 75
     1
175
     1
 42
1.0
 92
        0
 66
   257
 43
1.0
 76
     1
 77
     6
 78
     2
 67
     7
 79
     5
170
     0
171
     0
290
     0
174
     0
 93
       13
 44
0.0
173
     0
291
     1
 45
0.0
1001
ACAD
1000
AcDbSavedByObjectVersion
1070
     0
  0
VISUALSTYLE
  5
38
102
{ACAD_REACTORS
330
2A
102
}
330
2A
100
AcDbVisualStyle
  2
Linepattern
 70
    14
 71
     2
 72
     2
 73
     0
 90
        0
 40
-0.6
 41
-30.0
 62
     5
 63
     7
 74
     1
 91
        4
 64
     7
 65
   257
 75
     7
175
     7
 42
1.0
 92
        8
 66
     7
 43
1.0
 76
     1
 77
     6
 78
     2
 67
     7
 79
     5
170
     0
171
     0
290
     0
174
     0
 93
        1
 44
0.0
173
     0
291
     1
 45
0.0
1001
ACAD
1000
AcDbSavedByObjectVersion
1070
     0
  0
VISUALSTYLE
  5
33
102
{ACAD_REACTORS
330
2A
102
}
330
2A
100
AcDbVisualStyle
  2
Realistic
 70
     8
 71
     2
 72
     2
 73
     0
 90
        0
 40
-0.6
 41
-30.0
 62
     5
 63
     7
 74
     1
 91
        0
 64
     7
 65
   257
 75
     1
175
     1
 42
1.0
 92
        8
 66
     8
 43
1.0
 76
     1
 77
     6
 78
     2
 67
     7
 79
     5
170
     0
171
     0
290
     0
174
     0
 93
       13
 44
0.0
173
     0
291
     0
 45
0.0
1001
ACAD
1000
AcDbSavedByObjectVersion
1070
     0
  0
VISUALSTYLE
  5
37
102
{ACAD_REACTORS
330
2A
102
}
330
2A
100
AcDbVisualStyle
  2
Thicken
 70
    13
 71
     2
 72
     2
 73
     0
 90
        0
 40
-0.6
 41
-30.0
 62
     5
 63
     7
 74
     1
 91
        4
 64
     7
 65
   257
 75
     1
175
     1
 42
1.0
 92
       12
 66
     7
 43
1.0
 76
     1
 77
     6
 78
     2
 67
     7
 79
     5
170
     0
171
     0
290
     0
174
     0
 93
        1
 44
0.0
173
     0
291
     1
 45
0.0
1001
ACAD
1000
AcDbSavedByObjectVersion
1070
     0
  0
DICTIONARYVAR
  5
154
102
{ACAD_REACTORS
330
151
102
}
330
151
100
DictionaryVariables
280
     0
  1
1:1
  0
ENDSEC
  0
EOF
