  0
SECTION
  2
HEADER
  9
$ACADVER
  1
AC1015
  9
$ACADMAINTVER
 70
     6
  9
$DWGCODEPAGE
  3
ANSI_1252
  9
$INSBASE
 10
0.0
 20
0.0
 30
0.0
  9
$EXTMIN
 10
30.7805989489419
 20
254.8176609342
 30
0.0
  9
$EXTMAX
 10
232.609074327899
 20
382.53266562817
 30
0.0
  9
$LIMMIN
 10
0.0
 20
0.0
  9
$LIMMAX
 10
12.0
 20
9.0
  9
$ORTHOMODE
 70
     0
  9
$REGENMODE
 70
     1
  9
$FILLMODE
 70
     1
  9
$QTEXTMODE
 70
     0
  9
$MIRRTEXT
 70
     1
  9
$LTSCALE
 40
1.0
  9
$ATTMODE
 70
     1
  9
$TEXTSIZE
 40
0.2
  9
$TRACEWID
 40
0.05
  9
$TEXTSTYLE
  7
Standard
  9
$CLAYER
  8
0
  9
$CELTYPE
  6
ByLayer
  9
$CECOLOR
 62
   256
  9
$CELTSCALE
 40
1.0
  9
$DISPSILH
 70
     0
  9
$DIMSCALE
 40
1.0
  9
$DIMASZ
 40
0.18
  9
$DIMEXO
 40
0.0625
  9
$DIMDLI
 40
0.38
  9
$DIMRND
 40
0.0
  9
$DIMDLE
 40
0.0
  9
$DIMEXE
 40
0.18
  9
$DIMTP
 40
0.0
  9
$DIMTM
 40
0.0
  9
$DIMTXT
 40
0.18
  9
$DIMCEN
 40
0.09
  9
$DIMTSZ
 40
0.0
  9
$DIMTOL
 70
     0
  9
$DIMLIM
 70
     0
  9
$DIMTIH
 70
     1
  9
$DIMTOH
 70
     1
  9
$DIMSE1
 70
     0
  9
$DIMSE2
 70
     0
  9
$DIMTAD
 70
     0
  9
$DIMZIN
 70
     0
  9
$DIMBLK
  1

  9
$DIMASO
 70
     1
  9
$DIMSHO
 70
     1
  9
$DIMPOST
  1

  9
$DIMAPOST
  1

  9
$DIMALT
 70
     0
  9
$DIMALTD
 70
     2
  9
$DIMALTF
 40
25.4
  9
$DIMLFAC
 40
1.0
  9
$DIMTOFL
 70
     0
  9
$DIMTVP
 40
0.0
  9
$DIMTIX
 70
     0
  9
$DIMSOXD
 70
     0
  9
$DIMSAH
 70
     0
  9
$DIMBLK1
  1

  9
$DIMBLK2
  1

  9
$DIMSTYLE
  2
Standard
  9
$DIMCLRD
 70
     0
  9
$DIMCLRE
 70
     0
  9
$DIMCLRT
 70
     0
  9
$DIMTFAC
 40
1.0
  9
$DIMGAP
 40
0.09
  9
$DIMJUST
 70
     0
  9
$DIMSD1
 70
     0
  9
$DIMSD2
 70
     0
  9
$DIMTOLJ
 70
     1
  9
$DIMTZIN
 70
     0
  9
$DIMALTZ
 70
     0
  9
$DIMALTTZ
 70
     0
  9
$DIMUPT
 70
     0
  9
$DIMDEC
 70
     4
  9
$DIMTDEC
 70
     4
  9
$DIMALTU
 70
     2
  9
$DIMALTTD
 70
     2
  9
$DIMTXSTY
  7
Standard
  9
$DIMAUNIT
 70
     0
  9
$DIMADEC
 70
     0
  9
$DIMALTRND
 40
0.0
  9
$DIMAZIN
 70
     0
  9
$DIMDSEP
 70
    46
  9
$DIMATFIT
 70
     3
  9
$DIMFRAC
 70
     0
  9
$DIMLDRBLK
  1

  9
$DIMLUNIT
 70
     2
  9
$DIMLWD
 70
    -2
  9
$DIMLWE
 70
    -2
  9
$DIMTMOVE
 70
     0
  9
$LUNITS
 70
     2
  9
$LUPREC
 70
     4
  9
$SKETCHINC
 40
0.1
  9
$FILLETRAD
 40
0.5
  9
$AUNITS
 70
     0
  9
$AUPREC
 70
     0
  9
$MENU
  1
.
  9
$ELEVATION
 40
0.0
  9
$PELEVATION
 40
0.0
  9
$THICKNESS
 40
0.0
  9
$LIMCHECK
 70
     0
  9
$CHAMFERA
 40
0.5
  9
$CHAMFERB
 40
0.5
  9
$CHAMFERC
 40
1.0
  9
$CHAMFERD
 40
0.0
  9
$SKPOLY
 70
     0
  9
$TDCREATE
 40
2456748.732290382
  9
$TDUCREATE
 40
2456748.648957049
  9
$TDUPDATE
 40
2456748.732290394
  9
$TDUUPDATE
 40
2456748.64895706
  9
$TDINDWG
 40
0.0000000116
  9
$TDUSRTIMER
 40
0.0000000116
  9
$USRTIMER
 70
     1
  9
$ANGBASE
 50
0.0
  9
$ANGDIR
 70
     0
  9
$PDMODE
 70
     0
  9
$PDSIZE
 40
0.0
  9
$PLINEWID
 40
0.0
  9
$SPLFRAME
 70
     0
  9
$SPLINETYPE
 70
     6
  9
$SPLINESEGS
 70
     8
  9
$HANDSEED
  5
155
  9
$SURFTAB1
 70
     6
  9
$SURFTAB2
 70
     6
  9
$SURFTYPE
 70
     6
  9
$SURFU
 70
     6
  9
$SURFV
 70
     6
  9
$UCSBASE
  2

  9
$UCSNAME
  2

  9
$UCSORG
 10
0.0
 20
0.0
 30
0.0
  9
$UCSXDIR
 10
1.0
 20
0.0
 30
0.0
  9
$UCSYDIR
 10
0.0
 20
1.0
 30
0.0
  9
$UCSORTHOREF
  2

  9
$UCSORTHOVIEW
 70
     0
  9
$UCSORGTOP
 10
0.0
 20
0.0
 30
0.0
  9
$UCSORGBOTTOM
 10
0.0
 20
0.0
 30
0.0
  9
$UCSORGLEFT
 10
0.0
 20
0.0
 30
0.0
  9
$UCSORGRIGHT
 10
0.0
 20
0.0
 30
0.0
  9
$UCSORGFRONT
 10
0.0
 20
0.0
 30
0.0
  9
$UCSORGBACK
 10
0.0
 20
0.0
 30
0.0
  9
$PUCSBASE
  2

  9
$PUCSNAME
  2

  9
$PUCSORG
 10
0.0
 20
0.0
 30
0.0
  9
$PUCSXDIR
 10
1.0
 20
0.0
 30
0.0
  9
$PUCSYDIR
 10
0.0
 20
1.0
 30
0.0
  9
$PUCSORTHOREF
  2

  9
$PUCSORTHOVIEW
 70
     0
  9
$PUCSORGTOP
 10
0.0
 20
0.0
 30
0.0
  9
$PUCSORGBOTTOM
 10
0.0
 20
0.0
 30
0.0
  9
$PUCSORGLEFT
 10
0.0
 20
0.0
 30
0.0
  9
$PUCSORGRIGHT
 10
0.0
 20
0.0
 30
0.0
  9
$PUCSORGFRONT
 10
0.0
 20
0.0
 30
0.0
  9
$PUCSORGBACK
 10
0.0
 20
0.0
 30
0.0
  9
$USERI1
 70
     0
  9
$USERI2
 70
     0
  9
$USERI3
 70
     0
  9
$USERI4
 70
     0
  9
$USERI5
 70
     0
  9
$USERR1
 40
16.5
  9
$USERR2
 40
0.0
  9
$USERR3
 40
0.0
  9
$USERR4
 40
0.0
  9
$USERR5
 40
0.0
  9
$WORLDVIEW
 70
     1
  9
$SHADEDGE
 70
     3
  9
$SHADEDIF
 70
    70
  9
$TILEMODE
 70
     1
  9
$MAXACTVP
 70
    64
  9
$PINSBASE
 10
0.0
 20
0.0
 30
0.0
  9
$PLIMCHECK
 70
     0
  9
$PEXTMIN
 10
1.00000000000000E+20
 20
1.00000000000000E+20
 30
1.00000000000000E+20
  9
$PEXTMAX
 10
-1.00000000000000E+20
 20
-1.00000000000000E+20
 30
-1.00000000000000E+20
  9
$PLIMMIN
 10
0.0
 20
0.0
  9
$PLIMMAX
 10
12.0
 20
9.0
  9
$UNITMODE
 70
     0
  9
$VISRETAIN
 70
     1
  9
$PLINEGEN
 70
     0
  9
$PSLTSCALE
 70
     1
  9
$TREEDEPTH
 70
  3020
  9
$CMLSTYLE
  2
Standard
  9
$CMLJUST
 70
     0
  9
$CMLSCALE
 40
1.0
  9
$PROXYGRAPHICS
 70
     1
  9
$MEASUREMENT
 70
     1
  9
$CELWEIGHT
370
    -1
  9
$ENDCAPS
280
     0
  9
$JOINSTYLE
280
     0
  9
$LWDISPLAY
290
     0
  9
$INSUNITS
 70
     1
  9
$HYPERLINKBASE
  1

  9
$STYLESHEET
  1

  9
$XEDIT
290
     1
  9
$CEPSNTYPE
380
     0
  9
$PSTYLEMODE
290
     1
  9
$FINGERPRINTGUID
  2
{859A7FBB-494C-48BB-BF1A-3EDFFDD579D8}
  9
$VERSIONGUID
  2
{FAEB1C32-E019-11D5-929B-00C0DF256EC4}
  9
$EXTNAMES
290
     1
  9
$PSVPSCALE
 40
0.0
  9
$OLESTARTUP
290
     0
  0
ENDSEC
  0
SECTION
  2
CLASSES
  0
CLASS
  1
ACDBDICTIONARYWDFLT
  2
AcDbDictionaryWithDefault
  3
ObjectDBX Classes
 90
        0
280
     0
281
     0
  0
CLASS
  1
VISUALSTYLE
  2
AcDbVisualStyle
  3
ObjectDBX Classes
 90
     4095
280
     0
281
     0
  0
CLASS
  1
SCALE
  2
AcDbScale
  3
ObjectDBX Classes
 90
     1153
280
     0
281
     0
  0
CLASS
  1

  2
exOdDbPolyline
  3

 90
        0
280
     0
281
     1
  0
CLASS
  1

  2
exOdDbCircle
  3

 90
        0
280
     0
281
     1
  0
CLASS
  1

  2
exOdDbSpline
  3

 90
        0
280
     0
281
     1
  0
CLASS
  1
DICTIONARYVAR
  2
AcDbDictionaryVar
  3
ObjectDBX Classes
 90
        0
280
     0
281
     0
  0
CLASS
  1
ACDBPLACEHOLDER
  2
AcDbPlaceHolder
  3
ObjectDBX Classes
 90
        0
280
     0
281
     0
  0
CLASS
  1
LAYOUT
  2
AcDbLayout
  3
ObjectDBX Classes
 90
        0
280
     0
281
     0
  0
ENDSEC
  0
SECTION
  2
TABLES
  0
TABLE
  2
VPORT
  5
8
330
0
100
AcDbSymbolTable
 70
     1
  0
VPORT
  5
29
330
8
100
AcDbSymbolTableRecord
100
AcDbViewportTableRecord
  2
*Active
 70
     0
 10
0.0
 20
0.0
 11
1.0
 21
1.0
 12
131.6948366384204
 22
318.675163281185
 13
0.0
 23
0.0
 14
0.5
 24
0.5
 15
0.5
 25
0.5
 16
0.0
 26
0.0
 36
1.0
 17
0.0
 27
0.0
 37
0.0
 40
140.486505163367
 41
1.60267857142857
 42
50.0
 43
0.0
 44
0.0
 50
0.0
 51
0.0
 71
     0
 72
   100
 73
     1
 74
     3
 75
     0
 76
     0
 77
     0
 78
     0
281
     0
 65
     1
110
0.0
120
0.0
130
0.0
111
1.0
121
0.0
131
0.0
112
0.0
122
1.0
132
0.0
 79
     0
146
0.0
  0
ENDTAB
  0
TABLE
  2
LTYPE
  5
5
330
0
100
AcDbSymbolTable
 70
     8
  0
LTYPE
  5
14
330
5
100
AcDbSymbolTableRecord
100
AcDbLinetypeTableRecord
  2
ByBlock
 70
     0
  3

 72
    65
 73
     0
 40
0.0
  0
LTYPE
  5
15
330
5
100
AcDbSymbolTableRecord
100
AcDbLinetypeTableRecord
  2
ByLayer
 70
     0
  3

 72
    65
 73
     0
 40
0.0
  0
LTYPE
  5
16
330
5
100
AcDbSymbolTableRecord
100
AcDbLinetypeTableRecord
  2
Continuous
 70
     0
  3
Solid line
 72
    65
 73
     0
 40
0.0
  0
LTYPE
  5
3B
330
5
100
AcDbSymbolTableRecord
100
AcDbLinetypeTableRecord
  2
DASHED
 70
     0
  3
Dashed
 72
    65
 73
     2
 40
15.0
 49
7.0
 74
     0
 49
-8.0
 74
     0
  0
LTYPE
  5
3C
330
5
100
AcDbSymbolTableRecord
100
AcDbLinetypeTableRecord
  2
DOTTED
 70
     0
  3
Dotted
 72
    65
 73
     2
 40
1.0
 49
0.0
 74
     0
 49
-1.0
 74
     0
  0
LTYPE
  5
3D
330
5
100
AcDbSymbolTableRecord
100
AcDbLinetypeTableRecord
  2
DOT_CENTER
 70
     0
  3
Dot_Center
 72
    65
 73
     4
 40
14.0
 49
12.0
 74
     0
 49
-1.0
 74
     0
 49
0.0
 74
     0
 49
-1.0
 74
     0
  0
LTYPE
  5
3E
330
5
100
AcDbSymbolTableRecord
100
AcDbLinetypeTableRecord
  2
LONG_DASHED
 70
     0
  3
Long_Dashed
 72
    65
 73
     2
 40
15.0
 49
10.0
 74
     0
 49
-5.0
 74
     0
  0
LTYPE
  5
3F
330
5
100
AcDbSymbolTableRecord
100
AcDbLinetypeTableRecord
  2
DASH_CENTER
 70
     0
  3
Dash_Center
 72
    65
 73
     4
 40
14.0
 49
11.0
 74
     0
 49
-1.0
 74
     0
 49
1.0
 74
     0
 49
-1.0
 74
     0
  0
LTYPE
  5
40
330
5
100
AcDbSymbolTableRecord
100
AcDbLinetypeTableRecord
  2
PHANTOM
 70
     0
  3
Phantom
 72
    65
 73
     6
 40
13.0
 49
10.0
 74
     0
 49
-1.0
 74
     0
 49
0.0
 74
     0
 49
-1.0
 74
     0
 49
0.0
 74
     0
 49
-1.0
 74
     0
  0
LTYPE
  5
41
330
5
100
AcDbSymbolTableRecord
100
AcDbLinetypeTableRecord
  2
CENTER_DASH_DASH
 70
     0
  3
Center_Dash_Dash
 72
    65
 73
     6
 40
14.0
 49
9.0
 74
     0
 49
-1.0
 74
     0
 49
1.0
 74
     0
 49
-1.0
 74
     0
 49
1.0
 74
     0
 49
-1.0
 74
     0
  0
ENDTAB
  0
TABLE
  2
LAYER
  5
2
330
0
100
AcDbSymbolTable
 70
     6
  0
LAYER
  5
10
330
2
100
AcDbSymbolTableRecord
100
AcDbLayerTableRecord
  2
0
 70
     0
 62
     7
  6
Continuous
370
    -3
390
F
  0
LAYER
  5
42
330
2
100
AcDbSymbolTableRecord
100
AcDbLayerTableRecord
  2
1
 70
     0
 62
     7
  6
Continuous
370
    -3
390
F
  0
LAYER
  5
43
330
2
100
AcDbSymbolTableRecord
100
AcDbLayerTableRecord
  2
BEZUGSACHSEN
 70
     0
 62
     7
  6
Continuous
370
    -3
390
F
  0
LAYER
  5
44
330
2
100
AcDbSymbolTableRecord
100
AcDbLayerTableRecord
  2
DEFAULT_2
 70
     0
 62
     7
  6
Continuous
370
    -3
390
F
  0
LAYER
  5
45
330
2
100
AcDbSymbolTableRecord
100
AcDbLayerTableRecord
  2
FASEN
 70
     0
 62
     7
  6
Continuous
370
    -3
390
F
  0
LAYER
  5
46
330
2
100
AcDbSymbolTableRecord
100
AcDbLayerTableRecord
  2
RUNDUNGEN
 70
     0
 62
     7
  6
Continuous
370
    -3
390
F
  0
ENDTAB
  0
TABLE
  2
STYLE
  5
3
330
0
100
AcDbSymbolTable
 70
     2
  0
STYLE
  5
11
330
3
100
AcDbSymbolTableRecord
100
AcDbTextStyleTableRecord
  2
Standard
 70
     0
 40
0.0
 41
1.0
 50
0.0
 71
     0
 42
0.2
  3
txt
  4

  0
STYLE
  5
6D
330
3
100
AcDbSymbolTableRecord
100
AcDbTextStyleTableRecord
  2
CONVERTER_11
 70
     0
 40
0.0
 41
0.72
 50
0.0
 71
     0
 42
0.2
  3
txt.shx
  4

  0
ENDTAB
  0
TABLE
  2
VIEW
  5
6
330
0
100
AcDbSymbolTable
 70
     0
  0
ENDTAB
  0
TABLE
  2
UCS
  5
7
330
0
100
AcDbSymbolTable
 70
     0
  0
ENDTAB
  0
TABLE
  2
APPID
  5
9
330
0
100
AcDbSymbolTable
 70
     1
  0
APPID
  5
12
330
9
100
AcDbSymbolTableRecord
100
AcDbRegAppTableRecord
  2
ACAD
 70
     0
  0
ENDTAB
  0
TABLE
  2
DIMSTYLE
  5
A
330
0
100
AcDbSymbolTable
 70
     8
100
AcDbDimStyleTable
  0
DIMSTYLE
105
27
330
A
100
AcDbSymbolTableRecord
100
AcDbDimStyleTableRecord
  2
Standard
 70
     0
340
11
  0
DIMSTYLE
105
106
102
{ACAD_REACTORS
330
107
102
}
330
A
100
AcDbSymbolTableRecord
100
AcDbDimStyleTableRecord
  2
ME10_DIM_10
 70
     0
  3
\U+2300<>
 41
3.5
 42
2.0
 44
2.0
 71
     1
 73
     0
 74
     0
 77
     1
 78
     8
140
3.5
146
0.7
147
2.0
172
     1
173
     1
176
     2
177
     2
178
     3
271
     2
272
     0
340
6D
  0
DIMSTYLE
105
111
102
{ACAD_REACTORS
330
112
102
}
330
A
100
AcDbSymbolTableRecord
100
AcDbDimStyleTableRecord
  2
ME10_DIM_11
 70
     0
  3
\U+2300<>
 41
3.5
 42
2.0
 44
2.0
 71
     1
 73
     0
 74
     0
 77
     1
 78
     8
140
3.5
146
0.7
147
2.0
172
     1
173
     1
176
     2
177
     2
178
     3
271
     2
272
     0
340
6D
  0
DIMSTYLE
105
11C
102
{ACAD_REACTORS
330
11D
102
}
330
A
100
AcDbSymbolTableRecord
100
AcDbDimStyleTableRecord
  2
ME10_DIM_12
 70
     0
  3
\U+2300<>
 41
3.5
 42
2.0
 44
2.0
 71
     1
 73
     0
 74
     0
 77
     1
 78
     8
140
3.5
146
0.7
147
2.0
172
     1
173
     1
176
     2
177
     2
178
     3
271
     2
272
     0
340
6D
  0
DIMSTYLE
105
127
102
{ACAD_REACTORS
330
128
102
}
330
A
100
AcDbSymbolTableRecord
100
AcDbDimStyleTableRecord
  2
ME10_DIM_13
 70
     0
  3
<>
 41
3.5
 42
2.0
 44
2.0
 71
     1
 73
     0
 74
     0
 77
     1
 78
     8
140
3.5
146
0.7
147
2.0
172
     1
173
     1
176
     2
177
     2
178
     3
271
     2
272
     0
340
6D
  0
DIMSTYLE
105
132
102
{ACAD_REACTORS
330
133
102
}
330
A
100
AcDbSymbolTableRecord
100
AcDbDimStyleTableRecord
  2
ME10_DIM_14
 70
     0
  3
<>
 41
3.5
 42
2.0
 44
2.0
 71
     1
 73
     0
 74
     0
 77
     1
 78
     8
140
3.5
146
0.7
147
2.0
172
     1
173
     1
176
     2
177
     2
178
     3
271
     2
272
     0
340
6D
  0
DIMSTYLE
105
13D
102
{ACAD_REACTORS
330
13E
102
}
330
A
100
AcDbSymbolTableRecord
100
AcDbDimStyleTableRecord
  2
ME10_DIM_15
 70
     0
  3
<>
 41
3.5
 42
2.0
 44
2.0
 71
     1
 73
     0
 74
     0
 77
     1
 78
     8
140
3.5
146
0.7
147
2.0
172
     1
173
     1
176
     2
177
     2
178
     3
271
     2
272
     0
340
6D
  0
DIMSTYLE
105
14F
102
{ACAD_REACTORS
330
150
102
}
330
A
100
AcDbSymbolTableRecord
100
AcDbDimStyleTableRecord
  2
ME10_DIM_16
 70
     0
  3
<>
 41
3.5
 42
2.0
 44
2.0
 71
     1
 73
     0
 74
     0
 77
     1
 78
     8
140
3.5
146
0.7
147
2.0
172
     1
173
     1
176
     2
177
     2
178
     3
271
     2
272
     0
340
6D
  0
ENDTAB
  0
TABLE
  2
BLOCK_RECORD
  5
1
330
0
100
AcDbSymbolTable
 70
    10
  0
BLOCK_RECORD
  5
1F
330
1
100
AcDbSymbolTableRecord
100
AcDbBlockTableRecord
  2
*Model_Space
340
22
  0
BLOCK_RECORD
  5
1B
330
1
100
AcDbSymbolTableRecord
100
AcDbBlockTableRecord
  2
*Paper_Space
340
1E
  0
BLOCK_RECORD
  5
23
330
1
100
AcDbSymbolTableRecord
100
AcDbBlockTableRecord
  2
*Paper_Space0
340
26
  0
BLOCK_RECORD
  5
47
330
1
100
AcDbSymbolTableRecord
100
AcDbBlockTableRecord
  2
Urheberrecht_DE-EN
340
0
102
{BLKREFS
331
6C
102
}
  0
BLOCK_RECORD
  5
FD
330
1
100
AcDbSymbolTableRecord
100
AcDbBlockTableRecord
  2
*D2
340
0
  0
BLOCK_RECORD
  5
108
330
1
100
AcDbSymbolTableRecord
100
AcDbBlockTableRecord
  2
*D3
340
0
  0
BLOCK_RECORD
  5
113
330
1
100
AcDbSymbolTableRecord
100
AcDbBlockTableRecord
  2
*D4
340
0
  0
BLOCK_RECORD
  5
11E
330
1
100
AcDbSymbolTableRecord
100
AcDbBlockTableRecord
  2
*D5
340
0
  0
BLOCK_RECORD
  5
129
330
1
100
AcDbSymbolTableRecord
100
AcDbBlockTableRecord
  2
*D6
340
0
  0
BLOCK_RECORD
  5
134
330
1
100
AcDbSymbolTableRecord
100
AcDbBlockTableRecord
  2
*D7
340
0
  0
BLOCK_RECORD
  5
13F
330
1
100
AcDbSymbolTableRecord
100
AcDbBlockTableRecord
  2
*D8
340
0
102
{BLKREFS
331
145
102
}
  0
BLOCK_RECORD
  5
146
330
1
100
AcDbSymbolTableRecord
100
AcDbBlockTableRecord
  2
*D9
340
0
  0
ENDTAB
  0
ENDSEC
  0
SECTION
  2
BLOCKS
  0
BLOCK
  5
20
330
1F
100
AcDbEntity
  8
0
100
AcDbBlockBegin
  2
*Model_Space
 70
     0
 10
0.0
 20
0.0
 30
0.0
  3
*Model_Space
  1

  0
ENDBLK
  5
21
330
1F
100
AcDbEntity
  8
0
100
AcDbBlockEnd
  0
BLOCK
  5
1C
330
1B
100
AcDbEntity
 67
     1
  8
0
100
AcDbBlockBegin
  2
*Paper_Space
 70
     0
 10
0.0
 20
0.0
 30
0.0
  3
*Paper_Space
  1

  0
ENDBLK
  5
1D
330
1B
100
AcDbEntity
 67
     1
  8
0
100
AcDbBlockEnd
  0
BLOCK
  5
24
330
23
100
AcDbEntity
  8
0
100
AcDbBlockBegin
  2
*Paper_Space0
 70
     0
 10
0.0
 20
0.0
 30
0.0
  3
*Paper_Space0
  1

  0
ENDBLK
  5
25
330
23
100
AcDbEntity
  8
0
100
AcDbBlockEnd
  0
BLOCK
  5
48
330
47
100
AcDbEntity
  8
0
100
AcDbBlockBegin
  2
Urheberrecht_DE-EN
 70
     0
 10
44.7805989489419
 20
320.280858884718
 30
0.0
  3
Urheberrecht_DE-EN
  1

  0
MTEXT
  5
6E
330
47
100
AcDbEntity
  8
1
 62
     1
100
AcDbMText
 10
44.7805989489419
 20
320.280858884718
 30
0.0
 40
2.0
 41
0.0
 71
     7
 72
     1
  1
We own the copyright of this document. It \Pdetermined and may neither be copied or \Pmade accessible to outsiders without our\Ppermission.
  7
CONVERTER_11
 11
0.0
 21
1.0
 31
0.0
 73
     1
 44
0.90036014405762
  0
MTEXT
  5
6F
330
47
100
AcDbEntity
  8
1
 62
     1
100
AcDbMText
 10
44.7805989489419
 20
263.9914719674118
 30
0.0
 40
2.0
 41
0.0
 71
     7
 72
     1
  1
F\U+00fcr diese Unterlage behalten wir das Ur-\Pheberrecht. Sie darf nur f\U+00fcr den von uns \Pbestimmten Zweck benutzt und ohne unsere \PZustimmung weder vervielf\U+00e4ltigt noch\PDritten zug\U+00e4nglich gemacht werden.
  7
CONVERTER_11
 11
0.0
 21
1.0
 31
0.0
 73
     1
 44
0.90036014405762
  0
ENDBLK
  5
49
330
47
100
AcDbEntity
  8
0
100
AcDbBlockEnd
  0
BLOCK
  5
104
330
FD
100
AcDbEntity
  8
0
100
AcDbBlockBegin
  2
*D2
 70
     1
 10
0.0
 20
0.0
 30
0.0
  3
*D2
  1

  0
LINE
  5
FE
330
FD
100
AcDbEntity
  8
1
  6
Continuous
 62
     2
100
AcDbLine
 10
213.388869115505
 20
312.8176609342
 30
0.0
 11
213.388869115505
 21
296.8176609342
 31
0.0
  0
LINE
  5
FF
330
FD
100
AcDbEntity
  8
1
  6
Continuous
 62
     2
100
AcDbLine
 10
204.3712443121
 20
312.8176609342
 30
0.0
 11
215.388869115505
 21
312.8176609342
 31
0.0
  0
LINE
  5
100
330
FD
100
AcDbEntity
  8
1
  6
Continuous
 62
     2
100
AcDbLine
 10
204.3712443121
 20
296.8176609342
 30
0.0
 11
215.388869115505
 21
296.8176609342
 31
0.0
  0
SOLID
  5
101
330
FD
100
AcDbEntity
  8
1
 62
     2
100
AcDbTrace
 10
213.8496528570609
 20
309.3176609342
 30
0.0
 11
212.9280853739491
 21
309.3176609342
 31
0.0
 12
213.388869115505
 22
312.8176609342
 32
0.0
 13
213.388869115505
 23
312.8176609342
 33
0.0
  0
SOLID
  5
102
330
FD
100
AcDbEntity
  8
1
 62
     2
100
AcDbTrace
 10
212.9280853739491
 20
300.3176609342
 30
0.0
 11
213.8496528570609
 21
300.3176609342
 31
0.0
 12
213.388869115505
 22
296.8176609342
 32
0.0
 13
213.388869115505
 23
296.8176609342
 33
0.0
  0
MTEXT
  5
103
330
FD
100
AcDbEntity
  8
1
 62
     3
100
AcDbMText
 10
211.388869115505
 20
296.422544651009
 30
0.0
 40
3.5
 41
0.0
 71
     7
 72
     1
  1
\C3;%%c\C3;\C3;16\C2;\H2.45;\S^ ;\C3;
  7
CONVERTER_11
 11
0.0
 21
1.0
 31
0.0
 73
     1
 44
0.60024009603842
  0
ENDBLK
  5
105
330
FD
100
AcDbEntity
  8
0
100
AcDbBlockEnd
  0
BLOCK
  5
10F
330
108
100
AcDbEntity
  8
0
100
AcDbBlockBegin
  2
*D3
 70
     1
 10
0.0
 20
0.0
 30
0.0
  3
*D3
  1

  0
LINE
  5
109
330
108
100
AcDbEntity
  8
1
  6
Continuous
 62
     2
100
AcDbLine
 10
222.672805838709
 20
318.3176609341466
 30
0.0
 11
222.672805838709
 21
291.3176609341486
 31
0.0
  0
LINE
  5
10A
330
108
100
AcDbEntity
  8
1
  6
Continuous
 62
     2
100
AcDbLine
 10
204.3712443121
 20
318.3176609341466
 30
0.0
 11
224.672805838709
 21
318.3176609341466
 31
0.0
  0
LINE
  5
10B
330
108
100
AcDbEntity
  8
1
  6
Continuous
 62
     2
100
AcDbLine
 10
204.3712443121
 20
291.3176609341486
 30
0.0
 11
224.672805838709
 21
291.3176609341486
 31
0.0
  0
SOLID
  5
10C
330
108
100
AcDbEntity
  8
1
 62
     2
100
AcDbTrace
 10
223.1335895802649
 20
314.8176609341466
 30
0.0
 11
222.2120220971531
 21
314.8176609341466
 31
0.0
 12
222.672805838709
 22
318.3176609341466
 32
0.0
 13
222.672805838709
 23
318.3176609341466
 33
0.0
  0
SOLID
  5
10D
330
108
100
AcDbEntity
  8
1
 62
     2
100
AcDbTrace
 10
222.2120220971531
 20
294.8176609341486
 30
0.0
 11
223.1335895802649
 21
294.8176609341486
 31
0.0
 12
222.672805838709
 22
291.3176609341486
 32
0.0
 13
222.672805838709
 23
291.3176609341486
 33
0.0
  0
MTEXT
  5
10E
330
108
100
AcDbEntity
  8
1
 62
     3
100
AcDbMText
 10
220.672805838709
 20
296.45176739568
 30
0.0
 40
3.5
 41
0.0
 71
     7
 72
     1
  1
\C3;%%c\C3;\C3;27\C2;\H2.45;\S^ ;\C3;
  7
CONVERTER_11
 11
0.0
 21
1.0
 31
0.0
 73
     1
 44
0.60024009603842
  0
ENDBLK
  5
110
330
108
100
AcDbEntity
  8
0
100
AcDbBlockEnd
  0
BLOCK
  5
11A
330
113
100
AcDbEntity
  8
0
100
AcDbBlockBegin
  2
*D4
 70
     1
 10
0.0
 20
0.0
 30
0.0
  3
*D4
  1

  0
LINE
  5
114
330
113
100
AcDbEntity
  8
1
  6
Continuous
 62
     2
100
AcDbLine
 10
230.609074327899
 20
321.8176609342
 30
0.0
 11
230.609074327899
 21
287.8176609342
 31
0.0
  0
LINE
  5
115
330
113
100
AcDbEntity
  8
1
  6
Continuous
 62
     2
100
AcDbLine
 10
159.8995277355
 20
321.8176609342
 30
0.0
 11
232.609074327899
 21
321.8176609342
 31
0.0
  0
LINE
  5
116
330
113
100
AcDbEntity
  8
1
  6
Continuous
 62
     2
100
AcDbLine
 10
159.8995277355
 20
287.8176609342
 30
0.0
 11
232.609074327899
 21
287.8176609342
 31
0.0
  0
SOLID
  5
117
330
113
100
AcDbEntity
  8
1
 62
     2
100
AcDbTrace
 10
231.0698580694549
 20
318.3176609342
 30
0.0
 11
230.1482905863431
 21
318.3176609342
 31
0.0
 12
230.609074327899
 22
321.8176609342
 32
0.0
 13
230.609074327899
 23
321.8176609342
 33
0.0
  0
SOLID
  5
118
330
113
100
AcDbEntity
  8
1
 62
     2
100
AcDbTrace
 10
230.1482905863431
 20
291.3176609342
 30
0.0
 11
231.0698580694549
 21
291.3176609342
 31
0.0
 12
230.609074327899
 22
287.8176609342
 32
0.0
 13
230.609074327899
 23
287.8176609342
 33
0.0
  0
MTEXT
  5
119
330
113
100
AcDbEntity
  8
1
 62
     3
100
AcDbMText
 10
228.609074327899
 20
296.60150831057
 30
0.0
 40
3.5
 41
0.0
 71
     7
 72
     1
  1
\C3;%%c\C3;\C3;34\C2;\H2.45;\S^ ;\C3;
  7
CONVERTER_11
 11
0.0
 21
1.0
 31
0.0
 73
     1
 44
0.60024009603842
  0
ENDBLK
  5
11B
330
113
100
AcDbEntity
  8
0
100
AcDbBlockEnd
  0
BLOCK
  5
125
330
11E
100
AcDbEntity
  8
0
100
AcDbBlockBegin
  2
*D5
 70
     1
 10
0.0
 20
0.0
 30
0.0
  3
*D5
  1

  0
LINE
  5
11F
330
11E
100
AcDbEntity
  8
1
  6
Continuous
 62
     2
100
AcDbLine
 10
202.3712443121
 20
362.507796883804
 30
0.0
 11
131.3712443121
 21
362.507796883804
 31
0.0
  0
LINE
  5
120
330
11E
100
AcDbEntity
  8
1
  6
Continuous
 62
     2
100
AcDbLine
 10
202.3712443121
 20
319.3932704425
 30
0.0
 11
202.3712443121
 21
364.507796883804
 31
0.0
  0
LINE
  5
121
330
11E
100
AcDbEntity
  8
1
  6
Continuous
 62
     2
100
AcDbLine
 10
131.3712443121
 20
356.817624013
 30
0.0
 11
131.3712443121
 21
364.507796883804
 31
0.0
  0
SOLID
  5
122
330
11E
100
AcDbEntity
  8
1
 62
     2
100
AcDbTrace
 10
198.8712443121
 20
362.0470131422481
 30
0.0
 11
198.8712443121
 21
362.9685806253599
 31
0.0
 12
202.3712443121
 22
362.507796883804
 32
0.0
 13
202.3712443121
 23
362.507796883804
 33
0.0
  0
SOLID
  5
123
330
11E
100
AcDbEntity
  8
1
 62
     2
100
AcDbTrace
 10
134.8712443121
 20
362.9685806253599
 30
0.0
 11
134.8712443121
 21
362.0470131422481
 31
0.0
 12
131.3712443121
 22
362.507796883804
 32
0.0
 13
131.3712443121
 23
362.507796883804
 33
0.0
  0
MTEXT
  5
124
330
11E
100
AcDbEntity
  8
1
 62
     3
100
AcDbMText
 10
166.037890073941
 20
364.507796883804
 30
0.0
 40
3.5
 41
0.0
 71
     7
 72
     1
  1
\C3;\C3;\C3;71\C2;\H2.45;\S^ ;\C3;
  7
CONVERTER_11
 11
0.9999999999970619
 21
2.424068405545306E-6
 31
0.0
 73
     1
 44
0.60024009603842
  0
ENDBLK
  5
126
330
11E
100
AcDbEntity
  8
0
100
AcDbBlockEnd
  0
BLOCK
  5
130
330
129
100
AcDbEntity
  8
0
100
AcDbBlockBegin
  2
*D6
 70
     1
 10
0.0
 20
0.0
 30
0.0
  3
*D6
  1

  0
LINE
  5
12A
330
129
100
AcDbEntity
  8
1
  6
Continuous
 62
     2
100
AcDbLine
 10
202.3712443121
 20
369.395878968761
 30
0.0
 11
102.3712443121
 21
369.395878968761
 31
0.0
  0
LINE
  5
12B
330
129
100
AcDbEntity
  8
1
  6
Continuous
 62
     2
100
AcDbLine
 10
202.3712443121
 20
319.3932704425
 30
0.0
 11
202.3712443121
 21
371.395878968761
 31
0.0
  0
LINE
  5
12C
330
129
100
AcDbEntity
  8
1
  6
Continuous
 62
     2
100
AcDbLine
 10
102.3712443121
 20
356.8176609342
 30
0.0
 11
102.3712443121
 21
371.395878968761
 31
0.0
  0
SOLID
  5
12D
330
129
100
AcDbEntity
  8
1
 62
     2
100
AcDbTrace
 10
198.8712443121
 20
368.9350952272051
 30
0.0
 11
198.8712443121
 21
369.8566627103169
 31
0.0
 12
202.3712443121
 22
369.395878968761
 32
0.0
 13
202.3712443121
 23
369.395878968761
 33
0.0
  0
SOLID
  5
12E
330
129
100
AcDbEntity
  8
1
 62
     2
100
AcDbTrace
 10
105.8712443121
 20
369.8566627103169
 30
0.0
 11
105.8712443121
 21
368.9350952272051
 31
0.0
 12
102.3712443121
 22
369.395878968761
 32
0.0
 13
102.3712443121
 23
369.395878968761
 33
0.0
  0
MTEXT
  5
12F
330
129
100
AcDbEntity
  8
1
 62
     3
100
AcDbMText
 10
149.504316755122
 20
371.395878968761
 30
0.0
 40
3.5
 41
0.0
 71
     7
 72
     1
  1
\C3;\C3;\C3;100\C2;\H2.45;\S^ ;\C3;
  7
CONVERTER_11
 11
0.9999999999970619
 21
2.424068405545306E-6
 31
0.0
 73
     1
 44
0.60024009603842
  0
ENDBLK
  5
131
330
129
100
AcDbEntity
  8
0
100
AcDbBlockEnd
  0
BLOCK
  5
13B
330
134
100
AcDbEntity
  8
0
100
AcDbBlockBegin
  2
*D7
 70
     1
 10
0.0
 20
0.0
 30
0.0
  3
*D7
  1

  0
LINE
  5
135
330
134
100
AcDbEntity
  8
1
  6
Continuous
 62
     2
100
AcDbLine
 10
202.3712443121
 20
377.03266562817
 30
0.0
 11
52.3712443121
 21
377.03266562817
 31
0.0
  0
LINE
  5
136
330
134
100
AcDbEntity
  8
1
  6
Continuous
 62
     2
100
AcDbLine
 10
202.3712443121
 20
319.3932704425
 30
0.0
 11
202.3712443121
 21
379.03266562817
 31
0.0
  0
LINE
  5
137
330
134
100
AcDbEntity
  8
1
  6
Continuous
 62
     2
100
AcDbLine
 10
52.3712443121
 20
340.4178524967
 30
0.0
 11
52.3712443121
 21
379.03266562817
 31
0.0
  0
SOLID
  5
138
330
134
100
AcDbEntity
  8
1
 62
     2
100
AcDbTrace
 10
198.8712443121
 20
376.5718818866141
 30
0.0
 11
198.8712443121
 21
377.4934493697259
 31
0.0
 12
202.3712443121
 22
377.03266562817
 32
0.0
 13
202.3712443121
 23
377.03266562817
 33
0.0
  0
SOLID
  5
139
330
134
100
AcDbEntity
  8
1
 62
     2
100
AcDbTrace
 10
55.8712443121
 20
377.4934493697259
 30
0.0
 11
55.8712443121
 21
376.5718818866141
 31
0.0
 12
52.3712443121
 22
377.03266562817
 32
0.0
 13
52.3712443121
 23
377.03266562817
 33
0.0
  0
MTEXT
  5
13A
330
134
100
AcDbEntity
  8
1
 62
     3
100
AcDbMText
 10
132.433852457619
 20
379.03266562817
 30
0.0
 40
3.5
 41
0.0
 71
     7
 72
     1
  1
\C3;\C3;\C3;150\C2;\H2.45;\S^ ;\C3;
  7
CONVERTER_11
 11
0.9999999999970619
 21
2.424068405545306E-6
 31
0.0
 73
     1
 44
0.60024009603842
  0
ENDBLK
  5
13C
330
134
100
AcDbEntity
  8
0
100
AcDbBlockEnd
  0
BLOCK
  5
143
330
13F
100
AcDbEntity
  8
0
100
AcDbBlockBegin
  2
*D8
 70
     1
 10
0.0
 20
0.0
 30
0.0
  3
*D8
  1

  0
LINE
  5
140
330
13F
100
AcDbEntity
  8
1
  6
Continuous
 62
     2
100
AcDbLine
 10
143.0542166791554
 20
330.9629487125293
 30
0.0
 11
132.1216332666762
 21
324.9122205421486
 31
0.0
  0
SOLID
  5
141
330
13F
100
AcDbEntity
  8
1
 62
     2
100
AcDbTrace
 10
134.9607764273873
 20
327.0102166740492
 30
0.0
 11
135.4070363256263
 21
326.2039048676413
 31
0.0
 12
132.1216332666762
 22
324.9122205421486
 32
0.0
 13
132.1216332666762
 23
324.9122205421486
 33
0.0
  0
MTEXT
  5
142
330
13F
100
AcDbEntity
  8
1
 62
     3
100
AcDbMText
 10
135.5937175556307
 20
329.119757776167
 30
0.0
 40
3.5
 41
0.0
 71
     7
 72
     1
  1
\C3; R\C3;\C3;6\C2;\H2.45;\S^ ;\C3;
  7
CONVERTER_11
 11
0.8749351742373104
 21
0.4842400653418997
 31
0.0
 73
     1
 44
0.60024009603842
  0
ENDBLK
  5
144
330
13F
100
AcDbEntity
  8
0
100
AcDbBlockEnd
  0
BLOCK
  5
14D
330
146
100
AcDbEntity
  8
0
100
AcDbBlockBegin
  2
*D9
 70
     1
 10
0.0
 20
0.0
 30
0.0
  3
*D9
  1

  0
LINE
  5
147
330
146
100
AcDbEntity
  8
1
  6
Continuous
 62
     2
100
AcDbLine
 10
183.1150441900388
 20
321.8176609342
 30
0.0
 11
185.1150441900388
 21
321.8176609342
 31
0.0
  0
LINE
  5
148
330
146
100
AcDbEntity
  8
1
  6
Continuous
 62
     2
100
AcDbLine
 10
159.8995277355
 20
321.8176609342
 30
0.0
 11
183.1150441900388
 21
321.8176609342
 31
0.0
  0
ARC
  5
149
330
146
100
AcDbEntity
  8
1
  6
Continuous
 62
     2
100
AcDbCircle
 10
157.8995277355
 20
321.8176609342
 30
0.0
 40
25.21551645453874
100
AcDbArc
 50
343.5707245085154
 51
24.93626807468291
  0
SOLID
  5
14A
330
146
100
AcDbEntity
  8
1
 62
     2
100
AcDbTrace
 10
182.9771549744248
 20
316.3095855681725
 30
0.0
 11
182.065654144248
 21
316.4454268819028
 31
0.0
 12
183.0373131680591
 22
319.8392743148215
 32
0.0
 13
183.0373131680591
 23
319.8392743148215
 33
0.0
  0
SOLID
  5
14B
330
146
100
AcDbEntity
  8
1
 62
     2
100
AcDbTrace
 10
182.4126586673546
 20
325.2772817564876
 30
0.0
 11
183.3320076313078
 21
325.3411887858899
 31
0.0
 12
183.1150441900388
 22
321.8176609342
 32
0.0
 13
183.1150441900388
 23
321.8176609342
 33
0.0
  0
MTEXT
  5
14C
330
146
100
AcDbEntity
  8
1
 62
     3
100
AcDbMText
 10
182.7852471146134
 20
333.3883796617161
 30
0.0
 40
3.5
 41
0.0
 71
     7
 72
     1
  1
\C3;\C3;\C3;4.5%%d\C2;\H2.45;\S^ ;\C3;
  7
CONVERTER_11
 11
0.3012983601794711
 21
-0.9535299146608678
 31
0.0
 73
     1
 44
0.60024009603842
  0
ENDBLK
  5
14E
330
146
100
AcDbEntity
  8
0
100
AcDbBlockEnd
  0
ENDSEC
  0
SECTION
  2
ENTITIES
  0
INSERT
  5
6C
330
1F
100
AcDbEntity
  8
0
100
AcDbBlockReference
  2
Urheberrecht_DE-EN
 10
44.7805989489419
 20
320.280858884718
 30
0.0
  0
LINE
  5
70
330
1F
100
AcDbEntity
  8
BEZUGSACHSEN
  6
Continuous
 62
     7
100
AcDbLine
 10
52.3712443121
 20
271.2174914156
 30
0.0
 11
52.3712443121
 21
292.8076609342
 31
0.0
  0
LINE
  5
71
330
1F
100
AcDbEntity
  8
BEZUGSACHSEN
  6
Continuous
 62
     7
100
AcDbLine
 10
52.3712443121
 20
316.8276609342
 30
0.0
 11
52.3712443121
 21
338.4178524967
 31
0.0
  0
LINE
  5
72
330
1F
100
AcDbEntity
  8
BEZUGSACHSEN
  6
Continuous
 62
     9
100
AcDbLine
 10
54.2711698274
 20
340.4153472025
 30
0.0
 11
54.2711698274
 21
320.4941933204
 31
0.0
  0
LINE
  5
73
330
1F
100
AcDbEntity
  8
BEZUGSACHSEN
  6
Continuous
 62
     9
100
AcDbLine
 10
54.2711698274
 20
289.1411285479
 30
0.0
 11
54.2711698274
 21
269.2199746658
 31
0.0
  0
LINE
  5
74
330
1F
100
AcDbEntity
  8
BEZUGSACHSEN
  6
Continuous
 62
     7
100
AcDbLine
 10
54.3712443121
 20
292.4140209858
 30
0.0
 11
54.3712443121
 21
294.8076609342
 31
0.0
  0
LINE
  5
75
330
1F
100
AcDbEntity
  8
BEZUGSACHSEN
  6
Continuous
 62
     7
100
AcDbLine
 10
54.3712443121
 20
314.8276609342
 30
0.0
 11
54.3712443121
 21
317.2213008825
 31
0.0
  0
LINE
  5
76
330
1F
100
AcDbEntity
  8
BEZUGSACHSEN
  6
Continuous
 62
     9
100
AcDbLine
 10
60.3712443121
 20
288.4590133467
 30
0.0
 11
60.3712443121
 21
294.8076609342
 31
0.0
  0
LINE
  5
77
330
1F
100
AcDbEntity
  8
BEZUGSACHSEN
  6
Continuous
 62
     9
100
AcDbLine
 10
60.3712443121
 20
314.8276609342
 30
0.0
 11
60.3712443121
 21
321.1763085216
 31
0.0
  0
LINE
  5
78
330
1F
100
AcDbEntity
  8
BEZUGSACHSEN
  6
Continuous
 62
     7
100
AcDbLine
 10
62.3712443121
 20
317.6873164599
 30
0.0
 11
62.3712443121
 21
291.9480054084
 31
0.0
  0
LINE
  5
79
330
1F
100
AcDbEntity
  8
BEZUGSACHSEN
  6
Continuous
 62
     7
100
AcDbLine
 10
53.6381972391
 20
289.8076609342
 30
0.0
 11
53.5170869877
 21
289.5753249387
 31
0.0
  0
LINE
  5
7A
330
1F
100
AcDbEntity
  8
BEZUGSACHSEN
  6
Continuous
 62
     7
100
AcDbLine
 10
53.5170869877
 20
320.0599969296
 30
0.0
 11
53.6381972391
 21
319.8276609342
 31
0.0
  0
LINE
  5
7B
330
1F
100
AcDbEntity
  8
BEZUGSACHSEN
  6
Continuous
 62
     7
100
AcDbLine
 10
119.1236490479
 20
254.8176609342
 30
0.0
 11
102.3712443121
 21
254.8176609342
 31
0.0
  0
LINE
  5
7C
330
1F
100
AcDbEntity
  8
BEZUGSACHSEN
  6
Continuous
 62
     7
100
AcDbLine
 10
125.6188395763
 20
254.8176609342
 30
0.0
 11
131.3712443121
 21
254.8176609342
 31
0.0
  0
LINE
  5
7D
330
1F
100
AcDbEntity
  8
BEZUGSACHSEN
  6
Continuous
 62
     7
100
AcDbLine
 10
52.3712443121
 20
292.8076609342
 30
0.0
 11
54.3712443121
 21
294.8076609342
 31
0.0
  0
LINE
  5
7E
330
1F
100
AcDbEntity
  8
BEZUGSACHSEN
  6
Continuous
 62
     7
100
AcDbLine
 10
121.4962443121
 20
258.8176609342
 30
0.0
 11
123.2462443121
 21
258.8176609342
 31
0.0
  0
LINE
  5
7F
330
1F
100
AcDbEntity
  8
BEZUGSACHSEN
  6
Continuous
 62
     7
100
AcDbLine
 10
54.3712443121
 20
314.8276609342
 30
0.0
 11
52.3712443121
 21
316.8276609342
 31
0.0
  0
LWPOLYLINE
  5
80
330
1F
100
AcDbEntity
  8
BEZUGSACHSEN
  6
DOT_CENTER
 62
     7
100
AcDbPolyline
 90
        2
 70
     0
 43
0.25
 10
87.3712443121
 20
304.8176609342
 10
87.3712443121
 20
295.8176609342
  0
LWPOLYLINE
  5
81
330
1F
100
AcDbEntity
  8
BEZUGSACHSEN
  6
DOT_CENTER
 62
     7
100
AcDbPolyline
 90
        2
 70
     0
 43
0.25
 10
87.3712443121
 20
304.8176609342
 10
87.3712443121
 20
313.8176609342
  0
LINE
  5
82
330
1F
100
AcDbEntity
  8
FASEN
  6
Continuous
 62
     7
100
AcDbLine
 10
107.7727302765
 20
265.9879043034
 30
0.0
 11
119.1236490479
 21
265.9879043034
 31
0.0
  0
LINE
  5
83
330
1F
100
AcDbEntity
  8
0
  6
Continuous
 62
     7
100
AcDbLine
 10
125.6188395763
 20
265.9879043034
 30
0.0
 11
131.3712443121
 21
265.9879043034
 31
0.0
  0
LINE
  5
84
330
1F
100
AcDbEntity
  8
BEZUGSACHSEN
  6
Continuous
 62
     7
100
AcDbLine
 10
101.6706730234
 20
267.1354109342
 30
0.0
 11
100.7493069712
 21
267.1354109342
 31
0.0
  0
LINE
  5
85
330
1F
100
AcDbEntity
  8
BEZUGSACHSEN
  6
Continuous
 62
     7
100
AcDbLine
 10
99.8712443121
 20
266.9354109342
 30
0.0
 11
54.2711698274
 21
269.2199746658
 31
0.0
  0
LINE
  5
86
330
1F
100
AcDbEntity
  8
BEZUGSACHSEN
  6
Continuous
 62
     7
100
AcDbLine
 10
100.4904879261
 20
267.1013367604
 30
0.0
 11
99.8712443121
 21
266.9354109342
 31
0.0
  0
LINE
  5
87
330
1F
100
AcDbEntity
  8
0
  6
Continuous
 62
     7
100
AcDbLine
 10
121.4962443121
 20
271.2952803504
 30
0.0
 11
123.2462443121
 21
271.2952803504
 31
0.0
  0
LINE
  5
88
330
1F
100
AcDbEntity
  8
FASEN
  6
Continuous
 62
     7
100
AcDbLine
 10
115.343118234
 20
272.9176609342
 30
0.0
 11
131.3712443121
 21
272.9176609342
 31
0.0
  0
LINE
  5
89
330
1F
100
AcDbEntity
  8
0
  6
Continuous
 62
     7
100
AcDbLine
 10
115.343118234
 20
273.3176609342
 30
0.0
 11
131.3712443121
 21
273.3176609342
 31
0.0
  0
LINE
  5
8A
330
1F
100
AcDbEntity
  8
BEZUGSACHSEN
  6
Continuous
 62
     7
100
AcDbLine
 10
99.8712443121
 20
342.6999109342
 30
0.0
 11
99.8712443121
 21
266.9354109342
 31
0.0
  0
LINE
  5
8B
330
1F
100
AcDbEntity
  8
BEZUGSACHSEN
  6
Continuous
 62
     9
100
AcDbLine
 10
100.4904879261
 20
267.1013367604
 30
0.0
 11
100.4904879261
 21
342.5339851079
 31
0.0
  0
LINE
  5
8C
330
1F
100
AcDbEntity
  8
BEZUGSACHSEN
  6
Continuous
 62
     9
100
AcDbLine
 10
100.7493069712
 20
267.1354109342
 30
0.0
 11
100.7493069712
 21
342.4999109342
 31
0.0
  0
LINE
  5
8D
330
1F
100
AcDbEntity
  8
BEZUGSACHSEN
  6
Continuous
 62
     9
100
AcDbLine
 10
101.6706730234
 20
267.1354109342
 30
0.0
 11
101.6706730234
 21
342.4999109342
 31
0.0
  0
LINE
  5
8E
330
1F
100
AcDbEntity
  8
BEZUGSACHSEN
  6
Continuous
 62
     7
100
AcDbLine
 10
102.3712443121
 20
354.8176609342
 30
0.0
 11
102.3712443121
 21
254.8176609342
 31
0.0
  0
LINE
  5
8F
330
1F
100
AcDbEntity
  8
BEZUGSACHSEN
  6
Continuous
 62
     7
100
AcDbLine
 10
124.2462443121
 20
352.4402561983
 30
0.0
 11
125.6188395763
 21
354.8176609342
 31
0.0
  0
LINE
  5
90
330
1F
100
AcDbEntity
  8
BEZUGSACHSEN
  6
Continuous
 62
     7
100
AcDbLine
 10
124.2462443121
 20
257.19506567
 30
0.0
 11
125.6188395763
 21
254.8176609342
 31
0.0
  0
LWPOLYLINE
  5
91
330
1F
100
AcDbEntity
  8
BEZUGSACHSEN
  6
DOT_CENTER
 62
     7
100
AcDbPolyline
 90
        2
 70
     0
 43
0.25
 10
109.3712443121
 20
346.9670327895
 10
109.3712443121
 20
357.8176609342
  0
LINE
  5
92
330
1F
100
AcDbEntity
  8
BEZUGSACHSEN
  6
Continuous
 62
     9
100
AcDbLine
 10
52.3712443121
 20
291.3714769651
 30
0.0
 11
54.3712443121
 21
292.4140209858
 31
0.0
  0
LINE
  5
93
330
1F
100
AcDbEntity
  8
RUNDUNGEN
  6
Continuous
 62
     7
100
AcDbLine
 10
201.4497034078
 20
291.2451340921
 30
0.0
 11
157.8995277355
 21
287.8176609342
 31
0.0
  0
LINE
  5
94
330
1F
100
AcDbEntity
  8
0
  6
Continuous
 62
     7
100
AcDbLine
 10
157.8995277355
 20
287.8176609342
 30
0.0
 11
201.4497034078
 21
291.2451340921
 31
0.0
  0
LINE
  5
95
330
1F
100
AcDbEntity
  8
BEZUGSACHSEN
  6
Continuous
 62
     9
100
AcDbLine
 10
54.3712443121
 20
317.2213008825
 30
0.0
 11
52.3712443121
 21
318.2638449032
 31
0.0
  0
LINE
  5
96
330
1F
100
AcDbEntity
  8
FASEN
  6
Continuous
 62
     9
100
AcDbLine
 10
115.343118234
 20
272.9176609342
 30
0.0
 11
115.343118234
 21
273.3176609342
 31
0.0
  0
LINE
  5
97
330
1F
100
AcDbEntity
  8
RUNDUNGEN
  6
Continuous
 62
     7
100
AcDbLine
 10
157.8995277355
 20
287.8176609342
 30
0.0
 11
137.3712443121
 21
287.8176609342
 31
0.0
  0
LINE
  5
98
330
1F
100
AcDbEntity
  8
0
  6
Continuous
 62
     7
100
AcDbLine
 10
137.3712443121
 20
287.8176609342
 30
0.0
 11
157.8995277355
 21
287.8176609342
 31
0.0
  0
LINE
  5
99
330
1F
100
AcDbEntity
  8
BEZUGSACHSEN
  6
Continuous
 62
     9
100
AcDbLine
 10
61.925090259
 20
289.8076609342
 30
0.0
 11
53.6381972391
 21
289.8076609342
 31
0.0
  0
LINE
  5
9A
330
1F
100
AcDbEntity
  8
FASEN
  6
Continuous
 62
     9
100
AcDbLine
 10
117.3712443121
 20
295.2176609342
 30
0.0
 11
117.3712443121
 21
294.8176609342
 31
0.0
  0
LINE
  5
9B
330
1F
100
AcDbEntity
  8
FASEN
  6
Continuous
 62
     9
100
AcDbLine
 10
117.3712443121
 20
314.4176609342
 30
0.0
 11
117.3712443121
 21
314.8176609342
 31
0.0
  0
LINE
  5
9C
330
1F
100
AcDbEntity
  8
0
  6
Continuous
 62
     7
100
AcDbLine
 10
119.1236490479
 20
354.8176609342
 30
0.0
 11
119.1236490479
 21
314.8176609342
 31
0.0
  0
LINE
  5
9D
330
1F
100
AcDbEntity
  8
0
  6
Continuous
 62
     7
100
AcDbLine
 10
119.1236490479
 20
294.8176609342
 30
0.0
 11
119.1236490479
 21
273.3176609342
 31
0.0
  0
LINE
  5
9E
330
1F
100
AcDbEntity
  8
0
  6
Continuous
 62
     7
100
AcDbLine
 10
119.1236490479
 20
265.9879043034
 30
0.0
 11
119.1236490479
 21
254.8176609342
 31
0.0
  0
LINE
  5
9F
330
1F
100
AcDbEntity
  8
0
  6
Continuous
 62
     7
100
AcDbLine
 10
120.4962443121
 20
352.4402227718
 30
0.0
 11
120.4962443121
 21
314.8176609342
 31
0.0
  0
LINE
  5
A0
330
1F
100
AcDbEntity
  8
0
  6
Continuous
 62
     7
100
AcDbLine
 10
120.4962443121
 20
294.8176609342
 30
0.0
 11
120.4962443121
 21
273.3176609342
 31
0.0
  0
LINE
  5
A1
330
1F
100
AcDbEntity
  8
0
  6
Continuous
 62
     7
100
AcDbLine
 10
120.4962443121
 20
257.1951032039
 30
0.0
 11
120.4962443121
 21
269.935717181
 31
0.0
  0
LINE
  5
A2
330
1F
100
AcDbEntity
  8
0
  6
Continuous
 62
     9
100
AcDbLine
 10
121.4962443121
 20
258.8176609342
 30
0.0
 11
121.4962443121
 21
271.2952803504
 31
0.0
  0
LINE
  5
A3
330
1F
100
AcDbEntity
  8
0
  6
Continuous
 62
     9
100
AcDbLine
 10
121.4962443121
 20
273.3176609342
 30
0.0
 11
121.4962443121
 21
294.8176609342
 31
0.0
  0
LINE
  5
A4
330
1F
100
AcDbEntity
  8
0
  6
Continuous
 62
     9
100
AcDbLine
 10
121.4962443121
 20
314.8176609342
 30
0.0
 11
121.4962443121
 21
350.8176609342
 31
0.0
  0
LINE
  5
A5
330
1F
100
AcDbEntity
  8
BEZUGSACHSEN
  6
Continuous
 62
     7
100
AcDbLine
 10
60.3712443121
 20
294.8076609342
 30
0.0
 11
54.3712443121
 21
294.8076609342
 31
0.0
  0
LINE
  5
A6
330
1F
100
AcDbEntity
  8
0
  6
Continuous
 62
     7
100
AcDbLine
 10
117.3712443121
 20
294.8176609342
 30
0.0
 11
131.3712443121
 21
294.8176609342
 31
0.0
  0
LINE
  5
A7
330
1F
100
AcDbEntity
  8
FASEN
  6
Continuous
 62
     7
100
AcDbLine
 10
131.3712443121
 20
295.2176609342
 30
0.0
 11
117.3712443121
 21
295.2176609342
 31
0.0
  0
LWPOLYLINE
  5
A8
330
1F
100
AcDbEntity
  8
DEFAULT_2
  6
DASHED
 62
     8
100
AcDbPolyline
 90
        2
 70
     0
 43
0.35
 10
202.3712443121
 20
296.8176609342
 10
152.3712443121
 20
296.8176609342
  0
LINE
  5
A9
330
1F
100
AcDbEntity
  8
0
  6
Continuous
 62
     9
100
AcDbLine
 10
123.2462443121
 20
258.8176609342
 30
0.0
 11
123.2462443121
 21
271.2952803504
 31
0.0
  0
LINE
  5
AA
330
1F
100
AcDbEntity
  8
0
  6
Continuous
 62
     9
100
AcDbLine
 10
123.2462443121
 20
273.3176609342
 30
0.0
 11
123.2462443121
 21
294.8176609342
 31
0.0
  0
LINE
  5
AB
330
1F
100
AcDbEntity
  8
0
  6
Continuous
 62
     9
100
AcDbLine
 10
123.2462443121
 20
314.8176609342
 30
0.0
 11
123.2462443121
 21
350.8176609342
 31
0.0
  0
LINE
  5
AC
330
1F
100
AcDbEntity
  8
0
  6
Continuous
 62
     7
100
AcDbLine
 10
124.2462443121
 20
257.1951032039
 30
0.0
 11
124.2462443121
 21
269.935717181
 31
0.0
  0
LINE
  5
AD
330
1F
100
AcDbEntity
  8
0
  6
Continuous
 62
     7
100
AcDbLine
 10
124.2462443121
 20
273.3176609342
 30
0.0
 11
124.2462443121
 21
294.8176609342
 31
0.0
  0
LINE
  5
AE
330
1F
100
AcDbEntity
  8
0
  6
Continuous
 62
     7
100
AcDbLine
 10
124.2462443121
 20
314.8176609342
 30
0.0
 11
124.2462443121
 21
352.4402227718
 31
0.0
  0
LINE
  5
AF
330
1F
100
AcDbEntity
  8
0
  6
Continuous
 62
     7
100
AcDbLine
 10
125.6188395763
 20
354.8176609342
 30
0.0
 11
125.6188395763
 21
314.8176609342
 31
0.0
  0
LINE
  5
B0
330
1F
100
AcDbEntity
  8
0
  6
Continuous
 62
     7
100
AcDbLine
 10
125.6188395763
 20
294.8176609342
 30
0.0
 11
125.6188395763
 21
273.3176609342
 31
0.0
  0
LINE
  5
B1
330
1F
100
AcDbEntity
  8
0
  6
Continuous
 62
     7
100
AcDbLine
 10
125.6188395763
 20
265.9879043034
 30
0.0
 11
125.6188395763
 21
254.8176609342
 31
0.0
  0
LWPOLYLINE
  5
B2
330
1F
100
AcDbEntity
  8
BEZUGSACHSEN
  6
DOT_CENTER
 62
     7
100
AcDbPolyline
 90
        2
 70
     0
 43
0.25
 10
205.3712443121
 20
304.8176609342
 10
49.3712443121
 20
304.8176609342
  0
LINE
  5
B3
330
1F
100
AcDbEntity
  8
0
  6
Continuous
 62
     7
100
AcDbLine
 10
131.3712443121
 20
354.817624013
 30
0.0
 11
131.3712443121
 21
314.8176609342
 31
0.0
  0
LINE
  5
B4
330
1F
100
AcDbEntity
  8
0
  6
Continuous
 62
     7
100
AcDbLine
 10
131.3712443121
 20
294.8176609342
 30
0.0
 11
131.3712443121
 21
273.3176609342
 31
0.0
  0
LINE
  5
B5
330
1F
100
AcDbEntity
  8
0
  6
Continuous
 62
     7
100
AcDbLine
 10
131.3712443121
 20
265.9879043034
 30
0.0
 11
131.3712443121
 21
254.8176628019
 31
0.0
  0
LINE
  5
B6
330
1F
100
AcDbEntity
  8
FASEN
  6
Continuous
 62
     7
100
AcDbLine
 10
131.3712443121
 20
265.9879043034
 30
0.0
 11
131.3712443121
 21
273.3176609342
 31
0.0
  0
LINE
  5
B7
330
1F
100
AcDbEntity
  8
FASEN
  6
Continuous
 62
     7
100
AcDbLine
 10
131.3712443121
 20
294.8176609342
 30
0.0
 11
131.3712443121
 21
314.8176609342
 31
0.0
  0
LINE
  5
B8
330
1F
100
AcDbEntity
  8
RUNDUNGEN
  6
Continuous
 62
     9
100
AcDbLine
 10
137.3712443121
 20
321.8176609342
 30
0.0
 11
137.3712443121
 21
287.8176609342
 31
0.0
  0
LWPOLYLINE
  5
B9
330
1F
100
AcDbEntity
  8
DEFAULT_2
  6
DASHED
 62
     8
100
AcDbPolyline
 90
        2
 70
     0
 43
0.35
 10
202.3712443121
 20
312.8176609342
 10
152.3712443121
 20
312.8176609342
  0
LINE
  5
BA
330
1F
100
AcDbEntity
  8
FASEN
  6
Continuous
 62
     7
100
AcDbLine
 10
117.3712443121
 20
314.4176609342
 30
0.0
 11
131.3712443121
 21
314.4176609342
 31
0.0
  0
LINE
  5
BB
330
1F
100
AcDbEntity
  8
0
  6
Continuous
 62
     7
100
AcDbLine
 10
117.3712443121
 20
314.8176609342
 30
0.0
 11
131.3712443121
 21
314.8176609342
 31
0.0
  0
LINE
  5
BC
330
1F
100
AcDbEntity
  8
BEZUGSACHSEN
  6
Continuous
 62
     7
100
AcDbLine
 10
60.3712443121
 20
314.8276609342
 30
0.0
 11
54.3712443121
 21
314.8276609342
 31
0.0
  0
LINE
  5
BD
330
1F
100
AcDbEntity
  8
BEZUGSACHSEN
  6
Continuous
 62
     7
100
AcDbLine
 10
119.1236490479
 20
254.8176609342
 30
0.0
 11
120.4962443121
 21
257.19506567
 31
0.0
  0
LINE
  5
BE
330
1F
100
AcDbEntity
  8
BEZUGSACHSEN
  6
Continuous
 62
     9
100
AcDbLine
 10
53.6381972391
 20
319.8276609342
 30
0.0
 11
61.925090259
 21
319.8276609342
 31
0.0
  0
LINE
  5
BF
330
1F
100
AcDbEntity
  8
RUNDUNGEN
  6
Continuous
 62
     7
100
AcDbLine
 10
157.8995277355
 20
321.8176609342
 30
0.0
 11
137.3712443121
 21
321.8176609342
 31
0.0
  0
LINE
  5
C0
330
1F
100
AcDbEntity
  8
0
  6
Continuous
 62
     7
100
AcDbLine
 10
137.3712443121
 20
321.8176609342
 30
0.0
 11
157.8995277355
 21
321.8176609342
 31
0.0
  0
LINE
  5
C1
330
1F
100
AcDbEntity
  8
BEZUGSACHSEN
  6
Continuous
 62
     7
100
AcDbLine
 10
119.1236490479
 20
354.8176609342
 30
0.0
 11
120.4962443121
 21
352.4402561983
 31
0.0
  0
LINE
  5
C2
330
1F
100
AcDbEntity
  8
RUNDUNGEN
  6
Continuous
 62
     7
100
AcDbLine
 10
201.4497034078
 20
318.3901877762
 30
0.0
 11
157.8995277355
 21
321.8176609342
 31
0.0
  0
LINE
  5
C3
330
1F
100
AcDbEntity
  8
0
  6
Continuous
 62
     7
100
AcDbLine
 10
157.8995277355
 20
321.8176609342
 30
0.0
 11
201.4497034078
 21
318.3901877762
 31
0.0
  0
LWPOLYLINE
  5
C4
330
1F
100
AcDbEntity
  8
DEFAULT_2
  6
DASHED
 62
     8
100
AcDbPolyline
 90
        2
 70
     0
 43
0.35
 10
152.3712443121
 20
312.8176609342
 10
152.3712443121
 20
296.8176609342
  0
LINE
  5
C5
330
1F
100
AcDbEntity
  8
0
  6
Continuous
 62
     7
100
AcDbLine
 10
157.8995277355
 20
321.8176609342
 30
0.0
 11
157.8995277355
 21
287.8176609342
 31
0.0
  0
LINE
  5
C6
330
1F
100
AcDbEntity
  8
BEZUGSACHSEN
  6
Continuous
 62
     7
100
AcDbLine
 10
100.4904879261
 20
342.5339851079
 30
0.0
 11
99.8712443121
 21
342.6999109342
 31
0.0
  0
LINE
  5
C7
330
1F
100
AcDbEntity
  8
BEZUGSACHSEN
  6
Continuous
 62
     7
100
AcDbLine
 10
99.8712443121
 20
342.6999109342
 30
0.0
 11
54.2711698274
 21
340.4153472025
 31
0.0
  0
LINE
  5
C8
330
1F
100
AcDbEntity
  8
BEZUGSACHSEN
  6
Continuous
 62
     7
100
AcDbLine
 10
101.6706730234
 20
342.4999109342
 30
0.0
 11
100.7493069712
 21
342.4999109342
 31
0.0
  0
LINE
  5
C9
330
1F
100
AcDbEntity
  8
BEZUGSACHSEN
  6
Continuous
 62
     7
100
AcDbLine
 10
121.4962443121
 20
350.8176609342
 30
0.0
 11
123.2462443121
 21
350.8176609342
 31
0.0
  0
LINE
  5
CA
330
1F
100
AcDbEntity
  8
BEZUGSACHSEN
  6
Continuous
 62
     7
100
AcDbLine
 10
119.1236490479
 20
354.8176609342
 30
0.0
 11
114.3712443121
 21
354.8176609342
 31
0.0
  0
LINE
  5
CB
330
1F
100
AcDbEntity
  8
BEZUGSACHSEN
  6
Continuous
 62
     7
100
AcDbLine
 10
104.3712443121
 20
354.8176609342
 30
0.0
 11
102.3712443121
 21
354.8176609342
 31
0.0
  0
LINE
  5
CC
330
1F
100
AcDbEntity
  8
BEZUGSACHSEN
  6
Continuous
 62
     7
100
AcDbLine
 10
125.6188395763
 20
354.8176609342
 30
0.0
 11
131.3712443121
 21
354.8176609342
 31
0.0
  0
LINE
  5
CD
330
1F
100
AcDbEntity
  8
RUNDUNGEN
  6
Continuous
 62
     9
100
AcDbLine
 10
201.4497034078
 20
291.2451340921
 30
0.0
 11
201.4497034078
 21
318.3901877762
 31
0.0
  0
LINE
  5
CE
330
1F
100
AcDbEntity
  8
RUNDUNGEN
  6
Continuous
 62
     7
100
AcDbLine
 10
202.3712443121
 20
292.2420514258
 30
0.0
 11
202.3712443121
 21
317.3932704425
 31
0.0
  0
LWPOLYLINE
  5
CF
330
1F
100
AcDbEntity
  8
1
  6
Continuous
 62
     7
100
AcDbPolyline
 90
        2
 70
     0
 43
0.25
 10
202.3712443121
 20
317.3932704425
 10
202.3712443121
 20
318.3176609341466
  0
LWPOLYLINE
  5
D0
330
1F
100
AcDbEntity
  8
1
  6
Continuous
 62
     7
100
AcDbPolyline
 90
        2
 70
     0
 43
0.25
 10
201.4497034078
 20
318.3901877762
 10
202.3712443120949
 20
318.3176609341466
  0
LWPOLYLINE
  5
D1
330
1F
100
AcDbEntity
  8
1
  6
Continuous
 62
     7
100
AcDbPolyline
 90
        2
 70
     0
 43
0.25
 10
201.4497034078
 20
291.2451340921
 10
202.3712443121
 20
291.3176609341487
  0
LWPOLYLINE
  5
D2
330
1F
100
AcDbEntity
  8
1
  6
Continuous
 62
     7
100
AcDbPolyline
 90
        2
 70
     0
 43
0.25
 10
202.3712443121
 20
292.2420514258
 10
202.3712443121
 20
291.3176609341487
  0
ARC
  5
D3
330
1F
100
AcDbEntity
  8
FASEN
  6
Continuous
 62
     7
100
AcDbCircle
 10
120.2718983349
 20
280.3489242041
 30
0.0
 40
19.03859487300018
100
AcDbArc
 50
227.4837701983004
 51
228.9651953375289
  0
ARC
  5
D4
330
1F
100
AcDbEntity
  8
FASEN
  6
Continuous
 62
     7
100
AcDbCircle
 10
115.343118234
 20
265.3176609342
 30
0.0
 40
8.0
100
AcDbArc
 50
90.0
 51
172.8323734889967
  0
ARC
  5
D5
330
1F
100
AcDbEntity
  8
FASEN
  6
Continuous
 62
     7
100
AcDbCircle
 10
115.343118234
 20
265.3176609342
 30
0.0
 40
7.599982194900008
100
AcDbArc
 50
90.0
 51
174.9405171273009
  0
ARC
  5
D6
330
1F
100
AcDbEntity
  8
BEZUGSACHSEN
  6
Continuous
 62
     7
100
AcDbCircle
 10
60.3712443121
 20
296.8076609342
 30
0.0
 40
2.0
100
AcDbArc
 50
270.0
 51
355.2355361864949
  0
ARC
  5
D7
330
1F
100
AcDbEntity
  8
BEZUGSACHSEN
  6
Continuous
 62
     7
100
AcDbCircle
 10
54.3712443121
 20
271.2174693711
 30
0.0
 40
2.0
100
AcDbArc
 50
180.0
 51
267.1318795137018
  0
ARC
  5
D8
330
1F
100
AcDbEntity
  8
BEZUGSACHSEN
  6
Continuous
 62
     7
100
AcDbCircle
 10
121.4962443121
 20
257.8176609342
 30
0.0
 40
1.0
100
AcDbArc
 50
90.0
 51
180.0
  0
ARC
  5
D9
330
1F
100
AcDbEntity
  8
BEZUGSACHSEN
  6
Continuous
 62
     7
100
AcDbCircle
 10
100.7493069712
 20
266.1354109342
 30
0.0
 40
1.0
100
AcDbArc
 50
90.0
 51
105.0000000011817
  0
ARC
  5
DA
330
1F
100
AcDbEntity
  8
BEZUGSACHSEN
  6
Continuous
 62
     7
100
AcDbCircle
 10
101.6706730234
 20
266.1354109342
 30
0.0
 40
0.9999999999996884
100
AcDbArc
 50
45.52164291272234
 51
90.0
  0
ARC
  5
DB
330
1F
100
AcDbEntity
  8
0
  6
Continuous
 62
     7
100
AcDbCircle
 10
-122.2265355704
 20
374.2521285245
 30
0.0
 40
264.5204223901892
100
AcDbArc
 50
335.840076470599
 51
336.5770705490999
  0
ARC
  5
DC
330
1F
100
AcDbEntity
  8
BEZUGSACHSEN
  6
Continuous
 62
     7
100
AcDbCircle
 10
109.3864523232
 20
404.8704307009
 30
0.0
 40
50.30340021025299
100
AcDbArc
 50
264.2781515101786
 51
269.9826780126002
  0
ARC
  5
DD
330
1F
100
AcDbEntity
  8
BEZUGSACHSEN
  6
Continuous
 62
     7
100
AcDbCircle
 10
109.356036311
 20
404.8704305003
 30
0.0
 40
50.30340000969741
100
AcDbArc
 50
270.0173219760583
 51
275.7218485012678
  0
ARC
  5
DE
330
1F
100
AcDbEntity
  8
0
  6
Continuous
 62
     7
100
AcDbCircle
 10
117.3712443121
 20
304.8176609342
 30
0.0
 40
10.0
100
AcDbArc
 50
90.0
 51
270.0
  0
ARC
  5
DF
330
1F
100
AcDbEntity
  8
FASEN
  6
Continuous
 62
     7
100
AcDbCircle
 10
117.3712443121
 20
304.8176609342
 30
0.0
 40
9.599999195900011
100
AcDbArc
 50
90.0
 51
270.0
  0
ARC
  5
E0
330
1F
100
AcDbEntity
  8
BEZUGSACHSEN
  6
Continuous
 62
     7
100
AcDbCircle
 10
60.3712443121
 20
312.8276609342
 30
0.0
 40
1.99999999999998
100
AcDbArc
 50
4.76446378498717
 51
90.0
  0
ARC
  5
E1
330
1F
100
AcDbEntity
  8
BEZUGSACHSEN
  6
Continuous
 62
     7
100
AcDbCircle
 10
54.3712443121
 20
338.4178524972
 30
0.0
 40
2.000000000047404
100
AcDbArc
 50
92.86812048629818
 51
180.0000000143238
  0
ARC
  5
E2
330
1F
100
AcDbEntity
  8
BEZUGSACHSEN
  6
Continuous
 62
     7
100
AcDbCircle
 10
121.4962443121
 20
351.8176609342
 30
0.0
 40
1.0
100
AcDbArc
 50
180.0
 51
270.0
  0
ARC
  5
E3
330
1F
100
AcDbEntity
  8
BEZUGSACHSEN
  6
Continuous
 62
     7
100
AcDbCircle
 10
100.7493069712
 20
343.4999109342
 30
0.0
 40
1.000000000009914
100
AcDbArc
 50
255.0000000003019
 51
270.0
  0
ARC
  5
E4
330
1F
100
AcDbEntity
  8
BEZUGSACHSEN
  6
Continuous
 62
     7
100
AcDbCircle
 10
101.6706730234
 20
343.4999109342
 30
0.0
 40
1.0
100
AcDbArc
 50
270.0
 51
314.4783570872754
  0
ARC
  5
E5
330
1F
100
AcDbEntity
  8
BEZUGSACHSEN
  6
Continuous
 62
     7
100
AcDbCircle
 10
238.7012909145
 20
-1301.2250983935
 30
0.0
 40
1632.1727637359
100
AcDbArc
 50
96.2726189838
 51
96.48809068979999
  0
ARC
  5
E6
330
1F
100
AcDbEntity
  8
RUNDUNGEN
  6
Continuous
 62
     7
100
AcDbCircle
 10
137.3712443121
 20
281.8176609342
 30
0.0
 40
6.0
100
AcDbArc
 50
90.0
 51
180.0
  0
ARC
  5
E7
330
1F
100
AcDbEntity
  8
RUNDUNGEN
  6
Continuous
 62
     7
100
AcDbCircle
 10
201.3712443121
 20
292.2420514258
 30
0.0
 40
0.9999999999648148
100
AcDbArc
 50
274.4999999985582
 51
0.0
  0
ARC
  5
E8
330
1F
100
AcDbEntity
  8
BEZUGSACHSEN
  6
Continuous
 62
     7
100
AcDbCircle
 10
123.2462443121
 20
257.8176609342
 30
0.0
 40
1.0
100
AcDbArc
 50
0.0
 51
90.0
  0
ARC
  5
E9
330
1F
100
AcDbEntity
  8
BEZUGSACHSEN
  6
Continuous
 62
     7
100
AcDbCircle
 10
238.7012909145
 20
1910.8604202616
 30
0.0
 40
1632.1727637357
100
AcDbArc
 50
263.5119093102
 51
263.7273810162
  0
ARC
  5
EA
330
1F
100
AcDbEntity
  8
0
  6
Continuous
 62
     7
100
AcDbCircle
 10
366.9690241946
 20
374.2521285245
 30
0.0
 40
264.5204223902001
100
AcDbArc
 50
203.4229294508999
 51
204.1599235294009
  0
ARC
  5
EB
330
1F
100
AcDbEntity
  8
RUNDUNGEN
  6
Continuous
 62
     7
100
AcDbCircle
 10
137.3712443121
 20
327.8176609342
 30
0.0
 40
6.0
100
AcDbArc
 50
180.0
 51
270.0
  0
ARC
  5
EC
330
1F
100
AcDbEntity
  8
BEZUGSACHSEN
  6
Continuous
 62
     7
100
AcDbCircle
 10
123.2462443121
 20
351.8176609342
 30
0.0
 40
1.0
100
AcDbArc
 50
270.0
 51
0.0
  0
ARC
  5
ED
330
1F
100
AcDbEntity
  8
RUNDUNGEN
  6
Continuous
 62
     7
100
AcDbCircle
 10
201.3712443121
 20
317.3932704425
 30
0.0
 40
1.0
100
AcDbArc
 50
0.0
 51
85.50000000144155
  0
CIRCLE
  5
EE
330
1F
100
AcDbEntity
  8
BEZUGSACHSEN
  6
Continuous
 62
     7
100
AcDbCircle
 10
87.3712443121
 20
304.8176609342
 30
0.0
 40
6.0
  0
SPLINE
  5
EF
330
1F
100
AcDbEntity
  8
BEZUGSACHSEN
  6
Continuous
 62
     7
100
AcDbSpline
210
0.0
220
0.0
230
1.0
 70
     8
 71
     3
 72
    19
 73
    15
 74
    13
 42
0.0000000001
 43
0.0000000001
 44
0.00000001
 40
0.0
 40
0.0
 40
0.0
 40
0.0
 40
0.1462385987747023
 40
0.2927479274788367
 40
0.436479070618916
 40
0.5801659236474129
 40
0.720379997291489
 40
0.8606059382767924
 40
0.9980411883914374
 40
1.135484020419375
 40
1.405415631063242
 40
1.675815514060924
 40
1.943997429496767
 40
2.211934834723623
 40
2.211934834723623
 40
2.211934834723623
 40
2.211934834723623
 10
60.3712443121
 20
321.1763085216
 30
0.0
 10
60.41995911743876
 20
321.1796165989109
 30
0.0
 10
60.51747891330623
 20
321.1862388777402
 30
0.0
 10
60.66281517361663
 20
321.169879564988
 30
0.0
 10
60.80347211074705
 20
321.1347077989192
 30
0.0
 10
60.93632424421073
 20
321.0819021123081
 30
0.0
 10
61.06077870729344
 20
321.0142303245975
 30
0.0
 10
61.17558126446905
 20
320.9349301232237
 30
0.0
 10
61.28169120223515
 20
320.8458454836432
 30
0.0
 10
61.410793667383
 20
320.7178979480644
 30
0.0
 10
61.5538335172612
 20
320.5420956591557
 30
0.0
 10
61.69874111895633
 20
320.314410193277
 30
0.0
 10
61.82337786739888
 20
320.0757475738068
 30
0.0
 10
61.89119643856728
 20
319.9103313333738
 30
0.0
 10
61.925090259
 20
319.8276609342
 30
0.0
 11
60.3712443121
 21
321.1763085216
 31
0.0
 11
60.51737817391905
 21
321.1818422546474
 31
0.0
 11
60.6630875347657
 21
321.1665528609709
 31
0.0
 11
60.80251761632496
 21
321.1316545248396
 31
0.0
 11
60.93614995326897
 21
321.0788500718445
 31
0.0
 11
61.05946374410043
 21
321.0121140587883
 31
0.0
 11
61.17499485543014
 21
320.9326415676977
 31
0.0
 11
61.280407405193
 21
320.8444562949671
 31
0.0
 11
61.3781959088605
 21
320.7478750306022
 31
0.0
 11
61.54944430472176
 21
320.5392196656107
 31
0.0
 11
61.69578672525233
 21
320.3118433416928
 31
0.0
 11
61.81965435105909
 21
320.073981299652
 31
0.0
 11
61.925090259
 21
319.8276609342
 31
0.0
  0
SPLINE
  5
F0
330
1F
100
AcDbEntity
  8
BEZUGSACHSEN
  6
Continuous
 62
     7
100
AcDbSpline
210
0.0
220
0.0
230
1.0
 70
     8
 71
     3
 72
    11
 73
     7
 74
     5
 42
0.0000000001
 43
0.0000000001
 44
0.00000001
 40
0.0
 40
0.0
 40
0.0
 40
0.0
 40
0.5521269407068181
 40
1.105196183364637
 40
1.651906304756664
 40
2.198197048721927
 40
2.198197048721927
 40
2.198197048721927
 40
2.198197048721927
 10
62.3712443121
 20
291.9480054084
 30
0.0
 10
62.36465887447221
 20
291.763870217988
 30
0.0
 10
62.35147676000645
 20
291.3952855780029
 30
0.0
 10
62.25398839620567
 20
290.8518611732991
 30
0.0
 10
62.1143510831934
 20
290.3205870437763
 30
0.0
 10
61.98816106096355
 20
289.9785925636954
 30
0.0
 10
61.925090259
 20
289.8076609342
 30
0.0
 11
62.3712443121
 21
291.9480054084
 31
0.0
 11
62.3384997296732
 21
291.3968503023037
 31
0.0
 11
62.24643307672982
 21
290.8514978304198
 31
0.0
 11
62.1059415918964
 21
290.3231474736282
 31
0.0
 11
61.925090259
 21
289.8076609342
 31
0.0
  0
SPLINE
  5
F1
330
1F
100
AcDbEntity
  8
BEZUGSACHSEN
  6
Continuous
 62
     7
100
AcDbSpline
210
0.0
220
0.0
230
1.0
 70
     8
 71
     3
 72
    19
 73
    15
 74
    13
 42
0.0000000001
 43
0.0000000001
 44
0.00000001
 40
0.0
 40
0.0
 40
0.0
 40
0.0
 40
0.2679411643602339
 40
0.5361267937513383
 40
0.8065304774294836
 40
1.076465993279382
 40
1.213913376191988
 40
1.351353104918723
 40
1.491586367094681
 40
1.631807897573571
 40
1.775491562763811
 40
1.919219204738125
 40
2.065713007403917
 40
2.211936409353677
 40
2.211936409353677
 40
2.211936409353677
 40
2.211936409353677
 10
61.925090259
 20
289.8076609342
 30
0.0
 10
61.89119601520016
 20
289.7249893544875
 30
0.0
 10
61.8233766030601
 20
289.559570766898
 30
0.0
 10
61.69873809679949
 20
289.3209047931942
 30
0.0
 10
61.55382729749873
 20
289.0932167971554
 30
0.0
 10
61.410783665979
 20
288.9174123058369
 30
0.0
 10
61.28167727905173
 20
288.7894625867389
 30
0.0
 10
61.17556217996702
 20
288.700375565953
 30
0.0
 10
61.06075275231417
 20
288.6210739256471
 30
0.0
 10
60.93629314009291
 20
288.5534034582183
 30
0.0
 10
60.80343958497694
 20
288.5006007715288
 30
0.0
 10
60.66278878610558
 20
288.4654345075237
 30
0.0
 10
60.51746340300018
 20
288.4490823055843
 30
0.0
 10
60.41995398393631
 20
288.4557050389355
 30
0.0
 10
60.3712443121
 20
288.4590133467
 30
0.0
 11
61.925090259
 21
289.8076609342
 31
0.0
 11
61.81965299928353
 21
289.5613370583329
 31
0.0
 11
61.69578348372422
 21
289.3234718130216
 31
0.0
 11
61.54943799744594
 21
289.0960929424274
 31
0.0
 11
61.37818580632313
 21
288.887435640248
 31
0.0
 11
61.28039336762114
 21
288.7908518838381
 31
0.0
 11
61.17497637834158
 21
288.7026649380711
 31
0.0
 11
61.05943773461885
 21
288.6231904791096
 31
0.0
 11
60.93611572473797
 21
288.5564539861782
 31
0.0
 11
60.80248503656829
 21
288.5036540352143
 31
0.0
 11
60.66305733537252
 21
288.4687606088024
 31
0.0
 11
60.51736289682226
 21
288.453477782002
 31
0.0
 11
60.3712443121
 21
288.4590133467
 31
0.0
  0
SPLINE
  5
F2
330
1F
100
AcDbEntity
  8
BEZUGSACHSEN
  6
Continuous
 62
     7
100
AcDbSpline
210
0.0
220
0.0
230
1.0
 70
     8
 71
     3
 72
    47
 73
    43
 74
    41
 42
0.0000000001
 43
0.0000000001
 44
0.00000001
 40
0.0
 40
0.0
 40
0.0
 40
0.0
 40
0.6366022431821733
 40
1.273595002171233
 40
1.592921746398829
 40
1.912076344884405
 40
2.231392290413808
 40
2.550826842715975
 40
3.18977432114621
 40
3.8290816969963
 40
4.468337152521983
 40
5.107221744801724
 40
5.426176341291738
 40
5.745033356831388
 40
6.063356731594513
 40
6.3817802148911
 40
7.017059195670335
 40
7.652639340990903
 40
8.287532214239782
 40
8.922347946495712
 40
9.559226748551314
 40
10.19613435933138
 40
10.83451785501051
 40
11.47287689973967
 40
12.11234487365046
 40
12.75189588947475
 40
13.39354300518088
 40
14.03487957352975
 40
14.35615205768385
 40
14.67732107708858
 40
14.99840882470599
 40
15.31959604121225
 40
15.96011121026496
 40
16.6009959208711
 40
17.23809108077322
 40
17.87482555201153
 40
18.19205670334314
 40
18.50917199102235
 40
18.82571084630867
 40
19.14241581829465
 40
19.77338974995
 40
20.40398930738619
 40
20.40398930738619
 40
20.40398930738619
 40
20.40398930738619
 10
80.8718287178
 20
304.8176609147
 30
0.0
 10
80.87783436168671
 20
305.0299407243953
 30
0.0
 10
80.88984933354841
 20
305.4546305642209
 30
0.0
 10
80.97111467875644
 20
305.9807733253364
 30
0.0
 10
81.06383427535755
 20
306.3957477014609
 30
0.0
 10
81.14912723950162
 20
306.7035716771507
 30
0.0
 10
81.24936585294162
 20
307.0068643539259
 30
0.0
 10
81.40285140209681
 20
307.4043017164631
 30
0.0
 10
81.63132334886976
 20
307.886401293352
 30
0.0
 10
81.96093830941908
 20
308.4352171662089
 30
0.0
 10
82.34316552651222
 20
308.948752705571
 30
0.0
 10
82.70202022364094
 20
309.3432554676592
 30
0.0
 10
83.01097357720612
 20
309.6361287657044
 30
0.0
 10
83.25286868617987
 20
309.8438505868093
 30
0.0
 10
83.50451193966884
 20
310.0393599839164
 30
0.0
 10
83.8518060468328
 20
310.2828551865542
 30
0.0
 10
84.3075463815945
 20
310.5547372565778
 30
0.0
 10
84.88302580627882
 20
310.8260663691025
 30
0.0
 10
85.48213657143144
 20
311.0398499999505
 30
0.0
 10
86.09958697387651
 20
311.1945397313601
 30
0.0
 10
86.72985753555633
 20
311.2883467150274
 30
0.0
 10
87.36745147027679
 20
311.3204734398324
 30
0.0
 10
88.00563011451491
 20
311.2900438668822
 30
0.0
 10
88.63864253571674
 20
311.1973726117094
 30
0.0
 10
89.2598762201417
 20
311.0428806504428
 30
0.0
 10
89.86401197209122
 20
310.8278435178769
 30
0.0
 10
90.44449104566006
 20
310.5539201521786
 30
0.0
 10
90.90412006988814
 20
310.2787532741506
 30
0.0
 10
91.2540190585507
 20
310.0321435752998
 30
0.0
 10
91.5071506877007
 20
309.8342393829188
 30
0.0
 10
91.75014932705042
 20
309.6240608534922
 30
0.0
 10
92.05939367054502
 20
309.3285415133126
 30
0.0
 10
92.41771386134539
 20
308.9310705305581
 30
0.0
 10
92.79766427970097
 20
308.4154037690312
 30
0.0
 10
93.12413730931067
 20
307.8658076125769
 30
0.0
 10
93.34950844930326
 20
307.384702070871
 30
0.0
 10
93.50059943246335
 20
306.988711883248
 30
0.0
 10
93.59901235001303
 20
306.6872855324523
 30
0.0
 10
93.68267912818239
 20
306.3815901645167
 30
0.0
 10
93.7734984856212
 20
305.9700381467937
 30
0.0
 10
93.85301346130046
 20
305.4486129302855
 30
0.0
 10
93.86478574591575
 20
305.0279366411447
 30
0.0
 10
93.8706701415
 20
304.8176609148
 30
0.0
 11
80.8718287178
 21
304.8176609147
 31
0.0
 11
80.90307738883979
 21
305.4534957490578
 31
0.0
 11
80.99651859121342
 21
306.0835977381861
 31
0.0
 11
81.06645909824785
 21
306.3951709961124
 31
0.0
 11
81.15160043722399
 21
306.7027593738704
 31
0.0
 11
81.25182497536194
 21
307.0059387185237
 31
0.0
 11
81.366904865114
 21
307.3039237050232
 31
0.0
 11
81.64050075935829
 21
307.8813309848916
 31
0.0
 11
81.96972027303644
 21
308.4293532769837
 31
0.0
 11
82.35134452838383
 21
308.9421987363083
 31
0.0
 11
82.78127916451263
 21
309.4147764874872
 31
0.0
 11
83.01275142557377
 21
309.6342135558721
 31
0.0
 11
83.25465382660101
 21
309.8419466171216
 31
0.0
 11
83.50602763375551
 21
310.037243775312
 31
0.0
 11
83.76675691204743
 21
310.2200380809019
 31
0.0
 11
84.31229055625725
 21
310.5455721443347
 31
0.0
 11
84.88720037637597
 21
310.8165718119669
 31
0.0
 11
85.48514656412078
 21
311.0299946717165
 31
0.0
 11
86.10093909632974
 21
311.1842365959631
 31
0.0
 11
86.73087137827615
 21
311.2780445309663
 31
0.0
 11
87.366974499995
 21
311.3100464560507
 31
0.0
 11
88.00463545903031
 21
311.2796821862971
 31
0.0
 11
88.6362529919576
 21
311.187153476772
 31
0.0
 11
89.25682586406381
 21
311.0328531201185
 31
0.0
 11
89.85932667118637
 21
310.8183344047146
 31
0.0
 11
90.43963386755286
 21
310.5445560656531
 31
0.0
 11
90.9898588555988
 21
310.2150639467316
 31
0.0
 11
91.25246615974625
 21
310.0299871710872
 31
0.0
 11
91.5054866171381
 21
309.8321736549498
 31
0.0
 11
91.74833491850242
 21
309.6221211753299
 31
0.0
 11
91.98053735390945
 21
309.4002129577306
 31
0.0
 11
92.40945341164371
 21
308.9245127399418
 31
0.0
 11
92.78956407031679
 21
308.4085194265628
 31
0.0
 11
93.11500321604196
 21
307.8608154871937
 31
0.0
 11
93.38508407417166
 21
307.2841985286025
 31
0.0
 11
93.49817451935586
 21
306.9878100089476
 31
0.0
 11
93.596618622695
 21
306.6863620628646
 31
0.0
 11
93.68010142807063
 21
306.3810303283322
 31
0.0
 11
93.74865085151467
 21
306.0718329547565
 31
0.0
 11
93.8400779294392
 21
305.4475179766799
 31
0.0
 11
93.8706701415
 21
304.8176609148
 31
0.0
  0
SPLINE
  5
F3
330
1F
100
AcDbEntity
  8
BEZUGSACHSEN
  6
Continuous
 62
     7
100
AcDbSpline
210
0.0
220
0.0
230
1.0
 70
     8
 71
     3
 72
    47
 73
    43
 74
    41
 42
0.0000000001
 43
0.0000000001
 44
0.00000001
 40
0.0
 40
0.0
 40
0.0
 40
0.0
 40
0.6302393214779816
 40
1.260854867358693
 40
1.577476088428943
 40
1.893930800240259
 40
2.210999113877187
 40
2.528183472217017
 40
3.164887038271775
 40
3.801951183429889
 40
4.442851001649267
 40
5.083381259827107
 40
5.404527292365252
 40
5.725573838818499
 40
6.046670710077713
 40
6.367871027177601
 40
7.009090242536407
 40
7.650619763945626
 40
8.290330346506755
 40
8.929958764515629
 40
9.568647011383552
 40
10.20735923015532
 40
10.84445705815846
 40
11.48152626494222
 40
12.11643462220098
 40
12.75141965576815
 40
13.38691908735533
 40
14.02211738530283
 40
14.34050449142932
 40
14.65879153792549
 40
14.97761586869005
 40
15.29653774945128
 40
15.93537694100085
 40
16.57458694065657
 40
17.21386274991261
 40
17.8527785907465
 40
18.1721986008216
 40
18.49150024075513
 40
18.81067156635792
 40
19.13001452422977
 40
19.76719627023899
 40
20.4039896827916
 40
20.4039896827916
 40
20.4039896827916
 40
20.4039896827916
 10
93.8706579499
 20
304.8176609529
 30
0.0
 10
93.8647887481555
 20
304.607504931004
 30
0.0
 10
93.85304684101823
 20
304.187067433561
 30
0.0
 10
93.77360009846163
 20
303.665903991297
 30
0.0
 10
93.68286859339634
 20
303.2545125238738
 30
0.0
 10
93.59926321110173
 20
302.9488746835887
 30
0.0
 10
93.50091126973537
 20
302.6474908374037
 30
0.0
 10
93.34989245888012
 20
302.2515176578069
 30
0.0
 10
93.12460987127824
 20
301.770410849115
 30
0.0
 10
92.79823183653406
 20
301.2207766241036
 30
0.0
 10
92.41836477449728
 20
300.7050487614316
 30
0.0
 10
92.06011033519657
 20
300.3075233592282
 30
0.0
 10
91.75092959749833
 20
300.0119700043024
 30
0.0
 10
91.50800464145664
 20
299.8017850958736
 30
0.0
 10
91.25495573814361
 20
299.6038756315538
 30
0.0
 10
90.90517322970898
 20
299.3572522800857
 30
0.0
 10
90.44568799197086
 20
299.0820456708102
 30
0.0
 10
89.86529228500682
 20
298.8080055641022
 30
0.0
 10
89.26113797715468
 20
298.5928170867511
 30
0.0
 10
88.63972282973903
 20
298.4381552477129
 30
0.0
 10
88.00645361830769
 20
298.3453448746773
 30
0.0
 10
87.367994153888
 20
298.3148341248694
 30
0.0
 10
86.73016114034911
 20
298.3469358672519
 30
0.0
 10
86.09973115336149
 20
298.4407489296277
 30
0.0
 10
85.48215748386498
 20
298.5954627459168
 30
0.0
 10
84.88301407243205
 20
298.8092593179902
 30
0.0
 10
84.30755685096591
 20
299.0805806864468
 30
0.0
 10
83.85187145801078
 20
299.3524255700955
 30
0.0
 10
83.5046155602602
 20
299.595886122687
 30
0.0
 10
83.25299597895548
 20
299.7913686490067
 30
0.0
 10
83.01112092868124
 20
299.9990617076954
 30
0.0
 10
82.70218464499868
 20
300.2918992558182
 30
0.0
 10
82.34334188810398
 20
300.6863569047436
 30
0.0
 10
81.9611149828584
 20
301.1998415706942
 30
0.0
 10
81.63149053760722
 20
301.7486093494225
 30
0.0
 10
81.4030030916878
 20
302.2306727659172
 30
0.0
 10
81.24950159171902
 20
302.6280823250804
 30
0.0
 10
81.14924478879286
 20
302.9313646883647
 30
0.0
 10
81.06392829587122
 20
303.2391885600754
 30
0.0
 10
80.97116584050762
 20
303.6542294271856
 30
0.0
 10
80.88987347354426
 20
304.1805022262604
 30
0.0
 10
80.87783367405643
 20
304.605317875961
 30
0.0
 10
80.8718156093
 20
304.8176609546
 30
0.0
 11
93.8706579499
 21
304.8176609529
 31
0.0
 11
93.84011837117876
 21
304.1881619962141
 31
0.0
 11
93.74878709565196
 21
303.5641951983658
 31
0.0
 11
93.68029235696544
 21
303.2550714878481
 31
0.0
 11
93.59687353212867
 21
302.9498094949789
 31
0.0
 11
93.49848678828963
 21
302.6483922357695
 31
0.0
 11
93.38545615718708
 21
302.3520309805285
 31
0.0
 11
93.11547602067475
 21
301.775400980515
 31
0.0
 11
92.7901393988214
 21
301.2276722086515
 31
0.0
 11
92.41010290402528
 21
300.7116055079076
 31
0.0
 11
91.98125240633549
 21
300.235825871655
 31
0.0
 11
91.74911527193836
 21
300.0139089388877
 31
0.0
 11
91.50633277858739
 21
299.8038433636216
 31
0.0
 11
91.25340317030364
 21
299.6060307907505
 31
0.0
 11
90.99088877449643
 21
299.4209474697866
 31
0.0
 11
90.44083059292463
 21
299.0914052433098
 31
0.0
 11
89.86068976126315
 21
298.81754991238
 31
0.0
 11
89.25808445094036
 21
298.6028490287966
 31
0.0
 11
88.63738518060036
 21
298.4483921450914
 31
0.0
 11
88.00545636669679
 21
298.355717170877
 31
0.0
 11
87.36747023954686
 21
298.325270496632
 31
0.0
 11
86.73117525143653
 21
298.3572444008664
 31
0.0
 11
86.10105197733093
 21
298.4510624890079
 31
0.0
 11
85.48516806908947
 21
298.6053208232601
 31
0.0
 11
84.88713559927051
 21
298.8187761063911
 31
0.0
 11
84.31229985072379
 21
299.0897436131891
 31
0.0
 11
83.76683316318243
 21
299.4152324309664
 31
0.0
 11
83.50613087040551
 21
299.5980018591771
 31
0.0
 11
83.25478161859719
 21
299.7932714102665
 31
0.0
 11
83.01289832024761
 21
300.0009765470999
 31
0.0
 11
82.78144248894743
 21
300.2203833933592
 31
0.0
 11
82.3515194580672
 21
300.6929103239975
 31
0.0
 11
81.96989831860941
 21
301.2057014409045
 31
0.0
 11
81.64066684443036
 21
301.7536797221437
 31
0.0
 11
81.36705253728633
 21
302.3310432667104
 31
0.0
 11
81.25196028482637
 21
302.6290078892079
 31
0.0
 11
81.15172059639947
 21
302.9321671577918
 31
0.0
 11
81.06655351618082
 21
303.2397657656138
 31
0.0
 11
80.9965904886974
 21
303.5513505847686
 31
0.0
 11
80.9031015917169
 21
304.1816365544591
 31
0.0
 11
80.8718156093
 21
304.8176609546
 31
0.0
  0
SPLINE
  5
F4
330
1F
100
AcDbEntity
  8
BEZUGSACHSEN
  6
Continuous
 62
     7
100
AcDbSpline
210
0.0
220
0.0
230
1.0
 70
     8
 71
     3
 72
    27
 73
    23
 74
    21
 42
0.0000000001
 43
0.0000000001
 44
0.00000001
 40
0.0
 40
0.0
 40
0.0
 40
0.0
 40
0.1219765139516063
 40
0.2439857714748844
 40
0.3566831398333729
 40
0.4694418149629567
 40
0.5721317672948524
 40
0.6745445881155939
 40
0.722520652122205
 40
0.7704888797708559
 40
0.8171412936046024
 40
0.8637898734267621
 40
0.9102318000825965
 40
0.9566751324135342
 40
1.004175175748893
 40
1.051683100138876
 40
1.153672388738568
 40
1.256049376665208
 40
1.37074513805925
 40
1.48538540181308
 40
1.611534903846274
 40
1.737631875976213
 40
1.737631875976213
 40
1.737631875976213
 40
1.737631875976213
 10
53.5170869877
 20
289.5753249387
 30
0.0
 10
53.48183197009661
 20
289.5550454134352
 30
0.0
 10
53.41131247097619
 20
289.5144809190371
 30
0.0
 10
53.30366006779035
 20
289.4636850581454
 30
0.0
 10
53.1955020519191
 20
289.4219334222762
 30
0.0
 10
53.08992283095064
 20
289.3925188371348
 30
0.0
 10
52.98509128580493
 20
289.3756042497467
 30
0.0
 10
52.90036361595555
 20
289.3737390265184
 30
0.0
 10
52.8345396795518
 20
289.3806943345382
 30
0.0
 10
52.78783247633771
 20
289.3898914616916
 30
0.0
 10
52.7426518590337
 20
289.4034249066788
 30
0.0
 10
52.69951224838192
 20
289.421218165485
 30
0.0
 10
52.65855777180386
 20
289.4434465231888
 30
0.0
 10
52.61991034533304
 20
289.4699815548905
 30
0.0
 10
52.58400426670094
 20
289.5006768324209
 30
0.0
 10
52.53856494517075
 20
289.5482143055382
 30
0.0
 10
52.49002180511247
 20
289.6173836726445
 30
0.0
 10
52.44379609618045
 20
289.7135417273573
 30
0.0
 10
52.40983022237869
 20
289.8191171603194
 30
0.0
 10
52.38687479815883
 20
289.9355348512011
 30
0.0
 10
52.3734302397947
 20
290.0572821598748
 30
0.0
 10
52.37197285349882
 20
290.1413855234195
 30
0.0
 10
52.3712443121
 20
290.183428448
 30
0.0
 11
53.5170869877
 21
289.5753249387
 31
0.0
 11
53.41054236363946
 21
289.5159404875399
 31
0.0
 11
53.30024947447078
 21
289.4637702132431
 31
0.0
 11
53.19493146661836
 21
289.4236601888486
 31
0.0
 11
53.08620773807531
 21
289.3937658805496
 31
0.0
 11
52.98474358595416
 21
289.3779465207565
 31
0.0
 11
52.88234404536976
 21
289.3762972916745
 31
0.0
 11
52.83464018915721
 21
289.38140070426
 31
0.0
 11
52.78758941889576
 21
289.3907375067939
 31
0.0
 11
52.74290985146234
 21
289.4041607690829
 31
0.0
 11
52.69980371486641
 21
289.4219919492793
 31
0.0
 11
52.65898112206956
 21
289.4441362141993
 31
0.0
 11
52.62069386552341
 21
289.4704244074459
 31
0.0
 11
52.58455676851356
 21
289.5012523872137
 31
0.0
 11
52.55170426814668
 21
289.5355702557298
 31
0.0
 11
52.49253187392371
 21
289.618639159364
 31
0.0
 11
52.44763215034911
 21
289.7106449335299
 31
0.0
 11
52.41199399076903
 21
289.819663460687
 31
0.0
 11
52.38914242737164
 21
289.932003106956
 31
0.0
 11
52.37537567103221
 21
290.0573991726164
 31
0.0
 11
52.3712443121
 21
290.183428448
 31
0.0
  0
SPLINE
  5
F5
330
1F
100
AcDbEntity
  8
BEZUGSACHSEN
  6
Continuous
 62
     7
100
AcDbSpline
210
0.0
220
0.0
230
1.0
 70
     8
 71
     3
 72
    27
 73
    23
 74
    21
 42
0.0000000001
 43
0.0000000001
 44
0.00000001
 40
0.0
 40
0.0
 40
0.0
 40
0.0
 40
0.1260969825526136
 40
0.252246495921391
 40
0.3668867952585904
 40
0.4815825894074172
 40
0.583959600691872
 40
0.6859489161476503
 40
0.733456841069966
 40
0.7809568849144068
 40
0.8274002264648099
 40
0.873842160753344
 40
0.9204907319640555
 40
0.9671431400204203
 40
1.015111401908422
 40
1.063087497207807
 40
1.165500418811177
 40
1.268190479051476
 40
1.380949153999714
 40
1.493646517874697
 40
1.615655563827063
 40
1.737631867675789
 40
1.737631867675789
 40
1.737631867675789
 40
1.737631867675789
 10
52.3712443121
 20
319.4518934203
 30
0.0
 10
52.37197285357629
 20
319.493936348361
 30
0.0
 10
52.37343024003236
 20
319.5780397191712
 30
0.0
 10
52.3868748019952
 20
319.6997870467357
 30
0.0
 10
52.40983023531998
 20
319.8162047631107
 30
0.0
 10
52.44379613567148
 20
319.9217802208975
 30
0.0
 10
52.49002189448976
 20
320.0179382831737
 30
0.0
 10
52.53856506301474
 20
320.0871076488688
 30
0.0
 10
52.58400438856839
 20
320.1346451304943
 30
0.0
 10
52.61991046666004
 20
320.1653404139767
 30
0.0
 10
52.65855789775677
 20
320.1918754496917
 30
0.0
 10
52.69951238497875
 20
320.2141037955876
 30
0.0
 10
52.74265201117969
 20
320.2318970124597
 30
0.0
 10
52.78783264580823
 20
320.2454304195181
 30
0.0
 10
52.83453986879423
 20
320.2546275448556
 30
0.0
 10
52.90036385998928
 20
320.2615828652326
 30
0.0
 10
52.98509161199377
 20
320.2597176085623
 30
0.0
 10
53.08992321549746
 20
320.2428029475803
 30
0.0
 10
53.19550245785965
 20
320.2133883147074
 30
0.0
 10
53.30366039595796
 20
320.1716366772564
 30
0.0
 10
53.41131265722376
 20
320.1208408501372
 30
0.0
 10
53.4818320320376
 20
320.0802764219042
 30
0.0
 10
53.5170869877
 20
320.0599969296
 30
0.0
 11
52.3712443121
 21
319.4518934203
 31
0.0
 11
52.37537567166707
 21
319.577922706091
 31
0.0
 11
52.38914243080495
 21
319.7033187828479
 31
0.0
 11
52.41199400691823
 21
319.8156584628424
 31
0.0
 11
52.44763219630168
 21
319.9246770147173
 31
0.0
 11
52.49253196107536
 21
320.0166827947684
 31
0.0
 11
52.55170438999866
 21
320.0997517066576
 31
0.0
 11
52.58455689015518
 21
320.134069576112
 31
0.0
 11
52.62069398508129
 21
320.1648975591067
 31
0.0
 11
52.65898124994477
 21
320.1911857565277
 31
0.0
 11
52.6998038578964
 21
320.2133300095177
 31
0.0
 11
52.74291000154606
 21
320.2311611501334
 31
0.0
 11
52.78758957361345
 21
320.2445843769188
 31
0.0
 11
52.83464037935968
 21
320.2539211765411
 31
0.0
 11
52.8823442666128
 21
320.2590245931532
 31
0.0
 11
52.98474390747243
 21
320.2573753317563
 31
0.0
 11
53.08620815780758
 21
320.2415559014226
 31
0.0
 11
53.19493187426441
 21
320.2116615498508
 31
0.0
 11
53.30024986656173
 21
320.1715514972102
 31
0.0
 11
53.41054255246713
 21
320.119381287991
 31
0.0
 11
53.5170869877
 21
320.0599969296
 31
0.0
  0
SPLINE
  5
F6
330
1F
100
AcDbEntity
  8
BEZUGSACHSEN
  6
Continuous
 62
     7
100
AcDbSpline
210
0.0
220
0.0
230
1.0
 70
     8
 71
     3
 72
    15
 73
    11
 74
     9
 42
0.0000000001
 43
0.0000000001
 44
0.00000001
 40
0.0
 40
0.0
 40
0.0
 40
0.0
 40
0.11103716136506
 40
0.2222522337255612
 40
0.3333980191835013
 40
0.4445069475017721
 40
0.5556201065559445
 40
0.6667525642506622
 40
0.7778876033638988
 40
0.8889820915909215
 40
0.8889820915909215
 40
0.8889820915909215
 40
0.8889820915909215
 10
54.2711698274
 20
289.1411285479
 30
0.0
 10
54.23452810051914
 20
289.1466607007121
 30
0.0
 10
54.1611859369883
 20
289.1577338703128
 30
0.0
 10
54.0546693869776
 20
289.1907524338519
 30
0.0
 10
53.95225647923514
 20
289.2343427213358
 30
0.0
 10
53.85480651361394
 20
289.2881222291829
 30
0.0
 10
53.7625017178848
 20
289.3502173645566
 30
0.0
 10
53.67550508975842
 20
289.4195040381911
 30
0.0
 10
53.59325233427815
 20
289.4943859897699
 30
0.0
 10
53.54247234790073
 20
289.5483485712945
 30
0.0
 10
53.5170869877
 20
289.5753249387
 30
0.0
 11
54.2711698274
 21
289.1411285479
 31
0.0
 11
54.16182754228978
 21
289.1604551071097
 31
0.0
 11
54.05533558872148
 21
289.1925215404218
 31
0.0
 11
53.95306740811431
 21
289.2360485993663
 31
0.0
 11
53.85566454165978
 21
289.2895077011028
 31
0.0
 11
53.76339277487315
 21
289.3514112968713
 31
0.0
 11
53.67629567146438
 21
289.4204367829694
 31
0.0
 11
53.59425576697783
 21
289.4954064501057
 31
0.0
 11
53.5170869877
 21
289.5753249387
 31
0.0
  0
SPLINE
  5
F7
330
1F
100
AcDbEntity
  8
BEZUGSACHSEN
  6
Continuous
 62
     7
100
AcDbSpline
210
0.0
220
0.0
230
1.0
 70
     8
 71
     3
 72
    15
 73
    11
 74
     9
 42
0.0000000001
 43
0.0000000001
 44
0.00000001
 40
0.0
 40
0.0
 40
0.0
 40
0.0
 40
0.1110944831157731
 40
0.2222295181063937
 40
0.3333620401541382
 40
0.4444752609924003
 40
0.5555842177976319
 40
0.6667300353884279
 40
0.7779450181579946
 40
0.8889820871697068
 40
0.8889820871697068
 40
0.8889820871697068
 40
0.8889820871697068
 10
53.5170869877
 20
320.0599969296
 30
0.0
 10
53.54247234726886
 20
320.0869732952738
 30
0.0
 10
53.59325233260859
 20
320.140935873575
 30
0.0
 10
53.67550510182789
 20
320.2158178369937
 30
0.0
 10
53.76250175375952
 20
320.285104545923
 30
0.0
 10
53.85480659418846
 20
320.3471997090165
 30
0.0
 10
53.95225661619436
 20
320.4009792011191
 30
0.0
 10
54.05466953007411
 20
320.444569446692
 30
0.0
 10
54.16118602865785
 20
320.477588002541
 30
0.0
 10
54.23452813137931
 20
320.4886611691534
 30
0.0
 10
54.2711698274
 20
320.4941933204
 30
0.0
 11
53.5170869877
 21
320.0599969296
 31
0.0
 11
53.59425576478627
 21
320.1399154132053
 31
0.0
 11
53.67629566500327
 21
320.2148850789025
 31
0.0
 11
53.76339281359456
 21
320.2839106115985
 31
0.0
 11
53.8556646351786
 21
320.3458142365861
 31
0.0
 11
53.95306754327406
 21
320.3992733216596
 31
0.0
 11
54.05533576667433
 21
320.4428003621113
 31
0.0
 11
54.161827634779
 21
320.4748667685207
 31
0.0
 11
54.2711698274
 21
320.4941933204
 31
0.0
  0
SPLINE
  5
F8
330
1F
100
AcDbEntity
  8
0
  6
Continuous
 62
     7
100
AcDbSpline
210
0.0
220
0.0
230
1.0
 70
     8
 71
     3
 72
    19
 73
    15
 74
    13
 42
0.0000000001
 43
0.0000000001
 44
0.00000001
 40
0.0
 40
0.0
 40
0.0
 40
0.0
 40
0.1162460235696269
 40
0.232788171782835
 40
0.3491890045673995
 40
0.4655468550296605
 40
0.5819071369453716
 40
0.6982738488694746
 40
0.8146206072317258
 40
0.9309998277860659
 40
1.16327632342704
 40
1.396138921766312
 40
1.629013178064114
 40
1.861351539723956
 40
1.861351539723956
 40
1.861351539723956
 40
1.861351539723956
 10
121.4962443121
 20
271.2952803504
 30
0.0
 10
121.4574602412598
 20
271.2934394035121
 30
0.0
 10
121.3797933011965
 20
271.2897528201158
 30
0.0
 10
121.2661832161327
 20
271.2613473351712
 30
0.0
 10
121.1579955281854
 20
271.2174934209712
 30
0.0
 10
121.0570196622241
 20
271.1588967327484
 30
0.0
 10
120.964251205499
 20
271.0882118714197
 30
0.0
 10
120.8801638265058
 20
271.0074542663323
 30
0.0
 10
120.8048601831071
 20
270.918486627595
 30
0.0
 10
120.7162089389094
 20
270.7911271798527
 30
0.0
 10
120.626212193181
 20
270.6183418017548
 30
0.0
 10
120.5513186740598
 20
270.3974168115589
 30
0.0
 10
120.5047817487336
 20
270.1683968919729
 30
0.0
 10
120.4990879380115
 20
270.0132174991396
 30
0.0
 10
120.4962443121
 20
269.935717181
 30
0.0
 11
121.4962443121
 21
271.2952803504
 31
0.0
 11
121.3803729605496
 21
271.285954693017
 31
0.0
 11
121.2670484358615
 21
271.2587586562767
 31
0.0
 11
121.1591753032524
 21
271.2150260467727
 31
0.0
 11
121.0583865637422
 21
271.1568815771118
 31
0.0
 11
120.9656992586931
 21
271.0865340207204
 31
0.0
 11
120.8816238930567
 21
271.0060818949739
 31
0.0
 11
120.8063251351003
 21
270.9173876717594
 31
0.0
 11
120.7396984057622
 21
270.8219675380635
 31
0.0
 11
120.6318086196587
 21
270.6162683293101
 31
0.0
 11
120.5560504828419
 21
270.3960736554159
 31
0.0
 11
120.5110904690428
 21
270.1675807312247
 31
0.0
 11
120.4962443121
 21
269.935717181
 31
0.0
  0
SPLINE
  5
F9
330
1F
100
AcDbEntity
  8
0
  6
Continuous
 62
     7
100
AcDbSpline
210
0.0
220
0.0
230
1.0
 70
     8
 71
     3
 72
    19
 73
    15
 74
    13
 42
0.0000000001
 43
0.0000000001
 44
0.00000001
 40
0.0
 40
0.0
 40
0.0
 40
0.0
 40
0.2323383481159743
 40
0.4652125957010279
 40
0.6980761132671769
 40
0.9303535187254046
 40
1.04673346180599
 40
1.16308094088303
 40
1.279447997434878
 40
1.395808629517937
 40
1.512165904488868
 40
1.628566140332291
 40
1.745106920525001
 40
1.861351602787993
 40
1.861351602787993
 40
1.861351602787993
 40
1.861351602787993
 10
124.2462443121
 20
269.935717181
 30
0.0
 10
124.2434006864945
 20
270.0132174946589
 30
0.0
 10
124.2377068763256
 20
270.1683968801424
 30
0.0
 10
124.1911699004857
 20
270.397417094157
 30
0.0
 10
124.1162761547254
 20
270.6183426560511
 30
0.0
 10
124.0262788504759
 20
270.7911287202713
 30
0.0
 10
123.9376269126736
 20
270.9184886460035
 30
0.0
 10
123.8623226483212
 20
271.0074565449196
 30
0.0
 10
123.7782346744967
 20
271.0882142148592
 30
0.0
 10
123.685465940661
 20
271.1588987812084
 30
0.0
 10
123.5844901284184
 20
271.2174950053664
 30
0.0
 10
123.476303078908
 20
271.2613482565221
 30
0.0
 10
123.3626939695539
 20
271.2897530159722
 30
0.0
 10
123.2850279347618
 20
271.2934394686194
 30
0.0
 10
123.2462443121
 20
271.2952803504
 30
0.0
 11
124.2462443121
 21
269.935717181
 31
0.0
 11
124.2313981579822
 21
270.167580717834
 31
0.0
 11
124.1864381563936
 21
270.396073635548
 31
0.0
 11
124.1106796777112
 21
270.6162691639336
 31
0.0
 11
124.0027892665336
 21
270.8219690722037
 31
0.0
 11
123.9361619426894
 21
270.9173896720174
 31
0.0
 11
123.8608624861226
 21
271.0060842475467
 31
0.0
 11
123.7767866197921
 21
271.0865363485219
 31
0.0
 11
123.6840987938228
 21
271.1568837977709
 31
0.0
 11
123.5833103589182
 21
271.2150276437749
 31
0.0
 11
123.4754376301266
 21
271.2587596605071
 31
0.0
 11
123.3621143415727
 21
271.285954985827
 31
0.0
 11
123.2462443121
 21
271.2952803504
 31
0.0
  0
SPLINE
  5
FA
330
1F
100
AcDbEntity
  8
BEZUGSACHSEN
  6
Continuous
 62
     7
100
AcDbSpline
210
0.0
220
0.0
230
1.0
 70
     8
 71
     3
 72
    11
 73
     7
 74
     5
 42
0.0000000001
 43
0.0000000001
 44
0.00000001
 40
0.0
 40
0.0
 40
0.0
 40
0.0
 40
0.5462907431867464
 40
1.093000863684112
 40
1.646070107214045
 40
2.198197048811307
 40
2.198197048811307
 40
2.198197048811307
 40
2.198197048811307
 10
61.925090259
 20
319.8276609342
 30
0.0
 10
61.98816106086397
 20
319.656729304945
 30
0.0
 10
62.11435108288121
 20
319.3147348253809
 30
0.0
 10
62.25398839592003
 20
318.7834606961477
 30
0.0
 10
62.35147675993222
 20
318.2400362911823
 30
0.0
 10
62.36465887444739
 20
317.8714516506091
 30
0.0
 10
62.3712443121
 20
317.6873164599
 30
0.0
 11
61.925090259
 21
319.8276609342
 31
0.0
 11
62.10594159162919
 21
319.3121743955031
 31
0.0
 11
62.24643307632751
 21
318.7838240396013
 31
0.0
 11
62.33849972955792
 21
318.2384715668814
 31
0.0
 11
62.3712443121
 21
317.6873164599
 31
0.0
  0
SPLINE
  5
FB
330
1F
100
AcDbEntity
  8
BEZUGSACHSEN
  6
Continuous
 62
     7
100
AcDbSpline
210
0.0
220
0.0
230
1.0
 70
     8
 71
     3
 72
    11
 73
     7
 74
     5
 42
0.0000000001
 43
0.0000000001
 44
0.00000001
 40
0.0
 40
0.0
 40
0.0
 40
0.0
 40
0.9140556660003448
 40
1.828030949185894
 40
2.279806974871131
 40
2.730944124762515
 40
2.730944124762515
 40
2.730944124762515
 40
2.730944124762515
 10
53.6381972389854
 20
289.807660934385
 30
0.0
 10
53.77085194594878
 20
290.0823775320516
 30
0.0
 10
54.03614969411039
 20
290.6317865685789
 30
0.0
 10
54.25150490742305
 20
291.3644974896836
 30
0.0
 10
54.35519912108539
 20
291.9624426957898
 30
0.0
 10
54.36589843860649
 20
292.2635659112166
 30
0.0
 10
54.3712443121
 20
292.4140209858
 30
0.0
 11
53.6381972389854
 21
289.807660934385
 31
0.0
 11
54.01300476876089
 21
290.6413377759555
 31
0.0
 11
54.27229612915878
 21
291.517761650971
 31
0.0
 11
54.34501310265738
 21
291.9636470837327
 31
0.0
 11
54.3712443121
 21
292.4140209858
 31
0.0
  0
SPLINE
  5
FC
330
1F
100
AcDbEntity
  8
BEZUGSACHSEN
  6
Continuous
 62
     7
100
AcDbSpline
210
0.0
220
0.0
230
1.0
 70
     8
 71
     3
 72
    11
 73
     7
 74
     5
 42
0.0000000001
 43
0.0000000001
 44
0.00000001
 40
0.0
 40
0.0
 40
0.0
 40
0.0
 40
0.8249192367595639
 40
1.65011689203014
 40
2.190492152392578
 40
2.730585915477348
 40
2.730585915477348
 40
2.730585915477348
 40
2.730585915477348
 10
54.3712443121
 20
317.2213008825
 30
0.0
 10
54.35351100776371
 20
317.4964911745063
 30
0.0
 10
54.31803841392319
 20
318.0469646380009
 30
0.0
 10
54.10960359728242
 20
318.751698223187
 30
0.0
 10
53.87937716630069
 20
319.3439119482708
 30
0.0
 10
53.71857658349879
 20
319.666439281716
 30
0.0
 10
53.6381972389854
 20
319.827660934015
 30
0.0
 11
54.3712443121
 21
317.2213008825
 31
0.0
 11
54.28766885798427
 21
318.0419755382835
 31
0.0
 11
54.06970741587249
 21
318.8378674781953
 31
0.0
 11
53.87177233731331
 21
319.3406866571131
 31
0.0
 11
53.6381972389854
 21
319.827660934015
 31
0.0
  0
DIMENSION
  5
107
330
1F
100
AcDbEntity
  8
1
100
AcDbDimension
  2
*D2
 10
213.388869115505
 20
312.8176609342
 30
0.0
 11
209.638869115505
 21
304.857544651009
 31
0.0
 70
    32
  1
<>
 71
     5
 42
-1.0
 53
90.0
  3
ME10_DIM_10
100
AcDbAlignedDimension
 13
202.3712443121
 23
296.8176609342
 33
0.0
 14
202.3712443121
 24
312.8176609342
 34
0.0
 50
90.0
100
AcDbRotatedDimension
  0
DIMENSION
  5
112
330
1F
100
AcDbEntity
  8
1
100
AcDbDimension
  2
*D3
 10
222.672805838709
 20
318.3176609341466
 30
0.0
 11
218.922805838709
 21
305.30676739568
 31
0.0
 70
    32
  1
<>
 71
     5
 42
-1.0
 53
90.0
  3
ME10_DIM_11
100
AcDbAlignedDimension
 13
202.3712443121
 23
291.3176609341487
 33
0.0
 14
202.3712443121
 24
318.3176609341466
 34
0.0
 50
90.0
100
AcDbRotatedDimension
  0
DIMENSION
  5
11D
330
1F
100
AcDbEntity
  8
1
100
AcDbDimension
  2
*D4
 10
230.609074327899
 20
321.8176609342
 30
0.0
 11
226.859074327899
 21
305.45650831057
 31
0.0
 70
    32
  1
<>
 71
     5
 42
-1.0
 53
90.0
  3
ME10_DIM_12
100
AcDbAlignedDimension
 13
157.8995277355
 23
287.8176609342
 33
0.0
 14
157.8995277355
 24
321.8176609342
 34
0.0
 50
90.0
100
AcDbRotatedDimension
  0
DIMENSION
  5
128
330
1F
100
AcDbEntity
  8
1
100
AcDbDimension
  2
*D5
 10
202.3712443121
 20
362.507796883804
 30
0.0
 11
167.717890073941
 21
366.257796883804
 31
0.0
 70
    32
  1
<>
 71
     5
 42
-1.0
 53
0.00013888888889
  3
ME10_DIM_13
100
AcDbAlignedDimension
 13
131.3712443121
 23
354.817624013
 33
0.0
 14
202.3712443121
 24
317.3932704425
 34
0.0
100
AcDbRotatedDimension
  0
DIMENSION
  5
133
330
1F
100
AcDbEntity
  8
1
100
AcDbDimension
  2
*D6
 10
202.3712443121
 20
369.395878968761
 30
0.0
 11
152.444316755122
 21
373.145878968761
 31
0.0
 70
    32
  1
<>
 71
     5
 42
-1.0
 53
0.00013888888889
  3
ME10_DIM_14
100
AcDbAlignedDimension
 13
102.3712443121
 23
354.8176609342
 33
0.0
 14
202.3712443121
 24
317.3932704425
 34
0.0
100
AcDbRotatedDimension
  0
DIMENSION
  5
13E
330
1F
100
AcDbEntity
  8
1
100
AcDbDimension
  2
*D7
 10
202.3712443121
 20
377.03266562817
 30
0.0
 11
135.373852457619
 21
380.78266562817
 31
0.0
 70
    32
  1
<>
 71
     5
 42
-1.0
 53
0.00013888888889
  3
ME10_DIM_15
100
AcDbAlignedDimension
 13
52.3712443121
 23
338.4178524967
 33
0.0
 14
202.3712443121
 24
317.3932704425
 34
0.0
100
AcDbRotatedDimension
  0
INSERT
  5
145
330
1F
100
AcDbEntity
  8
1
100
AcDbBlockReference
  2
*D8
 10
0.0
 20
0.0
 30
0.0
  0
DIMENSION
  5
150
330
1F
100
AcDbEntity
  8
1
100
AcDbDimension
  2
*D9
 10
183.09560394068
 20
320.8277044039026
 30
0.0
 11
185.5190141685043
 21
330.544923543704
 31
0.0
 70
    37
  1
<>
 71
     5
 42
-1.0
  3
ME10_DIM_16
100
AcDb3PointAngularDimension
 13
183.0373131680591
 23
319.8392743148215
 33
0.0
 14
160.4210793809539
 24
321.8176609342
 34
0.0
 15
157.8995277355
 25
321.8176609342
 35
0.0
  0
ENDSEC
  0
SECTION
  2
OBJECTS
  0
DICTIONARY
  5
C
330
0
100
AcDbDictionary
281
     1
  3
ACAD_GROUP
350
D
  3
ACAD_LAYOUT
350
1A
  3
ACAD_MLEADERSTYLE
350
153
  3
ACAD_MLINESTYLE
350
17
  3
ACAD_PLOTSETTINGS
350
19
  3
ACAD_PLOTSTYLENAME
350
E
  3
ACAD_SCALELIST
350
4A
  3
ACAD_VISUALSTYLE
350
2A
  3
AcDbVariableDictionary
350
151
  0
DICTIONARY
  5
D
102
{ACAD_REACTORS
330
C
102
}
330
C
100
AcDbDictionary
281
     1
  0
DICTIONARY
  5
1A
102
{ACAD_REACTORS
330
C
102
}
330
C
100
AcDbDictionary
281
     1
  3
Layout1
350
1E
  3
Layout2
350
26
  3
Model
350
22
  0
DICTIONARY
  5
153
102
{ACAD_REACTORS
330
C
102
}
330
C
100
AcDbDictionary
281
     1
  0
DICTIONARY
  5
17
102
{ACAD_REACTORS
330
C
102
}
330
C
100
AcDbDictionary
281
     1
  3
Standard
350
18
  0
DICTIONARY
  5
19
102
{ACAD_REACTORS
330
C
102
}
330
C
100
AcDbDictionary
281
     1
  0
ACDBDICTIONARYWDFLT
  5
E
102
{ACAD_REACTORS
330
C
102
}
330
C
100
AcDbDictionary
281
     1
  3
Normal
350
F
100
AcDbDictionaryWithDefault
340
F
  0
DICTIONARY
  5
4A
102
{ACAD_REACTORS
330
C
102
}
330
C
100
AcDbDictionary
281
     1
  3
A0
350
4B
  3
A1
350
4C
  3
A2
350
4D
  3
A3
350
4E
  3
A4
350
4F
  3
A5
350
50
  3
A6
350
51
  3
A7
350
52
  3
A8
350
53
  3
A9
350
54
  3
B0
350
55
  3
B1
350
56
  3
B2
350
57
  3
B3
350
58
  3
B4
350
59
  3
B5
350
5A
  3
B6
350
5B
  3
B7
350
5C
  3
B8
350
5D
  3
B9
350
5E
  3
C0
350
5F
  3
C1
350
60
  3
C2
350
61
  3
C3
350
62
  3
C4
350
63
  3
C5
350
64
  3
C6
350
65
  3
C7
350
66
  3
C8
350
67
  3
C9
350
68
  3
D0
350
69
  3
D1
350
6A
  3
D2
350
6B
  0
DICTIONARY
  5
2A
102
{ACAD_REACTORS
330
C
102
}
330
C
100
AcDbDictionary
281
     1
  3
2dWireframe
350
2F
  3
3D Hidden
350
31
  3
3dWireframe
350
30
  3
Basic
350
32
  3
Brighten
350
36
  3
ColorChange
350
3A
  3
Conceptual
350
34
  3
Dim
350
35
  3
Facepattern
350
39
  3
Flat
350
2B
  3
FlatWithEdges
350
2C
  3
Gouraud
350
2D
  3
GouraudWithEdges
350
2E
  3
Linepattern
350
38
  3
Realistic
350
33
  3
Thicken
350
37
  0
DICTIONARY
  5
151
102
{ACAD_REACTORS
330
C
102
}
330
C
100
AcDbDictionary
281
     1
  3
CANNOSCALE
350
154
  0
LAYOUT
  5
1E
102
{ACAD_REACTORS
330
1A
102
}
330
1A
100
AcDbPlotSettings
  1

  2
none_device
  4

  6

 40
0.0
 41
0.0
 42
0.0
 43
0.0
 44
0.0
 45
0.0
 46
0.0
 47
0.0
 48
0.0
 49
0.0
140
0.0
141
0.0
142
1.0
143
1.0
 70
   688
 72
     0
 73
     0
 74
     5
  7

 75
    16
147
1.0
148
0.0
149
0.0
100
AcDbLayout
  1
Layout1
 70
     1
 71
     1
 10
0.0
 20
0.0
 11
12.0
 21
9.0
 12
0.0
 22
0.0
 32
0.0
 14
1.00000000000000E+20
 24
1.00000000000000E+20
 34
1.00000000000000E+20
 15
-1.00000000000000E+20
 25
-1.00000000000000E+20
 35
-1.00000000000000E+20
146
0.0
 13
0.0
 23
0.0
 33
0.0
 16
1.0
 26
0.0
 36
0.0
 17
0.0
 27
1.0
 37
0.0
 76
     0
330
1B
  0
LAYOUT
  5
26
102
{ACAD_REACTORS
330
1A
102
}
330
1A
100
AcDbPlotSettings
  1

  2
none_device
  4

  6

 40
0.0
 41
0.0
 42
0.0
 43
0.0
 44
0.0
 45
0.0
 46
0.0
 47
0.0
 48
0.0
 49
0.0
140
0.0
141
0.0
142
1.0
143
1.0
 70
   688
 72
     0
 73
     0
 74
     5
  7

 75
    16
147
1.0
148
0.0
149
0.0
100
AcDbLayout
  1
Layout2
 70
     1
 71
     2
 10
0.0
 20
0.0
 11
0.0
 21
0.0
 12
0.0
 22
0.0
 32
0.0
 14
0.0
 24
0.0
 34
0.0
 15
0.0
 25
0.0
 35
0.0
146
0.0
 13
0.0
 23
0.0
 33
0.0
 16
1.0
 26
0.0
 36
0.0
 17
0.0
 27
1.0
 37
0.0
 76
     0
330
23
  0
LAYOUT
  5
22
102
{ACAD_REACTORS
330
1A
102
}
330
1A
100
AcDbPlotSettings
  1

  2
none_device
  4

  6

 40
0.0
 41
0.0
 42
0.0
 43
0.0
 44
0.0
 45
0.0
 46
0.0
 47
0.0
 48
0.0
 49
0.0
140
0.0
141
0.0
142
1.0
143
1.0
 70
  1712
 72
     0
 73
     0
 74
     0
  7

 75
     0
147
1.0
148
0.0
149
0.0
100
AcDbLayout
  1
Model
 70
     1
 71
     0
 10
0.0
 20
0.0
 11
12.0
 21
9.0
 12
0.0
 22
0.0
 32
0.0
 14
30.7805989489419
 24
254.8176609342
 34
0.0
 15
232.609074327899
 25
382.53266562817
 35
0.0
146
0.0
 13
0.0
 23
0.0
 33
0.0
 16
1.0
 26
0.0
 36
0.0
 17
0.0
 27
1.0
 37
0.0
 76
     0
330
1F
331
29
  0
MLINESTYLE
  5
18
102
{ACAD_REACTORS
330
17
102
}
330
17
100
AcDbMlineStyle
  2
Standard
 70
     0
  3

 62
   256
 51
90.0
 52
90.0
 71
     2
 49
0.5
 62
   256
  6
BYLAYER
 49
-0.5
 62
   256
  6
BYLAYER
  0
ACDBPLACEHOLDER
  5
F
102
{ACAD_REACTORS
330
E
102
}
330
E
  0
SCALE
  5
4B
102
{ACAD_REACTORS
330
4A
102
}
330
4A
100
AcDbScale
 70
     0
300
1:1
140
1.0
141
1.0
290
     1
  0
SCALE
  5
4C
102
{ACAD_REACTORS
330
4A
102
}
330
4A
100
AcDbScale
 70
     0
300
1:2
140
1.0
141
2.0
290
     0
  0
SCALE
  5
4D
102
{ACAD_REACTORS
330
4A
102
}
330
4A
100
AcDbScale
 70
     0
300
1:4
140
1.0
141
4.0
290
     0
  0
SCALE
  5
4E
102
{ACAD_REACTORS
330
4A
102
}
330
4A
100
AcDbScale
 70
     0
300
1:5
140
1.0
141
5.0
290
     0
  0
SCALE
  5
4F
102
{ACAD_REACTORS
330
4A
102
}
330
4A
100
AcDbScale
 70
     0
300
1:8
140
1.0
141
8.0
290
     0
  0
SCALE
  5
50
102
{ACAD_REACTORS
330
4A
102
}
330
4A
100
AcDbScale
 70
     0
300
1:10
140
1.0
141
10.0
290
     0
  0
SCALE
  5
51
102
{ACAD_REACTORS
330
4A
102
}
330
4A
100
AcDbScale
 70
     0
300
1:16
140
1.0
141
16.0
290
     0
  0
SCALE
  5
52
102
{ACAD_REACTORS
330
4A
102
}
330
4A
100
AcDbScale
 70
     0
300
1:20
140
1.0
141
20.0
290
     0
  0
SCALE
  5
53
102
{ACAD_REACTORS
330
4A
102
}
330
4A
100
AcDbScale
 70
     0
300
1:30
140
1.0
141
30.0
290
     0
  0
SCALE
  5
54
102
{ACAD_REACTORS
330
4A
102
}
330
4A
100
AcDbScale
 70
     0
300
1:40
140
1.0
141
40.0
290
     0
  0
SCALE
  5
55
102
{ACAD_REACTORS
330
4A
102
}
330
4A
100
AcDbScale
 70
     0
300
1:50
140
1.0
141
50.0
290
     0
  0
SCALE
  5
56
102
{ACAD_REACTORS
330
4A
102
}
330
4A
100
AcDbScale
 70
     0
300
1:100
140
1.0
141
100.0
290
     0
  0
SCALE
  5
57
102
{ACAD_REACTORS
330
4A
102
}
330
4A
100
AcDbScale
 70
     0
300
2:1
140
2.0
141
1.0
290
     0
  0
SCALE
  5
58
102
{ACAD_REACTORS
330
4A
102
}
330
4A
100
AcDbScale
 70
     0
300
4:1
140
4.0
141
1.0
290
     0
  0
SCALE
  5
59
102
{ACAD_REACTORS
330
4A
102
}
330
4A
100
AcDbScale
 70
     0
300
8:1
140
8.0
141
1.0
290
     0
  0
SCALE
  5
5A
102
{ACAD_REACTORS
330
4A
102
}
330
4A
100
AcDbScale
 70
     0
300
10:1
140
10.0
141
1.0
290
     0
  0
SCALE
  5
5B
102
{ACAD_REACTORS
330
4A
102
}
330
4A
100
AcDbScale
 70
     0
300
100:1
140
100.0
141
1.0
290
     0
  0
SCALE
  5
5C
102
{ACAD_REACTORS
330
4A
102
}
330
4A
100
AcDbScale
 70
     0
300
1/128" = 1'-0"
140
0.0078125
141
12.0
290
     0
  0
SCALE
  5
5D
102
{ACAD_REACTORS
330
4A
102
}
330
4A
100
AcDbScale
 70
     0
300
1/64" = 1'-0"
140
0.015625
141
12.0
290
     0
  0
SCALE
  5
5E
102
{ACAD_REACTORS
330
4A
102
}
330
4A
100
AcDbScale
 70
     0
300
1/32" = 1'-0"
140
0.03125
141
12.0
290
     0
  0
SCALE
  5
5F
102
{ACAD_REACTORS
330
4A
102
}
330
4A
100
AcDbScale
 70
     0
300
1/16" = 1'-0"
140
0.0625
141
12.0
290
     0
  0
SCALE
  5
60
102
{ACAD_REACTORS
330
4A
102
}
330
4A
100
AcDbScale
 70
     0
300
3/32" = 1'-0"
140
0.09375
141
12.0
290
     0
  0
SCALE
  5
61
102
{ACAD_REACTORS
330
4A
102
}
330
4A
100
AcDbScale
 70
     0
300
1/8" = 1'-0"
140
0.125
141
12.0
290
     0
  0
SCALE
  5
62
102
{ACAD_REACTORS
330
4A
102
}
330
4A
100
AcDbScale
 70
     0
300
3/16" = 1'-0"
140
0.1875
141
12.0
290
     0
  0
SCALE
  5
63
102
{ACAD_REACTORS
330
4A
102
}
330
4A
100
AcDbScale
 70
     0
300
1/4" = 1'-0"
140
0.25
141
12.0
290
     0
  0
SCALE
  5
64
102
{ACAD_REACTORS
330
4A
102
}
330
4A
100
AcDbScale
 70
     0
300
3/8" = 1'-0"
140
0.375
141
12.0
290
     0
  0
SCALE
  5
65
102
{ACAD_REACTORS
330
4A
102
}
330
4A
100
AcDbScale
 70
     0
300
1/2" = 1'-0"
140
0.5
141
12.0
290
     0
  0
SCALE
  5
66
102
{ACAD_REACTORS
330
4A
102
}
330
4A
100
AcDbScale
 70
     0
300
3/4" = 1'-0"
140
0.75
141
12.0
290
     0
  0
SCALE
  5
67
102
{ACAD_REACTORS
330
4A
102
}
330
4A
100
AcDbScale
 70
     0
300
1" = 1'-0"
140
1.0
141
12.0
290
     0
  0
SCALE
  5
68
102
{ACAD_REACTORS
330
4A
102
}
330
4A
100
AcDbScale
 70
     0
300
1-1/2" = 1'-0"
140
1.5
141
12.0
290
     0
  0
SCALE
  5
69
102
{ACAD_REACTORS
330
4A
102
}
330
4A
100
AcDbScale
 70
     0
300
3" = 1'-0"
140
3.0
141
12.0
290
     0
  0
SCALE
  5
6A
102
{ACAD_REACTORS
330
4A
102
}
330
4A
100
AcDbScale
 70
     0
300
6" = 1'-0"
140
6.0
141
12.0
290
     0
  0
SCALE
  5
6B
102
{ACAD_REACTORS
330
4A
102
}
330
4A
100
AcDbScale
 70
     0
300
1'-0" = 1'-0"
140
12.0
141
12.0
290
     0
  0
VISUALSTYLE
  5
2F
102
{ACAD_REACTORS
330
2A
102
}
330
2A
100
AcDbVisualStyle
  2
2dWireframe
 70
     4
 71
     0
 72
     2
 73
     0
 90
        0
 40
-0.6
 41
-30.0
 62
     5
 63
     7
 74
     1
 91
        4
 64
     7
 65
   257
 75
     1
175
     1
 42
1.0
 92
        0
 66
   257
 43
1.0
 76
     1
 77
     6
 78
     2
 67
     7
 79
     5
170
     0
171
     0
290
     0
174
     0
 93
        1
 44
0.0
173
     0
291
     0
 45
0.0
1001
ACAD
1000
AcDbSavedByObjectVersion
1070
     0
  0
VISUALSTYLE
  5
31
102
{ACAD_REACTORS
330
2A
102
}
330
2A
100
AcDbVisualStyle
  2
3D Hidden
 70
     6
 71
     1
 72
     2
 73
     2
 90
        0
 40
-0.6
 41
-30.0
 62
     5
 63
     7
 74
     2
 91
        2
 64
     7
 65
   257
 75
     2
175
     1
 42
40.0
 92
        0
 66
   257
 43
1.0
 76
     1
 77
     6
 78
     2
 67
     7
 79
     3
170
     0
171
     0
290
     0
174
     0
 93
        1
 44
0.0
173
     0
291
     0
 45
0.0
1001
ACAD
1000
AcDbSavedByObjectVersion
1070
     0
  0
VISUALSTYLE
  5
30
102
{ACAD_REACTORS
330
2A
102
}
330
2A
100
AcDbVisualStyle
  2
3dWireframe
 70
     5
 71
     0
 72
     2
 73
     0
 90
        0
 40
-0.6
 41
-30.0
 62
     5
 63
     7
 74
     1
 91
        4
 64
     7
 65
   257
 75
     1
175
     1
 42
1.0
 92
        0
 66
   257
 43
1.0
 76
     1
 77
     6
 78
     2
 67
     7
 79
     5
170
     0
171
     0
290
     0
174
     0
 93
        1
 44
0.0
173
     0
291
     0
 45
0.0
1001
ACAD
1000
AcDbSavedByObjectVersion
1070
     0
  0
VISUALSTYLE
  5
32
102
{ACAD_REACTORS
330
2A
102
}
330
2A
100
AcDbVisualStyle
  2
Basic
 70
     7
 71
     1
 72
     0
 73
     1
 90
        0
 40
-0.6
 41
-30.0
 62
     5
 63
     7
 74
     0
 91
        4
 64
     7
 65
   257
 75
     1
175
     1
 42
1.0
 92
        8
 66
     7
 43
1.0
 76
     1
 77
     6
 78
     2
 67
     7
 79
     5
170
     0
171
     0
290
     0
174
     0
 93
        1
 44
0.0
173
     0
291
     1
 45
0.0
1001
ACAD
1000
AcDbSavedByObjectVersion
1070
     0
  0
VISUALSTYLE
  5
36
102
{ACAD_REACTORS
330
2A
102
}
330
2A
100
AcDbVisualStyle
  2
Brighten
 70
    12
 71
     2
 72
     2
 73
     0
 90
        0
 40
-0.6
 41
-30.0
 62
     5
 63
     7
 74
     1
 91
        4
 64
     7
 65
   257
 75
     1
175
     1
 42
1.0
 92
        8
 66
     7
 43
1.0
 76
     1
 77
     6
 78
     2
 67
     7
 79
     5
170
     0
171
     0
290
     0
174
     0
 93
        1
 44
50.0
173
     0
291
     1
 45
0.0
1001
ACAD
1000
AcDbSavedByObjectVersion
1070
     0
  0
VISUALSTYLE
  5
3A
102
{ACAD_REACTORS
330
2A
102
}
330
2A
100
AcDbVisualStyle
  2
ColorChange
 70
    16
 71
     2
 72
     2
 73
     3
 90
        0
 40
-0.6
 41
-30.0
 62
     5
 63
     8
 74
     1
 91
        4
 64
     7
 65
   257
 75
     1
175
     1
 42
1.0
 92
        8
 66
     8
 43
1.0
 76
     1
 77
     6
 78
     2
 67
     7
 79
     5
170
     0
171
     0
290
     0
174
     0
 93
        1
 44
0.0
173
     0
291
     1
 45
0.0
1001
ACAD
1000
AcDbSavedByObjectVersion
1070
     0
  0
VISUALSTYLE
  5
34
102
{ACAD_REACTORS
330
2A
102
}
330
2A
100
AcDbVisualStyle
  2
Conceptual
 70
     9
 71
     3
 72
     2
 73
     0
 90
        0
 40
-0.6
 41
-30.0
 62
     5
 63
     7
 74
     2
 91
        2
 64
     7
 65
   257
 75
     1
175
     1
 42
40.0
 92
        8
 66
     7
 43
1.0
 76
     1
 77
     6
 78
     2
 67
     7
 79
     3
170
     0
171
     0
290
     0
174
     0
 93
        1
 44
0.0
173
     0
291
     0
 45
0.0
1001
ACAD
1000
AcDbSavedByObjectVersion
1070
     0
  0
VISUALSTYLE
  5
35
102
{ACAD_REACTORS
330
2A
102
}
330
2A
100
AcDbVisualStyle
  2
Dim
 70
    11
 71
     2
 72
     2
 73
     0
 90
        0
 40
-0.6
 41
-30.0
 62
     5
 63
     7
 74
     1
 91
        4
 64
     7
 65
   257
 75
     1
175
     1
 42
1.0
 92
        8
 66
     7
 43
1.0
 76
     1
 77
     6
 78
     2
 67
     7
 79
     5
170
     0
171
     0
290
     0
174
     0
 93
        1
 44
-50.0
173
     0
291
     1
 45
0.0
1001
ACAD
1000
AcDbSavedByObjectVersion
1070
     0
  0
VISUALSTYLE
  5
39
102
{ACAD_REACTORS
330
2A
102
}
330
2A
100
AcDbVisualStyle
  2
Facepattern
 70
    15
 71
     2
 72
     2
 73
     0
 90
        0
 40
-0.6
 41
-30.0
 62
     5
 63
     7
 74
     1
 91
        4
 64
     7
 65
   257
 75
     1
175
     1
 42
1.0
 92
        8
 66
     7
 43
1.0
 76
     1
 77
     6
 78
     2
 67
     7
 79
     5
170
     0
171
     0
290
     0
174
     0
 93
        1
 44
0.0
173
     0
291
     1
 45
0.0
1001
ACAD
1000
AcDbSavedByObjectVersion
1070
     0
  0
VISUALSTYLE
  5
2B
102
{ACAD_REACTORS
330
2A
102
}
330
2A
100
AcDbVisualStyle
  2
Flat
 70
     0
 71
     2
 72
     1
 73
     1
 90
        2
 40
-0.6
 41
30.0
 62
     5
 63
     7
 74
     0
 91
        4
 64
     7
 65
   257
 75
     1
175
     1
 42
1.0
 92
        8
 66
     7
 43
1.0
 76
     1
 77
     6
 78
     2
 67
     7
 79
     5
170
     0
171
     0
290
     0
174
     0
 93
       13
 44
0.0
173
     0
291
     1
 45
0.0
1001
ACAD
1000
AcDbSavedByObjectVersion
1070
     0
  0
VISUALSTYLE
  5
2C
102
{ACAD_REACTORS
330
2A
102
}
330
2A
100
AcDbVisualStyle
  2
FlatWithEdges
 70
     1
 71
     2
 72
     1
 73
     1
 90
        2
 40
-0.6
 41
30.0
 62
     5
 63
     7
 74
     1
 91
        4
 64
     7
 65
   257
 75
     1
175
     1
 42
1.0
 92
        0
 66
   257
 43
1.0
 76
     1
 77
     6
 78
     2
 67
     7
 79
     5
170
     0
171
     0
290
     0
174
     0
 93
       13
 44
0.0
173
     0
291
     1
 45
0.0
1001
ACAD
1000
AcDbSavedByObjectVersion
1070
     0
  0
VISUALSTYLE
  5
2D
102
{ACAD_REACTORS
330
2A
102
}
330
2A
100
AcDbVisualStyle
  2
Gouraud
 70
     2
 71
     2
 72
     2
 73
     1
 90
        2
 40
-0.6
 41
30.0
 62
     5
 63
     7
 74
     0
 91
        4
 64
     7
 65
   257
 75
     1
175
     1
 42
1.0
 92
        0
 66
     7
 43
1.0
 76
     1
 77
     6
 78
     2
 67
     7
 79
     5
170
     0
171
     0
290
     0
174
     0
 93
       13
 44
0.0
173
     0
291
     1
 45
0.0
1001
ACAD
1000
AcDbSavedByObjectVersion
1070
     0
  0
VISUALSTYLE
  5
2E
102
{ACAD_REACTORS
330
2A
102
}
330
2A
100
AcDbVisualStyle
  2
GouraudWithEdges
 70
     3
 71
     2
 72
     2
 73
     1
 90
        2
 40
-0.6
 41
30.0
 62
     5
 63
     7
 74
     1
 91
        4
 64
     7
 65
   257
 75
     1
175
     1
 42
1.0
 92
        0
 66
   257
 43
1.0
 76
     1
 77
     6
 78
     2
 67
     7
 79
     5
170
     0
171
     0
290
     0
174
     0
 93
       13
 44
0.0
173
     0
291
     1
 45
0.0
1001
ACAD
1000
AcDbSavedByObjectVersion
1070
     0
  0
VISUALSTYLE
  5
38
102
{ACAD_REACTORS
330
2A
102
}
330
2A
100
AcDbVisualStyle
  2
Linepattern
 70
    14
 71
     2
 72
     2
 73
     0
 90
        0
 40
-0.6
 41
-30.0
 62
     5
 63
     7
 74
     1
 91
        4
 64
     7
 65
   257
 75
     7
175
     7
 42
1.0
 92
        8
 66
     7
 43
1.0
 76
     1
 77
     6
 78
     2
 67
     7
 79
     5
170
     0
171
     0
290
     0
174
     0
 93
        1
 44
0.0
173
     0
291
     1
 45
0.0
1001
ACAD
1000
AcDbSavedByObjectVersion
1070
     0
  0
VISUALSTYLE
  5
33
102
{ACAD_REACTORS
330
2A
102
}
330
2A
100
AcDbVisualStyle
  2
Realistic
 70
     8
 71
     2
 72
     2
 73
     0
 90
        0
 40
-0.6
 41
-30.0
 62
     5
 63
     7
 74
     1
 91
        0
 64
     7
 65
   257
 75
     1
175
     1
 42
1.0
 92
        8
 66
     8
 43
1.0
 76
     1
 77
     6
 78
     2
 67
     7
 79
     5
170
     0
171
     0
290
     0
174
     0
 93
       13
 44
0.0
173
     0
291
     0
 45
0.0
1001
ACAD
1000
AcDbSavedByObjectVersion
1070
     0
  0
VISUALSTYLE
  5
37
102
{ACAD_REACTORS
330
2A
102
}
330
2A
100
AcDbVisualStyle
  2
Thicken
 70
    13
 71
     2
 72
     2
 73
     0
 90
        0
 40
-0.6
 41
-30.0
 62
     5
 63
     7
 74
     1
 91
        4
 64
     7
 65
   257
 75
     1
175
     1
 42
1.0
 92
       12
 66
     7
 43
1.0
 76
     1
 77
     6
 78
     2
 67
     7
 79
     5
170
     0
171
     0
290
     0
174
     0
 93
        1
 44
0.0
173
     0
291
     1
 45
0.0
1001
ACAD
1000
AcDbSavedByObjectVersion
1070
     0
  0
DICTIONARYVAR
  5
154
102
{ACAD_REACTORS
330
151
102
}
330
151
100
DictionaryVariables
280
     0
  1
1:1
  0
ENDSEC
  0
EOF
