  0
SECTION
  2
HEADER
  9
$ACADVER
  1
AC1015
  9
$ACADMAINTVER
 70
     6
  9
$DWGCODEPAGE
  3
ANSI_1252
  9
$INSBASE
 10
0.0
 20
0.0
 30
0.0
  9
$EXTMIN
 10
26.999843882701
 20
249.787004818
 30
0.0
  9
$EXTMAX
 10
226.312379469689
 20
376.910317475181
 30
0.0
  9
$LIMMIN
 10
0.0
 20
0.0
  9
$LIMMAX
 10
12.0
 20
9.0
  9
$ORTHOMODE
 70
     0
  9
$REGENMODE
 70
     1
  9
$FILLMODE
 70
     1
  9
$QTEXTMODE
 70
     0
  9
$MIRRTEXT
 70
     1
  9
$LTSCALE
 40
1.0
  9
$ATTMODE
 70
     1
  9
$TEXTSIZE
 40
0.2
  9
$TRACEWID
 40
0.05
  9
$TEXTSTYLE
  7
Standard
  9
$CLAYER
  8
0
  9
$CELTYPE
  6
ByLayer
  9
$CECOLOR
 62
   256
  9
$CELTSCALE
 40
1.0
  9
$DISPSILH
 70
     0
  9
$DIMSCALE
 40
1.0
  9
$DIMASZ
 40
0.18
  9
$DIMEXO
 40
0.0625
  9
$DIMDLI
 40
0.38
  9
$DIMRND
 40
0.0
  9
$DIMDLE
 40
0.0
  9
$DIMEXE
 40
0.18
  9
$DIMTP
 40
0.0
  9
$DIMTM
 40
0.0
  9
$DIMTXT
 40
0.18
  9
$DIMCEN
 40
0.09
  9
$DIMTSZ
 40
0.0
  9
$DIMTOL
 70
     0
  9
$DIMLIM
 70
     0
  9
$DIMTIH
 70
     1
  9
$DIMTOH
 70
     1
  9
$DIMSE1
 70
     0
  9
$DIMSE2
 70
     0
  9
$DIMTAD
 70
     0
  9
$DIMZIN
 70
     0
  9
$DIMBLK
  1

  9
$DIMASO
 70
     1
  9
$DIMSHO
 70
     1
  9
$DIMPOST
  1

  9
$DIMAPOST
  1

  9
$DIMALT
 70
     0
  9
$DIMALTD
 70
     2
  9
$DIMALTF
 40
25.4
  9
$DIMLFAC
 40
1.0
  9
$DIMTOFL
 70
     0
  9
$DIMTVP
 40
0.0
  9
$DIMTIX
 70
     0
  9
$DIMSOXD
 70
     0
  9
$DIMSAH
 70
     0
  9
$DIMBLK1
  1

  9
$DIMBLK2
  1

  9
$DIMSTYLE
  2
Standard
  9
$DIMCLRD
 70
     0
  9
$DIMCLRE
 70
     0
  9
$DIMCLRT
 70
     0
  9
$DIMTFAC
 40
1.0
  9
$DIMGAP
 40
0.09
  9
$DIMJUST
 70
     0
  9
$DIMSD1
 70
     0
  9
$DIMSD2
 70
     0
  9
$DIMTOLJ
 70
     1
  9
$DIMTZIN
 70
     0
  9
$DIMALTZ
 70
     0
  9
$DIMALTTZ
 70
     0
  9
$DIMUPT
 70
     0
  9
$DIMDEC
 70
     4
  9
$DIMTDEC
 70
     4
  9
$DIMALTU
 70
     2
  9
$DIMALTTD
 70
     2
  9
$DIMTXSTY
  7
Standard
  9
$DIMAUNIT
 70
     0
  9
$DIMADEC
 70
     0
  9
$DIMALTRND
 40
0.0
  9
$DIMAZIN
 70
     0
  9
$DIMDSEP
 70
    46
  9
$DIMATFIT
 70
     3
  9
$DIMFRAC
 70
     0
  9
$DIMLDRBLK
  1

  9
$DIMLUNIT
 70
     2
  9
$DIMLWD
 70
    -2
  9
$DIMLWE
 70
    -2
  9
$DIMTMOVE
 70
     0
  9
$LUNITS
 70
     2
  9
$LUPREC
 70
     4
  9
$SKETCHINC
 40
0.1
  9
$FILLETRAD
 40
0.5
  9
$AUNITS
 70
     0
  9
$AUPREC
 70
     0
  9
$MENU
  1
.
  9
$ELEVATION
 40
0.0
  9
$PELEVATION
 40
0.0
  9
$THICKNESS
 40
0.0
  9
$LIMCHECK
 70
     0
  9
$CHAMFERA
 40
0.5
  9
$CHAMFERB
 40
0.5
  9
$CHAMFERC
 40
1.0
  9
$CHAMFERD
 40
0.0
  9
$SKPOLY
 70
     0
  9
$TDCREATE
 40
2456748.732363437
  9
$TDUCREATE
 40
2456748.649030104
  9
$TDUPDATE
 40
2456748.732363449
  9
$TDUUPDATE
 40
2456748.649030116
  9
$TDINDWG
 40
0.0000000116
  9
$TDUSRTIMER
 40
0.0000000116
  9
$USRTIMER
 70
     1
  9
$ANGBASE
 50
0.0
  9
$ANGDIR
 70
     0
  9
$PDMODE
 70
     0
  9
$PDSIZE
 40
0.0
  9
$PLINEWID
 40
0.0
  9
$SPLFRAME
 70
     0
  9
$SPLINETYPE
 70
     6
  9
$SPLINESEGS
 70
     8
  9
$HANDSEED
  5
155
  9
$SURFTAB1
 70
     6
  9
$SURFTAB2
 70
     6
  9
$SURFTYPE
 70
     6
  9
$SURFU
 70
     6
  9
$SURFV
 70
     6
  9
$UCSBASE
  2

  9
$UCSNAME
  2

  9
$UCSORG
 10
0.0
 20
0.0
 30
0.0
  9
$UCSXDIR
 10
1.0
 20
0.0
 30
0.0
  9
$UCSYDIR
 10
0.0
 20
1.0
 30
0.0
  9
$UCSORTHOREF
  2

  9
$UCSORTHOVIEW
 70
     0
  9
$UCSORGTOP
 10
0.0
 20
0.0
 30
0.0
  9
$UCSORGBOTTOM
 10
0.0
 20
0.0
 30
0.0
  9
$UCSORGLEFT
 10
0.0
 20
0.0
 30
0.0
  9
$UCSORGRIGHT
 10
0.0
 20
0.0
 30
0.0
  9
$UCSORGFRONT
 10
0.0
 20
0.0
 30
0.0
  9
$UCSORGBACK
 10
0.0
 20
0.0
 30
0.0
  9
$PUCSBASE
  2

  9
$PUCSNAME
  2

  9
$PUCSORG
 10
0.0
 20
0.0
 30
0.0
  9
$PUCSXDIR
 10
1.0
 20
0.0
 30
0.0
  9
$PUCSYDIR
 10
0.0
 20
1.0
 30
0.0
  9
$PUCSORTHOREF
  2

  9
$PUCSORTHOVIEW
 70
     0
  9
$PUCSORGTOP
 10
0.0
 20
0.0
 30
0.0
  9
$PUCSORGBOTTOM
 10
0.0
 20
0.0
 30
0.0
  9
$PUCSORGLEFT
 10
0.0
 20
0.0
 30
0.0
  9
$PUCSORGRIGHT
 10
0.0
 20
0.0
 30
0.0
  9
$PUCSORGFRONT
 10
0.0
 20
0.0
 30
0.0
  9
$PUCSORGBACK
 10
0.0
 20
0.0
 30
0.0
  9
$USERI1
 70
     0
  9
$USERI2
 70
     0
  9
$USERI3
 70
     0
  9
$USERI4
 70
     0
  9
$USERI5
 70
     0
  9
$USERR1
 40
16.5
  9
$USERR2
 40
0.0
  9
$USERR3
 40
0.0
  9
$USERR4
 40
0.0
  9
$USERR5
 40
0.0
  9
$WORLDVIEW
 70
     1
  9
$SHADEDGE
 70
     3
  9
$SHADEDIF
 70
    70
  9
$TILEMODE
 70
     1
  9
$MAXACTVP
 70
    64
  9
$PINSBASE
 10
0.0
 20
0.0
 30
0.0
  9
$PLIMCHECK
 70
     0
  9
$PEXTMIN
 10
1.00000000000000E+20
 20
1.00000000000000E+20
 30
1.00000000000000E+20
  9
$PEXTMAX
 10
-1.00000000000000E+20
 20
-1.00000000000000E+20
 30
-1.00000000000000E+20
  9
$PLIMMIN
 10
0.0
 20
0.0
  9
$PLIMMAX
 10
12.0
 20
9.0
  9
$UNITMODE
 70
     0
  9
$VISRETAIN
 70
     1
  9
$PLINEGEN
 70
     0
  9
$PSLTSCALE
 70
     1
  9
$TREEDEPTH
 70
  3020
  9
$CMLSTYLE
  2
Standard
  9
$CMLJUST
 70
     0
  9
$CMLSCALE
 40
1.0
  9
$PROXYGRAPHICS
 70
     1
  9
$MEASUREMENT
 70
     1
  9
$CELWEIGHT
370
    -1
  9
$ENDCAPS
280
     0
  9
$JOINSTYLE
280
     0
  9
$LWDISPLAY
290
     0
  9
$INSUNITS
 70
     1
  9
$HYPERLINKBASE
  1

  9
$STYLESHEET
  1

  9
$XEDIT
290
     1
  9
$CEPSNTYPE
380
     0
  9
$PSTYLEMODE
290
     1
  9
$FINGERPRINTGUID
  2
{2A93B0AC-F6EE-4B92-B7EB-246A0ED29B7D}
  9
$VERSIONGUID
  2
{FAEB1C32-E019-11D5-929B-00C0DF256EC4}
  9
$EXTNAMES
290
     1
  9
$PSVPSCALE
 40
0.0
  9
$OLESTARTUP
290
     0
  0
ENDSEC
  0
SECTION
  2
CLASSES
  0
CLASS
  1
ACDBDICTIONARYWDFLT
  2
AcDbDictionaryWithDefault
  3
ObjectDBX Classes
 90
        0
280
     0
281
     0
  0
CLASS
  1
VISUALSTYLE
  2
AcDbVisualStyle
  3
ObjectDBX Classes
 90
     4095
280
     0
281
     0
  0
CLASS
  1
SCALE
  2
AcDbScale
  3
ObjectDBX Classes
 90
     1153
280
     0
281
     0
  0
CLASS
  1

  2
exOdDbPolyline
  3

 90
        0
280
     0
281
     1
  0
CLASS
  1

  2
exOdDbCircle
  3

 90
        0
280
     0
281
     1
  0
CLASS
  1

  2
exOdDbSpline
  3

 90
        0
280
     0
281
     1
  0
CLASS
  1
DICTIONARYVAR
  2
AcDbDictionaryVar
  3
ObjectDBX Classes
 90
        0
280
     0
281
     0
  0
CLASS
  1
ACDBPLACEHOLDER
  2
AcDbPlaceHolder
  3
ObjectDBX Classes
 90
        0
280
     0
281
     0
  0
CLASS
  1
LAYOUT
  2
AcDbLayout
  3
ObjectDBX Classes
 90
        0
280
     0
281
     0
  0
ENDSEC
  0
SECTION
  2
TABLES
  0
TABLE
  2
VPORT
  5
8
330
0
100
AcDbSymbolTable
 70
     1
  0
VPORT
  5
29
330
8
100
AcDbSymbolTableRecord
100
AcDbViewportTableRecord
  2
*Active
 70
     0
 10
0.0
 20
0.0
 11
1.0
 21
1.0
 12
126.656111676195
 22
313.3486611465905
 13
0.0
 23
0.0
 14
0.5
 24
0.5
 15
0.5
 25
0.5
 16
0.0
 26
0.0
 36
1.0
 17
0.0
 27
0.0
 37
0.0
 40
139.8356439228991
 41
1.60267857142857
 42
50.0
 43
0.0
 44
0.0
 50
0.0
 51
0.0
 71
     0
 72
   100
 73
     1
 74
     3
 75
     0
 76
     0
 77
     0
 78
     0
281
     0
 65
     1
110
0.0
120
0.0
130
0.0
111
1.0
121
0.0
131
0.0
112
0.0
122
1.0
132
0.0
 79
     0
146
0.0
  0
ENDTAB
  0
TABLE
  2
LTYPE
  5
5
330
0
100
AcDbSymbolTable
 70
     8
  0
LTYPE
  5
14
330
5
100
AcDbSymbolTableRecord
100
AcDbLinetypeTableRecord
  2
ByBlock
 70
     0
  3

 72
    65
 73
     0
 40
0.0
  0
LTYPE
  5
15
330
5
100
AcDbSymbolTableRecord
100
AcDbLinetypeTableRecord
  2
ByLayer
 70
     0
  3

 72
    65
 73
     0
 40
0.0
  0
LTYPE
  5
16
330
5
100
AcDbSymbolTableRecord
100
AcDbLinetypeTableRecord
  2
Continuous
 70
     0
  3
Solid line
 72
    65
 73
     0
 40
0.0
  0
LTYPE
  5
3B
330
5
100
AcDbSymbolTableRecord
100
AcDbLinetypeTableRecord
  2
DASHED
 70
     0
  3
Dashed
 72
    65
 73
     2
 40
15.0
 49
7.0
 74
     0
 49
-8.0
 74
     0
  0
LTYPE
  5
3C
330
5
100
AcDbSymbolTableRecord
100
AcDbLinetypeTableRecord
  2
DOTTED
 70
     0
  3
Dotted
 72
    65
 73
     2
 40
1.0
 49
0.0
 74
     0
 49
-1.0
 74
     0
  0
LTYPE
  5
3D
330
5
100
AcDbSymbolTableRecord
100
AcDbLinetypeTableRecord
  2
DOT_CENTER
 70
     0
  3
Dot_Center
 72
    65
 73
     4
 40
14.0
 49
12.0
 74
     0
 49
-1.0
 74
     0
 49
0.0
 74
     0
 49
-1.0
 74
     0
  0
LTYPE
  5
3E
330
5
100
AcDbSymbolTableRecord
100
AcDbLinetypeTableRecord
  2
LONG_DASHED
 70
     0
  3
Long_Dashed
 72
    65
 73
     2
 40
15.0
 49
10.0
 74
     0
 49
-5.0
 74
     0
  0
LTYPE
  5
3F
330
5
100
AcDbSymbolTableRecord
100
AcDbLinetypeTableRecord
  2
DASH_CENTER
 70
     0
  3
Dash_Center
 72
    65
 73
     4
 40
14.0
 49
11.0
 74
     0
 49
-1.0
 74
     0
 49
1.0
 74
     0
 49
-1.0
 74
     0
  0
LTYPE
  5
40
330
5
100
AcDbSymbolTableRecord
100
AcDbLinetypeTableRecord
  2
PHANTOM
 70
     0
  3
Phantom
 72
    65
 73
     6
 40
13.0
 49
10.0
 74
     0
 49
-1.0
 74
     0
 49
0.0
 74
     0
 49
-1.0
 74
     0
 49
0.0
 74
     0
 49
-1.0
 74
     0
  0
LTYPE
  5
41
330
5
100
AcDbSymbolTableRecord
100
AcDbLinetypeTableRecord
  2
CENTER_DASH_DASH
 70
     0
  3
Center_Dash_Dash
 72
    65
 73
     6
 40
14.0
 49
9.0
 74
     0
 49
-1.0
 74
     0
 49
1.0
 74
     0
 49
-1.0
 74
     0
 49
1.0
 74
     0
 49
-1.0
 74
     0
  0
ENDTAB
  0
TABLE
  2
LAYER
  5
2
330
0
100
AcDbSymbolTable
 70
     6
  0
LAYER
  5
10
330
2
100
AcDbSymbolTableRecord
100
AcDbLayerTableRecord
  2
0
 70
     0
 62
     7
  6
Continuous
370
    -3
390
F
  0
LAYER
  5
42
330
2
100
AcDbSymbolTableRecord
100
AcDbLayerTableRecord
  2
1
 70
     0
 62
     7
  6
Continuous
370
    -3
390
F
  0
LAYER
  5
43
330
2
100
AcDbSymbolTableRecord
100
AcDbLayerTableRecord
  2
BEZUGSACHSEN
 70
     0
 62
     7
  6
Continuous
370
    -3
390
F
  0
LAYER
  5
44
330
2
100
AcDbSymbolTableRecord
100
AcDbLayerTableRecord
  2
DEFAULT_2
 70
     0
 62
     7
  6
Continuous
370
    -3
390
F
  0
LAYER
  5
45
330
2
100
AcDbSymbolTableRecord
100
AcDbLayerTableRecord
  2
FASEN
 70
     0
 62
     7
  6
Continuous
370
    -3
390
F
  0
LAYER
  5
46
330
2
100
AcDbSymbolTableRecord
100
AcDbLayerTableRecord
  2
RUNDUNGEN
 70
     0
 62
     7
  6
Continuous
370
    -3
390
F
  0
ENDTAB
  0
TABLE
  2
STYLE
  5
3
330
0
100
AcDbSymbolTable
 70
     2
  0
STYLE
  5
11
330
3
100
AcDbSymbolTableRecord
100
AcDbTextStyleTableRecord
  2
Standard
 70
     0
 40
0.0
 41
1.0
 50
0.0
 71
     0
 42
0.2
  3
txt
  4

  0
STYLE
  5
6D
330
3
100
AcDbSymbolTableRecord
100
AcDbTextStyleTableRecord
  2
CONVERTER_11
 70
     0
 40
0.0
 41
0.72
 50
0.0
 71
     0
 42
0.2
  3
txt.shx
  4

  0
ENDTAB
  0
TABLE
  2
VIEW
  5
6
330
0
100
AcDbSymbolTable
 70
     0
  0
ENDTAB
  0
TABLE
  2
UCS
  5
7
330
0
100
AcDbSymbolTable
 70
     0
  0
ENDTAB
  0
TABLE
  2
APPID
  5
9
330
0
100
AcDbSymbolTable
 70
     1
  0
APPID
  5
12
330
9
100
AcDbSymbolTableRecord
100
AcDbRegAppTableRecord
  2
ACAD
 70
     0
  0
ENDTAB
  0
TABLE
  2
DIMSTYLE
  5
A
330
0
100
AcDbSymbolTable
 70
     8
100
AcDbDimStyleTable
  0
DIMSTYLE
105
27
330
A
100
AcDbSymbolTableRecord
100
AcDbDimStyleTableRecord
  2
Standard
 70
     0
340
11
  0
DIMSTYLE
105
106
102
{ACAD_REACTORS
330
107
102
}
330
A
100
AcDbSymbolTableRecord
100
AcDbDimStyleTableRecord
  2
ME10_DIM_10
 70
     0
  3
\U+2300<>
 41
3.5
 42
2.0
 44
2.0
 71
     1
 73
     0
 74
     0
 77
     1
 78
     8
140
3.5
146
0.7
147
2.0
172
     1
173
     1
176
     2
177
     2
178
     3
271
     2
272
     0
340
6D
  0
DIMSTYLE
105
111
102
{ACAD_REACTORS
330
112
102
}
330
A
100
AcDbSymbolTableRecord
100
AcDbDimStyleTableRecord
  2
ME10_DIM_11
 70
     0
  3
\U+2300<>
 41
3.5
 42
2.0
 44
2.0
 71
     1
 73
     0
 74
     0
 77
     1
 78
     8
140
3.5
146
0.7
147
2.0
172
     1
173
     1
176
     2
177
     2
178
     3
271
     2
272
     0
340
6D
  0
DIMSTYLE
105
11C
102
{ACAD_REACTORS
330
11D
102
}
330
A
100
AcDbSymbolTableRecord
100
AcDbDimStyleTableRecord
  2
ME10_DIM_12
 70
     0
  3
\U+2300<>
 41
3.5
 42
2.0
 44
2.0
 71
     1
 73
     0
 74
     0
 77
     1
 78
     8
140
3.5
146
0.7
147
2.0
172
     1
173
     1
176
     2
177
     2
178
     3
271
     2
272
     0
340
6D
  0
DIMSTYLE
105
127
102
{ACAD_REACTORS
330
128
102
}
330
A
100
AcDbSymbolTableRecord
100
AcDbDimStyleTableRecord
  2
ME10_DIM_13
 70
     0
  3
<>
 41
3.5
 42
2.0
 44
2.0
 71
     1
 73
     0
 74
     0
 77
     1
 78
     8
140
3.5
146
0.7
147
2.0
172
     1
173
     1
176
     2
177
     2
178
     3
271
     2
272
     0
340
6D
  0
DIMSTYLE
105
132
102
{ACAD_REACTORS
330
133
102
}
330
A
100
AcDbSymbolTableRecord
100
AcDbDimStyleTableRecord
  2
ME10_DIM_14
 70
     0
  3
<>
 41
3.5
 42
2.0
 44
2.0
 71
     1
 73
     0
 74
     0
 77
     1
 78
     8
140
3.5
146
0.7
147
2.0
172
     1
173
     1
176
     2
177
     2
178
     3
271
     2
272
     0
340
6D
  0
DIMSTYLE
105
13D
102
{ACAD_REACTORS
330
13E
102
}
330
A
100
AcDbSymbolTableRecord
100
AcDbDimStyleTableRecord
  2
ME10_DIM_15
 70
     0
  3
<>
 41
3.5
 42
2.0
 44
2.0
 71
     1
 73
     0
 74
     0
 77
     1
 78
     8
140
3.5
146
0.7
147
2.0
172
     1
173
     1
176
     2
177
     2
178
     3
271
     2
272
     0
340
6D
  0
DIMSTYLE
105
14F
102
{ACAD_REACTORS
330
150
102
}
330
A
100
AcDbSymbolTableRecord
100
AcDbDimStyleTableRecord
  2
ME10_DIM_16
 70
     0
  3
<>
 41
3.5
 42
2.0
 44
2.0
 71
     1
 73
     0
 74
     0
 77
     1
 78
     8
140
3.5
146
0.7
147
2.0
172
     1
173
     1
176
     2
177
     2
178
     3
271
     2
272
     0
340
6D
  0
ENDTAB
  0
TABLE
  2
BLOCK_RECORD
  5
1
330
0
100
AcDbSymbolTable
 70
    10
  0
BLOCK_RECORD
  5
1F
330
1
100
AcDbSymbolTableRecord
100
AcDbBlockTableRecord
  2
*Model_Space
340
22
  0
BLOCK_RECORD
  5
1B
330
1
100
AcDbSymbolTableRecord
100
AcDbBlockTableRecord
  2
*Paper_Space
340
1E
  0
BLOCK_RECORD
  5
23
330
1
100
AcDbSymbolTableRecord
100
AcDbBlockTableRecord
  2
*Paper_Space0
340
26
  0
BLOCK_RECORD
  5
47
330
1
100
AcDbSymbolTableRecord
100
AcDbBlockTableRecord
  2
Urheberrecht_DE-EN
340
0
102
{BLKREFS
331
6C
102
}
  0
BLOCK_RECORD
  5
FD
330
1
100
AcDbSymbolTableRecord
100
AcDbBlockTableRecord
  2
*D2
340
0
  0
BLOCK_RECORD
  5
108
330
1
100
AcDbSymbolTableRecord
100
AcDbBlockTableRecord
  2
*D3
340
0
  0
BLOCK_RECORD
  5
113
330
1
100
AcDbSymbolTableRecord
100
AcDbBlockTableRecord
  2
*D4
340
0
  0
BLOCK_RECORD
  5
11E
330
1
100
AcDbSymbolTableRecord
100
AcDbBlockTableRecord
  2
*D5
340
0
  0
BLOCK_RECORD
  5
129
330
1
100
AcDbSymbolTableRecord
100
AcDbBlockTableRecord
  2
*D6
340
0
  0
BLOCK_RECORD
  5
134
330
1
100
AcDbSymbolTableRecord
100
AcDbBlockTableRecord
  2
*D7
340
0
  0
BLOCK_RECORD
  5
13F
330
1
100
AcDbSymbolTableRecord
100
AcDbBlockTableRecord
  2
*D8
340
0
102
{BLKREFS
331
145
102
}
  0
BLOCK_RECORD
  5
146
330
1
100
AcDbSymbolTableRecord
100
AcDbBlockTableRecord
  2
*D9
340
0
  0
ENDTAB
  0
ENDSEC
  0
SECTION
  2
BLOCKS
  0
BLOCK
  5
20
330
1F
100
AcDbEntity
  8
0
100
AcDbBlockBegin
  2
*Model_Space
 70
     0
 10
0.0
 20
0.0
 30
0.0
  3
*Model_Space
  1

  0
ENDBLK
  5
21
330
1F
100
AcDbEntity
  8
0
100
AcDbBlockEnd
  0
BLOCK
  5
1C
330
1B
100
AcDbEntity
 67
     1
  8
0
100
AcDbBlockBegin
  2
*Paper_Space
 70
     0
 10
0.0
 20
0.0
 30
0.0
  3
*Paper_Space
  1

  0
ENDBLK
  5
1D
330
1B
100
AcDbEntity
 67
     1
  8
0
100
AcDbBlockEnd
  0
BLOCK
  5
24
330
23
100
AcDbEntity
  8
0
100
AcDbBlockBegin
  2
*Paper_Space0
 70
     0
 10
0.0
 20
0.0
 30
0.0
  3
*Paper_Space0
  1

  0
ENDBLK
  5
25
330
23
100
AcDbEntity
  8
0
100
AcDbBlockEnd
  0
BLOCK
  5
48
330
47
100
AcDbEntity
  8
0
100
AcDbBlockBegin
  2
Urheberrecht_DE-EN
 70
     0
 10
40.999843882701
 20
318.480957072842
 30
0.0
  3
Urheberrecht_DE-EN
  1

  0
MTEXT
  5
6E
330
47
100
AcDbEntity
  8
1
 62
     1
100
AcDbMText
 10
40.999843882701
 20
318.480957072842
 30
0.0
 40
2.0
 41
0.0
 71
     7
 72
     1
  1
We own the copyright of this document. It \Pdetermined and may neither be copied or \Pmade accessible to outsiders without our\Ppermission.
  7
CONVERTER_11
 11
0.0
 21
1.0
 31
0.0
 73
     1
 44
0.90036014405762
  0
MTEXT
  5
6F
330
47
100
AcDbEntity
  8
1
 62
     1
100
AcDbMText
 10
40.999843882701
 20
262.1915701555358
 30
0.0
 40
2.0
 41
0.0
 71
     7
 72
     1
  1
F\U+00fcr diese Unterlage behalten wir das Ur-\Pheberrecht. Sie darf nur f\U+00fcr den von uns \Pbestimmten Zweck benutzt und ohne unsere \PZustimmung weder vervielf\U+00e4ltigt noch\PDritten zug\U+00e4nglich gemacht werden.
  7
CONVERTER_11
 11
0.0
 21
1.0
 31
0.0
 73
     1
 44
0.90036014405762
  0
ENDBLK
  5
49
330
47
100
AcDbEntity
  8
0
100
AcDbBlockEnd
  0
BLOCK
  5
104
330
FD
100
AcDbEntity
  8
0
100
AcDbBlockBegin
  2
*D2
 70
     1
 10
0.0
 20
0.0
 30
0.0
  3
*D2
  1

  0
LINE
  5
FE
330
FD
100
AcDbEntity
  8
1
  6
Continuous
 62
     2
100
AcDbLine
 10
207.083174177432
 20
306.787004818
 30
0.0
 11
207.083174177432
 21
292.787004818
 31
0.0
  0
LINE
  5
FF
330
FD
100
AcDbEntity
  8
1
  6
Continuous
 62
     2
100
AcDbLine
 10
197.7796440043
 20
306.787004818
 30
0.0
 11
209.083174177432
 21
306.787004818
 31
0.0
  0
LINE
  5
100
330
FD
100
AcDbEntity
  8
1
  6
Continuous
 62
     2
100
AcDbLine
 10
197.7796440043
 20
292.787004818
 30
0.0
 11
209.083174177432
 21
292.787004818
 31
0.0
  0
SOLID
  5
101
330
FD
100
AcDbEntity
  8
1
 62
     2
100
AcDbTrace
 10
207.5439579189879
 20
303.287004818
 30
0.0
 11
206.6223904358761
 21
303.287004818
 31
0.0
 12
207.083174177432
 22
306.787004818
 32
0.0
 13
207.083174177432
 23
306.787004818
 33
0.0
  0
SOLID
  5
102
330
FD
100
AcDbEntity
  8
1
 62
     2
100
AcDbTrace
 10
206.6223904358761
 20
296.287004818
 30
0.0
 11
207.5439579189879
 21
296.287004818
 31
0.0
 12
207.083174177432
 22
292.787004818
 32
0.0
 13
207.083174177432
 23
292.787004818
 33
0.0
  0
MTEXT
  5
103
330
FD
100
AcDbEntity
  8
1
 62
     3
100
AcDbMText
 10
205.083174177432
 20
291.264571123624
 30
0.0
 40
3.5
 41
0.0
 71
     7
 72
     1
  1
\C3;%%c\C3;\C3;14\C2;\H2.45;\S^ ;\C3;
  7
CONVERTER_11
 11
0.0
 21
1.0
 31
0.0
 73
     1
 44
0.60024009603842
  0
ENDBLK
  5
105
330
FD
100
AcDbEntity
  8
0
100
AcDbBlockEnd
  0
BLOCK
  5
10F
330
108
100
AcDbEntity
  8
0
100
AcDbBlockBegin
  2
*D3
 70
     1
 10
0.0
 20
0.0
 30
0.0
  3
*D3
  1

  0
LINE
  5
109
330
108
100
AcDbEntity
  8
1
  6
Continuous
 62
     2
100
AcDbLine
 10
215.620167790712
 20
313.2870048180528
 30
0.0
 11
215.620167790712
 21
286.2870048179486
 31
0.0
  0
LINE
  5
10A
330
108
100
AcDbEntity
  8
1
  6
Continuous
 62
     2
100
AcDbLine
 10
197.7796440043094
 20
313.2870048180528
 30
0.0
 11
217.620167790712
 21
313.2870048180528
 31
0.0
  0
LINE
  5
10B
330
108
100
AcDbEntity
  8
1
  6
Continuous
 62
     2
100
AcDbLine
 10
197.7796440043
 20
286.2870048179486
 30
0.0
 11
217.620167790712
 21
286.2870048179486
 31
0.0
  0
SOLID
  5
10C
330
108
100
AcDbEntity
  8
1
 62
     2
100
AcDbTrace
 10
216.0809515322679
 20
309.7870048180528
 30
0.0
 11
215.1593840491561
 21
309.7870048180528
 31
0.0
 12
215.620167790712
 22
313.2870048180528
 32
0.0
 13
215.620167790712
 23
313.2870048180528
 33
0.0
  0
SOLID
  5
10D
330
108
100
AcDbEntity
  8
1
 62
     2
100
AcDbTrace
 10
215.1593840491561
 20
289.7870048179486
 30
0.0
 11
216.0809515322679
 21
289.7870048179486
 31
0.0
 12
215.620167790712
 22
286.2870048179486
 32
0.0
 13
215.620167790712
 23
286.2870048179486
 33
0.0
  0
MTEXT
  5
10E
330
108
100
AcDbEntity
  8
1
 62
     3
100
AcDbMText
 10
213.620167790712
 20
290.844571123624
 30
0.0
 40
3.5
 41
0.0
 71
     7
 72
     1
  1
\C3;%%c\C3;\C3;27\C2;\H2.45;\S^ ;\C3;
  7
CONVERTER_11
 11
0.0
 21
1.0
 31
0.0
 73
     1
 44
0.60024009603842
  0
ENDBLK
  5
110
330
108
100
AcDbEntity
  8
0
100
AcDbBlockEnd
  0
BLOCK
  5
11A
330
113
100
AcDbEntity
  8
0
100
AcDbBlockBegin
  2
*D4
 70
     1
 10
0.0
 20
0.0
 30
0.0
  3
*D4
  1

  0
LINE
  5
114
330
113
100
AcDbEntity
  8
1
  6
Continuous
 62
     2
100
AcDbLine
 10
224.312379469689
 20
316.787004818
 30
0.0
 11
224.312379469689
 21
282.787004818
 31
0.0
  0
LINE
  5
115
330
113
100
AcDbEntity
  8
1
  6
Continuous
 62
     2
100
AcDbLine
 10
153.3079274277
 20
316.787004818
 30
0.0
 11
226.312379469689
 21
316.787004818
 31
0.0
  0
LINE
  5
116
330
113
100
AcDbEntity
  8
1
  6
Continuous
 62
     2
100
AcDbLine
 10
153.3079274277
 20
282.787004818
 30
0.0
 11
226.312379469689
 21
282.787004818
 31
0.0
  0
SOLID
  5
117
330
113
100
AcDbEntity
  8
1
 62
     2
100
AcDbTrace
 10
224.7731632112449
 20
313.287004818
 30
0.0
 11
223.8515957281331
 21
313.287004818
 31
0.0
 12
224.312379469689
 22
316.787004818
 32
0.0
 13
224.312379469689
 23
316.787004818
 33
0.0
  0
SOLID
  5
118
330
113
100
AcDbEntity
  8
1
 62
     2
100
AcDbTrace
 10
223.8515957281331
 20
286.287004818
 30
0.0
 11
224.7731632112449
 21
286.287004818
 31
0.0
 12
224.312379469689
 22
282.787004818
 32
0.0
 13
224.312379469689
 23
282.787004818
 33
0.0
  0
MTEXT
  5
119
330
113
100
AcDbEntity
  8
1
 62
     3
100
AcDbMText
 10
222.312379469689
 20
290.534134992232
 30
0.0
 40
3.5
 41
0.0
 71
     7
 72
     1
  1
\C3;%%c\C3;\C3;34\C2;\H2.45;\S^ ;\C3;
  7
CONVERTER_11
 11
0.0
 21
1.0
 31
0.0
 73
     1
 44
0.60024009603842
  0
ENDBLK
  5
11B
330
113
100
AcDbEntity
  8
0
100
AcDbBlockEnd
  0
BLOCK
  5
125
330
11E
100
AcDbEntity
  8
0
100
AcDbBlockBegin
  2
*D5
 70
     1
 10
0.0
 20
0.0
 30
0.0
  3
*D5
  1

  0
LINE
  5
11F
330
11E
100
AcDbEntity
  8
1
  6
Continuous
 62
     2
100
AcDbLine
 10
195.7796440043
 20
356.975037365452
 30
0.0
 11
129.7796440043
 21
356.975037365452
 31
0.0
  0
LINE
  5
120
330
11E
100
AcDbEntity
  8
1
  6
Continuous
 62
     2
100
AcDbLine
 10
195.7796440043
 20
314.3626143263
 30
0.0
 11
195.7796440043
 21
358.975037365452
 31
0.0
  0
LINE
  5
121
330
11E
100
AcDbEntity
  8
1
  6
Continuous
 62
     2
100
AcDbLine
 10
129.7796440043
 20
351.7869678969
 30
0.0
 11
129.7796440043
 21
358.975037365452
 31
0.0
  0
SOLID
  5
122
330
11E
100
AcDbEntity
  8
1
 62
     2
100
AcDbTrace
 10
192.2796440043
 20
356.5142536238961
 30
0.0
 11
192.2796440043
 21
357.4358211070079
 31
0.0
 12
195.7796440043
 22
356.975037365452
 32
0.0
 13
195.7796440043
 23
356.975037365452
 33
0.0
  0
SOLID
  5
123
330
11E
100
AcDbEntity
  8
1
 62
     2
100
AcDbTrace
 10
133.2796440043
 20
357.4358211070079
 30
0.0
 11
133.2796440043
 21
356.5142536238961
 31
0.0
 12
129.7796440043
 22
356.975037365452
 32
0.0
 13
129.7796440043
 23
356.975037365452
 33
0.0
  0
MTEXT
  5
124
330
11E
100
AcDbEntity
  8
1
 62
     3
100
AcDbMText
 10
160.435589322677
 20
358.975037365452
 30
0.0
 40
3.5
 41
0.0
 71
     7
 72
     1
  1
\C3;\C3;\C3;66\C2;\H2.45;\S^ ;\C3;
  7
CONVERTER_11
 11
0.9999999999970619
 21
2.424068405545306E-6
 31
0.0
 73
     1
 44
0.60024009603842
  0
ENDBLK
  5
126
330
11E
100
AcDbEntity
  8
0
100
AcDbBlockEnd
  0
BLOCK
  5
130
330
129
100
AcDbEntity
  8
0
100
AcDbBlockBegin
  2
*D6
 70
     1
 10
0.0
 20
0.0
 30
0.0
  3
*D6
  1

  0
LINE
  5
12A
330
129
100
AcDbEntity
  8
1
  6
Continuous
 62
     2
100
AcDbLine
 10
195.7796440043
 20
364.270286453165
 30
0.0
 11
100.7796440043
 21
364.270286453165
 31
0.0
  0
LINE
  5
12B
330
129
100
AcDbEntity
  8
1
  6
Continuous
 62
     2
100
AcDbLine
 10
195.7796440043
 20
314.3626143263
 30
0.0
 11
195.7796440043
 21
366.270286453165
 31
0.0
  0
LINE
  5
12C
330
129
100
AcDbEntity
  8
1
  6
Continuous
 62
     2
100
AcDbLine
 10
100.7796440043
 20
351.787004818
 30
0.0
 11
100.7796440043
 21
366.270286453165
 31
0.0
  0
SOLID
  5
12D
330
129
100
AcDbEntity
  8
1
 62
     2
100
AcDbTrace
 10
192.2796440043
 20
363.8095027116091
 30
0.0
 11
192.2796440043
 21
364.7310701947209
 31
0.0
 12
195.7796440043
 22
364.270286453165
 32
0.0
 13
195.7796440043
 23
364.270286453165
 33
0.0
  0
SOLID
  5
12E
330
129
100
AcDbEntity
  8
1
 62
     2
100
AcDbTrace
 10
104.2796440043
 20
364.7310701947209
 30
0.0
 11
104.2796440043
 21
363.8095027116091
 31
0.0
 12
100.7796440043
 22
364.270286453165
 32
0.0
 13
100.7796440043
 23
364.270286453165
 33
0.0
  0
MTEXT
  5
12F
330
129
100
AcDbEntity
  8
1
 62
     3
100
AcDbMText
 10
150.346415052436
 20
366.270286453165
 30
0.0
 40
3.5
 41
0.0
 71
     7
 72
     1
  1
\C3;\C3;\C3;95\C2;\H2.45;\S^ ;\C3;
  7
CONVERTER_11
 11
0.9999999999970619
 21
2.424068405545306E-6
 31
0.0
 73
     1
 44
0.60024009603842
  0
ENDBLK
  5
131
330
129
100
AcDbEntity
  8
0
100
AcDbBlockEnd
  0
BLOCK
  5
13B
330
134
100
AcDbEntity
  8
0
100
AcDbBlockBegin
  2
*D7
 70
     1
 10
0.0
 20
0.0
 30
0.0
  3
*D7
  1

  0
LINE
  5
135
330
134
100
AcDbEntity
  8
1
  6
Continuous
 62
     2
100
AcDbLine
 10
195.7796440043
 20
371.410317475181
 30
0.0
 11
50.7796440043
 21
371.410317475181
 31
0.0
  0
LINE
  5
136
330
134
100
AcDbEntity
  8
1
  6
Continuous
 62
     2
100
AcDbLine
 10
195.7796440043
 20
314.3626143263
 30
0.0
 11
195.7796440043
 21
373.410317475181
 31
0.0
  0
LINE
  5
137
330
134
100
AcDbEntity
  8
1
  6
Continuous
 62
     2
100
AcDbLine
 10
50.7796440043
 20
335.3871963806
 30
0.0
 11
50.7796440043
 21
373.410317475181
 31
0.0
  0
SOLID
  5
138
330
134
100
AcDbEntity
  8
1
 62
     2
100
AcDbTrace
 10
192.2796440043
 20
370.9495337336251
 30
0.0
 11
192.2796440043
 21
371.8711012167369
 31
0.0
 12
195.7796440043
 22
371.410317475181
 32
0.0
 13
195.7796440043
 23
371.410317475181
 33
0.0
  0
SOLID
  5
139
330
134
100
AcDbEntity
  8
1
 62
     2
100
AcDbTrace
 10
54.2796440043
 20
371.8711012167369
 30
0.0
 11
54.2796440043
 21
370.9495337336251
 31
0.0
 12
50.7796440043
 22
371.410317475181
 32
0.0
 13
50.7796440043
 23
371.410317475181
 33
0.0
  0
MTEXT
  5
13A
330
134
100
AcDbEntity
  8
1
 62
     3
100
AcDbMText
 10
126.223705198035
 20
373.410317475181
 30
0.0
 40
3.5
 41
0.0
 71
     7
 72
     1
  1
\C3;\C3;\C3;145\C2;\H2.45;\S^ ;\C3;
  7
CONVERTER_11
 11
0.9999999999970619
 21
2.424068405545306E-6
 31
0.0
 73
     1
 44
0.60024009603842
  0
ENDBLK
  5
13C
330
134
100
AcDbEntity
  8
0
100
AcDbBlockEnd
  0
BLOCK
  5
143
330
13F
100
AcDbEntity
  8
0
100
AcDbBlockBegin
  2
*D8
 70
     1
 10
0.0
 20
0.0
 30
0.0
  3
*D8
  1

  0
LINE
  5
140
330
13F
100
AcDbEntity
  8
1
  6
Continuous
 62
     2
100
AcDbLine
 10
140.1360754522063
 20
326.0416951203317
 30
0.0
 11
130.9729615869864
 21
319.1959319784313
 31
0.0
  0
SOLID
  5
141
330
13F
100
AcDbEntity
  8
1
 62
     2
100
AcDbTrace
 10
133.50107500055
 20
321.6598646529665
 30
0.0
 11
134.0526443269554
 21
320.921584283393
 31
0.0
 12
130.9729615869864
 22
319.1959319784313
 32
0.0
 13
130.9729615869864
 23
319.1959319784313
 33
0.0
  0
MTEXT
  5
142
330
13F
100
AcDbEntity
  8
1
 62
     3
100
AcDbMText
 10
132.9947872496055
 20
323.202962514503
 30
0.0
 40
3.5
 41
0.0
 71
     7
 72
     1
  1
\C3; R\C3;\C3;6\C2;\H2.45;\S^ ;\C3;
  7
CONVERTER_11
 11
0.8011137362189386
 21
0.5985121399281162
 31
0.0
 73
     1
 44
0.60024009603842
  0
ENDBLK
  5
144
330
13F
100
AcDbEntity
  8
0
100
AcDbBlockEnd
  0
BLOCK
  5
14D
330
146
100
AcDbEntity
  8
0
100
AcDbBlockBegin
  2
*D9
 70
     1
 10
0.0
 20
0.0
 30
0.0
  3
*D9
  1

  0
LINE
  5
147
330
146
100
AcDbEntity
  8
1
  6
Continuous
 62
     2
100
AcDbLine
 10
178.197187670171
 20
316.787004818
 30
0.0
 11
180.197187670171
 21
316.787004818
 31
0.0
  0
LINE
  5
148
330
146
100
AcDbEntity
  8
1
  6
Continuous
 62
     2
100
AcDbLine
 10
153.3079274277
 20
316.787004818
 30
0.0
 11
178.197187670171
 21
316.787004818
 31
0.0
  0
ARC
  5
149
330
146
100
AcDbEntity
  8
1
  6
Continuous
 62
     2
100
AcDbCircle
 10
151.3079274277
 20
316.787004818
 30
0.0
 40
26.88926024247101
100
AcDbArc
 50
344.3132719260236
 51
20.63697636299403
  0
SOLID
  5
14A
330
146
100
AcDbEntity
  8
1
 62
     2
100
AcDbTrace
 10
178.069387509502
 20
311.1473820830793
 30
0.0
 11
177.1573083565743
 21
311.2792844891363
 31
0.0
 12
178.1142970546815
 22
314.6772977745985
 32
0.0
 13
178.1142970546815
 23
314.6772977745985
 33
0.0
  0
SOLID
  5
14B
330
146
100
AcDbEntity
  8
1
 62
     2
100
AcDbTrace
 10
177.5097540984881
 20
320.2496276304076
 30
0.0
 11
178.4293705592819
 21
320.3095625197966
 31
0.0
 12
178.197187670171
 22
316.787004818
 32
0.0
 13
178.197187670171
 23
316.787004818
 33
0.0
  0
MTEXT
  5
14C
330
146
100
AcDbEntity
  8
1
 62
     3
100
AcDbMText
 10
178.5450775668976
 20
327.0448425361561
 30
0.0
 40
3.5
 41
0.0
 71
     7
 72
     1
  1
\C3;\C3;\C3;4.5%%d\C2;\H2.45;\S^ ;\C3;
  7
CONVERTER_11
 11
0.2361721433932019
 21
-0.9717112321492744
 31
0.0
 73
     1
 44
0.60024009603842
  0
ENDBLK
  5
14E
330
146
100
AcDbEntity
  8
0
100
AcDbBlockEnd
  0
ENDSEC
  0
SECTION
  2
ENTITIES
  0
INSERT
  5
6C
330
1F
100
AcDbEntity
  8
0
100
AcDbBlockReference
  2
Urheberrecht_DE-EN
 10
40.999843882701
 20
318.480957072842
 30
0.0
  0
LINE
  5
70
330
1F
100
AcDbEntity
  8
BEZUGSACHSEN
  6
Continuous
 62
     7
100
AcDbLine
 10
50.7796440043
 20
266.1868352994
 30
0.0
 11
50.7796440043
 21
287.777004818
 31
0.0
  0
LINE
  5
71
330
1F
100
AcDbEntity
  8
BEZUGSACHSEN
  6
Continuous
 62
     7
100
AcDbLine
 10
50.7796440043
 20
311.797004818
 30
0.0
 11
50.7796440043
 21
333.3871963806
 31
0.0
  0
LINE
  5
72
330
1F
100
AcDbEntity
  8
BEZUGSACHSEN
  6
Continuous
 62
     9
100
AcDbLine
 10
52.6795695195
 20
335.3846910863
 30
0.0
 11
52.6795695195
 21
315.4635372042
 31
0.0
  0
LINE
  5
73
330
1F
100
AcDbEntity
  8
BEZUGSACHSEN
  6
Continuous
 62
     9
100
AcDbLine
 10
52.6795695195
 20
284.1104724317
 30
0.0
 11
52.6795695195
 21
264.1893185497
 31
0.0
  0
LINE
  5
74
330
1F
100
AcDbEntity
  8
BEZUGSACHSEN
  6
Continuous
 62
     7
100
AcDbLine
 10
52.7796440043
 20
287.3833648696
 30
0.0
 11
52.7796440043
 21
289.777004818
 31
0.0
  0
LINE
  5
75
330
1F
100
AcDbEntity
  8
BEZUGSACHSEN
  6
Continuous
 62
     7
100
AcDbLine
 10
52.7796440043
 20
309.797004818
 30
0.0
 11
52.7796440043
 21
312.1906447664
 31
0.0
  0
LINE
  5
76
330
1F
100
AcDbEntity
  8
BEZUGSACHSEN
  6
Continuous
 62
     9
100
AcDbLine
 10
58.7796440043
 20
283.4283572305
 30
0.0
 11
58.7796440043
 21
289.777004818
 31
0.0
  0
LINE
  5
77
330
1F
100
AcDbEntity
  8
BEZUGSACHSEN
  6
Continuous
 62
     9
100
AcDbLine
 10
58.7796440043
 20
309.797004818
 30
0.0
 11
58.7796440043
 21
316.1456524054
 31
0.0
  0
LINE
  5
78
330
1F
100
AcDbEntity
  8
BEZUGSACHSEN
  6
Continuous
 62
     7
100
AcDbLine
 10
60.7796440043
 20
312.6566603438
 30
0.0
 11
60.7796440043
 21
286.9173492922
 31
0.0
  0
LINE
  5
79
330
1F
100
AcDbEntity
  8
BEZUGSACHSEN
  6
Continuous
 62
     7
100
AcDbLine
 10
52.0465969313
 20
284.777004818
 30
0.0
 11
51.9254866799
 21
284.5446688225
 31
0.0
  0
LINE
  5
7A
330
1F
100
AcDbEntity
  8
BEZUGSACHSEN
  6
Continuous
 62
     7
100
AcDbLine
 10
51.9254866799
 20
315.0293408134
 30
0.0
 11
52.0465969313
 21
314.797004818
 31
0.0
  0
LINE
  5
7B
330
1F
100
AcDbEntity
  8
BEZUGSACHSEN
  6
Continuous
 62
     7
100
AcDbLine
 10
117.5320487401
 20
249.787004818
 30
0.0
 11
100.7796440043
 21
249.787004818
 31
0.0
  0
LINE
  5
7C
330
1F
100
AcDbEntity
  8
BEZUGSACHSEN
  6
Continuous
 62
     7
100
AcDbLine
 10
124.0272392685
 20
249.787004818
 30
0.0
 11
129.7796440043
 21
249.787004818
 31
0.0
  0
LINE
  5
7D
330
1F
100
AcDbEntity
  8
BEZUGSACHSEN
  6
Continuous
 62
     7
100
AcDbLine
 10
50.7796440043
 20
287.777004818
 30
0.0
 11
52.7796440043
 21
289.777004818
 31
0.0
  0
LINE
  5
7E
330
1F
100
AcDbEntity
  8
BEZUGSACHSEN
  6
Continuous
 62
     7
100
AcDbLine
 10
119.9046440043
 20
253.787004818
 30
0.0
 11
121.6546440043
 21
253.787004818
 31
0.0
  0
LINE
  5
7F
330
1F
100
AcDbEntity
  8
BEZUGSACHSEN
  6
Continuous
 62
     7
100
AcDbLine
 10
52.7796440043
 20
309.797004818
 30
0.0
 11
50.7796440043
 21
311.797004818
 31
0.0
  0
LWPOLYLINE
  5
80
330
1F
100
AcDbEntity
  8
BEZUGSACHSEN
  6
DOT_CENTER
 62
     7
100
AcDbPolyline
 90
        2
 70
     0
 43
0.25
 10
85.7796440043
 20
299.787004818
 10
85.7796440043
 20
290.787004818
  0
LWPOLYLINE
  5
81
330
1F
100
AcDbEntity
  8
BEZUGSACHSEN
  6
DOT_CENTER
 62
     7
100
AcDbPolyline
 90
        2
 70
     0
 43
0.25
 10
85.7796440043
 20
299.787004818
 10
85.7796440043
 20
308.787004818
  0
LINE
  5
82
330
1F
100
AcDbEntity
  8
FASEN
  6
Continuous
 62
     7
100
AcDbLine
 10
106.1811299687
 20
260.9572481873
 30
0.0
 11
117.5320487401
 21
260.9572481873
 31
0.0
  0
LINE
  5
83
330
1F
100
AcDbEntity
  8
0
  6
Continuous
 62
     7
100
AcDbLine
 10
124.0272392685
 20
260.9572481873
 30
0.0
 11
129.7796440043
 21
260.9572481873
 31
0.0
  0
LINE
  5
84
330
1F
100
AcDbEntity
  8
BEZUGSACHSEN
  6
Continuous
 62
     7
100
AcDbLine
 10
100.0790727156
 20
262.104754818
 30
0.0
 11
99.1577066634
 21
262.104754818
 31
0.0
  0
LINE
  5
85
330
1F
100
AcDbEntity
  8
BEZUGSACHSEN
  6
Continuous
 62
     7
100
AcDbLine
 10
98.2796440043
 20
261.904754818
 30
0.0
 11
52.6795695195
 21
264.1893185497
 31
0.0
  0
LINE
  5
86
330
1F
100
AcDbEntity
  8
BEZUGSACHSEN
  6
Continuous
 62
     7
100
AcDbLine
 10
98.8988876183
 20
262.0706806443
 30
0.0
 11
98.2796440043
 21
261.904754818
 31
0.0
  0
LINE
  5
87
330
1F
100
AcDbEntity
  8
0
  6
Continuous
 62
     7
100
AcDbLine
 10
119.9046440043
 20
266.2646242343
 30
0.0
 11
121.6546440043
 21
266.2646242343
 31
0.0
  0
LINE
  5
88
330
1F
100
AcDbEntity
  8
FASEN
  6
Continuous
 62
     7
100
AcDbLine
 10
113.7515179261
 20
267.887004818
 30
0.0
 11
129.7796440043
 21
267.887004818
 31
0.0
  0
LINE
  5
89
330
1F
100
AcDbEntity
  8
0
  6
Continuous
 62
     7
100
AcDbLine
 10
113.7515179261
 20
268.287004818
 30
0.0
 11
129.7796440043
 21
268.287004818
 31
0.0
  0
LINE
  5
8A
330
1F
100
AcDbEntity
  8
BEZUGSACHSEN
  6
Continuous
 62
     7
100
AcDbLine
 10
98.2796440043
 20
337.669254818
 30
0.0
 11
98.2796440043
 21
261.904754818
 31
0.0
  0
LINE
  5
8B
330
1F
100
AcDbEntity
  8
BEZUGSACHSEN
  6
Continuous
 62
     9
100
AcDbLine
 10
98.8988876183
 20
262.0706806443
 30
0.0
 11
98.8988876183
 21
337.5033289917
 31
0.0
  0
LINE
  5
8C
330
1F
100
AcDbEntity
  8
BEZUGSACHSEN
  6
Continuous
 62
     9
100
AcDbLine
 10
99.1577066634
 20
262.104754818
 30
0.0
 11
99.1577066634
 21
337.469254818
 31
0.0
  0
LINE
  5
8D
330
1F
100
AcDbEntity
  8
BEZUGSACHSEN
  6
Continuous
 62
     9
100
AcDbLine
 10
100.0790727156
 20
262.104754818
 30
0.0
 11
100.0790727156
 21
337.469254818
 31
0.0
  0
LINE
  5
8E
330
1F
100
AcDbEntity
  8
BEZUGSACHSEN
  6
Continuous
 62
     7
100
AcDbLine
 10
122.6546440043
 20
347.4096000822
 30
0.0
 11
124.0272392685
 21
349.787004818
 31
0.0
  0
LINE
  5
8F
330
1F
100
AcDbEntity
  8
BEZUGSACHSEN
  6
Continuous
 62
     7
100
AcDbLine
 10
122.6546440043
 20
252.1644095538
 30
0.0
 11
124.0272392685
 21
249.787004818
 31
0.0
  0
LINE
  5
90
330
1F
100
AcDbEntity
  8
BEZUGSACHSEN
  6
Continuous
 62
     7
100
AcDbLine
 10
100.7796440043
 20
349.787004818
 30
0.0
 11
100.7796440043
 21
249.787004818
 31
0.0
  0
LINE
  5
91
330
1F
100
AcDbEntity
  8
BEZUGSACHSEN
  6
Continuous
 62
     9
100
AcDbLine
 10
50.7796440043
 20
286.340820849
 30
0.0
 11
52.7796440043
 21
287.3833648696
 31
0.0
  0
LINE
  5
92
330
1F
100
AcDbEntity
  8
RUNDUNGEN
  6
Continuous
 62
     7
100
AcDbLine
 10
194.8581031
 20
286.2144779759
 30
0.0
 11
151.3079274277
 21
282.787004818
 31
0.0
  0
LINE
  5
93
330
1F
100
AcDbEntity
  8
0
  6
Continuous
 62
     7
100
AcDbLine
 10
151.3079274277
 20
282.787004818
 30
0.0
 11
194.8581031
 21
286.2144779759
 31
0.0
  0
LINE
  5
94
330
1F
100
AcDbEntity
  8
RUNDUNGEN
  6
Continuous
 62
     7
100
AcDbLine
 10
151.3079274277
 20
282.787004818
 30
0.0
 11
135.7796440043
 21
282.787004818
 31
0.0
  0
LINE
  5
95
330
1F
100
AcDbEntity
  8
0
  6
Continuous
 62
     7
100
AcDbLine
 10
135.7796440043
 20
282.787004818
 30
0.0
 11
151.3079274277
 21
282.787004818
 31
0.0
  0
LINE
  5
96
330
1F
100
AcDbEntity
  8
BEZUGSACHSEN
  6
Continuous
 62
     9
100
AcDbLine
 10
52.7796440043
 20
312.1906447664
 30
0.0
 11
50.7796440043
 21
313.233188787
 31
0.0
  0
LWPOLYLINE
  5
97
330
1F
100
AcDbEntity
  8
BEZUGSACHSEN
  6
DOT_CENTER
 62
     7
100
AcDbPolyline
 90
        2
 70
     0
 43
0.25
 10
107.7796440043
 20
341.9363766733
 10
107.7796440043
 20
352.787004818
  0
LINE
  5
98
330
1F
100
AcDbEntity
  8
BEZUGSACHSEN
  6
Continuous
 62
     9
100
AcDbLine
 10
60.3334899512
 20
284.777004818
 30
0.0
 11
52.0465969313
 21
284.777004818
 31
0.0
  0
LINE
  5
99
330
1F
100
AcDbEntity
  8
FASEN
  6
Continuous
 62
     9
100
AcDbLine
 10
113.7515179261
 20
267.887004818
 30
0.0
 11
113.7515179261
 21
268.287004818
 31
0.0
  0
LINE
  5
9A
330
1F
100
AcDbEntity
  8
FASEN
  6
Continuous
 62
     9
100
AcDbLine
 10
115.7796440043
 20
290.187004818
 30
0.0
 11
115.7796440043
 21
289.787004818
 31
0.0
  0
LINE
  5
9B
330
1F
100
AcDbEntity
  8
FASEN
  6
Continuous
 62
     9
100
AcDbLine
 10
115.7796440043
 20
309.387004818
 30
0.0
 11
115.7796440043
 21
309.787004818
 31
0.0
  0
LINE
  5
9C
330
1F
100
AcDbEntity
  8
0
  6
Continuous
 62
     7
100
AcDbLine
 10
117.5320487401
 20
349.787004818
 30
0.0
 11
117.5320487401
 21
309.787004818
 31
0.0
  0
LINE
  5
9D
330
1F
100
AcDbEntity
  8
0
  6
Continuous
 62
     7
100
AcDbLine
 10
117.5320487401
 20
289.787004818
 30
0.0
 11
117.5320487401
 21
268.287004818
 31
0.0
  0
LINE
  5
9E
330
1F
100
AcDbEntity
  8
0
  6
Continuous
 62
     7
100
AcDbLine
 10
117.5320487401
 20
260.9572481873
 30
0.0
 11
117.5320487401
 21
249.787004818
 31
0.0
  0
LINE
  5
9F
330
1F
100
AcDbEntity
  8
BEZUGSACHSEN
  6
Continuous
 62
     7
100
AcDbLine
 10
58.7796440043
 20
289.777004818
 30
0.0
 11
52.7796440043
 21
289.777004818
 31
0.0
  0
LINE
  5
A0
330
1F
100
AcDbEntity
  8
0
  6
Continuous
 62
     7
100
AcDbLine
 10
115.7796440043
 20
289.787004818
 30
0.0
 11
129.7796440043
 21
289.787004818
 31
0.0
  0
LINE
  5
A1
330
1F
100
AcDbEntity
  8
FASEN
  6
Continuous
 62
     7
100
AcDbLine
 10
129.7796440043
 20
290.187004818
 30
0.0
 11
115.7796440043
 21
290.187004818
 31
0.0
  0
LWPOLYLINE
  5
A2
330
1F
100
AcDbEntity
  8
DEFAULT_2
  6
DASHED
 62
     8
100
AcDbPolyline
 90
        2
 70
     0
 43
0.35
 10
195.7796440043
 20
292.787004818
 10
148.7796440043
 20
292.787004818
  0
LINE
  5
A3
330
1F
100
AcDbEntity
  8
0
  6
Continuous
 62
     7
100
AcDbLine
 10
118.9046440043
 20
347.4095666557
 30
0.0
 11
118.9046440043
 21
309.787004818
 31
0.0
  0
LINE
  5
A4
330
1F
100
AcDbEntity
  8
0
  6
Continuous
 62
     7
100
AcDbLine
 10
118.9046440043
 20
289.787004818
 30
0.0
 11
118.9046440043
 21
268.287004818
 31
0.0
  0
LINE
  5
A5
330
1F
100
AcDbEntity
  8
0
  6
Continuous
 62
     7
100
AcDbLine
 10
118.9046440043
 20
252.1644470877
 30
0.0
 11
118.9046440043
 21
264.9050610648
 31
0.0
  0
LINE
  5
A6
330
1F
100
AcDbEntity
  8
0
  6
Continuous
 62
     9
100
AcDbLine
 10
119.9046440043
 20
253.787004818
 30
0.0
 11
119.9046440043
 21
266.2646242343
 31
0.0
  0
LINE
  5
A7
330
1F
100
AcDbEntity
  8
0
  6
Continuous
 62
     9
100
AcDbLine
 10
119.9046440043
 20
268.287004818
 30
0.0
 11
119.9046440043
 21
289.787004818
 31
0.0
  0
LINE
  5
A8
330
1F
100
AcDbEntity
  8
0
  6
Continuous
 62
     9
100
AcDbLine
 10
119.9046440043
 20
309.787004818
 30
0.0
 11
119.9046440043
 21
345.787004818
 31
0.0
  0
LINE
  5
A9
330
1F
100
AcDbEntity
  8
0
  6
Continuous
 62
     9
100
AcDbLine
 10
121.6546440043
 20
253.787004818
 30
0.0
 11
121.6546440043
 21
266.2646242343
 31
0.0
  0
LINE
  5
AA
330
1F
100
AcDbEntity
  8
0
  6
Continuous
 62
     9
100
AcDbLine
 10
121.6546440043
 20
268.287004818
 30
0.0
 11
121.6546440043
 21
289.787004818
 31
0.0
  0
LINE
  5
AB
330
1F
100
AcDbEntity
  8
0
  6
Continuous
 62
     9
100
AcDbLine
 10
121.6546440043
 20
309.787004818
 30
0.0
 11
121.6546440043
 21
345.787004818
 31
0.0
  0
LINE
  5
AC
330
1F
100
AcDbEntity
  8
0
  6
Continuous
 62
     7
100
AcDbLine
 10
122.6546440043
 20
252.1644470877
 30
0.0
 11
122.6546440043
 21
264.9050610648
 31
0.0
  0
LINE
  5
AD
330
1F
100
AcDbEntity
  8
0
  6
Continuous
 62
     7
100
AcDbLine
 10
122.6546440043
 20
268.287004818
 30
0.0
 11
122.6546440043
 21
289.787004818
 31
0.0
  0
LINE
  5
AE
330
1F
100
AcDbEntity
  8
0
  6
Continuous
 62
     7
100
AcDbLine
 10
122.6546440043
 20
309.787004818
 30
0.0
 11
122.6546440043
 21
347.4095666557
 31
0.0
  0
LINE
  5
AF
330
1F
100
AcDbEntity
  8
0
  6
Continuous
 62
     7
100
AcDbLine
 10
124.0272392685
 20
349.787004818
 30
0.0
 11
124.0272392685
 21
309.787004818
 31
0.0
  0
LINE
  5
B0
330
1F
100
AcDbEntity
  8
0
  6
Continuous
 62
     7
100
AcDbLine
 10
124.0272392685
 20
289.787004818
 30
0.0
 11
124.0272392685
 21
268.287004818
 31
0.0
  0
LINE
  5
B1
330
1F
100
AcDbEntity
  8
0
  6
Continuous
 62
     7
100
AcDbLine
 10
124.0272392685
 20
260.9572481873
 30
0.0
 11
124.0272392685
 21
249.787004818
 31
0.0
  0
LWPOLYLINE
  5
B2
330
1F
100
AcDbEntity
  8
BEZUGSACHSEN
  6
DOT_CENTER
 62
     7
100
AcDbPolyline
 90
        2
 70
     0
 43
0.25
 10
198.7796440043
 20
299.787004818
 10
47.7796440043
 20
299.787004818
  0
LINE
  5
B3
330
1F
100
AcDbEntity
  8
0
  6
Continuous
 62
     7
100
AcDbLine
 10
129.7796440043
 20
349.7869678969
 30
0.0
 11
129.7796440043
 21
309.787004818
 31
0.0
  0
LINE
  5
B4
330
1F
100
AcDbEntity
  8
0
  6
Continuous
 62
     7
100
AcDbLine
 10
129.7796440043
 20
289.787004818
 30
0.0
 11
129.7796440043
 21
268.287004818
 31
0.0
  0
LINE
  5
B5
330
1F
100
AcDbEntity
  8
0
  6
Continuous
 62
     7
100
AcDbLine
 10
129.7796440043
 20
260.9572481873
 30
0.0
 11
129.7796440043
 21
249.7870066858
 31
0.0
  0
LINE
  5
B6
330
1F
100
AcDbEntity
  8
FASEN
  6
Continuous
 62
     7
100
AcDbLine
 10
129.7796440043
 20
260.9572481873
 30
0.0
 11
129.7796440043
 21
268.287004818
 31
0.0
  0
LINE
  5
B7
330
1F
100
AcDbEntity
  8
FASEN
  6
Continuous
 62
     7
100
AcDbLine
 10
129.7796440043
 20
289.787004818
 30
0.0
 11
129.7796440043
 21
309.787004818
 31
0.0
  0
LINE
  5
B8
330
1F
100
AcDbEntity
  8
RUNDUNGEN
  6
Continuous
 62
     9
100
AcDbLine
 10
135.7796440043
 20
316.787004818
 30
0.0
 11
135.7796440043
 21
282.787004818
 31
0.0
  0
LWPOLYLINE
  5
B9
330
1F
100
AcDbEntity
  8
DEFAULT_2
  6
DASHED
 62
     8
100
AcDbPolyline
 90
        2
 70
     0
 43
0.35
 10
195.7796440043
 20
306.787004818
 10
148.7796440043
 20
306.787004818
  0
LINE
  5
BA
330
1F
100
AcDbEntity
  8
FASEN
  6
Continuous
 62
     7
100
AcDbLine
 10
115.7796440043
 20
309.387004818
 30
0.0
 11
129.7796440043
 21
309.387004818
 31
0.0
  0
LINE
  5
BB
330
1F
100
AcDbEntity
  8
0
  6
Continuous
 62
     7
100
AcDbLine
 10
115.7796440043
 20
309.787004818
 30
0.0
 11
129.7796440043
 21
309.787004818
 31
0.0
  0
LINE
  5
BC
330
1F
100
AcDbEntity
  8
BEZUGSACHSEN
  6
Continuous
 62
     7
100
AcDbLine
 10
58.7796440043
 20
309.797004818
 30
0.0
 11
52.7796440043
 21
309.797004818
 31
0.0
  0
LINE
  5
BD
330
1F
100
AcDbEntity
  8
BEZUGSACHSEN
  6
Continuous
 62
     9
100
AcDbLine
 10
52.0465969313
 20
314.797004818
 30
0.0
 11
60.3334899512
 21
314.797004818
 31
0.0
  0
LINE
  5
BE
330
1F
100
AcDbEntity
  8
RUNDUNGEN
  6
Continuous
 62
     7
100
AcDbLine
 10
151.3079274277
 20
316.787004818
 30
0.0
 11
135.7796440043
 21
316.787004818
 31
0.0
  0
LINE
  5
BF
330
1F
100
AcDbEntity
  8
0
  6
Continuous
 62
     7
100
AcDbLine
 10
135.7796440043
 20
316.787004818
 30
0.0
 11
151.3079274277
 21
316.787004818
 31
0.0
  0
LINE
  5
C0
330
1F
100
AcDbEntity
  8
BEZUGSACHSEN
  6
Continuous
 62
     7
100
AcDbLine
 10
117.5320487401
 20
249.787004818
 30
0.0
 11
118.9046440043
 21
252.1644095538
 31
0.0
  0
LINE
  5
C1
330
1F
100
AcDbEntity
  8
RUNDUNGEN
  6
Continuous
 62
     7
100
AcDbLine
 10
194.8581031
 20
313.3595316601
 30
0.0
 11
151.3079274277
 21
316.787004818
 31
0.0
  0
LINE
  5
C2
330
1F
100
AcDbEntity
  8
0
  6
Continuous
 62
     7
100
AcDbLine
 10
151.3079274277
 20
316.787004818
 30
0.0
 11
194.8581031
 21
313.3595316601
 31
0.0
  0
LINE
  5
C3
330
1F
100
AcDbEntity
  8
BEZUGSACHSEN
  6
Continuous
 62
     7
100
AcDbLine
 10
117.5320487401
 20
349.787004818
 30
0.0
 11
118.9046440043
 21
347.4096000822
 31
0.0
  0
LWPOLYLINE
  5
C4
330
1F
100
AcDbEntity
  8
DEFAULT_2
  6
DASHED
 62
     8
100
AcDbPolyline
 90
        2
 70
     0
 43
0.35
 10
148.7796440043
 20
306.787004818
 10
148.7796440043
 20
292.787004818
  0
LINE
  5
C5
330
1F
100
AcDbEntity
  8
0
  6
Continuous
 62
     7
100
AcDbLine
 10
151.3079274277
 20
316.787004818
 30
0.0
 11
151.3079274277
 21
282.787004818
 31
0.0
  0
LINE
  5
C6
330
1F
100
AcDbEntity
  8
BEZUGSACHSEN
  6
Continuous
 62
     7
100
AcDbLine
 10
98.8988876183
 20
337.5033289917
 30
0.0
 11
98.2796440043
 21
337.669254818
 31
0.0
  0
LINE
  5
C7
330
1F
100
AcDbEntity
  8
BEZUGSACHSEN
  6
Continuous
 62
     7
100
AcDbLine
 10
98.2796440043
 20
337.669254818
 30
0.0
 11
52.6795695195
 21
335.3846910863
 31
0.0
  0
LINE
  5
C8
330
1F
100
AcDbEntity
  8
BEZUGSACHSEN
  6
Continuous
 62
     7
100
AcDbLine
 10
100.0790727156
 20
337.469254818
 30
0.0
 11
99.1577066634
 21
337.469254818
 31
0.0
  0
LINE
  5
C9
330
1F
100
AcDbEntity
  8
BEZUGSACHSEN
  6
Continuous
 62
     7
100
AcDbLine
 10
119.9046440043
 20
345.787004818
 30
0.0
 11
121.6546440043
 21
345.787004818
 31
0.0
  0
LINE
  5
CA
330
1F
100
AcDbEntity
  8
BEZUGSACHSEN
  6
Continuous
 62
     7
100
AcDbLine
 10
117.5320487401
 20
349.787004818
 30
0.0
 11
112.7796440043
 21
349.787004818
 31
0.0
  0
LINE
  5
CB
330
1F
100
AcDbEntity
  8
BEZUGSACHSEN
  6
Continuous
 62
     7
100
AcDbLine
 10
102.7796440043
 20
349.787004818
 30
0.0
 11
100.7796440043
 21
349.787004818
 31
0.0
  0
LINE
  5
CC
330
1F
100
AcDbEntity
  8
BEZUGSACHSEN
  6
Continuous
 62
     7
100
AcDbLine
 10
124.0272392685
 20
349.787004818
 30
0.0
 11
129.7796440043
 21
349.787004818
 31
0.0
  0
LINE
  5
CD
330
1F
100
AcDbEntity
  8
RUNDUNGEN
  6
Continuous
 62
     9
100
AcDbLine
 10
194.8581031
 20
286.2144779759
 30
0.0
 11
194.8581031
 21
313.3595316601
 31
0.0
  0
LINE
  5
CE
330
1F
100
AcDbEntity
  8
RUNDUNGEN
  6
Continuous
 62
     7
100
AcDbLine
 10
195.7796440043
 20
287.2113953096
 30
0.0
 11
195.7796440043
 21
312.3626143263
 31
0.0
  0
LWPOLYLINE
  5
CF
330
1F
100
AcDbEntity
  8
1
  6
Continuous
 62
     7
100
AcDbPolyline
 90
        2
 70
     0
 43
0.25
 10
195.7796440043
 20
312.3626143263
 10
195.7796440043
 20
313.2870048180528
  0
LWPOLYLINE
  5
D0
330
1F
100
AcDbEntity
  8
1
  6
Continuous
 62
     7
100
AcDbPolyline
 90
        2
 70
     0
 43
0.25
 10
194.8581031
 20
313.3595316601
 10
195.7796440043094
 20
313.2870048180528
  0
LWPOLYLINE
  5
D1
330
1F
100
AcDbEntity
  8
1
  6
Continuous
 62
     7
100
AcDbPolyline
 90
        2
 70
     0
 43
0.25
 10
194.8581031
 20
286.2144779759
 10
195.7796440043
 20
286.2870048179486
  0
LWPOLYLINE
  5
D2
330
1F
100
AcDbEntity
  8
1
  6
Continuous
 62
     7
100
AcDbPolyline
 90
        2
 70
     0
 43
0.25
 10
195.7796440043
 20
287.2113953096
 10
195.7796440043
 20
286.2870048179486
  0
ARC
  5
D3
330
1F
100
AcDbEntity
  8
FASEN
  6
Continuous
 62
     7
100
AcDbCircle
 10
118.6802980271
 20
275.318268088
 30
0.0
 40
19.03859487300018
100
AcDbArc
 50
227.4837701983004
 51
228.965195337529
  0
ARC
  5
D4
330
1F
100
AcDbEntity
  8
FASEN
  6
Continuous
 62
     7
100
AcDbCircle
 10
113.7515179261
 20
260.287004818
 30
0.0
 40
8.0
100
AcDbArc
 50
90.0
 51
172.8323734889971
  0
ARC
  5
D5
330
1F
100
AcDbEntity
  8
FASEN
  6
Continuous
 62
     7
100
AcDbCircle
 10
113.7515179261
 20
260.287004818
 30
0.0
 40
7.599982194900008
100
AcDbArc
 50
90.0
 51
174.9405171273014
  0
ARC
  5
D6
330
1F
100
AcDbEntity
  8
BEZUGSACHSEN
  6
Continuous
 62
     7
100
AcDbCircle
 10
58.7796440043
 20
291.777004818
 30
0.0
 40
2.0
100
AcDbArc
 50
270.0
 51
355.2355361864933
  0
ARC
  5
D7
330
1F
100
AcDbEntity
  8
BEZUGSACHSEN
  6
Continuous
 62
     7
100
AcDbCircle
 10
52.7796440043
 20
266.1868132549
 30
0.0
 40
2.0
100
AcDbArc
 50
180.0
 51
267.1318795106972
  0
ARC
  5
D8
330
1F
100
AcDbEntity
  8
BEZUGSACHSEN
  6
Continuous
 62
     7
100
AcDbCircle
 10
119.9046440043
 20
252.787004818
 30
0.0
 40
1.0
100
AcDbArc
 50
90.0
 51
180.0
  0
ARC
  5
D9
330
1F
100
AcDbEntity
  8
BEZUGSACHSEN
  6
Continuous
 62
     7
100
AcDbCircle
 10
99.1577066634
 20
261.104754818
 30
0.0
 40
1.0
100
AcDbArc
 50
90.0
 51
104.9999999996989
  0
ARC
  5
DA
330
1F
100
AcDbEntity
  8
BEZUGSACHSEN
  6
Continuous
 62
     7
100
AcDbCircle
 10
100.0790727156
 20
261.104754818
 30
0.0
 40
1.000000000000426
100
AcDbArc
 50
45.52164291268396
 51
90.0
  0
ARC
  5
DB
330
1F
100
AcDbEntity
  8
0
  6
Continuous
 62
     7
100
AcDbCircle
 10
-123.8181358782
 20
369.2214724084
 30
0.0
 40
264.5204223901892
100
AcDbArc
 50
335.840076470599
 51
336.5770705490999
  0
ARC
  5
DC
330
1F
100
AcDbEntity
  8
BEZUGSACHSEN
  6
Continuous
 62
     7
100
AcDbCircle
 10
107.7948520154
 20
399.8397745847
 30
0.0
 40
50.30340021025299
100
AcDbArc
 50
264.2781515101786
 51
269.9826780126002
  0
ARC
  5
DD
330
1F
100
AcDbEntity
  8
BEZUGSACHSEN
  6
Continuous
 62
     7
100
AcDbCircle
 10
107.7644360032
 20
399.8397743841
 30
0.0
 40
50.30340000969741
100
AcDbArc
 50
270.0173219760583
 51
275.7218485012678
  0
ARC
  5
DE
330
1F
100
AcDbEntity
  8
0
  6
Continuous
 62
     7
100
AcDbCircle
 10
115.7796440043
 20
299.787004818
 30
0.0
 40
10.0
100
AcDbArc
 50
90.0
 51
270.0
  0
ARC
  5
DF
330
1F
100
AcDbEntity
  8
FASEN
  6
Continuous
 62
     7
100
AcDbCircle
 10
115.7796440043
 20
299.787004818
 30
0.0
 40
9.599999195900011
100
AcDbArc
 50
90.0
 51
270.0
  0
ARC
  5
E0
330
1F
100
AcDbEntity
  8
BEZUGSACHSEN
  6
Continuous
 62
     7
100
AcDbCircle
 10
58.7796440043
 20
307.797004818
 30
0.0
 40
1.999999999999984
100
AcDbArc
 50
4.76446378498879
 51
90.0
  0
ARC
  5
E1
330
1F
100
AcDbEntity
  8
BEZUGSACHSEN
  6
Continuous
 62
     7
100
AcDbCircle
 10
52.7796440043
 20
333.3871963811
 30
0.0
 40
1.999999999952489
100
AcDbArc
 50
92.86812048930284
 51
180.0000000143238
  0
ARC
  5
E2
330
1F
100
AcDbEntity
  8
BEZUGSACHSEN
  6
Continuous
 62
     7
100
AcDbCircle
 10
119.9046440043
 20
346.787004818
 30
0.0
 40
1.0
100
AcDbArc
 50
180.0
 51
270.0
  0
ARC
  5
E3
330
1F
100
AcDbEntity
  8
BEZUGSACHSEN
  6
Continuous
 62
     7
100
AcDbCircle
 10
99.1577066634
 20
338.469254818
 30
0.0
 40
1.000000000009918
100
AcDbArc
 50
255.0000000003011
 51
270.0
  0
ARC
  5
E4
330
1F
100
AcDbEntity
  8
BEZUGSACHSEN
  6
Continuous
 62
     7
100
AcDbCircle
 10
100.0790727156
 20
338.469254818
 30
0.0
 40
1.0
100
AcDbArc
 50
270.0
 51
314.478357087316
  0
ARC
  5
E5
330
1F
100
AcDbEntity
  8
BEZUGSACHSEN
  6
Continuous
 62
     7
100
AcDbCircle
 10
237.1096906067
 20
-1306.2557545097
 30
0.0
 40
1632.1727637359
100
AcDbArc
 50
96.2726189838
 51
96.48809068979999
  0
ARC
  5
E6
330
1F
100
AcDbEntity
  8
RUNDUNGEN
  6
Continuous
 62
     7
100
AcDbCircle
 10
135.7796440043
 20
276.787004818
 30
0.0
 40
6.0
100
AcDbArc
 50
90.0
 51
180.0
  0
ARC
  5
E7
330
1F
100
AcDbEntity
  8
RUNDUNGEN
  6
Continuous
 62
     7
100
AcDbCircle
 10
194.7796440043
 20
287.2113953096
 30
0.0
 40
0.9999999999647582
100
AcDbArc
 50
274.4999999985585
 51
0.0
  0
ARC
  5
E8
330
1F
100
AcDbEntity
  8
BEZUGSACHSEN
  6
Continuous
 62
     7
100
AcDbCircle
 10
121.6546440043
 20
252.787004818
 30
0.0
 40
1.0
100
AcDbArc
 50
0.0
 51
90.0
  0
ARC
  5
E9
330
1F
100
AcDbEntity
  8
BEZUGSACHSEN
  6
Continuous
 62
     7
100
AcDbCircle
 10
237.1096906067
 20
1905.8297641455
 30
0.0
 40
1632.1727637357
100
AcDbArc
 50
263.5119093102
 51
263.7273810162
  0
ARC
  5
EA
330
1F
100
AcDbEntity
  8
0
  6
Continuous
 62
     7
100
AcDbCircle
 10
365.3774238868
 20
369.2214724084
 30
0.0
 40
264.5204223902001
100
AcDbArc
 50
203.4229294508999
 51
204.1599235294009
  0
ARC
  5
EB
330
1F
100
AcDbEntity
  8
RUNDUNGEN
  6
Continuous
 62
     7
100
AcDbCircle
 10
135.7796440043
 20
322.787004818
 30
0.0
 40
6.0
100
AcDbArc
 50
180.0
 51
270.0
  0
ARC
  5
EC
330
1F
100
AcDbEntity
  8
BEZUGSACHSEN
  6
Continuous
 62
     7
100
AcDbCircle
 10
121.6546440043
 20
346.787004818
 30
0.0
 40
1.0
100
AcDbArc
 50
270.0
 51
0.0
  0
ARC
  5
ED
330
1F
100
AcDbEntity
  8
RUNDUNGEN
  6
Continuous
 62
     7
100
AcDbCircle
 10
194.7796440043
 20
312.3626143263
 30
0.0
 40
1.0
100
AcDbArc
 50
0.0
 51
85.50000000189128
  0
CIRCLE
  5
EE
330
1F
100
AcDbEntity
  8
BEZUGSACHSEN
  6
Continuous
 62
     7
100
AcDbCircle
 10
85.7796440043
 20
299.787004818
 30
0.0
 40
6.0
  0
SPLINE
  5
EF
330
1F
100
AcDbEntity
  8
BEZUGSACHSEN
  6
Continuous
 62
     7
100
AcDbSpline
210
0.0
220
0.0
230
1.0
 70
     8
 71
     3
 72
    19
 73
    15
 74
    13
 42
0.0000000001
 43
0.0000000001
 44
0.00000001
 40
0.0
 40
0.0
 40
0.0
 40
0.0
 40
0.1462385987779309
 40
0.2927479274823133
 40
0.4364790706284333
 40
0.5801659236551358
 40
0.7203799972778907
 40
0.8606059382463789
 40
0.9980411883699071
 40
1.135484020416858
 40
1.405415631078859
 40
1.675815514078753
 40
1.943997429514649
 40
2.21193483474145
 40
2.21193483474145
 40
2.21193483474145
 40
2.21193483474145
 10
58.7796440043
 20
316.1456524054
 30
0.0
 10
58.82835880963835
 20
316.1489604827465
 30
0.0
 10
58.92587860550397
 20
316.1555827616471
 30
0.0
 10
59.07121486582061
 20
316.1392234488729
 30
0.0
 10
59.21187180294329
 20
316.1040516827702
 30
0.0
 10
59.34472393638751
 20
316.051245996125
 30
0.0
 10
59.46917839944498
 20
315.983574208397
 30
0.0
 10
59.58398095660228
 20
315.9042740070148
 30
0.0
 10
59.69009089437677
 20
315.8151893674399
 30
0.0
 10
59.81919335955612
 20
315.6872418318709
 30
0.0
 10
59.962233209457
 20
315.5114395429623
 30
0.0
 10
60.10714081115604
 20
315.2837540770776
 30
0.0
 10
60.23177755959884
 20
315.0450914576068
 30
0.0
 10
60.29959613076728
 20
314.8796752171738
 30
0.0
 10
60.3334899512
 20
314.797004818
 30
0.0
 11
58.7796440043
 21
316.1456524054
 31
0.0
 11
58.92577786611905
 21
316.1511861385328
 31
0.0
 11
59.07148722696569
 21
316.1358967448538
 31
0.0
 11
59.2109173085228
 21
316.1009984086891
 31
0.0
 11
59.34454964545172
 21
316.0481939556606
 31
0.0
 11
59.46786343625136
 21
315.9814579425904
 31
0.0
 11
59.58339454755922
 21
315.9019854514978
 31
0.0
 11
59.68880709733366
 21
315.8138001787672
 31
0.0
 11
59.78659560102783
 21
315.7172189144022
 31
0.0
 11
59.95784399691767
 21
315.5085635494107
 31
0.0
 11
60.10418641745233
 21
315.2811872254928
 31
0.0
 11
60.22805404325909
 21
315.0433251834519
 31
0.0
 11
60.3334899512
 21
314.797004818
 31
0.0
  0
SPLINE
  5
F0
330
1F
100
AcDbEntity
  8
BEZUGSACHSEN
  6
Continuous
 62
     7
100
AcDbSpline
210
0.0
220
0.0
230
1.0
 70
     8
 71
     3
 72
    11
 73
     7
 74
     5
 42
0.0000000001
 43
0.0000000001
 44
0.00000001
 40
0.0
 40
0.0
 40
0.0
 40
0.0
 40
0.5521269407036973
 40
1.105196183339769
 40
1.651906304698671
 40
2.19819704872004
 40
2.19819704872004
 40
2.19819704872004
 40
2.19819704872004
 10
60.7796440043
 20
286.9173492922
 30
0.0
 10
60.77305856667225
 20
286.7332141017891
 30
0.0
 10
60.7598764522068
 20
286.3646294618124
 30
0.0
 10
60.66238808840955
 20
285.8212050571269
 30
0.0
 10
60.52275077537706
 20
285.2899309276099
 30
0.0
 10
60.39656075316152
 20
284.9479364475159
 30
0.0
 10
60.3334899512
 20
284.777004818
 30
0.0
 11
60.7796440043
 21
286.9173492922
 31
0.0
 11
60.7468994218732
 21
286.3661941861069
 31
0.0
 11
60.65483276892982
 21
285.820841714245
 31
0.0
 11
60.5143412840964
 21
285.2924913574877
 31
0.0
 11
60.3334899512
 21
284.777004818
 31
0.0
  0
SPLINE
  5
F1
330
1F
100
AcDbEntity
  8
BEZUGSACHSEN
  6
Continuous
 62
     7
100
AcDbSpline
210
0.0
220
0.0
230
1.0
 70
     8
 71
     3
 72
    19
 73
    15
 74
    13
 42
0.0000000001
 43
0.0000000001
 44
0.00000001
 40
0.0
 40
0.0
 40
0.0
 40
0.0
 40
0.2679411643344683
 40
0.5361267936841334
 40
0.8065304773471742
 40
1.076465993216762
 40
1.213913376149574
 40
1.351353104892722
 40
1.491586367075058
 40
1.631807897554727
 40
1.775491562743824
 40
1.91921920471295
 40
2.065713007375138
 40
2.211936409322653
 40
2.211936409322653
 40
2.211936409322653
 40
2.211936409322653
 10
60.3334899512
 20
284.777004818
 30
0.0
 10
60.29959570740105
 20
284.6943332382964
 30
0.0
 10
60.23177629526476
 20
284.5289146507293
 30
0.0
 10
60.10713778899218
 20
284.2902486770628
 30
0.0
 10
59.96222698968853
 20
284.0625606810409
 30
0.0
 10
59.81918335817291
 20
283.8867561897103
 30
0.0
 10
59.69007697125315
 20
283.7588064705783
 30
0.0
 10
59.58396187217146
 20
283.669719449766
 30
0.0
 10
59.46915244451652
 20
283.5904178094486
 30
0.0
 10
59.34469283229348
 20
283.5227473420184
 30
0.0
 10
59.21183927717937
 20
283.4699446553304
 30
0.0
 10
59.07118847830438
 20
283.4347783913393
 30
0.0
 10
58.92586309519953
 20
283.4184261894692
 30
0.0
 10
58.82835367613625
 20
283.4250489227638
 30
0.0
 10
58.7796440043
 20
283.4283572305
 30
0.0
 11
60.3334899512
 21
284.777004818
 31
0.0
 11
60.22805269148354
 21
284.5306809421609
 31
0.0
 11
60.10418317592422
 21
284.2928156968964
 31
0.0
 11
59.95783768964594
 21
284.0654368263201
 31
0.0
 11
59.78658549852312
 21
283.8567795241153
 31
0.0
 11
59.68879305982114
 21
283.7601957676766
 31
0.0
 11
59.58337607054158
 21
283.672008821884
 31
0.0
 11
59.46783742681885
 21
283.5925343629113
 31
0.0
 11
59.34451541693798
 21
283.5257978699782
 31
0.0
 11
59.21088472876828
 21
283.4729979190174
 31
0.0
 11
59.07145702757252
 21
283.4381044926269
 31
0.0
 11
58.92576258902226
 21
283.4228216658612
 31
0.0
 11
58.7796440043
 21
283.4283572305
 31
0.0
  0
SPLINE
  5
F2
330
1F
100
AcDbEntity
  8
BEZUGSACHSEN
  6
Continuous
 62
     7
100
AcDbSpline
210
0.0
220
0.0
230
1.0
 70
     8
 71
     3
 72
    47
 73
    43
 74
    41
 42
0.0000000001
 43
0.0000000001
 44
0.00000001
 40
0.0
 40
0.0
 40
0.0
 40
0.0
 40
0.6366022432335546
 40
1.273595002182801
 40
1.592921746402071
 40
1.912076344893822
 40
2.231392290439008
 40
2.550826842754164
 40
3.189774321180961
 40
3.829081697010036
 40
4.468337152511213
 40
5.107221744787503
 40
5.42617634129399
 40
5.74503335685124
 40
6.06335673161843
 40
6.381780214909327
 40
7.017059195679194
 40
7.65263934100475
 40
8.28753221427381
 40
8.922347946553945
 40
9.559226748619805
 40
10.19613435938733
 40
10.83451785503518
 40
11.47287689974361
 40
12.11234487366509
 40
12.75189588951348
 40
13.39354300524333
 40
14.03487957361049
 40
14.35615205776707
 40
14.67732107716557
 40
14.99840882476679
 40
15.31959604125735
 40
15.96011121031382
 40
16.6009959209482
 40
17.23809108086533
 40
17.87482555210578
 40
18.19205670343597
 40
18.50917199110469
 40
18.82571084636735
 40
19.14241581833278
 40
19.77338975000574
 40
20.40398930747634
 40
20.40398930747634
 40
20.40398930747634
 40
20.40398930747634
 10
79.28022841
 20
299.7870047985
 30
0.0
 10
79.2862340538853
 20
299.9992846082125
 30
0.0
 10
79.29824902574327
 20
300.4239744480423
 30
0.0
 10
79.37951437095808
 20
300.9501172091582
 30
0.0
 10
79.4722339675594
 20
301.365091585268
 30
0.0
 10
79.55752693169376
 20
301.6729155609648
 30
0.0
 10
79.65776554510369
 20
301.9762082377621
 30
0.0
 10
79.81125109421953
 20
302.373645600324
 30
0.0
 10
80.03972304100584
 20
302.8557451772051
 30
0.0
 10
80.36933800158774
 20
303.404561050022
 30
0.0
 10
80.75156521865807
 20
303.9180965893787
 30
0.0
 10
81.1104199157796
 20
304.3125993514703
 30
0.0
 10
81.41937326936927
 20
304.6054726495047
 30
0.0
 10
81.66126837835529
 20
304.8131944706138
 30
0.0
 10
81.91291163182726
 20
305.008703867751
 30
0.0
 10
82.26020573895478
 20
305.2521990704345
 30
0.0
 10
82.71594607370105
 20
305.5240811404813
 30
0.0
 10
83.29142549839875
 20
305.7954102529931
 30
0.0
 10
83.89053626358368
 20
306.0091938838011
 30
0.0
 10
84.5079866660567
 20
306.163883615171
 30
0.0
 10
85.1382572277448
 20
306.2576905988263
 30
0.0
 10
85.77585116245386
 20
306.2898173236325
 30
0.0
 10
86.4140298066705
 20
306.2593877506822
 30
0.0
 10
87.04704222785887
 20
306.1667164955184
 30
0.0
 10
87.66827591229745
 20
306.0122245342906
 30
0.0
 10
88.27241166427811
 20
305.7971874017497
 30
0.0
 10
88.85289073785809
 20
305.5232640360196
 30
0.0
 10
89.31251976208388
 20
305.2480971579603
 30
0.0
 10
89.66241875074722
 20
305.0014874591023
 30
0.0
 10
89.91555037989646
 20
304.8035832667316
 30
0.0
 10
90.15854901925061
 20
304.5934047373297
 30
0.0
 10
90.4677933627558
 20
304.2978853971745
 30
0.0
 10
90.82611355355299
 20
303.9004144144078
 30
0.0
 10
91.20606397189626
 20
303.384747652853
 30
0.0
 10
91.53253700150778
 20
302.8351514963827
 30
0.0
 10
91.7579081415028
 20
302.3540459546722
 30
0.0
 10
91.90899912466173
 20
301.9580557670521
 30
0.0
 10
92.007412042211
 20
301.6566294162691
 30
0.0
 10
92.09107882038259
 20
301.3509340483528
 30
0.0
 10
92.1818981778166
 20
300.9393820306371
 30
0.0
 10
92.26141315342207
 20
300.4179568141092
 30
0.0
 10
92.27318543808957
 20
299.9972805249545
 30
0.0
 10
92.2790698337
 20
299.7870047986
 30
0.0
 11
79.28022841
 21
299.7870047985
 31
0.0
 11
79.3114770810398
 21
300.4228396329092
 31
0.0
 11
79.4049182834134
 21
301.0529416219973
 31
0.0
 11
79.47485879044628
 21
301.3645148799154
 31
0.0
 11
79.56000012941148
 21
301.6721032576829
 31
0.0
 11
79.66022466752474
 21
301.9752826023609
 31
0.0
 11
79.77530455725397
 21
302.2732675888832
 31
0.0
 11
80.0489004515008
 21
302.8506748687466
 31
0.0
 11
80.37811996519643
 21
303.3986971608036
 31
0.0
 11
80.7597442205263
 21
303.9115426201108
 31
0.0
 11
81.18967885665265
 21
304.3841203712872
 31
0.0
 11
81.42115111773504
 21
304.6035574396736
 31
0.0
 11
81.66305351877601
 21
304.8112905009341
 31
0.0
 11
81.91442732591587
 21
305.00658765915
 31
0.0
 11
82.17515660418067
 21
305.1893819647687
 31
0.0
 11
82.72069024836351
 21
305.5149160282284
 31
0.0
 11
83.29560006849265
 21
305.7859156958502
 31
0.0
 11
83.89354625627075
 21
305.9993385555665
 31
0.0
 11
84.509338788513
 21
306.1535804797799
 31
0.0
 11
85.13927107047196
 21
306.2473884147685
 31
0.0
 11
85.77537419217836
 21
306.2793903398507
 31
0.0
 11
86.41303515118246
 21
306.2490260700991
 31
0.0
 11
87.04465268409093
 21
306.1564973605887
 31
0.0
 11
87.66522555621583
 21
306.0021970039659
 31
0.0
 11
88.26772636336963
 21
305.7876782885779
 31
0.0
 11
88.84803355975077
 21
305.5138999494919
 31
0.0
 11
89.3982585477988
 21
305.1844078305384
 31
0.0
 11
89.66086585194626
 21
304.9993310548896
 31
0.0
 11
89.91388630933811
 21
304.8015175387624
 31
0.0
 11
90.15673461070242
 21
304.5914650591671
 31
0.0
 11
90.38893704610946
 21
304.3695568415906
 31
0.0
 11
90.81785310384372
 21
303.8938566237968
 31
0.0
 11
91.19796376251679
 21
303.3778633103827
 31
0.0
 11
91.52340290824198
 21
302.8301593709962
 31
0.0
 11
91.79348376637164
 21
302.2535424124025
 31
0.0
 11
91.90657421155585
 21
301.9571538927491
 31
0.0
 11
92.005018314895
 21
301.6557059466772
 31
0.0
 11
92.08850112026924
 21
301.350374212169
 31
0.0
 11
92.15705054370349
 21
301.0411768386121
 31
0.0
 11
92.24847762158777
 21
300.4168618605118
 31
0.0
 11
92.2790698337
 21
299.7870047986
 31
0.0
  0
SPLINE
  5
F3
330
1F
100
AcDbEntity
  8
BEZUGSACHSEN
  6
Continuous
 62
     7
100
AcDbSpline
210
0.0
220
0.0
230
1.0
 70
     8
 71
     3
 72
    47
 73
    43
 74
    41
 42
0.0000000001
 43
0.0000000001
 44
0.00000001
 40
0.0
 40
0.0
 40
0.0
 40
0.0
 40
0.6302393214461306
 40
1.260854867303388
 40
1.577476088392063
 40
1.893930800226683
 40
2.210999113873343
 40
2.528183472209185
 40
3.164887038236374
 40
3.80195118338459
 40
4.442851001638838
 40
5.083381259822031
 40
5.404527292329087
 40
5.725573838754549
 40
6.046670710014793
 40
6.367871027133823
 40
7.00909024253515
 40
7.650619763968331
 40
8.290330346514475
 40
8.929958764493437
 40
9.568647011349029
 40
10.20735923013336
 40
10.84445705816982
 40
11.48152626498653
 40
12.11643462225936
 40
12.7514196558285
 40
13.38691908741192
 40
14.02211738533446
 40
14.34050449143747
 40
14.65879153791341
 40
14.97761586867023
 40
15.29653774943429
 40
15.9353769410074
 40
16.57458694068045
 40
17.21386274992143
 40
17.8527785907531
 40
18.17219860084804
 40
18.49150024079463
 40
18.8106715663847
 40
19.13001452423958
 40
19.76719627025983
 40
20.40398968275692
 40
20.40398968275692
 40
20.40398968275692
 40
20.40398968275692
 10
92.2790576421
 20
299.7870048367
 30
0.0
 10
92.27318844035575
 20
299.5768488148145
 30
0.0
 10
92.2614465332189
 20
299.1564113173898
 30
0.0
 10
92.18199979065648
 20
298.6352478751394
 30
0.0
 10
92.09126828559558
 20
298.2238564077091
 30
0.0
 10
92.00766290330387
 20
297.9182185674055
 30
0.0
 10
91.90931096193765
 20
297.6168347212101
 30
0.0
 10
91.75829215108313
 20
297.2208615416206
 30
0.0
 10
91.53300956347465
 20
296.7397547329467
 30
0.0
 10
91.20663152870424
 20
296.1901205079517
 30
0.0
 10
90.82676446664581
 20
295.6743926452839
 30
0.0
 10
90.46851002734518
 20
295.2768672430768
 30
0.0
 10
90.15932928965972
 20
294.9813138881635
 30
0.0
 10
89.91640433363494
 20
294.7711289797448
 30
0.0
 10
89.66335543033632
 20
294.573219515411
 30
0.0
 10
89.31357292190172
 20
294.3265961639063
 30
0.0
 10
88.85408768413842
 20
294.0513895546149
 30
0.0
 10
88.27369197715412
 20
293.7773494479103
 30
0.0
 10
87.66953766931218
 20
293.562160970553
 30
0.0
 10
87.0481225219169
 20
293.4074991315106
 30
0.0
 10
86.41485331049529
 20
293.3146887584762
 30
0.0
 10
85.77639384606428
 20
293.2841780086693
 30
0.0
 10
85.13856083249927
 20
293.3162797510522
 30
0.0
 10
84.50813084548423
 20
293.4100928134258
 30
0.0
 10
83.89055717597068
 20
293.5648066297148
 30
0.0
 10
83.29141376453391
 20
293.7786032017896
 30
0.0
 10
82.7159565430755
 20
294.0499245702418
 30
0.0
 10
82.26027115013957
 20
294.3217694538902
 30
0.0
 10
81.91301525242119
 20
294.5652300064879
 30
0.0
 10
81.66139567114084
 20
294.7607125328107
 30
0.0
 10
81.4195206208774
 20
294.968405591499
 30
0.0
 10
81.11058433719366
 20
295.2612431396296
 30
0.0
 10
80.75174158030619
 20
295.655700788582
 30
0.0
 10
80.36951467506903
 20
296.1691854545483
 30
0.0
 10
80.03989022980359
 20
296.7179532332674
 30
0.0
 10
79.8114027838806
 20
297.2000166497622
 30
0.0
 10
79.65790128392032
 20
297.5974262089399
 30
0.0
 10
79.55764448099714
 20
297.9007085722321
 30
0.0
 10
79.47232798807151
 20
298.2085324439358
 30
0.0
 10
79.3795655327036
 20
298.6235733110386
 30
0.0
 10
79.2982731657487
 20
299.1498461100942
 30
0.0
 10
79.28623336625768
 20
299.5746617597796
 30
0.0
 10
79.2802153015
 20
299.7870048384
 30
0.0
 11
92.2790576421
 21
299.7870048367
 31
0.0
 11
92.24851806337875
 21
299.1575058800461
 31
0.0
 11
92.15718678785196
 21
298.5335390822215
 31
0.0
 11
92.08869204916543
 21
298.2244153716848
 31
0.0
 11
92.00527322432866
 21
297.9191533787915
 31
0.0
 11
91.9068864804896
 21
297.6177361195719
 31
0.0
 11
91.79385584938707
 21
297.3213748643352
 31
0.0
 11
91.52387571287225
 21
296.7447448643532
 31
0.0
 11
91.19853909100154
 21
296.1970160925115
 31
0.0
 11
90.81850259617039
 21
295.6809493917501
 31
0.0
 11
90.38965209847544
 21
295.205169755495
 31
0.0
 11
90.15751496410111
 21
294.9832528227488
 31
0.0
 11
89.91473247077488
 21
294.7731872474967
 31
0.0
 11
89.66180286250125
 21
294.5753746746109
 31
0.0
 11
89.39928846668973
 21
294.3902913536199
 31
0.0
 11
88.8492302850858
 21
294.060749127114
 31
0.0
 11
88.2690894533998
 21
293.78689379618
 31
0.0
 11
87.6664841430929
 21
293.5721929125967
 31
0.0
 11
87.04578487278374
 21
293.4177360288914
 31
0.0
 11
86.41385605889263
 21
293.325061054677
 31
0.0
 11
85.77586993173013
 21
293.2946143804319
 31
0.0
 11
85.13957494358644
 21
293.3265882846664
 31
0.0
 11
84.50945166944751
 21
293.4204063728079
 31
0.0
 11
83.89356776119156
 21
293.57466470706
 31
0.0
 11
83.29553529137053
 21
293.7881199901911
 31
0.0
 11
82.72069954282796
 21
294.0590874969892
 31
0.0
 11
82.17523285531567
 21
294.3845763147664
 31
0.0
 11
81.91453056256739
 21
294.5673457429771
 31
0.0
 11
81.66318131078464
 21
294.7626152940664
 31
0.0
 11
81.42129801244604
 21
294.9703204309008
 31
0.0
 11
81.18984218114741
 21
295.1897272771657
 31
0.0
 11
80.7599191502672
 21
295.6622542078359
 31
0.0
 11
80.37829801080939
 21
296.1750453247645
 31
0.0
 11
80.04906653663035
 21
296.7230236059862
 31
0.0
 11
79.77545222948632
 21
297.3003871505504
 31
0.0
 11
79.66035997702636
 21
297.5983517730691
 31
0.0
 11
79.56012028859948
 21
297.9015110416668
 31
0.0
 11
79.47495320838084
 21
298.2091096494756
 31
0.0
 11
79.40499018089741
 21
298.520694468613
 31
0.0
 11
79.3115012839169
 21
299.1509804383147
 31
0.0
 11
79.2802153015
 21
299.7870048384
 31
0.0
  0
SPLINE
  5
F4
330
1F
100
AcDbEntity
  8
BEZUGSACHSEN
  6
Continuous
 62
     7
100
AcDbSpline
210
0.0
220
0.0
230
1.0
 70
     8
 71
     3
 72
    27
 73
    23
 74
    21
 42
0.0000000001
 43
0.0000000001
 44
0.00000001
 40
0.0
 40
0.0
 40
0.0
 40
0.0
 40
0.121976513951634
 40
0.2439857714748878
 40
0.3566831398333828
 40
0.4694418149629599
 40
0.5721317672948555
 40
0.6745445881156041
 40
0.7225206521222011
 40
0.77048887977087
 40
0.8171412936046001
 40
0.8637898734267815
 40
0.910231800082568
 40
0.9566751324135699
 40
1.004175175749463
 40
1.051683100142906
 40
1.153672388761932
 40
1.256049376711164
 40
1.370745138132307
 40
1.485385401913293
 40
1.611534903948996
 40
1.737631875993864
 40
1.737631875993864
 40
1.737631875993864
 40
1.737631875993864
 10
51.9254866799
 20
284.5446688225
 30
0.0
 10
51.89023166229661
 20
284.5243892972351
 30
0.0
 10
51.81971216317621
 20
284.483824802837
 30
0.0
 10
51.71205975999034
 20
284.4330289419454
 30
0.0
 10
51.60390174411909
 20
284.391277306076
 30
0.0
 10
51.49832252315063
 20
284.3618627209349
 30
0.0
 10
51.39349097800493
 20
284.3449481335467
 30
0.0
 10
51.30876330815553
 20
284.3430829103183
 30
0.0
 10
51.2429393717518
 20
284.3500382183382
 30
0.0
 10
51.19623216853775
 20
284.3592353454917
 30
0.0
 10
51.15105155123367
 20
284.3727687904788
 30
0.0
 10
51.10791194058196
 20
284.3905620492849
 30
0.0
 10
51.06695746400378
 20
284.4127904069886
 30
0.0
 10
51.02831003753292
 20
284.4393254386907
 30
0.0
 10
50.99240395889981
 20
284.4700207162219
 30
0.0
 10
50.94696463736166
 20
284.517558189342
 30
0.0
 10
50.89842149727485
 20
284.5867275564456
 30
0.0
 10
50.8521957883076
 20
284.682885611169
 30
0.0
 10
50.818229914525
 20
284.7884610441663
 30
0.0
 10
50.79527449034726
 20
284.9048787350752
 30
0.0
 10
50.78182993199757
 20
285.0266260437309
 30
0.0
 10
50.78037254569959
 20
285.1107294072479
 30
0.0
 10
50.7796440043
 20
285.1527723318
 30
0.0
 11
51.9254866799
 21
284.5446688225
 31
0.0
 11
51.81894205583946
 21
284.4852843713398
 31
0.0
 11
51.70864916667078
 21
284.4331140970431
 31
0.0
 11
51.60333115881836
 21
284.3930040726486
 31
0.0
 11
51.49460743027531
 21
284.3631097643496
 31
0.0
 11
51.39314327815416
 21
284.3472904045565
 31
0.0
 11
51.29074373756976
 21
284.3456411754744
 31
0.0
 11
51.24303988135721
 21
284.35074458806
 31
0.0
 11
51.19598911109576
 21
284.360081390594
 31
0.0
 11
51.15130954366234
 21
284.3735046528828
 31
0.0
 11
51.10820340706641
 21
284.3913358330793
 31
0.0
 11
51.06738081426955
 21
284.4134800979992
 31
0.0
 11
51.02909355772341
 21
284.439768291246
 31
0.0
 11
50.99295646071285
 21
284.4705962710137
 31
0.0
 11
50.96010396034097
 21
284.5049141395298
 31
0.0
 11
50.90093156608715
 21
284.5879830431658
 31
0.0
 11
50.85603184248608
 21
284.6799888173439
 31
0.0
 11
50.82039368291859
 21
284.7890073445336
 31
0.0
 11
50.79754211955235
 21
284.9013469908367
 31
0.0
 11
50.7837753632298
 21
285.0267430565015
 31
0.0
 11
50.7796440043
 21
285.1527723318
 31
0.0
  0
SPLINE
  5
F5
330
1F
100
AcDbEntity
  8
BEZUGSACHSEN
  6
Continuous
 62
     7
100
AcDbSpline
210
0.0
220
0.0
230
1.0
 70
     8
 71
     3
 72
    27
 73
    23
 74
    21
 42
0.0000000001
 43
0.0000000001
 44
0.00000001
 40
0.0
 40
0.0
 40
0.0
 40
0.0
 40
0.1260969825524776
 40
0.2522464959194699
 40
0.3668867952476206
 40
0.4815825893734131
 40
0.5839596006347287
 40
0.6859489160817811
 40
0.7334568410039064
 40
0.7809568848485136
 40
0.8274002263971916
 40
0.8738421606731365
 40
0.9204907318546083
 40
0.967143139888891
 40
1.015111401786501
 40
1.063087497112317
 40
1.165500418746133
 40
1.268190478984818
 40
1.380949153925844
 40
1.493646517788146
 40
1.615655563729041
 40
1.737631867642935
 40
1.737631867642935
 40
1.737631867642935
 40
1.737631867642935
 10
50.7796440043
 20
314.4212373042
 30
0.0
 10
50.78037254577629
 20
314.463280232261
 30
0.0
 10
50.78182993223235
 20
314.5473836030705
 30
0.0
 10
50.79527449418072
 20
314.669130930632
 30
0.0
 10
50.81822992746456
 20
314.7855486470032
 30
0.0
 10
50.85219582779803
 20
314.8911241047791
 30
0.0
 10
50.89842158665635
 20
314.9872821670184
 30
0.0
 10
50.94696475521104
 20
315.0564515326772
 30
0.0
 10
50.99240408076852
 20
315.1039890142942
 30
0.0
 10
51.02831015885951
 20
315.1346842977764
 30
0.0
 10
51.06695758995231
 20
315.1612193334886
 30
0.0
 10
51.1079120771578
 20
315.1834476793837
 30
0.0
 10
51.15105170333337
 20
315.2012408962613
 30
0.0
 10
51.19623233794699
 20
315.2147743033223
 30
0.0
 10
51.24293956093855
 20
315.2239714286565
 30
0.0
 10
51.30876355215497
 20
315.2309267490372
 30
0.0
 10
51.39349130417725
 20
315.2290614924024
 30
0.0
 10
51.49832290769644
 20
315.2121468314646
 30
0.0
 10
51.60390215005667
 20
315.1827321986076
 30
0.0
 10
51.71206008814006
 20
315.1409805611414
 30
0.0
 10
51.81971234938012
 20
315.0901847339384
 30
0.0
 10
51.89023172421566
 20
315.0496203057087
 30
0.0
 10
51.9254866799
 20
315.0293408134
 30
0.0
 11
50.7796440043
 21
314.4212373042
 31
0.0
 11
50.78377536386465
 21
314.547266589991
 31
0.0
 11
50.79754212298566
 21
314.672662666748
 31
0.0
 11
50.8203936990678
 21
314.7850023467395
 31
0.0
 11
50.85603188843867
 21
314.8940208985943
 31
0.0
 11
50.9009316532388
 21
314.9860266786067
 31
0.0
 11
50.96010408219294
 21
315.0690955904632
 31
0.0
 11
50.99295658235447
 21
315.1034134599126
 31
0.0
 11
51.02909367728128
 21
315.1342414429068
 31
0.0
 11
51.06738094214271
 21
315.1605296403276
 31
0.0
 11
51.10820355007998
 21
315.1826738933178
 31
0.0
 11
51.15130969369802
 21
315.2005050339334
 31
0.0
 11
51.19598926574236
 21
315.2139282607188
 31
0.0
 11
51.24304007149824
 21
315.2232650603418
 31
0.0
 11
51.2907439587774
 21
315.228368476959
 31
0.0
 11
51.39314359966802
 21
315.226719215595
 31
0.0
 11
51.49460785000758
 21
315.2108997853002
 31
0.0
 11
51.60333156646153
 21
315.1810054337451
 31
0.0
 11
51.70864955873867
 21
315.1408953810871
 31
0.0
 11
51.81894224460874
 21
315.08872517182
 31
0.0
 11
51.9254866799
 21
315.0293408134
 31
0.0
  0
SPLINE
  5
F6
330
1F
100
AcDbEntity
  8
BEZUGSACHSEN
  6
Continuous
 62
     7
100
AcDbSpline
210
0.0
220
0.0
230
1.0
 70
     8
 71
     3
 72
    15
 73
    11
 74
     9
 42
0.0000000001
 43
0.0000000001
 44
0.00000001
 40
0.0
 40
0.0
 40
0.0
 40
0.0
 40
0.1110371613193968
 40
0.2222522336982726
 40
0.3333980191325906
 40
0.4445069474083554
 40
0.5556201064440427
 40
0.6667525641494209
 40
0.7778876032858844
 40
0.8889820914701392
 40
0.8889820914701392
 40
0.8889820914701392
 40
0.8889820914701392
 10
52.6795695195
 20
284.1104724317
 30
0.0
 10
52.64292779264122
 20
284.1160045845497
 30
0.0
 10
52.56958562913345
 20
284.1270777542289
 30
0.0
 10
52.46306907913365
 20
284.1600963177291
 30
0.0
 10
52.36065617139327
 20
284.2036866051815
 30
0.0
 10
52.26320620578962
 20
284.2574661130022
 30
0.0
 10
52.17090141007348
 20
284.3195612483654
 30
0.0
 10
52.08390478195069
 20
284.3888479220147
 30
0.0
 10
52.00165202650676
 20
284.4637298736269
 30
0.0
 10
51.95087204010526
 20
284.5176924551189
 30
0.0
 10
51.9254866799
 20
284.5446688225
 30
0.0
 11
52.6795695195
 21
284.1104724317
 31
0.0
 11
52.57022723445124
 21
284.129798990995
 31
0.0
 11
52.46373528086315
 21
284.1618654243051
 31
0.0
 11
52.36146710026743
 21
284.2053924832163
 31
0.0
 11
52.2640642338431
 21
284.2588515849195
 31
0.0
 11
52.17179246707106
 21
284.3207551806765
 31
0.0
 11
52.08469536366437
 21
284.3897806667944
 31
0.0
 11
52.00265545917784
 21
284.4647503339652
 31
0.0
 11
51.9254866799
 21
284.5446688225
 31
0.0
  0
SPLINE
  5
F7
330
1F
100
AcDbEntity
  8
BEZUGSACHSEN
  6
Continuous
 62
     7
100
AcDbSpline
210
0.0
220
0.0
230
1.0
 70
     8
 71
     3
 72
    15
 73
    11
 74
     9
 42
0.0000000001
 43
0.0000000001
 44
0.00000001
 40
0.0
 40
0.0
 40
0.0
 40
0.0
 40
0.1110944831360013
 40
0.2222295181505743
 40
0.3333620401960409
 40
0.4444752610264743
 40
0.5555842178392271
 40
0.6667300354336804
 40
0.7779450181819401
 40
0.8889820871029801
 40
0.8889820871029801
 40
0.8889820871029801
 40
0.8889820871029801
 10
51.9254866799
 20
315.0293408134
 30
0.0
 10
51.95087203944119
 20
315.05631717911
 30
0.0
 10
52.00165202472648
 20
315.1102797574843
 30
0.0
 10
52.08390479399989
 20
315.185161720869
 30
0.0
 10
52.1709014459565
 20
315.2544484297722
 30
0.0
 10
52.26320628639674
 20
315.3165435928462
 30
0.0
 10
52.36065630839217
 20
315.3703230849677
 30
0.0
 10
52.46306922226326
 20
315.4139133305571
 30
0.0
 10
52.56958572082537
 20
315.4469318863539
 30
0.0
 10
52.64292782350944
 20
315.4580050529588
 30
0.0
 10
52.6795695195
 20
315.4635372042
 30
0.0
 11
51.9254866799
 21
315.0293408134
 31
0.0
 11
52.00265545692691
 21
315.1092592970907
 31
0.0
 11
52.08469535717828
 21
315.1842289627858
 31
0.0
 11
52.17179250579144
 21
315.2532544954505
 31
0.0
 11
52.2640643273786
 21
315.3151581204195
 31
0.0
 11
52.36146723547406
 21
315.3686172055086
 31
0.0
 11
52.46373545887434
 21
315.4121442459696
 31
0.0
 11
52.5702273269665
 21
315.4442106523466
 31
0.0
 11
52.6795695195
 21
315.4635372042
 31
0.0
  0
SPLINE
  5
F8
330
1F
100
AcDbEntity
  8
0
  6
Continuous
 62
     7
100
AcDbSpline
210
0.0
220
0.0
230
1.0
 70
     8
 71
     3
 72
    19
 73
    15
 74
    13
 42
0.0000000001
 43
0.0000000001
 44
0.00000001
 40
0.0
 40
0.0
 40
0.0
 40
0.0
 40
0.1162460235718609
 40
0.2327881717960528
 40
0.3491890045907625
 40
0.4655468550672152
 40
0.5819071370082144
 40
0.698273848948499
 40
0.814620607303659
 40
0.9309998278427773
 40
1.163276323470233
 40
1.39613892180815
 40
1.629013178105897
 40
1.86135153976574
 40
1.86135153976574
 40
1.86135153976574
 40
1.86135153976574
 10
119.9046440043
 20
266.2646242343
 30
0.0
 10
119.865859933459
 20
266.2627832874048
 30
0.0
 10
119.7881929933912
 20
266.2590967039935
 30
0.0
 10
119.6745829083339
 20
266.2306912189893
 30
0.0
 10
119.5663952203836
 20
266.1868373047708
 30
0.0
 10
119.4654193544061
 20
266.1282406165444
 30
0.0
 10
119.3726508976529
 20
266.0575557552224
 30
0.0
 10
119.2885635186365
 20
265.9767981501418
 30
0.0
 10
119.2132598752468
 20
265.8878305113982
 30
0.0
 10
119.1246086310842
 20
265.760471063646
 30
0.0
 10
119.0346118853791
 20
265.5876856855494
 30
0.0
 10
118.9597183662597
 20
265.3667606953585
 30
0.0
 10
118.9131814409336
 20
265.1377407757729
 30
0.0
 10
118.9074876302115
 20
264.9825613829396
 30
0.0
 10
118.9046440043
 20
264.9050610648
 30
0.0
 11
119.9046440043
 21
266.2646242343
 31
0.0
 11
119.7887726527496
 21
266.255298576889
 31
0.0
 11
119.6754481280615
 21
266.2281025401017
 31
0.0
 11
119.5675749954503
 21
266.1843699305758
 31
0.0
 11
119.4667862559255
 21
266.1262254609118
 31
0.0
 11
119.3740989508447
 21
266.0558779045204
 31
0.0
 11
119.2900235851859
 21
265.9754257787739
 31
0.0
 11
119.2147248272404
 21
265.8867315555594
 31
0.0
 11
119.1480980979289
 21
265.7913114218635
 31
0.0
 11
119.0402083118545
 21
265.58561221311
 31
0.0
 11
118.9644501750419
 21
265.3654175392159
 31
0.0
 11
118.9194901612428
 21
265.1369246150247
 31
0.0
 11
118.9046440043
 21
264.9050610648
 31
0.0
  0
SPLINE
  5
F9
330
1F
100
AcDbEntity
  8
0
  6
Continuous
 62
     7
100
AcDbSpline
210
0.0
220
0.0
230
1.0
 70
     8
 71
     3
 72
    19
 73
    15
 74
    13
 42
0.0000000001
 43
0.0000000001
 44
0.00000001
 40
0.0
 40
0.0
 40
0.0
 40
0.0
 40
0.2323383481158608
 40
0.4652125957009675
 40
0.698076113267224
 40
0.9303535187254014
 40
1.046733461807728
 40
1.163080940895843
 40
1.279447997469266
 40
1.395808629563654
 40
1.512165904526749
 40
1.628566140366683
 40
1.745106920566913
 40
1.861351602832013
 40
1.861351602832013
 40
1.861351602832013
 40
1.861351602832013
 10
122.6546440043
 20
264.9050610648
 30
0.0
 10
122.6518003786945
 20
264.9825613784589
 30
0.0
 10
122.6461065685256
 20
265.1377407639425
 30
0.0
 10
122.5995695926857
 20
265.366760977957
 30
0.0
 10
122.5246758469254
 20
265.5876865398511
 30
0.0
 10
122.4346785426756
 20
265.7604726040719
 30
0.0
 10
122.3460266048707
 20
265.8878325298074
 30
0.0
 10
122.2707223405168
 20
265.9768004287365
 30
0.0
 10
122.1866343667006
 20
266.0575580987054
 30
0.0
 10
122.0938656328702
 20
266.1282426650772
 30
0.0
 10
121.9928898206159
 20
266.1868388892183
 30
0.0
 10
121.8847027711016
 20
266.2306921403542
 30
0.0
 10
121.7710936617577
 20
266.25909689985
 30
0.0
 10
121.6934276269625
 20
266.262783352512
 30
0.0
 10
121.6546440043
 20
266.2646242343
 30
0.0
 11
122.6546440043
 21
264.9050610648
 31
0.0
 11
122.6397978501822
 21
265.1369246016339
 31
0.0
 11
122.5948378485936
 21
265.3654175193479
 31
0.0
 11
122.5190793699112
 21
265.5856130477337
 31
0.0
 11
122.4111889587336
 21
265.7913129560037
 31
0.0
 11
122.3445616348894
 21
265.8867335558195
 31
0.0
 11
122.2692621783226
 21
265.9754281313633
 31
0.0
 11
122.1851863119921
 21
266.0558802323698
 31
0.0
 11
122.0924984860228
 21
266.1262276816375
 31
0.0
 11
121.9917100511182
 21
266.1843715276259
 31
0.0
 11
121.8838373223266
 21
266.2281035443488
 31
0.0
 11
121.7705140337727
 21
266.2552988697009
 31
0.0
 11
121.6546440043
 21
266.2646242343
 31
0.0
  0
SPLINE
  5
FA
330
1F
100
AcDbEntity
  8
BEZUGSACHSEN
  6
Continuous
 62
     7
100
AcDbSpline
210
0.0
220
0.0
230
1.0
 70
     8
 71
     3
 72
    11
 73
     7
 74
     5
 42
0.0000000001
 43
0.0000000001
 44
0.00000001
 40
0.0
 40
0.0
 40
0.0
 40
0.0
 40
0.5462907431223426
 40
1.093000863646274
 40
1.646070107189938
 40
2.198197048704424
 40
2.198197048704424
 40
2.198197048704424
 40
2.198197048704424
 10
60.3334899512
 20
314.797004818
 30
0.0
 10
60.39656075305892
 20
314.6260731887656
 30
0.0
 10
60.52275077507656
 20
314.2840787092145
 30
0.0
 10
60.66238808805169
 20
313.7528045799728
 30
0.0
 10
60.75987645210547
 20
313.2093801750312
 30
0.0
 10
60.77305856663887
 20
312.8407955344814
 30
0.0
 10
60.7796440043
 20
312.6566603438
 30
0.0
 11
60.3334899512
 21
314.797004818
 31
0.0
 11
60.51434128380428
 21
314.2815182793626
 31
0.0
 11
60.6548327684775
 21
313.7531679234266
 31
0.0
 11
60.74689942173283
 21
313.207815450697
 31
0.0
 11
60.7796440043
 21
312.6566603438
 31
0.0
  0
SPLINE
  5
FB
330
1F
100
AcDbEntity
  8
BEZUGSACHSEN
  6
Continuous
 62
     7
100
AcDbSpline
210
0.0
220
0.0
230
1.0
 70
     8
 71
     3
 72
    11
 73
     7
 74
     5
 42
0.0000000001
 43
0.0000000001
 44
0.00000001
 40
0.0
 40
0.0
 40
0.0
 40
0.0
 40
0.9140556660003507
 40
1.828030949185949
 40
2.279806974871074
 40
2.730944124762515
 40
2.730944124762515
 40
2.730944124762515
 40
2.730944124762515
 10
52.0465969311854
 20
284.777004818185
 30
0.0
 10
52.17925163814878
 20
285.0517214158515
 30
0.0
 10
52.44454938631041
 20
285.6011304523788
 30
0.0
 10
52.65990459962302
 20
286.3338413734837
 30
0.0
 10
52.7635988132854
 20
286.9317865795897
 30
0.0
 10
52.7742981308065
 20
287.2329097950165
 30
0.0
 10
52.7796440043
 20
287.3833648696
 30
0.0
 11
52.0465969311854
 21
284.777004818185
 31
0.0
 11
52.4214044609609
 21
285.6106816597555
 31
0.0
 11
52.68069582135877
 21
286.487105534771
 31
0.0
 11
52.75341279485738
 21
286.9329909675326
 31
0.0
 11
52.7796440043
 21
287.3833648696
 31
0.0
  0
SPLINE
  5
FC
330
1F
100
AcDbEntity
  8
BEZUGSACHSEN
  6
Continuous
 62
     7
100
AcDbSpline
210
0.0
220
0.0
230
1.0
 70
     8
 71
     3
 72
    11
 73
     7
 74
     5
 42
0.0000000001
 43
0.0000000001
 44
0.00000001
 40
0.0
 40
0.0
 40
0.0
 40
0.0
 40
0.8249192366724755
 40
1.650116891930991
 40
2.19049215229343
 40
2.730585915378196
 40
2.730585915378196
 40
2.730585915378196
 40
2.730585915378196
 10
52.7796440043
 20
312.1906447664
 30
0.0
 10
52.76191069996182
 20
312.4658350583769
 30
0.0
 10
52.72643810611586
 20
313.0163085218377
 30
0.0
 10
52.51800328948045
 20
313.7210421069906
 30
0.0
 10
52.28777685850077
 20
314.3132558320708
 30
0.0
 10
52.12697627569882
 20
314.6357831655159
 30
0.0
 10
52.0465969311854
 20
314.797004817815
 30
0.0
 11
52.7796440043
 21
312.1906447664
 31
0.0
 11
52.69606855018426
 21
313.0113194220959
 31
0.0
 11
52.47810710807248
 21
313.8072113619953
 31
0.0
 11
52.2801720295133
 21
314.310030540913
 31
0.0
 11
52.0465969311854
 21
314.797004817815
 31
0.0
  0
DIMENSION
  5
107
330
1F
100
AcDbEntity
  8
1
100
AcDbDimension
  2
*D2
 10
207.083174177432
 20
306.787004818
 30
0.0
 11
203.333174177432
 21
299.699571123624
 31
0.0
 70
    32
  1
<>
 71
     5
 42
-1.0
 53
90.0
  3
ME10_DIM_10
100
AcDbAlignedDimension
 13
195.7796440043
 23
292.787004818
 33
0.0
 14
195.7796440043
 24
306.787004818
 34
0.0
 50
90.0
100
AcDbRotatedDimension
  0
DIMENSION
  5
112
330
1F
100
AcDbEntity
  8
1
100
AcDbDimension
  2
*D3
 10
215.620167790712
 20
313.2870048180528
 30
0.0
 11
211.870167790712
 21
299.699571123624
 31
0.0
 70
    32
  1
<>
 71
     5
 42
-1.0
 53
90.0
  3
ME10_DIM_11
100
AcDbAlignedDimension
 13
195.7796440043
 23
286.2870048179486
 33
0.0
 14
195.7796440043094
 24
313.2870048180528
 34
0.0
 50
90.0
100
AcDbRotatedDimension
  0
DIMENSION
  5
11D
330
1F
100
AcDbEntity
  8
1
100
AcDbDimension
  2
*D4
 10
224.312379469689
 20
316.787004818
 30
0.0
 11
220.562379469689
 21
299.389134992232
 31
0.0
 70
    32
  1
<>
 71
     5
 42
-1.0
 53
90.0
  3
ME10_DIM_12
100
AcDbAlignedDimension
 13
151.3079274277
 23
282.787004818
 33
0.0
 14
151.3079274277
 24
316.787004818
 34
0.0
 50
90.0
100
AcDbRotatedDimension
  0
DIMENSION
  5
128
330
1F
100
AcDbEntity
  8
1
100
AcDbDimension
  2
*D5
 10
195.7796440043
 20
356.975037365452
 30
0.0
 11
162.535589322677
 21
360.725037365452
 31
0.0
 70
    32
  1
<>
 71
     5
 42
-1.0
 53
0.00013888888889
  3
ME10_DIM_13
100
AcDbAlignedDimension
 13
129.7796440043
 23
349.7869678969
 33
0.0
 14
195.7796440043
 24
312.3626143263
 34
0.0
100
AcDbRotatedDimension
  0
DIMENSION
  5
133
330
1F
100
AcDbEntity
  8
1
100
AcDbDimension
  2
*D6
 10
195.7796440043
 20
364.270286453165
 30
0.0
 11
152.446415052436
 21
368.020286453165
 31
0.0
 70
    32
  1
<>
 71
     5
 42
-1.0
 53
0.00013888888889
  3
ME10_DIM_14
100
AcDbAlignedDimension
 13
100.7796440043
 23
349.787004818
 33
0.0
 14
195.7796440043
 24
312.3626143263
 34
0.0
100
AcDbRotatedDimension
  0
DIMENSION
  5
13E
330
1F
100
AcDbEntity
  8
1
100
AcDbDimension
  2
*D7
 10
195.7796440043
 20
371.410317475181
 30
0.0
 11
129.163705198035
 21
375.160317475181
 31
0.0
 70
    32
  1
<>
 71
     5
 42
-1.0
 53
0.00013888888889
  3
ME10_DIM_15
100
AcDbAlignedDimension
 13
50.7796440043
 23
333.3871963806
 33
0.0
 14
195.7796440043
 24
312.3626143263
 34
0.0
100
AcDbRotatedDimension
  0
INSERT
  5
145
330
1F
100
AcDbEntity
  8
1
100
AcDbBlockReference
  2
*D8
 10
0.0
 20
0.0
 30
0.0
  0
DIMENSION
  5
150
330
1F
100
AcDbEntity
  8
1
100
AcDbDimension
  2
*D9
 10
178.1764570250106
 20
315.7313374149897
 30
0.0
 11
181.0804407500538
 21
324.0231445814465
 31
0.0
 70
    37
  1
<>
 71
     5
 42
-1.0
  3
ME10_DIM_16
100
AcDb3PointAngularDimension
 13
178.1142970546815
 23
314.6772977745985
 33
0.0
 14
153.9968534519471
 24
316.787004818
 34
0.0
 15
151.3079274277
 25
316.787004818
 35
0.0
  0
ENDSEC
  0
SECTION
  2
OBJECTS
  0
DICTIONARY
  5
C
330
0
100
AcDbDictionary
281
     1
  3
ACAD_GROUP
350
D
  3
ACAD_LAYOUT
350
1A
  3
ACAD_MLEADERSTYLE
350
153
  3
ACAD_MLINESTYLE
350
17
  3
ACAD_PLOTSETTINGS
350
19
  3
ACAD_PLOTSTYLENAME
350
E
  3
ACAD_SCALELIST
350
4A
  3
ACAD_VISUALSTYLE
350
2A
  3
AcDbVariableDictionary
350
151
  0
DICTIONARY
  5
D
102
{ACAD_REACTORS
330
C
102
}
330
C
100
AcDbDictionary
281
     1
  0
DICTIONARY
  5
1A
102
{ACAD_REACTORS
330
C
102
}
330
C
100
AcDbDictionary
281
     1
  3
Layout1
350
1E
  3
Layout2
350
26
  3
Model
350
22
  0
DICTIONARY
  5
153
102
{ACAD_REACTORS
330
C
102
}
330
C
100
AcDbDictionary
281
     1
  0
DICTIONARY
  5
17
102
{ACAD_REACTORS
330
C
102
}
330
C
100
AcDbDictionary
281
     1
  3
Standard
350
18
  0
DICTIONARY
  5
19
102
{ACAD_REACTORS
330
C
102
}
330
C
100
AcDbDictionary
281
     1
  0
ACDBDICTIONARYWDFLT
  5
E
102
{ACAD_REACTORS
330
C
102
}
330
C
100
AcDbDictionary
281
     1
  3
Normal
350
F
100
AcDbDictionaryWithDefault
340
F
  0
DICTIONARY
  5
4A
102
{ACAD_REACTORS
330
C
102
}
330
C
100
AcDbDictionary
281
     1
  3
A0
350
4B
  3
A1
350
4C
  3
A2
350
4D
  3
A3
350
4E
  3
A4
350
4F
  3
A5
350
50
  3
A6
350
51
  3
A7
350
52
  3
A8
350
53
  3
A9
350
54
  3
B0
350
55
  3
B1
350
56
  3
B2
350
57
  3
B3
350
58
  3
B4
350
59
  3
B5
350
5A
  3
B6
350
5B
  3
B7
350
5C
  3
B8
350
5D
  3
B9
350
5E
  3
C0
350
5F
  3
C1
350
60
  3
C2
350
61
  3
C3
350
62
  3
C4
350
63
  3
C5
350
64
  3
C6
350
65
  3
C7
350
66
  3
C8
350
67
  3
C9
350
68
  3
D0
350
69
  3
D1
350
6A
  3
D2
350
6B
  0
DICTIONARY
  5
2A
102
{ACAD_REACTORS
330
C
102
}
330
C
100
AcDbDictionary
281
     1
  3
2dWireframe
350
2F
  3
3D Hidden
350
31
  3
3dWireframe
350
30
  3
Basic
350
32
  3
Brighten
350
36
  3
ColorChange
350
3A
  3
Conceptual
350
34
  3
Dim
350
35
  3
Facepattern
350
39
  3
Flat
350
2B
  3
FlatWithEdges
350
2C
  3
Gouraud
350
2D
  3
GouraudWithEdges
350
2E
  3
Linepattern
350
38
  3
Realistic
350
33
  3
Thicken
350
37
  0
DICTIONARY
  5
151
102
{ACAD_REACTORS
330
C
102
}
330
C
100
AcDbDictionary
281
     1
  3
CANNOSCALE
350
154
  0
LAYOUT
  5
1E
102
{ACAD_REACTORS
330
1A
102
}
330
1A
100
AcDbPlotSettings
  1

  2
none_device
  4

  6

 40
0.0
 41
0.0
 42
0.0
 43
0.0
 44
0.0
 45
0.0
 46
0.0
 47
0.0
 48
0.0
 49
0.0
140
0.0
141
0.0
142
1.0
143
1.0
 70
   688
 72
     0
 73
     0
 74
     5
  7

 75
    16
147
1.0
148
0.0
149
0.0
100
AcDbLayout
  1
Layout1
 70
     1
 71
     1
 10
0.0
 20
0.0
 11
12.0
 21
9.0
 12
0.0
 22
0.0
 32
0.0
 14
1.00000000000000E+20
 24
1.00000000000000E+20
 34
1.00000000000000E+20
 15
-1.00000000000000E+20
 25
-1.00000000000000E+20
 35
-1.00000000000000E+20
146
0.0
 13
0.0
 23
0.0
 33
0.0
 16
1.0
 26
0.0
 36
0.0
 17
0.0
 27
1.0
 37
0.0
 76
     0
330
1B
  0
LAYOUT
  5
26
102
{ACAD_REACTORS
330
1A
102
}
330
1A
100
AcDbPlotSettings
  1

  2
none_device
  4

  6

 40
0.0
 41
0.0
 42
0.0
 43
0.0
 44
0.0
 45
0.0
 46
0.0
 47
0.0
 48
0.0
 49
0.0
140
0.0
141
0.0
142
1.0
143
1.0
 70
   688
 72
     0
 73
     0
 74
     5
  7

 75
    16
147
1.0
148
0.0
149
0.0
100
AcDbLayout
  1
Layout2
 70
     1
 71
     2
 10
0.0
 20
0.0
 11
0.0
 21
0.0
 12
0.0
 22
0.0
 32
0.0
 14
0.0
 24
0.0
 34
0.0
 15
0.0
 25
0.0
 35
0.0
146
0.0
 13
0.0
 23
0.0
 33
0.0
 16
1.0
 26
0.0
 36
0.0
 17
0.0
 27
1.0
 37
0.0
 76
     0
330
23
  0
LAYOUT
  5
22
102
{ACAD_REACTORS
330
1A
102
}
330
1A
100
AcDbPlotSettings
  1

  2
none_device
  4

  6

 40
0.0
 41
0.0
 42
0.0
 43
0.0
 44
0.0
 45
0.0
 46
0.0
 47
0.0
 48
0.0
 49
0.0
140
0.0
141
0.0
142
1.0
143
1.0
 70
  1712
 72
     0
 73
     0
 74
     0
  7

 75
     0
147
1.0
148
0.0
149
0.0
100
AcDbLayout
  1
Model
 70
     1
 71
     0
 10
0.0
 20
0.0
 11
12.0
 21
9.0
 12
0.0
 22
0.0
 32
0.0
 14
26.999843882701
 24
249.787004818
 34
0.0
 15
226.312379469689
 25
376.910317475181
 35
0.0
146
0.0
 13
0.0
 23
0.0
 33
0.0
 16
1.0
 26
0.0
 36
0.0
 17
0.0
 27
1.0
 37
0.0
 76
     0
330
1F
331
29
  0
MLINESTYLE
  5
18
102
{ACAD_REACTORS
330
17
102
}
330
17
100
AcDbMlineStyle
  2
Standard
 70
     0
  3

 62
   256
 51
90.0
 52
90.0
 71
     2
 49
0.5
 62
   256
  6
BYLAYER
 49
-0.5
 62
   256
  6
BYLAYER
  0
ACDBPLACEHOLDER
  5
F
102
{ACAD_REACTORS
330
E
102
}
330
E
  0
SCALE
  5
4B
102
{ACAD_REACTORS
330
4A
102
}
330
4A
100
AcDbScale
 70
     0
300
1:1
140
1.0
141
1.0
290
     1
  0
SCALE
  5
4C
102
{ACAD_REACTORS
330
4A
102
}
330
4A
100
AcDbScale
 70
     0
300
1:2
140
1.0
141
2.0
290
     0
  0
SCALE
  5
4D
102
{ACAD_REACTORS
330
4A
102
}
330
4A
100
AcDbScale
 70
     0
300
1:4
140
1.0
141
4.0
290
     0
  0
SCALE
  5
4E
102
{ACAD_REACTORS
330
4A
102
}
330
4A
100
AcDbScale
 70
     0
300
1:5
140
1.0
141
5.0
290
     0
  0
SCALE
  5
4F
102
{ACAD_REACTORS
330
4A
102
}
330
4A
100
AcDbScale
 70
     0
300
1:8
140
1.0
141
8.0
290
     0
  0
SCALE
  5
50
102
{ACAD_REACTORS
330
4A
102
}
330
4A
100
AcDbScale
 70
     0
300
1:10
140
1.0
141
10.0
290
     0
  0
SCALE
  5
51
102
{ACAD_REACTORS
330
4A
102
}
330
4A
100
AcDbScale
 70
     0
300
1:16
140
1.0
141
16.0
290
     0
  0
SCALE
  5
52
102
{ACAD_REACTORS
330
4A
102
}
330
4A
100
AcDbScale
 70
     0
300
1:20
140
1.0
141
20.0
290
     0
  0
SCALE
  5
53
102
{ACAD_REACTORS
330
4A
102
}
330
4A
100
AcDbScale
 70
     0
300
1:30
140
1.0
141
30.0
290
     0
  0
SCALE
  5
54
102
{ACAD_REACTORS
330
4A
102
}
330
4A
100
AcDbScale
 70
     0
300
1:40
140
1.0
141
40.0
290
     0
  0
SCALE
  5
55
102
{ACAD_REACTORS
330
4A
102
}
330
4A
100
AcDbScale
 70
     0
300
1:50
140
1.0
141
50.0
290
     0
  0
SCALE
  5
56
102
{ACAD_REACTORS
330
4A
102
}
330
4A
100
AcDbScale
 70
     0
300
1:100
140
1.0
141
100.0
290
     0
  0
SCALE
  5
57
102
{ACAD_REACTORS
330
4A
102
}
330
4A
100
AcDbScale
 70
     0
300
2:1
140
2.0
141
1.0
290
     0
  0
SCALE
  5
58
102
{ACAD_REACTORS
330
4A
102
}
330
4A
100
AcDbScale
 70
     0
300
4:1
140
4.0
141
1.0
290
     0
  0
SCALE
  5
59
102
{ACAD_REACTORS
330
4A
102
}
330
4A
100
AcDbScale
 70
     0
300
8:1
140
8.0
141
1.0
290
     0
  0
SCALE
  5
5A
102
{ACAD_REACTORS
330
4A
102
}
330
4A
100
AcDbScale
 70
     0
300
10:1
140
10.0
141
1.0
290
     0
  0
SCALE
  5
5B
102
{ACAD_REACTORS
330
4A
102
}
330
4A
100
AcDbScale
 70
     0
300
100:1
140
100.0
141
1.0
290
     0
  0
SCALE
  5
5C
102
{ACAD_REACTORS
330
4A
102
}
330
4A
100
AcDbScale
 70
     0
300
1/128" = 1'-0"
140
0.0078125
141
12.0
290
     0
  0
SCALE
  5
5D
102
{ACAD_REACTORS
330
4A
102
}
330
4A
100
AcDbScale
 70
     0
300
1/64" = 1'-0"
140
0.015625
141
12.0
290
     0
  0
SCALE
  5
5E
102
{ACAD_REACTORS
330
4A
102
}
330
4A
100
AcDbScale
 70
     0
300
1/32" = 1'-0"
140
0.03125
141
12.0
290
     0
  0
SCALE
  5
5F
102
{ACAD_REACTORS
330
4A
102
}
330
4A
100
AcDbScale
 70
     0
300
1/16" = 1'-0"
140
0.0625
141
12.0
290
     0
  0
SCALE
  5
60
102
{ACAD_REACTORS
330
4A
102
}
330
4A
100
AcDbScale
 70
     0
300
3/32" = 1'-0"
140
0.09375
141
12.0
290
     0
  0
SCALE
  5
61
102
{ACAD_REACTORS
330
4A
102
}
330
4A
100
AcDbScale
 70
     0
300
1/8" = 1'-0"
140
0.125
141
12.0
290
     0
  0
SCALE
  5
62
102
{ACAD_REACTORS
330
4A
102
}
330
4A
100
AcDbScale
 70
     0
300
3/16" = 1'-0"
140
0.1875
141
12.0
290
     0
  0
SCALE
  5
63
102
{ACAD_REACTORS
330
4A
102
}
330
4A
100
AcDbScale
 70
     0
300
1/4" = 1'-0"
140
0.25
141
12.0
290
     0
  0
SCALE
  5
64
102
{ACAD_REACTORS
330
4A
102
}
330
4A
100
AcDbScale
 70
     0
300
3/8" = 1'-0"
140
0.375
141
12.0
290
     0
  0
SCALE
  5
65
102
{ACAD_REACTORS
330
4A
102
}
330
4A
100
AcDbScale
 70
     0
300
1/2" = 1'-0"
140
0.5
141
12.0
290
     0
  0
SCALE
  5
66
102
{ACAD_REACTORS
330
4A
102
}
330
4A
100
AcDbScale
 70
     0
300
3/4" = 1'-0"
140
0.75
141
12.0
290
     0
  0
SCALE
  5
67
102
{ACAD_REACTORS
330
4A
102
}
330
4A
100
AcDbScale
 70
     0
300
1" = 1'-0"
140
1.0
141
12.0
290
     0
  0
SCALE
  5
68
102
{ACAD_REACTORS
330
4A
102
}
330
4A
100
AcDbScale
 70
     0
300
1-1/2" = 1'-0"
140
1.5
141
12.0
290
     0
  0
SCALE
  5
69
102
{ACAD_REACTORS
330
4A
102
}
330
4A
100
AcDbScale
 70
     0
300
3" = 1'-0"
140
3.0
141
12.0
290
     0
  0
SCALE
  5
6A
102
{ACAD_REACTORS
330
4A
102
}
330
4A
100
AcDbScale
 70
     0
300
6" = 1'-0"
140
6.0
141
12.0
290
     0
  0
SCALE
  5
6B
102
{ACAD_REACTORS
330
4A
102
}
330
4A
100
AcDbScale
 70
     0
300
1'-0" = 1'-0"
140
12.0
141
12.0
290
     0
  0
VISUALSTYLE
  5
2F
102
{ACAD_REACTORS
330
2A
102
}
330
2A
100
AcDbVisualStyle
  2
2dWireframe
 70
     4
 71
     0
 72
     2
 73
     0
 90
        0
 40
-0.6
 41
-30.0
 62
     5
 63
     7
 74
     1
 91
        4
 64
     7
 65
   257
 75
     1
175
     1
 42
1.0
 92
        0
 66
   257
 43
1.0
 76
     1
 77
     6
 78
     2
 67
     7
 79
     5
170
     0
171
     0
290
     0
174
     0
 93
        1
 44
0.0
173
     0
291
     0
 45
0.0
1001
ACAD
1000
AcDbSavedByObjectVersion
1070
     0
  0
VISUALSTYLE
  5
31
102
{ACAD_REACTORS
330
2A
102
}
330
2A
100
AcDbVisualStyle
  2
3D Hidden
 70
     6
 71
     1
 72
     2
 73
     2
 90
        0
 40
-0.6
 41
-30.0
 62
     5
 63
     7
 74
     2
 91
        2
 64
     7
 65
   257
 75
     2
175
     1
 42
40.0
 92
        0
 66
   257
 43
1.0
 76
     1
 77
     6
 78
     2
 67
     7
 79
     3
170
     0
171
     0
290
     0
174
     0
 93
        1
 44
0.0
173
     0
291
     0
 45
0.0
1001
ACAD
1000
AcDbSavedByObjectVersion
1070
     0
  0
VISUALSTYLE
  5
30
102
{ACAD_REACTORS
330
2A
102
}
330
2A
100
AcDbVisualStyle
  2
3dWireframe
 70
     5
 71
     0
 72
     2
 73
     0
 90
        0
 40
-0.6
 41
-30.0
 62
     5
 63
     7
 74
     1
 91
        4
 64
     7
 65
   257
 75
     1
175
     1
 42
1.0
 92
        0
 66
   257
 43
1.0
 76
     1
 77
     6
 78
     2
 67
     7
 79
     5
170
     0
171
     0
290
     0
174
     0
 93
        1
 44
0.0
173
     0
291
     0
 45
0.0
1001
ACAD
1000
AcDbSavedByObjectVersion
1070
     0
  0
VISUALSTYLE
  5
32
102
{ACAD_REACTORS
330
2A
102
}
330
2A
100
AcDbVisualStyle
  2
Basic
 70
     7
 71
     1
 72
     0
 73
     1
 90
        0
 40
-0.6
 41
-30.0
 62
     5
 63
     7
 74
     0
 91
        4
 64
     7
 65
   257
 75
     1
175
     1
 42
1.0
 92
        8
 66
     7
 43
1.0
 76
     1
 77
     6
 78
     2
 67
     7
 79
     5
170
     0
171
     0
290
     0
174
     0
 93
        1
 44
0.0
173
     0
291
     1
 45
0.0
1001
ACAD
1000
AcDbSavedByObjectVersion
1070
     0
  0
VISUALSTYLE
  5
36
102
{ACAD_REACTORS
330
2A
102
}
330
2A
100
AcDbVisualStyle
  2
Brighten
 70
    12
 71
     2
 72
     2
 73
     0
 90
        0
 40
-0.6
 41
-30.0
 62
     5
 63
     7
 74
     1
 91
        4
 64
     7
 65
   257
 75
     1
175
     1
 42
1.0
 92
        8
 66
     7
 43
1.0
 76
     1
 77
     6
 78
     2
 67
     7
 79
     5
170
     0
171
     0
290
     0
174
     0
 93
        1
 44
50.0
173
     0
291
     1
 45
0.0
1001
ACAD
1000
AcDbSavedByObjectVersion
1070
     0
  0
VISUALSTYLE
  5
3A
102
{ACAD_REACTORS
330
2A
102
}
330
2A
100
AcDbVisualStyle
  2
ColorChange
 70
    16
 71
     2
 72
     2
 73
     3
 90
        0
 40
-0.6
 41
-30.0
 62
     5
 63
     8
 74
     1
 91
        4
 64
     7
 65
   257
 75
     1
175
     1
 42
1.0
 92
        8
 66
     8
 43
1.0
 76
     1
 77
     6
 78
     2
 67
     7
 79
     5
170
     0
171
     0
290
     0
174
     0
 93
        1
 44
0.0
173
     0
291
     1
 45
0.0
1001
ACAD
1000
AcDbSavedByObjectVersion
1070
     0
  0
VISUALSTYLE
  5
34
102
{ACAD_REACTORS
330
2A
102
}
330
2A
100
AcDbVisualStyle
  2
Conceptual
 70
     9
 71
     3
 72
     2
 73
     0
 90
        0
 40
-0.6
 41
-30.0
 62
     5
 63
     7
 74
     2
 91
        2
 64
     7
 65
   257
 75
     1
175
     1
 42
40.0
 92
        8
 66
     7
 43
1.0
 76
     1
 77
     6
 78
     2
 67
     7
 79
     3
170
     0
171
     0
290
     0
174
     0
 93
        1
 44
0.0
173
     0
291
     0
 45
0.0
1001
ACAD
1000
AcDbSavedByObjectVersion
1070
     0
  0
VISUALSTYLE
  5
35
102
{ACAD_REACTORS
330
2A
102
}
330
2A
100
AcDbVisualStyle
  2
Dim
 70
    11
 71
     2
 72
     2
 73
     0
 90
        0
 40
-0.6
 41
-30.0
 62
     5
 63
     7
 74
     1
 91
        4
 64
     7
 65
   257
 75
     1
175
     1
 42
1.0
 92
        8
 66
     7
 43
1.0
 76
     1
 77
     6
 78
     2
 67
     7
 79
     5
170
     0
171
     0
290
     0
174
     0
 93
        1
 44
-50.0
173
     0
291
     1
 45
0.0
1001
ACAD
1000
AcDbSavedByObjectVersion
1070
     0
  0
VISUALSTYLE
  5
39
102
{ACAD_REACTORS
330
2A
102
}
330
2A
100
AcDbVisualStyle
  2
Facepattern
 70
    15
 71
     2
 72
     2
 73
     0
 90
        0
 40
-0.6
 41
-30.0
 62
     5
 63
     7
 74
     1
 91
        4
 64
     7
 65
   257
 75
     1
175
     1
 42
1.0
 92
        8
 66
     7
 43
1.0
 76
     1
 77
     6
 78
     2
 67
     7
 79
     5
170
     0
171
     0
290
     0
174
     0
 93
        1
 44
0.0
173
     0
291
     1
 45
0.0
1001
ACAD
1000
AcDbSavedByObjectVersion
1070
     0
  0
VISUALSTYLE
  5
2B
102
{ACAD_REACTORS
330
2A
102
}
330
2A
100
AcDbVisualStyle
  2
Flat
 70
     0
 71
     2
 72
     1
 73
     1
 90
        2
 40
-0.6
 41
30.0
 62
     5
 63
     7
 74
     0
 91
        4
 64
     7
 65
   257
 75
     1
175
     1
 42
1.0
 92
        8
 66
     7
 43
1.0
 76
     1
 77
     6
 78
     2
 67
     7
 79
     5
170
     0
171
     0
290
     0
174
     0
 93
       13
 44
0.0
173
     0
291
     1
 45
0.0
1001
ACAD
1000
AcDbSavedByObjectVersion
1070
     0
  0
VISUALSTYLE
  5
2C
102
{ACAD_REACTORS
330
2A
102
}
330
2A
100
AcDbVisualStyle
  2
FlatWithEdges
 70
     1
 71
     2
 72
     1
 73
     1
 90
        2
 40
-0.6
 41
30.0
 62
     5
 63
     7
 74
     1
 91
        4
 64
     7
 65
   257
 75
     1
175
     1
 42
1.0
 92
        0
 66
   257
 43
1.0
 76
     1
 77
     6
 78
     2
 67
     7
 79
     5
170
     0
171
     0
290
     0
174
     0
 93
       13
 44
0.0
173
     0
291
     1
 45
0.0
1001
ACAD
1000
AcDbSavedByObjectVersion
1070
     0
  0
VISUALSTYLE
  5
2D
102
{ACAD_REACTORS
330
2A
102
}
330
2A
100
AcDbVisualStyle
  2
Gouraud
 70
     2
 71
     2
 72
     2
 73
     1
 90
        2
 40
-0.6
 41
30.0
 62
     5
 63
     7
 74
     0
 91
        4
 64
     7
 65
   257
 75
     1
175
     1
 42
1.0
 92
        0
 66
     7
 43
1.0
 76
     1
 77
     6
 78
     2
 67
     7
 79
     5
170
     0
171
     0
290
     0
174
     0
 93
       13
 44
0.0
173
     0
291
     1
 45
0.0
1001
ACAD
1000
AcDbSavedByObjectVersion
1070
     0
  0
VISUALSTYLE
  5
2E
102
{ACAD_REACTORS
330
2A
102
}
330
2A
100
AcDbVisualStyle
  2
GouraudWithEdges
 70
     3
 71
     2
 72
     2
 73
     1
 90
        2
 40
-0.6
 41
30.0
 62
     5
 63
     7
 74
     1
 91
        4
 64
     7
 65
   257
 75
     1
175
     1
 42
1.0
 92
        0
 66
   257
 43
1.0
 76
     1
 77
     6
 78
     2
 67
     7
 79
     5
170
     0
171
     0
290
     0
174
     0
 93
       13
 44
0.0
173
     0
291
     1
 45
0.0
1001
ACAD
1000
AcDbSavedByObjectVersion
1070
     0
  0
VISUALSTYLE
  5
38
102
{ACAD_REACTORS
330
2A
102
}
330
2A
100
AcDbVisualStyle
  2
Linepattern
 70
    14
 71
     2
 72
     2
 73
     0
 90
        0
 40
-0.6
 41
-30.0
 62
     5
 63
     7
 74
     1
 91
        4
 64
     7
 65
   257
 75
     7
175
     7
 42
1.0
 92
        8
 66
     7
 43
1.0
 76
     1
 77
     6
 78
     2
 67
     7
 79
     5
170
     0
171
     0
290
     0
174
     0
 93
        1
 44
0.0
173
     0
291
     1
 45
0.0
1001
ACAD
1000
AcDbSavedByObjectVersion
1070
     0
  0
VISUALSTYLE
  5
33
102
{ACAD_REACTORS
330
2A
102
}
330
2A
100
AcDbVisualStyle
  2
Realistic
 70
     8
 71
     2
 72
     2
 73
     0
 90
        0
 40
-0.6
 41
-30.0
 62
     5
 63
     7
 74
     1
 91
        0
 64
     7
 65
   257
 75
     1
175
     1
 42
1.0
 92
        8
 66
     8
 43
1.0
 76
     1
 77
     6
 78
     2
 67
     7
 79
     5
170
     0
171
     0
290
     0
174
     0
 93
       13
 44
0.0
173
     0
291
     0
 45
0.0
1001
ACAD
1000
AcDbSavedByObjectVersion
1070
     0
  0
VISUALSTYLE
  5
37
102
{ACAD_REACTORS
330
2A
102
}
330
2A
100
AcDbVisualStyle
  2
Thicken
 70
    13
 71
     2
 72
     2
 73
     0
 90
        0
 40
-0.6
 41
-30.0
 62
     5
 63
     7
 74
     1
 91
        4
 64
     7
 65
   257
 75
     1
175
     1
 42
1.0
 92
       12
 66
     7
 43
1.0
 76
     1
 77
     6
 78
     2
 67
     7
 79
     5
170
     0
171
     0
290
     0
174
     0
 93
        1
 44
0.0
173
     0
291
     1
 45
0.0
1001
ACAD
1000
AcDbSavedByObjectVersion
1070
     0
  0
DICTIONARYVAR
  5
154
102
{ACAD_REACTORS
330
151
102
}
330
151
100
DictionaryVariables
280
     0
  1
1:1
  0
ENDSEC
  0
EOF
