  0
SECTION
  2
HEADER
  9
$ACADVER
  1
AC1015
  9
$ACADMAINTVER
 70
     6
  9
$DWGCODEPAGE
  3
ANSI_1252
  9
$INSBASE
 10
0.0
 20
0.0
 30
0.0
  9
$EXTMIN
 10
27.398555182011
 20
234.6950364695
 30
0.0
  9
$EXTMAX
 10
225.872154608576
 20
359.785917765229
 30
0.0
  9
$LIMMIN
 10
0.0
 20
0.0
  9
$LIMMAX
 10
12.0
 20
9.0
  9
$ORTHOMODE
 70
     0
  9
$REGENMODE
 70
     1
  9
$FILLMODE
 70
     1
  9
$QTEXTMODE
 70
     0
  9
$MIRRTEXT
 70
     1
  9
$LTSCALE
 40
1.0
  9
$ATTMODE
 70
     1
  9
$TEXTSIZE
 40
0.2
  9
$TRACEWID
 40
0.05
  9
$TEXTSTYLE
  7
Standard
  9
$CLAYER
  8
0
  9
$CELTYPE
  6
ByLayer
  9
$CECOLOR
 62
   256
  9
$CELTSCALE
 40
1.0
  9
$DISPSILH
 70
     0
  9
$DIMSCALE
 40
1.0
  9
$DIMASZ
 40
0.18
  9
$DIMEXO
 40
0.0625
  9
$DIMDLI
 40
0.38
  9
$DIMRND
 40
0.0
  9
$DIMDLE
 40
0.0
  9
$DIMEXE
 40
0.18
  9
$DIMTP
 40
0.0
  9
$DIMTM
 40
0.0
  9
$DIMTXT
 40
0.18
  9
$DIMCEN
 40
0.09
  9
$DIMTSZ
 40
0.0
  9
$DIMTOL
 70
     0
  9
$DIMLIM
 70
     0
  9
$DIMTIH
 70
     1
  9
$DIMTOH
 70
     1
  9
$DIMSE1
 70
     0
  9
$DIMSE2
 70
     0
  9
$DIMTAD
 70
     0
  9
$DIMZIN
 70
     0
  9
$DIMBLK
  1

  9
$DIMASO
 70
     1
  9
$DIMSHO
 70
     1
  9
$DIMPOST
  1

  9
$DIMAPOST
  1

  9
$DIMALT
 70
     0
  9
$DIMALTD
 70
     2
  9
$DIMALTF
 40
25.4
  9
$DIMLFAC
 40
1.0
  9
$DIMTOFL
 70
     0
  9
$DIMTVP
 40
0.0
  9
$DIMTIX
 70
     0
  9
$DIMSOXD
 70
     0
  9
$DIMSAH
 70
     0
  9
$DIMBLK1
  1

  9
$DIMBLK2
  1

  9
$DIMSTYLE
  2
Standard
  9
$DIMCLRD
 70
     0
  9
$DIMCLRE
 70
     0
  9
$DIMCLRT
 70
     0
  9
$DIMTFAC
 40
1.0
  9
$DIMGAP
 40
0.09
  9
$DIMJUST
 70
     0
  9
$DIMSD1
 70
     0
  9
$DIMSD2
 70
     0
  9
$DIMTOLJ
 70
     1
  9
$DIMTZIN
 70
     0
  9
$DIMALTZ
 70
     0
  9
$DIMALTTZ
 70
     0
  9
$DIMUPT
 70
     0
  9
$DIMDEC
 70
     4
  9
$DIMTDEC
 70
     4
  9
$DIMALTU
 70
     2
  9
$DIMALTTD
 70
     2
  9
$DIMTXSTY
  7
Standard
  9
$DIMAUNIT
 70
     0
  9
$DIMADEC
 70
     0
  9
$DIMALTRND
 40
0.0
  9
$DIMAZIN
 70
     0
  9
$DIMDSEP
 70
    46
  9
$DIMATFIT
 70
     3
  9
$DIMFRAC
 70
     0
  9
$DIMLDRBLK
  1

  9
$DIMLUNIT
 70
     2
  9
$DIMLWD
 70
    -2
  9
$DIMLWE
 70
    -2
  9
$DIMTMOVE
 70
     0
  9
$LUNITS
 70
     2
  9
$LUPREC
 70
     4
  9
$SKETCHINC
 40
0.1
  9
$FILLETRAD
 40
0.5
  9
$AUNITS
 70
     0
  9
$AUPREC
 70
     0
  9
$MENU
  1
.
  9
$ELEVATION
 40
0.0
  9
$PELEVATION
 40
0.0
  9
$THICKNESS
 40
0.0
  9
$LIMCHECK
 70
     0
  9
$CHAMFERA
 40
0.5
  9
$CHAMFERB
 40
0.5
  9
$CHAMFERC
 40
1.0
  9
$CHAMFERD
 40
0.0
  9
$SKPOLY
 70
     0
  9
$TDCREATE
 40
2456748.732442107
  9
$TDUCREATE
 40
2456748.649108773
  9
$TDUPDATE
 40
2456748.732442118
  9
$TDUUPDATE
 40
2456748.649108785
  9
$TDINDWG
 40
0.0000000116
  9
$TDUSRTIMER
 40
0.0000000116
  9
$USRTIMER
 70
     1
  9
$ANGBASE
 50
0.0
  9
$ANGDIR
 70
     0
  9
$PDMODE
 70
     0
  9
$PDSIZE
 40
0.0
  9
$PLINEWID
 40
0.0
  9
$SPLFRAME
 70
     0
  9
$SPLINETYPE
 70
     6
  9
$SPLINESEGS
 70
     8
  9
$HANDSEED
  5
155
  9
$SURFTAB1
 70
     6
  9
$SURFTAB2
 70
     6
  9
$SURFTYPE
 70
     6
  9
$SURFU
 70
     6
  9
$SURFV
 70
     6
  9
$UCSBASE
  2

  9
$UCSNAME
  2

  9
$UCSORG
 10
0.0
 20
0.0
 30
0.0
  9
$UCSXDIR
 10
1.0
 20
0.0
 30
0.0
  9
$UCSYDIR
 10
0.0
 20
1.0
 30
0.0
  9
$UCSORTHOREF
  2

  9
$UCSORTHOVIEW
 70
     0
  9
$UCSORGTOP
 10
0.0
 20
0.0
 30
0.0
  9
$UCSORGBOTTOM
 10
0.0
 20
0.0
 30
0.0
  9
$UCSORGLEFT
 10
0.0
 20
0.0
 30
0.0
  9
$UCSORGRIGHT
 10
0.0
 20
0.0
 30
0.0
  9
$UCSORGFRONT
 10
0.0
 20
0.0
 30
0.0
  9
$UCSORGBACK
 10
0.0
 20
0.0
 30
0.0
  9
$PUCSBASE
  2

  9
$PUCSNAME
  2

  9
$PUCSORG
 10
0.0
 20
0.0
 30
0.0
  9
$PUCSXDIR
 10
1.0
 20
0.0
 30
0.0
  9
$PUCSYDIR
 10
0.0
 20
1.0
 30
0.0
  9
$PUCSORTHOREF
  2

  9
$PUCSORTHOVIEW
 70
     0
  9
$PUCSORGTOP
 10
0.0
 20
0.0
 30
0.0
  9
$PUCSORGBOTTOM
 10
0.0
 20
0.0
 30
0.0
  9
$PUCSORGLEFT
 10
0.0
 20
0.0
 30
0.0
  9
$PUCSORGRIGHT
 10
0.0
 20
0.0
 30
0.0
  9
$PUCSORGFRONT
 10
0.0
 20
0.0
 30
0.0
  9
$PUCSORGBACK
 10
0.0
 20
0.0
 30
0.0
  9
$USERI1
 70
     0
  9
$USERI2
 70
     0
  9
$USERI3
 70
     0
  9
$USERI4
 70
     0
  9
$USERI5
 70
     0
  9
$USERR1
 40
16.5
  9
$USERR2
 40
0.0
  9
$USERR3
 40
0.0
  9
$USERR4
 40
0.0
  9
$USERR5
 40
0.0
  9
$WORLDVIEW
 70
     1
  9
$SHADEDGE
 70
     3
  9
$SHADEDIF
 70
    70
  9
$TILEMODE
 70
     1
  9
$MAXACTVP
 70
    64
  9
$PINSBASE
 10
0.0
 20
0.0
 30
0.0
  9
$PLIMCHECK
 70
     0
  9
$PEXTMIN
 10
1.00000000000000E+20
 20
1.00000000000000E+20
 30
1.00000000000000E+20
  9
$PEXTMAX
 10
-1.00000000000000E+20
 20
-1.00000000000000E+20
 30
-1.00000000000000E+20
  9
$PLIMMIN
 10
0.0
 20
0.0
  9
$PLIMMAX
 10
12.0
 20
9.0
  9
$UNITMODE
 70
     0
  9
$VISRETAIN
 70
     1
  9
$PLINEGEN
 70
     0
  9
$PSLTSCALE
 70
     1
  9
$TREEDEPTH
 70
  3020
  9
$CMLSTYLE
  2
Standard
  9
$CMLJUST
 70
     0
  9
$CMLSCALE
 40
1.0
  9
$PROXYGRAPHICS
 70
     1
  9
$MEASUREMENT
 70
     1
  9
$CELWEIGHT
370
    -1
  9
$ENDCAPS
280
     0
  9
$JOINSTYLE
280
     0
  9
$LWDISPLAY
290
     0
  9
$INSUNITS
 70
     1
  9
$HYPERLINKBASE
  1

  9
$STYLESHEET
  1

  9
$XEDIT
290
     1
  9
$CEPSNTYPE
380
     0
  9
$PSTYLEMODE
290
     1
  9
$FINGERPRINTGUID
  2
{8DE27448-52FF-4F0C-A6D6-C09DC81F70C6}
  9
$VERSIONGUID
  2
{FAEB1C32-E019-11D5-929B-00C0DF256EC4}
  9
$EXTNAMES
290
     1
  9
$PSVPSCALE
 40
0.0
  9
$OLESTARTUP
290
     0
  0
ENDSEC
  0
SECTION
  2
CLASSES
  0
CLASS
  1
ACDBDICTIONARYWDFLT
  2
AcDbDictionaryWithDefault
  3
ObjectDBX Classes
 90
        0
280
     0
281
     0
  0
CLASS
  1
VISUALSTYLE
  2
AcDbVisualStyle
  3
ObjectDBX Classes
 90
     4095
280
     0
281
     0
  0
CLASS
  1
SCALE
  2
AcDbScale
  3
ObjectDBX Classes
 90
     1153
280
     0
281
     0
  0
CLASS
  1

  2
exOdDbPolyline
  3

 90
        0
280
     0
281
     1
  0
CLASS
  1

  2
exOdDbCircle
  3

 90
        0
280
     0
281
     1
  0
CLASS
  1

  2
exOdDbSpline
  3

 90
        0
280
     0
281
     1
  0
CLASS
  1
DICTIONARYVAR
  2
AcDbDictionaryVar
  3
ObjectDBX Classes
 90
        0
280
     0
281
     0
  0
CLASS
  1
ACDBPLACEHOLDER
  2
AcDbPlaceHolder
  3
ObjectDBX Classes
 90
        0
280
     0
281
     0
  0
CLASS
  1
LAYOUT
  2
AcDbLayout
  3
ObjectDBX Classes
 90
        0
280
     0
281
     0
  0
ENDSEC
  0
SECTION
  2
TABLES
  0
TABLE
  2
VPORT
  5
8
330
0
100
AcDbSymbolTable
 70
     1
  0
VPORT
  5
29
330
8
100
AcDbSymbolTableRecord
100
AcDbViewportTableRecord
  2
*Active
 70
     0
 10
0.0
 20
0.0
 11
1.0
 21
1.0
 12
126.6353548952935
 22
297.2404771173645
 13
0.0
 23
0.0
 14
0.5
 24
0.5
 15
0.5
 25
0.5
 16
0.0
 26
0.0
 36
1.0
 17
0.0
 27
0.0
 37
0.0
 40
137.5999694253019
 41
1.60267857142857
 42
50.0
 43
0.0
 44
0.0
 50
0.0
 51
0.0
 71
     0
 72
   100
 73
     1
 74
     3
 75
     0
 76
     0
 77
     0
 78
     0
281
     0
 65
     1
110
0.0
120
0.0
130
0.0
111
1.0
121
0.0
131
0.0
112
0.0
122
1.0
132
0.0
 79
     0
146
0.0
  0
ENDTAB
  0
TABLE
  2
LTYPE
  5
5
330
0
100
AcDbSymbolTable
 70
     8
  0
LTYPE
  5
14
330
5
100
AcDbSymbolTableRecord
100
AcDbLinetypeTableRecord
  2
ByBlock
 70
     0
  3

 72
    65
 73
     0
 40
0.0
  0
LTYPE
  5
15
330
5
100
AcDbSymbolTableRecord
100
AcDbLinetypeTableRecord
  2
ByLayer
 70
     0
  3

 72
    65
 73
     0
 40
0.0
  0
LTYPE
  5
16
330
5
100
AcDbSymbolTableRecord
100
AcDbLinetypeTableRecord
  2
Continuous
 70
     0
  3
Solid line
 72
    65
 73
     0
 40
0.0
  0
LTYPE
  5
3B
330
5
100
AcDbSymbolTableRecord
100
AcDbLinetypeTableRecord
  2
DASHED
 70
     0
  3
Dashed
 72
    65
 73
     2
 40
15.0
 49
7.0
 74
     0
 49
-8.0
 74
     0
  0
LTYPE
  5
3C
330
5
100
AcDbSymbolTableRecord
100
AcDbLinetypeTableRecord
  2
DOTTED
 70
     0
  3
Dotted
 72
    65
 73
     2
 40
1.0
 49
0.0
 74
     0
 49
-1.0
 74
     0
  0
LTYPE
  5
3D
330
5
100
AcDbSymbolTableRecord
100
AcDbLinetypeTableRecord
  2
DOT_CENTER
 70
     0
  3
Dot_Center
 72
    65
 73
     4
 40
14.0
 49
12.0
 74
     0
 49
-1.0
 74
     0
 49
0.0
 74
     0
 49
-1.0
 74
     0
  0
LTYPE
  5
3E
330
5
100
AcDbSymbolTableRecord
100
AcDbLinetypeTableRecord
  2
LONG_DASHED
 70
     0
  3
Long_Dashed
 72
    65
 73
     2
 40
15.0
 49
10.0
 74
     0
 49
-5.0
 74
     0
  0
LTYPE
  5
3F
330
5
100
AcDbSymbolTableRecord
100
AcDbLinetypeTableRecord
  2
DASH_CENTER
 70
     0
  3
Dash_Center
 72
    65
 73
     4
 40
14.0
 49
11.0
 74
     0
 49
-1.0
 74
     0
 49
1.0
 74
     0
 49
-1.0
 74
     0
  0
LTYPE
  5
40
330
5
100
AcDbSymbolTableRecord
100
AcDbLinetypeTableRecord
  2
PHANTOM
 70
     0
  3
Phantom
 72
    65
 73
     6
 40
13.0
 49
10.0
 74
     0
 49
-1.0
 74
     0
 49
0.0
 74
     0
 49
-1.0
 74
     0
 49
0.0
 74
     0
 49
-1.0
 74
     0
  0
LTYPE
  5
41
330
5
100
AcDbSymbolTableRecord
100
AcDbLinetypeTableRecord
  2
CENTER_DASH_DASH
 70
     0
  3
Center_Dash_Dash
 72
    65
 73
     6
 40
14.0
 49
9.0
 74
     0
 49
-1.0
 74
     0
 49
1.0
 74
     0
 49
-1.0
 74
     0
 49
1.0
 74
     0
 49
-1.0
 74
     0
  0
ENDTAB
  0
TABLE
  2
LAYER
  5
2
330
0
100
AcDbSymbolTable
 70
     6
  0
LAYER
  5
10
330
2
100
AcDbSymbolTableRecord
100
AcDbLayerTableRecord
  2
0
 70
     0
 62
     7
  6
Continuous
370
    -3
390
F
  0
LAYER
  5
42
330
2
100
AcDbSymbolTableRecord
100
AcDbLayerTableRecord
  2
1
 70
     0
 62
     7
  6
Continuous
370
    -3
390
F
  0
LAYER
  5
43
330
2
100
AcDbSymbolTableRecord
100
AcDbLayerTableRecord
  2
BEZUGSACHSEN
 70
     0
 62
     7
  6
Continuous
370
    -3
390
F
  0
LAYER
  5
44
330
2
100
AcDbSymbolTableRecord
100
AcDbLayerTableRecord
  2
DEFAULT_2
 70
     0
 62
     7
  6
Continuous
370
    -3
390
F
  0
LAYER
  5
45
330
2
100
AcDbSymbolTableRecord
100
AcDbLayerTableRecord
  2
FASEN
 70
     0
 62
     7
  6
Continuous
370
    -3
390
F
  0
LAYER
  5
46
330
2
100
AcDbSymbolTableRecord
100
AcDbLayerTableRecord
  2
RUNDUNGEN
 70
     0
 62
     7
  6
Continuous
370
    -3
390
F
  0
ENDTAB
  0
TABLE
  2
STYLE
  5
3
330
0
100
AcDbSymbolTable
 70
     2
  0
STYLE
  5
11
330
3
100
AcDbSymbolTableRecord
100
AcDbTextStyleTableRecord
  2
Standard
 70
     0
 40
0.0
 41
1.0
 50
0.0
 71
     0
 42
0.2
  3
txt
  4

  0
STYLE
  5
6D
330
3
100
AcDbSymbolTableRecord
100
AcDbTextStyleTableRecord
  2
CONVERTER_11
 70
     0
 40
0.0
 41
0.72
 50
0.0
 71
     0
 42
0.2
  3
txt.shx
  4

  0
ENDTAB
  0
TABLE
  2
VIEW
  5
6
330
0
100
AcDbSymbolTable
 70
     0
  0
ENDTAB
  0
TABLE
  2
UCS
  5
7
330
0
100
AcDbSymbolTable
 70
     0
  0
ENDTAB
  0
TABLE
  2
APPID
  5
9
330
0
100
AcDbSymbolTable
 70
     1
  0
APPID
  5
12
330
9
100
AcDbSymbolTableRecord
100
AcDbRegAppTableRecord
  2
ACAD
 70
     0
  0
ENDTAB
  0
TABLE
  2
DIMSTYLE
  5
A
330
0
100
AcDbSymbolTable
 70
     8
100
AcDbDimStyleTable
  0
DIMSTYLE
105
27
330
A
100
AcDbSymbolTableRecord
100
AcDbDimStyleTableRecord
  2
Standard
 70
     0
340
11
  0
DIMSTYLE
105
106
102
{ACAD_REACTORS
330
107
102
}
330
A
100
AcDbSymbolTableRecord
100
AcDbDimStyleTableRecord
  2
ME10_DIM_10
 70
     0
  3
\U+2300<>
 41
3.5
 42
2.0
 44
2.0
 71
     1
 73
     0
 74
     0
 77
     1
 78
     8
140
3.5
146
0.7
147
2.0
172
     1
173
     1
176
     2
177
     2
178
     3
271
     2
272
     0
340
6D
  0
DIMSTYLE
105
111
102
{ACAD_REACTORS
330
112
102
}
330
A
100
AcDbSymbolTableRecord
100
AcDbDimStyleTableRecord
  2
ME10_DIM_11
 70
     0
  3
\U+2300<>
 41
3.5
 42
2.0
 44
2.0
 71
     1
 73
     0
 74
     0
 77
     1
 78
     8
140
3.5
146
0.7
147
2.0
172
     1
173
     1
176
     2
177
     2
178
     3
271
     2
272
     0
340
6D
  0
DIMSTYLE
105
11C
102
{ACAD_REACTORS
330
11D
102
}
330
A
100
AcDbSymbolTableRecord
100
AcDbDimStyleTableRecord
  2
ME10_DIM_12
 70
     0
  3
\U+2300<>
 41
3.5
 42
2.0
 44
2.0
 71
     1
 73
     0
 74
     0
 77
     1
 78
     8
140
3.5
146
0.7
147
2.0
172
     1
173
     1
176
     2
177
     2
178
     3
271
     2
272
     0
340
6D
  0
DIMSTYLE
105
127
102
{ACAD_REACTORS
330
128
102
}
330
A
100
AcDbSymbolTableRecord
100
AcDbDimStyleTableRecord
  2
ME10_DIM_13
 70
     0
  3
<>
 41
3.5
 42
2.0
 44
2.0
 71
     1
 73
     0
 74
     0
 77
     1
 78
     8
140
3.5
146
0.7
147
2.0
172
     1
173
     1
176
     2
177
     2
178
     3
271
     2
272
     0
340
6D
  0
DIMSTYLE
105
132
102
{ACAD_REACTORS
330
133
102
}
330
A
100
AcDbSymbolTableRecord
100
AcDbDimStyleTableRecord
  2
ME10_DIM_14
 70
     0
  3
<>
 41
3.5
 42
2.0
 44
2.0
 71
     1
 73
     0
 74
     0
 77
     1
 78
     8
140
3.5
146
0.7
147
2.0
172
     1
173
     1
176
     2
177
     2
178
     3
271
     2
272
     0
340
6D
  0
DIMSTYLE
105
13D
102
{ACAD_REACTORS
330
13E
102
}
330
A
100
AcDbSymbolTableRecord
100
AcDbDimStyleTableRecord
  2
ME10_DIM_15
 70
     0
  3
<>
 41
3.5
 42
2.0
 44
2.0
 71
     1
 73
     0
 74
     0
 77
     1
 78
     8
140
3.5
146
0.7
147
2.0
172
     1
173
     1
176
     2
177
     2
178
     3
271
     2
272
     0
340
6D
  0
DIMSTYLE
105
14F
102
{ACAD_REACTORS
330
150
102
}
330
A
100
AcDbSymbolTableRecord
100
AcDbDimStyleTableRecord
  2
ME10_DIM_16
 70
     0
  3
<>
 41
3.5
 42
2.0
 44
2.0
 71
     1
 73
     0
 74
     0
 77
     1
 78
     8
140
3.5
146
0.7
147
2.0
172
     1
173
     1
176
     2
177
     2
178
     3
271
     2
272
     0
340
6D
  0
ENDTAB
  0
TABLE
  2
BLOCK_RECORD
  5
1
330
0
100
AcDbSymbolTable
 70
    10
  0
BLOCK_RECORD
  5
1F
330
1
100
AcDbSymbolTableRecord
100
AcDbBlockTableRecord
  2
*Model_Space
340
22
  0
BLOCK_RECORD
  5
1B
330
1
100
AcDbSymbolTableRecord
100
AcDbBlockTableRecord
  2
*Paper_Space
340
1E
  0
BLOCK_RECORD
  5
23
330
1
100
AcDbSymbolTableRecord
100
AcDbBlockTableRecord
  2
*Paper_Space0
340
26
  0
BLOCK_RECORD
  5
47
330
1
100
AcDbSymbolTableRecord
100
AcDbBlockTableRecord
  2
Urheberrecht_DE-EN
340
0
102
{BLKREFS
331
6C
102
}
  0
BLOCK_RECORD
  5
FD
330
1
100
AcDbSymbolTableRecord
100
AcDbBlockTableRecord
  2
*D2
340
0
  0
BLOCK_RECORD
  5
108
330
1
100
AcDbSymbolTableRecord
100
AcDbBlockTableRecord
  2
*D3
340
0
  0
BLOCK_RECORD
  5
113
330
1
100
AcDbSymbolTableRecord
100
AcDbBlockTableRecord
  2
*D4
340
0
  0
BLOCK_RECORD
  5
11E
330
1
100
AcDbSymbolTableRecord
100
AcDbBlockTableRecord
  2
*D5
340
0
  0
BLOCK_RECORD
  5
129
330
1
100
AcDbSymbolTableRecord
100
AcDbBlockTableRecord
  2
*D6
340
0
  0
BLOCK_RECORD
  5
134
330
1
100
AcDbSymbolTableRecord
100
AcDbBlockTableRecord
  2
*D7
340
0
  0
BLOCK_RECORD
  5
13F
330
1
100
AcDbSymbolTableRecord
100
AcDbBlockTableRecord
  2
*D8
340
0
102
{BLKREFS
331
145
102
}
  0
BLOCK_RECORD
  5
146
330
1
100
AcDbSymbolTableRecord
100
AcDbBlockTableRecord
  2
*D9
340
0
  0
ENDTAB
  0
ENDSEC
  0
SECTION
  2
BLOCKS
  0
BLOCK
  5
20
330
1F
100
AcDbEntity
  8
0
100
AcDbBlockBegin
  2
*Model_Space
 70
     0
 10
0.0
 20
0.0
 30
0.0
  3
*Model_Space
  1

  0
ENDBLK
  5
21
330
1F
100
AcDbEntity
  8
0
100
AcDbBlockEnd
  0
BLOCK
  5
1C
330
1B
100
AcDbEntity
 67
     1
  8
0
100
AcDbBlockBegin
  2
*Paper_Space
 70
     0
 10
0.0
 20
0.0
 30
0.0
  3
*Paper_Space
  1

  0
ENDBLK
  5
1D
330
1B
100
AcDbEntity
 67
     1
  8
0
100
AcDbBlockEnd
  0
BLOCK
  5
24
330
23
100
AcDbEntity
  8
0
100
AcDbBlockBegin
  2
*Paper_Space0
 70
     0
 10
0.0
 20
0.0
 30
0.0
  3
*Paper_Space0
  1

  0
ENDBLK
  5
25
330
23
100
AcDbEntity
  8
0
100
AcDbBlockEnd
  0
BLOCK
  5
48
330
47
100
AcDbEntity
  8
0
100
AcDbBlockBegin
  2
Urheberrecht_DE-EN
 70
     0
 10
41.398555182011
 20
301.032481434955
 30
0.0
  3
Urheberrecht_DE-EN
  1

  0
MTEXT
  5
6E
330
47
100
AcDbEntity
  8
1
 62
     1
100
AcDbMText
 10
41.398555182011
 20
301.032481434955
 30
0.0
 40
2.0
 41
0.0
 71
     7
 72
     1
  1
We own the copyright of this document. It \Pdetermined and may neither be copied or \Pmade accessible to outsiders without our\Ppermission.
  7
CONVERTER_11
 11
0.0
 21
1.0
 31
0.0
 73
     1
 44
0.90036014405762
  0
MTEXT
  5
6F
330
47
100
AcDbEntity
  8
1
 62
     1
100
AcDbMText
 10
41.398555182011
 20
244.7430945176488
 30
0.0
 40
2.0
 41
0.0
 71
     7
 72
     1
  1
F\U+00fcr diese Unterlage behalten wir das Ur-\Pheberrecht. Sie darf nur f\U+00fcr den von uns \Pbestimmten Zweck benutzt und ohne unsere \PZustimmung weder vervielf\U+00e4ltigt noch\PDritten zug\U+00e4nglich gemacht werden.
  7
CONVERTER_11
 11
0.0
 21
1.0
 31
0.0
 73
     1
 44
0.90036014405762
  0
ENDBLK
  5
49
330
47
100
AcDbEntity
  8
0
100
AcDbBlockEnd
  0
BLOCK
  5
104
330
FD
100
AcDbEntity
  8
0
100
AcDbBlockBegin
  2
*D2
 70
     1
 10
0.0
 20
0.0
 30
0.0
  3
*D2
  1

  0
LINE
  5
FE
330
FD
100
AcDbEntity
  8
1
  6
Continuous
 62
     2
100
AcDbLine
 10
206.931844882894
 20
290.6950364695
 30
0.0
 11
206.931844882894
 21
278.6950364695
 31
0.0
  0
LINE
  5
FF
330
FD
100
AcDbEntity
  8
1
  6
Continuous
 62
     2
100
AcDbLine
 10
197.913794834
 20
290.6950364695
 30
0.0
 11
208.931844882894
 21
290.6950364695
 31
0.0
  0
LINE
  5
100
330
FD
100
AcDbEntity
  8
1
  6
Continuous
 62
     2
100
AcDbLine
 10
197.913794834
 20
278.6950364695
 30
0.0
 11
208.931844882894
 21
278.6950364695
 31
0.0
  0
SOLID
  5
101
330
FD
100
AcDbEntity
  8
1
 62
     2
100
AcDbTrace
 10
207.3926286244499
 20
287.1950364695
 30
0.0
 11
206.4710611413381
 21
287.1950364695
 31
0.0
 12
206.931844882894
 22
290.6950364695
 32
0.0
 13
206.931844882894
 23
290.6950364695
 33
0.0
  0
SOLID
  5
102
330
FD
100
AcDbEntity
  8
1
 62
     2
100
AcDbTrace
 10
206.4710611413381
 20
282.1950364695
 30
0.0
 11
207.3926286244499
 21
282.1950364695
 31
0.0
 12
206.931844882894
 22
278.6950364695
 32
0.0
 13
206.931844882894
 23
278.6950364695
 33
0.0
  0
MTEXT
  5
103
330
FD
100
AcDbEntity
  8
1
 62
     3
100
AcDbMText
 10
204.931844882894
 20
276.234900425383
 30
0.0
 40
3.5
 41
0.0
 71
     7
 72
     1
  1
\C3;%%c\C3;\C3;12\C2;\H2.45;\S^ ;\C3;
  7
CONVERTER_11
 11
0.0
 21
1.0
 31
0.0
 73
     1
 44
0.60024009603842
  0
ENDBLK
  5
105
330
FD
100
AcDbEntity
  8
0
100
AcDbBlockEnd
  0
BLOCK
  5
10F
330
108
100
AcDbEntity
  8
0
100
AcDbBlockBegin
  2
*D3
 70
     1
 10
0.0
 20
0.0
 30
0.0
  3
*D3
  1

  0
LINE
  5
109
330
108
100
AcDbEntity
  8
1
  6
Continuous
 62
     2
100
AcDbLine
 10
215.340173797831
 20
296.6950364694681
 30
0.0
 11
215.340173797831
 21
272.6950364695343
 31
0.0
  0
LINE
  5
10A
330
108
100
AcDbEntity
  8
1
  6
Continuous
 62
     2
100
AcDbLine
 10
197.913794834
 20
296.6950364694681
 30
0.0
 11
217.340173797831
 21
296.6950364694681
 31
0.0
  0
LINE
  5
10B
330
108
100
AcDbEntity
  8
1
  6
Continuous
 62
     2
100
AcDbLine
 10
197.913794834
 20
272.6950364695343
 30
0.0
 11
217.340173797831
 21
272.6950364695343
 31
0.0
  0
SOLID
  5
10C
330
108
100
AcDbEntity
  8
1
 62
     2
100
AcDbTrace
 10
215.8009575393869
 20
293.1950364694681
 30
0.0
 11
214.8793900562751
 21
293.1950364694681
 31
0.0
 12
215.340173797831
 22
296.6950364694681
 32
0.0
 13
215.340173797831
 23
296.6950364694681
 33
0.0
  0
SOLID
  5
10D
330
108
100
AcDbEntity
  8
1
 62
     2
100
AcDbTrace
 10
214.8793900562751
 20
276.1950364695343
 30
0.0
 11
215.8009575393869
 21
276.1950364695343
 31
0.0
 12
215.340173797831
 22
272.6950364695343
 32
0.0
 13
215.340173797831
 23
272.6950364695343
 33
0.0
  0
MTEXT
  5
10E
330
108
100
AcDbEntity
  8
1
 62
     3
100
AcDbMText
 10
213.340173797831
 20
276.062204216999
 30
0.0
 40
3.5
 41
0.0
 71
     7
 72
     1
  1
\C3;%%c\C3;\C3;24\C2;\H2.45;\S^ ;\C3;
  7
CONVERTER_11
 11
0.0
 21
1.0
 31
0.0
 73
     1
 44
0.60024009603842
  0
ENDBLK
  5
110
330
108
100
AcDbEntity
  8
0
100
AcDbBlockEnd
  0
BLOCK
  5
11A
330
113
100
AcDbEntity
  8
0
100
AcDbBlockBegin
  2
*D4
 70
     1
 10
0.0
 20
0.0
 30
0.0
  3
*D4
  1

  0
LINE
  5
114
330
113
100
AcDbEntity
  8
1
  6
Continuous
 62
     2
100
AcDbLine
 10
223.872154608576
 20
300.6950364695
 30
0.0
 11
223.872154608576
 21
268.6950364695
 31
0.0
  0
LINE
  5
115
330
113
100
AcDbEntity
  8
1
  6
Continuous
 62
     2
100
AcDbLine
 10
147.0889758893
 20
300.6950364695
 30
0.0
 11
225.872154608576
 21
300.6950364695
 31
0.0
  0
LINE
  5
116
330
113
100
AcDbEntity
  8
1
  6
Continuous
 62
     2
100
AcDbLine
 10
147.0889758893
 20
268.6950364695
 30
0.0
 11
225.872154608576
 21
268.6950364695
 31
0.0
  0
SOLID
  5
117
330
113
100
AcDbEntity
  8
1
 62
     2
100
AcDbTrace
 10
224.3329383501319
 20
297.1950364695
 30
0.0
 11
223.4113708670201
 21
297.1950364695
 31
0.0
 12
223.872154608576
 22
300.6950364695
 32
0.0
 13
223.872154608576
 23
300.6950364695
 33
0.0
  0
SOLID
  5
118
330
113
100
AcDbEntity
  8
1
 62
     2
100
AcDbTrace
 10
223.4113708670201
 20
272.1950364695
 30
0.0
 11
224.3329383501319
 21
272.1950364695
 31
0.0
 12
223.872154608576
 22
268.6950364695
 32
0.0
 13
223.872154608576
 23
268.6950364695
 33
0.0
  0
MTEXT
  5
119
330
113
100
AcDbEntity
  8
1
 62
     3
100
AcDbMText
 10
221.872154608576
 20
275.938552321191
 30
0.0
 40
3.5
 41
0.0
 71
     7
 72
     1
  1
\C3;%%c\C3;\C3;32\C2;\H2.45;\S^ ;\C3;
  7
CONVERTER_11
 11
0.0
 21
1.0
 31
0.0
 73
     1
 44
0.60024009603842
  0
ENDBLK
  5
11B
330
113
100
AcDbEntity
  8
0
100
AcDbBlockEnd
  0
BLOCK
  5
125
330
11E
100
AcDbEntity
  8
0
100
AcDbBlockBegin
  2
*D5
 70
     1
 10
0.0
 20
0.0
 30
0.0
  3
*D5
  1

  0
LINE
  5
11F
330
11E
100
AcDbEntity
  8
1
  6
Continuous
 62
     2
100
AcDbLine
 10
195.913794834
 20
340.436905434744
 30
0.0
 11
129.913794834
 21
340.436905434744
 31
0.0
  0
LINE
  5
120
330
11E
100
AcDbEntity
  8
1
  6
Continuous
 62
     2
100
AcDbLine
 10
195.913794834
 20
297.7706459778
 30
0.0
 11
195.913794834
 21
342.436905434744
 31
0.0
  0
LINE
  5
121
330
11E
100
AcDbEntity
  8
1
  6
Continuous
 62
     2
100
AcDbLine
 10
129.913794834
 20
336.6949995484
 30
0.0
 11
129.913794834
 21
342.436905434744
 31
0.0
  0
SOLID
  5
122
330
11E
100
AcDbEntity
  8
1
 62
     2
100
AcDbTrace
 10
192.413794834
 20
339.9761216931881
 30
0.0
 11
192.413794834
 21
340.8976891762999
 31
0.0
 12
195.913794834
 22
340.436905434744
 32
0.0
 13
195.913794834
 23
340.436905434744
 33
0.0
  0
SOLID
  5
123
330
11E
100
AcDbEntity
  8
1
 62
     2
100
AcDbTrace
 10
133.413794834
 20
340.8976891762999
 30
0.0
 11
133.413794834
 21
339.9761216931881
 31
0.0
 12
129.913794834
 22
340.436905434744
 32
0.0
 13
129.913794834
 23
340.436905434744
 33
0.0
  0
MTEXT
  5
124
330
11E
100
AcDbEntity
  8
1
 62
     3
100
AcDbMText
 10
160.564466183667
 20
342.436905434744
 30
0.0
 40
3.5
 41
0.0
 71
     7
 72
     1
  1
\C3;\C3;\C3;66\C2;\H2.45;\S^ ;\C3;
  7
CONVERTER_11
 11
0.9999999999970619
 21
2.424068405545306E-6
 31
0.0
 73
     1
 44
0.60024009603842
  0
ENDBLK
  5
126
330
11E
100
AcDbEntity
  8
0
100
AcDbBlockEnd
  0
BLOCK
  5
130
330
129
100
AcDbEntity
  8
0
100
AcDbBlockBegin
  2
*D6
 70
     1
 10
0.0
 20
0.0
 30
0.0
  3
*D6
  1

  0
LINE
  5
12A
330
129
100
AcDbEntity
  8
1
  6
Continuous
 62
     2
100
AcDbLine
 10
195.913794834
 20
347.485063495795
 30
0.0
 11
100.913794834
 21
347.485063495795
 31
0.0
  0
LINE
  5
12B
330
129
100
AcDbEntity
  8
1
  6
Continuous
 62
     2
100
AcDbLine
 10
195.913794834
 20
297.7706459778
 30
0.0
 11
195.913794834
 21
349.485063495795
 31
0.0
  0
LINE
  5
12C
330
129
100
AcDbEntity
  8
1
  6
Continuous
 62
     2
100
AcDbLine
 10
100.913794834
 20
336.6950364695
 30
0.0
 11
100.913794834
 21
349.485063495795
 31
0.0
  0
SOLID
  5
12D
330
129
100
AcDbEntity
  8
1
 62
     2
100
AcDbTrace
 10
192.413794834
 20
347.0242797542391
 30
0.0
 11
192.413794834
 21
347.9458472373508
 31
0.0
 12
195.913794834
 22
347.485063495795
 32
0.0
 13
195.913794834
 23
347.485063495795
 33
0.0
  0
SOLID
  5
12E
330
129
100
AcDbEntity
  8
1
 62
     2
100
AcDbTrace
 10
104.413794834
 20
347.9458472373508
 30
0.0
 11
104.413794834
 21
347.0242797542391
 31
0.0
 12
100.913794834
 22
347.485063495795
 32
0.0
 13
100.913794834
 23
347.485063495795
 33
0.0
  0
MTEXT
  5
12F
330
129
100
AcDbEntity
  8
1
 62
     3
100
AcDbMText
 10
146.591801957375
 20
349.485063495795
 30
0.0
 40
3.5
 41
0.0
 71
     7
 72
     1
  1
\C3;\C3;\C3;95\C2;\H2.45;\S^ ;\C3;
  7
CONVERTER_11
 11
0.9999999999970619
 21
2.424068405545306E-6
 31
0.0
 73
     1
 44
0.60024009603842
  0
ENDBLK
  5
131
330
129
100
AcDbEntity
  8
0
100
AcDbBlockEnd
  0
BLOCK
  5
13B
330
134
100
AcDbEntity
  8
0
100
AcDbBlockBegin
  2
*D7
 70
     1
 10
0.0
 20
0.0
 30
0.0
  3
*D7
  1

  0
LINE
  5
135
330
134
100
AcDbEntity
  8
1
  6
Continuous
 62
     2
100
AcDbLine
 10
195.913794834
 20
354.285917765229
 30
0.0
 11
50.913794834
 21
354.285917765229
 31
0.0
  0
LINE
  5
136
330
134
100
AcDbEntity
  8
1
  6
Continuous
 62
     2
100
AcDbLine
 10
195.913794834
 20
297.7706459778
 30
0.0
 11
195.913794834
 21
356.285917765229
 31
0.0
  0
LINE
  5
137
330
134
100
AcDbEntity
  8
1
  6
Continuous
 62
     2
100
AcDbLine
 10
50.913794834
 20
320.2952280321
 30
0.0
 11
50.913794834
 21
356.285917765229
 31
0.0
  0
SOLID
  5
138
330
134
100
AcDbEntity
  8
1
 62
     2
100
AcDbTrace
 10
192.413794834
 20
353.8251340236731
 30
0.0
 11
192.413794834
 21
354.7467015067849
 31
0.0
 12
195.913794834
 22
354.285917765229
 32
0.0
 13
195.913794834
 23
354.285917765229
 33
0.0
  0
SOLID
  5
139
330
134
100
AcDbEntity
  8
1
 62
     2
100
AcDbTrace
 10
54.413794834
 20
354.7467015067849
 30
0.0
 11
54.413794834
 21
353.8251340236731
 31
0.0
 12
50.913794834
 22
354.285917765229
 32
0.0
 13
50.913794834
 23
354.285917765229
 33
0.0
  0
MTEXT
  5
13A
330
134
100
AcDbEntity
  8
1
 62
     3
100
AcDbMText
 10
129.182447919116
 20
356.285917765229
 30
0.0
 40
3.5
 41
0.0
 71
     7
 72
     1
  1
\C3;\C3;\C3;145\C2;\H2.45;\S^ ;\C3;
  7
CONVERTER_11
 11
0.9999999999970619
 21
2.424068405545306E-6
 31
0.0
 73
     1
 44
0.60024009603842
  0
ENDBLK
  5
13C
330
134
100
AcDbEntity
  8
0
100
AcDbBlockEnd
  0
BLOCK
  5
143
330
13F
100
AcDbEntity
  8
0
100
AcDbBlockBegin
  2
*D8
 70
     1
 10
0.0
 20
0.0
 30
0.0
  3
*D8
  1

  0
LINE
  5
140
330
13F
100
AcDbEntity
  8
1
  6
Continuous
 62
     2
100
AcDbLine
 10
138.9856739991642
 20
310.1487977366385
 30
0.0
 11
131.9262566005461
 21
302.2117855467049
 31
0.0
  0
SOLID
  5
141
330
13F
100
AcDbEntity
  8
1
 62
     2
100
AcDbTrace
 10
133.9080190476376
 20
305.1332473828034
 30
0.0
 11
134.5966220924841
 21
304.5207831205341
 31
0.0
 12
131.9262566005461
 22
302.2117855467049
 32
0.0
 13
131.9262566005461
 23
302.2117855467049
 33
0.0
  0
MTEXT
  5
142
330
13F
100
AcDbEntity
  8
1
 62
     3
100
AcDbMText
 10
132.5600014095278
 20
305.9336901732666
 30
0.0
 40
3.5
 41
0.0
 71
     7
 72
     1
  1
\C3; R\C3;\C3;6\C2;\H2.45;\S^ ;\C3;
  7
CONVERTER_11
 11
0.6645897055756571
 21
0.7472084871325146
 31
0.0
 73
     1
 44
0.60024009603842
  0
ENDBLK
  5
144
330
13F
100
AcDbEntity
  8
0
100
AcDbBlockEnd
  0
BLOCK
  5
14D
330
146
100
AcDbEntity
  8
0
100
AcDbBlockBegin
  2
*D9
 70
     1
 10
0.0
 20
0.0
 30
0.0
  3
*D9
  1

  0
LINE
  5
147
330
146
100
AcDbEntity
  8
1
  6
Continuous
 62
     2
100
AcDbLine
 10
180.8612018072332
 20
300.6950364694999
 30
0.0
 11
182.8612018072332
 21
300.6950364694999
 31
0.0
  0
LINE
  5
148
330
146
100
AcDbEntity
  8
1
  6
Continuous
 62
     2
100
AcDbLine
 10
147.0889758893
 20
300.6950364694999
 30
0.0
 11
180.8612018072332
 21
300.6950364694999
 31
0.0
  0
ARC
  5
149
330
146
100
AcDbEntity
  8
1
  6
Continuous
 62
     2
100
AcDbCircle
 10
145.0889758893
 20
300.6950364694999
 30
0.0
 40
35.77222591793324
100
AcDbArc
 50
347.0911622851619
 51
16.1853377607269
  0
SOLID
  5
14A
330
146
100
AcDbEntity
  8
1
 62
     2
100
AcDbTrace
 10
180.7630691686603
 20
294.3581994880781
 30
0.0
 11
179.8489775256101
 21
294.4753450984729
 31
0.0
 12
180.7509279731068
 22
297.8883799718286
 32
0.0
 13
180.7509279731068
 23
297.8883799718286
 33
0.0
  0
SOLID
  5
14B
330
146
100
AcDbEntity
  8
1
 62
     2
100
AcDbTrace
 10
180.2298154018043
 20
304.1683163118855
 30
0.0
 11
181.1502803440416
 21
304.2133819977332
 31
0.0
 12
180.8612018072332
 22
300.6950364694999
 32
0.0
 13
180.8612018072332
 23
300.6950364694999
 33
0.0
  0
MTEXT
  5
14C
330
146
100
AcDbEntity
  8
1
 62
     3
100
AcDbMText
 10
181.5226144504093
 20
311.2698772245107
 30
0.0
 40
3.5
 41
0.0
 71
     7
 72
     1
  1
\C3;\C3;\C3;4.5%%d\C2;\H2.45;\S^ ;\C3;
  7
CONVERTER_11
 11
0.1880456866164355
 21
-0.9821602821051936
 31
0.0
 73
     1
 44
0.60024009603842
  0
ENDBLK
  5
14E
330
146
100
AcDbEntity
  8
0
100
AcDbBlockEnd
  0
ENDSEC
  0
SECTION
  2
ENTITIES
  0
INSERT
  5
6C
330
1F
100
AcDbEntity
  8
0
100
AcDbBlockReference
  2
Urheberrecht_DE-EN
 10
41.398555182011
 20
301.032481434955
 30
0.0
  0
LINE
  5
70
330
1F
100
AcDbEntity
  8
BEZUGSACHSEN
  6
Continuous
 62
     7
100
AcDbLine
 10
50.913794834
 20
251.0948669509
 30
0.0
 11
50.913794834
 21
272.6850364695
 31
0.0
  0
LINE
  5
71
330
1F
100
AcDbEntity
  8
BEZUGSACHSEN
  6
Continuous
 62
     7
100
AcDbLine
 10
50.913794834
 20
296.7050364695
 30
0.0
 11
50.913794834
 21
318.2952280321
 31
0.0
  0
LINE
  5
72
330
1F
100
AcDbEntity
  8
BEZUGSACHSEN
  6
Continuous
 62
     9
100
AcDbLine
 10
52.8137203493
 20
320.2927227378
 30
0.0
 11
52.8137203493
 21
300.3715688557
 31
0.0
  0
LINE
  5
73
330
1F
100
AcDbEntity
  8
BEZUGSACHSEN
  6
Continuous
 62
     9
100
AcDbLine
 10
52.8137203493
 20
269.0185040832
 30
0.0
 11
52.8137203493
 21
249.0973502012
 31
0.0
  0
LINE
  5
74
330
1F
100
AcDbEntity
  8
BEZUGSACHSEN
  6
Continuous
 62
     7
100
AcDbLine
 10
52.913794834
 20
272.2913965211
 30
0.0
 11
52.913794834
 21
274.6850364695
 31
0.0
  0
LINE
  5
75
330
1F
100
AcDbEntity
  8
BEZUGSACHSEN
  6
Continuous
 62
     7
100
AcDbLine
 10
52.913794834
 20
294.7050364695
 30
0.0
 11
52.913794834
 21
297.0986764179
 31
0.0
  0
LINE
  5
76
330
1F
100
AcDbEntity
  8
BEZUGSACHSEN
  6
Continuous
 62
     9
100
AcDbLine
 10
58.913794834
 20
268.336388882
 30
0.0
 11
58.913794834
 21
274.6850364695
 31
0.0
  0
LINE
  5
77
330
1F
100
AcDbEntity
  8
BEZUGSACHSEN
  6
Continuous
 62
     9
100
AcDbLine
 10
58.913794834
 20
294.7050364695
 30
0.0
 11
58.913794834
 21
301.0536840569
 31
0.0
  0
LINE
  5
78
330
1F
100
AcDbEntity
  8
BEZUGSACHSEN
  6
Continuous
 62
     7
100
AcDbLine
 10
60.913794834
 20
297.5646919953
 30
0.0
 11
60.913794834
 21
271.8253809437
 31
0.0
  0
LINE
  5
79
330
1F
100
AcDbEntity
  8
BEZUGSACHSEN
  6
Continuous
 62
     7
100
AcDbLine
 10
52.1807477611
 20
269.6850364695
 30
0.0
 11
52.0596375096
 21
269.452700474
 31
0.0
  0
LINE
  5
7A
330
1F
100
AcDbEntity
  8
BEZUGSACHSEN
  6
Continuous
 62
     7
100
AcDbLine
 10
52.0596375096
 20
299.9373724649
 30
0.0
 11
52.1807477611
 21
299.7050364695
 31
0.0
  0
LINE
  5
7B
330
1F
100
AcDbEntity
  8
BEZUGSACHSEN
  6
Continuous
 62
     7
100
AcDbLine
 10
117.6661995699
 20
234.6950364695
 30
0.0
 11
100.913794834
 21
234.6950364695
 31
0.0
  0
LINE
  5
7C
330
1F
100
AcDbEntity
  8
BEZUGSACHSEN
  6
Continuous
 62
     7
100
AcDbLine
 10
124.1613900982
 20
234.6950364695
 30
0.0
 11
129.913794834
 21
234.6950364695
 31
0.0
  0
LINE
  5
7D
330
1F
100
AcDbEntity
  8
BEZUGSACHSEN
  6
Continuous
 62
     7
100
AcDbLine
 10
50.913794834
 20
272.6850364695
 30
0.0
 11
52.913794834
 21
274.6850364695
 31
0.0
  0
LINE
  5
7E
330
1F
100
AcDbEntity
  8
BEZUGSACHSEN
  6
Continuous
 62
     7
100
AcDbLine
 10
120.038794834
 20
238.6950364695
 30
0.0
 11
121.788794834
 21
238.6950364695
 31
0.0
  0
LINE
  5
7F
330
1F
100
AcDbEntity
  8
BEZUGSACHSEN
  6
Continuous
 62
     7
100
AcDbLine
 10
52.913794834
 20
294.7050364695
 30
0.0
 11
50.913794834
 21
296.7050364695
 31
0.0
  0
LWPOLYLINE
  5
80
330
1F
100
AcDbEntity
  8
BEZUGSACHSEN
  6
DOT_CENTER
 62
     7
100
AcDbPolyline
 90
        2
 70
     0
 43
0.25
 10
85.913794834
 20
284.6950364695
 10
85.913794834
 20
275.6950364695
  0
LWPOLYLINE
  5
81
330
1F
100
AcDbEntity
  8
BEZUGSACHSEN
  6
DOT_CENTER
 62
     7
100
AcDbPolyline
 90
        2
 70
     0
 43
0.25
 10
85.913794834
 20
284.6950364695
 10
85.913794834
 20
293.6950364695
  0
LINE
  5
82
330
1F
100
AcDbEntity
  8
FASEN
  6
Continuous
 62
     7
100
AcDbLine
 10
106.3152807985
 20
245.8652798388
 30
0.0
 11
117.6661995699
 21
245.8652798388
 31
0.0
  0
LINE
  5
83
330
1F
100
AcDbEntity
  8
0
  6
Continuous
 62
     7
100
AcDbLine
 10
124.1613900982
 20
245.8652798388
 30
0.0
 11
129.913794834
 21
245.8652798388
 31
0.0
  0
LINE
  5
84
330
1F
100
AcDbEntity
  8
BEZUGSACHSEN
  6
Continuous
 62
     7
100
AcDbLine
 10
100.2132235454
 20
247.0127864695
 30
0.0
 11
99.2918574931
 21
247.0127864695
 31
0.0
  0
LINE
  5
85
330
1F
100
AcDbEntity
  8
BEZUGSACHSEN
  6
Continuous
 62
     7
100
AcDbLine
 10
98.413794834
 20
246.8127864695
 30
0.0
 11
52.8137203493
 21
249.0973502012
 31
0.0
  0
LINE
  5
86
330
1F
100
AcDbEntity
  8
BEZUGSACHSEN
  6
Continuous
 62
     7
100
AcDbLine
 10
99.033038448
 20
246.9787122958
 30
0.0
 11
98.413794834
 21
246.8127864695
 31
0.0
  0
LINE
  5
87
330
1F
100
AcDbEntity
  8
0
  6
Continuous
 62
     7
100
AcDbLine
 10
120.038794834
 20
251.1726558858
 30
0.0
 11
121.788794834
 21
251.1726558858
 31
0.0
  0
LINE
  5
88
330
1F
100
AcDbEntity
  8
FASEN
  6
Continuous
 62
     7
100
AcDbLine
 10
113.8856687559
 20
252.7950364695
 30
0.0
 11
129.913794834
 21
252.7950364695
 31
0.0
  0
LINE
  5
89
330
1F
100
AcDbEntity
  8
0
  6
Continuous
 62
     7
100
AcDbLine
 10
113.8856687559
 20
253.1950364695
 30
0.0
 11
129.913794834
 21
253.1950364695
 31
0.0
  0
LINE
  5
8A
330
1F
100
AcDbEntity
  8
BEZUGSACHSEN
  6
Continuous
 62
     7
100
AcDbLine
 10
98.413794834
 20
322.5772864695
 30
0.0
 11
98.413794834
 21
246.8127864695
 31
0.0
  0
LINE
  5
8B
330
1F
100
AcDbEntity
  8
BEZUGSACHSEN
  6
Continuous
 62
     9
100
AcDbLine
 10
99.033038448
 20
246.9787122958
 30
0.0
 11
99.033038448
 21
322.4113606432
 31
0.0
  0
LINE
  5
8C
330
1F
100
AcDbEntity
  8
BEZUGSACHSEN
  6
Continuous
 62
     9
100
AcDbLine
 10
99.2918574931
 20
247.0127864695
 30
0.0
 11
99.2918574931
 21
322.3772864695
 31
0.0
  0
LINE
  5
8D
330
1F
100
AcDbEntity
  8
BEZUGSACHSEN
  6
Continuous
 62
     9
100
AcDbLine
 10
100.2132235454
 20
247.0127864695
 30
0.0
 11
100.2132235454
 21
322.3772864695
 31
0.0
  0
LINE
  5
8E
330
1F
100
AcDbEntity
  8
BEZUGSACHSEN
  6
Continuous
 62
     7
100
AcDbLine
 10
122.788794834
 20
332.3176317337
 30
0.0
 11
124.1613900982
 21
334.6950364695
 31
0.0
  0
LINE
  5
8F
330
1F
100
AcDbEntity
  8
BEZUGSACHSEN
  6
Continuous
 62
     7
100
AcDbLine
 10
122.788794834
 20
237.0724412053
 30
0.0
 11
124.1613900982
 21
234.6950364695
 31
0.0
  0
LINE
  5
90
330
1F
100
AcDbEntity
  8
BEZUGSACHSEN
  6
Continuous
 62
     7
100
AcDbLine
 10
100.913794834
 20
334.6950364695
 30
0.0
 11
100.913794834
 21
234.6950364695
 31
0.0
  0
LINE
  5
91
330
1F
100
AcDbEntity
  8
BEZUGSACHSEN
  6
Continuous
 62
     9
100
AcDbLine
 10
50.913794834
 20
271.2488525005
 30
0.0
 11
52.913794834
 21
272.2913965211
 31
0.0
  0
LINE
  5
92
330
1F
100
AcDbEntity
  8
RUNDUNGEN
  6
Continuous
 62
     7
100
AcDbLine
 10
194.9922539298
 20
272.6225096274
 30
0.0
 11
145.0889758893
 21
268.6950364695
 31
0.0
  0
LINE
  5
93
330
1F
100
AcDbEntity
  8
0
  6
Continuous
 62
     7
100
AcDbLine
 10
145.0889758893
 20
268.6950364695
 30
0.0
 11
194.9922539298
 21
272.6225096274
 31
0.0
  0
LINE
  5
94
330
1F
100
AcDbEntity
  8
BEZUGSACHSEN
  6
Continuous
 62
     9
100
AcDbLine
 10
52.913794834
 20
297.0986764179
 30
0.0
 11
50.913794834
 21
298.1412204385
 31
0.0
  0
LWPOLYLINE
  5
95
330
1F
100
AcDbEntity
  8
BEZUGSACHSEN
  6
DOT_CENTER
 62
     7
100
AcDbPolyline
 90
        2
 70
     0
 43
0.25
 10
107.913794834
 20
326.8444083248
 10
107.913794834
 20
337.6950364695
  0
LINE
  5
96
330
1F
100
AcDbEntity
  8
RUNDUNGEN
  6
Continuous
 62
     7
100
AcDbLine
 10
145.0889758893
 20
268.6950364695
 30
0.0
 11
135.913794834
 21
268.6950364695
 31
0.0
  0
LINE
  5
97
330
1F
100
AcDbEntity
  8
0
  6
Continuous
 62
     7
100
AcDbLine
 10
135.913794834
 20
268.6950364695
 30
0.0
 11
145.0889758893
 21
268.6950364695
 31
0.0
  0
LINE
  5
98
330
1F
100
AcDbEntity
  8
BEZUGSACHSEN
  6
Continuous
 62
     9
100
AcDbLine
 10
60.467640781
 20
269.6850364695
 30
0.0
 11
52.1807477611
 21
269.6850364695
 31
0.0
  0
LINE
  5
99
330
1F
100
AcDbEntity
  8
FASEN
  6
Continuous
 62
     9
100
AcDbLine
 10
113.8856687559
 20
252.7950364695
 30
0.0
 11
113.8856687559
 21
253.1950364695
 31
0.0
  0
LINE
  5
9A
330
1F
100
AcDbEntity
  8
FASEN
  6
Continuous
 62
     9
100
AcDbLine
 10
115.913794834
 20
275.0950364695
 30
0.0
 11
115.913794834
 21
274.6950364695
 31
0.0
  0
LINE
  5
9B
330
1F
100
AcDbEntity
  8
FASEN
  6
Continuous
 62
     9
100
AcDbLine
 10
115.913794834
 20
294.2950364695
 30
0.0
 11
115.913794834
 21
294.6950364695
 31
0.0
  0
LINE
  5
9C
330
1F
100
AcDbEntity
  8
0
  6
Continuous
 62
     7
100
AcDbLine
 10
117.6661995699
 20
334.6950364695
 30
0.0
 11
117.6661995699
 21
294.6950364695
 31
0.0
  0
LINE
  5
9D
330
1F
100
AcDbEntity
  8
0
  6
Continuous
 62
     7
100
AcDbLine
 10
117.6661995699
 20
274.6950364695
 30
0.0
 11
117.6661995699
 21
253.1950364695
 31
0.0
  0
LINE
  5
9E
330
1F
100
AcDbEntity
  8
0
  6
Continuous
 62
     7
100
AcDbLine
 10
117.6661995699
 20
245.8652798388
 30
0.0
 11
117.6661995699
 21
234.6950364695
 31
0.0
  0
LINE
  5
9F
330
1F
100
AcDbEntity
  8
BEZUGSACHSEN
  6
Continuous
 62
     7
100
AcDbLine
 10
58.913794834
 20
274.6850364695
 30
0.0
 11
52.913794834
 21
274.6850364695
 31
0.0
  0
LINE
  5
A0
330
1F
100
AcDbEntity
  8
0
  6
Continuous
 62
     7
100
AcDbLine
 10
115.913794834
 20
274.6950364695
 30
0.0
 11
129.913794834
 21
274.6950364695
 31
0.0
  0
LINE
  5
A1
330
1F
100
AcDbEntity
  8
FASEN
  6
Continuous
 62
     7
100
AcDbLine
 10
129.913794834
 20
275.0950364695
 30
0.0
 11
115.913794834
 21
275.0950364695
 31
0.0
  0
LWPOLYLINE
  5
A2
330
1F
100
AcDbEntity
  8
DEFAULT_2
  6
DASHED
 62
     8
100
AcDbPolyline
 90
        2
 70
     0
 43
0.35
 10
195.913794834
 20
278.6950364695
 10
148.913794834
 20
278.6950364695
  0
LINE
  5
A3
330
1F
100
AcDbEntity
  8
0
  6
Continuous
 62
     7
100
AcDbLine
 10
119.038794834
 20
332.3175983072
 30
0.0
 11
119.038794834
 21
294.6950364695
 31
0.0
  0
LINE
  5
A4
330
1F
100
AcDbEntity
  8
0
  6
Continuous
 62
     7
100
AcDbLine
 10
119.038794834
 20
274.6950364695
 30
0.0
 11
119.038794834
 21
253.1950364695
 31
0.0
  0
LINE
  5
A5
330
1F
100
AcDbEntity
  8
0
  6
Continuous
 62
     7
100
AcDbLine
 10
119.038794834
 20
237.0724787392
 30
0.0
 11
119.038794834
 21
249.8130927163
 31
0.0
  0
LINE
  5
A6
330
1F
100
AcDbEntity
  8
0
  6
Continuous
 62
     9
100
AcDbLine
 10
120.038794834
 20
238.6950364695
 30
0.0
 11
120.038794834
 21
251.1726558858
 31
0.0
  0
LINE
  5
A7
330
1F
100
AcDbEntity
  8
0
  6
Continuous
 62
     9
100
AcDbLine
 10
120.038794834
 20
253.1950364695
 30
0.0
 11
120.038794834
 21
274.6950364695
 31
0.0
  0
LINE
  5
A8
330
1F
100
AcDbEntity
  8
0
  6
Continuous
 62
     9
100
AcDbLine
 10
120.038794834
 20
294.6950364695
 30
0.0
 11
120.038794834
 21
330.6950364695
 31
0.0
  0
LINE
  5
A9
330
1F
100
AcDbEntity
  8
0
  6
Continuous
 62
     9
100
AcDbLine
 10
121.788794834
 20
238.6950364695
 30
0.0
 11
121.788794834
 21
251.1726558858
 31
0.0
  0
LINE
  5
AA
330
1F
100
AcDbEntity
  8
0
  6
Continuous
 62
     9
100
AcDbLine
 10
121.788794834
 20
253.1950364695
 30
0.0
 11
121.788794834
 21
274.6950364695
 31
0.0
  0
LINE
  5
AB
330
1F
100
AcDbEntity
  8
0
  6
Continuous
 62
     9
100
AcDbLine
 10
121.788794834
 20
294.6950364695
 30
0.0
 11
121.788794834
 21
330.6950364695
 31
0.0
  0
LINE
  5
AC
330
1F
100
AcDbEntity
  8
0
  6
Continuous
 62
     7
100
AcDbLine
 10
122.788794834
 20
237.0724787392
 30
0.0
 11
122.788794834
 21
249.8130927163
 31
0.0
  0
LINE
  5
AD
330
1F
100
AcDbEntity
  8
0
  6
Continuous
 62
     7
100
AcDbLine
 10
122.788794834
 20
253.1950364695
 30
0.0
 11
122.788794834
 21
274.6950364695
 31
0.0
  0
LINE
  5
AE
330
1F
100
AcDbEntity
  8
0
  6
Continuous
 62
     7
100
AcDbLine
 10
122.788794834
 20
294.6950364695
 30
0.0
 11
122.788794834
 21
332.3175983072
 31
0.0
  0
LINE
  5
AF
330
1F
100
AcDbEntity
  8
0
  6
Continuous
 62
     7
100
AcDbLine
 10
124.1613900982
 20
334.6950364695
 30
0.0
 11
124.1613900982
 21
294.6950364695
 31
0.0
  0
LINE
  5
B0
330
1F
100
AcDbEntity
  8
0
  6
Continuous
 62
     7
100
AcDbLine
 10
124.1613900982
 20
274.6950364695
 30
0.0
 11
124.1613900982
 21
253.1950364695
 31
0.0
  0
LINE
  5
B1
330
1F
100
AcDbEntity
  8
0
  6
Continuous
 62
     7
100
AcDbLine
 10
124.1613900982
 20
245.8652798388
 30
0.0
 11
124.1613900982
 21
234.6950364695
 31
0.0
  0
LWPOLYLINE
  5
B2
330
1F
100
AcDbEntity
  8
BEZUGSACHSEN
  6
DOT_CENTER
 62
     7
100
AcDbPolyline
 90
        2
 70
     0
 43
0.25
 10
198.913794834
 20
284.6950364695
 10
47.913794834
 20
284.6950364695
  0
LINE
  5
B3
330
1F
100
AcDbEntity
  8
0
  6
Continuous
 62
     7
100
AcDbLine
 10
129.913794834
 20
334.6949995484
 30
0.0
 11
129.913794834
 21
294.6950364695
 31
0.0
  0
LINE
  5
B4
330
1F
100
AcDbEntity
  8
0
  6
Continuous
 62
     7
100
AcDbLine
 10
129.913794834
 20
274.6950364695
 30
0.0
 11
129.913794834
 21
253.1950364695
 31
0.0
  0
LINE
  5
B5
330
1F
100
AcDbEntity
  8
0
  6
Continuous
 62
     7
100
AcDbLine
 10
129.913794834
 20
245.8652798388
 30
0.0
 11
129.913794834
 21
234.6950383373
 31
0.0
  0
LINE
  5
B6
330
1F
100
AcDbEntity
  8
FASEN
  6
Continuous
 62
     7
100
AcDbLine
 10
129.913794834
 20
245.8652798388
 30
0.0
 11
129.913794834
 21
253.1950364695
 31
0.0
  0
LINE
  5
B7
330
1F
100
AcDbEntity
  8
FASEN
  6
Continuous
 62
     7
100
AcDbLine
 10
129.913794834
 20
274.6950364695
 30
0.0
 11
129.913794834
 21
294.6950364695
 31
0.0
  0
LWPOLYLINE
  5
B8
330
1F
100
AcDbEntity
  8
DEFAULT_2
  6
DASHED
 62
     8
100
AcDbPolyline
 90
        2
 70
     0
 43
0.35
 10
195.913794834
 20
290.6950364695
 10
148.913794834
 20
290.6950364695
  0
LINE
  5
B9
330
1F
100
AcDbEntity
  8
RUNDUNGEN
  6
Continuous
 62
     9
100
AcDbLine
 10
135.913794834
 20
300.6950364695
 30
0.0
 11
135.913794834
 21
268.6950364695
 31
0.0
  0
LINE
  5
BA
330
1F
100
AcDbEntity
  8
FASEN
  6
Continuous
 62
     7
100
AcDbLine
 10
115.913794834
 20
294.2950364695
 30
0.0
 11
129.913794834
 21
294.2950364695
 31
0.0
  0
LINE
  5
BB
330
1F
100
AcDbEntity
  8
0
  6
Continuous
 62
     7
100
AcDbLine
 10
115.913794834
 20
294.6950364695
 30
0.0
 11
129.913794834
 21
294.6950364695
 31
0.0
  0
LINE
  5
BC
330
1F
100
AcDbEntity
  8
BEZUGSACHSEN
  6
Continuous
 62
     7
100
AcDbLine
 10
58.913794834
 20
294.7050364695
 30
0.0
 11
52.913794834
 21
294.7050364695
 31
0.0
  0
LINE
  5
BD
330
1F
100
AcDbEntity
  8
BEZUGSACHSEN
  6
Continuous
 62
     9
100
AcDbLine
 10
52.1807477611
 20
299.7050364695
 30
0.0
 11
60.467640781
 21
299.7050364695
 31
0.0
  0
LINE
  5
BE
330
1F
100
AcDbEntity
  8
RUNDUNGEN
  6
Continuous
 62
     7
100
AcDbLine
 10
145.0889758893
 20
300.6950364695
 30
0.0
 11
135.913794834
 21
300.6950364695
 31
0.0
  0
LINE
  5
BF
330
1F
100
AcDbEntity
  8
0
  6
Continuous
 62
     7
100
AcDbLine
 10
135.913794834
 20
300.6950364695
 30
0.0
 11
145.0889758893
 21
300.6950364695
 31
0.0
  0
LINE
  5
C0
330
1F
100
AcDbEntity
  8
RUNDUNGEN
  6
Continuous
 62
     7
100
AcDbLine
 10
194.9922539298
 20
296.7675633116
 30
0.0
 11
145.0889758893
 21
300.6950364695
 31
0.0
  0
LINE
  5
C1
330
1F
100
AcDbEntity
  8
0
  6
Continuous
 62
     7
100
AcDbLine
 10
145.0889758893
 20
300.6950364695
 30
0.0
 11
194.9922539298
 21
296.7675633116
 31
0.0
  0
LINE
  5
C2
330
1F
100
AcDbEntity
  8
0
  6
Continuous
 62
     7
100
AcDbLine
 10
145.0889758893
 20
300.6950364695
 30
0.0
 11
145.0889758893
 21
268.6950364695
 31
0.0
  0
LINE
  5
C3
330
1F
100
AcDbEntity
  8
BEZUGSACHSEN
  6
Continuous
 62
     7
100
AcDbLine
 10
117.6661995699
 20
234.6950364695
 30
0.0
 11
119.038794834
 21
237.0724412053
 31
0.0
  0
LINE
  5
C4
330
1F
100
AcDbEntity
  8
BEZUGSACHSEN
  6
Continuous
 62
     7
100
AcDbLine
 10
117.6661995699
 20
334.6950364695
 30
0.0
 11
119.038794834
 21
332.3176317337
 31
0.0
  0
LWPOLYLINE
  5
C5
330
1F
100
AcDbEntity
  8
DEFAULT_2
  6
DASHED
 62
     8
100
AcDbPolyline
 90
        2
 70
     0
 43
0.35
 10
148.913794834
 20
290.6950364695
 10
148.913794834
 20
278.6950364695
  0
LINE
  5
C6
330
1F
100
AcDbEntity
  8
BEZUGSACHSEN
  6
Continuous
 62
     7
100
AcDbLine
 10
99.033038448
 20
322.4113606432
 30
0.0
 11
98.413794834
 21
322.5772864695
 31
0.0
  0
LINE
  5
C7
330
1F
100
AcDbEntity
  8
BEZUGSACHSEN
  6
Continuous
 62
     7
100
AcDbLine
 10
98.413794834
 20
322.5772864695
 30
0.0
 11
52.8137203493
 21
320.2927227378
 31
0.0
  0
LINE
  5
C8
330
1F
100
AcDbEntity
  8
BEZUGSACHSEN
  6
Continuous
 62
     7
100
AcDbLine
 10
100.2132235454
 20
322.3772864695
 30
0.0
 11
99.2918574931
 21
322.3772864695
 31
0.0
  0
LINE
  5
C9
330
1F
100
AcDbEntity
  8
BEZUGSACHSEN
  6
Continuous
 62
     7
100
AcDbLine
 10
120.038794834
 20
330.6950364695
 30
0.0
 11
121.788794834
 21
330.6950364695
 31
0.0
  0
LINE
  5
CA
330
1F
100
AcDbEntity
  8
BEZUGSACHSEN
  6
Continuous
 62
     7
100
AcDbLine
 10
117.6661995699
 20
334.6950364695
 30
0.0
 11
112.913794834
 21
334.6950364695
 31
0.0
  0
LINE
  5
CB
330
1F
100
AcDbEntity
  8
BEZUGSACHSEN
  6
Continuous
 62
     7
100
AcDbLine
 10
102.913794834
 20
334.6950364695
 30
0.0
 11
100.913794834
 21
334.6950364695
 31
0.0
  0
LINE
  5
CC
330
1F
100
AcDbEntity
  8
BEZUGSACHSEN
  6
Continuous
 62
     7
100
AcDbLine
 10
124.1613900982
 20
334.6950364695
 30
0.0
 11
129.913794834
 21
334.6950364695
 31
0.0
  0
LINE
  5
CD
330
1F
100
AcDbEntity
  8
RUNDUNGEN
  6
Continuous
 62
     9
100
AcDbLine
 10
194.9922539298
 20
272.6225096274
 30
0.0
 11
194.9922539298
 21
296.7675633116
 31
0.0
  0
LINE
  5
CE
330
1F
100
AcDbEntity
  8
RUNDUNGEN
  6
Continuous
 62
     7
100
AcDbLine
 10
195.913794834
 20
273.6194269611
 30
0.0
 11
195.913794834
 21
295.7706459778
 31
0.0
  0
LWPOLYLINE
  5
CF
330
1F
100
AcDbEntity
  8
1
  6
Continuous
 62
     7
100
AcDbPolyline
 90
        2
 70
     0
 43
0.25
 10
195.913794834
 20
295.7706459778
 10
195.913794834
 20
296.6950364694681
  0
LWPOLYLINE
  5
D0
330
1F
100
AcDbEntity
  8
1
  6
Continuous
 62
     7
100
AcDbPolyline
 90
        2
 70
     0
 43
0.25
 10
194.9922539298
 20
296.7675633116
 10
195.9137948340105
 20
296.6950364694681
  0
LWPOLYLINE
  5
D1
330
1F
100
AcDbEntity
  8
1
  6
Continuous
 62
     7
100
AcDbPolyline
 90
        2
 70
     0
 43
0.25
 10
194.9922539298
 20
272.6225096274
 10
195.913794834
 20
272.6950364695343
  0
LWPOLYLINE
  5
D2
330
1F
100
AcDbEntity
  8
1
  6
Continuous
 62
     7
100
AcDbPolyline
 90
        2
 70
     0
 43
0.25
 10
195.913794834
 20
273.6194269611
 10
195.913794834
 20
272.6950364695343
  0
ARC
  5
D3
330
1F
100
AcDbEntity
  8
FASEN
  6
Continuous
 62
     7
100
AcDbCircle
 10
118.8144488569
 20
260.2262997395
 30
0.0
 40
19.03859487300018
100
AcDbArc
 50
227.4837701983004
 51
228.9651953375289
  0
ARC
  5
D4
330
1F
100
AcDbEntity
  8
FASEN
  6
Continuous
 62
     7
100
AcDbCircle
 10
113.8856687559
 20
245.1950364695
 30
0.0
 40
8.0
100
AcDbArc
 50
90.0
 51
172.8323734889969
  0
ARC
  5
D5
330
1F
100
AcDbEntity
  8
FASEN
  6
Continuous
 62
     7
100
AcDbCircle
 10
113.8856687559
 20
245.1950364695
 30
0.0
 40
7.599982194900008
100
AcDbArc
 50
90.0
 51
174.9405171273012
  0
ARC
  5
D6
330
1F
100
AcDbEntity
  8
BEZUGSACHSEN
  6
Continuous
 62
     7
100
AcDbCircle
 10
58.913794834
 20
276.6850364695
 30
0.0
 40
2.0
100
AcDbArc
 50
270.0
 51
355.2355361864946
  0
ARC
  5
D7
330
1F
100
AcDbEntity
  8
BEZUGSACHSEN
  6
Continuous
 62
     7
100
AcDbCircle
 10
52.913794834
 20
251.0948449064
 30
0.0
 40
2.0
100
AcDbArc
 50
180.0
 51
267.1318795135584
  0
ARC
  5
D8
330
1F
100
AcDbEntity
  8
BEZUGSACHSEN
  6
Continuous
 62
     7
100
AcDbCircle
 10
120.038794834
 20
237.6950364695
 30
0.0
 40
1.0
100
AcDbArc
 50
90.0
 51
180.0
  0
ARC
  5
D9
330
1F
100
AcDbEntity
  8
BEZUGSACHSEN
  6
Continuous
 62
     7
100
AcDbCircle
 10
99.2918574931
 20
246.0127864695
 30
0.0
 40
1.0
100
AcDbArc
 50
90.0
 51
104.9999999996985
  0
ARC
  5
DA
330
1F
100
AcDbEntity
  8
BEZUGSACHSEN
  6
Continuous
 62
     7
100
AcDbCircle
 10
100.2132235454
 20
246.0127864695
 30
0.0
 40
0.9999999999997087
100
AcDbArc
 50
45.52164291272349
 51
90.0
  0
ARC
  5
DB
330
1F
100
AcDbEntity
  8
0
  6
Continuous
 62
     7
100
AcDbCircle
 10
-123.6839850485
 20
354.1295040599
 30
0.0
 40
264.5204223902805
100
AcDbArc
 50
335.8400764706079
 51
336.5770705490999
  0
ARC
  5
DC
330
1F
100
AcDbEntity
  8
BEZUGSACHSEN
  6
Continuous
 62
     7
100
AcDbCircle
 10
107.9290028452
 20
384.7478062364
 30
0.0
 40
50.30340021046194
100
AcDbArc
 50
264.2781515100879
 51
269.9826780126002
  0
ARC
  5
DD
330
1F
100
AcDbEntity
  8
BEZUGSACHSEN
  6
Continuous
 62
     7
100
AcDbCircle
 10
107.898586833
 20
384.7478060355
 30
0.0
 40
50.30340000949738
100
AcDbArc
 50
270.0173219760584
 51
275.7218485011659
  0
ARC
  5
DE
330
1F
100
AcDbEntity
  8
0
  6
Continuous
 62
     7
100
AcDbCircle
 10
115.913794834
 20
284.6950364695
 30
0.0
 40
10.0
100
AcDbArc
 50
90.0
 51
270.0
  0
ARC
  5
DF
330
1F
100
AcDbEntity
  8
FASEN
  6
Continuous
 62
     7
100
AcDbCircle
 10
115.913794834
 20
284.6950364695
 30
0.0
 40
9.599999195900011
100
AcDbArc
 50
90.0
 51
270.0
  0
ARC
  5
E0
330
1F
100
AcDbEntity
  8
BEZUGSACHSEN
  6
Continuous
 62
     7
100
AcDbCircle
 10
58.913794834
 20
292.7050364695
 30
0.0
 40
1.999999999999984
100
AcDbArc
 50
4.76446378498879
 51
90.0
  0
ARC
  5
E1
330
1F
100
AcDbEntity
  8
BEZUGSACHSEN
  6
Continuous
 62
     7
100
AcDbCircle
 10
52.913794834
 20
318.2952280326
 30
0.0
 40
1.999999999947485
100
AcDbArc
 50
92.86812048644158
 51
180.0000000143238
  0
ARC
  5
E2
330
1F
100
AcDbEntity
  8
BEZUGSACHSEN
  6
Continuous
 62
     7
100
AcDbCircle
 10
120.038794834
 20
331.6950364695
 30
0.0
 40
1.0
100
AcDbArc
 50
180.0
 51
270.0
  0
ARC
  5
E3
330
1F
100
AcDbEntity
  8
BEZUGSACHSEN
  6
Continuous
 62
     7
100
AcDbCircle
 10
99.2918574931
 20
323.3772864695
 30
0.0
 40
1.000000000009914
100
AcDbArc
 50
255.0000000003019
 51
270.0
  0
ARC
  5
E4
330
1F
100
AcDbEntity
  8
BEZUGSACHSEN
  6
Continuous
 62
     7
100
AcDbCircle
 10
100.2132235454
 20
323.3772864695
 30
0.0
 40
1.0
100
AcDbArc
 50
270.0
 51
314.4783570872754
  0
ARC
  5
E5
330
1F
100
AcDbEntity
  8
BEZUGSACHSEN
  6
Continuous
 62
     7
100
AcDbCircle
 10
237.2438414323
 20
-1321.3477228205
 30
0.0
 40
1632.172763698
100
AcDbArc
 50
96.2726189838
 51
96.48809068979999
  0
ARC
  5
E6
330
1F
100
AcDbEntity
  8
RUNDUNGEN
  6
Continuous
 62
     7
100
AcDbCircle
 10
135.913794834
 20
262.6950364695
 30
0.0
 40
6.0
100
AcDbArc
 50
90.0
 51
180.0
  0
ARC
  5
E7
330
1F
100
AcDbEntity
  8
RUNDUNGEN
  6
Continuous
 62
     7
100
AcDbCircle
 10
194.913794834
 20
273.6194269611
 30
0.0
 40
0.9999999999726054
100
AcDbArc
 50
274.5000000042713
 51
0.0
  0
ARC
  5
E8
330
1F
100
AcDbEntity
  8
BEZUGSACHSEN
  6
Continuous
 62
     7
100
AcDbCircle
 10
121.788794834
 20
237.6950364695
 30
0.0
 40
1.0
100
AcDbArc
 50
0.0
 51
90.0
  0
ARC
  5
E9
330
1F
100
AcDbEntity
  8
BEZUGSACHSEN
  6
Continuous
 62
     7
100
AcDbCircle
 10
237.2438414375
 20
1890.7377958064
 30
0.0
 40
1632.1727637452
100
AcDbArc
 50
263.5119093102
 51
263.7273810162
  0
ARC
  5
EA
330
1F
100
AcDbEntity
  8
0
  6
Continuous
 62
     7
100
AcDbCircle
 10
365.5115747166
 20
354.1295040599
 30
0.0
 40
264.5204223902001
100
AcDbArc
 50
203.4229294508999
 51
204.1599235293921
  0
ARC
  5
EB
330
1F
100
AcDbEntity
  8
RUNDUNGEN
  6
Continuous
 62
     7
100
AcDbCircle
 10
135.913794834
 20
306.6950364695
 30
0.0
 40
6.0
100
AcDbArc
 50
180.0
 51
270.0
  0
ARC
  5
EC
330
1F
100
AcDbEntity
  8
BEZUGSACHSEN
  6
Continuous
 62
     7
100
AcDbCircle
 10
121.788794834
 20
331.6950364695
 30
0.0
 40
1.0
100
AcDbArc
 50
270.0
 51
0.0
  0
ARC
  5
ED
330
1F
100
AcDbEntity
  8
RUNDUNGEN
  6
Continuous
 62
     7
100
AcDbCircle
 10
194.913794834
 20
295.7706459778
 30
0.0
 40
1.0
100
AcDbArc
 50
0.0
 51
85.49999999617846
  0
CIRCLE
  5
EE
330
1F
100
AcDbEntity
  8
BEZUGSACHSEN
  6
Continuous
 62
     7
100
AcDbCircle
 10
85.913794834
 20
284.6950364695
 30
0.0
 40
6.0
  0
SPLINE
  5
EF
330
1F
100
AcDbEntity
  8
BEZUGSACHSEN
  6
Continuous
 62
     7
100
AcDbSpline
210
0.0
220
0.0
230
1.0
 70
     8
 71
     3
 72
    19
 73
    15
 74
    13
 42
0.0000000001
 43
0.0000000001
 44
0.00000001
 40
0.0
 40
0.0
 40
0.0
 40
0.0
 40
0.1462385988632272
 40
0.2927479275651151
 40
0.4364790706808171
 40
0.5801659236906631
 40
0.7203799973304487
 40
0.860605938324569
 40
0.998041188458937
 40
1.135484020507294
 40
1.405415631167381
 40
1.675815514155306
 40
1.943997429575314
 40
2.211934834825568
 40
2.211934834825568
 40
2.211934834825568
 40
2.211934834825568
 10
58.913794834
 20
301.0536840569
 30
0.0
 10
58.96250963936677
 20
301.0569921342474
 30
0.0
 10
59.06002943526003
 20
301.0636144131475
 30
0.0
 10
59.20536569559458
 20
301.0472551003767
 30
0.0
 10
59.34602263269943
 20
301.0120833342684
 30
0.0
 10
59.47887476612962
 20
300.9592776476169
 30
0.0
 10
59.60332922919889
 20
300.8916058598942
 30
0.0
 10
59.71813178638342
 20
300.81230565852
 30
0.0
 10
59.82424172417338
 20
300.723221018943
 30
0.0
 10
59.95334418935553
 20
300.5952734833718
 30
0.0
 10
60.09638403925308
 20
300.419471194466
 30
0.0
 10
60.24129164093815
 20
300.1917857285819
 30
0.0
 10
60.36592838932367
 20
299.9531231090851
 30
0.0
 10
60.43374696054057
 20
299.7877068686707
 30
0.0
 10
60.467640781
 20
299.7050364695
 30
0.0
 11
58.913794834
 21
301.0536840569
 31
0.0
 11
59.0599286959044
 21
301.0592177900328
 31
0.0
 11
59.20563805674854
 21
301.0439283963538
 31
0.0
 11
59.34506813827431
 21
301.0090300601891
 31
0.0
 11
59.47870047518508
 21
300.9562256071606
 31
0.0
 11
59.60201426600405
 21
300.8894895940903
 31
0.0
 11
59.71754537734306
 21
300.8100171029977
 31
0.0
 11
59.82295792713163
 21
300.7218318302671
 31
0.0
 11
59.92074643082783
 21
300.6252505659022
 31
0.0
 11
60.09199482671453
 21
300.4165952009106
 31
0.0
 11
60.23833724722715
 21
300.1892188769928
 31
0.0
 11
60.36220487299963
 21
299.9513568349519
 31
0.0
 11
60.467640781
 21
299.7050364695
 31
0.0
  0
SPLINE
  5
F0
330
1F
100
AcDbEntity
  8
BEZUGSACHSEN
  6
Continuous
 62
     7
100
AcDbSpline
210
0.0
220
0.0
230
1.0
 70
     8
 71
     3
 72
    11
 73
     7
 74
     5
 42
0.0000000001
 43
0.0000000001
 44
0.00000001
 40
0.0
 40
0.0
 40
0.0
 40
0.0
 40
0.5521269407020954
 40
1.105196183334077
 40
1.651906304696272
 40
2.198197048696917
 40
2.198197048696917
 40
2.198197048696917
 40
2.198197048696917
 10
60.913794834
 20
271.8253809437
 30
0.0
 10
60.90720939637943
 20
271.6412457532897
 30
0.0
 10
60.89402728192837
 20
271.2726611133149
 30
0.0
 10
60.79653891817404
 20
270.7292367086206
 30
0.0
 10
60.65690160509612
 20
270.1979625791242
 30
0.0
 10
60.53071158293365
 20
269.8559680990181
 30
0.0
 10
60.467640781
 20
269.6850364695
 30
0.0
 11
60.913794834
 21
271.8253809437
 31
0.0
 11
60.88105025159829
 21
271.274225837607
 31
0.0
 11
60.78898359867982
 21
270.7288733657451
 31
0.0
 11
60.6484921138338
 21
270.2005230089877
 31
0.0
 11
60.467640781
 21
269.6850364695
 31
0.0
  0
SPLINE
  5
F1
330
1F
100
AcDbEntity
  8
BEZUGSACHSEN
  6
Continuous
 62
     7
100
AcDbSpline
210
0.0
220
0.0
230
1.0
 70
     8
 71
     3
 72
    19
 73
    15
 74
    13
 42
0.0000000001
 43
0.0000000001
 44
0.00000001
 40
0.0
 40
0.0
 40
0.0
 40
0.0
 40
0.2679411643354441
 40
0.5361267936930973
 40
0.806530477375089
 40
1.07646599324823
 40
1.21391337616495
 40
1.351353104889029
 40
1.491586367063708
 40
1.631807897554356
 40
1.775491562771527
 40
1.919219204752281
 40
2.065713007394991
 40
2.211936409403761
 40
2.211936409403761
 40
2.211936409403761
 40
2.211936409403761
 10
60.467640781
 20
269.6850364695
 30
0.0
 10
60.4337465372009
 20
269.6023648897961
 30
0.0
 10
60.36592712506343
 20
269.4369463022263
 30
0.0
 10
60.24128861877395
 20
269.198280328557
 30
0.0
 10
60.09637781943249
 20
268.970592332547
 30
0.0
 10
59.95333418791062
 20
268.7947878412215
 30
0.0
 10
59.82422780101631
 20
268.6668381220792
 30
0.0
 10
59.71811270195697
 20
268.5777511012623
 30
0.0
 10
59.60330327430861
 20
268.4984494609436
 30
0.0
 10
59.47884366207258
 20
268.4307789935145
 30
0.0
 10
59.3459901069375
 20
268.3779763068337
 30
0.0
 10
59.20533930805629
 20
268.3428100428417
 30
0.0
 10
59.06001392493404
 20
268.3264578409678
 30
0.0
 10
58.96250450585671
 20
268.3330805742627
 30
0.0
 10
58.913794834
 20
268.336388882
 30
0.0
 11
60.467640781
 21
269.6850364695
 31
0.0
 11
60.36220352128106
 21
269.4387125936609
 31
0.0
 11
60.23833400570444
 21
269.2008473483963
 31
0.0
 11
60.09198851939115
 21
268.9734684778201
 31
0.0
 11
59.92073632826266
 21
268.7648111756153
 31
0.0
 11
59.82294388958335
 21
268.6682274191766
 31
0.0
 11
59.71752690032866
 21
268.580040473384
 31
0.0
 11
59.60198825661522
 21
268.5005660144113
 31
0.0
 11
59.47866624672186
 21
268.4338295214782
 31
0.0
 11
59.34503555852201
 21
268.3810295705173
 31
0.0
 11
59.20560785731423
 21
268.3461361441269
 31
0.0
 11
59.05991341878355
 21
268.3308533173612
 31
0.0
 11
58.913794834
 21
268.336388882
 31
0.0
  0
SPLINE
  5
F2
330
1F
100
AcDbEntity
  8
BEZUGSACHSEN
  6
Continuous
 62
     7
100
AcDbSpline
210
0.0
220
0.0
230
1.0
 70
     8
 71
     3
 72
    47
 73
    43
 74
    41
 42
0.0000000001
 43
0.0000000001
 44
0.00000001
 40
0.0
 40
0.0
 40
0.0
 40
0.0
 40
0.6366022432308271
 40
1.273595002181716
 40
1.592921746397183
 40
1.912076344885517
 40
2.231392290435212
 40
2.550826842760184
 40
3.189774321199468
 40
3.829081697030583
 40
4.468337152529282
 40
5.107221744785961
 40
5.426176341272802
 40
5.745033356818974
 40
6.063356731597792
 40
6.381780214910802
 40
7.017059195703897
 40
7.652639341020017
 40
8.287532214259635
 40
8.922347946521587
 40
9.559226748605944
 40
10.19613435940467
 40
10.83451785506713
 40
11.47287689977762
 40
12.11234487369911
 40
12.7518958895475
 40
13.39354300527735
 40
14.0348795736445
 40
14.35615205780105
 40
14.67732107719958
 40
14.99840882480078
 40
15.31959604129133
 40
15.96011121034615
 40
16.60099592097004
 40
17.23809108086711
 40
17.87482555209317
 40
18.19205670342134
 40
18.50917199108981
 40
18.82571084635277
 40
19.14241581832038
 40
19.77338974999912
 40
20.40398930746722
 40
20.40398930746722
 40
20.40398930746722
 40
20.40398930746722
 10
79.4143792398
 20
284.69503645
 30
0.0
 10
79.42038488365937
 20
284.9073162597132
 30
0.0
 10
79.43239985546555
 20
285.3320060995458
 30
0.0
 10
79.51366520072682
 20
285.8581488606539
 30
0.0
 10
79.60638479729664
 20
286.273123236768
 30
0.0
 10
79.69167776141391
 20
286.5809472124693
 30
0.0
 10
79.79191637484212
 20
286.8842398892647
 30
0.0
 10
79.94540192399745
 20
287.2816772518208
 30
0.0
 10
80.17387387080313
 20
287.7637768287004
 30
0.0
 10
80.50348883138693
 20
288.3125927015208
 30
0.0
 10
80.88571604845296
 20
288.8261282408721
 30
0.0
 10
81.24457074555217
 20
289.2206310029638
 30
0.0
 10
81.55352409910978
 20
289.5135043010076
 30
0.0
 10
81.7954192080837
 20
289.7212261221217
 30
0.0
 10
82.04706246156915
 20
289.9167355192541
 30
0.0
 10
82.39435656872605
 20
290.160230721929
 30
0.0
 10
82.85009690348645
 20
290.4321127919736
 30
0.0
 10
83.42557632817619
 20
290.7034419044892
 30
0.0
 10
84.02468709333891
 20
290.917225535303
 30
0.0
 10
84.64213749580173
 20
291.071915266675
 30
0.0
 10
85.27240805750117
 20
291.1657222503265
 30
0.0
 10
85.9100019922316
 20
291.1978489751323
 30
0.0
 10
86.54818063646424
 20
291.1674194021829
 30
0.0
 10
87.18119305765819
 20
291.0747481470187
 30
0.0
 10
87.80242674209742
 20
290.9202561857906
 30
0.0
 10
88.40656249407812
 20
290.7052190532496
 30
0.0
 10
88.98704156765811
 20
290.4312956875198
 30
0.0
 10
89.44667059188384
 20
290.1561288094601
 30
0.0
 10
89.79656958054726
 20
289.9095191106025
 30
0.0
 10
90.04970120969642
 20
289.7116149182315
 30
0.0
 10
90.29269984905065
 20
289.5014363888299
 30
0.0
 10
90.60194419255538
 20
289.2059170486748
 30
0.0
 10
90.96026438335002
 20
288.8084460659113
 30
0.0
 10
91.34021480167821
 20
288.2927793043577
 30
0.0
 10
91.66668783124925
 20
287.74318314788
 30
0.0
 10
91.89205897121107
 20
287.2620776061683
 30
0.0
 10
92.04314995436201
 20
286.8660874185514
 30
0.0
 10
92.14156287191098
 20
286.5646610677687
 30
0.0
 10
92.2252296500831
 20
286.2589656998519
 30
0.0
 10
92.31604900752639
 20
285.8474136821363
 30
0.0
 10
92.39556398319974
 20
285.3259884656143
 30
0.0
 10
92.40733626781548
 20
284.9053121764553
 30
0.0
 10
92.4132206634
 20
284.6950364501
 30
0.0
 11
79.4143792398
 21
284.69503645
 31
0.0
 11
79.44562791078422
 21
285.3308712844092
 31
0.0
 11
79.53906911316902
 21
285.9609732734973
 31
0.0
 11
79.60900962018454
 21
286.2725465314153
 31
0.0
 11
79.69415095913652
 21
286.580134909183
 31
0.0
 11
79.79437549726433
 21
286.8833142538609
 31
0.0
 11
79.90945538702066
 21
287.1812992403833
 31
0.0
 11
80.18305128129664
 21
287.7587065202467
 31
0.0
 11
80.51227079499643
 21
288.3067288123036
 31
0.0
 11
80.89389505032214
 21
288.8195742716107
 31
0.0
 11
81.32382968641929
 21
289.2921520227872
 31
0.0
 11
81.5553019474746
 21
289.5115890911736
 31
0.0
 11
81.79720434850103
 21
289.7193221524341
 31
0.0
 11
82.04857815565552
 21
289.9146193106501
 31
0.0
 11
82.30930743394741
 21
290.0974136162687
 31
0.0
 11
82.85484107815726
 21
290.4229476797285
 31
0.0
 11
83.42975089827597
 21
290.6939473473503
 31
0.0
 11
84.02769708602285
 21
290.9073702070664
 31
0.0
 11
84.64348961824633
 21
291.0616121312799
 31
0.0
 11
85.273421900224
 21
291.1554200662685
 31
0.0
 11
85.90952502196164
 21
291.1874219913507
 31
0.0
 11
86.54718598098036
 21
291.1570577215991
 31
0.0
 11
87.17880351389093
 21
291.0645290120887
 31
0.0
 11
87.79937638601582
 21
290.9102286554659
 31
0.0
 11
88.40187719316963
 21
290.6957099400779
 31
0.0
 11
88.98218438955078
 21
290.4219316009919
 31
0.0
 11
89.5324093775988
 21
290.0924394820383
 31
0.0
 11
89.79501668174625
 21
289.9073627063896
 31
0.0
 11
90.0480371391381
 21
289.7095491902624
 31
0.0
 11
90.29088544050242
 21
289.4994967106672
 31
0.0
 11
90.52308787590945
 21
289.2775884930907
 31
0.0
 11
90.95200393364118
 21
288.8018882752967
 31
0.0
 11
91.33211459229665
 21
288.2858949618827
 31
0.0
 11
91.65755373798265
 21
287.7381910224963
 31
0.0
 11
91.92763459607826
 21
287.1615740639025
 31
0.0
 11
92.04072504125668
 21
286.8651855442491
 31
0.0
 11
92.139169144595
 21
286.5637375981772
 31
0.0
 11
92.22265194997063
 21
286.258405863669
 31
0.0
 11
92.29120137341468
 21
285.9492084901121
 31
0.0
 11
92.3826284513392
 21
285.3248935120118
 31
0.0
 11
92.4132206634
 21
284.6950364501
 31
0.0
  0
SPLINE
  5
F3
330
1F
100
AcDbEntity
  8
BEZUGSACHSEN
  6
Continuous
 62
     7
100
AcDbSpline
210
0.0
220
0.0
230
1.0
 70
     8
 71
     3
 72
    27
 73
    23
 74
    21
 42
0.0000000001
 43
0.0000000001
 44
0.00000001
 40
0.0
 40
0.0
 40
0.0
 40
0.0
 40
0.1260969825534952
 40
0.2522464959256713
 40
0.3668867952577179
 40
0.4815825893844972
 40
0.5839596006457649
 40
0.6859489160928173
 40
0.7334568410150247
 40
0.7809568848595949
 40
0.8274002264082846
 40
0.8738421606841899
 40
0.9204907318656965
 40
0.9671431398999629
 40
1.015111401796867
 40
1.063087497117617
 40
1.165500418718554
 40
1.268190478918834
 40
1.380949153843705
 40
1.493646517722256
 40
1.615655563695062
 40
1.737631867557965
 40
1.737631867557965
 40
1.737631867557965
 40
1.737631867557965
 10
50.913794834
 20
299.3292689557
 30
0.0
 10
50.91452337548388
 20
299.3713118837613
 30
0.0
 10
50.9159807619552
 20
299.4554152545731
 30
0.0
 10
50.92942532396401
 20
299.5771625821315
 30
0.0
 10
50.95238075726394
 20
299.6935802985017
 30
0.0
 10
50.98634665759786
 20
299.7991557562787
 30
0.0
 10
51.03257241645638
 20
299.8953138185186
 30
0.0
 10
51.0811155850111
 20
299.9644831841769
 30
0.0
 10
51.12655491056846
 20
300.0120206657944
 30
0.0
 10
51.16246098865953
 20
300.0427159492763
 30
0.0
 10
51.2011084197523
 20
300.0692509849887
 30
0.0
 10
51.24206290695785
 20
300.0914793308837
 30
0.0
 10
51.28520253313333
 20
300.1092725477613
 30
0.0
 10
51.3303831677468
 20
300.1228059548222
 30
0.0
 10
51.37709039073641
 20
300.1320030801562
 30
0.0
 10
51.44291438193986
 20
300.1389584005366
 30
0.0
 10
51.52764213393689
 20
300.1370931439031
 30
0.0
 10
51.63247373742603
 20
300.1201784829618
 30
0.0
 10
51.73805297977231
 20
300.0907638501028
 30
0.0
 10
51.84621091786586
 20
300.0490122126359
 30
0.0
 10
51.95386317911964
 20
299.9982163854618
 30
0.0
 10
52.02438255393683
 20
299.957651957212
 30
0.0
 10
52.0596375096
 20
299.9373724649
 30
0.0
 11
50.913794834
 21
299.3292689557
 31
0.0
 11
50.91792619359397
 21
299.4552982414911
 31
0.0
 11
50.931692952763
 21
299.5806943182479
 31
0.0
 11
50.95454452886496
 21
299.6930339982395
 31
0.0
 11
50.99018271823866
 21
299.8020525500943
 31
0.0
 11
51.0350824830388
 21
299.8940583301067
 31
0.0
 11
51.09425491199294
 21
299.9771272419632
 31
0.0
 11
51.12710741215447
 21
300.0114451114127
 31
0.0
 11
51.16324450708128
 21
300.0422730944068
 31
0.0
 11
51.20153177194273
 21
300.0685612918277
 31
0.0
 11
51.24235437987998
 21
300.0907055448178
 31
0.0
 11
51.28546052349804
 21
300.1085366854334
 31
0.0
 11
51.33014009554238
 21
300.1219599122188
 31
0.0
 11
51.37719090129752
 21
300.1312967118419
 31
0.0
 11
51.42489478857159
 21
300.1364001284591
 31
0.0
 11
51.52729442942932
 21
300.134750867095
 31
0.0
 11
51.62875867973003
 21
300.1189314368002
 31
0.0
 11
51.73748239616722
 21
300.0890370852451
 31
0.0
 11
51.84280038846173
 21
300.0489270325871
 31
0.0
 11
51.95309307436712
 21
299.9967568233201
 31
0.0
 11
52.0596375096
 21
299.9373724649
 31
0.0
  0
SPLINE
  5
F4
330
1F
100
AcDbEntity
  8
BEZUGSACHSEN
  6
Continuous
 62
     7
100
AcDbSpline
210
0.0
220
0.0
230
1.0
 70
     8
 71
     3
 72
    47
 73
    43
 74
    41
 42
0.0000000001
 43
0.0000000001
 44
0.00000001
 40
0.0
 40
0.0
 40
0.0
 40
0.0
 40
0.6302393214488244
 40
1.260854867304512
 40
1.577476088397273
 40
1.89393080023821
 40
2.210999113888341
 40
2.52818347222474
 40
3.164887038250824
 40
3.801951183390178
 40
4.442851001621185
 40
5.083381259781491
 40
5.404527292285406
 40
5.725573838718508
 40
6.046670709998217
 40
6.367871027135878
 40
7.009090242532828
 40
7.650619763934308
 40
8.290330346466039
 40
8.929958764456751
 40
9.5686470113433
 40
10.20735923014628
 40
10.84445705816393
 40
11.48152626494975
 40
12.1164346222085
 40
12.7514196557757
 40
13.38691908736287
 40
14.02211738531035
 40
14.34050449143684
 40
14.658791537933
 40
14.97761586869809
 40
15.29653774946335
 40
15.93537694103637
 40
16.57458694070948
 40
17.21386274995044
 40
17.85277859078212
 40
18.17219860087649
 40
18.49150024081959
 40
18.8106715664029
 40
19.1300145242515
 40
19.76719627026931
 40
20.40398968277054
 40
20.40398968277054
 40
20.40398968277054
 40
20.40398968277054
 10
92.4132084719
 20
284.6950364882
 30
0.0
 10
92.40733927012985
 20
284.4848804663152
 30
0.0
 10
92.3955973629412
 20
284.0644429688933
 30
0.0
 10
92.31615062042522
 20
283.5432795266351
 30
0.0
 10
92.22541911533263
 20
283.1318880592079
 30
0.0
 10
92.14181373301383
 20
282.826250218907
 30
0.0
 10
92.04346179163818
 20
282.5248663727115
 30
0.0
 10
91.89244298078333
 20
282.1288931931211
 30
0.0
 10
91.66716039317632
 20
281.6477863844501
 30
0.0
 10
91.34078235842357
 20
281.0981521594583
 30
0.0
 10
90.96091529640593
 20
280.5824242967838
 30
0.0
 10
90.602660857134
 20
280.1848988945721
 30
0.0
 10
90.29348011945568
 20
279.8893455396598
 30
0.0
 10
90.05055516342055
 20
279.6791606312407
 30
0.0
 10
89.797506260099
 20
279.4812511669113
 30
0.0
 10
89.44772375164402
 20
279.2346278154163
 30
0.0
 10
88.98823851389118
 20
278.959421206121
 30
0.0
 10
88.40784280692989
 20
278.6853810994061
 30
0.0
 10
87.80368849909958
 20
278.4701926220491
 30
0.0
 10
87.18227335169391
 20
278.3155307830089
 30
0.0
 10
86.54900414025128
 20
278.2227204099772
 30
0.0
 10
85.9105446758102
 20
278.1922096601693
 30
0.0
 10
85.27271166225529
 20
278.2243114025511
 30
0.0
 10
84.64228167526214
 20
278.3181244649275
 30
0.0
 10
84.024708005765
 20
278.4728382812169
 30
0.0
 10
83.42556459433204
 20
278.6866348532902
 30
0.0
 10
82.85010737286593
 20
278.9579562217468
 30
0.0
 10
82.39442197991073
 20
279.2298011053954
 30
0.0
 10
82.04716608216019
 20
279.473261657987
 30
0.0
 10
81.79554650085535
 20
279.6687441843068
 30
0.0
 10
81.55367145057991
 20
279.8764372429964
 30
0.0
 10
81.24473516689402
 20
280.1692747911294
 30
0.0
 10
80.88589241000614
 20
280.5637324400819
 30
0.0
 10
80.50366550476905
 20
281.0772171060481
 30
0.0
 10
80.17404105950358
 20
281.6259848847673
 30
0.0
 10
79.9455536135807
 20
282.1080483012622
 30
0.0
 10
79.7920521136209
 20
282.5054578604384
 30
0.0
 10
79.69179531070698
 20
282.8087402237303
 30
0.0
 10
79.60647881780918
 20
283.1165640954362
 30
0.0
 10
79.51371636248109
 20
283.5316049625428
 30
0.0
 10
79.43242399555541
 20
284.0578777615972
 30
0.0
 10
79.42038419599328
 20
284.48269341128
 30
0.0
 10
79.4143661312
 20
284.6950364899
 30
0.0
 11
92.4132084719
 21
284.6950364882
 31
0.0
 11
92.38266889312317
 21
284.0655375315461
 31
0.0
 11
92.2913376176076
 21
283.4415707337214
 31
0.0
 11
92.22284287890218
 21
283.1324470231847
 31
0.0
 11
92.13942405404124
 21
282.8271850302915
 31
0.0
 11
92.04103731019117
 21
282.5257677710718
 31
0.0
 11
91.92800667908708
 21
282.2294065158351
 31
0.0
 11
91.65802654257475
 21
281.6527765158532
 31
0.0
 11
91.33268992072138
 21
281.1050477440115
 31
0.0
 11
90.95265342592943
 21
280.5889810432501
 31
0.0
 11
90.52380292826872
 21
280.113201406995
 31
0.0
 11
90.29166579389869
 21
279.8912844742488
 31
0.0
 11
90.04888330056235
 21
279.6812188989966
 31
0.0
 11
89.795953692264
 21
279.4834063261109
 31
0.0
 11
89.53343929642969
 21
279.2983230051199
 31
0.0
 11
88.98338111483086
 21
278.968780778614
 31
0.0
 11
88.4032402831799
 21
278.69492544768
 31
0.0
 11
87.80063497288832
 21
278.4802245640967
 31
0.0
 11
87.17993570256704
 21
278.3257676803914
 31
0.0
 11
86.54800688864465
 21
278.2330927061769
 31
0.0
 11
85.91002076146347
 21
278.2026460319319
 31
0.0
 11
85.27372577333861
 21
278.2346199361664
 31
0.0
 11
84.64360249923092
 21
278.3284380243078
 31
0.0
 11
84.0277185909895
 21
278.4826963585601
 31
0.0
 11
83.4296861211705
 21
278.6961516416911
 31
0.0
 11
82.85485037262379
 21
278.9671191484891
 31
0.0
 11
82.30938368508242
 21
279.2926079662664
 31
0.0
 11
82.04868139230551
 21
279.4753773944771
 31
0.0
 11
81.79733214049719
 21
279.6706469455664
 31
0.0
 11
81.55544884214761
 21
279.8783520824007
 31
0.0
 11
81.32399301084743
 21
280.0977589286658
 31
0.0
 11
80.89406997996721
 21
280.5702858593358
 31
0.0
 11
80.51244884050939
 21
281.0830769762645
 31
0.0
 11
80.18321736633037
 21
281.6310552574861
 31
0.0
 11
79.90960305918634
 21
282.2084188020503
 31
0.0
 11
79.79451080672794
 21
282.5063834245691
 31
0.0
 11
79.694271118312
 21
282.8095426931667
 31
0.0
 11
79.60910403811893
 21
283.1171413009756
 31
0.0
 11
79.53914101066417
 21
283.428726120113
 31
0.0
 11
79.44565211370025
 21
284.0590120898146
 31
0.0
 11
79.4143661312
 21
284.6950364899
 31
0.0
  0
SPLINE
  5
F5
330
1F
100
AcDbEntity
  8
BEZUGSACHSEN
  6
Continuous
 62
     7
100
AcDbSpline
210
0.0
220
0.0
230
1.0
 70
     8
 71
     3
 72
    27
 73
    23
 74
    21
 42
0.0000000001
 43
0.0000000001
 44
0.00000001
 40
0.0
 40
0.0
 40
0.0
 40
0.0
 40
0.1219765139516402
 40
0.2439857714748875
 40
0.3566831398307396
 40
0.4694418149413717
 40
0.5721317672348805
 40
0.6745445880227423
 40
0.7225206520242876
 40
0.7704888796722387
 40
0.8171412935079463
 40
0.8637898733435745
 40
0.9102318000271814
 40
0.9566751323770712
 40
1.004175175705533
 40
1.051683100081017
 40
1.153672388683126
 40
1.256049376635786
 40
1.370745138067085
 40
1.485385401854852
 40
1.611534903892397
 40
1.737631875937287
 40
1.737631875937287
 40
1.737631875937287
 40
1.737631875937287
 10
52.0596375096
 20
269.452700474
 30
0.0
 10
52.02438249199662
 20
269.4324209487351
 30
0.0
 10
51.95386299287621
 20
269.391856454337
 30
0.0
 10
51.8462105896911
 20
269.3410605934457
 30
0.0
 10
51.73805257382673
 20
269.2993089575789
 30
0.0
 10
51.63247335287936
 20
269.2698943724376
 30
0.0
 10
51.52764180776456
 20
269.2529797850459
 30
0.0
 10
51.44291413794043
 20
269.2511145618191
 30
0.0
 10
51.37709020154966
 20
269.2580698698386
 30
0.0
 10
51.33038299833687
 20
269.2672669969919
 30
0.0
 10
51.28520238102812
 20
269.2808004419805
 30
0.0
 10
51.24206277036198
 20
269.2985937007886
 30
0.0
 10
51.2011082937583
 20
269.3208220584867
 30
0.0
 10
51.16246086726611
 20
269.3473570901817
 30
0.0
 10
51.12655478863908
 20
269.378052367718
 30
0.0
 10
51.08111546713302
 20
269.4255898408495
 30
0.0
 10
51.03257232707026
 20
269.4947592079543
 30
0.0
 10
50.98634661809582
 20
269.5909172626716
 30
0.0
 10
50.9523807442791
 20
269.6964926956646
 30
0.0
 10
50.92942532006172
 20
269.8129103865724
 30
0.0
 10
50.91598076169757
 20
269.9346576952302
 30
0.0
 10
50.91452337539961
 20
270.0187610587479
 30
0.0
 10
50.913794834
 20
270.0608039833
 30
0.0
 11
52.0596375096
 21
269.452700474
 31
0.0
 11
51.95309288553946
 21
269.3933160228398
 31
0.0
 11
51.84279999637079
 21
269.3411457485431
 31
0.0
 11
51.73748198852117
 21
269.3010357241486
 31
0.0
 11
51.62875825999775
 21
269.2711414158497
 31
0.0
 11
51.52729410791547
 21
269.2553220560565
 31
0.0
 11
51.42489456736395
 21
269.2536728269745
 31
0.0
 11
51.37719071115649
 21
269.25877623956
 31
0.0
 11
51.33013994089577
 21
269.268113042094
 31
0.0
 11
51.28546037346027
 21
269.2815363043828
 31
0.0
 11
51.24235423684978
 21
269.2993674845793
 31
0.0
 11
51.20153164402131
 21
269.3215117494993
 31
0.0
 11
51.16324438745221
 21
269.347799942746
 31
0.0
 11
51.12710729045138
 21
269.3786279225137
 31
0.0
 11
51.09425479010546
 21
269.4129457910298
 31
0.0
 11
51.03508239588096
 21
269.4960146946659
 31
0.0
 11
50.99018267227207
 21
269.5880204688439
 31
0.0
 11
50.9545445126719
 21
269.6970389960337
 31
0.0
 11
50.93169294927164
 21
269.8093786423367
 31
0.0
 11
50.91792619293221
 21
269.9347747080015
 31
0.0
 11
50.913794834
 21
270.0608039833
 31
0.0
  0
SPLINE
  5
F6
330
1F
100
AcDbEntity
  8
BEZUGSACHSEN
  6
Continuous
 62
     7
100
AcDbSpline
210
0.0
220
0.0
230
1.0
 70
     8
 71
     3
 72
    15
 73
    11
 74
     9
 42
0.0000000001
 43
0.0000000001
 44
0.00000001
 40
0.0
 40
0.0
 40
0.0
 40
0.0
 40
0.1110371613193968
 40
0.2222522336982562
 40
0.3333980191344963
 40
0.444506947423064
 40
0.5556201064863991
 40
0.6667525642179056
 40
0.7778876033650992
 40
0.8889820915508362
 40
0.8889820915508362
 40
0.8889820915508362
 40
0.8889820915508362
 10
52.8137203493
 20
269.0185040832
 30
0.0
 10
52.77707862244122
 20
269.0240362360497
 30
0.0
 10
52.70373645893346
 20
269.035109405729
 30
0.0
 10
52.59721990893302
 20
269.0681279692293
 30
0.0
 10
52.49480700118824
 20
269.1117182566837
 30
0.0
 10
52.39735703557011
 20
269.1654977645068
 30
0.0
 10
52.30505223982432
 20
269.227592899865
 30
0.0
 10
52.21805561166967
 20
269.2968795735091
 30
0.0
 10
52.13580285620993
 20
269.3717615251235
 30
0.0
 10
52.0850228698056
 20
269.4257241066184
 30
0.0
 10
52.0596375096
 20
269.452700474
 30
0.0
 11
52.8137203493
 21
269.0185040832
 31
0.0
 11
52.70437806425124
 21
269.0378306424951
 31
0.0
 11
52.59788611066315
 21
269.0698970758051
 31
0.0
 11
52.49561793006534
 21
269.1134241347162
 31
0.0
 11
52.39821506362644
 21
269.1668832364195
 31
0.0
 11
52.30594329682107
 21
269.2287868321765
 31
0.0
 11
52.21884619338104
 21
269.2978123182943
 31
0.0
 11
52.13680628887992
 21
269.3727819854651
 31
0.0
 11
52.0596375096
 21
269.452700474
 31
0.0
  0
SPLINE
  5
F7
330
1F
100
AcDbEntity
  8
0
  6
Continuous
 62
     7
100
AcDbSpline
210
0.0
220
0.0
230
1.0
 70
     8
 71
     3
 72
    19
 73
    15
 74
    13
 42
0.0000000001
 43
0.0000000001
 44
0.00000001
 40
0.0
 40
0.0
 40
0.0
 40
0.0
 40
0.1162460235126839
 40
0.232788171770269
 40
0.349189004583348
 40
0.4655468550498509
 40
0.5819071369643338
 40
0.698273848880531
 40
0.8146206072267574
 40
0.9309998277680317
 40
1.163276323411394
 40
1.396138921762035
 40
1.629013178063164
 40
1.861351539723195
 40
1.861351539723195
 40
1.861351539723195
 40
1.861351539723195
 10
120.038794834
 20
251.1726558858
 30
0.0
 10
120.0000107631791
 20
251.1708149389025
 30
0.0
 10
119.9223438231207
 20
251.1671283554853
 30
0.0
 10
119.8087337380639
 20
251.1387228704913
 30
0.0
 10
119.7005460500962
 20
251.0948689562775
 30
0.0
 10
119.5995701841257
 20
251.0362722680495
 30
0.0
 10
119.5068017274017
 20
250.9655874067217
 30
0.0
 10
119.4227143484183
 20
250.8848298016358
 30
0.0
 10
119.3474107050435
 20
250.7958621628938
 30
0.0
 10
119.2587594608753
 20
250.6685027151423
 30
0.0
 10
119.16876271514
 20
250.4957173370512
 30
0.0
 10
119.0938691959761
 20
250.2747923468635
 30
0.0
 10
119.0473322706336
 20
250.0457724272742
 30
0.0
 10
119.0416384599115
 20
249.8905930344397
 30
0.0
 10
119.038794834
 20
249.8130927163
 30
0.0
 11
120.038794834
 21
251.1726558858
 31
0.0
 11
119.9229234825089
 21
251.1633302283889
 31
0.0
 11
119.8095989577865
 21
251.1361341916017
 31
0.0
 11
119.7017258251555
 21
251.0924015820758
 31
0.0
 11
119.6009370856422
 21
251.0342571124118
 31
0.0
 11
119.5082497805947
 21
250.9639095560204
 31
0.0
 11
119.4241744149692
 21
250.8834574302739
 31
0.0
 11
119.3488756570375
 21
250.7947632070594
 31
0.0
 11
119.2822489277222
 21
250.6993430733635
 31
0.0
 11
119.1743591416136
 21
250.49364386461
 31
0.0
 11
119.0986010047619
 21
250.2734491907159
 31
0.0
 11
119.0536409909453
 21
250.0449562665247
 31
0.0
 11
119.038794834
 21
249.8130927163
 31
0.0
  0
SPLINE
  5
F8
330
1F
100
AcDbEntity
  8
BEZUGSACHSEN
  6
Continuous
 62
     7
100
AcDbSpline
210
0.0
220
0.0
230
1.0
 70
     8
 71
     3
 72
    15
 73
    11
 74
     9
 42
0.0000000001
 43
0.0000000001
 44
0.00000001
 40
0.0
 40
0.0
 40
0.0
 40
0.0
 40
0.1110944831967733
 40
0.2222295182205395
 40
0.3333620402644042
 40
0.4444752610826921
 40
0.555584217868993
 40
0.6667300354528916
 40
0.777945018232097
 40
0.888982087178757
 40
0.888982087178757
 40
0.888982087178757
 40
0.888982087178757
 10
52.0596375096
 20
299.9373724649
 30
0.0
 10
52.08502286917351
 20
299.9643488306072
 30
0.0
 10
52.13580285451161
 20
300.0183114089631
 30
0.0
 10
52.21805562379591
 20
300.0931933723676
 30
0.0
 10
52.30505227575269
 20
300.1624800812689
 30
0.0
 10
52.39735711617682
 20
300.224575244342
 30
0.0
 10
52.49480713814889
 20
300.2783547364716
 30
0.0
 10
52.59722005201694
 20
300.3219449820653
 30
0.0
 10
52.70373655059819
 20
300.3549635378523
 30
0.0
 10
52.77707865330097
 20
300.3660367044585
 30
0.0
 10
52.8137203493
 20
300.3715688557
 30
0.0
 11
52.0596375096
 21
299.9373724649
 31
0.0
 11
52.1368062867144
 21
300.0172909485908
 31
0.0
 11
52.21884618697828
 21
300.0922606142858
 31
0.0
 11
52.30594333558935
 21
300.1612861469505
 31
0.0
 11
52.39821515716192
 21
300.2231897719195
 31
0.0
 11
52.49561806522718
 21
300.2766488570086
 31
0.0
 11
52.59788628861601
 21
300.3201758974695
 31
0.0
 11
52.70437815674047
 21
300.3522423038467
 31
0.0
 11
52.8137203493
 21
300.3715688557
 31
0.0
  0
SPLINE
  5
F9
330
1F
100
AcDbEntity
  8
0
  6
Continuous
 62
     7
100
AcDbSpline
210
0.0
220
0.0
230
1.0
 70
     8
 71
     3
 72
    19
 73
    15
 74
    13
 42
0.0000000001
 43
0.0000000001
 44
0.00000001
 40
0.0
 40
0.0
 40
0.0
 40
0.0
 40
0.2323383481142794
 40
0.4652125956936565
 40
0.6980761132641673
 40
0.9303535187232543
 40
1.046733461793726
 40
1.16308094087528
 40
1.279447997464905
 40
1.395808629584609
 40
1.512165904557638
 40
1.628566140379187
 40
1.745106920546004
 40
1.861351602870295
 40
1.861351602870295
 40
1.861351602870295
 40
1.861351602870295
 10
122.788794834
 20
249.8130927163
 30
0.0
 10
122.7859512084019
 20
249.8905930299583
 30
0.0
 10
122.7802573982477
 20
250.0457724154394
 30
0.0
 10
122.7337204224515
 20
250.2747926294629
 30
0.0
 10
122.6588266766647
 20
250.4957181913505
 30
0.0
 10
122.5688293724093
 20
250.6685042555623
 30
0.0
 10
122.480177434632
 20
250.7958641813096
 30
0.0
 10
122.4048731702863
 20
250.8848320802457
 30
0.0
 10
122.3207851964467
 20
250.9655897502083
 30
0.0
 10
122.2280164625895
 20
251.0362743165725
 30
0.0
 10
122.1270406503285
 20
251.0948705407116
 30
0.0
 10
122.0188536008316
 20
251.1387237918521
 30
0.0
 10
121.9052444914871
 20
251.1671285513581
 30
0.0
 10
121.8275784566826
 20
251.1708150040141
 30
0.0
 10
121.788794834
 20
251.1726558858
 30
0.0
 11
122.788794834
 21
249.8130927163
 31
0.0
 11
122.7739486799079
 21
250.0449562531339
 31
0.0
 11
122.7289886783486
 21
250.2734491708479
 31
0.0
 11
122.6532301996531
 21
250.4936446992336
 31
0.0
 11
122.5453397884736
 21
250.6993446075037
 31
0.0
 11
122.4787124646501
 21
250.7947652073195
 31
0.0
 11
122.4034130080934
 21
250.8834597828633
 31
0.0
 11
122.3193371417406
 21
250.9639118838698
 31
0.0
 11
122.2266493157394
 21
251.0342593331375
 31
0.0
 11
122.1258608808234
 21
251.0924031791259
 31
0.0
 11
122.0179881520516
 21
251.1361351958488
 31
0.0
 11
121.9046648635321
 21
251.163330521201
 31
0.0
 11
121.788794834
 21
251.1726558858
 31
0.0
  0
SPLINE
  5
FA
330
1F
100
AcDbEntity
  8
BEZUGSACHSEN
  6
Continuous
 62
     7
100
AcDbSpline
210
0.0
220
0.0
230
1.0
 70
     8
 71
     3
 72
    11
 73
     7
 74
     5
 42
0.0000000001
 43
0.0000000001
 44
0.00000001
 40
0.0
 40
0.0
 40
0.0
 40
0.0
 40
0.5462907431866928
 40
1.093000863684005
 40
1.646070107201718
 40
2.198197048711596
 40
2.198197048711596
 40
2.198197048711596
 40
2.198197048711596
 10
60.4676407809
 20
299.7050364695
 30
0.0
 10
60.530711582764
 20
299.5341048402449
 30
0.0
 10
60.65690160478135
 20
299.1921103606811
 30
0.0
 10
60.79653891781847
 20
298.6608362314514
 30
0.0
 10
60.89402728182775
 20
298.1174118265195
 30
0.0
 10
60.90720939634622
 20
297.7488271859798
 30
0.0
 10
60.913794834
 20
297.5646919953
 30
0.0
 11
60.4676407809
 21
299.7050364695
 31
0.0
 11
60.64849211352919
 21
299.1895499308031
 31
0.0
 11
60.78898359822751
 21
298.6611995749014
 31
0.0
 11
60.88105025145792
 21
298.1158471021939
 31
0.0
 11
60.913794834
 21
297.5646919953
 31
0.0
  0
SPLINE
  5
FB
330
1F
100
AcDbEntity
  8
BEZUGSACHSEN
  6
Continuous
 62
     7
100
AcDbSpline
210
0.0
220
0.0
230
1.0
 70
     8
 71
     3
 72
    11
 73
     7
 74
     5
 42
0.0000000001
 43
0.0000000001
 44
0.00000001
 40
0.0
 40
0.0
 40
0.0
 40
0.0
 40
0.9140556660003448
 40
1.828030949185947
 40
2.279806974871128
 40
2.730944124762569
 40
2.730944124762569
 40
2.730944124762569
 40
2.730944124762569
 10
52.1807477608854
 20
269.685036469685
 30
0.0
 10
52.31340246784878
 20
269.9597530673515
 30
0.0
 10
52.5787002160104
 20
270.5091621038789
 30
0.0
 10
52.79405542932304
 20
271.2418730249835
 30
0.0
 10
52.8977496429854
 20
271.8398182310898
 30
0.0
 10
52.9084489605065
 20
272.1409414465165
 30
0.0
 10
52.913794834
 20
272.2913965211
 30
0.0
 11
52.1807477608854
 21
269.685036469685
 31
0.0
 11
52.55555529066089
 21
270.5187133112555
 31
0.0
 11
52.81484665105877
 21
271.395137186271
 31
0.0
 11
52.88756362455738
 21
271.8410226190327
 31
0.0
 11
52.913794834
 21
272.2913965211
 31
0.0
  0
SPLINE
  5
FC
330
1F
100
AcDbEntity
  8
BEZUGSACHSEN
  6
Continuous
 62
     7
100
AcDbSpline
210
0.0
220
0.0
230
1.0
 70
     8
 71
     3
 72
    11
 73
     7
 74
     5
 42
0.0000000001
 43
0.0000000001
 44
0.00000001
 40
0.0
 40
0.0
 40
0.0
 40
0.0
 40
0.8249192366724734
 40
1.650116891930991
 40
2.190492152293448
 40
2.730585915378247
 40
2.730585915378247
 40
2.730585915378247
 40
2.730585915378247
 10
52.913794834
 20
297.0986764179
 30
0.0
 10
52.89606152966183
 20
297.3738667098769
 30
0.0
 10
52.8605889358159
 20
297.9243401733377
 30
0.0
 10
52.65215411918047
 20
298.6290737584906
 30
0.0
 10
52.42192768820071
 20
299.2212874835707
 30
0.0
 10
52.2611271053988
 20
299.543814817016
 30
0.0
 10
52.1807477608854
 20
299.705036469315
 30
0.0
 11
52.913794834
 21
297.0986764179
 31
0.0
 11
52.83021937988428
 21
297.9193510735959
 31
0.0
 11
52.61225793777249
 21
298.7152430134952
 31
0.0
 11
52.41432285921326
 21
299.218062192413
 31
0.0
 11
52.1807477608854
 21
299.705036469315
 31
0.0
  0
DIMENSION
  5
107
330
1F
100
AcDbEntity
  8
1
100
AcDbDimension
  2
*D2
 10
206.931844882894
 20
290.6950364695
 30
0.0
 11
203.181844882894
 21
284.669900425383
 31
0.0
 70
    32
  1
<>
 71
     5
 42
-1.0
 53
90.0
  3
ME10_DIM_10
100
AcDbAlignedDimension
 13
195.913794834
 23
278.6950364695
 33
0.0
 14
195.913794834
 24
290.6950364695
 34
0.0
 50
90.0
100
AcDbRotatedDimension
  0
DIMENSION
  5
112
330
1F
100
AcDbEntity
  8
1
100
AcDbDimension
  2
*D3
 10
215.340173797831
 20
296.6950364694681
 30
0.0
 11
211.590173797831
 21
284.917204216999
 31
0.0
 70
    32
  1
<>
 71
     5
 42
-1.0
 53
90.0
  3
ME10_DIM_11
100
AcDbAlignedDimension
 13
195.913794834
 23
272.6950364695343
 33
0.0
 14
195.913794834
 24
296.6950364694681
 34
0.0
 50
90.0
100
AcDbRotatedDimension
  0
DIMENSION
  5
11D
330
1F
100
AcDbEntity
  8
1
100
AcDbDimension
  2
*D4
 10
223.872154608576
 20
300.6950364695
 30
0.0
 11
220.122154608576
 21
284.793552321191
 31
0.0
 70
    32
  1
<>
 71
     5
 42
-1.0
 53
90.0
  3
ME10_DIM_12
100
AcDbAlignedDimension
 13
145.0889758893
 23
268.6950364695
 33
0.0
 14
145.0889758893
 24
300.6950364695
 34
0.0
 50
90.0
100
AcDbRotatedDimension
  0
DIMENSION
  5
128
330
1F
100
AcDbEntity
  8
1
100
AcDbDimension
  2
*D5
 10
195.913794834
 20
340.436905434744
 30
0.0
 11
162.664466183667
 21
344.186905434744
 31
0.0
 70
    32
  1
<>
 71
     5
 42
-1.0
 53
0.00013888888889
  3
ME10_DIM_13
100
AcDbAlignedDimension
 13
129.913794834
 23
334.6949995484
 33
0.0
 14
195.913794834
 24
295.7706459778
 34
0.0
100
AcDbRotatedDimension
  0
DIMENSION
  5
133
330
1F
100
AcDbEntity
  8
1
100
AcDbDimension
  2
*D6
 10
195.913794834
 20
347.485063495795
 30
0.0
 11
148.691801957375
 21
351.235063495795
 31
0.0
 70
    32
  1
<>
 71
     5
 42
-1.0
 53
0.00013888888889
  3
ME10_DIM_14
100
AcDbAlignedDimension
 13
100.913794834
 23
334.6950364695
 33
0.0
 14
195.913794834
 24
295.7706459778
 34
0.0
100
AcDbRotatedDimension
  0
DIMENSION
  5
13E
330
1F
100
AcDbEntity
  8
1
100
AcDbDimension
  2
*D7
 10
195.913794834
 20
354.285917765229
 30
0.0
 11
132.122447919116
 21
358.035917765229
 31
0.0
 70
    32
  1
<>
 71
     5
 42
-1.0
 53
0.00013888888889
  3
ME10_DIM_15
100
AcDbAlignedDimension
 13
50.913794834
 23
318.2952280321
 33
0.0
 14
195.913794834
 24
295.7706459778
 34
0.0
100
AcDbRotatedDimension
  0
INSERT
  5
145
330
1F
100
AcDbEntity
  8
1
100
AcDbBlockReference
  2
*D8
 10
0.0
 20
0.0
 30
0.0
  0
DIMENSION
  5
150
330
1F
100
AcDbEntity
  8
1
100
AcDbDimension
  2
*D9
 10
180.8336227174623
 20
299.290625470681
 30
0.0
 11
183.9061364462825
 21
308.1270205788476
 31
0.0
 70
    37
  1
<>
 71
     5
 42
-1.0
  3
ME10_DIM_16
100
AcDb3PointAngularDimension
 13
180.7509279731068
 23
297.8883799718287
 33
0.0
 14
148.6661984810933
 24
300.6950364694999
 34
0.0
 15
145.0889758893
 25
300.6950364694999
 35
0.0
  0
ENDSEC
  0
SECTION
  2
OBJECTS
  0
DICTIONARY
  5
C
330
0
100
AcDbDictionary
281
     1
  3
ACAD_GROUP
350
D
  3
ACAD_LAYOUT
350
1A
  3
ACAD_MLEADERSTYLE
350
153
  3
ACAD_MLINESTYLE
350
17
  3
ACAD_PLOTSETTINGS
350
19
  3
ACAD_PLOTSTYLENAME
350
E
  3
ACAD_SCALELIST
350
4A
  3
ACAD_VISUALSTYLE
350
2A
  3
AcDbVariableDictionary
350
151
  0
DICTIONARY
  5
D
102
{ACAD_REACTORS
330
C
102
}
330
C
100
AcDbDictionary
281
     1
  0
DICTIONARY
  5
1A
102
{ACAD_REACTORS
330
C
102
}
330
C
100
AcDbDictionary
281
     1
  3
Layout1
350
1E
  3
Layout2
350
26
  3
Model
350
22
  0
DICTIONARY
  5
153
102
{ACAD_REACTORS
330
C
102
}
330
C
100
AcDbDictionary
281
     1
  0
DICTIONARY
  5
17
102
{ACAD_REACTORS
330
C
102
}
330
C
100
AcDbDictionary
281
     1
  3
Standard
350
18
  0
DICTIONARY
  5
19
102
{ACAD_REACTORS
330
C
102
}
330
C
100
AcDbDictionary
281
     1
  0
ACDBDICTIONARYWDFLT
  5
E
102
{ACAD_REACTORS
330
C
102
}
330
C
100
AcDbDictionary
281
     1
  3
Normal
350
F
100
AcDbDictionaryWithDefault
340
F
  0
DICTIONARY
  5
4A
102
{ACAD_REACTORS
330
C
102
}
330
C
100
AcDbDictionary
281
     1
  3
A0
350
4B
  3
A1
350
4C
  3
A2
350
4D
  3
A3
350
4E
  3
A4
350
4F
  3
A5
350
50
  3
A6
350
51
  3
A7
350
52
  3
A8
350
53
  3
A9
350
54
  3
B0
350
55
  3
B1
350
56
  3
B2
350
57
  3
B3
350
58
  3
B4
350
59
  3
B5
350
5A
  3
B6
350
5B
  3
B7
350
5C
  3
B8
350
5D
  3
B9
350
5E
  3
C0
350
5F
  3
C1
350
60
  3
C2
350
61
  3
C3
350
62
  3
C4
350
63
  3
C5
350
64
  3
C6
350
65
  3
C7
350
66
  3
C8
350
67
  3
C9
350
68
  3
D0
350
69
  3
D1
350
6A
  3
D2
350
6B
  0
DICTIONARY
  5
2A
102
{ACAD_REACTORS
330
C
102
}
330
C
100
AcDbDictionary
281
     1
  3
2dWireframe
350
2F
  3
3D Hidden
350
31
  3
3dWireframe
350
30
  3
Basic
350
32
  3
Brighten
350
36
  3
ColorChange
350
3A
  3
Conceptual
350
34
  3
Dim
350
35
  3
Facepattern
350
39
  3
Flat
350
2B
  3
FlatWithEdges
350
2C
  3
Gouraud
350
2D
  3
GouraudWithEdges
350
2E
  3
Linepattern
350
38
  3
Realistic
350
33
  3
Thicken
350
37
  0
DICTIONARY
  5
151
102
{ACAD_REACTORS
330
C
102
}
330
C
100
AcDbDictionary
281
     1
  3
CANNOSCALE
350
154
  0
LAYOUT
  5
1E
102
{ACAD_REACTORS
330
1A
102
}
330
1A
100
AcDbPlotSettings
  1

  2
none_device
  4

  6

 40
0.0
 41
0.0
 42
0.0
 43
0.0
 44
0.0
 45
0.0
 46
0.0
 47
0.0
 48
0.0
 49
0.0
140
0.0
141
0.0
142
1.0
143
1.0
 70
   688
 72
     0
 73
     0
 74
     5
  7

 75
    16
147
1.0
148
0.0
149
0.0
100
AcDbLayout
  1
Layout1
 70
     1
 71
     1
 10
0.0
 20
0.0
 11
12.0
 21
9.0
 12
0.0
 22
0.0
 32
0.0
 14
1.00000000000000E+20
 24
1.00000000000000E+20
 34
1.00000000000000E+20
 15
-1.00000000000000E+20
 25
-1.00000000000000E+20
 35
-1.00000000000000E+20
146
0.0
 13
0.0
 23
0.0
 33
0.0
 16
1.0
 26
0.0
 36
0.0
 17
0.0
 27
1.0
 37
0.0
 76
     0
330
1B
  0
LAYOUT
  5
26
102
{ACAD_REACTORS
330
1A
102
}
330
1A
100
AcDbPlotSettings
  1

  2
none_device
  4

  6

 40
0.0
 41
0.0
 42
0.0
 43
0.0
 44
0.0
 45
0.0
 46
0.0
 47
0.0
 48
0.0
 49
0.0
140
0.0
141
0.0
142
1.0
143
1.0
 70
   688
 72
     0
 73
     0
 74
     5
  7

 75
    16
147
1.0
148
0.0
149
0.0
100
AcDbLayout
  1
Layout2
 70
     1
 71
     2
 10
0.0
 20
0.0
 11
0.0
 21
0.0
 12
0.0
 22
0.0
 32
0.0
 14
0.0
 24
0.0
 34
0.0
 15
0.0
 25
0.0
 35
0.0
146
0.0
 13
0.0
 23
0.0
 33
0.0
 16
1.0
 26
0.0
 36
0.0
 17
0.0
 27
1.0
 37
0.0
 76
     0
330
23
  0
LAYOUT
  5
22
102
{ACAD_REACTORS
330
1A
102
}
330
1A
100
AcDbPlotSettings
  1

  2
none_device
  4

  6

 40
0.0
 41
0.0
 42
0.0
 43
0.0
 44
0.0
 45
0.0
 46
0.0
 47
0.0
 48
0.0
 49
0.0
140
0.0
141
0.0
142
1.0
143
1.0
 70
  1712
 72
     0
 73
     0
 74
     0
  7

 75
     0
147
1.0
148
0.0
149
0.0
100
AcDbLayout
  1
Model
 70
     1
 71
     0
 10
0.0
 20
0.0
 11
12.0
 21
9.0
 12
0.0
 22
0.0
 32
0.0
 14
27.398555182011
 24
234.6950364695
 34
0.0
 15
225.872154608576
 25
359.785917765229
 35
0.0
146
0.0
 13
0.0
 23
0.0
 33
0.0
 16
1.0
 26
0.0
 36
0.0
 17
0.0
 27
1.0
 37
0.0
 76
     0
330
1F
331
29
  0
MLINESTYLE
  5
18
102
{ACAD_REACTORS
330
17
102
}
330
17
100
AcDbMlineStyle
  2
Standard
 70
     0
  3

 62
   256
 51
90.0
 52
90.0
 71
     2
 49
0.5
 62
   256
  6
BYLAYER
 49
-0.5
 62
   256
  6
BYLAYER
  0
ACDBPLACEHOLDER
  5
F
102
{ACAD_REACTORS
330
E
102
}
330
E
  0
SCALE
  5
4B
102
{ACAD_REACTORS
330
4A
102
}
330
4A
100
AcDbScale
 70
     0
300
1:1
140
1.0
141
1.0
290
     1
  0
SCALE
  5
4C
102
{ACAD_REACTORS
330
4A
102
}
330
4A
100
AcDbScale
 70
     0
300
1:2
140
1.0
141
2.0
290
     0
  0
SCALE
  5
4D
102
{ACAD_REACTORS
330
4A
102
}
330
4A
100
AcDbScale
 70
     0
300
1:4
140
1.0
141
4.0
290
     0
  0
SCALE
  5
4E
102
{ACAD_REACTORS
330
4A
102
}
330
4A
100
AcDbScale
 70
     0
300
1:5
140
1.0
141
5.0
290
     0
  0
SCALE
  5
4F
102
{ACAD_REACTORS
330
4A
102
}
330
4A
100
AcDbScale
 70
     0
300
1:8
140
1.0
141
8.0
290
     0
  0
SCALE
  5
50
102
{ACAD_REACTORS
330
4A
102
}
330
4A
100
AcDbScale
 70
     0
300
1:10
140
1.0
141
10.0
290
     0
  0
SCALE
  5
51
102
{ACAD_REACTORS
330
4A
102
}
330
4A
100
AcDbScale
 70
     0
300
1:16
140
1.0
141
16.0
290
     0
  0
SCALE
  5
52
102
{ACAD_REACTORS
330
4A
102
}
330
4A
100
AcDbScale
 70
     0
300
1:20
140
1.0
141
20.0
290
     0
  0
SCALE
  5
53
102
{ACAD_REACTORS
330
4A
102
}
330
4A
100
AcDbScale
 70
     0
300
1:30
140
1.0
141
30.0
290
     0
  0
SCALE
  5
54
102
{ACAD_REACTORS
330
4A
102
}
330
4A
100
AcDbScale
 70
     0
300
1:40
140
1.0
141
40.0
290
     0
  0
SCALE
  5
55
102
{ACAD_REACTORS
330
4A
102
}
330
4A
100
AcDbScale
 70
     0
300
1:50
140
1.0
141
50.0
290
     0
  0
SCALE
  5
56
102
{ACAD_REACTORS
330
4A
102
}
330
4A
100
AcDbScale
 70
     0
300
1:100
140
1.0
141
100.0
290
     0
  0
SCALE
  5
57
102
{ACAD_REACTORS
330
4A
102
}
330
4A
100
AcDbScale
 70
     0
300
2:1
140
2.0
141
1.0
290
     0
  0
SCALE
  5
58
102
{ACAD_REACTORS
330
4A
102
}
330
4A
100
AcDbScale
 70
     0
300
4:1
140
4.0
141
1.0
290
     0
  0
SCALE
  5
59
102
{ACAD_REACTORS
330
4A
102
}
330
4A
100
AcDbScale
 70
     0
300
8:1
140
8.0
141
1.0
290
     0
  0
SCALE
  5
5A
102
{ACAD_REACTORS
330
4A
102
}
330
4A
100
AcDbScale
 70
     0
300
10:1
140
10.0
141
1.0
290
     0
  0
SCALE
  5
5B
102
{ACAD_REACTORS
330
4A
102
}
330
4A
100
AcDbScale
 70
     0
300
100:1
140
100.0
141
1.0
290
     0
  0
SCALE
  5
5C
102
{ACAD_REACTORS
330
4A
102
}
330
4A
100
AcDbScale
 70
     0
300
1/128" = 1'-0"
140
0.0078125
141
12.0
290
     0
  0
SCALE
  5
5D
102
{ACAD_REACTORS
330
4A
102
}
330
4A
100
AcDbScale
 70
     0
300
1/64" = 1'-0"
140
0.015625
141
12.0
290
     0
  0
SCALE
  5
5E
102
{ACAD_REACTORS
330
4A
102
}
330
4A
100
AcDbScale
 70
     0
300
1/32" = 1'-0"
140
0.03125
141
12.0
290
     0
  0
SCALE
  5
5F
102
{ACAD_REACTORS
330
4A
102
}
330
4A
100
AcDbScale
 70
     0
300
1/16" = 1'-0"
140
0.0625
141
12.0
290
     0
  0
SCALE
  5
60
102
{ACAD_REACTORS
330
4A
102
}
330
4A
100
AcDbScale
 70
     0
300
3/32" = 1'-0"
140
0.09375
141
12.0
290
     0
  0
SCALE
  5
61
102
{ACAD_REACTORS
330
4A
102
}
330
4A
100
AcDbScale
 70
     0
300
1/8" = 1'-0"
140
0.125
141
12.0
290
     0
  0
SCALE
  5
62
102
{ACAD_REACTORS
330
4A
102
}
330
4A
100
AcDbScale
 70
     0
300
3/16" = 1'-0"
140
0.1875
141
12.0
290
     0
  0
SCALE
  5
63
102
{ACAD_REACTORS
330
4A
102
}
330
4A
100
AcDbScale
 70
     0
300
1/4" = 1'-0"
140
0.25
141
12.0
290
     0
  0
SCALE
  5
64
102
{ACAD_REACTORS
330
4A
102
}
330
4A
100
AcDbScale
 70
     0
300
3/8" = 1'-0"
140
0.375
141
12.0
290
     0
  0
SCALE
  5
65
102
{ACAD_REACTORS
330
4A
102
}
330
4A
100
AcDbScale
 70
     0
300
1/2" = 1'-0"
140
0.5
141
12.0
290
     0
  0
SCALE
  5
66
102
{ACAD_REACTORS
330
4A
102
}
330
4A
100
AcDbScale
 70
     0
300
3/4" = 1'-0"
140
0.75
141
12.0
290
     0
  0
SCALE
  5
67
102
{ACAD_REACTORS
330
4A
102
}
330
4A
100
AcDbScale
 70
     0
300
1" = 1'-0"
140
1.0
141
12.0
290
     0
  0
SCALE
  5
68
102
{ACAD_REACTORS
330
4A
102
}
330
4A
100
AcDbScale
 70
     0
300
1-1/2" = 1'-0"
140
1.5
141
12.0
290
     0
  0
SCALE
  5
69
102
{ACAD_REACTORS
330
4A
102
}
330
4A
100
AcDbScale
 70
     0
300
3" = 1'-0"
140
3.0
141
12.0
290
     0
  0
SCALE
  5
6A
102
{ACAD_REACTORS
330
4A
102
}
330
4A
100
AcDbScale
 70
     0
300
6" = 1'-0"
140
6.0
141
12.0
290
     0
  0
SCALE
  5
6B
102
{ACAD_REACTORS
330
4A
102
}
330
4A
100
AcDbScale
 70
     0
300
1'-0" = 1'-0"
140
12.0
141
12.0
290
     0
  0
VISUALSTYLE
  5
2F
102
{ACAD_REACTORS
330
2A
102
}
330
2A
100
AcDbVisualStyle
  2
2dWireframe
 70
     4
 71
     0
 72
     2
 73
     0
 90
        0
 40
-0.6
 41
-30.0
 62
     5
 63
     7
 74
     1
 91
        4
 64
     7
 65
   257
 75
     1
175
     1
 42
1.0
 92
        0
 66
   257
 43
1.0
 76
     1
 77
     6
 78
     2
 67
     7
 79
     5
170
     0
171
     0
290
     0
174
     0
 93
        1
 44
0.0
173
     0
291
     0
 45
0.0
1001
ACAD
1000
AcDbSavedByObjectVersion
1070
     0
  0
VISUALSTYLE
  5
31
102
{ACAD_REACTORS
330
2A
102
}
330
2A
100
AcDbVisualStyle
  2
3D Hidden
 70
     6
 71
     1
 72
     2
 73
     2
 90
        0
 40
-0.6
 41
-30.0
 62
     5
 63
     7
 74
     2
 91
        2
 64
     7
 65
   257
 75
     2
175
     1
 42
40.0
 92
        0
 66
   257
 43
1.0
 76
     1
 77
     6
 78
     2
 67
     7
 79
     3
170
     0
171
     0
290
     0
174
     0
 93
        1
 44
0.0
173
     0
291
     0
 45
0.0
1001
ACAD
1000
AcDbSavedByObjectVersion
1070
     0
  0
VISUALSTYLE
  5
30
102
{ACAD_REACTORS
330
2A
102
}
330
2A
100
AcDbVisualStyle
  2
3dWireframe
 70
     5
 71
     0
 72
     2
 73
     0
 90
        0
 40
-0.6
 41
-30.0
 62
     5
 63
     7
 74
     1
 91
        4
 64
     7
 65
   257
 75
     1
175
     1
 42
1.0
 92
        0
 66
   257
 43
1.0
 76
     1
 77
     6
 78
     2
 67
     7
 79
     5
170
     0
171
     0
290
     0
174
     0
 93
        1
 44
0.0
173
     0
291
     0
 45
0.0
1001
ACAD
1000
AcDbSavedByObjectVersion
1070
     0
  0
VISUALSTYLE
  5
32
102
{ACAD_REACTORS
330
2A
102
}
330
2A
100
AcDbVisualStyle
  2
Basic
 70
     7
 71
     1
 72
     0
 73
     1
 90
        0
 40
-0.6
 41
-30.0
 62
     5
 63
     7
 74
     0
 91
        4
 64
     7
 65
   257
 75
     1
175
     1
 42
1.0
 92
        8
 66
     7
 43
1.0
 76
     1
 77
     6
 78
     2
 67
     7
 79
     5
170
     0
171
     0
290
     0
174
     0
 93
        1
 44
0.0
173
     0
291
     1
 45
0.0
1001
ACAD
1000
AcDbSavedByObjectVersion
1070
     0
  0
VISUALSTYLE
  5
36
102
{ACAD_REACTORS
330
2A
102
}
330
2A
100
AcDbVisualStyle
  2
Brighten
 70
    12
 71
     2
 72
     2
 73
     0
 90
        0
 40
-0.6
 41
-30.0
 62
     5
 63
     7
 74
     1
 91
        4
 64
     7
 65
   257
 75
     1
175
     1
 42
1.0
 92
        8
 66
     7
 43
1.0
 76
     1
 77
     6
 78
     2
 67
     7
 79
     5
170
     0
171
     0
290
     0
174
     0
 93
        1
 44
50.0
173
     0
291
     1
 45
0.0
1001
ACAD
1000
AcDbSavedByObjectVersion
1070
     0
  0
VISUALSTYLE
  5
3A
102
{ACAD_REACTORS
330
2A
102
}
330
2A
100
AcDbVisualStyle
  2
ColorChange
 70
    16
 71
     2
 72
     2
 73
     3
 90
        0
 40
-0.6
 41
-30.0
 62
     5
 63
     8
 74
     1
 91
        4
 64
     7
 65
   257
 75
     1
175
     1
 42
1.0
 92
        8
 66
     8
 43
1.0
 76
     1
 77
     6
 78
     2
 67
     7
 79
     5
170
     0
171
     0
290
     0
174
     0
 93
        1
 44
0.0
173
     0
291
     1
 45
0.0
1001
ACAD
1000
AcDbSavedByObjectVersion
1070
     0
  0
VISUALSTYLE
  5
34
102
{ACAD_REACTORS
330
2A
102
}
330
2A
100
AcDbVisualStyle
  2
Conceptual
 70
     9
 71
     3
 72
     2
 73
     0
 90
        0
 40
-0.6
 41
-30.0
 62
     5
 63
     7
 74
     2
 91
        2
 64
     7
 65
   257
 75
     1
175
     1
 42
40.0
 92
        8
 66
     7
 43
1.0
 76
     1
 77
     6
 78
     2
 67
     7
 79
     3
170
     0
171
     0
290
     0
174
     0
 93
        1
 44
0.0
173
     0
291
     0
 45
0.0
1001
ACAD
1000
AcDbSavedByObjectVersion
1070
     0
  0
VISUALSTYLE
  5
35
102
{ACAD_REACTORS
330
2A
102
}
330
2A
100
AcDbVisualStyle
  2
Dim
 70
    11
 71
     2
 72
     2
 73
     0
 90
        0
 40
-0.6
 41
-30.0
 62
     5
 63
     7
 74
     1
 91
        4
 64
     7
 65
   257
 75
     1
175
     1
 42
1.0
 92
        8
 66
     7
 43
1.0
 76
     1
 77
     6
 78
     2
 67
     7
 79
     5
170
     0
171
     0
290
     0
174
     0
 93
        1
 44
-50.0
173
     0
291
     1
 45
0.0
1001
ACAD
1000
AcDbSavedByObjectVersion
1070
     0
  0
VISUALSTYLE
  5
39
102
{ACAD_REACTORS
330
2A
102
}
330
2A
100
AcDbVisualStyle
  2
Facepattern
 70
    15
 71
     2
 72
     2
 73
     0
 90
        0
 40
-0.6
 41
-30.0
 62
     5
 63
     7
 74
     1
 91
        4
 64
     7
 65
   257
 75
     1
175
     1
 42
1.0
 92
        8
 66
     7
 43
1.0
 76
     1
 77
     6
 78
     2
 67
     7
 79
     5
170
     0
171
     0
290
     0
174
     0
 93
        1
 44
0.0
173
     0
291
     1
 45
0.0
1001
ACAD
1000
AcDbSavedByObjectVersion
1070
     0
  0
VISUALSTYLE
  5
2B
102
{ACAD_REACTORS
330
2A
102
}
330
2A
100
AcDbVisualStyle
  2
Flat
 70
     0
 71
     2
 72
     1
 73
     1
 90
        2
 40
-0.6
 41
30.0
 62
     5
 63
     7
 74
     0
 91
        4
 64
     7
 65
   257
 75
     1
175
     1
 42
1.0
 92
        8
 66
     7
 43
1.0
 76
     1
 77
     6
 78
     2
 67
     7
 79
     5
170
     0
171
     0
290
     0
174
     0
 93
       13
 44
0.0
173
     0
291
     1
 45
0.0
1001
ACAD
1000
AcDbSavedByObjectVersion
1070
     0
  0
VISUALSTYLE
  5
2C
102
{ACAD_REACTORS
330
2A
102
}
330
2A
100
AcDbVisualStyle
  2
FlatWithEdges
 70
     1
 71
     2
 72
     1
 73
     1
 90
        2
 40
-0.6
 41
30.0
 62
     5
 63
     7
 74
     1
 91
        4
 64
     7
 65
   257
 75
     1
175
     1
 42
1.0
 92
        0
 66
   257
 43
1.0
 76
     1
 77
     6
 78
     2
 67
     7
 79
     5
170
     0
171
     0
290
     0
174
     0
 93
       13
 44
0.0
173
     0
291
     1
 45
0.0
1001
ACAD
1000
AcDbSavedByObjectVersion
1070
     0
  0
VISUALSTYLE
  5
2D
102
{ACAD_REACTORS
330
2A
102
}
330
2A
100
AcDbVisualStyle
  2
Gouraud
 70
     2
 71
     2
 72
     2
 73
     1
 90
        2
 40
-0.6
 41
30.0
 62
     5
 63
     7
 74
     0
 91
        4
 64
     7
 65
   257
 75
     1
175
     1
 42
1.0
 92
        0
 66
     7
 43
1.0
 76
     1
 77
     6
 78
     2
 67
     7
 79
     5
170
     0
171
     0
290
     0
174
     0
 93
       13
 44
0.0
173
     0
291
     1
 45
0.0
1001
ACAD
1000
AcDbSavedByObjectVersion
1070
     0
  0
VISUALSTYLE
  5
2E
102
{ACAD_REACTORS
330
2A
102
}
330
2A
100
AcDbVisualStyle
  2
GouraudWithEdges
 70
     3
 71
     2
 72
     2
 73
     1
 90
        2
 40
-0.6
 41
30.0
 62
     5
 63
     7
 74
     1
 91
        4
 64
     7
 65
   257
 75
     1
175
     1
 42
1.0
 92
        0
 66
   257
 43
1.0
 76
     1
 77
     6
 78
     2
 67
     7
 79
     5
170
     0
171
     0
290
     0
174
     0
 93
       13
 44
0.0
173
     0
291
     1
 45
0.0
1001
ACAD
1000
AcDbSavedByObjectVersion
1070
     0
  0
VISUALSTYLE
  5
38
102
{ACAD_REACTORS
330
2A
102
}
330
2A
100
AcDbVisualStyle
  2
Linepattern
 70
    14
 71
     2
 72
     2
 73
     0
 90
        0
 40
-0.6
 41
-30.0
 62
     5
 63
     7
 74
     1
 91
        4
 64
     7
 65
   257
 75
     7
175
     7
 42
1.0
 92
        8
 66
     7
 43
1.0
 76
     1
 77
     6
 78
     2
 67
     7
 79
     5
170
     0
171
     0
290
     0
174
     0
 93
        1
 44
0.0
173
     0
291
     1
 45
0.0
1001
ACAD
1000
AcDbSavedByObjectVersion
1070
     0
  0
VISUALSTYLE
  5
33
102
{ACAD_REACTORS
330
2A
102
}
330
2A
100
AcDbVisualStyle
  2
Realistic
 70
     8
 71
     2
 72
     2
 73
     0
 90
        0
 40
-0.6
 41
-30.0
 62
     5
 63
     7
 74
     1
 91
        0
 64
     7
 65
   257
 75
     1
175
     1
 42
1.0
 92
        8
 66
     8
 43
1.0
 76
     1
 77
     6
 78
     2
 67
     7
 79
     5
170
     0
171
     0
290
     0
174
     0
 93
       13
 44
0.0
173
     0
291
     0
 45
0.0
1001
ACAD
1000
AcDbSavedByObjectVersion
1070
     0
  0
VISUALSTYLE
  5
37
102
{ACAD_REACTORS
330
2A
102
}
330
2A
100
AcDbVisualStyle
  2
Thicken
 70
    13
 71
     2
 72
     2
 73
     0
 90
        0
 40
-0.6
 41
-30.0
 62
     5
 63
     7
 74
     1
 91
        4
 64
     7
 65
   257
 75
     1
175
     1
 42
1.0
 92
       12
 66
     7
 43
1.0
 76
     1
 77
     6
 78
     2
 67
     7
 79
     5
170
     0
171
     0
290
     0
174
     0
 93
        1
 44
0.0
173
     0
291
     1
 45
0.0
1001
ACAD
1000
AcDbSavedByObjectVersion
1070
     0
  0
DICTIONARYVAR
  5
154
102
{ACAD_REACTORS
330
151
102
}
330
151
100
DictionaryVariables
280
     0
  1
1:1
  0
ENDSEC
  0
EOF
