  0
SECTION
  2
HEADER
  9
$ACADVER
  1
AC1015
  9
$ACADMAINTVER
 70
     6
  9
$DWGCODEPAGE
  3
ANSI_1252
  9
$INSBASE
 10
0.0
 20
0.0
 30
0.0
  9
$EXTMIN
 10
49.28169186908579
 20
248.9820998394
 30
0.0
  9
$EXTMAX
 10
240.381676603938
 20
375.508034894319
 30
0.0
  9
$LIMMIN
 10
0.0
 20
0.0
  9
$LIMMAX
 10
12.0
 20
9.0
  9
$ORTHOMODE
 70
     0
  9
$REGENMODE
 70
     1
  9
$FILLMODE
 70
     1
  9
$QTEXTMODE
 70
     0
  9
$MIRRTEXT
 70
     1
  9
$LTSCALE
 40
1.0
  9
$ATTMODE
 70
     1
  9
$TEXTSIZE
 40
0.2
  9
$TRACEWID
 40
0.05
  9
$TEXTSTYLE
  7
Standard
  9
$CLAYER
  8
0
  9
$CELTYPE
  6
ByLayer
  9
$CECOLOR
 62
   256
  9
$CELTSCALE
 40
1.0
  9
$DISPSILH
 70
     0
  9
$DIMSCALE
 40
1.0
  9
$DIMASZ
 40
0.18
  9
$DIMEXO
 40
0.0625
  9
$DIMDLI
 40
0.38
  9
$DIMRND
 40
0.0
  9
$DIMDLE
 40
0.0
  9
$DIMEXE
 40
0.18
  9
$DIMTP
 40
0.0
  9
$DIMTM
 40
0.0
  9
$DIMTXT
 40
0.18
  9
$DIMCEN
 40
0.09
  9
$DIMTSZ
 40
0.0
  9
$DIMTOL
 70
     0
  9
$DIMLIM
 70
     0
  9
$DIMTIH
 70
     1
  9
$DIMTOH
 70
     1
  9
$DIMSE1
 70
     0
  9
$DIMSE2
 70
     0
  9
$DIMTAD
 70
     0
  9
$DIMZIN
 70
     0
  9
$DIMBLK
  1

  9
$DIMASO
 70
     1
  9
$DIMSHO
 70
     1
  9
$DIMPOST
  1

  9
$DIMAPOST
  1

  9
$DIMALT
 70
     0
  9
$DIMALTD
 70
     2
  9
$DIMALTF
 40
25.4
  9
$DIMLFAC
 40
1.0
  9
$DIMTOFL
 70
     0
  9
$DIMTVP
 40
0.0
  9
$DIMTIX
 70
     0
  9
$DIMSOXD
 70
     0
  9
$DIMSAH
 70
     0
  9
$DIMBLK1
  1

  9
$DIMBLK2
  1

  9
$DIMSTYLE
  2
Standard
  9
$DIMCLRD
 70
     0
  9
$DIMCLRE
 70
     0
  9
$DIMCLRT
 70
     0
  9
$DIMTFAC
 40
1.0
  9
$DIMGAP
 40
0.09
  9
$DIMJUST
 70
     0
  9
$DIMSD1
 70
     0
  9
$DIMSD2
 70
     0
  9
$DIMTOLJ
 70
     1
  9
$DIMTZIN
 70
     0
  9
$DIMALTZ
 70
     0
  9
$DIMALTTZ
 70
     0
  9
$DIMUPT
 70
     0
  9
$DIMDEC
 70
     4
  9
$DIMTDEC
 70
     4
  9
$DIMALTU
 70
     2
  9
$DIMALTTD
 70
     2
  9
$DIMTXSTY
  7
Standard
  9
$DIMAUNIT
 70
     0
  9
$DIMADEC
 70
     0
  9
$DIMALTRND
 40
0.0
  9
$DIMAZIN
 70
     0
  9
$DIMDSEP
 70
    46
  9
$DIMATFIT
 70
     3
  9
$DIMFRAC
 70
     0
  9
$DIMLDRBLK
  1

  9
$DIMLUNIT
 70
     2
  9
$DIMLWD
 70
    -2
  9
$DIMLWE
 70
    -2
  9
$DIMTMOVE
 70
     0
  9
$LUNITS
 70
     2
  9
$LUPREC
 70
     4
  9
$SKETCHINC
 40
0.1
  9
$FILLETRAD
 40
0.5
  9
$AUNITS
 70
     0
  9
$AUPREC
 70
     0
  9
$MENU
  1
.
  9
$ELEVATION
 40
0.0
  9
$PELEVATION
 40
0.0
  9
$THICKNESS
 40
0.0
  9
$LIMCHECK
 70
     0
  9
$CHAMFERA
 40
0.5
  9
$CHAMFERB
 40
0.5
  9
$CHAMFERC
 40
1.0
  9
$CHAMFERD
 40
0.0
  9
$SKPOLY
 70
     0
  9
$TDCREATE
 40
2456748.732524213
  9
$TDUCREATE
 40
2456748.649190879
  9
$TDUPDATE
 40
2456748.732524225
  9
$TDUUPDATE
 40
2456748.649190891
  9
$TDINDWG
 40
0.0000000116
  9
$TDUSRTIMER
 40
0.0000000116
  9
$USRTIMER
 70
     1
  9
$ANGBASE
 50
0.0
  9
$ANGDIR
 70
     0
  9
$PDMODE
 70
     0
  9
$PDSIZE
 40
0.0
  9
$PLINEWID
 40
0.0
  9
$SPLFRAME
 70
     0
  9
$SPLINETYPE
 70
     6
  9
$SPLINESEGS
 70
     8
  9
$HANDSEED
  5
155
  9
$SURFTAB1
 70
     6
  9
$SURFTAB2
 70
     6
  9
$SURFTYPE
 70
     6
  9
$SURFU
 70
     6
  9
$SURFV
 70
     6
  9
$UCSBASE
  2

  9
$UCSNAME
  2

  9
$UCSORG
 10
0.0
 20
0.0
 30
0.0
  9
$UCSXDIR
 10
1.0
 20
0.0
 30
0.0
  9
$UCSYDIR
 10
0.0
 20
1.0
 30
0.0
  9
$UCSORTHOREF
  2

  9
$UCSORTHOVIEW
 70
     0
  9
$UCSORGTOP
 10
0.0
 20
0.0
 30
0.0
  9
$UCSORGBOTTOM
 10
0.0
 20
0.0
 30
0.0
  9
$UCSORGLEFT
 10
0.0
 20
0.0
 30
0.0
  9
$UCSORGRIGHT
 10
0.0
 20
0.0
 30
0.0
  9
$UCSORGFRONT
 10
0.0
 20
0.0
 30
0.0
  9
$UCSORGBACK
 10
0.0
 20
0.0
 30
0.0
  9
$PUCSBASE
  2

  9
$PUCSNAME
  2

  9
$PUCSORG
 10
0.0
 20
0.0
 30
0.0
  9
$PUCSXDIR
 10
1.0
 20
0.0
 30
0.0
  9
$PUCSYDIR
 10
0.0
 20
1.0
 30
0.0
  9
$PUCSORTHOREF
  2

  9
$PUCSORTHOVIEW
 70
     0
  9
$PUCSORGTOP
 10
0.0
 20
0.0
 30
0.0
  9
$PUCSORGBOTTOM
 10
0.0
 20
0.0
 30
0.0
  9
$PUCSORGLEFT
 10
0.0
 20
0.0
 30
0.0
  9
$PUCSORGRIGHT
 10
0.0
 20
0.0
 30
0.0
  9
$PUCSORGFRONT
 10
0.0
 20
0.0
 30
0.0
  9
$PUCSORGBACK
 10
0.0
 20
0.0
 30
0.0
  9
$USERI1
 70
     0
  9
$USERI2
 70
     0
  9
$USERI3
 70
     0
  9
$USERI4
 70
     0
  9
$USERI5
 70
     0
  9
$USERR1
 40
16.5
  9
$USERR2
 40
0.0
  9
$USERR3
 40
0.0
  9
$USERR4
 40
0.0
  9
$USERR5
 40
0.0
  9
$WORLDVIEW
 70
     1
  9
$SHADEDGE
 70
     3
  9
$SHADEDIF
 70
    70
  9
$TILEMODE
 70
     1
  9
$MAXACTVP
 70
    64
  9
$PINSBASE
 10
0.0
 20
0.0
 30
0.0
  9
$PLIMCHECK
 70
     0
  9
$PEXTMIN
 10
1.00000000000000E+20
 20
1.00000000000000E+20
 30
1.00000000000000E+20
  9
$PEXTMAX
 10
-1.00000000000000E+20
 20
-1.00000000000000E+20
 30
-1.00000000000000E+20
  9
$PLIMMIN
 10
0.0
 20
0.0
  9
$PLIMMAX
 10
12.0
 20
9.0
  9
$UNITMODE
 70
     0
  9
$VISRETAIN
 70
     1
  9
$PLINEGEN
 70
     0
  9
$PSLTSCALE
 70
     1
  9
$TREEDEPTH
 70
  3020
  9
$CMLSTYLE
  2
Standard
  9
$CMLJUST
 70
     0
  9
$CMLSCALE
 40
1.0
  9
$PROXYGRAPHICS
 70
     1
  9
$MEASUREMENT
 70
     1
  9
$CELWEIGHT
370
    -1
  9
$ENDCAPS
280
     0
  9
$JOINSTYLE
280
     0
  9
$LWDISPLAY
290
     0
  9
$INSUNITS
 70
     1
  9
$HYPERLINKBASE
  1

  9
$STYLESHEET
  1

  9
$XEDIT
290
     1
  9
$CEPSNTYPE
380
     0
  9
$PSTYLEMODE
290
     1
  9
$FINGERPRINTGUID
  2
{723CD40B-962C-4612-93DB-6E545E86B825}
  9
$VERSIONGUID
  2
{FAEB1C32-E019-11D5-929B-00C0DF256EC4}
  9
$EXTNAMES
290
     1
  9
$PSVPSCALE
 40
0.0
  9
$OLESTARTUP
290
     0
  0
ENDSEC
  0
SECTION
  2
CLASSES
  0
CLASS
  1
ACDBDICTIONARYWDFLT
  2
AcDbDictionaryWithDefault
  3
ObjectDBX Classes
 90
        0
280
     0
281
     0
  0
CLASS
  1
VISUALSTYLE
  2
AcDbVisualStyle
  3
ObjectDBX Classes
 90
     4095
280
     0
281
     0
  0
CLASS
  1
SCALE
  2
AcDbScale
  3
ObjectDBX Classes
 90
     1153
280
     0
281
     0
  0
CLASS
  1

  2
exOdDbPolyline
  3

 90
        0
280
     0
281
     1
  0
CLASS
  1

  2
exOdDbCircle
  3

 90
        0
280
     0
281
     1
  0
CLASS
  1

  2
exOdDbSpline
  3

 90
        0
280
     0
281
     1
  0
CLASS
  1
DICTIONARYVAR
  2
AcDbDictionaryVar
  3
ObjectDBX Classes
 90
        0
280
     0
281
     0
  0
CLASS
  1
ACDBPLACEHOLDER
  2
AcDbPlaceHolder
  3
ObjectDBX Classes
 90
        0
280
     0
281
     0
  0
CLASS
  1
LAYOUT
  2
AcDbLayout
  3
ObjectDBX Classes
 90
        0
280
     0
281
     0
  0
ENDSEC
  0
SECTION
  2
TABLES
  0
TABLE
  2
VPORT
  5
8
330
0
100
AcDbSymbolTable
 70
     1
  0
VPORT
  5
29
330
8
100
AcDbSymbolTableRecord
100
AcDbViewportTableRecord
  2
*Active
 70
     0
 10
0.0
 20
0.0
 11
1.0
 21
1.0
 12
144.8316842365119
 22
312.2450673668595
 13
0.0
 23
0.0
 14
0.5
 24
0.5
 15
0.5
 25
0.5
 16
0.0
 26
0.0
 36
1.0
 17
0.0
 27
0.0
 37
0.0
 40
139.1785285604109
 41
1.60267857142857
 42
50.0
 43
0.0
 44
0.0
 50
0.0
 51
0.0
 71
     0
 72
   100
 73
     1
 74
     3
 75
     0
 76
     0
 77
     0
 78
     0
281
     0
 65
     1
110
0.0
120
0.0
130
0.0
111
1.0
121
0.0
131
0.0
112
0.0
122
1.0
132
0.0
 79
     0
146
0.0
  0
ENDTAB
  0
TABLE
  2
LTYPE
  5
5
330
0
100
AcDbSymbolTable
 70
     8
  0
LTYPE
  5
14
330
5
100
AcDbSymbolTableRecord
100
AcDbLinetypeTableRecord
  2
ByBlock
 70
     0
  3

 72
    65
 73
     0
 40
0.0
  0
LTYPE
  5
15
330
5
100
AcDbSymbolTableRecord
100
AcDbLinetypeTableRecord
  2
ByLayer
 70
     0
  3

 72
    65
 73
     0
 40
0.0
  0
LTYPE
  5
16
330
5
100
AcDbSymbolTableRecord
100
AcDbLinetypeTableRecord
  2
Continuous
 70
     0
  3
Solid line
 72
    65
 73
     0
 40
0.0
  0
LTYPE
  5
3B
330
5
100
AcDbSymbolTableRecord
100
AcDbLinetypeTableRecord
  2
DASHED
 70
     0
  3
Dashed
 72
    65
 73
     2
 40
15.0
 49
7.0
 74
     0
 49
-8.0
 74
     0
  0
LTYPE
  5
3C
330
5
100
AcDbSymbolTableRecord
100
AcDbLinetypeTableRecord
  2
DOTTED
 70
     0
  3
Dotted
 72
    65
 73
     2
 40
1.0
 49
0.0
 74
     0
 49
-1.0
 74
     0
  0
LTYPE
  5
3D
330
5
100
AcDbSymbolTableRecord
100
AcDbLinetypeTableRecord
  2
DOT_CENTER
 70
     0
  3
Dot_Center
 72
    65
 73
     4
 40
14.0
 49
12.0
 74
     0
 49
-1.0
 74
     0
 49
0.0
 74
     0
 49
-1.0
 74
     0
  0
LTYPE
  5
3E
330
5
100
AcDbSymbolTableRecord
100
AcDbLinetypeTableRecord
  2
LONG_DASHED
 70
     0
  3
Long_Dashed
 72
    65
 73
     2
 40
15.0
 49
10.0
 74
     0
 49
-5.0
 74
     0
  0
LTYPE
  5
3F
330
5
100
AcDbSymbolTableRecord
100
AcDbLinetypeTableRecord
  2
DASH_CENTER
 70
     0
  3
Dash_Center
 72
    65
 73
     4
 40
14.0
 49
11.0
 74
     0
 49
-1.0
 74
     0
 49
1.0
 74
     0
 49
-1.0
 74
     0
  0
LTYPE
  5
40
330
5
100
AcDbSymbolTableRecord
100
AcDbLinetypeTableRecord
  2
PHANTOM
 70
     0
  3
Phantom
 72
    65
 73
     6
 40
13.0
 49
10.0
 74
     0
 49
-1.0
 74
     0
 49
0.0
 74
     0
 49
-1.0
 74
     0
 49
0.0
 74
     0
 49
-1.0
 74
     0
  0
LTYPE
  5
41
330
5
100
AcDbSymbolTableRecord
100
AcDbLinetypeTableRecord
  2
CENTER_DASH_DASH
 70
     0
  3
Center_Dash_Dash
 72
    65
 73
     6
 40
14.0
 49
9.0
 74
     0
 49
-1.0
 74
     0
 49
1.0
 74
     0
 49
-1.0
 74
     0
 49
1.0
 74
     0
 49
-1.0
 74
     0
  0
ENDTAB
  0
TABLE
  2
LAYER
  5
2
330
0
100
AcDbSymbolTable
 70
     6
  0
LAYER
  5
10
330
2
100
AcDbSymbolTableRecord
100
AcDbLayerTableRecord
  2
0
 70
     0
 62
     7
  6
Continuous
370
    -3
390
F
  0
LAYER
  5
42
330
2
100
AcDbSymbolTableRecord
100
AcDbLayerTableRecord
  2
1
 70
     0
 62
     7
  6
Continuous
370
    -3
390
F
  0
LAYER
  5
43
330
2
100
AcDbSymbolTableRecord
100
AcDbLayerTableRecord
  2
BEZUGSACHSEN
 70
     0
 62
     7
  6
Continuous
370
    -3
390
F
  0
LAYER
  5
44
330
2
100
AcDbSymbolTableRecord
100
AcDbLayerTableRecord
  2
DEFAULT_2
 70
     0
 62
     7
  6
Continuous
370
    -3
390
F
  0
LAYER
  5
45
330
2
100
AcDbSymbolTableRecord
100
AcDbLayerTableRecord
  2
FASEN
 70
     0
 62
     7
  6
Continuous
370
    -3
390
F
  0
LAYER
  5
46
330
2
100
AcDbSymbolTableRecord
100
AcDbLayerTableRecord
  2
RUNDUNGEN
 70
     0
 62
     7
  6
Continuous
370
    -3
390
F
  0
ENDTAB
  0
TABLE
  2
STYLE
  5
3
330
0
100
AcDbSymbolTable
 70
     2
  0
STYLE
  5
11
330
3
100
AcDbSymbolTableRecord
100
AcDbTextStyleTableRecord
  2
Standard
 70
     0
 40
0.0
 41
1.0
 50
0.0
 71
     0
 42
0.2
  3
txt
  4

  0
STYLE
  5
6D
330
3
100
AcDbSymbolTableRecord
100
AcDbTextStyleTableRecord
  2
CONVERTER_11
 70
     0
 40
0.0
 41
0.72
 50
0.0
 71
     0
 42
0.2
  3
txt.shx
  4

  0
ENDTAB
  0
TABLE
  2
VIEW
  5
6
330
0
100
AcDbSymbolTable
 70
     0
  0
ENDTAB
  0
TABLE
  2
UCS
  5
7
330
0
100
AcDbSymbolTable
 70
     0
  0
ENDTAB
  0
TABLE
  2
APPID
  5
9
330
0
100
AcDbSymbolTable
 70
     1
  0
APPID
  5
12
330
9
100
AcDbSymbolTableRecord
100
AcDbRegAppTableRecord
  2
ACAD
 70
     0
  0
ENDTAB
  0
TABLE
  2
DIMSTYLE
  5
A
330
0
100
AcDbSymbolTable
 70
     8
100
AcDbDimStyleTable
  0
DIMSTYLE
105
27
330
A
100
AcDbSymbolTableRecord
100
AcDbDimStyleTableRecord
  2
Standard
 70
     0
340
11
  0
DIMSTYLE
105
106
102
{ACAD_REACTORS
330
107
102
}
330
A
100
AcDbSymbolTableRecord
100
AcDbDimStyleTableRecord
  2
ME10_DIM_10
 70
     0
  3
\U+2300<>
 41
3.5
 42
2.0
 44
2.0
 71
     1
 73
     0
 74
     0
 77
     1
 78
     8
140
3.5
146
0.7
147
2.0
172
     1
173
     1
176
     2
177
     2
178
     3
271
     2
272
     0
340
6D
  0
DIMSTYLE
105
111
102
{ACAD_REACTORS
330
112
102
}
330
A
100
AcDbSymbolTableRecord
100
AcDbDimStyleTableRecord
  2
ME10_DIM_11
 70
     0
  3
\U+2300<>
 41
3.5
 42
2.0
 44
2.0
 71
     1
 73
     0
 74
     0
 77
     1
 78
     8
140
3.5
146
0.7
147
2.0
172
     1
173
     1
176
     2
177
     2
178
     3
271
     2
272
     0
340
6D
  0
DIMSTYLE
105
11C
102
{ACAD_REACTORS
330
11D
102
}
330
A
100
AcDbSymbolTableRecord
100
AcDbDimStyleTableRecord
  2
ME10_DIM_12
 70
     0
  3
\U+2300<>
 41
3.5
 42
2.0
 44
2.0
 71
     1
 73
     0
 74
     0
 77
     1
 78
     8
140
3.5
146
0.7
147
2.0
172
     1
173
     1
176
     2
177
     2
178
     3
271
     2
272
     0
340
6D
  0
DIMSTYLE
105
127
102
{ACAD_REACTORS
330
128
102
}
330
A
100
AcDbSymbolTableRecord
100
AcDbDimStyleTableRecord
  2
ME10_DIM_13
 70
     0
  3
<>
 41
3.5
 42
2.0
 44
2.0
 71
     1
 73
     0
 74
     0
 77
     1
 78
     8
140
3.5
146
0.7
147
2.0
172
     1
173
     1
176
     2
177
     2
178
     3
271
     2
272
     0
340
6D
  0
DIMSTYLE
105
132
102
{ACAD_REACTORS
330
133
102
}
330
A
100
AcDbSymbolTableRecord
100
AcDbDimStyleTableRecord
  2
ME10_DIM_14
 70
     0
  3
<>
 41
3.5
 42
2.0
 44
2.0
 71
     1
 73
     0
 74
     0
 77
     1
 78
     8
140
3.5
146
0.7
147
2.0
172
     1
173
     1
176
     2
177
     2
178
     3
271
     2
272
     0
340
6D
  0
DIMSTYLE
105
13D
102
{ACAD_REACTORS
330
13E
102
}
330
A
100
AcDbSymbolTableRecord
100
AcDbDimStyleTableRecord
  2
ME10_DIM_15
 70
     0
  3
<>
 41
3.5
 42
2.0
 44
2.0
 71
     1
 73
     0
 74
     0
 77
     1
 78
     8
140
3.5
146
0.7
147
2.0
172
     1
173
     1
176
     2
177
     2
178
     3
271
     2
272
     0
340
6D
  0
DIMSTYLE
105
14F
102
{ACAD_REACTORS
330
150
102
}
330
A
100
AcDbSymbolTableRecord
100
AcDbDimStyleTableRecord
  2
ME10_DIM_16
 70
     0
  3
<>
 41
3.5
 42
2.0
 44
2.0
 71
     1
 73
     0
 74
     0
 77
     1
 78
     8
140
3.5
146
0.7
147
2.0
172
     1
173
     1
176
     2
177
     2
178
     3
271
     2
272
     0
340
6D
  0
ENDTAB
  0
TABLE
  2
BLOCK_RECORD
  5
1
330
0
100
AcDbSymbolTable
 70
    10
  0
BLOCK_RECORD
  5
1F
330
1
100
AcDbSymbolTableRecord
100
AcDbBlockTableRecord
  2
*Model_Space
340
22
  0
BLOCK_RECORD
  5
1B
330
1
100
AcDbSymbolTableRecord
100
AcDbBlockTableRecord
  2
*Paper_Space
340
1E
  0
BLOCK_RECORD
  5
23
330
1
100
AcDbSymbolTableRecord
100
AcDbBlockTableRecord
  2
*Paper_Space0
340
26
  0
BLOCK_RECORD
  5
47
330
1
100
AcDbSymbolTableRecord
100
AcDbBlockTableRecord
  2
Urheberrecht_DE-EN
340
0
102
{BLKREFS
331
6C
102
}
  0
BLOCK_RECORD
  5
FD
330
1
100
AcDbSymbolTableRecord
100
AcDbBlockTableRecord
  2
*D2
340
0
  0
BLOCK_RECORD
  5
108
330
1
100
AcDbSymbolTableRecord
100
AcDbBlockTableRecord
  2
*D3
340
0
  0
BLOCK_RECORD
  5
113
330
1
100
AcDbSymbolTableRecord
100
AcDbBlockTableRecord
  2
*D4
340
0
  0
BLOCK_RECORD
  5
11E
330
1
100
AcDbSymbolTableRecord
100
AcDbBlockTableRecord
  2
*D5
340
0
  0
BLOCK_RECORD
  5
129
330
1
100
AcDbSymbolTableRecord
100
AcDbBlockTableRecord
  2
*D6
340
0
  0
BLOCK_RECORD
  5
134
330
1
100
AcDbSymbolTableRecord
100
AcDbBlockTableRecord
  2
*D7
340
0
  0
BLOCK_RECORD
  5
13F
330
1
100
AcDbSymbolTableRecord
100
AcDbBlockTableRecord
  2
*D8
340
0
102
{BLKREFS
331
145
102
}
  0
BLOCK_RECORD
  5
146
330
1
100
AcDbSymbolTableRecord
100
AcDbBlockTableRecord
  2
*D9
340
0
  0
ENDTAB
  0
ENDSEC
  0
SECTION
  2
BLOCKS
  0
BLOCK
  5
20
330
1F
100
AcDbEntity
  8
0
100
AcDbBlockBegin
  2
*Model_Space
 70
     0
 10
0.0
 20
0.0
 30
0.0
  3
*Model_Space
  1

  0
ENDBLK
  5
21
330
1F
100
AcDbEntity
  8
0
100
AcDbBlockEnd
  0
BLOCK
  5
1C
330
1B
100
AcDbEntity
 67
     1
  8
0
100
AcDbBlockBegin
  2
*Paper_Space
 70
     0
 10
0.0
 20
0.0
 30
0.0
  3
*Paper_Space
  1

  0
ENDBLK
  5
1D
330
1B
100
AcDbEntity
 67
     1
  8
0
100
AcDbBlockEnd
  0
BLOCK
  5
24
330
23
100
AcDbEntity
  8
0
100
AcDbBlockBegin
  2
*Paper_Space0
 70
     0
 10
0.0
 20
0.0
 30
0.0
  3
*Paper_Space0
  1

  0
ENDBLK
  5
25
330
23
100
AcDbEntity
  8
0
100
AcDbBlockEnd
  0
BLOCK
  5
48
330
47
100
AcDbEntity
  8
0
100
AcDbBlockBegin
  2
Urheberrecht_DE-EN
 70
     0
 10
63.28169186908579
 20
314.114413956741
 30
0.0
  3
Urheberrecht_DE-EN
  1

  0
MTEXT
  5
6E
330
47
100
AcDbEntity
  8
1
 62
     1
100
AcDbMText
 10
63.28169186908579
 20
314.114413956741
 30
0.0
 40
2.0
 41
0.0
 71
     7
 72
     1
  1
We own the copyright of this document. It \Pdetermined and may neither be copied or \Pmade accessible to outsiders without our\Ppermission.
  7
CONVERTER_11
 11
0.0
 21
1.0
 31
0.0
 73
     1
 44
0.90036014405762
  0
MTEXT
  5
6F
330
47
100
AcDbEntity
  8
1
 62
     1
100
AcDbMText
 10
63.28169186908579
 20
257.8250270394348
 30
0.0
 40
2.0
 41
0.0
 71
     7
 72
     1
  1
F\U+00fcr diese Unterlage behalten wir das Ur-\Pheberrecht. Sie darf nur f\U+00fcr den von uns \Pbestimmten Zweck benutzt und ohne unsere \PZustimmung weder vervielf\U+00e4ltigt noch\PDritten zug\U+00e4nglich gemacht werden.
  7
CONVERTER_11
 11
0.0
 21
1.0
 31
0.0
 73
     1
 44
0.90036014405762
  0
ENDBLK
  5
49
330
47
100
AcDbEntity
  8
0
100
AcDbBlockEnd
  0
BLOCK
  5
104
330
FD
100
AcDbEntity
  8
0
100
AcDbBlockBegin
  2
*D2
 70
     1
 10
0.0
 20
0.0
 30
0.0
  3
*D2
  1

  0
LINE
  5
FE
330
FD
100
AcDbEntity
  8
1
  6
Continuous
 62
     2
100
AcDbLine
 10
220.857586583363
 20
303.9820998394
 30
0.0
 11
220.857586583363
 21
293.9820998394
 31
0.0
  0
LINE
  5
FF
330
FD
100
AcDbEntity
  8
1
  6
Continuous
 62
     2
100
AcDbLine
 10
211.9143468951
 20
303.9820998394
 30
0.0
 11
222.857586583363
 21
303.9820998394
 31
0.0
  0
LINE
  5
100
330
FD
100
AcDbEntity
  8
1
  6
Continuous
 62
     2
100
AcDbLine
 10
211.9143468951
 20
293.9820998394
 30
0.0
 11
222.857586583363
 21
293.9820998394
 31
0.0
  0
SOLID
  5
101
330
FD
100
AcDbEntity
  8
1
 62
     2
100
AcDbTrace
 10
221.3183703249189
 20
300.4820998394
 30
0.0
 11
220.3968028418071
 21
300.4820998394
 31
0.0
 12
220.857586583363
 22
303.9820998394
 32
0.0
 13
220.857586583363
 23
303.9820998394
 33
0.0
  0
SOLID
  5
102
330
FD
100
AcDbEntity
  8
1
 62
     2
100
AcDbTrace
 10
220.3968028418071
 20
297.4820998394
 30
0.0
 11
221.3183703249189
 21
297.4820998394
 31
0.0
 12
220.857586583363
 22
293.9820998394
 32
0.0
 13
220.857586583363
 23
293.9820998394
 33
0.0
  0
MTEXT
  5
103
330
FD
100
AcDbEntity
  8
1
 62
     3
100
AcDbMText
 10
218.857586583363
 20
290.578003528914
 30
0.0
 40
3.5
 41
0.0
 71
     7
 72
     1
  1
\C3;%%c\C3;\C3;10\C2;\H2.45;\S^ ;\C3;
  7
CONVERTER_11
 11
0.0
 21
1.0
 31
0.0
 73
     1
 44
0.60024009603842
  0
ENDBLK
  5
105
330
FD
100
AcDbEntity
  8
0
100
AcDbBlockEnd
  0
BLOCK
  5
10F
330
108
100
AcDbEntity
  8
0
100
AcDbBlockBegin
  2
*D3
 70
     1
 10
0.0
 20
0.0
 30
0.0
  3
*D3
  1

  0
LINE
  5
109
330
108
100
AcDbEntity
  8
1
  6
Continuous
 62
     2
100
AcDbLine
 10
229.994077961612
 20
310.9820998394528
 30
0.0
 11
229.994077961612
 21
286.9820998393559
 31
0.0
  0
LINE
  5
10A
330
108
100
AcDbEntity
  8
1
  6
Continuous
 62
     2
100
AcDbLine
 10
211.9143468951094
 20
310.9820998394528
 30
0.0
 11
231.994077961612
 21
310.9820998394528
 31
0.0
  0
LINE
  5
10B
330
108
100
AcDbEntity
  8
1
  6
Continuous
 62
     2
100
AcDbLine
 10
211.9143468951
 20
286.9820998393559
 30
0.0
 11
231.994077961612
 21
286.9820998393559
 31
0.0
  0
SOLID
  5
10C
330
108
100
AcDbEntity
  8
1
 62
     2
100
AcDbTrace
 10
230.4548617031679
 20
307.4820998394528
 30
0.0
 11
229.5332942200561
 21
307.4820998394528
 31
0.0
 12
229.994077961612
 22
310.9820998394528
 32
0.0
 13
229.994077961612
 23
310.9820998394528
 33
0.0
  0
SOLID
  5
10D
330
108
100
AcDbEntity
  8
1
 62
     2
100
AcDbTrace
 10
229.5332942200561
 20
290.4820998393559
 30
0.0
 11
230.4548617031679
 21
290.4820998393559
 31
0.0
 12
229.994077961612
 22
286.9820998393559
 32
0.0
 13
229.994077961612
 23
286.9820998393559
 33
0.0
  0
MTEXT
  5
10E
330
108
100
AcDbEntity
  8
1
 62
     3
100
AcDbMText
 10
227.994077961612
 20
289.858446434545
 30
0.0
 40
3.5
 41
0.0
 71
     7
 72
     1
  1
\C3;%%c\C3;\C3;24\C2;\H2.45;\S^ ;\C3;
  7
CONVERTER_11
 11
0.0
 21
1.0
 31
0.0
 73
     1
 44
0.60024009603842
  0
ENDBLK
  5
110
330
108
100
AcDbEntity
  8
0
100
AcDbBlockEnd
  0
BLOCK
  5
11A
330
113
100
AcDbEntity
  8
0
100
AcDbBlockBegin
  2
*D4
 70
     1
 10
0.0
 20
0.0
 30
0.0
  3
*D4
  1

  0
LINE
  5
114
330
113
100
AcDbEntity
  8
1
  6
Continuous
 62
     2
100
AcDbLine
 10
238.381676603938
 20
314.9820998394
 30
0.0
 11
238.381676603938
 21
282.9820998394
 31
0.0
  0
LINE
  5
115
330
113
100
AcDbEntity
  8
1
  6
Continuous
 62
     2
100
AcDbLine
 10
161.0895279504
 20
314.9820998394
 30
0.0
 11
240.381676603938
 21
314.9820998394
 31
0.0
  0
LINE
  5
116
330
113
100
AcDbEntity
  8
1
  6
Continuous
 62
     2
100
AcDbLine
 10
161.0895279504
 20
282.9820998394
 30
0.0
 11
240.381676603938
 21
282.9820998394
 31
0.0
  0
SOLID
  5
117
330
113
100
AcDbEntity
  8
1
 62
     2
100
AcDbTrace
 10
238.8424603454939
 20
311.4820998394
 30
0.0
 11
237.9208928623821
 21
311.4820998394
 31
0.0
 12
238.381676603938
 22
314.9820998394
 32
0.0
 13
238.381676603938
 23
314.9820998394
 33
0.0
  0
SOLID
  5
118
330
113
100
AcDbEntity
  8
1
 62
     2
100
AcDbTrace
 10
237.9208928623821
 20
286.4820998394
 30
0.0
 11
238.8424603454939
 21
286.4820998394
 31
0.0
 12
238.381676603938
 22
282.9820998394
 32
0.0
 13
238.381676603938
 23
282.9820998394
 33
0.0
  0
MTEXT
  5
119
330
113
100
AcDbEntity
  8
1
 62
     3
100
AcDbMText
 10
236.381676603938
 20
290.008224981729
 30
0.0
 40
3.5
 41
0.0
 71
     7
 72
     1
  1
\C3;%%c\C3;\C3;32\C2;\H2.45;\S^ ;\C3;
  7
CONVERTER_11
 11
0.0
 21
1.0
 31
0.0
 73
     1
 44
0.60024009603842
  0
ENDBLK
  5
11B
330
113
100
AcDbEntity
  8
0
100
AcDbBlockEnd
  0
BLOCK
  5
125
330
11E
100
AcDbEntity
  8
0
100
AcDbBlockBegin
  2
*D5
 70
     1
 10
0.0
 20
0.0
 30
0.0
  3
*D5
  1

  0
LINE
  5
11F
330
11E
100
AcDbEntity
  8
1
  6
Continuous
 62
     2
100
AcDbLine
 10
209.9143468951
 20
355.928851458985
 30
0.0
 11
148.9143468951
 21
355.928851458985
 31
0.0
  0
LINE
  5
120
330
11E
100
AcDbEntity
  8
1
  6
Continuous
 62
     2
100
AcDbLine
 10
209.9143468951
 20
312.0577093477
 30
0.0
 11
209.9143468951
 21
357.928851458985
 31
0.0
  0
LINE
  5
121
330
11E
100
AcDbEntity
  8
1
  6
Continuous
 62
     2
100
AcDbLine
 10
148.9143468951
 20
350.9820629183
 30
0.0
 11
148.9143468951
 21
357.928851458985
 31
0.0
  0
SOLID
  5
122
330
11E
100
AcDbEntity
  8
1
 62
     2
100
AcDbTrace
 10
206.4143468951
 20
355.4680677174291
 30
0.0
 11
206.4143468951
 21
356.3896352005409
 31
0.0
 12
209.9143468951
 22
355.928851458985
 32
0.0
 13
209.9143468951
 23
355.928851458985
 33
0.0
  0
SOLID
  5
123
330
11E
100
AcDbEntity
  8
1
 62
     2
100
AcDbTrace
 10
152.4143468951
 20
356.3896352005409
 30
0.0
 11
152.4143468951
 21
355.4680677174291
 31
0.0
 12
148.9143468951
 22
355.928851458985
 32
0.0
 13
148.9143468951
 23
355.928851458985
 33
0.0
  0
MTEXT
  5
124
330
11E
100
AcDbEntity
  8
1
 62
     3
100
AcDbMText
 10
178.437821749207
 20
357.928851458985
 30
0.0
 40
3.5
 41
0.0
 71
     7
 72
     1
  1
\C3;\C3;\C3;61\C2;\H2.45;\S^ ;\C3;
  7
CONVERTER_11
 11
0.9999999999970619
 21
2.424068405545306E-6
 31
0.0
 73
     1
 44
0.60024009603842
  0
ENDBLK
  5
126
330
11E
100
AcDbEntity
  8
0
100
AcDbBlockEnd
  0
BLOCK
  5
130
330
129
100
AcDbEntity
  8
0
100
AcDbBlockBegin
  2
*D6
 70
     1
 10
0.0
 20
0.0
 30
0.0
  3
*D6
  1

  0
LINE
  5
12A
330
129
100
AcDbEntity
  8
1
  6
Continuous
 62
     2
100
AcDbLine
 10
209.9143468951
 20
362.818664629468
 30
0.0
 11
119.9143468951
 21
362.818664629468
 31
0.0
  0
LINE
  5
12B
330
129
100
AcDbEntity
  8
1
  6
Continuous
 62
     2
100
AcDbLine
 10
209.9143468951
 20
312.0577093477
 30
0.0
 11
209.9143468951
 21
364.818664629468
 31
0.0
  0
LINE
  5
12C
330
129
100
AcDbEntity
  8
1
  6
Continuous
 62
     2
100
AcDbLine
 10
119.9143468951
 20
350.9820998394
 30
0.0
 11
119.9143468951
 21
364.818664629468
 31
0.0
  0
SOLID
  5
12D
330
129
100
AcDbEntity
  8
1
 62
     2
100
AcDbTrace
 10
206.4143468951
 20
362.3578808879121
 30
0.0
 11
206.4143468951
 21
363.2794483710239
 31
0.0
 12
209.9143468951
 22
362.818664629468
 32
0.0
 13
209.9143468951
 23
362.818664629468
 33
0.0
  0
SOLID
  5
12E
330
129
100
AcDbEntity
  8
1
 62
     2
100
AcDbTrace
 10
123.4143468951
 20
363.2794483710239
 30
0.0
 11
123.4143468951
 21
362.3578808879121
 31
0.0
 12
119.9143468951
 22
362.818664629468
 32
0.0
 13
119.9143468951
 23
362.818664629468
 33
0.0
  0
MTEXT
  5
12F
330
129
100
AcDbEntity
  8
1
 62
     3
100
AcDbMText
 10
165.436423785717
 20
364.818664629468
 30
0.0
 40
3.5
 41
0.0
 71
     7
 72
     1
  1
\C3;\C3;\C3;90\C2;\H2.45;\S^ ;\C3;
  7
CONVERTER_11
 11
0.9999999999970619
 21
2.424068405545306E-6
 31
0.0
 73
     1
 44
0.60024009603842
  0
ENDBLK
  5
131
330
129
100
AcDbEntity
  8
0
100
AcDbBlockEnd
  0
BLOCK
  5
13B
330
134
100
AcDbEntity
  8
0
100
AcDbBlockBegin
  2
*D7
 70
     1
 10
0.0
 20
0.0
 30
0.0
  3
*D7
  1

  0
LINE
  5
135
330
134
100
AcDbEntity
  8
1
  6
Continuous
 62
     2
100
AcDbLine
 10
209.9143468951
 20
370.008034894319
 30
0.0
 11
69.9143468951
 21
370.008034894319
 31
0.0
  0
LINE
  5
136
330
134
100
AcDbEntity
  8
1
  6
Continuous
 62
     2
100
AcDbLine
 10
209.9143468951
 20
312.0577093477
 30
0.0
 11
209.9143468951
 21
372.008034894319
 31
0.0
  0
LINE
  5
137
330
134
100
AcDbEntity
  8
1
  6
Continuous
 62
     2
100
AcDbLine
 10
69.9143468951
 20
334.582291402
 30
0.0
 11
69.9143468951
 21
372.008034894319
 31
0.0
  0
SOLID
  5
138
330
134
100
AcDbEntity
  8
1
 62
     2
100
AcDbTrace
 10
206.4143468951
 20
369.5472511527631
 30
0.0
 11
206.4143468951
 21
370.4688186358749
 31
0.0
 12
209.9143468951
 22
370.008034894319
 32
0.0
 13
209.9143468951
 23
370.008034894319
 33
0.0
  0
SOLID
  5
139
330
134
100
AcDbEntity
  8
1
 62
     2
100
AcDbTrace
 10
73.4143468951
 20
370.4688186358749
 30
0.0
 11
73.4143468951
 21
369.5472511527631
 31
0.0
 12
69.9143468951
 22
370.008034894319
 32
0.0
 13
69.9143468951
 23
370.008034894319
 33
0.0
  0
MTEXT
  5
13A
330
134
100
AcDbEntity
  8
1
 62
     3
100
AcDbMText
 10
142.279420255242
 20
372.008034894319
 30
0.0
 40
3.5
 41
0.0
 71
     7
 72
     1
  1
\C3;\C3;\C3;140\C2;\H2.45;\S^ ;\C3;
  7
CONVERTER_11
 11
0.9999999999970619
 21
2.424068405545306E-6
 31
0.0
 73
     1
 44
0.60024009603842
  0
ENDBLK
  5
13C
330
134
100
AcDbEntity
  8
0
100
AcDbBlockEnd
  0
BLOCK
  5
143
330
13F
100
AcDbEntity
  8
0
100
AcDbBlockBegin
  2
*D8
 70
     1
 10
0.0
 20
0.0
 30
0.0
  3
*D8
  1

  0
LINE
  5
140
330
13F
100
AcDbEntity
  8
1
  6
Continuous
 62
     2
100
AcDbLine
 10
160.6917726258738
 20
324.7696309085186
 30
0.0
 11
149.8965044287658
 21
317.6925319372199
 31
0.0
  0
SOLID
  5
141
330
13F
100
AcDbEntity
  8
1
 62
     2
100
AcDbTrace
 10
152.5709492997826
 20
319.9968032511877
 30
0.0
 11
153.0762091018055
 21
319.2260898424625
 31
0.0
 12
149.8965044287658
 22
317.6925319372199
 32
0.0
 13
149.8965044287658
 23
317.6925319372199
 33
0.0
  0
MTEXT
  5
142
330
13F
100
AcDbEntity
  8
1
 62
     3
100
AcDbMText
 10
153.3898514751138
 20
322.3741460916006
 30
0.0
 40
3.5
 41
0.0
 71
     7
 72
     1
  1
\C3; R\C3;\C3;6\C2;\H2.45;\S^ ;\C3;
  7
CONVERTER_11
 11
0.8363070777223571
 21
0.5482613170300192
 31
0.0
 73
     1
 44
0.60024009603842
  0
ENDBLK
  5
144
330
13F
100
AcDbEntity
  8
0
100
AcDbBlockEnd
  0
BLOCK
  5
14D
330
146
100
AcDbEntity
  8
0
100
AcDbBlockBegin
  2
*D9
 70
     1
 10
0.0
 20
0.0
 30
0.0
  3
*D9
  1

  0
LINE
  5
147
330
146
100
AcDbEntity
  8
1
  6
Continuous
 62
     2
100
AcDbLine
 10
189.5663223783683
 20
314.9820998394
 30
0.0
 11
191.5663223783683
 21
314.9820998394
 31
0.0
  0
LINE
  5
148
330
146
100
AcDbEntity
  8
1
  6
Continuous
 62
     2
100
AcDbLine
 10
161.0895279504
 20
314.9820998394
 30
0.0
 11
189.5663223783683
 21
314.9820998394
 31
0.0
  0
ARC
  5
149
330
146
100
AcDbEntity
  8
1
  6
Continuous
 62
     2
100
AcDbCircle
 10
159.0895279504
 20
314.9820998394
 30
0.0
 40
30.47679442796825
100
AcDbArc
 50
345.6301023257603
 51
20.25726724393249
  0
SOLID
  5
14A
330
146
100
AcDbEntity
  8
1
 62
     2
100
AcDbTrace
 10
189.4545068153457
 20
309.0607619540717
 30
0.0
 11
188.5414439321322
 21
309.1856731114063
 31
0.0
 12
189.4723725922639
 22
312.5909181079121
 32
0.0
 13
189.4723725922639
 23
312.5909181079121
 33
0.0
  0
SOLID
  5
14B
330
146
100
AcDbEntity
  8
1
 62
     2
100
AcDbTrace
 10
188.90543590377
 20
318.4498874228854
 30
0.0
 11
189.8254845352847
 21
318.5027754326498
 31
0.0
 12
189.5663223783683
 22
314.9820998394
 32
0.0
 13
189.5663223783683
 23
314.9820998394
 33
0.0
  0
MTEXT
  5
14C
330
146
100
AcDbEntity
  8
1
 62
     3
100
AcDbMText
 10
189.7375050152912
 20
326.2931520957734
 30
0.0
 40
3.5
 41
0.0
 71
     7
 72
     1
  1
\C3;\C3;\C3;4.5%%d\C2;\H2.45;\S^ ;\C3;
  7
CONVERTER_11
 11
0.2426881563204181
 21
-0.9701043545834626
 31
0.0
 73
     1
 44
0.60024009603842
  0
ENDBLK
  5
14E
330
146
100
AcDbEntity
  8
0
100
AcDbBlockEnd
  0
ENDSEC
  0
SECTION
  2
ENTITIES
  0
INSERT
  5
6C
330
1F
100
AcDbEntity
  8
0
100
AcDbBlockReference
  2
Urheberrecht_DE-EN
 10
63.28169186908579
 20
314.114413956741
 30
0.0
  0
LINE
  5
70
330
1F
100
AcDbEntity
  8
BEZUGSACHSEN
  6
Continuous
 62
     7
100
AcDbLine
 10
69.9143468951
 20
265.3819082765
 30
0.0
 11
69.9143468951
 21
286.9720998394
 31
0.0
  0
LINE
  5
71
330
1F
100
AcDbEntity
  8
BEZUGSACHSEN
  6
Continuous
 62
     7
100
AcDbLine
 10
69.9143468951
 20
310.9920998394
 30
0.0
 11
69.9143468951
 21
332.582291402
 31
0.0
  0
LINE
  5
72
330
1F
100
AcDbEntity
  8
BEZUGSACHSEN
  6
Continuous
 62
     9
100
AcDbLine
 10
71.8142724103
 20
334.5797861077
 30
0.0
 11
71.8142724103
 21
314.6586322257
 31
0.0
  0
LINE
  5
73
330
1F
100
AcDbEntity
  8
BEZUGSACHSEN
  6
Continuous
 62
     9
100
AcDbLine
 10
71.8142724103
 20
283.3055674531
 30
0.0
 11
71.8142724103
 21
263.3844135711
 31
0.0
  0
LINE
  5
74
330
1F
100
AcDbEntity
  8
BEZUGSACHSEN
  6
Continuous
 62
     7
100
AcDbLine
 10
71.9143468951
 20
286.578459891
 30
0.0
 11
71.9143468951
 21
288.9720998394
 31
0.0
  0
LINE
  5
75
330
1F
100
AcDbEntity
  8
BEZUGSACHSEN
  6
Continuous
 62
     7
100
AcDbLine
 10
71.9143468951
 20
308.9920998394
 30
0.0
 11
71.9143468951
 21
311.3857397878
 31
0.0
  0
LINE
  5
76
330
1F
100
AcDbEntity
  8
BEZUGSACHSEN
  6
Continuous
 62
     9
100
AcDbLine
 10
77.9143468951
 20
282.623452252
 30
0.0
 11
77.9143468951
 21
288.9720998394
 31
0.0
  0
LINE
  5
77
330
1F
100
AcDbEntity
  8
BEZUGSACHSEN
  6
Continuous
 62
     9
100
AcDbLine
 10
77.9143468951
 20
308.9920998394
 30
0.0
 11
77.9143468951
 21
315.3407474268
 31
0.0
  0
LINE
  5
78
330
1F
100
AcDbEntity
  8
BEZUGSACHSEN
  6
Continuous
 62
     7
100
AcDbLine
 10
79.9143468951
 20
311.8517553652
 30
0.0
 11
79.9143468951
 21
286.1124443136
 31
0.0
  0
LINE
  5
79
330
1F
100
AcDbEntity
  8
BEZUGSACHSEN
  6
Continuous
 62
     7
100
AcDbLine
 10
71.1812998221
 20
283.9720998394
 30
0.0
 11
71.0601895707
 21
283.739763844
 31
0.0
  0
LINE
  5
7A
330
1F
100
AcDbEntity
  8
BEZUGSACHSEN
  6
Continuous
 62
     7
100
AcDbLine
 10
71.0601895707
 20
314.2244358349
 30
0.0
 11
71.1812998221
 21
313.9920998394
 31
0.0
  0
LINE
  5
7B
330
1F
100
AcDbEntity
  8
BEZUGSACHSEN
  6
Continuous
 62
     7
100
AcDbLine
 10
136.6667516309
 20
248.9820998394
 30
0.0
 11
119.9143468951
 21
248.9820998394
 31
0.0
  0
LINE
  5
7C
330
1F
100
AcDbEntity
  8
BEZUGSACHSEN
  6
Continuous
 62
     7
100
AcDbLine
 10
143.1619421593
 20
248.9820998394
 30
0.0
 11
148.9143468951
 21
248.9820998394
 31
0.0
  0
LINE
  5
7D
330
1F
100
AcDbEntity
  8
BEZUGSACHSEN
  6
Continuous
 62
     7
100
AcDbLine
 10
139.0393468951
 20
252.9820998394
 30
0.0
 11
140.7893468951
 21
252.9820998394
 31
0.0
  0
LINE
  5
7E
330
1F
100
AcDbEntity
  8
BEZUGSACHSEN
  6
Continuous
 62
     7
100
AcDbLine
 10
69.9143468951
 20
286.9720998394
 30
0.0
 11
71.9143468951
 21
288.9720998394
 31
0.0
  0
LINE
  5
7F
330
1F
100
AcDbEntity
  8
BEZUGSACHSEN
  6
Continuous
 62
     7
100
AcDbLine
 10
71.9143468951
 20
308.9920998394
 30
0.0
 11
69.9143468951
 21
310.9920998394
 31
0.0
  0
LWPOLYLINE
  5
80
330
1F
100
AcDbEntity
  8
BEZUGSACHSEN
  6
DOT_CENTER
 62
     7
100
AcDbPolyline
 90
        2
 70
     0
 43
0.25
 10
104.9143468951
 20
298.9820998394
 10
104.9143468951
 20
289.9820998394
  0
LWPOLYLINE
  5
81
330
1F
100
AcDbEntity
  8
BEZUGSACHSEN
  6
DOT_CENTER
 62
     7
100
AcDbPolyline
 90
        2
 70
     0
 43
0.25
 10
104.9143468951
 20
298.9820998394
 10
104.9143468951
 20
307.9820998394
  0
LINE
  5
82
330
1F
100
AcDbEntity
  8
FASEN
  6
Continuous
 62
     7
100
AcDbLine
 10
125.3158328595
 20
260.1523432087
 30
0.0
 11
136.6667516309
 21
260.1523432087
 31
0.0
  0
LINE
  5
83
330
1F
100
AcDbEntity
  8
0
  6
Continuous
 62
     7
100
AcDbLine
 10
143.1619421593
 20
260.1523432087
 30
0.0
 11
148.9143468951
 21
260.1523432087
 31
0.0
  0
LINE
  5
84
330
1F
100
AcDbEntity
  8
BEZUGSACHSEN
  6
Continuous
 62
     7
100
AcDbLine
 10
119.2137756064
 20
261.2998498394
 30
0.0
 11
118.2924095542
 21
261.2998498394
 31
0.0
  0
LINE
  5
85
330
1F
100
AcDbEntity
  8
BEZUGSACHSEN
  6
Continuous
 62
     7
100
AcDbLine
 10
117.4143468951
 20
261.0998498394
 30
0.0
 11
71.8142724103
 21
263.3844135711
 31
0.0
  0
LINE
  5
86
330
1F
100
AcDbEntity
  8
BEZUGSACHSEN
  6
Continuous
 62
     7
100
AcDbLine
 10
118.0335905091
 20
261.2657756657
 30
0.0
 11
117.4143468951
 21
261.0998498394
 31
0.0
  0
LINE
  5
87
330
1F
100
AcDbEntity
  8
0
  6
Continuous
 62
     7
100
AcDbLine
 10
139.0393468951
 20
265.4597192557
 30
0.0
 11
140.7893468951
 21
265.4597192557
 31
0.0
  0
LINE
  5
88
330
1F
100
AcDbEntity
  8
FASEN
  6
Continuous
 62
     7
100
AcDbLine
 10
132.8862208169
 20
267.0820998394
 30
0.0
 11
148.9143468951
 21
267.0820998394
 31
0.0
  0
LINE
  5
89
330
1F
100
AcDbEntity
  8
0
  6
Continuous
 62
     7
100
AcDbLine
 10
132.8862208169
 20
267.4820998394
 30
0.0
 11
148.9143468951
 21
267.4820998394
 31
0.0
  0
LINE
  5
8A
330
1F
100
AcDbEntity
  8
BEZUGSACHSEN
  6
Continuous
 62
     7
100
AcDbLine
 10
117.4143468951
 20
336.8643498394
 30
0.0
 11
117.4143468951
 21
261.0998498394
 31
0.0
  0
LINE
  5
8B
330
1F
100
AcDbEntity
  8
BEZUGSACHSEN
  6
Continuous
 62
     7
100
AcDbLine
 10
141.7893468951
 20
346.6046951036
 30
0.0
 11
143.1619421593
 21
348.9820998394
 31
0.0
  0
LINE
  5
8C
330
1F
100
AcDbEntity
  8
BEZUGSACHSEN
  6
Continuous
 62
     7
100
AcDbLine
 10
141.7893468951
 20
251.3595045752
 30
0.0
 11
143.1619421593
 21
248.9820998394
 31
0.0
  0
LINE
  5
8D
330
1F
100
AcDbEntity
  8
BEZUGSACHSEN
  6
Continuous
 62
     9
100
AcDbLine
 10
118.0335905091
 20
261.2657756657
 30
0.0
 11
118.0335905091
 21
336.6984240131
 31
0.0
  0
LINE
  5
8E
330
1F
100
AcDbEntity
  8
BEZUGSACHSEN
  6
Continuous
 62
     9
100
AcDbLine
 10
118.2924095542
 20
261.2998498394
 30
0.0
 11
118.2924095542
 21
336.6643498394
 31
0.0
  0
LINE
  5
8F
330
1F
100
AcDbEntity
  8
BEZUGSACHSEN
  6
Continuous
 62
     9
100
AcDbLine
 10
119.2137756064
 20
261.2998498394
 30
0.0
 11
119.2137756064
 21
336.6643498394
 31
0.0
  0
LINE
  5
90
330
1F
100
AcDbEntity
  8
BEZUGSACHSEN
  6
Continuous
 62
     7
100
AcDbLine
 10
119.9143468951
 20
348.9820998394
 30
0.0
 11
119.9143468951
 21
248.9820998394
 31
0.0
  0
LINE
  5
91
330
1F
100
AcDbEntity
  8
BEZUGSACHSEN
  6
Continuous
 62
     9
100
AcDbLine
 10
69.9143468951
 20
285.5359158704
 30
0.0
 11
71.9143468951
 21
286.578459891
 31
0.0
  0
LINE
  5
92
330
1F
100
AcDbEntity
  8
RUNDUNGEN
  6
Continuous
 62
     7
100
AcDbLine
 10
208.9928059908
 20
286.9095729973
 30
0.0
 11
159.0895279504
 21
282.9820998394
 31
0.0
  0
LINE
  5
93
330
1F
100
AcDbEntity
  8
0
  6
Continuous
 62
     7
100
AcDbLine
 10
159.0895279504
 20
282.9820998394
 30
0.0
 11
208.9928059908
 21
286.9095729973
 31
0.0
  0
LINE
  5
94
330
1F
100
AcDbEntity
  8
BEZUGSACHSEN
  6
Continuous
 62
     9
100
AcDbLine
 10
71.9143468951
 20
311.3857397878
 30
0.0
 11
69.9143468951
 21
312.4282838084
 31
0.0
  0
LWPOLYLINE
  5
95
330
1F
100
AcDbEntity
  8
BEZUGSACHSEN
  6
DOT_CENTER
 62
     7
100
AcDbPolyline
 90
        2
 70
     0
 43
0.25
 10
126.9143468951
 20
341.1314716947
 10
126.9143468951
 20
351.9820998394
  0
LINE
  5
96
330
1F
100
AcDbEntity
  8
RUNDUNGEN
  6
Continuous
 62
     7
100
AcDbLine
 10
159.0895279504
 20
282.9820998394
 30
0.0
 11
154.9143468951
 21
282.9820998394
 31
0.0
  0
LINE
  5
97
330
1F
100
AcDbEntity
  8
0
  6
Continuous
 62
     7
100
AcDbLine
 10
154.9143468951
 20
282.9820998394
 30
0.0
 11
159.0895279504
 21
282.9820998394
 31
0.0
  0
LINE
  5
98
330
1F
100
AcDbEntity
  8
BEZUGSACHSEN
  6
Continuous
 62
     9
100
AcDbLine
 10
79.468192842
 20
283.9720998394
 30
0.0
 11
71.1812998221
 21
283.9720998394
 31
0.0
  0
LINE
  5
99
330
1F
100
AcDbEntity
  8
FASEN
  6
Continuous
 62
     9
100
AcDbLine
 10
132.8862208169
 20
267.0820998394
 30
0.0
 11
132.8862208169
 21
267.4820998394
 31
0.0
  0
LINE
  5
9A
330
1F
100
AcDbEntity
  8
FASEN
  6
Continuous
 62
     9
100
AcDbLine
 10
134.9143468951
 20
289.3820998394
 30
0.0
 11
134.9143468951
 21
288.9820998394
 31
0.0
  0
LINE
  5
9B
330
1F
100
AcDbEntity
  8
FASEN
  6
Continuous
 62
     9
100
AcDbLine
 10
134.9143468951
 20
308.5820998394
 30
0.0
 11
134.9143468951
 21
308.9820998394
 31
0.0
  0
LINE
  5
9C
330
1F
100
AcDbEntity
  8
BEZUGSACHSEN
  6
Continuous
 62
     7
100
AcDbLine
 10
77.9143468951
 20
288.9720998394
 30
0.0
 11
71.9143468951
 21
288.9720998394
 31
0.0
  0
LINE
  5
9D
330
1F
100
AcDbEntity
  8
0
  6
Continuous
 62
     7
100
AcDbLine
 10
134.9143468951
 20
288.9820998394
 30
0.0
 11
148.9143468951
 21
288.9820998394
 31
0.0
  0
LINE
  5
9E
330
1F
100
AcDbEntity
  8
FASEN
  6
Continuous
 62
     7
100
AcDbLine
 10
148.9143468951
 20
289.3820998394
 30
0.0
 11
134.9143468951
 21
289.3820998394
 31
0.0
  0
LWPOLYLINE
  5
9F
330
1F
100
AcDbEntity
  8
DEFAULT_2
  6
DASHED
 62
     8
100
AcDbPolyline
 90
        2
 70
     0
 43
0.35
 10
209.9143468951
 20
293.9820998394
 10
167.9143468951
 20
293.9820998394
  0
LINE
  5
A0
330
1F
100
AcDbEntity
  8
0
  6
Continuous
 62
     7
100
AcDbLine
 10
136.6667516309
 20
348.9820998394
 30
0.0
 11
136.6667516309
 21
308.9820998394
 31
0.0
  0
LINE
  5
A1
330
1F
100
AcDbEntity
  8
0
  6
Continuous
 62
     7
100
AcDbLine
 10
136.6667516309
 20
288.9820998394
 30
0.0
 11
136.6667516309
 21
267.4820998394
 31
0.0
  0
LINE
  5
A2
330
1F
100
AcDbEntity
  8
0
  6
Continuous
 62
     7
100
AcDbLine
 10
136.6667516309
 20
260.1523432087
 30
0.0
 11
136.6667516309
 21
248.9820998394
 31
0.0
  0
LINE
  5
A3
330
1F
100
AcDbEntity
  8
0
  6
Continuous
 62
     7
100
AcDbLine
 10
138.0393468951
 20
346.6046616771
 30
0.0
 11
138.0393468951
 21
308.9820998394
 31
0.0
  0
LINE
  5
A4
330
1F
100
AcDbEntity
  8
0
  6
Continuous
 62
     7
100
AcDbLine
 10
138.0393468951
 20
288.9820998394
 30
0.0
 11
138.0393468951
 21
267.4820998394
 31
0.0
  0
LINE
  5
A5
330
1F
100
AcDbEntity
  8
0
  6
Continuous
 62
     7
100
AcDbLine
 10
138.0393468951
 20
251.3595421092
 30
0.0
 11
138.0393468951
 21
264.1001560862
 31
0.0
  0
LINE
  5
A6
330
1F
100
AcDbEntity
  8
0
  6
Continuous
 62
     9
100
AcDbLine
 10
139.0393468951
 20
252.9820998394
 30
0.0
 11
139.0393468951
 21
265.4597192557
 31
0.0
  0
LINE
  5
A7
330
1F
100
AcDbEntity
  8
0
  6
Continuous
 62
     9
100
AcDbLine
 10
139.0393468951
 20
267.4820998394
 30
0.0
 11
139.0393468951
 21
288.9820998394
 31
0.0
  0
LINE
  5
A8
330
1F
100
AcDbEntity
  8
0
  6
Continuous
 62
     9
100
AcDbLine
 10
139.0393468951
 20
308.9820998394
 30
0.0
 11
139.0393468951
 21
344.9820998394
 31
0.0
  0
LWPOLYLINE
  5
A9
330
1F
100
AcDbEntity
  8
BEZUGSACHSEN
  6
DOT_CENTER
 62
     7
100
AcDbPolyline
 90
        2
 70
     0
 43
0.25
 10
212.9143468951
 20
298.9820998394
 10
66.9143468951
 20
298.9820998394
  0
LINE
  5
AA
330
1F
100
AcDbEntity
  8
0
  6
Continuous
 62
     9
100
AcDbLine
 10
140.7893468951
 20
252.9820998394
 30
0.0
 11
140.7893468951
 21
265.4597192557
 31
0.0
  0
LINE
  5
AB
330
1F
100
AcDbEntity
  8
0
  6
Continuous
 62
     9
100
AcDbLine
 10
140.7893468951
 20
267.4820998394
 30
0.0
 11
140.7893468951
 21
288.9820998394
 31
0.0
  0
LINE
  5
AC
330
1F
100
AcDbEntity
  8
0
  6
Continuous
 62
     9
100
AcDbLine
 10
140.7893468951
 20
308.9820998394
 30
0.0
 11
140.7893468951
 21
344.9820998394
 31
0.0
  0
LINE
  5
AD
330
1F
100
AcDbEntity
  8
0
  6
Continuous
 62
     7
100
AcDbLine
 10
141.7893468951
 20
251.3595421092
 30
0.0
 11
141.7893468951
 21
264.1001560862
 31
0.0
  0
LINE
  5
AE
330
1F
100
AcDbEntity
  8
0
  6
Continuous
 62
     7
100
AcDbLine
 10
141.7893468951
 20
267.4820998394
 30
0.0
 11
141.7893468951
 21
288.9820998394
 31
0.0
  0
LINE
  5
AF
330
1F
100
AcDbEntity
  8
0
  6
Continuous
 62
     7
100
AcDbLine
 10
141.7893468951
 20
308.9820998394
 30
0.0
 11
141.7893468951
 21
346.6046616771
 31
0.0
  0
LINE
  5
B0
330
1F
100
AcDbEntity
  8
0
  6
Continuous
 62
     7
100
AcDbLine
 10
143.1619421593
 20
348.9820998394
 30
0.0
 11
143.1619421593
 21
308.9820998394
 31
0.0
  0
LINE
  5
B1
330
1F
100
AcDbEntity
  8
0
  6
Continuous
 62
     7
100
AcDbLine
 10
143.1619421593
 20
288.9820998394
 30
0.0
 11
143.1619421593
 21
267.4820998394
 31
0.0
  0
LINE
  5
B2
330
1F
100
AcDbEntity
  8
0
  6
Continuous
 62
     7
100
AcDbLine
 10
143.1619421593
 20
260.1523432087
 30
0.0
 11
143.1619421593
 21
248.9820998394
 31
0.0
  0
LWPOLYLINE
  5
B3
330
1F
100
AcDbEntity
  8
DEFAULT_2
  6
DASHED
 62
     8
100
AcDbPolyline
 90
        2
 70
     0
 43
0.35
 10
209.9143468951
 20
303.9820998394
 10
167.9143468951
 20
303.9820998394
  0
LINE
  5
B4
330
1F
100
AcDbEntity
  8
0
  6
Continuous
 62
     7
100
AcDbLine
 10
148.9143468951
 20
348.9820629183
 30
0.0
 11
148.9143468951
 21
308.9820998394
 31
0.0
  0
LINE
  5
B5
330
1F
100
AcDbEntity
  8
0
  6
Continuous
 62
     7
100
AcDbLine
 10
148.9143468951
 20
288.9820998394
 30
0.0
 11
148.9143468951
 21
267.4820998394
 31
0.0
  0
LINE
  5
B6
330
1F
100
AcDbEntity
  8
0
  6
Continuous
 62
     7
100
AcDbLine
 10
148.9143468951
 20
260.1523432087
 30
0.0
 11
148.9143468951
 21
248.9821017072
 31
0.0
  0
LINE
  5
B7
330
1F
100
AcDbEntity
  8
FASEN
  6
Continuous
 62
     7
100
AcDbLine
 10
148.9143468951
 20
260.1523432087
 30
0.0
 11
148.9143468951
 21
267.4820998394
 31
0.0
  0
LINE
  5
B8
330
1F
100
AcDbEntity
  8
FASEN
  6
Continuous
 62
     7
100
AcDbLine
 10
148.9143468951
 20
288.9820998394
 30
0.0
 11
148.9143468951
 21
308.9820998394
 31
0.0
  0
LINE
  5
B9
330
1F
100
AcDbEntity
  8
FASEN
  6
Continuous
 62
     7
100
AcDbLine
 10
134.9143468951
 20
308.5820998394
 30
0.0
 11
148.9143468951
 21
308.5820998394
 31
0.0
  0
LINE
  5
BA
330
1F
100
AcDbEntity
  8
0
  6
Continuous
 62
     7
100
AcDbLine
 10
134.9143468951
 20
308.9820998394
 30
0.0
 11
148.9143468951
 21
308.9820998394
 31
0.0
  0
LINE
  5
BB
330
1F
100
AcDbEntity
  8
BEZUGSACHSEN
  6
Continuous
 62
     7
100
AcDbLine
 10
77.9143468951
 20
308.9920998394
 30
0.0
 11
71.9143468951
 21
308.9920998394
 31
0.0
  0
LINE
  5
BC
330
1F
100
AcDbEntity
  8
RUNDUNGEN
  6
Continuous
 62
     9
100
AcDbLine
 10
154.9143468951
 20
314.9820998394
 30
0.0
 11
154.9143468951
 21
282.9820998394
 31
0.0
  0
LINE
  5
BD
330
1F
100
AcDbEntity
  8
BEZUGSACHSEN
  6
Continuous
 62
     9
100
AcDbLine
 10
71.1812998221
 20
313.9920998394
 30
0.0
 11
79.468192842
 21
313.9920998394
 31
0.0
  0
LINE
  5
BE
330
1F
100
AcDbEntity
  8
RUNDUNGEN
  6
Continuous
 62
     7
100
AcDbLine
 10
159.0895279504
 20
314.9820998394
 30
0.0
 11
154.9143468951
 21
314.9820998394
 31
0.0
  0
LINE
  5
BF
330
1F
100
AcDbEntity
  8
0
  6
Continuous
 62
     7
100
AcDbLine
 10
154.9143468951
 20
314.9820998394
 30
0.0
 11
159.0895279504
 21
314.9820998394
 31
0.0
  0
LINE
  5
C0
330
1F
100
AcDbEntity
  8
RUNDUNGEN
  6
Continuous
 62
     7
100
AcDbLine
 10
208.9928059908
 20
311.0546266815
 30
0.0
 11
159.0895279504
 21
314.9820998394
 31
0.0
  0
LINE
  5
C1
330
1F
100
AcDbEntity
  8
0
  6
Continuous
 62
     7
100
AcDbLine
 10
159.0895279504
 20
314.9820998394
 30
0.0
 11
208.9928059908
 21
311.0546266815
 31
0.0
  0
LINE
  5
C2
330
1F
100
AcDbEntity
  8
0
  6
Continuous
 62
     7
100
AcDbLine
 10
159.0895279504
 20
314.9820998394
 30
0.0
 11
159.0895279504
 21
282.9820998394
 31
0.0
  0
LINE
  5
C3
330
1F
100
AcDbEntity
  8
BEZUGSACHSEN
  6
Continuous
 62
     7
100
AcDbLine
 10
136.6667516309
 20
248.9820998394
 30
0.0
 11
138.0393468951
 21
251.3595045752
 31
0.0
  0
LINE
  5
C4
330
1F
100
AcDbEntity
  8
BEZUGSACHSEN
  6
Continuous
 62
     7
100
AcDbLine
 10
136.6667516309
 20
348.9820998394
 30
0.0
 11
138.0393468951
 21
346.6046951036
 31
0.0
  0
LWPOLYLINE
  5
C5
330
1F
100
AcDbEntity
  8
DEFAULT_2
  6
DASHED
 62
     8
100
AcDbPolyline
 90
        2
 70
     0
 43
0.35
 10
167.9143468951
 20
303.9820998394
 10
167.9143468951
 20
293.9820998394
  0
LINE
  5
C6
330
1F
100
AcDbEntity
  8
BEZUGSACHSEN
  6
Continuous
 62
     7
100
AcDbLine
 10
118.0335905091
 20
336.6984240131
 30
0.0
 11
117.4143468951
 21
336.8643498394
 31
0.0
  0
LINE
  5
C7
330
1F
100
AcDbEntity
  8
BEZUGSACHSEN
  6
Continuous
 62
     7
100
AcDbLine
 10
117.4143468951
 20
336.8643498394
 30
0.0
 11
71.8142724103
 21
334.5797861077
 31
0.0
  0
LINE
  5
C8
330
1F
100
AcDbEntity
  8
BEZUGSACHSEN
  6
Continuous
 62
     7
100
AcDbLine
 10
119.2137756064
 20
336.6643498394
 30
0.0
 11
118.2924095542
 21
336.6643498394
 31
0.0
  0
LINE
  5
C9
330
1F
100
AcDbEntity
  8
BEZUGSACHSEN
  6
Continuous
 62
     7
100
AcDbLine
 10
139.0393468951
 20
344.9820998394
 30
0.0
 11
140.7893468951
 21
344.9820998394
 31
0.0
  0
LINE
  5
CA
330
1F
100
AcDbEntity
  8
BEZUGSACHSEN
  6
Continuous
 62
     7
100
AcDbLine
 10
136.6667516309
 20
348.9820998394
 30
0.0
 11
131.9143468951
 21
348.9820998394
 31
0.0
  0
LINE
  5
CB
330
1F
100
AcDbEntity
  8
BEZUGSACHSEN
  6
Continuous
 62
     7
100
AcDbLine
 10
121.9143468951
 20
348.9820998394
 30
0.0
 11
119.9143468951
 21
348.9820998394
 31
0.0
  0
LINE
  5
CC
330
1F
100
AcDbEntity
  8
BEZUGSACHSEN
  6
Continuous
 62
     7
100
AcDbLine
 10
143.1619421593
 20
348.9820998394
 30
0.0
 11
148.9143468951
 21
348.9820998394
 31
0.0
  0
LINE
  5
CD
330
1F
100
AcDbEntity
  8
RUNDUNGEN
  6
Continuous
 62
     9
100
AcDbLine
 10
208.9928059908
 20
286.9095729973
 30
0.0
 11
208.9928059908
 21
311.0546266815
 31
0.0
  0
LINE
  5
CE
330
1F
100
AcDbEntity
  8
RUNDUNGEN
  6
Continuous
 62
     7
100
AcDbLine
 10
209.9143468951
 20
287.9064903311
 30
0.0
 11
209.9143468951
 21
310.0577093477
 31
0.0
  0
LWPOLYLINE
  5
CF
330
1F
100
AcDbEntity
  8
1
  6
Continuous
 62
     7
100
AcDbPolyline
 90
        2
 70
     0
 43
0.25
 10
209.9143468951
 20
310.0577093477
 10
209.9143468951
 20
310.9820998394528
  0
LWPOLYLINE
  5
D0
330
1F
100
AcDbEntity
  8
1
  6
Continuous
 62
     7
100
AcDbPolyline
 90
        2
 70
     0
 43
0.25
 10
208.9928059908
 20
311.0546266815
 10
209.9143468951094
 20
310.9820998394528
  0
LWPOLYLINE
  5
D1
330
1F
100
AcDbEntity
  8
1
  6
Continuous
 62
     7
100
AcDbPolyline
 90
        2
 70
     0
 43
0.25
 10
208.9928059908
 20
286.9095729973
 10
209.9143468951
 20
286.9820998393559
  0
LWPOLYLINE
  5
D2
330
1F
100
AcDbEntity
  8
1
  6
Continuous
 62
     7
100
AcDbPolyline
 90
        2
 70
     0
 43
0.25
 10
209.9143468951
 20
287.9064903311
 10
209.9143468951
 20
286.9820998393559
  0
ARC
  5
D3
330
1F
100
AcDbEntity
  8
FASEN
  6
Continuous
 62
     7
100
AcDbCircle
 10
137.8150009179
 20
274.5133631094
 30
0.0
 40
19.03859487300018
100
AcDbArc
 50
227.4837701983004
 51
228.965195337529
  0
ARC
  5
D4
330
1F
100
AcDbEntity
  8
FASEN
  6
Continuous
 62
     7
100
AcDbCircle
 10
132.8862208169
 20
259.4820998394
 30
0.0
 40
8.0
100
AcDbArc
 50
90.0
 51
172.8323734889971
  0
ARC
  5
D5
330
1F
100
AcDbEntity
  8
FASEN
  6
Continuous
 62
     7
100
AcDbCircle
 10
132.8862208169
 20
259.4820998394
 30
0.0
 40
7.599982194900008
100
AcDbArc
 50
90.0
 51
174.9405171273014
  0
ARC
  5
D6
330
1F
100
AcDbEntity
  8
BEZUGSACHSEN
  6
Continuous
 62
     7
100
AcDbCircle
 10
77.9143468951
 20
290.9720998394
 30
0.0
 40
2.0
100
AcDbArc
 50
270.0
 51
355.2355361864933
  0
ARC
  5
D7
330
1F
100
AcDbEntity
  8
BEZUGSACHSEN
  6
Continuous
 62
     7
100
AcDbCircle
 10
71.9143468951
 20
265.3819082763
 30
0.0
 40
2.0
100
AcDbArc
 50
179.9999999942711
 51
267.1318795106976
  0
ARC
  5
D8
330
1F
100
AcDbEntity
  8
BEZUGSACHSEN
  6
Continuous
 62
     7
100
AcDbCircle
 10
139.0393468951
 20
251.9820998394
 30
0.0
 40
1.0
100
AcDbArc
 50
90.0
 51
180.0
  0
ARC
  5
D9
330
1F
100
AcDbEntity
  8
BEZUGSACHSEN
  6
Continuous
 62
     7
100
AcDbCircle
 10
118.2924095542
 20
260.2998498394
 30
0.0
 40
1.0
100
AcDbArc
 50
90.0
 51
104.9999999996989
  0
ARC
  5
DA
330
1F
100
AcDbEntity
  8
BEZUGSACHSEN
  6
Continuous
 62
     7
100
AcDbCircle
 10
119.2137756064
 20
260.2998498394
 30
0.0
 40
1.000000000000426
100
AcDbArc
 50
45.52164291268396
 51
90.0
  0
ARC
  5
DB
330
1F
100
AcDbEntity
  8
0
  6
Continuous
 62
     7
100
AcDbCircle
 10
-104.6834329874
 20
368.4165674298
 30
0.0
 40
264.5204223901892
100
AcDbArc
 50
335.840076470599
 51
336.5770705490999
  0
ARC
  5
DC
330
1F
100
AcDbEntity
  8
BEZUGSACHSEN
  6
Continuous
 62
     7
100
AcDbCircle
 10
126.9295549062
 20
399.0348696062
 30
0.0
 40
50.30340021035248
100
AcDbArc
 50
264.2781515101899
 51
269.9826780126003
  0
ARC
  5
DD
330
1F
100
AcDbEntity
  8
BEZUGSACHSEN
  6
Continuous
 62
     7
100
AcDbCircle
 10
126.899138894
 20
399.0348694055
 30
0.0
 40
50.30340000969741
100
AcDbArc
 50
270.0173219760583
 51
275.7218485012679
  0
ARC
  5
DE
330
1F
100
AcDbEntity
  8
0
  6
Continuous
 62
     7
100
AcDbCircle
 10
134.9143468951
 20
298.9820998394
 30
0.0
 40
10.0
100
AcDbArc
 50
90.0
 51
270.0
  0
ARC
  5
DF
330
1F
100
AcDbEntity
  8
FASEN
  6
Continuous
 62
     7
100
AcDbCircle
 10
134.9143468951
 20
298.9820998394
 30
0.0
 40
9.599999195900011
100
AcDbArc
 50
90.0
 51
270.0
  0
ARC
  5
E0
330
1F
100
AcDbEntity
  8
BEZUGSACHSEN
  6
Continuous
 62
     7
100
AcDbCircle
 10
77.9143468951
 20
306.9920998394
 30
0.0
 40
1.999999999999992
100
AcDbArc
 50
4.76446378498877
 51
90.0
  0
ARC
  5
E1
330
1F
100
AcDbEntity
  8
BEZUGSACHSEN
  6
Continuous
 62
     7
100
AcDbCircle
 10
71.9143468951
 20
332.5822914025
 30
0.0
 40
1.999999999952488
100
AcDbArc
 50
92.86812048930244
 51
180.0000000143238
  0
ARC
  5
E2
330
1F
100
AcDbEntity
  8
BEZUGSACHSEN
  6
Continuous
 62
     7
100
AcDbCircle
 10
139.0393468951
 20
345.9820998394
 30
0.0
 40
1.0
100
AcDbArc
 50
180.0
 51
270.0
  0
ARC
  5
E3
330
1F
100
AcDbEntity
  8
BEZUGSACHSEN
  6
Continuous
 62
     7
100
AcDbCircle
 10
118.2924095542
 20
337.6643498394
 30
0.0
 40
1.000000000009918
100
AcDbArc
 50
255.0000000003011
 51
270.0
  0
ARC
  5
E4
330
1F
100
AcDbEntity
  8
BEZUGSACHSEN
  6
Continuous
 62
     7
100
AcDbCircle
 10
119.2137756064
 20
337.6643498394
 30
0.0
 40
1.0
100
AcDbArc
 50
270.0
 51
314.478357087316
  0
ARC
  5
E5
330
1F
100
AcDbEntity
  8
BEZUGSACHSEN
  6
Continuous
 62
     7
100
AcDbCircle
 10
256.2443934933
 20
-1307.0606594506
 30
0.0
 40
1632.172763697999
100
AcDbArc
 50
96.2726189838
 51
96.48809068979999
  0
ARC
  5
E6
330
1F
100
AcDbEntity
  8
RUNDUNGEN
  6
Continuous
 62
     7
100
AcDbCircle
 10
154.9143468951
 20
276.9820998394
 30
0.0
 40
6.0
100
AcDbArc
 50
90.0
 51
180.0
  0
ARC
  5
E7
330
1F
100
AcDbEntity
  8
RUNDUNGEN
  6
Continuous
 62
     7
100
AcDbCircle
 10
208.9143468951
 20
287.9064903311
 30
0.0
 40
1.000000000064438
100
AcDbArc
 50
274.499999998109
 51
0.0
  0
ARC
  5
E8
330
1F
100
AcDbEntity
  8
BEZUGSACHSEN
  6
Continuous
 62
     7
100
AcDbCircle
 10
140.7893468951
 20
251.9820998394
 30
0.0
 40
1.0
100
AcDbArc
 50
0.0
 51
90.0
  0
ARC
  5
E9
330
1F
100
AcDbEntity
  8
BEZUGSACHSEN
  6
Continuous
 62
     7
100
AcDbCircle
 10
256.2443934985
 20
1905.0248591763
 30
0.0
 40
1632.1727637452
100
AcDbArc
 50
263.5119093102
 51
263.7273810162
  0
ARC
  5
EA
330
1F
100
AcDbEntity
  8
0
  6
Continuous
 62
     7
100
AcDbCircle
 10
384.5121267776
 20
368.4165674298
 30
0.0
 40
264.5204223902
100
AcDbArc
 50
203.4229294508999
 51
204.1599235294009
  0
ARC
  5
EB
330
1F
100
AcDbEntity
  8
RUNDUNGEN
  6
Continuous
 62
     7
100
AcDbCircle
 10
154.9143468951
 20
320.9820998394
 30
0.0
 40
6.0
100
AcDbArc
 50
180.0
 51
270.0
  0
ARC
  5
EC
330
1F
100
AcDbEntity
  8
BEZUGSACHSEN
  6
Continuous
 62
     7
100
AcDbCircle
 10
140.7893468951
 20
345.9820998394
 30
0.0
 40
1.0
100
AcDbArc
 50
270.0
 51
0.0
  0
ARC
  5
ED
330
1F
100
AcDbEntity
  8
RUNDUNGEN
  6
Continuous
 62
     7
100
AcDbCircle
 10
208.9143468951
 20
310.0577093477
 30
0.0
 40
1.0
100
AcDbArc
 50
0.0
 51
85.50000000189128
  0
CIRCLE
  5
EE
330
1F
100
AcDbEntity
  8
BEZUGSACHSEN
  6
Continuous
 62
     7
100
AcDbCircle
 10
104.9143468951
 20
298.9820998394
 30
0.0
 40
6.0
  0
SPLINE
  5
EF
330
1F
100
AcDbEntity
  8
BEZUGSACHSEN
  6
Continuous
 62
     7
100
AcDbSpline
210
0.0
220
0.0
230
1.0
 70
     8
 71
     3
 72
    19
 73
    15
 74
    13
 42
0.0000000001
 43
0.0000000001
 44
0.00000001
 40
0.0
 40
0.0
 40
0.0
 40
0.0
 40
0.1462385987780197
 40
0.292747927480829
 40
0.436479070619358
 40
0.5801659236393768
 40
0.72037999727137
 40
0.8606059382574421
 40
0.9980411883900997
 40
1.135484020438444
 40
1.405415631100489
 40
1.675815514100287
 40
1.943997429536183
 40
2.211934834763034
 40
2.211934834763034
 40
2.211934834763034
 40
2.211934834763034
 10
77.9143468951
 20
315.3407474268
 30
0.0
 10
77.96306170043832
 20
315.3440555041465
 30
0.0
 10
78.06058149630337
 20
315.3506777830471
 30
0.0
 10
78.20591775661715
 20
315.3343184702862
 30
0.0
 10
78.34657469374332
 20
315.299146704221
 30
0.0
 10
78.47942682719565
 20
315.2463410175963
 30
0.0
 10
78.6038812902487
 20
315.1786692298434
 30
0.0
 10
78.71868384739835
 20
315.0993690284301
 30
0.0
 10
78.82479378517388
 20
315.0102843888425
 30
0.0
 10
78.95389625035591
 20
314.8823368532713
 30
0.0
 10
79.09693610025693
 20
314.7065345643621
 30
0.0
 10
79.24184370195609
 20
314.4788490984776
 30
0.0
 10
79.36648045039885
 20
314.2401864790069
 30
0.0
 10
79.43429902156727
 20
314.0747702385738
 30
0.0
 10
79.468192842
 20
313.9920998394
 30
0.0
 11
77.9143468951
 21
315.3407474268
 31
0.0
 11
78.06048075691905
 21
315.346281159935
 31
0.0
 11
78.20619011776569
 21
315.330991766271
 31
0.0
 11
78.34562019932281
 21
315.2960934301375
 31
0.0
 11
78.4792525362517
 21
315.2432889771272
 31
0.0
 11
78.60256632705136
 21
315.1765529640376
 31
0.0
 11
78.71809743835921
 21
315.0970804729139
 31
0.0
 11
78.82350998813367
 21
315.0088952001691
 31
0.0
 11
78.92129849182783
 21
314.9123139358022
 31
0.0
 11
79.09254688771767
 21
314.7036585708106
 31
0.0
 11
79.23888930825233
 21
314.4762822468928
 31
0.0
 11
79.36275693405909
 21
314.2384202048519
 31
0.0
 11
79.468192842
 21
313.9920998394
 31
0.0
  0
SPLINE
  5
F0
330
1F
100
AcDbEntity
  8
BEZUGSACHSEN
  6
Continuous
 62
     7
100
AcDbSpline
210
0.0
220
0.0
230
1.0
 70
     8
 71
     3
 72
    11
 73
     7
 74
     5
 42
0.0000000001
 43
0.0000000001
 44
0.00000001
 40
0.0
 40
0.0
 40
0.0
 40
0.0
 40
0.5521269407036401
 40
1.105196183339711
 40
1.651906304698668
 40
2.198197048720039
 40
2.198197048720039
 40
2.198197048720039
 40
2.198197048720039
 10
79.9143468951
 20
286.1124443136
 30
0.0
 10
79.90776145747225
 20
285.9283091231891
 30
0.0
 10
79.89457934300681
 20
285.5597244832124
 30
0.0
 10
79.79709097920953
 20
285.0163000785269
 30
0.0
 10
79.65745366617708
 20
284.4850259490099
 30
0.0
 10
79.53126364396155
 20
284.143031468916
 30
0.0
 10
79.468192842
 20
283.9720998394
 30
0.0
 11
79.9143468951
 21
286.1124443136
 31
0.0
 11
79.8816023126732
 21
285.5612892075069
 31
0.0
 11
79.78953565972982
 21
285.0159367356451
 31
0.0
 11
79.6490441748964
 21
284.4875863788877
 31
0.0
 11
79.468192842
 21
283.9720998394
 31
0.0
  0
SPLINE
  5
F1
330
1F
100
AcDbEntity
  8
BEZUGSACHSEN
  6
Continuous
 62
     7
100
AcDbSpline
210
0.0
220
0.0
230
1.0
 70
     8
 71
     3
 72
    19
 73
    15
 74
    13
 42
0.0000000001
 43
0.0000000001
 44
0.00000001
 40
0.0
 40
0.0
 40
0.0
 40
0.0
 40
0.2679411643344655
 40
0.5361267936841305
 40
0.8065304773437298
 40
1.07646599319126
 40
1.213913376105259
 40
1.351353104841034
 40
1.491586367037371
 40
1.631807897544621
 40
1.775491562767327
 40
1.919219204748619
 40
2.065713007377575
 40
2.211936409302237
 40
2.211936409302237
 40
2.211936409302237
 40
2.211936409302237
 10
79.468192842
 20
283.9720998394
 30
0.0
 10
79.43429859820105
 20
283.8894282596964
 30
0.0
 10
79.36647918606478
 20
283.7240096721293
 30
0.0
 10
79.24184067979263
 20
283.4853436984637
 30
0.0
 10
79.09692988049392
 20
283.257655702449
 30
0.0
 10
78.95388624897815
 20
283.0818512111359
 30
0.0
 10
78.82477986204889
 20
282.9539014920362
 30
0.0
 10
78.71866476296239
 20
282.8648144712373
 30
0.0
 10
78.60385533531098
 20
282.7855128308961
 30
0.0
 10
78.4793957230782
 20
282.7178423634301
 30
0.0
 10
78.34654216793956
 20
282.6650396767337
 30
0.0
 10
78.20589136906156
 20
282.6298734127453
 30
0.0
 10
78.06056598596871
 20
282.6135212108617
 30
0.0
 10
77.96305656692711
 20
282.6201439442279
 30
0.0
 10
77.9143468951
 20
282.623452252
 30
0.0
 11
79.468192842
 21
283.9720998394
 31
0.0
 11
79.36275558228354
 21
283.7257759635609
 31
0.0
 11
79.23888606672422
 21
283.4879107182963
 31
0.0
 11
79.09254058044594
 21
283.2605318477242
 31
0.0
 11
78.92128838932312
 21
283.0518745455479
 31
0.0
 11
78.82349595062114
 21
282.955290789136
 31
0.0
 11
78.71807896134159
 21
282.8671038433549
 31
0.0
 11
78.60254031761684
 21
282.7876293843604
 31
0.0
 11
78.47921830772187
 21
282.7208928913955
 31
0.0
 11
78.34558761952201
 21
282.6680929404195
 31
0.0
 11
78.20615991831423
 21
282.6331995140269
 31
0.0
 11
78.06046547979606
 21
282.6179166872737
 31
0.0
 11
77.9143468951
 21
282.623452252
 31
0.0
  0
SPLINE
  5
F2
330
1F
100
AcDbEntity
  8
BEZUGSACHSEN
  6
Continuous
 62
     7
100
AcDbSpline
210
0.0
220
0.0
230
1.0
 70
     8
 71
     3
 72
    47
 73
    43
 74
    41
 42
0.0000000001
 43
0.0000000001
 44
0.00000001
 40
0.0
 40
0.0
 40
0.0
 40
0.0
 40
0.6366022431461787
 40
1.273595002083055
 40
1.592921746302325
 40
1.912076344794126
 40
2.231392290339259
 40
2.550826842654468
 40
3.189774321081208
 40
3.82908169691029
 40
4.468337152408981
 40
5.107221744665628
 40
5.426176341152458
 40
5.745033356698641
 40
6.063356731477459
 40
6.381780214790513
 40
7.01705919558539
 40
7.652639340914675
 40
8.287532214183722
 40
8.922347946463857
 40
9.559226748529731
 40
10.19613435929727
 40
10.8345178549451
 40
11.47287689965352
 40
12.11234487357502
 40
12.75189588942339
 40
13.39354300515325
 40
14.03487957352041
 40
14.35615205767697
 40
14.67732107707549
 40
14.99840882467672
 40
15.31959604116727
 40
15.96011121022378
 40
16.60099592085807
 40
17.23809108077525
 40
17.87482555201571
 40
18.19205670334595
 40
18.50917199101462
 40
18.82571084627727
 40
19.14241581824271
 40
19.77338974991567
 40
20.40398930738627
 40
20.40398930738627
 40
20.40398930738627
 40
20.40398930738627
 10
98.4149313008
 20
298.98209982
 30
0.0
 10
98.42093694468628
 20
299.1943796296832
 30
0.0
 10
98.43295191654698
 20
299.6190694694797
 30
0.0
 10
98.5142172617592
 20
300.1452122305621
 30
0.0
 10
98.60693685835938
 20
300.560186606668
 30
0.0
 10
98.69222982249379
 20
300.8680105823649
 30
0.0
 10
98.79246843590369
 20
301.1713032591622
 30
0.0
 10
98.9459539850195
 20
301.5687406217239
 30
0.0
 10
99.17442593180583
 20
302.0508401986051
 30
0.0
 10
99.5040408923874
 20
302.5996560714214
 30
0.0
 10
99.88626810945291
 20
303.113191610772
 30
0.0
 10
100.2451228065522
 20
303.5076943728639
 30
0.0
 10
100.5540761601098
 20
303.8005676709076
 30
0.0
 10
100.7959712690837
 20
304.0082894920216
 30
0.0
 10
101.0476145225692
 20
304.2037988891541
 30
0.0
 10
101.3949086297265
 20
304.4472940918293
 30
0.0
 10
101.8506489644914
 20
304.7191761618764
 30
0.0
 10
102.4261283891975
 20
304.9905052743926
 30
0.0
 10
103.0252391543837
 20
305.2042889052011
 30
0.0
 10
103.6426895568567
 20
305.3589786365709
 30
0.0
 10
104.2729601185448
 20
305.4527856202263
 30
0.0
 10
104.9105540532539
 20
305.4849123450325
 30
0.0
 10
105.5487326974705
 20
305.4544827720821
 30
0.0
 10
106.1817451186588
 20
305.3618115169184
 30
0.0
 10
106.8029788030974
 20
305.2073195556906
 30
0.0
 10
107.4071145550781
 20
304.9922824231496
 30
0.0
 10
107.9875936286581
 20
304.7183590574196
 30
0.0
 10
108.4472226528839
 20
304.4431921793602
 30
0.0
 10
108.7971216415472
 20
304.1965824805025
 30
0.0
 10
109.0502532706965
 20
303.9986782881316
 30
0.0
 10
109.2932519100506
 20
303.7884997587299
 30
0.0
 10
109.6024962535558
 20
303.4929804185743
 30
0.0
 10
109.960816444353
 20
303.0955094358079
 30
0.0
 10
110.3407668626963
 20
302.579842674253
 30
0.0
 10
110.6672398923077
 20
302.0302465177827
 30
0.0
 10
110.8926110323029
 20
301.5491409760722
 30
0.0
 10
111.0437020154617
 20
301.1531507884521
 30
0.0
 10
111.1421149330111
 20
300.851724437669
 30
0.0
 10
111.2257817111826
 20
300.5460290697529
 30
0.0
 10
111.3166010686166
 20
300.1344770520371
 30
0.0
 10
111.3961160442221
 20
299.6130518355092
 30
0.0
 10
111.4078883288896
 20
299.1923755463545
 30
0.0
 10
111.4137727245
 20
298.98209982
 30
0.0
 11
98.4149313008
 21
298.98209982
 31
0.0
 11
98.44617997183981
 21
299.6179346543217
 31
0.0
 11
98.53962117421341
 21
300.2480366433973
 31
0.0
 11
98.60956168124629
 21
300.5596099013154
 31
0.0
 11
98.69470302021148
 21
300.8671982790829
 31
0.0
 11
98.79492755832474
 21
301.1703776237609
 31
0.0
 11
98.91000744805397
 21
301.4683626102832
 31
0.0
 11
99.18360334230078
 21
302.0457698901466
 31
0.0
 11
99.51282285599643
 21
302.5937921822036
 31
0.0
 11
99.89444711132214
 21
303.1066376415108
 31
0.0
 11
100.3243817474193
 21
303.5792153926872
 31
0.0
 11
100.5558540084746
 21
303.7986524610736
 31
0.0
 11
100.797756409501
 21
304.0063855223341
 31
0.0
 11
101.0491302166555
 21
304.2016826805501
 31
0.0
 11
101.3098594949474
 21
304.3844769861687
 31
0.0
 11
101.8553931391594
 21
304.7100110496285
 31
0.0
 11
102.4303029592926
 21
304.9810107172502
 31
0.0
 11
103.0282491470707
 21
305.1944335769665
 31
0.0
 11
103.644041679313
 21
305.3486755011799
 31
0.0
 11
104.273973961272
 21
305.4424834361685
 31
0.0
 11
104.9100770829784
 21
305.4744853612507
 31
0.0
 11
105.5477380419825
 21
305.4441210914991
 31
0.0
 11
106.1793555748909
 21
305.3515923819887
 31
0.0
 11
106.7999284470158
 21
305.1972920253659
 31
0.0
 11
107.4024292541696
 21
304.9827733099779
 31
0.0
 11
107.9827364505508
 21
304.7089949708919
 31
0.0
 11
108.5329614385988
 21
304.3795028519384
 31
0.0
 11
108.7955687427463
 21
304.1944260762896
 31
0.0
 11
109.0485892001381
 21
303.9966125601624
 31
0.0
 11
109.2914375015024
 21
303.7865600805671
 31
0.0
 11
109.5236399369094
 21
303.5646518629906
 31
0.0
 11
109.9525559946437
 21
303.0889516451967
 31
0.0
 11
110.3326666533168
 21
302.5729583317827
 31
0.0
 11
110.658105799042
 21
302.0252543923962
 31
0.0
 11
110.9281866571716
 21
301.4486374338025
 31
0.0
 11
111.0412771023558
 21
301.1522489141491
 31
0.0
 11
111.139721205695
 21
300.8508009680772
 31
0.0
 11
111.2232040110692
 21
300.545469233569
 31
0.0
 11
111.2917534345035
 21
300.2362718600121
 31
0.0
 11
111.3831805123878
 21
299.6119568819118
 31
0.0
 11
111.4137727245
 21
298.98209982
 31
0.0
  0
SPLINE
  5
F3
330
1F
100
AcDbEntity
  8
BEZUGSACHSEN
  6
Continuous
 62
     7
100
AcDbSpline
210
0.0
220
0.0
230
1.0
 70
     8
 71
     3
 72
    47
 73
    43
 74
    41
 42
0.0000000001
 43
0.0000000001
 44
0.00000001
 40
0.0
 40
0.0
 40
0.0
 40
0.0
 40
0.6302393214461873
 40
1.260854867303445
 40
1.577476088392458
 40
1.893930800229896
 40
2.210999113884202
 40
2.52818347222824
 40
3.16488703825111
 40
3.801951183366517
 40
4.442851001582113
 40
5.08338125975978
 40
5.404527292282587
 40
5.725573838724229
 40
6.046670709991242
 40
6.367871027111157
 40
7.00909024251139
 40
7.650619763938323
 40
8.290330346473313
 40
8.929958764444205
 40
9.568647011298019
 40
10.20735923008292
 40
10.8444570581177
 40
11.4815262649295
 40
12.11643462219882
 40
12.75141965576725
 40
13.38691908735069
 40
14.02211738527323
 40
14.34050449137622
 40
14.65879153785218
 40
14.9776158686096
 40
15.29653774937795
 40
15.93537694097228
 40
16.57458694065832
 40
17.21386274988818
 40
17.85277859070625
 40
18.17219860079908
 40
18.49150024074541
 40
18.81067156633554
 40
19.13001452419036
 40
19.76719627022482
 40
20.40398968281363
 40
20.40398968281363
 40
20.40398968281363
 40
20.40398968281363
 10
111.4137605329
 20
298.9820998581
 30
0.0
 10
111.4078913311558
 20
298.7719438362145
 30
0.0
 10
111.3961494240189
 20
298.3515063387898
 30
0.0
 10
111.3167026814565
 20
297.8303428965393
 30
0.0
 10
111.2259711763953
 20
297.4189514291079
 30
0.0
 10
111.1423657940938
 20
297.113313588803
 30
0.0
 10
111.0440138527001
 20
296.8119297426098
 30
0.0
 10
110.8929950418138
 20
296.4159565630286
 30
0.0
 10
110.6677124542216
 20
295.9348497543598
 30
0.0
 10
110.3413344194914
 20
295.3852155293693
 30
0.0
 10
109.9614673574353
 20
294.86948766673
 30
0.0
 10
109.6032129181339
 20
294.4719622645382
 30
0.0
 10
109.2940321804595
 20
294.1764089096009
 30
0.0
 10
109.051107224439
 20
293.9662240011575
 30
0.0
 10
108.7980583211387
 20
293.7683145368126
 30
0.0
 10
108.4482758127023
 20
293.5216911853067
 30
0.0
 10
107.9887905749408
 20
293.2464845760162
 30
0.0
 10
107.4083948679568
 20
292.9724444693238
 30
0.0
 10
106.8042405601105
 20
292.7572559920022
 30
0.0
 10
106.1828254127136
 20
292.6025941529976
 30
0.0
 10
105.5495562012941
 20
292.5097837799761
 30
0.0
 10
104.9110967368655
 20
292.4792730301568
 30
0.0
 10
104.2732637233011
 20
292.5113747725019
 30
0.0
 10
103.6428337362834
 20
292.6051878348383
 30
0.0
 10
103.0252600667692
 20
292.7599016511153
 30
0.0
 10
102.4261166553336
 20
292.9736982231897
 30
0.0
 10
101.8506594338755
 20
293.2450195916418
 30
0.0
 10
101.3949740409396
 20
293.5168644752901
 30
0.0
 10
101.0477181432212
 20
293.7603250278879
 30
0.0
 10
100.7960985619407
 20
293.955807554211
 30
0.0
 10
100.554223511676
 20
294.1635006129001
 30
0.0
 10
100.2452872279832
 20
294.4563381610337
 30
0.0
 10
99.88644447106934
 20
294.8507958099786
 30
0.0
 10
99.50421756580658
 20
295.3642804759369
 30
0.0
 10
99.17459312056364
 20
295.9130482546665
 30
0.0
 10
98.94610567467242
 20
296.3951116711662
 30
0.0
 10
98.79260417472007
 20
296.7925212303406
 30
0.0
 10
98.69234737179703
 20
297.0958035936322
 30
0.0
 10
98.60703087887175
 20
297.4036274653358
 30
0.0
 10
98.51426842350145
 20
297.8186683324435
 30
0.0
 10
98.43297605655175
 20
298.3449411315329
 30
0.0
 10
98.42093625699228
 20
298.7697567812506
 30
0.0
 10
98.4149181922
 20
298.9820998599
 30
0.0
 11
111.4137605329
 21
298.9820998581
 31
0.0
 11
111.3832209541788
 21
298.352600901446
 31
0.0
 11
111.291889678652
 21
297.7286341036214
 31
0.0
 11
111.2233949399639
 21
297.4195103930847
 31
0.0
 11
111.1399761151162
 21
297.1142484001915
 31
0.0
 11
111.0415893712525
 21
296.8128311409719
 31
0.0
 11
110.9285587401271
 21
296.5164698857351
 31
0.0
 11
110.6585786036171
 21
295.9398398857556
 31
0.0
 11
110.3332419817814
 21
295.3921111139314
 31
0.0
 11
109.9532054869679
 21
294.876044413205
 31
0.0
 11
109.5243549892754
 21
294.4002647769551
 31
0.0
 11
109.2922178549011
 21
294.178347844186
 31
0.0
 11
109.0494353615749
 21
293.9682822689091
 31
0.0
 11
108.7965057533012
 21
293.7704696960125
 31
0.0
 11
108.5339913574897
 21
293.5853863750199
 31
0.0
 11
107.9839331758858
 21
293.2558441485161
 31
0.0
 11
107.4037923441998
 21
292.9819888175967
 31
0.0
 11
106.8011870338929
 21
292.7672879340467
 31
0.0
 11
106.1804877635837
 21
292.6128310503748
 31
0.0
 11
105.5485589496926
 21
292.5201560761728
 31
0.0
 11
104.9105728225301
 21
292.4897094019151
 31
0.0
 11
104.2742778343864
 21
292.5216833061163
 31
0.0
 11
103.6441545602475
 21
292.6155013942244
 31
0.0
 11
103.0282706519916
 21
292.7697597284621
 31
0.0
 11
102.4302381821705
 21
292.983215011591
 31
0.0
 11
101.855402433628
 21
293.2541825183891
 31
0.0
 11
101.3099357461157
 21
293.5796713361664
 31
0.0
 11
101.0492334533674
 21
293.7624407643771
 31
0.0
 11
100.7978842015846
 21
293.9577103154664
 31
0.0
 11
100.5560009032452
 21
294.1654154523007
 31
0.0
 11
100.3245450719408
 21
294.3848222985658
 31
0.0
 11
99.89462204102888
 21
294.8573492292358
 31
0.0
 11
99.51300090154939
 21
295.3701403461645
 31
0.0
 11
99.18376942739202
 21
295.9181186273862
 31
0.0
 11
98.91015512027965
 21
296.4954821719504
 31
0.0
 11
98.79506286782552
 21
296.7934467944691
 31
0.0
 11
98.69482317939948
 21
297.0966060630668
 31
0.0
 11
98.60965609918084
 21
297.4042046708757
 31
0.0
 11
98.53969307169741
 21
297.715789490013
 31
0.0
 11
98.44620417470439
 21
298.3460754597272
 31
0.0
 11
98.4149181922
 21
298.9820998599
 31
0.0
  0
SPLINE
  5
F4
330
1F
100
AcDbEntity
  8
BEZUGSACHSEN
  6
Continuous
 62
     7
100
AcDbSpline
210
0.0
220
0.0
230
1.0
 70
     8
 71
     3
 72
    27
 73
    23
 74
    21
 42
0.0000000001
 43
0.0000000001
 44
0.00000001
 40
0.0
 40
0.0
 40
0.0
 40
0.0
 40
0.1219765139942248
 40
0.2439857715228565
 40
0.3566831398803132
 40
0.4694418150046828
 40
0.5721317673312789
 40
0.674544588151976
 40
0.722520652156119
 40
0.7704888798001077
 40
0.817141293631499
 40
0.8637898734586844
 40
0.9102318001295824
 40
0.9566751324735245
 40
1.00417517580312
 40
1.051683100177829
 40
1.153672388771577
 40
1.256049376716826
 40
1.37074513813797
 40
1.4853854019189
 40
1.611534903954603
 40
1.737631875999472
 40
1.737631875999472
 40
1.737631875999472
 40
1.737631875999472
 10
71.0601895707
 20
283.739763844
 30
0.0
 10
71.02493455309954
 20
283.7194843187009
 30
0.0
 10
70.95441505399569
 20
283.6789198242406
 30
0.0
 10
70.84676265079149
 20
283.628123963347
 30
0.0
 10
70.73860463492153
 20
283.5863723274767
 30
0.0
 10
70.63302541395127
 20
283.5569577423513
 30
0.0
 10
70.52819386880125
 20
283.5400431550087
 30
0.0
 10
70.44346619895774
 20
283.5381779317907
 30
0.0
 10
70.37764226255307
 20
283.5451332397738
 30
0.0
 10
70.33093505933661
 20
283.5543303669006
 30
0.0
 10
70.28575444203025
 20
283.56786381188
 30
0.0
 10
70.24261483137684
 20
283.5856570706997
 30
0.0
 10
70.20166035480463
 20
283.6078854284384
 30
0.0
 10
70.16301292834149
 20
283.6344204601626
 30
0.0
 10
70.12710684970432
 20
283.6651157376813
 30
0.0
 10
70.08166752815652
 20
283.7126532107695
 30
0.0
 10
70.03312438806958
 20
283.7818225778553
 30
0.0
 10
69.9868986791073
 20
283.8779806325703
 30
0.0
 10
69.95293280532496
 20
283.9835560655664
 30
0.0
 10
69.9299773811473
 20
284.0999737564753
 30
0.0
 10
69.91653282279754
 20
284.2217210651308
 30
0.0
 10
69.91507543649959
 20
284.3058244286479
 30
0.0
 10
69.9143468951
 20
284.3478673532
 30
0.0
 11
71.0601895707
 21
283.739763844
 31
0.0
 11
70.95364494663947
 21
283.6803793927523
 31
0.0
 11
70.84335205747078
 21
283.628209118443
 31
0.0
 11
70.73803404961836
 21
283.5880990940514
 31
0.0
 11
70.62931032107531
 21
283.5582047857721
 31
0.0
 11
70.52784616895416
 21
283.5423854260134
 31
0.0
 11
70.42544662836977
 21
283.5407361969333
 31
0.0
 11
70.37774277215722
 21
283.5458396094957
 31
0.0
 11
70.33069200189577
 21
283.5551764120056
 31
0.0
 11
70.28601243446235
 21
283.5685996742864
 31
0.0
 11
70.24290629786641
 21
283.5864308544959
 31
0.0
 11
70.20208370506957
 21
283.6085751194476
 31
0.0
 11
70.16379644852341
 21
283.6348633127171
 31
0.0
 11
70.12765935151285
 21
283.6656912924752
 31
0.0
 11
70.09480685114097
 21
283.7000091609654
 31
0.0
 11
70.03563445688715
 21
283.7830780645703
 31
0.0
 11
69.99073473328608
 21
283.8750838387439
 31
0.0
 11
69.95509657371859
 21
283.9841023659337
 31
0.0
 11
69.93224501035235
 21
284.0964420122367
 31
0.0
 11
69.9184782540298
 21
284.2218380779015
 31
0.0
 11
69.9143468951
 21
284.3478673532
 31
0.0
  0
SPLINE
  5
F5
330
1F
100
AcDbEntity
  8
BEZUGSACHSEN
  6
Continuous
 62
     7
100
AcDbSpline
210
0.0
220
0.0
230
1.0
 70
     8
 71
     3
 72
    27
 73
    23
 74
    21
 42
0.0000000001
 43
0.0000000001
 44
0.00000001
 40
0.0
 40
0.0
 40
0.0
 40
0.0
 40
0.1260969825524779
 40
0.2522464959194701
 40
0.3668867952476194
 40
0.4815825893734119
 40
0.5839596006347307
 40
0.6859489160817749
 40
0.7334568410039461
 40
0.7809568848484849
 40
0.8274002263972331
 40
0.8738421606731384
 40
0.9204907318546298
 40
0.9671431398889194
 40
1.015111401785805
 40
1.063087497106555
 40
1.165500418707499
 40
1.268190478907765
 40
1.380949153832658
 40
1.493646517711175
 40
1.615655563689933
 40
1.737631867586671
 40
1.737631867586671
 40
1.737631867586671
 40
1.737631867586671
 10
69.9143468951
 20
313.6163323256
 30
0.0
 10
69.91507543657629
 20
313.658375253661
 30
0.0
 10
69.91653282303236
 20
313.7424786244704
 30
0.0
 10
69.92997738498073
 20
313.864225952032
 30
0.0
 10
69.95293281826454
 20
313.9806436684033
 30
0.0
 10
69.98689871859803
 20
314.086219126179
 30
0.0
 10
70.03312447745634
 20
314.1823771884185
 30
0.0
 10
70.0816676460111
 20
314.2515465540771
 30
0.0
 10
70.12710697156845
 20
314.2990840356944
 30
0.0
 10
70.16301304965958
 20
314.3297793191762
 30
0.0
 10
70.20166048075225
 20
314.3563143548888
 30
0.0
 10
70.24261496795782
 20
314.3785427007837
 30
0.0
 10
70.28575459413338
 20
314.3963359176612
 30
0.0
 10
70.33093522874677
 20
314.4098693247223
 30
0.0
 10
70.37764245173643
 20
314.4190664500561
 30
0.0
 10
70.44346644293982
 20
314.4260217704366
 30
0.0
 10
70.52819419493687
 20
314.424156513803
 30
0.0
 10
70.63302579842615
 20
314.4072418528619
 30
0.0
 10
70.73860504077189
 20
314.3778272200022
 30
0.0
 10
70.84676297886922
 20
314.336075582537
 30
0.0
 10
70.95441524012739
 20
314.2852797553475
 30
0.0
 10
71.02493461500337
 20
314.2447153271754
 30
0.0
 10
71.0601895707
 20
314.2244358349
 30
0.0
 11
69.9143468951
 21
313.6163323256
 31
0.0
 11
69.91847825466465
 21
313.742361611391
 31
0.0
 11
69.93224501378566
 21
313.8677576881479
 31
0.0
 11
69.9550965898678
 21
313.9800973681395
 31
0.0
 11
69.99073477923866
 21
314.0891159199943
 31
0.0
 11
70.0356345440388
 21
314.1811217000067
 31
0.0
 11
70.09480697299293
 21
314.2641906118632
 31
0.0
 11
70.12765947315447
 21
314.2985084813126
 31
0.0
 11
70.16379656808128
 21
314.3293364643067
 31
0.0
 11
70.20208383294272
 21
314.3556246617277
 31
0.0
 11
70.24290644087998
 21
314.3777689147178
 31
0.0
 11
70.28601258449804
 21
314.3956000553334
 31
0.0
 11
70.33069215654238
 21
314.4090232821188
 31
0.0
 11
70.37774296229752
 21
314.4183600817418
 31
0.0
 11
70.42544684957159
 21
314.423463498359
 31
0.0
 11
70.52784649042933
 21
314.421814236995
 31
0.0
 11
70.62931074073002
 21
314.4059948067002
 31
0.0
 11
70.73803445716722
 21
314.376100455145
 31
0.0
 11
70.84335244946173
 21
314.3359904024871
 31
0.0
 11
70.95364513537963
 21
314.2838201932326
 31
0.0
 11
71.0601895707
 21
314.2244358349
 31
0.0
  0
SPLINE
  5
F6
330
1F
100
AcDbEntity
  8
BEZUGSACHSEN
  6
Continuous
 62
     7
100
AcDbSpline
210
0.0
220
0.0
230
1.0
 70
     8
 71
     3
 72
    15
 73
    11
 74
     9
 42
0.0000000001
 43
0.0000000001
 44
0.00000001
 40
0.0
 40
0.0
 40
0.0
 40
0.0
 40
0.1110371613194038
 40
0.2222522336982632
 40
0.3333980191325812
 40
0.444506947408346
 40
0.5556201064440075
 40
0.6667525641494099
 40
0.7778876032943199
 40
0.8889820915414972
 40
0.8889820915414972
 40
0.8889820915414972
 40
0.8889820915414972
 10
71.8142724103
 20
283.3055674531
 30
0.0
 10
71.77763068344122
 20
283.3110996059497
 30
0.0
 10
71.70428851993347
 20
283.3221727756291
 30
0.0
 10
71.59777196993363
 20
283.355191339129
 30
0.0
 10
71.49535906219324
 20
283.3987816265815
 30
0.0
 10
71.3979090965897
 20
283.4525611344023
 30
0.0
 10
71.30560430087321
 20
283.5146562697651
 30
0.0
 10
71.21860767274937
 20
283.583942943417
 30
0.0
 10
71.1363549172839
 20
283.6588248950428
 30
0.0
 10
71.0855749309018
 20
283.7127874765864
 30
0.0
 10
71.0601895707
 20
283.739763844
 30
0.0
 11
71.8142724103
 21
283.3055674531
 31
0.0
 11
71.70493012525124
 21
283.3248940123951
 31
0.0
 11
71.59843817166315
 21
283.3569604457051
 31
0.0
 11
71.49616999106743
 21
283.4004875046163
 31
0.0
 11
71.3987671246431
 21
283.4539466063194
 31
0.0
 11
71.30649535787106
 21
283.5158502020765
 31
0.0
 11
71.21939825446438
 21
283.5848756881944
 31
0.0
 11
71.13735834997783
 21
283.6598453553777
 31
0.0
 11
71.0601895707
 21
283.739763844
 31
0.0
  0
SPLINE
  5
F7
330
1F
100
AcDbEntity
  8
BEZUGSACHSEN
  6
Continuous
 62
     7
100
AcDbSpline
210
0.0
220
0.0
230
1.0
 70
     8
 71
     3
 72
    15
 73
    11
 74
     9
 42
0.0000000001
 43
0.0000000001
 44
0.00000001
 40
0.0
 40
0.0
 40
0.0
 40
0.0
 40
0.1110944830730183
 40
0.22222951807915
 40
0.3333620401246333
 40
0.4444752609550549
 40
0.5555842177693517
 40
0.6667300353723468
 40
0.7779450181341346
 40
0.8889820870600622
 40
0.8889820870600622
 40
0.8889820870600622
 40
0.8889820870600622
 10
71.0601895707
 20
314.2244358349
 30
0.0
 10
71.08557493024466
 20
314.2514122005775
 30
0.0
 10
71.13635491554933
 20
314.3053747789003
 30
0.0
 10
71.21860768480123
 20
314.3802567422713
 30
0.0
 10
71.30560433675672
 20
314.4495434511721
 30
0.0
 10
71.39790917719714
 20
314.5116386142466
 30
0.0
 10
71.49535919919548
 20
314.5654181063697
 30
0.0
 10
71.59777211306634
 20
314.6090083519759
 30
0.0
 10
71.7042886116201
 20
314.6420269078311
 30
0.0
 10
71.77763071430863
 20
314.6531000744514
 30
0.0
 10
71.8142724103
 20
314.6586322257
 30
0.0
 11
71.0601895707
 21
314.2244358349
 31
0.0
 11
71.1373583477269
 21
314.3043543185032
 31
0.0
 11
71.21939824797826
 21
314.3793239841858
 31
0.0
 11
71.30649539659144
 21
314.4483495168505
 31
0.0
 11
71.39876721817859
 21
314.5102531418195
 31
0.0
 11
71.49617012627407
 21
314.5637122269118
 31
0.0
 11
71.59843834967434
 21
314.6072392673946
 31
0.0
 11
71.7049302177665
 21
314.6393056738185
 31
0.0
 11
71.8142724103
 21
314.6586322257
 31
0.0
  0
SPLINE
  5
F8
330
1F
100
AcDbEntity
  8
0
  6
Continuous
 62
     7
100
AcDbSpline
210
0.0
220
0.0
230
1.0
 70
     8
 71
     3
 72
    19
 73
    15
 74
    13
 42
0.0000000001
 43
0.0000000001
 44
0.00000001
 40
0.0
 40
0.0
 40
0.0
 40
0.0
 40
0.1162460235697769
 40
0.2327881717864217
 40
0.3491890045854585
 40
0.4655468550769942
 40
0.5819071370268597
 40
0.6982738489685693
 40
0.814620607323061
 40
0.9309998278573789
 40
1.163276323457362
 40
1.39613892177893
 40
1.629013178105509
 40
1.861351539790936
 40
1.861351539790936
 40
1.861351539790936
 40
1.861351539790936
 10
139.0393468951
 20
265.4597192557
 30
0.0
 10
139.0005628242597
 20
265.4578783088122
 30
0.0
 10
138.9228958841951
 20
265.4541917254157
 30
0.0
 10
138.8092857991273
 20
265.4257862404571
 30
0.0
 10
138.7010981111783
 20
265.3819323262176
 30
0.0
 10
138.6001222452094
 20
265.3233356379591
 30
0.0
 10
138.5073537884558
 20
265.252650776625
 30
0.0
 10
138.4232664094369
 20
265.1718931715424
 30
0.0
 10
138.3479627660481
 20
265.0829255327997
 30
0.0
 10
138.2593115218883
 20
264.9555660850593
 30
0.0
 10
138.169314776176
 20
264.7827807069849
 30
0.0
 10
138.0944212570531
 20
264.5618557167994
 30
0.0
 10
138.0478843317347
 20
264.3328357971993
 30
0.0
 10
138.0421905210118
 20
264.177656404348
 30
0.0
 10
138.0393468951
 20
264.1001560862
 30
0.0
 11
139.0393468951
 21
265.4597192557
 31
0.0
 11
138.9234755435496
 21
265.450393598315
 31
0.0
 11
138.8101510188615
 21
265.4231975615601
 31
0.0
 11
138.7022778862503
 21
265.3794649520227
 31
0.0
 11
138.6014891467255
 21
265.3213204823285
 31
0.0
 11
138.5088018416447
 21
265.2509729259224
 31
0.0
 11
138.4247264759858
 21
265.1705208001739
 31
0.0
 11
138.3494277180404
 21
265.0818265769602
 31
0.0
 11
138.2828009887289
 21
264.9864064432702
 31
0.0
 11
138.1749112026545
 21
264.7807072345478
 31
0.0
 11
138.0991530658419
 21
264.5605125606709
 31
0.0
 11
138.0541930520428
 21
264.3320196364504
 31
0.0
 11
138.0393468951
 21
264.1001560862
 31
0.0
  0
SPLINE
  5
F9
330
1F
100
AcDbEntity
  8
0
  6
Continuous
 62
     7
100
AcDbSpline
210
0.0
220
0.0
230
1.0
 70
     8
 71
     3
 72
    19
 73
    15
 74
    13
 42
0.0000000001
 43
0.0000000001
 44
0.00000001
 40
0.0
 40
0.0
 40
0.0
 40
0.0
 40
0.2323383481416632
 40
0.4652125957589239
 40
0.698076113320178
 40
0.9303535187532638
 40
1.046733461817708
 40
1.163080940889188
 40
1.279447997456149
 40
1.395808629558112
 40
1.512165904536302
 40
1.628566140380551
 40
1.745106920573233
 40
1.861351602836244
 40
1.861351602836244
 40
1.861351602836244
 40
1.861351602836244
 10
141.7893468951
 20
264.1001560862
 30
0.0
 10
141.7865032694941
 20
264.1776563998675
 30
0.0
 10
141.7808094593243
 20
264.3328357853702
 30
0.0
 10
141.7342724834761
 20
264.5618559994026
 30
0.0
 10
141.6593787376692
 20
264.7827815612831
 30
0.0
 10
141.5693814334055
 20
264.9555676254748
 30
0.0
 10
141.480729495633
 20
265.0829275512079
 30
0.0
 10
141.4054252313038
 20
265.1718954501404
 30
0.0
 10
141.3213372574952
 20
265.2526531201102
 30
0.0
 10
141.2285685236665
 20
265.323337686492
 30
0.0
 10
141.1275927114213
 20
265.3819339106652
 30
0.0
 10
141.0194056619082
 20
265.425787161822
 30
0.0
 10
140.9057965525539
 20
265.4541919212724
 30
0.0
 10
140.8281305177618
 20
265.4578783739193
 30
0.0
 10
140.7893468951
 20
265.4597192557
 30
0.0
 11
141.7893468951
 21
264.1001560862
 31
0.0
 11
141.7745007409797
 21
264.3320196230596
 31
0.0
 11
141.7295407393736
 21
264.560512540803
 31
0.0
 11
141.6537822606562
 21
264.7807080691713
 31
0.0
 11
141.5458918494735
 21
264.9864079774104
 31
0.0
 11
141.4792645256522
 21
265.0818285772203
 31
0.0
 11
141.4039650691101
 21
265.1705231527633
 31
0.0
 11
141.3198892027906
 21
265.2509752537719
 31
0.0
 11
141.2272013768228
 21
265.3213227030542
 31
0.0
 11
141.1264129419182
 21
265.3794665490728
 31
0.0
 11
141.0185402131266
 21
265.4231985658071
 31
0.0
 11
140.9052169245727
 21
265.450393891127
 31
0.0
 11
140.7893468951
 21
265.4597192557
 31
0.0
  0
SPLINE
  5
FA
330
1F
100
AcDbEntity
  8
BEZUGSACHSEN
  6
Continuous
 62
     7
100
AcDbSpline
210
0.0
220
0.0
230
1.0
 70
     8
 71
     3
 72
    11
 73
     7
 74
     5
 42
0.0000000001
 43
0.0000000001
 44
0.00000001
 40
0.0
 40
0.0
 40
0.0
 40
0.0
 40
0.546290743102647
 40
1.093000863635434
 40
1.646070107182722
 40
2.198197048697395
 40
2.198197048697395
 40
2.198197048697395
 40
2.198197048697395
 10
79.468192842
 20
313.9920998394
 30
0.0
 10
79.53126364383118
 20
313.821168210163
 30
0.0
 10
79.65745366579665
 20
313.4791737305978
 30
0.0
 10
79.79709097883409
 20
312.9478996013776
 30
0.0
 10
79.89457934290488
 20
312.4044751964326
 30
0.0
 10
79.9077614574387
 20
312.0358905558815
 30
0.0
 10
79.9143468951
 20
311.8517553652
 30
0.0
 11
79.468192842
 21
313.9920998394
 31
0.0
 11
79.64904417454478
 21
313.4766133007626
 31
0.0
 11
79.78953565925225
 21
312.9482629448266
 31
0.0
 11
79.88160231252968
 21
312.402910472097
 31
0.0
 11
79.9143468951
 21
311.8517553652
 31
0.0
  0
SPLINE
  5
FB
330
1F
100
AcDbEntity
  8
BEZUGSACHSEN
  6
Continuous
 62
     7
100
AcDbSpline
210
0.0
220
0.0
230
1.0
 70
     8
 71
     3
 72
    11
 73
     7
 74
     5
 42
0.0000000001
 43
0.0000000001
 44
0.00000001
 40
0.0
 40
0.0
 40
0.0
 40
0.0
 40
0.9140556660003705
 40
1.828030949185922
 40
2.2798069748711
 40
2.730944124762544
 40
2.730944124762544
 40
2.730944124762544
 40
2.730944124762544
 10
71.1812998219854
 20
283.972099839585
 30
0.0
 10
71.31395452894876
 20
284.2468164372516
 30
0.0
 10
71.5792522771103
 20
284.796225473779
 30
0.0
 10
71.79460749042303
 20
285.5289363948835
 30
0.0
 10
71.89830170408531
 20
286.1268816009898
 30
0.0
 10
71.90900102160647
 20
286.4280048164165
 30
0.0
 10
71.9143468951
 20
286.578459891
 30
0.0
 11
71.1812998219854
 21
283.972099839585
 31
0.0
 11
71.55610735176083
 21
284.8057766811555
 31
0.0
 11
71.81539871215872
 21
285.682200556171
 31
0.0
 11
71.88811568565731
 21
286.1280859889327
 31
0.0
 11
71.9143468951
 21
286.578459891
 31
0.0
  0
SPLINE
  5
FC
330
1F
100
AcDbEntity
  8
BEZUGSACHSEN
  6
Continuous
 62
     7
100
AcDbSpline
210
0.0
220
0.0
230
1.0
 70
     8
 71
     3
 72
    11
 73
     7
 74
     5
 42
0.0000000001
 43
0.0000000001
 44
0.00000001
 40
0.0
 40
0.0
 40
0.0
 40
0.0
 40
0.8249192366730373
 40
1.650116891931491
 40
2.190492152294101
 40
2.730585915378259
 40
2.730585915378259
 40
2.730585915378259
 40
2.730585915378259
 10
71.9143468951
 20
311.3857397878
 30
0.0
 10
71.89661359076185
 20
311.6609300797771
 30
0.0
 10
71.86114099691599
 20
312.211403543238
 30
0.0
 10
71.65270618028039
 20
312.916137128391
 30
0.0
 10
71.422479749301
 20
313.5083508534713
 30
0.0
 10
71.26167916649884
 20
313.8308781869162
 30
0.0
 10
71.1812998219854
 20
313.992099839215
 30
0.0
 11
71.9143468951
 21
311.3857397878
 31
0.0
 11
71.8307714409843
 21
312.2064144434965
 31
0.0
 11
71.61280999887254
 21
313.0023063833958
 31
0.0
 11
71.41487492031332
 21
313.5051255623137
 31
0.0
 11
71.1812998219854
 21
313.992099839215
 31
0.0
  0
DIMENSION
  5
107
330
1F
100
AcDbEntity
  8
1
100
AcDbDimension
  2
*D2
 10
220.857586583363
 20
303.9820998394
 30
0.0
 11
217.107586583363
 21
299.013003528914
 31
0.0
 70
    32
  1
<>
 71
     5
 42
-1.0
 53
90.0
  3
ME10_DIM_10
100
AcDbAlignedDimension
 13
209.9143468951
 23
293.9820998394
 33
0.0
 14
209.9143468951
 24
303.9820998394
 34
0.0
 50
90.0
100
AcDbRotatedDimension
  0
DIMENSION
  5
112
330
1F
100
AcDbEntity
  8
1
100
AcDbDimension
  2
*D3
 10
229.994077961612
 20
310.9820998394528
 30
0.0
 11
226.244077961612
 21
298.713446434545
 31
0.0
 70
    32
  1
<>
 71
     5
 42
-1.0
 53
90.0
  3
ME10_DIM_11
100
AcDbAlignedDimension
 13
209.9143468951
 23
286.9820998393559
 33
0.0
 14
209.9143468951094
 24
310.9820998394528
 34
0.0
 50
90.0
100
AcDbRotatedDimension
  0
DIMENSION
  5
11D
330
1F
100
AcDbEntity
  8
1
100
AcDbDimension
  2
*D4
 10
238.381676603938
 20
314.9820998394
 30
0.0
 11
234.631676603938
 21
298.863224981729
 31
0.0
 70
    32
  1
<>
 71
     5
 42
-1.0
 53
90.0
  3
ME10_DIM_12
100
AcDbAlignedDimension
 13
159.0895279504
 23
282.9820998394
 33
0.0
 14
159.0895279504
 24
314.9820998394
 34
0.0
 50
90.0
100
AcDbRotatedDimension
  0
DIMENSION
  5
128
330
1F
100
AcDbEntity
  8
1
100
AcDbDimension
  2
*D5
 10
209.9143468951
 20
355.928851458985
 30
0.0
 11
180.117821749207
 21
359.678851458985
 31
0.0
 70
    32
  1
<>
 71
     5
 42
-1.0
 53
0.00013888888889
  3
ME10_DIM_13
100
AcDbAlignedDimension
 13
148.9143468951
 23
348.9820629183
 33
0.0
 14
209.9143468951
 24
310.0577093477
 34
0.0
100
AcDbRotatedDimension
  0
DIMENSION
  5
133
330
1F
100
AcDbEntity
  8
1
100
AcDbDimension
  2
*D6
 10
209.9143468951
 20
362.818664629468
 30
0.0
 11
167.536423785717
 21
366.568664629468
 31
0.0
 70
    32
  1
<>
 71
     5
 42
-1.0
 53
0.00013888888889
  3
ME10_DIM_14
100
AcDbAlignedDimension
 13
119.9143468951
 23
348.9820998394
 33
0.0
 14
209.9143468951
 24
310.0577093477
 34
0.0
100
AcDbRotatedDimension
  0
DIMENSION
  5
13E
330
1F
100
AcDbEntity
  8
1
100
AcDbDimension
  2
*D7
 10
209.9143468951
 20
370.008034894319
 30
0.0
 11
145.219420255242
 21
373.758034894319
 31
0.0
 70
    32
  1
<>
 71
     5
 42
-1.0
 53
0.00013888888889
  3
ME10_DIM_15
100
AcDbAlignedDimension
 13
69.9143468951
 23
332.582291402
 33
0.0
 14
209.9143468951
 24
310.0577093477
 34
0.0
100
AcDbRotatedDimension
  0
INSERT
  5
145
330
1F
100
AcDbEntity
  8
1
100
AcDbBlockReference
  2
*D8
 10
0.0
 20
0.0
 30
0.0
  0
DIMENSION
  5
150
330
1F
100
AcDbEntity
  8
1
100
AcDbDimension
  2
*D9
 10
189.5428258743656
 20
313.7855865052379
 30
0.0
 11
192.293090268405
 21
323.2885374758816
 31
0.0
 70
    37
  1
<>
 71
     5
 42
-1.0
  3
ME10_DIM_16
100
AcDb3PointAngularDimension
 13
189.4723725922638
 23
312.5909181079121
 33
0.0
 14
162.1372073931968
 24
314.9820998394
 34
0.0
 15
159.0895279504
 25
314.9820998394
 35
0.0
  0
ENDSEC
  0
SECTION
  2
OBJECTS
  0
DICTIONARY
  5
C
330
0
100
AcDbDictionary
281
     1
  3
ACAD_GROUP
350
D
  3
ACAD_LAYOUT
350
1A
  3
ACAD_MLEADERSTYLE
350
153
  3
ACAD_MLINESTYLE
350
17
  3
ACAD_PLOTSETTINGS
350
19
  3
ACAD_PLOTSTYLENAME
350
E
  3
ACAD_SCALELIST
350
4A
  3
ACAD_VISUALSTYLE
350
2A
  3
AcDbVariableDictionary
350
151
  0
DICTIONARY
  5
D
102
{ACAD_REACTORS
330
C
102
}
330
C
100
AcDbDictionary
281
     1
  0
DICTIONARY
  5
1A
102
{ACAD_REACTORS
330
C
102
}
330
C
100
AcDbDictionary
281
     1
  3
Layout1
350
1E
  3
Layout2
350
26
  3
Model
350
22
  0
DICTIONARY
  5
153
102
{ACAD_REACTORS
330
C
102
}
330
C
100
AcDbDictionary
281
     1
  0
DICTIONARY
  5
17
102
{ACAD_REACTORS
330
C
102
}
330
C
100
AcDbDictionary
281
     1
  3
Standard
350
18
  0
DICTIONARY
  5
19
102
{ACAD_REACTORS
330
C
102
}
330
C
100
AcDbDictionary
281
     1
  0
ACDBDICTIONARYWDFLT
  5
E
102
{ACAD_REACTORS
330
C
102
}
330
C
100
AcDbDictionary
281
     1
  3
Normal
350
F
100
AcDbDictionaryWithDefault
340
F
  0
DICTIONARY
  5
4A
102
{ACAD_REACTORS
330
C
102
}
330
C
100
AcDbDictionary
281
     1
  3
A0
350
4B
  3
A1
350
4C
  3
A2
350
4D
  3
A3
350
4E
  3
A4
350
4F
  3
A5
350
50
  3
A6
350
51
  3
A7
350
52
  3
A8
350
53
  3
A9
350
54
  3
B0
350
55
  3
B1
350
56
  3
B2
350
57
  3
B3
350
58
  3
B4
350
59
  3
B5
350
5A
  3
B6
350
5B
  3
B7
350
5C
  3
B8
350
5D
  3
B9
350
5E
  3
C0
350
5F
  3
C1
350
60
  3
C2
350
61
  3
C3
350
62
  3
C4
350
63
  3
C5
350
64
  3
C6
350
65
  3
C7
350
66
  3
C8
350
67
  3
C9
350
68
  3
D0
350
69
  3
D1
350
6A
  3
D2
350
6B
  0
DICTIONARY
  5
2A
102
{ACAD_REACTORS
330
C
102
}
330
C
100
AcDbDictionary
281
     1
  3
2dWireframe
350
2F
  3
3D Hidden
350
31
  3
3dWireframe
350
30
  3
Basic
350
32
  3
Brighten
350
36
  3
ColorChange
350
3A
  3
Conceptual
350
34
  3
Dim
350
35
  3
Facepattern
350
39
  3
Flat
350
2B
  3
FlatWithEdges
350
2C
  3
Gouraud
350
2D
  3
GouraudWithEdges
350
2E
  3
Linepattern
350
38
  3
Realistic
350
33
  3
Thicken
350
37
  0
DICTIONARY
  5
151
102
{ACAD_REACTORS
330
C
102
}
330
C
100
AcDbDictionary
281
     1
  3
CANNOSCALE
350
154
  0
LAYOUT
  5
1E
102
{ACAD_REACTORS
330
1A
102
}
330
1A
100
AcDbPlotSettings
  1

  2
none_device
  4

  6

 40
0.0
 41
0.0
 42
0.0
 43
0.0
 44
0.0
 45
0.0
 46
0.0
 47
0.0
 48
0.0
 49
0.0
140
0.0
141
0.0
142
1.0
143
1.0
 70
   688
 72
     0
 73
     0
 74
     5
  7

 75
    16
147
1.0
148
0.0
149
0.0
100
AcDbLayout
  1
Layout1
 70
     1
 71
     1
 10
0.0
 20
0.0
 11
12.0
 21
9.0
 12
0.0
 22
0.0
 32
0.0
 14
1.00000000000000E+20
 24
1.00000000000000E+20
 34
1.00000000000000E+20
 15
-1.00000000000000E+20
 25
-1.00000000000000E+20
 35
-1.00000000000000E+20
146
0.0
 13
0.0
 23
0.0
 33
0.0
 16
1.0
 26
0.0
 36
0.0
 17
0.0
 27
1.0
 37
0.0
 76
     0
330
1B
  0
LAYOUT
  5
26
102
{ACAD_REACTORS
330
1A
102
}
330
1A
100
AcDbPlotSettings
  1

  2
none_device
  4

  6

 40
0.0
 41
0.0
 42
0.0
 43
0.0
 44
0.0
 45
0.0
 46
0.0
 47
0.0
 48
0.0
 49
0.0
140
0.0
141
0.0
142
1.0
143
1.0
 70
   688
 72
     0
 73
     0
 74
     5
  7

 75
    16
147
1.0
148
0.0
149
0.0
100
AcDbLayout
  1
Layout2
 70
     1
 71
     2
 10
0.0
 20
0.0
 11
0.0
 21
0.0
 12
0.0
 22
0.0
 32
0.0
 14
0.0
 24
0.0
 34
0.0
 15
0.0
 25
0.0
 35
0.0
146
0.0
 13
0.0
 23
0.0
 33
0.0
 16
1.0
 26
0.0
 36
0.0
 17
0.0
 27
1.0
 37
0.0
 76
     0
330
23
  0
LAYOUT
  5
22
102
{ACAD_REACTORS
330
1A
102
}
330
1A
100
AcDbPlotSettings
  1

  2
none_device
  4

  6

 40
0.0
 41
0.0
 42
0.0
 43
0.0
 44
0.0
 45
0.0
 46
0.0
 47
0.0
 48
0.0
 49
0.0
140
0.0
141
0.0
142
1.0
143
1.0
 70
  1712
 72
     0
 73
     0
 74
     0
  7

 75
     0
147
1.0
148
0.0
149
0.0
100
AcDbLayout
  1
Model
 70
     1
 71
     0
 10
0.0
 20
0.0
 11
12.0
 21
9.0
 12
0.0
 22
0.0
 32
0.0
 14
49.28169186908579
 24
248.9820998394
 34
0.0
 15
240.381676603938
 25
375.508034894319
 35
0.0
146
0.0
 13
0.0
 23
0.0
 33
0.0
 16
1.0
 26
0.0
 36
0.0
 17
0.0
 27
1.0
 37
0.0
 76
     0
330
1F
331
29
  0
MLINESTYLE
  5
18
102
{ACAD_REACTORS
330
17
102
}
330
17
100
AcDbMlineStyle
  2
Standard
 70
     0
  3

 62
   256
 51
90.0
 52
90.0
 71
     2
 49
0.5
 62
   256
  6
BYLAYER
 49
-0.5
 62
   256
  6
BYLAYER
  0
ACDBPLACEHOLDER
  5
F
102
{ACAD_REACTORS
330
E
102
}
330
E
  0
SCALE
  5
4B
102
{ACAD_REACTORS
330
4A
102
}
330
4A
100
AcDbScale
 70
     0
300
1:1
140
1.0
141
1.0
290
     1
  0
SCALE
  5
4C
102
{ACAD_REACTORS
330
4A
102
}
330
4A
100
AcDbScale
 70
     0
300
1:2
140
1.0
141
2.0
290
     0
  0
SCALE
  5
4D
102
{ACAD_REACTORS
330
4A
102
}
330
4A
100
AcDbScale
 70
     0
300
1:4
140
1.0
141
4.0
290
     0
  0
SCALE
  5
4E
102
{ACAD_REACTORS
330
4A
102
}
330
4A
100
AcDbScale
 70
     0
300
1:5
140
1.0
141
5.0
290
     0
  0
SCALE
  5
4F
102
{ACAD_REACTORS
330
4A
102
}
330
4A
100
AcDbScale
 70
     0
300
1:8
140
1.0
141
8.0
290
     0
  0
SCALE
  5
50
102
{ACAD_REACTORS
330
4A
102
}
330
4A
100
AcDbScale
 70
     0
300
1:10
140
1.0
141
10.0
290
     0
  0
SCALE
  5
51
102
{ACAD_REACTORS
330
4A
102
}
330
4A
100
AcDbScale
 70
     0
300
1:16
140
1.0
141
16.0
290
     0
  0
SCALE
  5
52
102
{ACAD_REACTORS
330
4A
102
}
330
4A
100
AcDbScale
 70
     0
300
1:20
140
1.0
141
20.0
290
     0
  0
SCALE
  5
53
102
{ACAD_REACTORS
330
4A
102
}
330
4A
100
AcDbScale
 70
     0
300
1:30
140
1.0
141
30.0
290
     0
  0
SCALE
  5
54
102
{ACAD_REACTORS
330
4A
102
}
330
4A
100
AcDbScale
 70
     0
300
1:40
140
1.0
141
40.0
290
     0
  0
SCALE
  5
55
102
{ACAD_REACTORS
330
4A
102
}
330
4A
100
AcDbScale
 70
     0
300
1:50
140
1.0
141
50.0
290
     0
  0
SCALE
  5
56
102
{ACAD_REACTORS
330
4A
102
}
330
4A
100
AcDbScale
 70
     0
300
1:100
140
1.0
141
100.0
290
     0
  0
SCALE
  5
57
102
{ACAD_REACTORS
330
4A
102
}
330
4A
100
AcDbScale
 70
     0
300
2:1
140
2.0
141
1.0
290
     0
  0
SCALE
  5
58
102
{ACAD_REACTORS
330
4A
102
}
330
4A
100
AcDbScale
 70
     0
300
4:1
140
4.0
141
1.0
290
     0
  0
SCALE
  5
59
102
{ACAD_REACTORS
330
4A
102
}
330
4A
100
AcDbScale
 70
     0
300
8:1
140
8.0
141
1.0
290
     0
  0
SCALE
  5
5A
102
{ACAD_REACTORS
330
4A
102
}
330
4A
100
AcDbScale
 70
     0
300
10:1
140
10.0
141
1.0
290
     0
  0
SCALE
  5
5B
102
{ACAD_REACTORS
330
4A
102
}
330
4A
100
AcDbScale
 70
     0
300
100:1
140
100.0
141
1.0
290
     0
  0
SCALE
  5
5C
102
{ACAD_REACTORS
330
4A
102
}
330
4A
100
AcDbScale
 70
     0
300
1/128" = 1'-0"
140
0.0078125
141
12.0
290
     0
  0
SCALE
  5
5D
102
{ACAD_REACTORS
330
4A
102
}
330
4A
100
AcDbScale
 70
     0
300
1/64" = 1'-0"
140
0.015625
141
12.0
290
     0
  0
SCALE
  5
5E
102
{ACAD_REACTORS
330
4A
102
}
330
4A
100
AcDbScale
 70
     0
300
1/32" = 1'-0"
140
0.03125
141
12.0
290
     0
  0
SCALE
  5
5F
102
{ACAD_REACTORS
330
4A
102
}
330
4A
100
AcDbScale
 70
     0
300
1/16" = 1'-0"
140
0.0625
141
12.0
290
     0
  0
SCALE
  5
60
102
{ACAD_REACTORS
330
4A
102
}
330
4A
100
AcDbScale
 70
     0
300
3/32" = 1'-0"
140
0.09375
141
12.0
290
     0
  0
SCALE
  5
61
102
{ACAD_REACTORS
330
4A
102
}
330
4A
100
AcDbScale
 70
     0
300
1/8" = 1'-0"
140
0.125
141
12.0
290
     0
  0
SCALE
  5
62
102
{ACAD_REACTORS
330
4A
102
}
330
4A
100
AcDbScale
 70
     0
300
3/16" = 1'-0"
140
0.1875
141
12.0
290
     0
  0
SCALE
  5
63
102
{ACAD_REACTORS
330
4A
102
}
330
4A
100
AcDbScale
 70
     0
300
1/4" = 1'-0"
140
0.25
141
12.0
290
     0
  0
SCALE
  5
64
102
{ACAD_REACTORS
330
4A
102
}
330
4A
100
AcDbScale
 70
     0
300
3/8" = 1'-0"
140
0.375
141
12.0
290
     0
  0
SCALE
  5
65
102
{ACAD_REACTORS
330
4A
102
}
330
4A
100
AcDbScale
 70
     0
300
1/2" = 1'-0"
140
0.5
141
12.0
290
     0
  0
SCALE
  5
66
102
{ACAD_REACTORS
330
4A
102
}
330
4A
100
AcDbScale
 70
     0
300
3/4" = 1'-0"
140
0.75
141
12.0
290
     0
  0
SCALE
  5
67
102
{ACAD_REACTORS
330
4A
102
}
330
4A
100
AcDbScale
 70
     0
300
1" = 1'-0"
140
1.0
141
12.0
290
     0
  0
SCALE
  5
68
102
{ACAD_REACTORS
330
4A
102
}
330
4A
100
AcDbScale
 70
     0
300
1-1/2" = 1'-0"
140
1.5
141
12.0
290
     0
  0
SCALE
  5
69
102
{ACAD_REACTORS
330
4A
102
}
330
4A
100
AcDbScale
 70
     0
300
3" = 1'-0"
140
3.0
141
12.0
290
     0
  0
SCALE
  5
6A
102
{ACAD_REACTORS
330
4A
102
}
330
4A
100
AcDbScale
 70
     0
300
6" = 1'-0"
140
6.0
141
12.0
290
     0
  0
SCALE
  5
6B
102
{ACAD_REACTORS
330
4A
102
}
330
4A
100
AcDbScale
 70
     0
300
1'-0" = 1'-0"
140
12.0
141
12.0
290
     0
  0
VISUALSTYLE
  5
2F
102
{ACAD_REACTORS
330
2A
102
}
330
2A
100
AcDbVisualStyle
  2
2dWireframe
 70
     4
 71
     0
 72
     2
 73
     0
 90
        0
 40
-0.6
 41
-30.0
 62
     5
 63
     7
 74
     1
 91
        4
 64
     7
 65
   257
 75
     1
175
     1
 42
1.0
 92
        0
 66
   257
 43
1.0
 76
     1
 77
     6
 78
     2
 67
     7
 79
     5
170
     0
171
     0
290
     0
174
     0
 93
        1
 44
0.0
173
     0
291
     0
 45
0.0
1001
ACAD
1000
AcDbSavedByObjectVersion
1070
     0
  0
VISUALSTYLE
  5
31
102
{ACAD_REACTORS
330
2A
102
}
330
2A
100
AcDbVisualStyle
  2
3D Hidden
 70
     6
 71
     1
 72
     2
 73
     2
 90
        0
 40
-0.6
 41
-30.0
 62
     5
 63
     7
 74
     2
 91
        2
 64
     7
 65
   257
 75
     2
175
     1
 42
40.0
 92
        0
 66
   257
 43
1.0
 76
     1
 77
     6
 78
     2
 67
     7
 79
     3
170
     0
171
     0
290
     0
174
     0
 93
        1
 44
0.0
173
     0
291
     0
 45
0.0
1001
ACAD
1000
AcDbSavedByObjectVersion
1070
     0
  0
VISUALSTYLE
  5
30
102
{ACAD_REACTORS
330
2A
102
}
330
2A
100
AcDbVisualStyle
  2
3dWireframe
 70
     5
 71
     0
 72
     2
 73
     0
 90
        0
 40
-0.6
 41
-30.0
 62
     5
 63
     7
 74
     1
 91
        4
 64
     7
 65
   257
 75
     1
175
     1
 42
1.0
 92
        0
 66
   257
 43
1.0
 76
     1
 77
     6
 78
     2
 67
     7
 79
     5
170
     0
171
     0
290
     0
174
     0
 93
        1
 44
0.0
173
     0
291
     0
 45
0.0
1001
ACAD
1000
AcDbSavedByObjectVersion
1070
     0
  0
VISUALSTYLE
  5
32
102
{ACAD_REACTORS
330
2A
102
}
330
2A
100
AcDbVisualStyle
  2
Basic
 70
     7
 71
     1
 72
     0
 73
     1
 90
        0
 40
-0.6
 41
-30.0
 62
     5
 63
     7
 74
     0
 91
        4
 64
     7
 65
   257
 75
     1
175
     1
 42
1.0
 92
        8
 66
     7
 43
1.0
 76
     1
 77
     6
 78
     2
 67
     7
 79
     5
170
     0
171
     0
290
     0
174
     0
 93
        1
 44
0.0
173
     0
291
     1
 45
0.0
1001
ACAD
1000
AcDbSavedByObjectVersion
1070
     0
  0
VISUALSTYLE
  5
36
102
{ACAD_REACTORS
330
2A
102
}
330
2A
100
AcDbVisualStyle
  2
Brighten
 70
    12
 71
     2
 72
     2
 73
     0
 90
        0
 40
-0.6
 41
-30.0
 62
     5
 63
     7
 74
     1
 91
        4
 64
     7
 65
   257
 75
     1
175
     1
 42
1.0
 92
        8
 66
     7
 43
1.0
 76
     1
 77
     6
 78
     2
 67
     7
 79
     5
170
     0
171
     0
290
     0
174
     0
 93
        1
 44
50.0
173
     0
291
     1
 45
0.0
1001
ACAD
1000
AcDbSavedByObjectVersion
1070
     0
  0
VISUALSTYLE
  5
3A
102
{ACAD_REACTORS
330
2A
102
}
330
2A
100
AcDbVisualStyle
  2
ColorChange
 70
    16
 71
     2
 72
     2
 73
     3
 90
        0
 40
-0.6
 41
-30.0
 62
     5
 63
     8
 74
     1
 91
        4
 64
     7
 65
   257
 75
     1
175
     1
 42
1.0
 92
        8
 66
     8
 43
1.0
 76
     1
 77
     6
 78
     2
 67
     7
 79
     5
170
     0
171
     0
290
     0
174
     0
 93
        1
 44
0.0
173
     0
291
     1
 45
0.0
1001
ACAD
1000
AcDbSavedByObjectVersion
1070
     0
  0
VISUALSTYLE
  5
34
102
{ACAD_REACTORS
330
2A
102
}
330
2A
100
AcDbVisualStyle
  2
Conceptual
 70
     9
 71
     3
 72
     2
 73
     0
 90
        0
 40
-0.6
 41
-30.0
 62
     5
 63
     7
 74
     2
 91
        2
 64
     7
 65
   257
 75
     1
175
     1
 42
40.0
 92
        8
 66
     7
 43
1.0
 76
     1
 77
     6
 78
     2
 67
     7
 79
     3
170
     0
171
     0
290
     0
174
     0
 93
        1
 44
0.0
173
     0
291
     0
 45
0.0
1001
ACAD
1000
AcDbSavedByObjectVersion
1070
     0
  0
VISUALSTYLE
  5
35
102
{ACAD_REACTORS
330
2A
102
}
330
2A
100
AcDbVisualStyle
  2
Dim
 70
    11
 71
     2
 72
     2
 73
     0
 90
        0
 40
-0.6
 41
-30.0
 62
     5
 63
     7
 74
     1
 91
        4
 64
     7
 65
   257
 75
     1
175
     1
 42
1.0
 92
        8
 66
     7
 43
1.0
 76
     1
 77
     6
 78
     2
 67
     7
 79
     5
170
     0
171
     0
290
     0
174
     0
 93
        1
 44
-50.0
173
     0
291
     1
 45
0.0
1001
ACAD
1000
AcDbSavedByObjectVersion
1070
     0
  0
VISUALSTYLE
  5
39
102
{ACAD_REACTORS
330
2A
102
}
330
2A
100
AcDbVisualStyle
  2
Facepattern
 70
    15
 71
     2
 72
     2
 73
     0
 90
        0
 40
-0.6
 41
-30.0
 62
     5
 63
     7
 74
     1
 91
        4
 64
     7
 65
   257
 75
     1
175
     1
 42
1.0
 92
        8
 66
     7
 43
1.0
 76
     1
 77
     6
 78
     2
 67
     7
 79
     5
170
     0
171
     0
290
     0
174
     0
 93
        1
 44
0.0
173
     0
291
     1
 45
0.0
1001
ACAD
1000
AcDbSavedByObjectVersion
1070
     0
  0
VISUALSTYLE
  5
2B
102
{ACAD_REACTORS
330
2A
102
}
330
2A
100
AcDbVisualStyle
  2
Flat
 70
     0
 71
     2
 72
     1
 73
     1
 90
        2
 40
-0.6
 41
30.0
 62
     5
 63
     7
 74
     0
 91
        4
 64
     7
 65
   257
 75
     1
175
     1
 42
1.0
 92
        8
 66
     7
 43
1.0
 76
     1
 77
     6
 78
     2
 67
     7
 79
     5
170
     0
171
     0
290
     0
174
     0
 93
       13
 44
0.0
173
     0
291
     1
 45
0.0
1001
ACAD
1000
AcDbSavedByObjectVersion
1070
     0
  0
VISUALSTYLE
  5
2C
102
{ACAD_REACTORS
330
2A
102
}
330
2A
100
AcDbVisualStyle
  2
FlatWithEdges
 70
     1
 71
     2
 72
     1
 73
     1
 90
        2
 40
-0.6
 41
30.0
 62
     5
 63
     7
 74
     1
 91
        4
 64
     7
 65
   257
 75
     1
175
     1
 42
1.0
 92
        0
 66
   257
 43
1.0
 76
     1
 77
     6
 78
     2
 67
     7
 79
     5
170
     0
171
     0
290
     0
174
     0
 93
       13
 44
0.0
173
     0
291
     1
 45
0.0
1001
ACAD
1000
AcDbSavedByObjectVersion
1070
     0
  0
VISUALSTYLE
  5
2D
102
{ACAD_REACTORS
330
2A
102
}
330
2A
100
AcDbVisualStyle
  2
Gouraud
 70
     2
 71
     2
 72
     2
 73
     1
 90
        2
 40
-0.6
 41
30.0
 62
     5
 63
     7
 74
     0
 91
        4
 64
     7
 65
   257
 75
     1
175
     1
 42
1.0
 92
        0
 66
     7
 43
1.0
 76
     1
 77
     6
 78
     2
 67
     7
 79
     5
170
     0
171
     0
290
     0
174
     0
 93
       13
 44
0.0
173
     0
291
     1
 45
0.0
1001
ACAD
1000
AcDbSavedByObjectVersion
1070
     0
  0
VISUALSTYLE
  5
2E
102
{ACAD_REACTORS
330
2A
102
}
330
2A
100
AcDbVisualStyle
  2
GouraudWithEdges
 70
     3
 71
     2
 72
     2
 73
     1
 90
        2
 40
-0.6
 41
30.0
 62
     5
 63
     7
 74
     1
 91
        4
 64
     7
 65
   257
 75
     1
175
     1
 42
1.0
 92
        0
 66
   257
 43
1.0
 76
     1
 77
     6
 78
     2
 67
     7
 79
     5
170
     0
171
     0
290
     0
174
     0
 93
       13
 44
0.0
173
     0
291
     1
 45
0.0
1001
ACAD
1000
AcDbSavedByObjectVersion
1070
     0
  0
VISUALSTYLE
  5
38
102
{ACAD_REACTORS
330
2A
102
}
330
2A
100
AcDbVisualStyle
  2
Linepattern
 70
    14
 71
     2
 72
     2
 73
     0
 90
        0
 40
-0.6
 41
-30.0
 62
     5
 63
     7
 74
     1
 91
        4
 64
     7
 65
   257
 75
     7
175
     7
 42
1.0
 92
        8
 66
     7
 43
1.0
 76
     1
 77
     6
 78
     2
 67
     7
 79
     5
170
     0
171
     0
290
     0
174
     0
 93
        1
 44
0.0
173
     0
291
     1
 45
0.0
1001
ACAD
1000
AcDbSavedByObjectVersion
1070
     0
  0
VISUALSTYLE
  5
33
102
{ACAD_REACTORS
330
2A
102
}
330
2A
100
AcDbVisualStyle
  2
Realistic
 70
     8
 71
     2
 72
     2
 73
     0
 90
        0
 40
-0.6
 41
-30.0
 62
     5
 63
     7
 74
     1
 91
        0
 64
     7
 65
   257
 75
     1
175
     1
 42
1.0
 92
        8
 66
     8
 43
1.0
 76
     1
 77
     6
 78
     2
 67
     7
 79
     5
170
     0
171
     0
290
     0
174
     0
 93
       13
 44
0.0
173
     0
291
     0
 45
0.0
1001
ACAD
1000
AcDbSavedByObjectVersion
1070
     0
  0
VISUALSTYLE
  5
37
102
{ACAD_REACTORS
330
2A
102
}
330
2A
100
AcDbVisualStyle
  2
Thicken
 70
    13
 71
     2
 72
     2
 73
     0
 90
        0
 40
-0.6
 41
-30.0
 62
     5
 63
     7
 74
     1
 91
        4
 64
     7
 65
   257
 75
     1
175
     1
 42
1.0
 92
       12
 66
     7
 43
1.0
 76
     1
 77
     6
 78
     2
 67
     7
 79
     5
170
     0
171
     0
290
     0
174
     0
 93
        1
 44
0.0
173
     0
291
     1
 45
0.0
1001
ACAD
1000
AcDbSavedByObjectVersion
1070
     0
  0
DICTIONARYVAR
  5
154
102
{ACAD_REACTORS
330
151
102
}
330
151
100
DictionaryVariables
280
     0
  1
1:1
  0
ENDSEC
  0
EOF
