  0
SECTION
  2
HEADER
  9
$ACADVER
  1
AC1015
  9
$ACADMAINTVER
 70
     6
  9
$DWGCODEPAGE
  3
ANSI_1252
  9
$INSBASE
 10
0.0
 20
0.0
 30
0.0
  9
$EXTMIN
 10
28.6330187110015
 20
249.5857785733
 30
0.0
  9
$EXTMAX
 10
219.917104809088
 20
374.407535721303
 30
0.0
  9
$LIMMIN
 10
0.0
 20
0.0
  9
$LIMMAX
 10
12.0
 20
9.0
  9
$ORTHOMODE
 70
     0
  9
$REGENMODE
 70
     1
  9
$FILLMODE
 70
     1
  9
$QTEXTMODE
 70
     0
  9
$MIRRTEXT
 70
     1
  9
$LTSCALE
 40
1.0
  9
$ATTMODE
 70
     1
  9
$TEXTSIZE
 40
0.2
  9
$TRACEWID
 40
0.05
  9
$TEXTSTYLE
  7
Standard
  9
$CLAYER
  8
0
  9
$CELTYPE
  6
ByLayer
  9
$CECOLOR
 62
   256
  9
$CELTSCALE
 40
1.0
  9
$DISPSILH
 70
     0
  9
$DIMSCALE
 40
1.0
  9
$DIMASZ
 40
0.18
  9
$DIMEXO
 40
0.0625
  9
$DIMDLI
 40
0.38
  9
$DIMRND
 40
0.0
  9
$DIMDLE
 40
0.0
  9
$DIMEXE
 40
0.18
  9
$DIMTP
 40
0.0
  9
$DIMTM
 40
0.0
  9
$DIMTXT
 40
0.18
  9
$DIMCEN
 40
0.09
  9
$DIMTSZ
 40
0.0
  9
$DIMTOL
 70
     0
  9
$DIMLIM
 70
     0
  9
$DIMTIH
 70
     1
  9
$DIMTOH
 70
     1
  9
$DIMSE1
 70
     0
  9
$DIMSE2
 70
     0
  9
$DIMTAD
 70
     0
  9
$DIMZIN
 70
     0
  9
$DIMBLK
  1

  9
$DIMASO
 70
     1
  9
$DIMSHO
 70
     1
  9
$DIMPOST
  1

  9
$DIMAPOST
  1

  9
$DIMALT
 70
     0
  9
$DIMALTD
 70
     2
  9
$DIMALTF
 40
25.4
  9
$DIMLFAC
 40
1.0
  9
$DIMTOFL
 70
     0
  9
$DIMTVP
 40
0.0
  9
$DIMTIX
 70
     0
  9
$DIMSOXD
 70
     0
  9
$DIMSAH
 70
     0
  9
$DIMBLK1
  1

  9
$DIMBLK2
  1

  9
$DIMSTYLE
  2
Standard
  9
$DIMCLRD
 70
     0
  9
$DIMCLRE
 70
     0
  9
$DIMCLRT
 70
     0
  9
$DIMTFAC
 40
1.0
  9
$DIMGAP
 40
0.09
  9
$DIMJUST
 70
     0
  9
$DIMSD1
 70
     0
  9
$DIMSD2
 70
     0
  9
$DIMTOLJ
 70
     1
  9
$DIMTZIN
 70
     0
  9
$DIMALTZ
 70
     0
  9
$DIMALTTZ
 70
     0
  9
$DIMUPT
 70
     0
  9
$DIMDEC
 70
     4
  9
$DIMTDEC
 70
     4
  9
$DIMALTU
 70
     2
  9
$DIMALTTD
 70
     2
  9
$DIMTXSTY
  7
Standard
  9
$DIMAUNIT
 70
     0
  9
$DIMADEC
 70
     0
  9
$DIMALTRND
 40
0.0
  9
$DIMAZIN
 70
     0
  9
$DIMDSEP
 70
    46
  9
$DIMATFIT
 70
     3
  9
$DIMFRAC
 70
     0
  9
$DIMLDRBLK
  1

  9
$DIMLUNIT
 70
     2
  9
$DIMLWD
 70
    -2
  9
$DIMLWE
 70
    -2
  9
$DIMTMOVE
 70
     0
  9
$LUNITS
 70
     2
  9
$LUPREC
 70
     4
  9
$SKETCHINC
 40
0.1
  9
$FILLETRAD
 40
0.5
  9
$AUNITS
 70
     0
  9
$AUPREC
 70
     0
  9
$MENU
  1
.
  9
$ELEVATION
 40
0.0
  9
$PELEVATION
 40
0.0
  9
$THICKNESS
 40
0.0
  9
$LIMCHECK
 70
     0
  9
$CHAMFERA
 40
0.5
  9
$CHAMFERB
 40
0.5
  9
$CHAMFERC
 40
1.0
  9
$CHAMFERD
 40
0.0
  9
$SKPOLY
 70
     0
  9
$TDCREATE
 40
2456748.732602338
  9
$TDUCREATE
 40
2456748.649269005
  9
$TDUPDATE
 40
2456748.732602349
  9
$TDUUPDATE
 40
2456748.649269016
  9
$TDINDWG
 40
0.0000000116
  9
$TDUSRTIMER
 40
0.0000000116
  9
$USRTIMER
 70
     1
  9
$ANGBASE
 50
0.0
  9
$ANGDIR
 70
     0
  9
$PDMODE
 70
     0
  9
$PDSIZE
 40
0.0
  9
$PLINEWID
 40
0.0
  9
$SPLFRAME
 70
     0
  9
$SPLINETYPE
 70
     6
  9
$SPLINESEGS
 70
     8
  9
$HANDSEED
  5
157
  9
$SURFTAB1
 70
     6
  9
$SURFTAB2
 70
     6
  9
$SURFTYPE
 70
     6
  9
$SURFU
 70
     6
  9
$SURFV
 70
     6
  9
$UCSBASE
  2

  9
$UCSNAME
  2

  9
$UCSORG
 10
0.0
 20
0.0
 30
0.0
  9
$UCSXDIR
 10
1.0
 20
0.0
 30
0.0
  9
$UCSYDIR
 10
0.0
 20
1.0
 30
0.0
  9
$UCSORTHOREF
  2

  9
$UCSORTHOVIEW
 70
     0
  9
$UCSORGTOP
 10
0.0
 20
0.0
 30
0.0
  9
$UCSORGBOTTOM
 10
0.0
 20
0.0
 30
0.0
  9
$UCSORGLEFT
 10
0.0
 20
0.0
 30
0.0
  9
$UCSORGRIGHT
 10
0.0
 20
0.0
 30
0.0
  9
$UCSORGFRONT
 10
0.0
 20
0.0
 30
0.0
  9
$UCSORGBACK
 10
0.0
 20
0.0
 30
0.0
  9
$PUCSBASE
  2

  9
$PUCSNAME
  2

  9
$PUCSORG
 10
0.0
 20
0.0
 30
0.0
  9
$PUCSXDIR
 10
1.0
 20
0.0
 30
0.0
  9
$PUCSYDIR
 10
0.0
 20
1.0
 30
0.0
  9
$PUCSORTHOREF
  2

  9
$PUCSORTHOVIEW
 70
     0
  9
$PUCSORGTOP
 10
0.0
 20
0.0
 30
0.0
  9
$PUCSORGBOTTOM
 10
0.0
 20
0.0
 30
0.0
  9
$PUCSORGLEFT
 10
0.0
 20
0.0
 30
0.0
  9
$PUCSORGRIGHT
 10
0.0
 20
0.0
 30
0.0
  9
$PUCSORGFRONT
 10
0.0
 20
0.0
 30
0.0
  9
$PUCSORGBACK
 10
0.0
 20
0.0
 30
0.0
  9
$USERI1
 70
     0
  9
$USERI2
 70
     0
  9
$USERI3
 70
     0
  9
$USERI4
 70
     0
  9
$USERI5
 70
     0
  9
$USERR1
 40
16.5
  9
$USERR2
 40
0.0
  9
$USERR3
 40
0.0
  9
$USERR4
 40
0.0
  9
$USERR5
 40
0.0
  9
$WORLDVIEW
 70
     1
  9
$SHADEDGE
 70
     3
  9
$SHADEDIF
 70
    70
  9
$TILEMODE
 70
     1
  9
$MAXACTVP
 70
    64
  9
$PINSBASE
 10
0.0
 20
0.0
 30
0.0
  9
$PLIMCHECK
 70
     0
  9
$PEXTMIN
 10
1.00000000000000E+20
 20
1.00000000000000E+20
 30
1.00000000000000E+20
  9
$PEXTMAX
 10
-1.00000000000000E+20
 20
-1.00000000000000E+20
 30
-1.00000000000000E+20
  9
$PLIMMIN
 10
0.0
 20
0.0
  9
$PLIMMAX
 10
12.0
 20
9.0
  9
$UNITMODE
 70
     0
  9
$VISRETAIN
 70
     1
  9
$PLINEGEN
 70
     0
  9
$PSLTSCALE
 70
     1
  9
$TREEDEPTH
 70
  3020
  9
$CMLSTYLE
  2
Standard
  9
$CMLJUST
 70
     0
  9
$CMLSCALE
 40
1.0
  9
$PROXYGRAPHICS
 70
     1
  9
$MEASUREMENT
 70
     1
  9
$CELWEIGHT
370
    -1
  9
$ENDCAPS
280
     0
  9
$JOINSTYLE
280
     0
  9
$LWDISPLAY
290
     0
  9
$INSUNITS
 70
     1
  9
$HYPERLINKBASE
  1

  9
$STYLESHEET
  1

  9
$XEDIT
290
     1
  9
$CEPSNTYPE
380
     0
  9
$PSTYLEMODE
290
     1
  9
$FINGERPRINTGUID
  2
{3FA902D3-55EB-4D97-AC5F-8E407426C2A7}
  9
$VERSIONGUID
  2
{FAEB1C32-E019-11D5-929B-00C0DF256EC4}
  9
$EXTNAMES
290
     1
  9
$PSVPSCALE
 40
0.0
  9
$OLESTARTUP
290
     0
  0
ENDSEC
  0
SECTION
  2
CLASSES
  0
CLASS
  1
ACDBDICTIONARYWDFLT
  2
AcDbDictionaryWithDefault
  3
ObjectDBX Classes
 90
        0
280
     0
281
     0
  0
CLASS
  1
VISUALSTYLE
  2
AcDbVisualStyle
  3
ObjectDBX Classes
 90
     4095
280
     0
281
     0
  0
CLASS
  1
SCALE
  2
AcDbScale
  3
ObjectDBX Classes
 90
     1153
280
     0
281
     0
  0
CLASS
  1

  2
exOdDbPolyline
  3

 90
        0
280
     0
281
     1
  0
CLASS
  1

  2
exOdDbCircle
  3

 90
        0
280
     0
281
     1
  0
CLASS
  1

  2
exOdDbSpline
  3

 90
        0
280
     0
281
     1
  0
CLASS
  1
DICTIONARYVAR
  2
AcDbDictionaryVar
  3
ObjectDBX Classes
 90
        0
280
     0
281
     0
  0
CLASS
  1
ACDBPLACEHOLDER
  2
AcDbPlaceHolder
  3
ObjectDBX Classes
 90
        0
280
     0
281
     0
  0
CLASS
  1
LAYOUT
  2
AcDbLayout
  3
ObjectDBX Classes
 90
        0
280
     0
281
     0
  0
ENDSEC
  0
SECTION
  2
TABLES
  0
TABLE
  2
VPORT
  5
8
330
0
100
AcDbSymbolTable
 70
     1
  0
VPORT
  5
29
330
8
100
AcDbSymbolTableRecord
100
AcDbViewportTableRecord
  2
*Active
 70
     0
 10
0.0
 20
0.0
 11
1.0
 21
1.0
 12
124.2750617600447
 22
311.9966571473015
 13
0.0
 23
0.0
 14
0.5
 24
0.5
 15
0.5
 25
0.5
 16
0.0
 26
0.0
 36
1.0
 17
0.0
 27
0.0
 37
0.0
 40
137.3039328628034
 41
1.60267857142857
 42
50.0
 43
0.0
 44
0.0
 50
0.0
 51
0.0
 71
     0
 72
   100
 73
     1
 74
     3
 75
     0
 76
     0
 77
     0
 78
     0
281
     0
 65
     1
110
0.0
120
0.0
130
0.0
111
1.0
121
0.0
131
0.0
112
0.0
122
1.0
132
0.0
 79
     0
146
0.0
  0
ENDTAB
  0
TABLE
  2
LTYPE
  5
5
330
0
100
AcDbSymbolTable
 70
     8
  0
LTYPE
  5
14
330
5
100
AcDbSymbolTableRecord
100
AcDbLinetypeTableRecord
  2
ByBlock
 70
     0
  3

 72
    65
 73
     0
 40
0.0
  0
LTYPE
  5
15
330
5
100
AcDbSymbolTableRecord
100
AcDbLinetypeTableRecord
  2
ByLayer
 70
     0
  3

 72
    65
 73
     0
 40
0.0
  0
LTYPE
  5
16
330
5
100
AcDbSymbolTableRecord
100
AcDbLinetypeTableRecord
  2
Continuous
 70
     0
  3
Solid line
 72
    65
 73
     0
 40
0.0
  0
LTYPE
  5
3B
330
5
100
AcDbSymbolTableRecord
100
AcDbLinetypeTableRecord
  2
DASHED
 70
     0
  3
Dashed
 72
    65
 73
     2
 40
15.0
 49
7.0
 74
     0
 49
-8.0
 74
     0
  0
LTYPE
  5
3C
330
5
100
AcDbSymbolTableRecord
100
AcDbLinetypeTableRecord
  2
DOTTED
 70
     0
  3
Dotted
 72
    65
 73
     2
 40
1.0
 49
0.0
 74
     0
 49
-1.0
 74
     0
  0
LTYPE
  5
3D
330
5
100
AcDbSymbolTableRecord
100
AcDbLinetypeTableRecord
  2
DOT_CENTER
 70
     0
  3
Dot_Center
 72
    65
 73
     4
 40
14.0
 49
12.0
 74
     0
 49
-1.0
 74
     0
 49
0.0
 74
     0
 49
-1.0
 74
     0
  0
LTYPE
  5
3E
330
5
100
AcDbSymbolTableRecord
100
AcDbLinetypeTableRecord
  2
LONG_DASHED
 70
     0
  3
Long_Dashed
 72
    65
 73
     2
 40
15.0
 49
10.0
 74
     0
 49
-5.0
 74
     0
  0
LTYPE
  5
3F
330
5
100
AcDbSymbolTableRecord
100
AcDbLinetypeTableRecord
  2
DASH_CENTER
 70
     0
  3
Dash_Center
 72
    65
 73
     4
 40
14.0
 49
11.0
 74
     0
 49
-1.0
 74
     0
 49
1.0
 74
     0
 49
-1.0
 74
     0
  0
LTYPE
  5
40
330
5
100
AcDbSymbolTableRecord
100
AcDbLinetypeTableRecord
  2
PHANTOM
 70
     0
  3
Phantom
 72
    65
 73
     6
 40
13.0
 49
10.0
 74
     0
 49
-1.0
 74
     0
 49
0.0
 74
     0
 49
-1.0
 74
     0
 49
0.0
 74
     0
 49
-1.0
 74
     0
  0
LTYPE
  5
41
330
5
100
AcDbSymbolTableRecord
100
AcDbLinetypeTableRecord
  2
CENTER_DASH_DASH
 70
     0
  3
Center_Dash_Dash
 72
    65
 73
     6
 40
14.0
 49
9.0
 74
     0
 49
-1.0
 74
     0
 49
1.0
 74
     0
 49
-1.0
 74
     0
 49
1.0
 74
     0
 49
-1.0
 74
     0
  0
ENDTAB
  0
TABLE
  2
LAYER
  5
2
330
0
100
AcDbSymbolTable
 70
     6
  0
LAYER
  5
10
330
2
100
AcDbSymbolTableRecord
100
AcDbLayerTableRecord
  2
0
 70
     0
 62
     7
  6
Continuous
370
    -3
390
F
  0
LAYER
  5
42
330
2
100
AcDbSymbolTableRecord
100
AcDbLayerTableRecord
  2
1
 70
     0
 62
     7
  6
Continuous
370
    -3
390
F
  0
LAYER
  5
43
330
2
100
AcDbSymbolTableRecord
100
AcDbLayerTableRecord
  2
BEZUGSACHSEN
 70
     0
 62
     7
  6
Continuous
370
    -3
390
F
  0
LAYER
  5
44
330
2
100
AcDbSymbolTableRecord
100
AcDbLayerTableRecord
  2
DEFAULT_2
 70
     0
 62
     7
  6
Continuous
370
    -3
390
F
  0
LAYER
  5
45
330
2
100
AcDbSymbolTableRecord
100
AcDbLayerTableRecord
  2
FASEN
 70
     0
 62
     7
  6
Continuous
370
    -3
390
F
  0
LAYER
  5
46
330
2
100
AcDbSymbolTableRecord
100
AcDbLayerTableRecord
  2
RUNDUNGEN
 70
     0
 62
     7
  6
Continuous
370
    -3
390
F
  0
ENDTAB
  0
TABLE
  2
STYLE
  5
3
330
0
100
AcDbSymbolTable
 70
     2
  0
STYLE
  5
11
330
3
100
AcDbSymbolTableRecord
100
AcDbTextStyleTableRecord
  2
Standard
 70
     0
 40
0.0
 41
1.0
 50
0.0
 71
     0
 42
0.2
  3
txt
  4

  0
STYLE
  5
6D
330
3
100
AcDbSymbolTableRecord
100
AcDbTextStyleTableRecord
  2
CONVERTER_11
 70
     0
 40
0.0
 41
0.72
 50
0.0
 71
     0
 42
0.2
  3
txt.shx
  4

  0
ENDTAB
  0
TABLE
  2
VIEW
  5
6
330
0
100
AcDbSymbolTable
 70
     0
  0
ENDTAB
  0
TABLE
  2
UCS
  5
7
330
0
100
AcDbSymbolTable
 70
     0
  0
ENDTAB
  0
TABLE
  2
APPID
  5
9
330
0
100
AcDbSymbolTable
 70
     1
  0
APPID
  5
12
330
9
100
AcDbSymbolTableRecord
100
AcDbRegAppTableRecord
  2
ACAD
 70
     0
  0
ENDTAB
  0
TABLE
  2
DIMSTYLE
  5
A
330
0
100
AcDbSymbolTable
 70
     8
100
AcDbDimStyleTable
  0
DIMSTYLE
105
27
330
A
100
AcDbSymbolTableRecord
100
AcDbDimStyleTableRecord
  2
Standard
 70
     0
340
11
  0
DIMSTYLE
105
108
102
{ACAD_REACTORS
330
109
102
}
330
A
100
AcDbSymbolTableRecord
100
AcDbDimStyleTableRecord
  2
ME10_DIM_10
 70
     0
  3
\U+2300<>
 41
3.5
 42
2.0
 44
2.0
 71
     1
 73
     0
 74
     0
 77
     1
 78
     8
140
3.5
146
0.7
147
2.0
172
     1
173
     1
176
     2
177
     2
178
     3
271
     2
272
     0
340
6D
  0
DIMSTYLE
105
113
102
{ACAD_REACTORS
330
114
102
}
330
A
100
AcDbSymbolTableRecord
100
AcDbDimStyleTableRecord
  2
ME10_DIM_11
 70
     0
  3
\U+2300<>
 41
3.5
 42
2.0
 44
2.0
 71
     1
 73
     0
 74
     0
 77
     1
 78
     8
140
3.5
146
0.7
147
2.0
172
     1
173
     1
176
     2
177
     2
178
     3
271
     2
272
     0
340
6D
  0
DIMSTYLE
105
11E
102
{ACAD_REACTORS
330
11F
102
}
330
A
100
AcDbSymbolTableRecord
100
AcDbDimStyleTableRecord
  2
ME10_DIM_12
 70
     0
  3
\U+2300<>
 41
3.5
 42
2.0
 44
2.0
 71
     1
 73
     0
 74
     0
 77
     1
 78
     8
140
3.5
146
0.7
147
2.0
172
     1
173
     1
176
     2
177
     2
178
     3
271
     2
272
     0
340
6D
  0
DIMSTYLE
105
129
102
{ACAD_REACTORS
330
12A
102
}
330
A
100
AcDbSymbolTableRecord
100
AcDbDimStyleTableRecord
  2
ME10_DIM_13
 70
     0
  3
<>
 41
3.5
 42
2.0
 44
2.0
 71
     1
 73
     0
 74
     0
 77
     1
 78
     8
140
3.5
146
0.7
147
2.0
172
     1
173
     1
176
     2
177
     2
178
     3
271
     2
272
     0
340
6D
  0
DIMSTYLE
105
134
102
{ACAD_REACTORS
330
135
102
}
330
A
100
AcDbSymbolTableRecord
100
AcDbDimStyleTableRecord
  2
ME10_DIM_14
 70
     0
  3
<>
 41
3.5
 42
2.0
 44
2.0
 71
     1
 73
     0
 74
     0
 77
     1
 78
     8
140
3.5
146
0.7
147
2.0
172
     1
173
     1
176
     2
177
     2
178
     3
271
     2
272
     0
340
6D
  0
DIMSTYLE
105
13F
102
{ACAD_REACTORS
330
140
102
}
330
A
100
AcDbSymbolTableRecord
100
AcDbDimStyleTableRecord
  2
ME10_DIM_15
 70
     0
  3
<>
 41
3.5
 42
2.0
 44
2.0
 71
     1
 73
     0
 74
     0
 77
     1
 78
     8
140
3.5
146
0.7
147
2.0
172
     1
173
     1
176
     2
177
     2
178
     3
271
     2
272
     0
340
6D
  0
DIMSTYLE
105
151
102
{ACAD_REACTORS
330
152
102
}
330
A
100
AcDbSymbolTableRecord
100
AcDbDimStyleTableRecord
  2
ME10_DIM_16
 70
     0
  3
<>
 41
3.5
 42
2.0
 44
2.0
 71
     1
 73
     0
 74
     0
 77
     1
 78
     8
140
3.5
146
0.7
147
2.0
172
     1
173
     1
176
     2
177
     2
178
     3
271
     2
272
     0
340
6D
  0
ENDTAB
  0
TABLE
  2
BLOCK_RECORD
  5
1
330
0
100
AcDbSymbolTable
 70
    10
  0
BLOCK_RECORD
  5
1F
330
1
100
AcDbSymbolTableRecord
100
AcDbBlockTableRecord
  2
*Model_Space
340
22
  0
BLOCK_RECORD
  5
1B
330
1
100
AcDbSymbolTableRecord
100
AcDbBlockTableRecord
  2
*Paper_Space
340
1E
  0
BLOCK_RECORD
  5
23
330
1
100
AcDbSymbolTableRecord
100
AcDbBlockTableRecord
  2
*Paper_Space0
340
26
  0
BLOCK_RECORD
  5
47
330
1
100
AcDbSymbolTableRecord
100
AcDbBlockTableRecord
  2
Urheberrecht_DE-EN
340
0
102
{BLKREFS
331
6C
102
}
  0
BLOCK_RECORD
  5
FD
330
1
100
AcDbSymbolTableRecord
100
AcDbBlockTableRecord
  2
*D2
340
0
  0
BLOCK_RECORD
  5
10A
330
1
100
AcDbSymbolTableRecord
100
AcDbBlockTableRecord
  2
*D3
340
0
  0
BLOCK_RECORD
  5
115
330
1
100
AcDbSymbolTableRecord
100
AcDbBlockTableRecord
  2
*D4
340
0
  0
BLOCK_RECORD
  5
120
330
1
100
AcDbSymbolTableRecord
100
AcDbBlockTableRecord
  2
*D5
340
0
  0
BLOCK_RECORD
  5
12B
330
1
100
AcDbSymbolTableRecord
100
AcDbBlockTableRecord
  2
*D6
340
0
  0
BLOCK_RECORD
  5
136
330
1
100
AcDbSymbolTableRecord
100
AcDbBlockTableRecord
  2
*D7
340
0
  0
BLOCK_RECORD
  5
141
330
1
100
AcDbSymbolTableRecord
100
AcDbBlockTableRecord
  2
*D8
340
0
102
{BLKREFS
331
147
102
}
  0
BLOCK_RECORD
  5
148
330
1
100
AcDbSymbolTableRecord
100
AcDbBlockTableRecord
  2
*D9
340
0
  0
ENDTAB
  0
ENDSEC
  0
SECTION
  2
BLOCKS
  0
BLOCK
  5
20
330
1F
100
AcDbEntity
  8
0
100
AcDbBlockBegin
  2
*Model_Space
 70
     0
 10
0.0
 20
0.0
 30
0.0
  3
*Model_Space
  1

  0
ENDBLK
  5
21
330
1F
100
AcDbEntity
  8
0
100
AcDbBlockEnd
  0
BLOCK
  5
1C
330
1B
100
AcDbEntity
 67
     1
  8
0
100
AcDbBlockBegin
  2
*Paper_Space
 70
     0
 10
0.0
 20
0.0
 30
0.0
  3
*Paper_Space
  1

  0
ENDBLK
  5
1D
330
1B
100
AcDbEntity
 67
     1
  8
0
100
AcDbBlockEnd
  0
BLOCK
  5
24
330
23
100
AcDbEntity
  8
0
100
AcDbBlockBegin
  2
*Paper_Space0
 70
     0
 10
0.0
 20
0.0
 30
0.0
  3
*Paper_Space0
  1

  0
ENDBLK
  5
25
330
23
100
AcDbEntity
  8
0
100
AcDbBlockEnd
  0
BLOCK
  5
48
330
47
100
AcDbEntity
  8
0
100
AcDbBlockBegin
  2
Urheberrecht_DE-EN
 70
     0
 10
42.6330187110015
 20
314.481600382698
 30
0.0
  3
Urheberrecht_DE-EN
  1

  0
MTEXT
  5
6E
330
47
100
AcDbEntity
  8
1
 62
     1
100
AcDbMText
 10
42.6330187110015
 20
314.481600382698
 30
0.0
 40
2.0
 41
0.0
 71
     7
 72
     1
  1
We own the copyright of this document. It \Pdetermined and may neither be copied or \Pmade accessible to outsiders without our\Ppermission.
  7
CONVERTER_11
 11
0.0
 21
1.0
 31
0.0
 73
     1
 44
0.90036014405762
  0
MTEXT
  5
6F
330
47
100
AcDbEntity
  8
1
 62
     1
100
AcDbMText
 10
42.6330187110015
 20
258.1922134653918
 30
0.0
 40
2.0
 41
0.0
 71
     7
 72
     1
  1
F\U+00fcr diese Unterlage behalten wir das Ur-\Pheberrecht. Sie darf nur f\U+00fcr den von uns \Pbestimmten Zweck benutzt und ohne unsere \PZustimmung weder vervielf\U+00e4ltigt noch\PDritten zug\U+00e4nglich gemacht werden.
  7
CONVERTER_11
 11
0.0
 21
1.0
 31
0.0
 73
     1
 44
0.90036014405762
  0
ENDBLK
  5
49
330
47
100
AcDbEntity
  8
0
100
AcDbBlockEnd
  0
BLOCK
  5
106
330
FD
100
AcDbEntity
  8
0
100
AcDbBlockBegin
  2
*D2
 70
     1
 10
0.0
 20
0.0
 30
0.0
  3
*D2
  1

  0
LINE
  5
FE
330
FD
100
AcDbEntity
  8
1
  6
Continuous
 62
     2
100
AcDbLine
 10
200.100703784191
 20
310.5857785733
 30
0.0
 11
200.100703784191
 21
303.5857785733
 31
0.0
  0
LINE
  5
FF
330
FD
100
AcDbEntity
  8
1
  6
Continuous
 62
     2
100
AcDbLine
 10
200.100703784191
 20
303.5857785733
 30
0.0
 11
200.100703784191
 21
295.5857785733
 31
0.0
  0
LINE
  5
100
330
FD
100
AcDbEntity
  8
1
  6
Continuous
 62
     2
100
AcDbLine
 10
200.100703784191
 20
295.5857785733
 30
0.0
 11
200.100703784191
 21
288.5857785733
 31
0.0
  0
LINE
  5
101
330
FD
100
AcDbEntity
  8
1
  6
Continuous
 62
     2
100
AcDbLine
 10
191.1698340471
 20
303.5857785733
 30
0.0
 11
202.100703784191
 21
303.5857785733
 31
0.0
  0
LINE
  5
102
330
FD
100
AcDbEntity
  8
1
  6
Continuous
 62
     2
100
AcDbLine
 10
191.1698340471
 20
295.5857785733
 30
0.0
 11
202.100703784191
 21
295.5857785733
 31
0.0
  0
SOLID
  5
103
330
FD
100
AcDbEntity
  8
1
 62
     2
100
AcDbTrace
 10
199.6399200426351
 20
307.0857785733
 30
0.0
 11
200.5614875257469
 21
307.0857785733
 31
0.0
 12
200.100703784191
 22
303.5857785733
 32
0.0
 13
200.100703784191
 23
303.5857785733
 33
0.0
  0
SOLID
  5
104
330
FD
100
AcDbEntity
  8
1
 62
     2
100
AcDbTrace
 10
200.5614875257469
 20
292.0857785733
 30
0.0
 11
199.6399200426351
 21
292.0857785733
 31
0.0
 12
200.100703784191
 22
295.5857785733
 32
0.0
 13
200.100703784191
 23
295.5857785733
 33
0.0
  0
MTEXT
  5
105
330
FD
100
AcDbEntity
  8
1
 62
     3
100
AcDbMText
 10
198.100703784191
 20
292.18815011662
 30
0.0
 40
3.5
 41
0.0
 71
     7
 72
     1
  1
\C3;%%c\C3;\C3;8\C2;\H2.45;\S^ ;\C3;
  7
CONVERTER_11
 11
0.0
 21
1.0
 31
0.0
 73
     1
 44
0.60024009603842
  0
ENDBLK
  5
107
330
FD
100
AcDbEntity
  8
0
100
AcDbBlockEnd
  0
BLOCK
  5
111
330
10A
100
AcDbEntity
  8
0
100
AcDbBlockBegin
  2
*D3
 70
     1
 10
0.0
 20
0.0
 30
0.0
  3
*D3
  1

  0
LINE
  5
10B
330
10A
100
AcDbEntity
  8
1
  6
Continuous
 62
     2
100
AcDbLine
 10
209.396217362398
 20
310.0857785733466
 30
0.0
 11
209.396217362398
 21
289.0857785733486
 31
0.0
  0
LINE
  5
10C
330
10A
100
AcDbEntity
  8
1
  6
Continuous
 62
     2
100
AcDbLine
 10
191.1698340471
 20
310.0857785733466
 30
0.0
 11
211.396217362398
 21
310.0857785733466
 31
0.0
  0
LINE
  5
10D
330
10A
100
AcDbEntity
  8
1
  6
Continuous
 62
     2
100
AcDbLine
 10
191.1698340471
 20
289.0857785733486
 30
0.0
 11
211.396217362398
 21
289.0857785733486
 31
0.0
  0
SOLID
  5
10E
330
10A
100
AcDbEntity
  8
1
 62
     2
100
AcDbTrace
 10
209.8570011039539
 20
306.5857785733466
 30
0.0
 11
208.9354336208421
 21
306.5857785733466
 31
0.0
 12
209.396217362398
 22
310.0857785733466
 32
0.0
 13
209.396217362398
 23
310.0857785733466
 33
0.0
  0
SOLID
  5
10F
330
10A
100
AcDbEntity
  8
1
 62
     2
100
AcDbTrace
 10
208.9354336208421
 20
292.5857785733486
 30
0.0
 11
209.8570011039539
 21
292.5857785733486
 31
0.0
 12
209.396217362398
 22
289.0857785733486
 32
0.0
 13
209.396217362398
 23
289.0857785733486
 33
0.0
  0
MTEXT
  5
110
330
10A
100
AcDbEntity
  8
1
 62
     3
100
AcDbMText
 10
207.396217362398
 20
290.960837050861
 30
0.0
 40
3.5
 41
0.0
 71
     7
 72
     1
  1
\C3;%%c\C3;\C3;21\C2;\H2.45;\S^ ;\C3;
  7
CONVERTER_11
 11
0.0
 21
1.0
 31
0.0
 73
     1
 44
0.60024009603842
  0
ENDBLK
  5
112
330
10A
100
AcDbEntity
  8
0
100
AcDbBlockEnd
  0
BLOCK
  5
11C
330
115
100
AcDbEntity
  8
0
100
AcDbBlockBegin
  2
*D4
 70
     1
 10
0.0
 20
0.0
 30
0.0
  3
*D4
  1

  0
LINE
  5
116
330
115
100
AcDbEntity
  8
1
  6
Continuous
 62
     2
100
AcDbLine
 10
217.917104809088
 20
313.0857785733
 30
0.0
 11
217.917104809088
 21
286.0857785733
 31
0.0
  0
LINE
  5
117
330
115
100
AcDbEntity
  8
1
  6
Continuous
 62
     2
100
AcDbLine
 10
153.0512198386
 20
313.0857785733
 30
0.0
 11
219.917104809088
 21
313.0857785733
 31
0.0
  0
LINE
  5
118
330
115
100
AcDbEntity
  8
1
  6
Continuous
 62
     2
100
AcDbLine
 10
153.0512198386
 20
286.0857785733
 30
0.0
 11
219.917104809088
 21
286.0857785733
 31
0.0
  0
SOLID
  5
119
330
115
100
AcDbEntity
  8
1
 62
     2
100
AcDbTrace
 10
218.3778885506439
 20
309.5857785733
 30
0.0
 11
217.4563210675321
 21
309.5857785733
 31
0.0
 12
217.917104809088
 22
313.0857785733
 32
0.0
 13
217.917104809088
 23
313.0857785733
 33
0.0
  0
SOLID
  5
11A
330
115
100
AcDbEntity
  8
1
 62
     2
100
AcDbTrace
 10
217.4563210675321
 20
289.5857785733
 30
0.0
 11
218.3778885506439
 21
289.5857785733
 31
0.0
 12
217.917104809088
 22
286.0857785733
 32
0.0
 13
217.917104809088
 23
286.0857785733
 33
0.0
  0
MTEXT
  5
11B
330
115
100
AcDbEntity
  8
1
 62
     3
100
AcDbMText
 10
215.917104809088
 20
290.92815011662
 30
0.0
 40
3.5
 41
0.0
 71
     7
 72
     1
  1
\C3;%%c\C3;\C3;27\C2;\H2.45;\S^ ;\C3;
  7
CONVERTER_11
 11
0.0
 21
1.0
 31
0.0
 73
     1
 44
0.60024009603842
  0
ENDBLK
  5
11D
330
115
100
AcDbEntity
  8
0
100
AcDbBlockEnd
  0
BLOCK
  5
127
330
120
100
AcDbEntity
  8
0
100
AcDbBlockBegin
  2
*D5
 70
     1
 10
0.0
 20
0.0
 30
0.0
  3
*D5
  1

  0
LINE
  5
121
330
120
100
AcDbEntity
  8
1
  6
Continuous
 62
     2
100
AcDbLine
 10
189.1698340471
 20
354.696319271778
 30
0.0
 11
133.1698340471
 21
354.696319271778
 31
0.0
  0
LINE
  5
122
330
120
100
AcDbEntity
  8
1
  6
Continuous
 62
     2
100
AcDbLine
 10
189.1698340471
 20
312.0857785733466
 30
0.0
 11
189.1698340471
 21
356.696319271778
 31
0.0
  0
LINE
  5
123
330
120
100
AcDbEntity
  8
1
  6
Continuous
 62
     2
100
AcDbLine
 10
133.1698340471
 20
351.5857416522
 30
0.0
 11
133.1698340471
 21
356.696319271778
 31
0.0
  0
SOLID
  5
124
330
120
100
AcDbEntity
  8
1
 62
     2
100
AcDbTrace
 10
185.6698340471
 20
354.2355355302221
 30
0.0
 11
185.6698340471
 21
355.1571030133339
 31
0.0
 12
189.1698340471
 22
354.696319271778
 32
0.0
 13
189.1698340471
 23
354.696319271778
 33
0.0
  0
SOLID
  5
125
330
120
100
AcDbEntity
  8
1
 62
     2
100
AcDbTrace
 10
136.6698340471
 20
355.1571030133339
 30
0.0
 11
136.6698340471
 21
354.2355355302221
 31
0.0
 12
133.1698340471
 22
354.696319271778
 32
0.0
 13
133.1698340471
 23
354.696319271778
 33
0.0
  0
MTEXT
  5
126
330
120
100
AcDbEntity
  8
1
 62
     3
100
AcDbMText
 10
159.665343841058
 20
356.696319271778
 30
0.0
 40
3.5
 41
0.0
 71
     7
 72
     1
  1
\C3;\C3;\C3;56\C2;\H2.45;\S^ ;\C3;
  7
CONVERTER_11
 11
0.9999999999970619
 21
2.424068405545306E-6
 31
0.0
 73
     1
 44
0.60024009603842
  0
ENDBLK
  5
128
330
120
100
AcDbEntity
  8
0
100
AcDbBlockEnd
  0
BLOCK
  5
132
330
12B
100
AcDbEntity
  8
0
100
AcDbBlockBegin
  2
*D6
 70
     1
 10
0.0
 20
0.0
 30
0.0
  3
*D6
  1

  0
LINE
  5
12C
330
12B
100
AcDbEntity
  8
1
  6
Continuous
 62
     2
100
AcDbLine
 10
189.1698340471
 20
361.801927496541
 30
0.0
 11
104.1698340471
 21
361.801927496541
 31
0.0
  0
LINE
  5
12D
330
12B
100
AcDbEntity
  8
1
  6
Continuous
 62
     2
100
AcDbLine
 10
189.1698340471
 20
312.0857785733466
 30
0.0
 11
189.1698340471
 21
363.801927496541
 31
0.0
  0
LINE
  5
12E
330
12B
100
AcDbEntity
  8
1
  6
Continuous
 62
     2
100
AcDbLine
 10
104.1698340471
 20
351.5857785733
 30
0.0
 11
104.1698340471
 21
363.801927496541
 31
0.0
  0
SOLID
  5
12F
330
12B
100
AcDbEntity
  8
1
 62
     2
100
AcDbTrace
 10
185.6698340471
 20
361.3411437549851
 30
0.0
 11
185.6698340471
 21
362.2627112380969
 31
0.0
 12
189.1698340471
 22
361.801927496541
 32
0.0
 13
189.1698340471
 23
361.801927496541
 33
0.0
  0
SOLID
  5
130
330
12B
100
AcDbEntity
  8
1
 62
     2
100
AcDbTrace
 10
107.6698340471
 20
362.2627112380969
 30
0.0
 11
107.6698340471
 21
361.3411437549851
 31
0.0
 12
104.1698340471
 22
361.801927496541
 32
0.0
 13
104.1698340471
 23
361.801927496541
 33
0.0
  0
MTEXT
  5
131
330
12B
100
AcDbEntity
  8
1
 62
     3
100
AcDbMText
 10
146.058860006407
 20
363.801927496541
 30
0.0
 40
3.5
 41
0.0
 71
     7
 72
     1
  1
\C3;\C3;\C3;85\C2;\H2.45;\S^ ;\C3;
  7
CONVERTER_11
 11
0.9999999999970619
 21
2.424068405545306E-6
 31
0.0
 73
     1
 44
0.60024009603842
  0
ENDBLK
  5
133
330
12B
100
AcDbEntity
  8
0
100
AcDbBlockEnd
  0
BLOCK
  5
13D
330
136
100
AcDbEntity
  8
0
100
AcDbBlockBegin
  2
*D7
 70
     1
 10
0.0
 20
0.0
 30
0.0
  3
*D7
  1

  0
LINE
  5
137
330
136
100
AcDbEntity
  8
1
  6
Continuous
 62
     2
100
AcDbLine
 10
189.1698340471
 20
368.907535721303
 30
0.0
 11
54.1698340471
 21
368.907535721303
 31
0.0
  0
LINE
  5
138
330
136
100
AcDbEntity
  8
1
  6
Continuous
 62
     2
100
AcDbLine
 10
189.1698340471
 20
312.0857785733466
 30
0.0
 11
189.1698340471
 21
370.907535721303
 31
0.0
  0
LINE
  5
139
330
136
100
AcDbEntity
  8
1
  6
Continuous
 62
     2
100
AcDbLine
 10
54.1698340471
 20
335.1859701359
 30
0.0
 11
54.1698340471
 21
370.907535721303
 31
0.0
  0
SOLID
  5
13A
330
136
100
AcDbEntity
  8
1
 62
     2
100
AcDbTrace
 10
185.6698340471
 20
368.4467519797471
 30
0.0
 11
185.6698340471
 21
369.3683194628589
 31
0.0
 12
189.1698340471
 22
368.907535721303
 32
0.0
 13
189.1698340471
 23
368.907535721303
 33
0.0
  0
SOLID
  5
13B
330
136
100
AcDbEntity
  8
1
 62
     2
100
AcDbTrace
 10
57.6698340471
 20
369.3683194628589
 30
0.0
 11
57.6698340471
 21
368.4467519797471
 31
0.0
 12
54.1698340471
 22
368.907535721303
 32
0.0
 13
54.1698340471
 23
368.907535721303
 33
0.0
  0
MTEXT
  5
13C
330
136
100
AcDbEntity
  8
1
 62
     3
100
AcDbMText
 10
122.541386948655
 20
370.907535721303
 30
0.0
 40
3.5
 41
0.0
 71
     7
 72
     1
  1
\C3;\C3;\C3;135\C2;\H2.45;\S^ ;\C3;
  7
CONVERTER_11
 11
0.9999999999970619
 21
2.424068405545306E-6
 31
0.0
 73
     1
 44
0.60024009603842
  0
ENDBLK
  5
13E
330
136
100
AcDbEntity
  8
0
100
AcDbBlockEnd
  0
BLOCK
  5
145
330
141
100
AcDbEntity
  8
0
100
AcDbBlockBegin
  2
*D8
 70
     1
 10
0.0
 20
0.0
 30
0.0
  3
*D8
  1

  0
LINE
  5
142
330
141
100
AcDbEntity
  8
1
  6
Continuous
 62
     2
100
AcDbLine
 10
143.9601684332102
 20
322.6585876470421
 30
0.0
 11
134.3602406442955
 21
315.4986054105296
 31
0.0
  0
SOLID
  5
143
330
141
100
AcDbEntity
  8
1
 62
     2
100
AcDbTrace
 10
136.8903516173398
 20
317.9604868293968
 30
0.0
 11
137.4413219745232
 21
317.2217593482279
 31
0.0
 12
134.3602406442955
 22
315.4986054105296
 32
0.0
 13
134.3602406442955
 23
315.4986054105296
 33
0.0
  0
MTEXT
  5
144
330
141
100
AcDbEntity
  8
1
 62
     3
100
AcDbMText
 10
136.8165802041519
 20
319.8256479700177
 30
0.0
 40
3.5
 41
0.0
 71
     7
 72
     1
  1
\C3; R\C3;\C3;6\C2;\H2.45;\S^ ;\C3;
  7
CONVERTER_11
 11
0.8015989004674176
 21
0.5978621937950479
 31
0.0
 73
     1
 44
0.60024009603842
  0
ENDBLK
  5
146
330
141
100
AcDbEntity
  8
0
100
AcDbBlockEnd
  0
BLOCK
  5
14F
330
148
100
AcDbEntity
  8
0
100
AcDbBlockBegin
  2
*D9
 70
     1
 10
0.0
 20
0.0
 30
0.0
  3
*D9
  1

  0
LINE
  5
149
330
148
100
AcDbEntity
  8
1
  6
Continuous
 62
     2
100
AcDbLine
 10
173.6568154667576
 20
313.0857785733
 30
0.0
 11
175.6568154667576
 21
313.0857785733
 31
0.0
  0
LINE
  5
14A
330
148
100
AcDbEntity
  8
1
  6
Continuous
 62
     2
100
AcDbLine
 10
153.0512198386
 20
313.0857785733
 30
0.0
 11
173.6568154667576
 21
313.0857785733
 31
0.0
  0
ARC
  5
14B
330
148
100
AcDbEntity
  8
1
  6
Continuous
 62
     2
100
AcDbCircle
 10
151.0512198386
 20
313.0857785733
 30
0.0
 40
22.60559562815758
100
AcDbArc
 50
342.1934343429431
 51
26.58982656228595
  0
SOLID
  5
14C
330
148
100
AcDbEntity
  8
1
 62
     2
100
AcDbTrace
 10
173.4986914885568
 20
307.783070572391
 30
0.0
 11
172.5883083700478
 21
307.9262110749146
 31
0.0
 12
173.5871299596731
 22
311.3121639819381
 32
0.0
 13
173.5871299596731
 23
311.3121639819381
 33
0.0
  0
SOLID
  5
14D
330
148
100
AcDbEntity
  8
1
 62
     2
100
AcDbTrace
 10
172.9267317140134
 20
316.5396603562308
 30
0.0
 11
173.8455390995831
 21
316.6109317681123
 31
0.0
 12
173.6568154667576
 22
313.0857785733
 32
0.0
 13
173.6568154667576
 23
313.0857785733
 33
0.0
  0
MTEXT
  5
14E
330
148
100
AcDbEntity
  8
1
 62
     3
100
AcDbMText
 10
173.2802868193574
 20
324.2123298081351
 30
0.0
 40
3.5
 41
0.0
 71
     7
 72
     1
  1
\C3;\C3;\C3;4.5%%d\C2;\H2.45;\S^ ;\C3;
  7
CONVERTER_11
 11
0.3158855784273363
 21
-0.9487972920184938
 31
0.0
 73
     1
 44
0.60024009603842
  0
ENDBLK
  5
150
330
148
100
AcDbEntity
  8
0
100
AcDbBlockEnd
  0
ENDSEC
  0
SECTION
  2
ENTITIES
  0
INSERT
  5
6C
330
1F
100
AcDbEntity
  8
0
100
AcDbBlockReference
  2
Urheberrecht_DE-EN
 10
42.6330187110015
 20
314.481600382698
 30
0.0
  0
LINE
  5
70
330
1F
100
AcDbEntity
  8
BEZUGSACHSEN
  6
Continuous
 62
     7
100
AcDbLine
 10
54.1698340471
 20
265.9855870104
 30
0.0
 11
54.1698340471
 21
287.5757785733
 31
0.0
  0
LINE
  5
71
330
1F
100
AcDbEntity
  8
BEZUGSACHSEN
  6
Continuous
 62
     7
100
AcDbLine
 10
54.1698340471
 20
311.5957785733
 30
0.0
 11
54.1698340471
 21
333.1859701359
 31
0.0
  0
LINE
  5
72
330
1F
100
AcDbEntity
  8
BEZUGSACHSEN
  6
Continuous
 62
     9
100
AcDbLine
 10
56.0697595624
 20
335.1834648417
 30
0.0
 11
56.0697595624
 21
315.2623109596
 31
0.0
  0
LINE
  5
73
330
1F
100
AcDbEntity
  8
BEZUGSACHSEN
  6
Continuous
 62
     9
100
AcDbLine
 10
56.0697595624
 20
283.9092461871
 30
0.0
 11
56.0697595624
 21
263.988092305
 31
0.0
  0
LINE
  5
74
330
1F
100
AcDbEntity
  8
BEZUGSACHSEN
  6
Continuous
 62
     7
100
AcDbLine
 10
56.1698340471
 20
287.182138625
 30
0.0
 11
56.1698340471
 21
289.5757785733
 31
0.0
  0
LINE
  5
75
330
1F
100
AcDbEntity
  8
BEZUGSACHSEN
  6
Continuous
 62
     7
100
AcDbLine
 10
56.1698340471
 20
309.5957785733
 30
0.0
 11
56.1698340471
 21
311.9894185217
 31
0.0
  0
LINE
  5
76
330
1F
100
AcDbEntity
  8
BEZUGSACHSEN
  6
Continuous
 62
     9
100
AcDbLine
 10
62.1698340471
 20
283.2271309859
 30
0.0
 11
62.1698340471
 21
289.5757785733
 31
0.0
  0
LINE
  5
77
330
1F
100
AcDbEntity
  8
BEZUGSACHSEN
  6
Continuous
 62
     9
100
AcDbLine
 10
62.1698340471
 20
309.5957785733
 30
0.0
 11
62.1698340471
 21
315.9444261608
 31
0.0
  0
LINE
  5
78
330
1F
100
AcDbEntity
  8
BEZUGSACHSEN
  6
Continuous
 62
     7
100
AcDbLine
 10
64.1698340471
 20
312.4554340991
 30
0.0
 11
64.1698340471
 21
286.7161230476
 31
0.0
  0
LINE
  5
79
330
1F
100
AcDbEntity
  8
BEZUGSACHSEN
  6
Continuous
 62
     7
100
AcDbLine
 10
55.4367869741
 20
284.5757785733
 30
0.0
 11
55.3156767227
 21
284.3434425779
 31
0.0
  0
LINE
  5
7A
330
1F
100
AcDbEntity
  8
BEZUGSACHSEN
  6
Continuous
 62
     7
100
AcDbLine
 10
120.9222387829
 20
249.5857785733
 30
0.0
 11
104.1698340471
 21
249.5857785733
 31
0.0
  0
LINE
  5
7B
330
1F
100
AcDbEntity
  8
BEZUGSACHSEN
  6
Continuous
 62
     7
100
AcDbLine
 10
127.4174293113
 20
249.5857785733
 30
0.0
 11
133.1698340471
 21
249.5857785733
 31
0.0
  0
LINE
  5
7C
330
1F
100
AcDbEntity
  8
BEZUGSACHSEN
  6
Continuous
 62
     7
100
AcDbLine
 10
55.3156767227
 20
314.8281145688
 30
0.0
 11
55.4367869741
 21
314.5957785733
 31
0.0
  0
LINE
  5
7D
330
1F
100
AcDbEntity
  8
BEZUGSACHSEN
  6
Continuous
 62
     7
100
AcDbLine
 10
123.2948340471
 20
253.5857785733
 30
0.0
 11
125.0448340471
 21
253.5857785733
 31
0.0
  0
LINE
  5
7E
330
1F
100
AcDbEntity
  8
BEZUGSACHSEN
  6
Continuous
 62
     7
100
AcDbLine
 10
54.1698340471
 20
287.5757785733
 30
0.0
 11
56.1698340471
 21
289.5757785733
 31
0.0
  0
LINE
  5
7F
330
1F
100
AcDbEntity
  8
FASEN
  6
Continuous
 62
     7
100
AcDbLine
 10
109.5713200115
 20
260.7560219426
 30
0.0
 11
120.9222387829
 21
260.7560219426
 31
0.0
  0
LINE
  5
80
330
1F
100
AcDbEntity
  8
0
  6
Continuous
 62
     7
100
AcDbLine
 10
127.4174293113
 20
260.7560219426
 30
0.0
 11
133.1698340471
 21
260.7560219426
 31
0.0
  0
LINE
  5
81
330
1F
100
AcDbEntity
  8
BEZUGSACHSEN
  6
Continuous
 62
     7
100
AcDbLine
 10
101.6698340471
 20
261.7035285733
 30
0.0
 11
56.0697595624
 21
263.988092305
 31
0.0
  0
LINE
  5
82
330
1F
100
AcDbEntity
  8
BEZUGSACHSEN
  6
Continuous
 62
     7
100
AcDbLine
 10
56.1698340471
 20
309.5957785733
 30
0.0
 11
54.1698340471
 21
311.5957785733
 31
0.0
  0
LINE
  5
83
330
1F
100
AcDbEntity
  8
BEZUGSACHSEN
  6
Continuous
 62
     7
100
AcDbLine
 10
103.4692627584
 20
261.9035285733
 30
0.0
 11
102.5478967062
 21
261.9035285733
 31
0.0
  0
LINE
  5
84
330
1F
100
AcDbEntity
  8
0
  6
Continuous
 62
     7
100
AcDbLine
 10
123.2948340471
 20
266.0633979896
 30
0.0
 11
125.0448340471
 21
266.0633979896
 31
0.0
  0
LWPOLYLINE
  5
85
330
1F
100
AcDbEntity
  8
BEZUGSACHSEN
  6
DOT_CENTER
 62
     7
100
AcDbPolyline
 90
        2
 70
     0
 43
0.25
 10
89.1698340471
 20
299.5857785733
 10
89.1698340471
 20
290.5857785733
  0
LWPOLYLINE
  5
86
330
1F
100
AcDbEntity
  8
BEZUGSACHSEN
  6
DOT_CENTER
 62
     7
100
AcDbPolyline
 90
        2
 70
     0
 43
0.25
 10
89.1698340471
 20
299.5857785733
 10
89.1698340471
 20
308.5857785733
  0
LINE
  5
87
330
1F
100
AcDbEntity
  8
BEZUGSACHSEN
  6
Continuous
 62
     7
100
AcDbLine
 10
102.2890776611
 20
261.8694543996
 30
0.0
 11
101.6698340471
 21
261.7035285733
 31
0.0
  0
LINE
  5
88
330
1F
100
AcDbEntity
  8
FASEN
  6
Continuous
 62
     7
100
AcDbLine
 10
117.141707969
 20
267.6857785733
 30
0.0
 11
133.1698340471
 21
267.6857785733
 31
0.0
  0
LINE
  5
89
330
1F
100
AcDbEntity
  8
0
  6
Continuous
 62
     7
100
AcDbLine
 10
117.141707969
 20
268.0857785733
 30
0.0
 11
133.1698340471
 21
268.0857785733
 31
0.0
  0
LINE
  5
8A
330
1F
100
AcDbEntity
  8
BEZUGSACHSEN
  6
Continuous
 62
     7
100
AcDbLine
 10
101.6698340471
 20
337.4680285733
 30
0.0
 11
101.6698340471
 21
261.7035285733
 31
0.0
  0
LINE
  5
8B
330
1F
100
AcDbEntity
  8
BEZUGSACHSEN
  6
Continuous
 62
     9
100
AcDbLine
 10
102.2890776611
 20
261.8694543996
 30
0.0
 11
102.2890776611
 21
337.3021027471
 31
0.0
  0
LINE
  5
8C
330
1F
100
AcDbEntity
  8
BEZUGSACHSEN
  6
Continuous
 62
     9
100
AcDbLine
 10
102.5478967062
 20
261.9035285733
 30
0.0
 11
102.5478967062
 21
337.2680285733
 31
0.0
  0
LINE
  5
8D
330
1F
100
AcDbEntity
  8
BEZUGSACHSEN
  6
Continuous
 62
     9
100
AcDbLine
 10
103.4692627584
 20
261.9035285733
 30
0.0
 11
103.4692627584
 21
337.2680285733
 31
0.0
  0
LINE
  5
8E
330
1F
100
AcDbEntity
  8
BEZUGSACHSEN
  6
Continuous
 62
     7
100
AcDbLine
 10
104.1698340471
 20
349.5857785733
 30
0.0
 11
104.1698340471
 21
249.5857785733
 31
0.0
  0
LINE
  5
8F
330
1F
100
AcDbEntity
  8
BEZUGSACHSEN
  6
Continuous
 62
     7
100
AcDbLine
 10
126.0448340471
 20
347.2083738375
 30
0.0
 11
127.4174293113
 21
349.5857785733
 31
0.0
  0
LINE
  5
90
330
1F
100
AcDbEntity
  8
BEZUGSACHSEN
  6
Continuous
 62
     9
100
AcDbLine
 10
54.1698340471
 20
286.1395946043
 30
0.0
 11
56.1698340471
 21
287.182138625
 31
0.0
  0
LINE
  5
91
330
1F
100
AcDbEntity
  8
BEZUGSACHSEN
  6
Continuous
 62
     9
100
AcDbLine
 10
56.1698340471
 20
311.9894185217
 30
0.0
 11
54.1698340471
 21
313.0319625424
 31
0.0
  0
LINE
  5
92
330
1F
100
AcDbEntity
  8
BEZUGSACHSEN
  6
Continuous
 62
     7
100
AcDbLine
 10
126.0448340471
 20
251.9631833091
 30
0.0
 11
127.4174293113
 21
249.5857785733
 31
0.0
  0
LWPOLYLINE
  5
93
330
1F
100
AcDbEntity
  8
BEZUGSACHSEN
  6
DOT_CENTER
 62
     7
100
AcDbPolyline
 90
        2
 70
     0
 43
0.25
 10
111.1698340471
 20
341.7351504287
 10
111.1698340471
 20
352.5857785733
  0
LINE
  5
94
330
1F
100
AcDbEntity
  8
RUNDUNGEN
  6
Continuous
 62
     7
100
AcDbLine
 10
188.2482931428
 20
289.0132517313
 30
0.0
 11
151.0512198386
 21
286.0857785733
 31
0.0
  0
LINE
  5
95
330
1F
100
AcDbEntity
  8
0
  6
Continuous
 62
     7
100
AcDbLine
 10
151.0512198386
 20
286.0857785733
 30
0.0
 11
188.2482931428
 21
289.0132517313
 31
0.0
  0
LINE
  5
96
330
1F
100
AcDbEntity
  8
BEZUGSACHSEN
  6
Continuous
 62
     9
100
AcDbLine
 10
63.723679994
 20
284.5757785733
 30
0.0
 11
55.4367869741
 21
284.5757785733
 31
0.0
  0
LINE
  5
97
330
1F
100
AcDbEntity
  8
RUNDUNGEN
  6
Continuous
 62
     7
100
AcDbLine
 10
151.0512198386
 20
286.0857785733
 30
0.0
 11
139.1698340471
 21
286.0857785733
 31
0.0
  0
LINE
  5
98
330
1F
100
AcDbEntity
  8
0
  6
Continuous
 62
     7
100
AcDbLine
 10
139.1698340471
 20
286.0857785733
 30
0.0
 11
151.0512198386
 21
286.0857785733
 31
0.0
  0
LINE
  5
99
330
1F
100
AcDbEntity
  8
BEZUGSACHSEN
  6
Continuous
 62
     7
100
AcDbLine
 10
62.1698340471
 20
289.5757785733
 30
0.0
 11
56.1698340471
 21
289.5757785733
 31
0.0
  0
LINE
  5
9A
330
1F
100
AcDbEntity
  8
0
  6
Continuous
 62
     7
100
AcDbLine
 10
119.1698340471
 20
289.5857785733
 30
0.0
 11
133.1698340471
 21
289.5857785733
 31
0.0
  0
LINE
  5
9B
330
1F
100
AcDbEntity
  8
FASEN
  6
Continuous
 62
     7
100
AcDbLine
 10
133.1698340471
 20
289.9857785733
 30
0.0
 11
119.1698340471
 21
289.9857785733
 31
0.0
  0
LINE
  5
9C
330
1F
100
AcDbEntity
  8
FASEN
  6
Continuous
 62
     9
100
AcDbLine
 10
117.141707969
 20
267.6857785733
 30
0.0
 11
117.141707969
 21
268.0857785733
 31
0.0
  0
LINE
  5
9D
330
1F
100
AcDbEntity
  8
FASEN
  6
Continuous
 62
     9
100
AcDbLine
 10
119.1698340471
 20
289.9857785733
 30
0.0
 11
119.1698340471
 21
289.5857785733
 31
0.0
  0
LINE
  5
9E
330
1F
100
AcDbEntity
  8
FASEN
  6
Continuous
 62
     9
100
AcDbLine
 10
119.1698340471
 20
309.1857785733
 30
0.0
 11
119.1698340471
 21
309.5857785733
 31
0.0
  0
LINE
  5
9F
330
1F
100
AcDbEntity
  8
0
  6
Continuous
 62
     7
100
AcDbLine
 10
120.9222387829
 20
349.5857785733
 30
0.0
 11
120.9222387829
 21
309.5857785733
 31
0.0
  0
LINE
  5
A0
330
1F
100
AcDbEntity
  8
0
  6
Continuous
 62
     7
100
AcDbLine
 10
120.9222387829
 20
289.5857785733
 30
0.0
 11
120.9222387829
 21
268.0857785733
 31
0.0
  0
LINE
  5
A1
330
1F
100
AcDbEntity
  8
0
  6
Continuous
 62
     7
100
AcDbLine
 10
120.9222387829
 20
260.7560219426
 30
0.0
 11
120.9222387829
 21
249.5857785733
 31
0.0
  0
LINE
  5
A2
330
1F
100
AcDbEntity
  8
0
  6
Continuous
 62
     7
100
AcDbLine
 10
122.2948340471
 20
347.208340411
 30
0.0
 11
122.2948340471
 21
309.5857785733
 31
0.0
  0
LINE
  5
A3
330
1F
100
AcDbEntity
  8
0
  6
Continuous
 62
     7
100
AcDbLine
 10
122.2948340471
 20
289.5857785733
 30
0.0
 11
122.2948340471
 21
268.0857785733
 31
0.0
  0
LINE
  5
A4
330
1F
100
AcDbEntity
  8
0
  6
Continuous
 62
     7
100
AcDbLine
 10
122.2948340471
 20
251.9632208431
 30
0.0
 11
122.2948340471
 21
264.7038348202
 31
0.0
  0
LWPOLYLINE
  5
A5
330
1F
100
AcDbEntity
  8
DEFAULT_2
  6
DASHED
 62
     8
100
AcDbPolyline
 90
        2
 70
     0
 43
0.35
 10
189.1698340471
 20
295.5857785733
 10
153.1698340471
 20
295.5857785733
  0
LWPOLYLINE
  5
A6
330
1F
100
AcDbEntity
  8
BEZUGSACHSEN
  6
DOT_CENTER
 62
     7
100
AcDbPolyline
 90
        2
 70
     0
 43
0.25
 10
192.1698340471
 20
299.5857785733
 10
51.1698340471
 20
299.5857785733
  0
LINE
  5
A7
330
1F
100
AcDbEntity
  8
0
  6
Continuous
 62
     9
100
AcDbLine
 10
123.2948340471
 20
253.5857785733
 30
0.0
 11
123.2948340471
 21
266.0633979896
 31
0.0
  0
LINE
  5
A8
330
1F
100
AcDbEntity
  8
0
  6
Continuous
 62
     9
100
AcDbLine
 10
123.2948340471
 20
268.0857785733
 30
0.0
 11
123.2948340471
 21
289.5857785733
 31
0.0
  0
LINE
  5
A9
330
1F
100
AcDbEntity
  8
0
  6
Continuous
 62
     9
100
AcDbLine
 10
123.2948340471
 20
309.5857785733
 30
0.0
 11
123.2948340471
 21
345.5857785733
 31
0.0
  0
LINE
  5
AA
330
1F
100
AcDbEntity
  8
0
  6
Continuous
 62
     9
100
AcDbLine
 10
125.0448340471
 20
253.5857785733
 30
0.0
 11
125.0448340471
 21
266.0633979896
 31
0.0
  0
LINE
  5
AB
330
1F
100
AcDbEntity
  8
0
  6
Continuous
 62
     9
100
AcDbLine
 10
125.0448340471
 20
268.0857785733
 30
0.0
 11
125.0448340471
 21
289.5857785733
 31
0.0
  0
LINE
  5
AC
330
1F
100
AcDbEntity
  8
0
  6
Continuous
 62
     9
100
AcDbLine
 10
125.0448340471
 20
309.5857785733
 30
0.0
 11
125.0448340471
 21
345.5857785733
 31
0.0
  0
LINE
  5
AD
330
1F
100
AcDbEntity
  8
0
  6
Continuous
 62
     7
100
AcDbLine
 10
126.0448340471
 20
251.9632208431
 30
0.0
 11
126.0448340471
 21
264.7038348202
 31
0.0
  0
LINE
  5
AE
330
1F
100
AcDbEntity
  8
0
  6
Continuous
 62
     7
100
AcDbLine
 10
126.0448340471
 20
268.0857785733
 30
0.0
 11
126.0448340471
 21
289.5857785733
 31
0.0
  0
LINE
  5
AF
330
1F
100
AcDbEntity
  8
0
  6
Continuous
 62
     7
100
AcDbLine
 10
126.0448340471
 20
309.5857785733
 30
0.0
 11
126.0448340471
 21
347.208340411
 31
0.0
  0
LINE
  5
B0
330
1F
100
AcDbEntity
  8
0
  6
Continuous
 62
     7
100
AcDbLine
 10
127.4174293113
 20
349.5857785733
 30
0.0
 11
127.4174293113
 21
309.5857785733
 31
0.0
  0
LINE
  5
B1
330
1F
100
AcDbEntity
  8
0
  6
Continuous
 62
     7
100
AcDbLine
 10
127.4174293113
 20
289.5857785733
 30
0.0
 11
127.4174293113
 21
268.0857785733
 31
0.0
  0
LINE
  5
B2
330
1F
100
AcDbEntity
  8
0
  6
Continuous
 62
     7
100
AcDbLine
 10
127.4174293113
 20
260.7560219426
 30
0.0
 11
127.4174293113
 21
249.5857785733
 31
0.0
  0
LWPOLYLINE
  5
B3
330
1F
100
AcDbEntity
  8
DEFAULT_2
  6
DASHED
 62
     8
100
AcDbPolyline
 90
        2
 70
     0
 43
0.35
 10
189.1698340471
 20
303.5857785733
 10
153.1698340471
 20
303.5857785733
  0
LINE
  5
B4
330
1F
100
AcDbEntity
  8
0
  6
Continuous
 62
     7
100
AcDbLine
 10
133.1698340471
 20
349.5857416522
 30
0.0
 11
133.1698340471
 21
309.5857785733
 31
0.0
  0
LINE
  5
B5
330
1F
100
AcDbEntity
  8
0
  6
Continuous
 62
     7
100
AcDbLine
 10
133.1698340471
 20
289.5857785733
 30
0.0
 11
133.1698340471
 21
268.0857785733
 31
0.0
  0
LINE
  5
B6
330
1F
100
AcDbEntity
  8
0
  6
Continuous
 62
     7
100
AcDbLine
 10
133.1698340471
 20
260.7560219426
 30
0.0
 11
133.1698340471
 21
249.5857804411
 31
0.0
  0
LINE
  5
B7
330
1F
100
AcDbEntity
  8
FASEN
  6
Continuous
 62
     7
100
AcDbLine
 10
133.1698340471
 20
260.7560219426
 30
0.0
 11
133.1698340471
 21
268.0857785733
 31
0.0
  0
LINE
  5
B8
330
1F
100
AcDbEntity
  8
FASEN
  6
Continuous
 62
     7
100
AcDbLine
 10
133.1698340471
 20
289.5857785733
 30
0.0
 11
133.1698340471
 21
309.5857785733
 31
0.0
  0
LINE
  5
B9
330
1F
100
AcDbEntity
  8
FASEN
  6
Continuous
 62
     7
100
AcDbLine
 10
119.1698340471
 20
309.1857785733
 30
0.0
 11
133.1698340471
 21
309.1857785733
 31
0.0
  0
LINE
  5
BA
330
1F
100
AcDbEntity
  8
0
  6
Continuous
 62
     7
100
AcDbLine
 10
119.1698340471
 20
309.5857785733
 30
0.0
 11
133.1698340471
 21
309.5857785733
 31
0.0
  0
LINE
  5
BB
330
1F
100
AcDbEntity
  8
BEZUGSACHSEN
  6
Continuous
 62
     7
100
AcDbLine
 10
62.1698340471
 20
309.5957785733
 30
0.0
 11
56.1698340471
 21
309.5957785733
 31
0.0
  0
LINE
  5
BC
330
1F
100
AcDbEntity
  8
RUNDUNGEN
  6
Continuous
 62
     9
100
AcDbLine
 10
139.1698340471
 20
313.0857785733
 30
0.0
 11
139.1698340471
 21
286.0857785733
 31
0.0
  0
LINE
  5
BD
330
1F
100
AcDbEntity
  8
RUNDUNGEN
  6
Continuous
 62
     7
100
AcDbLine
 10
151.0512198386
 20
313.0857785733
 30
0.0
 11
139.1698340471
 21
313.0857785733
 31
0.0
  0
LINE
  5
BE
330
1F
100
AcDbEntity
  8
0
  6
Continuous
 62
     7
100
AcDbLine
 10
139.1698340471
 20
313.0857785733
 30
0.0
 11
151.0512198386
 21
313.0857785733
 31
0.0
  0
LINE
  5
BF
330
1F
100
AcDbEntity
  8
BEZUGSACHSEN
  6
Continuous
 62
     9
100
AcDbLine
 10
55.4367869741
 20
314.5957785733
 30
0.0
 11
63.723679994
 21
314.5957785733
 31
0.0
  0
LINE
  5
C0
330
1F
100
AcDbEntity
  8
RUNDUNGEN
  6
Continuous
 62
     7
100
AcDbLine
 10
188.2482931428
 20
310.1583054154
 30
0.0
 11
151.0512198386
 21
313.0857785733
 31
0.0
  0
LINE
  5
C1
330
1F
100
AcDbEntity
  8
0
  6
Continuous
 62
     7
100
AcDbLine
 10
151.0512198386
 20
313.0857785733
 30
0.0
 11
188.2482931428
 21
310.1583054154
 31
0.0
  0
LINE
  5
C2
330
1F
100
AcDbEntity
  8
BEZUGSACHSEN
  6
Continuous
 62
     7
100
AcDbLine
 10
120.9222387829
 20
249.5857785733
 30
0.0
 11
122.2948340471
 21
251.9631833091
 31
0.0
  0
LINE
  5
C3
330
1F
100
AcDbEntity
  8
BEZUGSACHSEN
  6
Continuous
 62
     7
100
AcDbLine
 10
120.9222387829
 20
349.5857785733
 30
0.0
 11
122.2948340471
 21
347.2083738375
 31
0.0
  0
LINE
  5
C4
330
1F
100
AcDbEntity
  8
0
  6
Continuous
 62
     7
100
AcDbLine
 10
151.0512198386
 20
313.0857785733
 30
0.0
 11
151.0512198386
 21
286.0857785733
 31
0.0
  0
LWPOLYLINE
  5
C5
330
1F
100
AcDbEntity
  8
DEFAULT_2
  6
DASHED
 62
     8
100
AcDbPolyline
 90
        2
 70
     0
 43
0.35
 10
153.1698340471
 20
303.5857785733
 10
153.1698340471
 20
295.5857785733
  0
LINE
  5
C6
330
1F
100
AcDbEntity
  8
BEZUGSACHSEN
  6
Continuous
 62
     7
100
AcDbLine
 10
102.2890776611
 20
337.3021027471
 30
0.0
 11
101.6698340471
 21
337.4680285733
 31
0.0
  0
LINE
  5
C7
330
1F
100
AcDbEntity
  8
BEZUGSACHSEN
  6
Continuous
 62
     7
100
AcDbLine
 10
101.6698340471
 20
337.4680285733
 30
0.0
 11
56.0697595624
 21
335.1834648417
 31
0.0
  0
LINE
  5
C8
330
1F
100
AcDbEntity
  8
BEZUGSACHSEN
  6
Continuous
 62
     7
100
AcDbLine
 10
103.4692627584
 20
337.2680285733
 30
0.0
 11
102.5478967062
 21
337.2680285733
 31
0.0
  0
LINE
  5
C9
330
1F
100
AcDbEntity
  8
BEZUGSACHSEN
  6
Continuous
 62
     7
100
AcDbLine
 10
123.2948340471
 20
345.5857785733
 30
0.0
 11
125.0448340471
 21
345.5857785733
 31
0.0
  0
LINE
  5
CA
330
1F
100
AcDbEntity
  8
BEZUGSACHSEN
  6
Continuous
 62
     7
100
AcDbLine
 10
120.9222387829
 20
349.5857785733
 30
0.0
 11
116.1698340471
 21
349.5857785733
 31
0.0
  0
LINE
  5
CB
330
1F
100
AcDbEntity
  8
BEZUGSACHSEN
  6
Continuous
 62
     7
100
AcDbLine
 10
106.1698340471
 20
349.5857785733
 30
0.0
 11
104.1698340471
 21
349.5857785733
 31
0.0
  0
LINE
  5
CC
330
1F
100
AcDbEntity
  8
BEZUGSACHSEN
  6
Continuous
 62
     7
100
AcDbLine
 10
127.4174293113
 20
349.5857785733
 30
0.0
 11
133.1698340471
 21
349.5857785733
 31
0.0
  0
LINE
  5
CD
330
1F
100
AcDbEntity
  8
RUNDUNGEN
  6
Continuous
 62
     9
100
AcDbLine
 10
188.2482931428
 20
289.0132517313
 30
0.0
 11
188.2482931428
 21
310.1583054154
 31
0.0
  0
LINE
  5
CE
330
1F
100
AcDbEntity
  8
RUNDUNGEN
  6
Continuous
 62
     7
100
AcDbLine
 10
189.1698340471
 20
309.1613880817
 30
0.0
 11
189.1698340471
 21
290.010169065
 31
0.0
  0
LWPOLYLINE
  5
CF
330
1F
100
AcDbEntity
  8
1
  6
Continuous
 62
     7
100
AcDbPolyline
 90
        2
 70
     0
 43
0.25
 10
189.1698340471
 20
309.1613880817
 10
189.1698340471
 20
310.0857785733466
  0
LWPOLYLINE
  5
D0
330
1F
100
AcDbEntity
  8
1
  6
Continuous
 62
     7
100
AcDbPolyline
 90
        2
 70
     0
 43
0.25
 10
188.2482931428
 20
310.1583054154
 10
189.1698340470948
 20
310.0857785733466
  0
LWPOLYLINE
  5
D1
330
1F
100
AcDbEntity
  8
1
  6
Continuous
 62
     7
100
AcDbPolyline
 90
        2
 70
     0
 43
0.25
 10
188.2482931428
 20
289.0132517313
 10
189.1698340471
 20
289.0857785733487
  0
LWPOLYLINE
  5
D2
330
1F
100
AcDbEntity
  8
1
  6
Continuous
 62
     7
100
AcDbPolyline
 90
        2
 70
     0
 43
0.25
 10
189.1698340471
 20
290.010169065
 10
189.1698340471
 20
289.0857785733487
  0
ARC
  5
D3
330
1F
100
AcDbEntity
  8
FASEN
  6
Continuous
 62
     7
100
AcDbCircle
 10
122.07048807
 20
275.1170418433
 30
0.0
 40
19.03859487300018
100
AcDbArc
 50
227.4837701983004
 51
228.965195337302
  0
ARC
  5
D4
330
1F
100
AcDbEntity
  8
FASEN
  6
Continuous
 62
     7
100
AcDbCircle
 10
117.141707969
 20
260.0857785733
 30
0.0
 40
8.0
100
AcDbArc
 50
90.0
 51
172.8323734889967
  0
ARC
  5
D5
330
1F
100
AcDbEntity
  8
FASEN
  6
Continuous
 62
     7
100
AcDbCircle
 10
117.141707969
 20
260.0857785733
 30
0.0
 40
7.599982194900008
100
AcDbArc
 50
90.0
 51
174.9405171273009
  0
ARC
  5
D6
330
1F
100
AcDbEntity
  8
BEZUGSACHSEN
  6
Continuous
 62
     7
100
AcDbCircle
 10
62.1698340471
 20
291.5757785733
 30
0.0
 40
2.0
100
AcDbArc
 50
270.0
 51
355.2355361864949
  0
ARC
  5
D7
330
1F
100
AcDbEntity
  8
BEZUGSACHSEN
  6
Continuous
 62
     7
100
AcDbCircle
 10
56.1698340471
 20
265.9855870103
 30
0.0
 40
2.0
100
AcDbArc
 50
179.9999999971339
 51
267.131879513702
  0
ARC
  5
D8
330
1F
100
AcDbEntity
  8
BEZUGSACHSEN
  6
Continuous
 62
     7
100
AcDbCircle
 10
123.2948340471
 20
252.5857785733
 30
0.0
 40
1.0
100
AcDbArc
 50
90.0
 51
180.0
  0
ARC
  5
D9
330
1F
100
AcDbEntity
  8
BEZUGSACHSEN
  6
Continuous
 62
     7
100
AcDbCircle
 10
102.5478967062
 20
260.9035285733
 30
0.0
 40
1.0
100
AcDbArc
 50
90.0
 51
104.9999999996989
  0
ARC
  5
DA
330
1F
100
AcDbEntity
  8
BEZUGSACHSEN
  6
Continuous
 62
     7
100
AcDbCircle
 10
103.4692627584
 20
260.9035285733
 30
0.0
 40
1.000000000000426
100
AcDbArc
 50
45.52164291268396
 51
90.0
  0
ARC
  5
DB
330
1F
100
AcDbEntity
  8
0
  6
Continuous
 62
     7
100
AcDbCircle
 10
-120.4279458354
 20
369.0202461637
 30
0.0
 40
264.5204223901892
100
AcDbArc
 50
335.840076470599
 51
336.5770705490999
  0
ARC
  5
DC
330
1F
100
AcDbEntity
  8
BEZUGSACHSEN
  6
Continuous
 62
     7
100
AcDbCircle
 10
111.1850420582
 20
399.6385483402
 30
0.0
 40
50.30340021045197
100
AcDbArc
 50
264.2781515102013
 51
269.9826780126003
  0
ARC
  5
DD
330
1F
100
AcDbEntity
  8
BEZUGSACHSEN
  6
Continuous
 62
     7
100
AcDbCircle
 10
111.154626046
 20
399.6385481394
 30
0.0
 40
50.30340000959737
100
AcDbArc
 50
270.0173219760583
 51
275.7218485012678
  0
ARC
  5
DE
330
1F
100
AcDbEntity
  8
0
  6
Continuous
 62
     7
100
AcDbCircle
 10
119.1698340471
 20
299.5857785733
 30
0.0
 40
10.0
100
AcDbArc
 50
90.0
 51
270.0
  0
ARC
  5
DF
330
1F
100
AcDbEntity
  8
FASEN
  6
Continuous
 62
     7
100
AcDbCircle
 10
119.1698340471
 20
299.5857785733
 30
0.0
 40
9.599999195900011
100
AcDbArc
 50
90.0
 51
270.0
  0
ARC
  5
E0
330
1F
100
AcDbEntity
  8
BEZUGSACHSEN
  6
Continuous
 62
     7
100
AcDbCircle
 10
62.1698340471
 20
307.5957785733
 30
0.0
 40
1.999999999999992
100
AcDbArc
 50
4.76446378498877
 51
90.0
  0
ARC
  5
E1
330
1F
100
AcDbEntity
  8
BEZUGSACHSEN
  6
Continuous
 62
     7
100
AcDbCircle
 10
56.1698340471
 20
333.1859701364
 30
0.0
 40
2.000000000047403
100
AcDbArc
 50
92.86812048629798
 51
180.0000000143238
  0
ARC
  5
E2
330
1F
100
AcDbEntity
  8
BEZUGSACHSEN
  6
Continuous
 62
     7
100
AcDbCircle
 10
123.2948340471
 20
346.5857785733
 30
0.0
 40
1.0
100
AcDbArc
 50
180.0
 51
270.0
  0
ARC
  5
E3
330
1F
100
AcDbEntity
  8
BEZUGSACHSEN
  6
Continuous
 62
     7
100
AcDbCircle
 10
102.5478967062
 20
338.2680285733
 30
0.0
 40
0.9999999999133372
100
AcDbArc
 50
254.9999999988184
 51
270.0
  0
ARC
  5
E4
330
1F
100
AcDbEntity
  8
BEZUGSACHSEN
  6
Continuous
 62
     7
100
AcDbCircle
 10
103.4692627584
 20
338.2680285733
 30
0.0
 40
1.0
100
AcDbArc
 50
270.0
 51
314.478357087316
  0
ARC
  5
E5
330
1F
100
AcDbEntity
  8
BEZUGSACHSEN
  6
Continuous
 62
     7
100
AcDbCircle
 10
240.4998806495
 20
-1306.4569807544
 30
0.0
 40
1632.1727637359
100
AcDbArc
 50
96.2726189838
 51
96.48809068979999
  0
ARC
  5
E6
330
1F
100
AcDbEntity
  8
RUNDUNGEN
  6
Continuous
 62
     7
100
AcDbCircle
 10
139.1698340471
 20
280.0857785733
 30
0.0
 40
6.0
100
AcDbArc
 50
90.0
 51
180.0
  0
ARC
  5
E7
330
1F
100
AcDbEntity
  8
RUNDUNGEN
  6
Continuous
 62
     7
100
AcDbCircle
 10
188.1698340471
 20
290.010169065
 30
0.0
 40
0.9999999999648148
100
AcDbArc
 50
274.4999999985582
 51
0.0
  0
ARC
  5
E8
330
1F
100
AcDbEntity
  8
BEZUGSACHSEN
  6
Continuous
 62
     7
100
AcDbCircle
 10
125.0448340471
 20
252.5857785733
 30
0.0
 40
1.0
100
AcDbArc
 50
0.0
 51
90.0
  0
ARC
  5
E9
330
1F
100
AcDbEntity
  8
BEZUGSACHSEN
  6
Continuous
 62
     7
100
AcDbCircle
 10
240.4998806495
 20
1905.6285379008
 30
0.0
 40
1632.1727637357
100
AcDbArc
 50
263.5119093102
 51
263.7273810162
  0
ARC
  5
EA
330
1F
100
AcDbEntity
  8
0
  6
Continuous
 62
     7
100
AcDbCircle
 10
368.7676139296
 20
369.0202461637
 30
0.0
 40
264.5204223902
100
AcDbArc
 50
203.4229294508999
 51
204.1599235294009
  0
ARC
  5
EB
330
1F
100
AcDbEntity
  8
RUNDUNGEN
  6
Continuous
 62
     7
100
AcDbCircle
 10
139.1698340471
 20
319.0857785733
 30
0.0
 40
6.0
100
AcDbArc
 50
180.0
 51
270.0
  0
ARC
  5
EC
330
1F
100
AcDbEntity
  8
BEZUGSACHSEN
  6
Continuous
 62
     7
100
AcDbCircle
 10
125.0448340471
 20
346.5857785733
 30
0.0
 40
1.0
100
AcDbArc
 50
270.0
 51
0.0
  0
ARC
  5
ED
330
1F
100
AcDbEntity
  8
RUNDUNGEN
  6
Continuous
 62
     7
100
AcDbCircle
 10
188.1698340471
 20
309.1613880817
 30
0.0
 40
1.0
100
AcDbArc
 50
0.0
 51
85.50000000144155
  0
CIRCLE
  5
EE
330
1F
100
AcDbEntity
  8
BEZUGSACHSEN
  6
Continuous
 62
     7
100
AcDbCircle
 10
89.1698340471
 20
299.5857785733
 30
0.0
 40
6.0
  0
SPLINE
  5
EF
330
1F
100
AcDbEntity
  8
BEZUGSACHSEN
  6
Continuous
 62
     7
100
AcDbSpline
210
0.0
220
0.0
230
1.0
 70
     8
 71
     3
 72
    11
 73
     7
 74
     5
 42
0.0000000001
 43
0.0000000001
 44
0.00000001
 40
0.0
 40
0.0
 40
0.0
 40
0.0
 40
0.5521269407068178
 40
1.105196183364639
 40
1.651906304768749
 40
2.198197048816561
 40
2.198197048816561
 40
2.198197048816561
 40
2.198197048816561
 10
64.1698340471
 20
286.7161230476
 30
0.0
 10
64.16324860947213
 20
286.531987857188
 30
0.0
 10
64.15006649500621
 20
286.163403217203
 30
0.0
 10
64.05257813120585
 20
285.6199788124946
 30
0.0
 10
63.91294081818077
 20
285.0887046829436
 30
0.0
 10
63.78675079596205
 20
284.7467102028252
 30
0.0
 10
63.723679994
 20
284.5757785733
 30
0.0
 11
64.1698340471
 21
286.7161230476
 31
0.0
 11
64.1370894646732
 21
286.1649679415037
 31
0.0
 11
64.04502281172981
 21
285.6196154696198
 31
0.0
 11
63.9045313268964
 21
285.0912651128157
 31
0.0
 11
63.723679994
 21
284.5757785733
 31
0.0
  0
SPLINE
  5
F0
330
1F
100
AcDbEntity
  8
BEZUGSACHSEN
  6
Continuous
 62
     7
100
AcDbSpline
210
0.0
220
0.0
230
1.0
 70
     8
 71
     3
 72
    19
 73
    15
 74
    13
 42
0.0000000001
 43
0.0000000001
 44
0.00000001
 40
0.0
 40
0.0
 40
0.0
 40
0.0
 40
0.2679411643110681
 40
0.5361267936765244
 40
0.8065304773480927
 40
1.076465993197528
 40
1.213913376111566
 40
1.351353104847352
 40
1.491586367040931
 40
1.63180789752904
 40
1.775491562712624
 40
1.919219204679341
 40
2.065713007343569
 40
2.21193640929341
 40
2.21193640929341
 40
2.21193640929341
 40
2.21193640929341
 10
63.723679994
 20
284.5757785733
 30
0.0
 10
63.68978575022777
 20
284.4931069935932
 30
0.0
 10
63.62196633813999
 20
284.3276884060078
 30
0.0
 10
63.4973278318105
 20
284.089022432368
 30
0.0
 10
63.3524170324978
 20
283.8613344363528
 30
0.0
 10
63.20937340097851
 20
283.6855299450366
 30
0.0
 10
63.08026701404893
 20
283.5575802259361
 30
0.0
 10
62.97415191496303
 20
283.468493205138
 30
0.0
 10
62.85934248731789
 20
283.3891915648005
 30
0.0
 10
62.73488287510107
 20
283.321521097347
 30
0.0
 10
62.60202931997696
 20
283.2687184106779
 30
0.0
 10
62.46137852110216
 20
283.2335521467103
 30
0.0
 10
62.31605313799957
 20
283.2171999447843
 30
0.0
 10
62.21854371893627
 20
283.2238226781354
 30
0.0
 10
62.1698340471
 20
283.2271309859
 30
0.0
 11
63.723679994
 21
284.5757785733
 31
0.0
 11
63.61824273434301
 21
284.3294546974609
 31
0.0
 11
63.49437321874939
 21
284.0915894521964
 31
0.0
 11
63.34802773244908
 21
283.8642105816242
 31
0.0
 11
63.17677554132312
 21
283.655553279448
 31
0.0
 11
63.07898310262114
 21
283.5589695230361
 31
0.0
 11
62.97356611334158
 21
283.470782577255
 31
0.0
 11
62.85802746961885
 21
283.3913081182624
 31
0.0
 11
62.73470545973797
 21
283.3245716253116
 31
0.0
 11
62.60107477156828
 21
283.2717716743658
 31
0.0
 11
62.46164707037252
 21
283.2368782479851
 31
0.0
 11
62.31595263182226
 21
283.2215954211999
 31
0.0
 11
62.1698340471
 21
283.2271309859
 31
0.0
  0
SPLINE
  5
F1
330
1F
100
AcDbEntity
  8
BEZUGSACHSEN
  6
Continuous
 62
     7
100
AcDbSpline
210
0.0
220
0.0
230
1.0
 70
     8
 71
     3
 72
    47
 73
    43
 74
    41
 42
0.0000000001
 43
0.0000000001
 44
0.00000001
 40
0.0
 40
0.0
 40
0.0
 40
0.0
 40
0.6302393214779816
 40
1.260854867358695
 40
1.577476088428945
 40
1.893930800240206
 40
2.210999113877188
 40
2.528183472217072
 40
3.164887038271778
 40
3.801951183429843
 40
4.442851001646853
 40
5.083381259805173
 40
5.404527292323768
 40
5.725573838765945
 40
6.04667071003662
 40
6.367871027158668
 40
7.009090242542441
 40
7.650619763955412
 40
8.290330346516553
 40
8.929958764525413
 40
9.568647011393342
 40
10.20735923016509
 40
10.84445705816825
 40
11.48152626495198
 40
12.11643462221016
 40
12.75141965577146
 40
13.38691908734196
 40
14.02211738527194
 40
14.34050449139596
 40
14.65879153789827
 40
14.97761586867945
 40
15.2965377494604
 40
15.93537694103161
 40
16.57458694069066
 40
17.21386274994665
 40
17.85277859078058
 40
18.17219860085426
 40
18.49150024077732
 40
18.8106715663565
 40
19.1300145242078
 40
19.76719627023445
 40
20.40398968282149
 40
20.40398968282149
 40
20.40398968282149
 40
20.40398968282149
 10
95.6692476849
 20
299.5857785921
 30
0.0
 10
95.66337848315551
 20
299.375622570204
 30
0.0
 10
95.65163657601825
 20
298.955185072761
 30
0.0
 10
95.57218983346164
 20
298.434021630497
 30
0.0
 10
95.48145832839631
 20
298.0226301630738
 30
0.0
 10
95.39785294610172
 20
297.7169923227887
 30
0.0
 10
95.29950100473536
 20
297.4156084766037
 30
0.0
 10
95.14848219388011
 20
297.0196352970068
 30
0.0
 10
94.92319960627825
 20
296.538528488315
 30
0.0
 10
94.59682157153436
 20
295.9888942633043
 30
0.0
 10
94.21695450950233
 20
295.473166400638
 30
0.0
 10
93.85870007022388
 20
295.0756409984347
 30
0.0
 10
93.54951933255774
 20
294.7800876434994
 30
0.0
 10
93.30659437652837
 20
294.5699027350657
 30
0.0
 10
93.05354547320158
 20
294.3719932707507
 30
0.0
 10
92.70376296473736
 20
294.125369919291
 30
0.0
 10
92.24427772698048
 20
293.8501633100151
 30
0.0
 10
91.66388202000805
 20
293.5761232033025
 30
0.0
 10
91.05972771215467
 20
293.3609347259511
 30
0.0
 10
90.43831256473901
 20
293.2062728869128
 30
0.0
 10
89.80504335330772
 20
293.1134625138776
 30
0.0
 10
89.16658388888798
 20
293.0829517640693
 30
0.0
 10
88.52875087534912
 20
293.1150535064519
 30
0.0
 10
87.89832088836165
 20
293.2088665688277
 30
0.0
 10
87.28074721886736
 20
293.3635803851162
 30
0.0
 10
86.68160380743763
 20
293.5773769571729
 30
0.0
 10
86.10614658596648
 20
293.8486983255864
 30
0.0
 10
85.65046119300669
 20
294.1205432092048
 30
0.0
 10
85.30320529525672
 20
294.3640037617897
 30
0.0
 10
85.05158571395114
 20
294.5594862881194
 30
0.0
 10
84.8097106636801
 20
294.767179346834
 30
0.0
 10
84.50077438000433
 20
295.0600168949917
 30
0.0
 10
84.14193162310983
 20
295.4544745439364
 30
0.0
 10
83.75970471785897
 20
295.9679592098931
 30
0.0
 10
83.43008027260717
 20
296.5167269886224
 30
0.0
 10
83.20159282668803
 20
296.9987904051169
 30
0.0
 10
83.04809132672061
 20
297.3961999642761
 30
0.0
 10
82.94783452379494
 20
297.6994823275483
 30
0.0
 10
82.86251803087103
 20
298.0073061992393
 30
0.0
 10
82.76975557551222
 20
298.4223470663423
 30
0.0
 10
82.68846320862261
 20
298.9486198654367
 30
0.0
 10
82.67642340908259
 20
299.3734355151512
 30
0.0
 10
82.6704053443
 20
299.5857785938
 30
0.0
 11
95.6692476849
 21
299.5857785921
 31
0.0
 11
95.63870810617877
 21
298.9562796354141
 31
0.0
 11
95.54737683065196
 21
298.3323128375658
 31
0.0
 11
95.47888209196543
 21
298.0231891270481
 31
0.0
 11
95.39546326712866
 21
297.717927134179
 31
0.0
 11
95.29707652328962
 21
297.4165098749695
 31
0.0
 11
95.18404589218707
 21
297.1201486197285
 31
0.0
 11
94.91406575567474
 21
296.543518619715
 31
0.0
 11
94.58872913382139
 21
295.9957898478515
 31
0.0
 11
94.20869263902942
 21
295.4797231471075
 31
0.0
 11
93.77984214136872
 21
295.003943510855
 31
0.0
 11
93.5477050069987
 21
294.7820265780876
 31
0.0
 11
93.30492251366236
 21
294.5719610028216
 31
0.0
 11
93.05199290536402
 21
294.3741484299505
 31
0.0
 11
92.78947850952969
 21
294.1890651089866
 31
0.0
 11
92.23942032792878
 21
293.8595228825098
 31
0.0
 11
91.65927949626315
 21
293.58566755158
 31
0.0
 11
91.05667418594035
 21
293.3709666679966
 31
0.0
 11
90.43597491560037
 21
293.2165097842914
 31
0.0
 11
89.80404610169678
 21
293.123834810077
 31
0.0
 11
89.16605997454687
 21
293.093388135832
 31
0.0
 11
88.52976498643652
 21
293.1253620400664
 31
0.0
 11
87.89964171233093
 21
293.2191801282078
 31
0.0
 11
87.28375780408948
 21
293.3734384624576
 31
0.0
 11
86.68572533427051
 21
293.5868937455711
 31
0.0
 11
86.1108895857238
 21
293.8578612523301
 31
0.0
 11
85.56542289818242
 21
294.1833500700731
 31
0.0
 11
85.30472060540549
 21
294.3661194982795
 31
0.0
 11
85.05337135359717
 21
294.5613890493789
 31
0.0
 11
84.81148805524761
 21
294.7690941862379
 31
0.0
 11
84.58003222394741
 21
294.9885010325257
 31
0.0
 11
84.1501091930672
 21
295.4610279631933
 31
0.0
 11
83.7684880536094
 21
295.9738190801045
 31
0.0
 11
83.43925657943035
 21
296.5217973613437
 31
0.0
 11
83.16564227228632
 21
297.0991609059104
 31
0.0
 11
83.05055001982636
 21
297.3971255284063
 31
0.0
 11
82.95031033139948
 21
297.7002847969792
 31
0.0
 11
82.86514325118223
 21
298.0078834047771
 31
0.0
 11
82.79518022370856
 21
298.319468223913
 31
0.0
 11
82.70169132676833
 21
298.9497541936271
 31
0.0
 11
82.6704053443
 21
299.5857785938
 31
0.0
  0
SPLINE
  5
F2
330
1F
100
AcDbEntity
  8
BEZUGSACHSEN
  6
Continuous
 62
     7
100
AcDbSpline
210
0.0
220
0.0
230
1.0
 70
     8
 71
     3
 72
    27
 73
    23
 74
    21
 42
0.0000000001
 43
0.0000000001
 44
0.00000001
 40
0.0
 40
0.0
 40
0.0
 40
0.0
 40
0.1219765139516063
 40
0.2439857714749022
 40
0.3566831398333771
 40
0.4694418149629679
 40
0.5721317672955466
 40
0.674544588116787
 40
0.7225206521206144
 40
0.7704888797673954
 40
0.8171412936077563
 40
0.863789873442012
 40
0.9102318001046891
 40
0.956675132436823
 40
1.004175175771733
 40
1.051683100158058
 40
1.153672388732659
 40
1.256049376635545
 40
1.370745138041528
 40
1.485385401825881
 40
1.611534903875857
 40
1.737631876008183
 40
1.737631876008183
 40
1.737631876008183
 40
1.737631876008183
 10
55.3156767227
 20
284.3434425779
 30
0.0
 10
55.2804217050966
 20
284.3231630526352
 30
0.0
 10
55.20990220597616
 20
284.2825985582371
 30
0.0
 10
55.10224980279037
 20
284.2318026973452
 30
0.0
 10
54.99409178691908
 20
284.1900510614762
 30
0.0
 10
54.88851256595039
 20
284.1606364763348
 30
0.0
 10
54.78368102080448
 20
284.1437218889469
 30
0.0
 10
54.69895335095831
 20
284.1418566656964
 30
0.0
 10
54.63312941455163
 20
284.148811973674
 30
0.0
 10
54.58642221133314
 20
284.1580091008143
 30
0.0
 10
54.54124159403084
 20
284.1715425458306
 30
0.0
 10
54.49810198338474
 20
284.1893358046713
 30
0.0
 10
54.45714750680636
 20
284.2115641623871
 30
0.0
 10
54.41850008033345
 20
284.2380991940902
 30
0.0
 10
54.38259400170211
 20
284.2687944716199
 30
0.0
 10
54.33715468017552
 20
284.3163319447268
 30
0.0
 10
54.28861154011157
 20
284.3855013118072
 30
0.0
 10
54.24238583117261
 20
284.481659366504
 30
0.0
 10
54.20841995737694
 20
284.5872347994752
 30
0.0
 10
54.18546453316051
 20
284.7036524903775
 30
0.0
 10
54.17201997479494
 20
284.8253997990675
 30
0.0
 10
54.17056258849888
 20
284.9095031626187
 30
0.0
 10
54.1698340471
 20
284.9515460872
 30
0.0
 11
55.3156767227
 21
284.3434425779
 31
0.0
 11
55.20913209863946
 21
284.2840581267399
 31
0.0
 11
55.09883920947079
 21
284.231887852443
 31
0.0
 11
54.99352120161836
 21
284.1917778280486
 31
0.0
 11
54.8847974730753
 21
284.1618835197496
 31
0.0
 11
54.78333332095416
 21
284.1460641599521
 31
0.0
 11
54.68093378036976
 21
284.144414930839
 31
0.0
 11
54.63322992415721
 21
284.1495183433985
 31
0.0
 11
54.58617915389577
 21
284.1588551459229
 31
0.0
 11
54.54149958646234
 21
284.1722784082348
 31
0.0
 11
54.49839344986642
 21
284.1901095884629
 31
0.0
 11
54.45757085706956
 21
284.2122538533972
 31
0.0
 11
54.4192836005234
 21
284.2385420466459
 31
0.0
 11
54.38314650351356
 21
284.269370026413
 31
0.0
 11
54.35029400314668
 21
284.3036878949241
 31
0.0
 11
54.2911216089237
 21
284.3867567985275
 31
0.0
 11
54.2462218853491
 21
284.4787625726669
 31
0.0
 11
54.21058372576903
 21
284.5877810998365
 31
0.0
 11
54.18773216237164
 21
284.7001207461367
 31
0.0
 11
54.1739654060322
 21
284.825516811814
 31
0.0
 11
54.1698340471
 21
284.9515460872
 31
0.0
  0
SPLINE
  5
F3
330
1F
100
AcDbEntity
  8
BEZUGSACHSEN
  6
Continuous
 62
     7
100
AcDbSpline
210
0.0
220
0.0
230
1.0
 70
     8
 71
     3
 72
    15
 73
    11
 74
     9
 42
0.0000000001
 43
0.0000000001
 44
0.00000001
 40
0.0
 40
0.0
 40
0.0
 40
0.0
 40
0.1110371613650699
 40
0.2222522337255615
 40
0.3333980191834793
 40
0.4445069475017775
 40
0.5556201065559382
 40
0.6667525642506261
 40
0.7778876033639011
 40
0.8889820915909237
 40
0.8889820915909237
 40
0.8889820915909237
 40
0.8889820915909237
 10
56.0697595624
 20
283.9092461871
 30
0.0
 10
56.03311783551914
 20
283.9147783399121
 30
0.0
 10
55.95977567198832
 20
283.9258515095129
 30
0.0
 10
55.85325912197759
 20
283.9588700730519
 30
0.0
 10
55.7508462142351
 20
284.0024603605358
 30
0.0
 10
55.65339624861394
 20
284.056239868383
 30
0.0
 10
55.56109145288483
 20
284.1183350037565
 30
0.0
 10
55.47409482475837
 20
284.187621677391
 30
0.0
 10
55.39184206927817
 20
284.2625036289699
 30
0.0
 10
55.34106208290075
 20
284.3164662104945
 30
0.0
 10
55.3156767227
 20
284.3434425779
 30
0.0
 11
56.0697595624
 21
283.9092461871
 31
0.0
 11
55.96041727728978
 21
283.9285727463097
 31
0.0
 11
55.85392532372147
 21
283.9606391796218
 31
0.0
 11
55.75165714311431
 21
284.0041662385663
 31
0.0
 11
55.65425427665977
 21
284.0576253403028
 31
0.0
 11
55.56198250987315
 21
284.1195289360713
 31
0.0
 11
55.47488540646438
 21
284.1885544221693
 31
0.0
 11
55.39284550197783
 21
284.2635240893057
 31
0.0
 11
55.3156767227
 21
284.3434425779
 31
0.0
  0
SPLINE
  5
F4
330
1F
100
AcDbEntity
  8
BEZUGSACHSEN
  6
Continuous
 62
     7
100
AcDbSpline
210
0.0
220
0.0
230
1.0
 70
     8
 71
     3
 72
    27
 73
    23
 74
    21
 42
0.0000000001
 43
0.0000000001
 44
0.00000001
 40
0.0
 40
0.0
 40
0.0
 40
0.0
 40
0.1260969825526704
 40
0.2522464959214478
 40
0.3668867952585372
 40
0.481582589407418
 40
0.5839596006898328
 40
0.6859489161383134
 40
0.7334568410612922
 40
0.7809568849182353
 40
0.8274002264883763
 40
0.8738421607806588
 40
0.9204907319663536
 40
0.9671431399914696
 40
1.015111401864655
 40
1.063087497161905
 40
1.165500418765282
 40
1.268190479005583
 40
1.380949153953821
 40
1.493646517828797
 40
1.615655563781145
 40
1.737631867629899
 40
1.737631867629899
 40
1.737631867629899
 40
1.737631867629899
 10
54.1698340471
 20
314.2200110595
 30
0.0
 10
54.17056258857629
 20
314.2620539875611
 30
0.0
 10
54.17201997503238
 20
314.3461573583714
 30
0.0
 10
54.18546453699518
 20
314.4679046859357
 30
0.0
 10
54.20841997031997
 20
314.5843224023107
 30
0.0
 10
54.24238587067133
 20
314.6898978600967
 30
0.0
 10
54.28861162948787
 20
314.7860559223708
 30
0.0
 10
54.33715479803814
 20
314.855225288049
 30
0.0
 10
54.38259412363708
 20
314.9027627696344
 30
0.0
 10
54.41850020175496
 20
314.933458053101
 30
0.0
 10
54.4571476328499
 20
314.9599930888372
 30
0.0
 10
54.4981021200521
 20
314.9822214347686
 30
0.0
 10
54.54124174622722
 20
315.0000146516591
 30
0.0
 10
54.58642238083047
 20
315.0135480587205
 30
0.0
 10
54.63312960380055
 20
315.0227451840564
 30
0.0
 10
54.69895359498997
 20
315.0297005044323
 30
0.0
 10
54.7836813469938
 20
315.0278352477625
 30
0.0
 10
54.88851295049746
 20
315.0109205867802
 30
0.0
 10
54.99409219285965
 20
314.9815059539074
 30
0.0
 10
55.10225013095794
 20
314.9397543164563
 30
0.0
 10
55.20990239222377
 20
314.8889584893373
 30
0.0
 10
55.28042176703759
 20
314.8483940611042
 30
0.0
 10
55.3156767227
 20
314.8281145688
 30
0.0
 11
54.1698340471
 21
314.2200110595
 31
0.0
 11
54.17396540666706
 21
314.3460403452911
 31
0.0
 11
54.18773216580495
 21
314.471436422048
 31
0.0
 11
54.21058374191824
 21
314.5837761020423
 31
0.0
 11
54.24622193130168
 21
314.6927946539173
 31
0.0
 11
54.2911216960798
 21
314.7848004339639
 31
0.0
 11
54.35029412503417
 21
314.867869345822
 31
0.0
 11
54.38314662521879
 21
314.9021872152505
 31
0.0
 11
54.41928372016957
 21
314.9330151982356
 31
0.0
 11
54.45757098504127
 21
314.9593033956794
 31
0.0
 11
54.49839359297998
 21
314.9814476487011
 31
0.0
 11
54.54149973659657
 21
314.9992787893313
 31
0.0
 11
54.5861793086307
 21
315.0127020161188
 31
0.0
 11
54.63323011436182
 21
315.0220388157411
 31
0.0
 11
54.6809340016128
 21
315.0271422323532
 31
0.0
 11
54.78333364247244
 21
315.0254929709563
 31
0.0
 11
54.88479789280758
 21
315.0096735406226
 31
0.0
 11
54.99352160926441
 21
314.9797791890508
 31
0.0
 11
55.09883960156172
 21
314.9396691364102
 31
0.0
 11
55.20913228746713
 21
314.887498927191
 31
0.0
 11
55.3156767227
 21
314.8281145688
 31
0.0
  0
SPLINE
  5
F5
330
1F
100
AcDbEntity
  8
BEZUGSACHSEN
  6
Continuous
 62
     7
100
AcDbSpline
210
0.0
220
0.0
230
1.0
 70
     8
 71
     3
 72
    15
 73
    11
 74
     9
 42
0.0000000001
 43
0.0000000001
 44
0.00000001
 40
0.0
 40
0.0
 40
0.0
 40
0.0
 40
0.111094483115783
 40
0.2222295181063983
 40
0.3333620401541075
 40
0.4444752609924012
 40
0.5555842177976602
 40
0.6667300353884117
 40
0.7779450181579879
 40
0.8889820871697002
 40
0.8889820871697002
 40
0.8889820871697002
 40
0.8889820871697002
 10
55.3156767227
 20
314.8281145688
 30
0.0
 10
55.34106208226886
 20
314.8550909344738
 30
0.0
 10
55.39184206760861
 20
314.909053512775
 30
0.0
 10
55.47409483682787
 20
314.9839354761937
 30
0.0
 10
55.56109148875957
 20
315.053222185123
 30
0.0
 10
55.65339632918847
 20
315.1153173482164
 30
0.0
 10
55.75084635119431
 20
315.1690968403192
 30
0.0
 10
55.85325926507417
 20
315.2126870858919
 30
0.0
 10
55.95977576365782
 20
315.245705641741
 30
0.0
 10
56.03311786637929
 20
315.2567788083534
 30
0.0
 10
56.0697595624
 20
315.2623109596
 30
0.0
 11
55.3156767227
 21
314.8281145688
 31
0.0
 11
55.39284549978628
 21
314.9080330524053
 31
0.0
 11
55.47488540000327
 21
314.9830027181025
 31
0.0
 11
55.56198254859456
 21
315.0520282507984
 31
0.0
 11
55.65425437017861
 21
315.1139318757861
 31
0.0
 11
55.75165727827407
 21
315.1673909608597
 31
0.0
 11
55.85392550167434
 21
315.2109180013112
 31
0.0
 11
55.960417369779
 21
315.2429844077207
 31
0.0
 11
56.0697595624
 21
315.2623109596
 31
0.0
  0
SPLINE
  5
F6
330
1F
100
AcDbEntity
  8
BEZUGSACHSEN
  6
Continuous
 62
     7
100
AcDbSpline
210
0.0
220
0.0
230
1.0
 70
     8
 71
     3
 72
    47
 73
    43
 74
    41
 42
0.0000000001
 43
0.0000000001
 44
0.00000001
 40
0.0
 40
0.0
 40
0.0
 40
0.0
 40
0.6366022431821166
 40
1.273595002171231
 40
1.592921746398827
 40
1.912076344884403
 40
2.231392290413805
 40
2.550826842715973
 40
3.189774321146162
 40
3.829081696996294
 40
4.468337152521968
 40
5.107221744801729
 40
5.426176341291732
 40
5.745033356831392
 40
6.063356731594517
 40
6.381780214891105
 40
7.017059195669262
 40
7.652639340983601
 40
8.287532214221308
 40
8.922347946469145
 40
9.559226748522594
 40
10.19613435930255
 40
10.83451785498158
 40
11.47287689970862
 40
12.1123448736114
 40
12.75189588942448
 40
13.39354300512437
 40
14.0348795734722
 40
14.35615205762626
 40
14.67732107703102
 40
14.99840882464838
 40
15.31959604115472
 40
15.96011121020739
 40
16.60099592081348
 40
17.23809108071562
 40
17.87482555195391
 40
18.19205670328563
 40
18.50917199096479
 40
18.82571084625248
 40
19.142415818248
 40
19.77338974994311
 40
20.40398930732798
 40
20.40398930732798
 40
20.40398930732798
 40
20.40398930732798
 10
82.6704184528
 20
299.5857785539
 30
0.0
 10
82.67642409668672
 20
299.7980583635953
 30
0.0
 10
82.6884390685484
 20
300.2227482034208
 30
0.0
 10
82.76970441375641
 20
300.7488909645365
 30
0.0
 10
82.86242401035756
 20
301.1638653406609
 30
0.0
 10
82.94771697450165
 20
301.4716893163508
 30
0.0
 10
83.04795558794163
 20
301.774981993126
 30
0.0
 10
83.20144113709678
 20
302.1724193556631
 30
0.0
 10
83.42991308386978
 20
302.6545189325519
 30
0.0
 10
83.75952804441908
 20
303.2033348054089
 30
0.0
 10
84.14175526151217
 20
303.7168703447709
 30
0.0
 10
84.50060995864095
 20
304.1113731068592
 30
0.0
 10
84.80956331220612
 20
304.4042464049044
 30
0.0
 10
85.05145842117986
 20
304.6119682260092
 30
0.0
 10
85.30310167466888
 20
304.8074776231164
 30
0.0
 10
85.6503957818325
 20
305.0509728257539
 30
0.0
 10
86.10613611659214
 20
305.3228548957765
 30
0.0
 10
86.68161554127619
 20
305.5941840082889
 30
0.0
 10
87.28072630643314
 20
305.8079676391013
 30
0.0
 10
87.89817670887966
 20
305.9626573704732
 30
0.0
 10
88.52844727055721
 20
306.0564643541276
 30
0.0
 10
89.16604120527678
 20
306.0885910789323
 30
0.0
 10
89.80421984951403
 20
306.0581615059823
 30
0.0
 10
90.43723227071361
 20
305.9654902508226
 30
0.0
 10
91.05846595513992
 20
305.8109982895932
 30
0.0
 10
91.6626017070939
 20
305.5959611570635
 30
0.0
 10
92.24308078066247
 20
305.3220377913773
 30
0.0
 10
92.7027098048884
 20
305.0468709133503
 30
0.0
 10
93.05260879355076
 20
304.8002612144999
 30
0.0
 10
93.30574042270065
 20
304.6023570221188
 30
0.0
 10
93.54873906205049
 20
304.3921784926923
 30
0.0
 10
93.85798340554494
 20
304.0966591525126
 30
0.0
 10
94.21630359634537
 20
303.699188169758
 30
0.0
 10
94.59625401470097
 20
303.1835214082314
 30
0.0
 10
94.9227270443107
 20
302.6339252517769
 30
0.0
 10
95.14809818430331
 20
302.1528197100711
 30
0.0
 10
95.29918916746328
 20
301.756829522448
 30
0.0
 10
95.39760208501322
 20
301.455403171652
 30
0.0
 10
95.48126886318343
 20
301.1497078037125
 30
0.0
 10
95.57208822062285
 20
300.7381557859727
 30
0.0
 10
95.65160319629533
 20
300.2167305694639
 30
0.0
 10
95.66337548091434
 20
299.7960542803275
 30
0.0
 10
95.6692598765
 20
299.585778554
 30
0.0
 11
82.6704184528
 21
299.5857785539
 31
0.0
 11
82.7016671238398
 21
300.2216133882578
 31
0.0
 11
82.79510832621341
 21
300.8517153773861
 31
0.0
 11
82.86504883324784
 21
301.1632886353124
 31
0.0
 11
82.95019017222398
 21
301.4708770130704
 31
0.0
 11
83.05041471036193
 21
301.7740563577237
 31
0.0
 11
83.16549460011399
 21
302.0720413442232
 31
0.0
 11
83.4390904943583
 21
302.6494486240916
 31
0.0
 11
83.76831000803644
 21
303.1974709161837
 31
0.0
 11
84.14993426338381
 21
303.7103163755083
 31
0.0
 11
84.57986889951263
 21
304.1828941266872
 31
0.0
 11
84.81134116057376
 21
304.4023311950721
 31
0.0
 11
85.05324356160102
 21
304.6100642563216
 31
0.0
 11
85.30461736875552
 21
304.805361414512
 31
0.0
 11
85.56534664704743
 21
304.9881557201019
 31
0.0
 11
86.11088029125726
 21
305.3136897835326
 31
0.0
 11
86.68579011137598
 21
305.5846894511502
 31
0.0
 11
87.28373629912078
 21
305.7981123108665
 31
0.0
 11
87.89952883132973
 21
305.9523542350799
 31
0.0
 11
88.52946111327614
 21
306.0461621700685
 31
0.0
 11
89.16556423499499
 21
306.0781640951507
 31
0.0
 11
89.8032251940303
 21
306.0477998253991
 31
0.0
 11
90.4348427269576
 21
305.9552711158887
 31
0.0
 11
91.05541559906382
 21
305.8009707592684
 31
0.0
 11
91.65791640618636
 21
305.5864520438979
 31
0.0
 11
92.23822360255286
 21
305.312673704851
 31
0.0
 11
92.78844859059882
 21
304.9831815859316
 31
0.0
 11
93.05105589474627
 21
304.7981048102872
 31
0.0
 11
93.30407635213811
 21
304.6002912941498
 31
0.0
 11
93.54692465350242
 21
304.3902388145299
 31
0.0
 11
93.77912708890945
 21
304.1683305969306
 31
0.0
 11
94.2080431466437
 21
303.6926303791418
 31
0.0
 11
94.58815380531678
 21
303.1766370657629
 31
0.0
 11
94.91359295104198
 21
302.6289331263938
 31
0.0
 11
95.18367380917164
 21
302.0523161678025
 31
0.0
 11
95.29676425435585
 21
301.7559276481475
 31
0.0
 11
95.39520835769501
 21
301.4544797020646
 31
0.0
 11
95.47869116307062
 21
301.1491479675308
 31
0.0
 11
95.54724058651468
 21
300.8399505939453
 31
0.0
 11
95.6386676644392
 21
300.2156356158285
 31
0.0
 11
95.6692598765
 21
299.585778554
 31
0.0
  0
SPLINE
  5
F7
330
1F
100
AcDbEntity
  8
0
  6
Continuous
 62
     7
100
AcDbSpline
210
0.0
220
0.0
230
1.0
 70
     8
 71
     3
 72
    19
 73
    15
 74
    13
 42
0.0000000001
 43
0.0000000001
 44
0.00000001
 40
0.0
 40
0.0
 40
0.0
 40
0.0
 40
0.1162460235696082
 40
0.2327881717828433
 40
0.3491890045674211
 40
0.4655468550296697
 40
0.5819071369450864
 40
0.6982738488688292
 40
0.8146206072338931
 40
0.930999827793895
 40
1.163276323432739
 40
1.396138921750332
 40
1.629013178034341
 40
1.861351539691847
 40
1.861351539691847
 40
1.861351539691847
 40
1.861351539691847
 10
123.2948340471
 20
266.0633979896
 30
0.0
 10
123.2560499762598
 20
266.0615570427121
 30
0.0
 10
123.1783830361965
 20
266.0578704593159
 30
0.0
 10
123.0647729511328
 20
266.0294649743713
 30
0.0
 10
122.9565852631853
 20
265.9856110601711
 30
0.0
 10
122.8556093972243
 20
265.9270143719485
 30
0.0
 10
122.7628409404991
 20
265.8563295106197
 30
0.0
 10
122.678753561514
 20
265.7755719055217
 30
0.0
 10
122.6034499181436
 20
265.6866042667561
 30
0.0
 10
122.5147986739853
 20
265.5592448189851
 30
0.0
 10
122.424801928245
 20
265.3864594409054
 30
0.0
 10
122.3499084090731
 20
265.1655344507389
 30
0.0
 10
122.3033714837331
 20
264.9365145311669
 30
0.0
 10
122.2976776730113
 20
264.7813351383388
 30
0.0
 10
122.2948340471
 20
264.7038348202
 30
0.0
 11
123.2948340471
 21
266.0633979896
 31
0.0
 11
123.1789626955496
 21
266.0540723322171
 31
0.0
 11
123.0656381708615
 21
266.0268762954767
 31
0.0
 11
122.9577650382524
 21
265.9831436859727
 31
0.0
 11
122.8569762987422
 21
265.9249992163118
 31
0.0
 11
122.7642889936947
 21
265.8546516599188
 31
0.0
 11
122.6802136280692
 21
265.7741995341614
 31
0.0
 11
122.6049148701375
 21
265.6855053109222
 31
0.0
 11
122.5382881408222
 21
265.5900851772035
 31
0.0
 11
122.4303983547137
 21
265.3843859684551
 31
0.0
 11
122.3546402178619
 21
265.1641912945959
 31
0.0
 11
122.3096802040453
 21
264.9356983704222
 31
0.0
 11
122.2948340471
 21
264.7038348202
 31
0.0
  0
SPLINE
  5
F8
330
1F
100
AcDbEntity
  8
0
  6
Continuous
 62
     7
100
AcDbSpline
210
0.0
220
0.0
230
1.0
 70
     8
 71
     3
 72
    19
 73
    15
 74
    13
 42
0.0000000001
 43
0.0000000001
 44
0.00000001
 40
0.0
 40
0.0
 40
0.0
 40
0.0
 40
0.2323383481159743
 40
0.4652125957010225
 40
0.6980761132632523
 40
0.9303535186957063
 40
1.046733461754535
 40
1.163080940823159
 40
1.279447997390502
 40
1.395808629492782
 40
1.512165904470972
 40
1.628566140315194
 40
1.74510692050789
 40
1.861351602770897
 40
1.861351602770897
 40
1.861351602770897
 40
1.861351602770897
 10
126.0448340471
 20
264.7038348202
 30
0.0
 10
126.0419904214945
 20
264.7813351338589
 30
0.0
 10
126.0362966113256
 20
264.9365145193425
 30
0.0
 10
125.9897596354859
 20
265.1655347333556
 30
0.0
 10
125.9148658897294
 20
265.3864602952407
 30
0.0
 10
125.8248685854809
 20
265.5592463594432
 30
0.0
 10
125.7362166476696
 20
265.6866062851468
 30
0.0
 10
125.6609123833121
 20
265.775574184051
 30
0.0
 10
125.5768244094952
 20
265.8563318540099
 30
0.0
 10
125.4840556756666
 20
265.9270164203921
 30
0.0
 10
125.3830798634212
 20
265.9856126445652
 30
0.0
 10
125.2748928139082
 20
266.0294658957222
 30
0.0
 10
125.1612837045539
 20
266.0578706551724
 30
0.0
 10
125.0836176697618
 20
266.0615571078193
 30
0.0
 10
125.0448340471
 20
266.0633979896
 30
0.0
 11
126.0448340471
 21
264.7038348202
 31
0.0
 11
126.0299878929822
 21
264.935698357034
 31
0.0
 11
125.9850278913936
 21
265.164191274748
 31
0.0
 11
125.9092694127112
 21
265.3843868031294
 31
0.0
 11
125.8013790015336
 21
265.5900867113704
 31
0.0
 11
125.7347516776894
 21
265.6855073111576
 31
0.0
 11
125.6594522211226
 21
265.7742018866758
 31
0.0
 11
125.5753763547921
 21
265.8546539876734
 31
0.0
 11
125.4826885288228
 21
265.9250014369542
 31
0.0
 11
125.3819000939182
 21
265.9831452829728
 31
0.0
 11
125.2740273651266
 21
266.0268772997072
 31
0.0
 11
125.1607040765727
 21
266.054072625027
 31
0.0
 11
125.0448340471
 21
266.0633979896
 31
0.0
  0
SPLINE
  5
F9
330
1F
100
AcDbEntity
  8
BEZUGSACHSEN
  6
Continuous
 62
     7
100
AcDbSpline
210
0.0
220
0.0
230
1.0
 70
     8
 71
     3
 72
    11
 73
     7
 74
     5
 42
0.0000000001
 43
0.0000000001
 44
0.00000001
 40
0.0
 40
0.0
 40
0.0
 40
0.0
 40
0.5462907431041437
 40
1.093000863589425
 40
1.646070107119415
 40
2.198197048716619
 40
2.198197048716619
 40
2.198197048716619
 40
2.198197048716619
 10
63.723679994
 20
314.5957785733
 30
0.0
 10
63.78675079586546
 20
314.4248469440746
 30
0.0
 10
63.91294081789388
 20
314.0828524645481
 30
0.0
 10
64.05257813091981
 20
313.5515783353432
 30
0.0
 10
64.15006649493246
 20
313.0081539303824
 30
0.0
 10
64.16324860944748
 20
312.6395692898092
 30
0.0
 10
64.1698340471
 20
312.4554340991
 30
0.0
 11
63.723679994
 21
314.5957785733
 31
0.0
 11
63.90453132662919
 21
314.0802920346906
 31
0.0
 11
64.04502281132751
 21
313.5519416788013
 31
0.0
 11
64.13708946455793
 21
313.0065892060813
 31
0.0
 11
64.1698340471
 21
312.4554340991
 31
0.0
  0
SPLINE
  5
FA
330
1F
100
AcDbEntity
  8
BEZUGSACHSEN
  6
Continuous
 62
     7
100
AcDbSpline
210
0.0
220
0.0
230
1.0
 70
     8
 71
     3
 72
    19
 73
    15
 74
    13
 42
0.0000000001
 43
0.0000000001
 44
0.00000001
 40
0.0
 40
0.0
 40
0.0
 40
0.0
 40
0.1462385987747072
 40
0.2927479274788357
 40
0.436479070618915
 40
0.5801659236474053
 40
0.7203799972914606
 40
0.860605938276764
 40
0.99804118839144
 40
1.135484020419383
 40
1.405415631063245
 40
1.675815514060931
 40
1.943997429507916
 40
2.211934834815196
 40
2.211934834815196
 40
2.211934834815196
 40
2.211934834815196
 10
62.1698340471
 20
315.9444261608
 30
0.0
 10
62.21854885243876
 20
315.9477342381109
 30
0.0
 10
62.31606864830626
 20
315.9543565169402
 30
0.0
 10
62.4614049086166
 20
315.9379972041879
 30
0.0
 10
62.60206184574706
 20
315.9028254381194
 30
0.0
 10
62.7349139792107
 20
315.850019751508
 30
0.0
 10
62.85936844229345
 20
315.7823479637975
 30
0.0
 10
62.97417099946904
 20
315.7030477624237
 30
0.0
 10
63.08028093723513
 20
315.6139631228432
 30
0.0
 10
63.209383402383
 20
315.4860155872644
 30
0.0
 10
63.35242325226127
 20
315.3102132983557
 30
0.0
 10
63.49733085395798
 20
315.0825278324739
 30
0.0
 10
63.62196760241594
 20
314.8438652129763
 30
0.0
 10
63.68978617357006
 20
314.6784489725042
 30
0.0
 10
63.723679994
 20
314.5957785733
 30
0.0
 11
62.1698340471
 21
315.9444261608
 31
0.0
 11
62.31596790891905
 21
315.9499598938474
 31
0.0
 11
62.4616772697657
 21
315.9346705001709
 31
0.0
 11
62.60110735132496
 21
315.8997721640396
 31
0.0
 11
62.73473968826897
 21
315.8469677110445
 31
0.0
 11
62.85805347910043
 21
315.7802316979883
 31
0.0
 11
62.97358459043014
 21
315.7007592068978
 31
0.0
 11
63.07899714019299
 21
315.6125739341671
 31
0.0
 11
63.1767856438605
 21
315.5159926698022
 31
0.0
 11
63.34803403972175
 21
315.3073373048107
 31
0.0
 11
63.49437646025233
 21
315.0799609808928
 31
0.0
 11
63.61824408605909
 21
314.8420989388394
 31
0.0
 11
63.723679994
 21
314.5957785733
 31
0.0
  0
SPLINE
  5
FB
330
1F
100
AcDbEntity
  8
BEZUGSACHSEN
  6
Continuous
 62
     7
100
AcDbSpline
210
0.0
220
0.0
230
1.0
 70
     8
 71
     3
 72
    11
 73
     7
 74
     5
 42
0.0000000001
 43
0.0000000001
 44
0.00000001
 40
0.0
 40
0.0
 40
0.0
 40
0.0
 40
0.9140556660003332
 40
1.828030949185877
 40
2.279806974883404
 40
2.73094412486218
 40
2.73094412486218
 40
2.73094412486218
 40
2.73094412486218
 10
55.4367869739854
 20
284.575778573485
 30
0.0
 10
55.56944168094866
 20
284.8504951711516
 30
0.0
 10
55.83473942911
 20
285.3999042076789
 30
0.0
 10
56.05009464242527
 20
286.1326151287875
 30
0.0
 10
56.15378885608972
 20
286.7305603349269
 30
0.0
 10
56.16448817360765
 20
287.0316835503873
 30
0.0
 10
56.1698340471
 20
287.182138625
 30
0.0
 11
55.4367869739854
 21
284.575778573485
 31
0.0
 11
55.81159450376086
 21
285.4094554150555
 31
0.0
 11
56.07088586415873
 21
286.285879290071
 31
0.0
 11
56.14360283765735
 21
286.7317647228452
 31
0.0
 11
56.1698340471
 21
287.182138625
 31
0.0
  0
SPLINE
  5
FC
330
1F
100
AcDbEntity
  8
BEZUGSACHSEN
  6
Continuous
 62
     7
100
AcDbSpline
210
0.0
220
0.0
230
1.0
 70
     8
 71
     3
 72
    11
 73
     7
 74
     5
 42
0.0000000001
 43
0.0000000001
 44
0.00000001
 40
0.0
 40
0.0
 40
0.0
 40
0.0
 40
0.8249192366724748
 40
1.650116891930998
 40
2.1904921522935
 40
2.730585915378242
 40
2.730585915378242
 40
2.730585915378242
 40
2.730585915378242
 10
56.1698340471
 20
311.9894185217
 30
0.0
 10
56.15210074276183
 20
312.2646088136769
 30
0.0
 10
56.11662814891588
 20
312.8150822771377
 30
0.0
 10
55.90819333228039
 20
313.5198158622906
 30
0.0
 10
55.67796690130071
 20
314.1120295873707
 30
0.0
 10
55.51716631849878
 20
314.434556920816
 30
0.0
 10
55.4367869739854
 20
314.595778573115
 30
0.0
 11
56.1698340471
 21
311.9894185217
 31
0.0
 11
56.08625859298427
 21
312.8100931773959
 31
0.0
 11
55.86829715087245
 21
313.6059851172952
 31
0.0
 11
55.67036207231325
 21
314.1088042962131
 31
0.0
 11
55.4367869739854
 21
314.595778573115
 31
0.0
  0
DIMENSION
  5
109
330
1F
100
AcDbEntity
  8
1
100
AcDbDimension
  2
*D2
 10
200.100703784191
 20
303.5857785733
 30
0.0
 11
196.350703784191
 21
299.78315011662
 31
0.0
 70
    32
  1
<>
 71
     5
 42
-1.0
 53
90.0
  3
ME10_DIM_10
100
AcDbAlignedDimension
 13
189.1698340471
 23
295.5857785733
 33
0.0
 14
189.1698340471
 24
303.5857785733
 34
0.0
 50
90.0
100
AcDbRotatedDimension
  0
DIMENSION
  5
114
330
1F
100
AcDbEntity
  8
1
100
AcDbDimension
  2
*D3
 10
209.396217362398
 20
310.0857785733466
 30
0.0
 11
205.646217362398
 21
299.395837050861
 31
0.0
 70
    32
  1
<>
 71
     5
 42
-1.0
 53
90.0
  3
ME10_DIM_11
100
AcDbAlignedDimension
 13
189.1698340471
 23
289.0857785733487
 33
0.0
 14
189.1698340471
 24
310.0857785733466
 34
0.0
 50
90.0
100
AcDbRotatedDimension
  0
DIMENSION
  5
11F
330
1F
100
AcDbEntity
  8
1
100
AcDbDimension
  2
*D4
 10
217.917104809088
 20
313.0857785733
 30
0.0
 11
214.167104809088
 21
299.78315011662
 31
0.0
 70
    32
  1
<>
 71
     5
 42
-1.0
 53
90.0
  3
ME10_DIM_12
100
AcDbAlignedDimension
 13
151.0512198386
 23
286.0857785733
 33
0.0
 14
151.0512198386
 24
313.0857785733
 34
0.0
 50
90.0
100
AcDbRotatedDimension
  0
DIMENSION
  5
12A
330
1F
100
AcDbEntity
  8
1
100
AcDbDimension
  2
*D5
 10
189.1698340471
 20
354.696319271778
 30
0.0
 11
161.765343841058
 21
358.446319271778
 31
0.0
 70
    32
  1
<>
 71
     5
 42
-1.0
 53
0.00013888888889
  3
ME10_DIM_13
100
AcDbAlignedDimension
 13
133.1698340471
 23
349.5857416522
 33
0.0
 14
189.1698340471
 24
310.0857785733466
 34
0.0
100
AcDbRotatedDimension
  0
DIMENSION
  5
135
330
1F
100
AcDbEntity
  8
1
100
AcDbDimension
  2
*D6
 10
189.1698340471
 20
361.801927496541
 30
0.0
 11
148.158860006407
 21
365.551927496541
 31
0.0
 70
    32
  1
<>
 71
     5
 42
-1.0
 53
0.00013888888889
  3
ME10_DIM_14
100
AcDbAlignedDimension
 13
104.1698340471
 23
349.5857785733
 33
0.0
 14
189.1698340471
 24
310.0857785733466
 34
0.0
100
AcDbRotatedDimension
  0
DIMENSION
  5
140
330
1F
100
AcDbEntity
  8
1
100
AcDbDimension
  2
*D7
 10
189.1698340471
 20
368.907535721303
 30
0.0
 11
125.481386948655
 21
372.657535721303
 31
0.0
 70
    32
  1
<>
 71
     5
 42
-1.0
 53
0.00013888888889
  3
ME10_DIM_15
100
AcDbAlignedDimension
 13
54.1698340471
 23
333.1859701359
 33
0.0
 14
189.1698340471
 24
310.0857785733466
 34
0.0
100
AcDbRotatedDimension
  0
INSERT
  5
147
330
1F
100
AcDbEntity
  8
1
100
AcDbBlockReference
  2
*D8
 10
0.0
 20
0.0
 30
0.0
  0
DIMENSION
  5
152
330
1F
100
AcDbEntity
  8
1
100
AcDbDimension
  2
*D9
 10
173.6393873717717
 20
312.1982870538208
 30
0.0
 11
176.0573376001304
 21
321.4111311430975
 31
0.0
 70
    37
  1
<>
 71
     5
 42
-1.0
  3
ME10_DIM_16
100
AcDb3PointAngularDimension
 13
173.5871299596731
 23
311.3121639819381
 33
0.0
 14
153.3117794014158
 24
313.0857785733
 34
0.0
 15
151.0512198386
 25
313.0857785733
 35
0.0
  0
ENDSEC
  0
SECTION
  2
OBJECTS
  0
DICTIONARY
  5
C
330
0
100
AcDbDictionary
281
     1
  3
ACAD_GROUP
350
D
  3
ACAD_LAYOUT
350
1A
  3
ACAD_MLEADERSTYLE
350
155
  3
ACAD_MLINESTYLE
350
17
  3
ACAD_PLOTSETTINGS
350
19
  3
ACAD_PLOTSTYLENAME
350
E
  3
ACAD_SCALELIST
350
4A
  3
ACAD_VISUALSTYLE
350
2A
  3
AcDbVariableDictionary
350
153
  0
DICTIONARY
  5
D
102
{ACAD_REACTORS
330
C
102
}
330
C
100
AcDbDictionary
281
     1
  0
DICTIONARY
  5
1A
102
{ACAD_REACTORS
330
C
102
}
330
C
100
AcDbDictionary
281
     1
  3
Layout1
350
1E
  3
Layout2
350
26
  3
Model
350
22
  0
DICTIONARY
  5
155
102
{ACAD_REACTORS
330
C
102
}
330
C
100
AcDbDictionary
281
     1
  0
DICTIONARY
  5
17
102
{ACAD_REACTORS
330
C
102
}
330
C
100
AcDbDictionary
281
     1
  3
Standard
350
18
  0
DICTIONARY
  5
19
102
{ACAD_REACTORS
330
C
102
}
330
C
100
AcDbDictionary
281
     1
  0
ACDBDICTIONARYWDFLT
  5
E
102
{ACAD_REACTORS
330
C
102
}
330
C
100
AcDbDictionary
281
     1
  3
Normal
350
F
100
AcDbDictionaryWithDefault
340
F
  0
DICTIONARY
  5
4A
102
{ACAD_REACTORS
330
C
102
}
330
C
100
AcDbDictionary
281
     1
  3
A0
350
4B
  3
A1
350
4C
  3
A2
350
4D
  3
A3
350
4E
  3
A4
350
4F
  3
A5
350
50
  3
A6
350
51
  3
A7
350
52
  3
A8
350
53
  3
A9
350
54
  3
B0
350
55
  3
B1
350
56
  3
B2
350
57
  3
B3
350
58
  3
B4
350
59
  3
B5
350
5A
  3
B6
350
5B
  3
B7
350
5C
  3
B8
350
5D
  3
B9
350
5E
  3
C0
350
5F
  3
C1
350
60
  3
C2
350
61
  3
C3
350
62
  3
C4
350
63
  3
C5
350
64
  3
C6
350
65
  3
C7
350
66
  3
C8
350
67
  3
C9
350
68
  3
D0
350
69
  3
D1
350
6A
  3
D2
350
6B
  0
DICTIONARY
  5
2A
102
{ACAD_REACTORS
330
C
102
}
330
C
100
AcDbDictionary
281
     1
  3
2dWireframe
350
2F
  3
3D Hidden
350
31
  3
3dWireframe
350
30
  3
Basic
350
32
  3
Brighten
350
36
  3
ColorChange
350
3A
  3
Conceptual
350
34
  3
Dim
350
35
  3
Facepattern
350
39
  3
Flat
350
2B
  3
FlatWithEdges
350
2C
  3
Gouraud
350
2D
  3
GouraudWithEdges
350
2E
  3
Linepattern
350
38
  3
Realistic
350
33
  3
Thicken
350
37
  0
DICTIONARY
  5
153
102
{ACAD_REACTORS
330
C
102
}
330
C
100
AcDbDictionary
281
     1
  3
CANNOSCALE
350
156
  0
LAYOUT
  5
1E
102
{ACAD_REACTORS
330
1A
102
}
330
1A
100
AcDbPlotSettings
  1

  2
none_device
  4

  6

 40
0.0
 41
0.0
 42
0.0
 43
0.0
 44
0.0
 45
0.0
 46
0.0
 47
0.0
 48
0.0
 49
0.0
140
0.0
141
0.0
142
1.0
143
1.0
 70
   688
 72
     0
 73
     0
 74
     5
  7

 75
    16
147
1.0
148
0.0
149
0.0
100
AcDbLayout
  1
Layout1
 70
     1
 71
     1
 10
0.0
 20
0.0
 11
12.0
 21
9.0
 12
0.0
 22
0.0
 32
0.0
 14
1.00000000000000E+20
 24
1.00000000000000E+20
 34
1.00000000000000E+20
 15
-1.00000000000000E+20
 25
-1.00000000000000E+20
 35
-1.00000000000000E+20
146
0.0
 13
0.0
 23
0.0
 33
0.0
 16
1.0
 26
0.0
 36
0.0
 17
0.0
 27
1.0
 37
0.0
 76
     0
330
1B
  0
LAYOUT
  5
26
102
{ACAD_REACTORS
330
1A
102
}
330
1A
100
AcDbPlotSettings
  1

  2
none_device
  4

  6

 40
0.0
 41
0.0
 42
0.0
 43
0.0
 44
0.0
 45
0.0
 46
0.0
 47
0.0
 48
0.0
 49
0.0
140
0.0
141
0.0
142
1.0
143
1.0
 70
   688
 72
     0
 73
     0
 74
     5
  7

 75
    16
147
1.0
148
0.0
149
0.0
100
AcDbLayout
  1
Layout2
 70
     1
 71
     2
 10
0.0
 20
0.0
 11
0.0
 21
0.0
 12
0.0
 22
0.0
 32
0.0
 14
0.0
 24
0.0
 34
0.0
 15
0.0
 25
0.0
 35
0.0
146
0.0
 13
0.0
 23
0.0
 33
0.0
 16
1.0
 26
0.0
 36
0.0
 17
0.0
 27
1.0
 37
0.0
 76
     0
330
23
  0
LAYOUT
  5
22
102
{ACAD_REACTORS
330
1A
102
}
330
1A
100
AcDbPlotSettings
  1

  2
none_device
  4

  6

 40
0.0
 41
0.0
 42
0.0
 43
0.0
 44
0.0
 45
0.0
 46
0.0
 47
0.0
 48
0.0
 49
0.0
140
0.0
141
0.0
142
1.0
143
1.0
 70
  1712
 72
     0
 73
     0
 74
     0
  7

 75
     0
147
1.0
148
0.0
149
0.0
100
AcDbLayout
  1
Model
 70
     1
 71
     0
 10
0.0
 20
0.0
 11
12.0
 21
9.0
 12
0.0
 22
0.0
 32
0.0
 14
28.6330187110015
 24
249.5857785733
 34
0.0
 15
219.917104809088
 25
374.407535721303
 35
0.0
146
0.0
 13
0.0
 23
0.0
 33
0.0
 16
1.0
 26
0.0
 36
0.0
 17
0.0
 27
1.0
 37
0.0
 76
     0
330
1F
331
29
  0
MLINESTYLE
  5
18
102
{ACAD_REACTORS
330
17
102
}
330
17
100
AcDbMlineStyle
  2
Standard
 70
     0
  3

 62
   256
 51
90.0
 52
90.0
 71
     2
 49
0.5
 62
   256
  6
BYLAYER
 49
-0.5
 62
   256
  6
BYLAYER
  0
ACDBPLACEHOLDER
  5
F
102
{ACAD_REACTORS
330
E
102
}
330
E
  0
SCALE
  5
4B
102
{ACAD_REACTORS
330
4A
102
}
330
4A
100
AcDbScale
 70
     0
300
1:1
140
1.0
141
1.0
290
     1
  0
SCALE
  5
4C
102
{ACAD_REACTORS
330
4A
102
}
330
4A
100
AcDbScale
 70
     0
300
1:2
140
1.0
141
2.0
290
     0
  0
SCALE
  5
4D
102
{ACAD_REACTORS
330
4A
102
}
330
4A
100
AcDbScale
 70
     0
300
1:4
140
1.0
141
4.0
290
     0
  0
SCALE
  5
4E
102
{ACAD_REACTORS
330
4A
102
}
330
4A
100
AcDbScale
 70
     0
300
1:5
140
1.0
141
5.0
290
     0
  0
SCALE
  5
4F
102
{ACAD_REACTORS
330
4A
102
}
330
4A
100
AcDbScale
 70
     0
300
1:8
140
1.0
141
8.0
290
     0
  0
SCALE
  5
50
102
{ACAD_REACTORS
330
4A
102
}
330
4A
100
AcDbScale
 70
     0
300
1:10
140
1.0
141
10.0
290
     0
  0
SCALE
  5
51
102
{ACAD_REACTORS
330
4A
102
}
330
4A
100
AcDbScale
 70
     0
300
1:16
140
1.0
141
16.0
290
     0
  0
SCALE
  5
52
102
{ACAD_REACTORS
330
4A
102
}
330
4A
100
AcDbScale
 70
     0
300
1:20
140
1.0
141
20.0
290
     0
  0
SCALE
  5
53
102
{ACAD_REACTORS
330
4A
102
}
330
4A
100
AcDbScale
 70
     0
300
1:30
140
1.0
141
30.0
290
     0
  0
SCALE
  5
54
102
{ACAD_REACTORS
330
4A
102
}
330
4A
100
AcDbScale
 70
     0
300
1:40
140
1.0
141
40.0
290
     0
  0
SCALE
  5
55
102
{ACAD_REACTORS
330
4A
102
}
330
4A
100
AcDbScale
 70
     0
300
1:50
140
1.0
141
50.0
290
     0
  0
SCALE
  5
56
102
{ACAD_REACTORS
330
4A
102
}
330
4A
100
AcDbScale
 70
     0
300
1:100
140
1.0
141
100.0
290
     0
  0
SCALE
  5
57
102
{ACAD_REACTORS
330
4A
102
}
330
4A
100
AcDbScale
 70
     0
300
2:1
140
2.0
141
1.0
290
     0
  0
SCALE
  5
58
102
{ACAD_REACTORS
330
4A
102
}
330
4A
100
AcDbScale
 70
     0
300
4:1
140
4.0
141
1.0
290
     0
  0
SCALE
  5
59
102
{ACAD_REACTORS
330
4A
102
}
330
4A
100
AcDbScale
 70
     0
300
8:1
140
8.0
141
1.0
290
     0
  0
SCALE
  5
5A
102
{ACAD_REACTORS
330
4A
102
}
330
4A
100
AcDbScale
 70
     0
300
10:1
140
10.0
141
1.0
290
     0
  0
SCALE
  5
5B
102
{ACAD_REACTORS
330
4A
102
}
330
4A
100
AcDbScale
 70
     0
300
100:1
140
100.0
141
1.0
290
     0
  0
SCALE
  5
5C
102
{ACAD_REACTORS
330
4A
102
}
330
4A
100
AcDbScale
 70
     0
300
1/128" = 1'-0"
140
0.0078125
141
12.0
290
     0
  0
SCALE
  5
5D
102
{ACAD_REACTORS
330
4A
102
}
330
4A
100
AcDbScale
 70
     0
300
1/64" = 1'-0"
140
0.015625
141
12.0
290
     0
  0
SCALE
  5
5E
102
{ACAD_REACTORS
330
4A
102
}
330
4A
100
AcDbScale
 70
     0
300
1/32" = 1'-0"
140
0.03125
141
12.0
290
     0
  0
SCALE
  5
5F
102
{ACAD_REACTORS
330
4A
102
}
330
4A
100
AcDbScale
 70
     0
300
1/16" = 1'-0"
140
0.0625
141
12.0
290
     0
  0
SCALE
  5
60
102
{ACAD_REACTORS
330
4A
102
}
330
4A
100
AcDbScale
 70
     0
300
3/32" = 1'-0"
140
0.09375
141
12.0
290
     0
  0
SCALE
  5
61
102
{ACAD_REACTORS
330
4A
102
}
330
4A
100
AcDbScale
 70
     0
300
1/8" = 1'-0"
140
0.125
141
12.0
290
     0
  0
SCALE
  5
62
102
{ACAD_REACTORS
330
4A
102
}
330
4A
100
AcDbScale
 70
     0
300
3/16" = 1'-0"
140
0.1875
141
12.0
290
     0
  0
SCALE
  5
63
102
{ACAD_REACTORS
330
4A
102
}
330
4A
100
AcDbScale
 70
     0
300
1/4" = 1'-0"
140
0.25
141
12.0
290
     0
  0
SCALE
  5
64
102
{ACAD_REACTORS
330
4A
102
}
330
4A
100
AcDbScale
 70
     0
300
3/8" = 1'-0"
140
0.375
141
12.0
290
     0
  0
SCALE
  5
65
102
{ACAD_REACTORS
330
4A
102
}
330
4A
100
AcDbScale
 70
     0
300
1/2" = 1'-0"
140
0.5
141
12.0
290
     0
  0
SCALE
  5
66
102
{ACAD_REACTORS
330
4A
102
}
330
4A
100
AcDbScale
 70
     0
300
3/4" = 1'-0"
140
0.75
141
12.0
290
     0
  0
SCALE
  5
67
102
{ACAD_REACTORS
330
4A
102
}
330
4A
100
AcDbScale
 70
     0
300
1" = 1'-0"
140
1.0
141
12.0
290
     0
  0
SCALE
  5
68
102
{ACAD_REACTORS
330
4A
102
}
330
4A
100
AcDbScale
 70
     0
300
1-1/2" = 1'-0"
140
1.5
141
12.0
290
     0
  0
SCALE
  5
69
102
{ACAD_REACTORS
330
4A
102
}
330
4A
100
AcDbScale
 70
     0
300
3" = 1'-0"
140
3.0
141
12.0
290
     0
  0
SCALE
  5
6A
102
{ACAD_REACTORS
330
4A
102
}
330
4A
100
AcDbScale
 70
     0
300
6" = 1'-0"
140
6.0
141
12.0
290
     0
  0
SCALE
  5
6B
102
{ACAD_REACTORS
330
4A
102
}
330
4A
100
AcDbScale
 70
     0
300
1'-0" = 1'-0"
140
12.0
141
12.0
290
     0
  0
VISUALSTYLE
  5
2F
102
{ACAD_REACTORS
330
2A
102
}
330
2A
100
AcDbVisualStyle
  2
2dWireframe
 70
     4
 71
     0
 72
     2
 73
     0
 90
        0
 40
-0.6
 41
-30.0
 62
     5
 63
     7
 74
     1
 91
        4
 64
     7
 65
   257
 75
     1
175
     1
 42
1.0
 92
        0
 66
   257
 43
1.0
 76
     1
 77
     6
 78
     2
 67
     7
 79
     5
170
     0
171
     0
290
     0
174
     0
 93
        1
 44
0.0
173
     0
291
     0
 45
0.0
1001
ACAD
1000
AcDbSavedByObjectVersion
1070
     0
  0
VISUALSTYLE
  5
31
102
{ACAD_REACTORS
330
2A
102
}
330
2A
100
AcDbVisualStyle
  2
3D Hidden
 70
     6
 71
     1
 72
     2
 73
     2
 90
        0
 40
-0.6
 41
-30.0
 62
     5
 63
     7
 74
     2
 91
        2
 64
     7
 65
   257
 75
     2
175
     1
 42
40.0
 92
        0
 66
   257
 43
1.0
 76
     1
 77
     6
 78
     2
 67
     7
 79
     3
170
     0
171
     0
290
     0
174
     0
 93
        1
 44
0.0
173
     0
291
     0
 45
0.0
1001
ACAD
1000
AcDbSavedByObjectVersion
1070
     0
  0
VISUALSTYLE
  5
30
102
{ACAD_REACTORS
330
2A
102
}
330
2A
100
AcDbVisualStyle
  2
3dWireframe
 70
     5
 71
     0
 72
     2
 73
     0
 90
        0
 40
-0.6
 41
-30.0
 62
     5
 63
     7
 74
     1
 91
        4
 64
     7
 65
   257
 75
     1
175
     1
 42
1.0
 92
        0
 66
   257
 43
1.0
 76
     1
 77
     6
 78
     2
 67
     7
 79
     5
170
     0
171
     0
290
     0
174
     0
 93
        1
 44
0.0
173
     0
291
     0
 45
0.0
1001
ACAD
1000
AcDbSavedByObjectVersion
1070
     0
  0
VISUALSTYLE
  5
32
102
{ACAD_REACTORS
330
2A
102
}
330
2A
100
AcDbVisualStyle
  2
Basic
 70
     7
 71
     1
 72
     0
 73
     1
 90
        0
 40
-0.6
 41
-30.0
 62
     5
 63
     7
 74
     0
 91
        4
 64
     7
 65
   257
 75
     1
175
     1
 42
1.0
 92
        8
 66
     7
 43
1.0
 76
     1
 77
     6
 78
     2
 67
     7
 79
     5
170
     0
171
     0
290
     0
174
     0
 93
        1
 44
0.0
173
     0
291
     1
 45
0.0
1001
ACAD
1000
AcDbSavedByObjectVersion
1070
     0
  0
VISUALSTYLE
  5
36
102
{ACAD_REACTORS
330
2A
102
}
330
2A
100
AcDbVisualStyle
  2
Brighten
 70
    12
 71
     2
 72
     2
 73
     0
 90
        0
 40
-0.6
 41
-30.0
 62
     5
 63
     7
 74
     1
 91
        4
 64
     7
 65
   257
 75
     1
175
     1
 42
1.0
 92
        8
 66
     7
 43
1.0
 76
     1
 77
     6
 78
     2
 67
     7
 79
     5
170
     0
171
     0
290
     0
174
     0
 93
        1
 44
50.0
173
     0
291
     1
 45
0.0
1001
ACAD
1000
AcDbSavedByObjectVersion
1070
     0
  0
VISUALSTYLE
  5
3A
102
{ACAD_REACTORS
330
2A
102
}
330
2A
100
AcDbVisualStyle
  2
ColorChange
 70
    16
 71
     2
 72
     2
 73
     3
 90
        0
 40
-0.6
 41
-30.0
 62
     5
 63
     8
 74
     1
 91
        4
 64
     7
 65
   257
 75
     1
175
     1
 42
1.0
 92
        8
 66
     8
 43
1.0
 76
     1
 77
     6
 78
     2
 67
     7
 79
     5
170
     0
171
     0
290
     0
174
     0
 93
        1
 44
0.0
173
     0
291
     1
 45
0.0
1001
ACAD
1000
AcDbSavedByObjectVersion
1070
     0
  0
VISUALSTYLE
  5
34
102
{ACAD_REACTORS
330
2A
102
}
330
2A
100
AcDbVisualStyle
  2
Conceptual
 70
     9
 71
     3
 72
     2
 73
     0
 90
        0
 40
-0.6
 41
-30.0
 62
     5
 63
     7
 74
     2
 91
        2
 64
     7
 65
   257
 75
     1
175
     1
 42
40.0
 92
        8
 66
     7
 43
1.0
 76
     1
 77
     6
 78
     2
 67
     7
 79
     3
170
     0
171
     0
290
     0
174
     0
 93
        1
 44
0.0
173
     0
291
     0
 45
0.0
1001
ACAD
1000
AcDbSavedByObjectVersion
1070
     0
  0
VISUALSTYLE
  5
35
102
{ACAD_REACTORS
330
2A
102
}
330
2A
100
AcDbVisualStyle
  2
Dim
 70
    11
 71
     2
 72
     2
 73
     0
 90
        0
 40
-0.6
 41
-30.0
 62
     5
 63
     7
 74
     1
 91
        4
 64
     7
 65
   257
 75
     1
175
     1
 42
1.0
 92
        8
 66
     7
 43
1.0
 76
     1
 77
     6
 78
     2
 67
     7
 79
     5
170
     0
171
     0
290
     0
174
     0
 93
        1
 44
-50.0
173
     0
291
     1
 45
0.0
1001
ACAD
1000
AcDbSavedByObjectVersion
1070
     0
  0
VISUALSTYLE
  5
39
102
{ACAD_REACTORS
330
2A
102
}
330
2A
100
AcDbVisualStyle
  2
Facepattern
 70
    15
 71
     2
 72
     2
 73
     0
 90
        0
 40
-0.6
 41
-30.0
 62
     5
 63
     7
 74
     1
 91
        4
 64
     7
 65
   257
 75
     1
175
     1
 42
1.0
 92
        8
 66
     7
 43
1.0
 76
     1
 77
     6
 78
     2
 67
     7
 79
     5
170
     0
171
     0
290
     0
174
     0
 93
        1
 44
0.0
173
     0
291
     1
 45
0.0
1001
ACAD
1000
AcDbSavedByObjectVersion
1070
     0
  0
VISUALSTYLE
  5
2B
102
{ACAD_REACTORS
330
2A
102
}
330
2A
100
AcDbVisualStyle
  2
Flat
 70
     0
 71
     2
 72
     1
 73
     1
 90
        2
 40
-0.6
 41
30.0
 62
     5
 63
     7
 74
     0
 91
        4
 64
     7
 65
   257
 75
     1
175
     1
 42
1.0
 92
        8
 66
     7
 43
1.0
 76
     1
 77
     6
 78
     2
 67
     7
 79
     5
170
     0
171
     0
290
     0
174
     0
 93
       13
 44
0.0
173
     0
291
     1
 45
0.0
1001
ACAD
1000
AcDbSavedByObjectVersion
1070
     0
  0
VISUALSTYLE
  5
2C
102
{ACAD_REACTORS
330
2A
102
}
330
2A
100
AcDbVisualStyle
  2
FlatWithEdges
 70
     1
 71
     2
 72
     1
 73
     1
 90
        2
 40
-0.6
 41
30.0
 62
     5
 63
     7
 74
     1
 91
        4
 64
     7
 65
   257
 75
     1
175
     1
 42
1.0
 92
        0
 66
   257
 43
1.0
 76
     1
 77
     6
 78
     2
 67
     7
 79
     5
170
     0
171
     0
290
     0
174
     0
 93
       13
 44
0.0
173
     0
291
     1
 45
0.0
1001
ACAD
1000
AcDbSavedByObjectVersion
1070
     0
  0
VISUALSTYLE
  5
2D
102
{ACAD_REACTORS
330
2A
102
}
330
2A
100
AcDbVisualStyle
  2
Gouraud
 70
     2
 71
     2
 72
     2
 73
     1
 90
        2
 40
-0.6
 41
30.0
 62
     5
 63
     7
 74
     0
 91
        4
 64
     7
 65
   257
 75
     1
175
     1
 42
1.0
 92
        0
 66
     7
 43
1.0
 76
     1
 77
     6
 78
     2
 67
     7
 79
     5
170
     0
171
     0
290
     0
174
     0
 93
       13
 44
0.0
173
     0
291
     1
 45
0.0
1001
ACAD
1000
AcDbSavedByObjectVersion
1070
     0
  0
VISUALSTYLE
  5
2E
102
{ACAD_REACTORS
330
2A
102
}
330
2A
100
AcDbVisualStyle
  2
GouraudWithEdges
 70
     3
 71
     2
 72
     2
 73
     1
 90
        2
 40
-0.6
 41
30.0
 62
     5
 63
     7
 74
     1
 91
        4
 64
     7
 65
   257
 75
     1
175
     1
 42
1.0
 92
        0
 66
   257
 43
1.0
 76
     1
 77
     6
 78
     2
 67
     7
 79
     5
170
     0
171
     0
290
     0
174
     0
 93
       13
 44
0.0
173
     0
291
     1
 45
0.0
1001
ACAD
1000
AcDbSavedByObjectVersion
1070
     0
  0
VISUALSTYLE
  5
38
102
{ACAD_REACTORS
330
2A
102
}
330
2A
100
AcDbVisualStyle
  2
Linepattern
 70
    14
 71
     2
 72
     2
 73
     0
 90
        0
 40
-0.6
 41
-30.0
 62
     5
 63
     7
 74
     1
 91
        4
 64
     7
 65
   257
 75
     7
175
     7
 42
1.0
 92
        8
 66
     7
 43
1.0
 76
     1
 77
     6
 78
     2
 67
     7
 79
     5
170
     0
171
     0
290
     0
174
     0
 93
        1
 44
0.0
173
     0
291
     1
 45
0.0
1001
ACAD
1000
AcDbSavedByObjectVersion
1070
     0
  0
VISUALSTYLE
  5
33
102
{ACAD_REACTORS
330
2A
102
}
330
2A
100
AcDbVisualStyle
  2
Realistic
 70
     8
 71
     2
 72
     2
 73
     0
 90
        0
 40
-0.6
 41
-30.0
 62
     5
 63
     7
 74
     1
 91
        0
 64
     7
 65
   257
 75
     1
175
     1
 42
1.0
 92
        8
 66
     8
 43
1.0
 76
     1
 77
     6
 78
     2
 67
     7
 79
     5
170
     0
171
     0
290
     0
174
     0
 93
       13
 44
0.0
173
     0
291
     0
 45
0.0
1001
ACAD
1000
AcDbSavedByObjectVersion
1070
     0
  0
VISUALSTYLE
  5
37
102
{ACAD_REACTORS
330
2A
102
}
330
2A
100
AcDbVisualStyle
  2
Thicken
 70
    13
 71
     2
 72
     2
 73
     0
 90
        0
 40
-0.6
 41
-30.0
 62
     5
 63
     7
 74
     1
 91
        4
 64
     7
 65
   257
 75
     1
175
     1
 42
1.0
 92
       12
 66
     7
 43
1.0
 76
     1
 77
     6
 78
     2
 67
     7
 79
     5
170
     0
171
     0
290
     0
174
     0
 93
        1
 44
0.0
173
     0
291
     1
 45
0.0
1001
ACAD
1000
AcDbSavedByObjectVersion
1070
     0
  0
DICTIONARYVAR
  5
156
102
{ACAD_REACTORS
330
153
102
}
330
153
100
DictionaryVariables
280
     0
  1
1:1
  0
ENDSEC
  0
EOF
