  0
SECTION
  2
HEADER
  9
$ACADVER
  1
AC1015
  9
$ACADMAINTVER
 70
     6
  9
$DWGCODEPAGE
  3
ANSI_1252
  9
$INSBASE
 10
0.0
 20
0.0
 30
0.0
  9
$EXTMIN
 10
29.3677790899867
 20
354.9083779443
 30
0.0
  9
$EXTMAX
 10
382.497950309327
 20
486.811414926773
 30
0.0
  9
$LIMMIN
 10
0.0
 20
0.0
  9
$LIMMAX
 10
12.0
 20
9.0
  9
$ORTHOMODE
 70
     0
  9
$REGENMODE
 70
     1
  9
$FILLMODE
 70
     1
  9
$QTEXTMODE
 70
     0
  9
$MIRRTEXT
 70
     1
  9
$LTSCALE
 40
1.0
  9
$ATTMODE
 70
     1
  9
$TEXTSIZE
 40
0.2
  9
$TRACEWID
 40
0.05
  9
$TEXTSTYLE
  7
Standard
  9
$CLAYER
  8
0
  9
$CELTYPE
  6
ByLayer
  9
$CECOLOR
 62
   256
  9
$CELTSCALE
 40
1.0
  9
$DISPSILH
 70
     0
  9
$DIMSCALE
 40
1.0
  9
$DIMASZ
 40
0.18
  9
$DIMEXO
 40
0.0625
  9
$DIMDLI
 40
0.38
  9
$DIMRND
 40
0.0
  9
$DIMDLE
 40
0.0
  9
$DIMEXE
 40
0.18
  9
$DIMTP
 40
0.0
  9
$DIMTM
 40
0.0
  9
$DIMTXT
 40
0.18
  9
$DIMCEN
 40
0.09
  9
$DIMTSZ
 40
0.0
  9
$DIMTOL
 70
     0
  9
$DIMLIM
 70
     0
  9
$DIMTIH
 70
     1
  9
$DIMTOH
 70
     1
  9
$DIMSE1
 70
     0
  9
$DIMSE2
 70
     0
  9
$DIMTAD
 70
     0
  9
$DIMZIN
 70
     0
  9
$DIMBLK
  1

  9
$DIMASO
 70
     1
  9
$DIMSHO
 70
     1
  9
$DIMPOST
  1

  9
$DIMAPOST
  1

  9
$DIMALT
 70
     0
  9
$DIMALTD
 70
     2
  9
$DIMALTF
 40
25.4
  9
$DIMLFAC
 40
1.0
  9
$DIMTOFL
 70
     0
  9
$DIMTVP
 40
0.0
  9
$DIMTIX
 70
     0
  9
$DIMSOXD
 70
     0
  9
$DIMSAH
 70
     0
  9
$DIMBLK1
  1

  9
$DIMBLK2
  1

  9
$DIMSTYLE
  2
Standard
  9
$DIMCLRD
 70
     0
  9
$DIMCLRE
 70
     0
  9
$DIMCLRT
 70
     0
  9
$DIMTFAC
 40
1.0
  9
$DIMGAP
 40
0.09
  9
$DIMJUST
 70
     0
  9
$DIMSD1
 70
     0
  9
$DIMSD2
 70
     0
  9
$DIMTOLJ
 70
     1
  9
$DIMTZIN
 70
     0
  9
$DIMALTZ
 70
     0
  9
$DIMALTTZ
 70
     0
  9
$DIMUPT
 70
     0
  9
$DIMDEC
 70
     4
  9
$DIMTDEC
 70
     4
  9
$DIMALTU
 70
     2
  9
$DIMALTTD
 70
     2
  9
$DIMTXSTY
  7
Standard
  9
$DIMAUNIT
 70
     0
  9
$DIMADEC
 70
     0
  9
$DIMALTRND
 40
0.0
  9
$DIMAZIN
 70
     0
  9
$DIMDSEP
 70
    46
  9
$DIMATFIT
 70
     3
  9
$DIMFRAC
 70
     0
  9
$DIMLDRBLK
  1

  9
$DIMLUNIT
 70
     2
  9
$DIMLWD
 70
    -2
  9
$DIMLWE
 70
    -2
  9
$DIMTMOVE
 70
     0
  9
$LUNITS
 70
     2
  9
$LUPREC
 70
     4
  9
$SKETCHINC
 40
0.1
  9
$FILLETRAD
 40
0.5
  9
$AUNITS
 70
     0
  9
$AUPREC
 70
     0
  9
$MENU
  1
.
  9
$ELEVATION
 40
0.0
  9
$PELEVATION
 40
0.0
  9
$THICKNESS
 40
0.0
  9
$LIMCHECK
 70
     0
  9
$CHAMFERA
 40
0.5
  9
$CHAMFERB
 40
0.5
  9
$CHAMFERC
 40
1.0
  9
$CHAMFERD
 40
0.0
  9
$SKPOLY
 70
     0
  9
$TDCREATE
 40
2456645.67827728
  9
$TDUCREATE
 40
2456645.636610613
  9
$TDUPDATE
 40
2456645.678277292
  9
$TDUUPDATE
 40
2456645.636610625
  9
$TDINDWG
 40
0.0000000116
  9
$TDUSRTIMER
 40
0.0000000116
  9
$USRTIMER
 70
     1
  9
$ANGBASE
 50
0.0
  9
$ANGDIR
 70
     0
  9
$PDMODE
 70
     0
  9
$PDSIZE
 40
0.0
  9
$PLINEWID
 40
0.0
  9
$SPLFRAME
 70
     0
  9
$SPLINETYPE
 70
     6
  9
$SPLINESEGS
 70
     8
  9
$HANDSEED
  5
12B
  9
$SURFTAB1
 70
     6
  9
$SURFTAB2
 70
     6
  9
$SURFTYPE
 70
     6
  9
$SURFU
 70
     6
  9
$SURFV
 70
     6
  9
$UCSBASE
  2

  9
$UCSNAME
  2

  9
$UCSORG
 10
0.0
 20
0.0
 30
0.0
  9
$UCSXDIR
 10
1.0
 20
0.0
 30
0.0
  9
$UCSYDIR
 10
0.0
 20
1.0
 30
0.0
  9
$UCSORTHOREF
  2

  9
$UCSORTHOVIEW
 70
     0
  9
$UCSORGTOP
 10
0.0
 20
0.0
 30
0.0
  9
$UCSORGBOTTOM
 10
0.0
 20
0.0
 30
0.0
  9
$UCSORGLEFT
 10
0.0
 20
0.0
 30
0.0
  9
$UCSORGRIGHT
 10
0.0
 20
0.0
 30
0.0
  9
$UCSORGFRONT
 10
0.0
 20
0.0
 30
0.0
  9
$UCSORGBACK
 10
0.0
 20
0.0
 30
0.0
  9
$PUCSBASE
  2

  9
$PUCSNAME
  2

  9
$PUCSORG
 10
0.0
 20
0.0
 30
0.0
  9
$PUCSXDIR
 10
1.0
 20
0.0
 30
0.0
  9
$PUCSYDIR
 10
0.0
 20
1.0
 30
0.0
  9
$PUCSORTHOREF
  2

  9
$PUCSORTHOVIEW
 70
     0
  9
$PUCSORGTOP
 10
0.0
 20
0.0
 30
0.0
  9
$PUCSORGBOTTOM
 10
0.0
 20
0.0
 30
0.0
  9
$PUCSORGLEFT
 10
0.0
 20
0.0
 30
0.0
  9
$PUCSORGRIGHT
 10
0.0
 20
0.0
 30
0.0
  9
$PUCSORGFRONT
 10
0.0
 20
0.0
 30
0.0
  9
$PUCSORGBACK
 10
0.0
 20
0.0
 30
0.0
  9
$USERI1
 70
     0
  9
$USERI2
 70
     0
  9
$USERI3
 70
     0
  9
$USERI4
 70
     0
  9
$USERI5
 70
     0
  9
$USERR1
 40
16.5
  9
$USERR2
 40
0.0
  9
$USERR3
 40
0.0
  9
$USERR4
 40
0.0
  9
$USERR5
 40
0.0
  9
$WORLDVIEW
 70
     1
  9
$SHADEDGE
 70
     3
  9
$SHADEDIF
 70
    70
  9
$TILEMODE
 70
     1
  9
$MAXACTVP
 70
    64
  9
$PINSBASE
 10
0.0
 20
0.0
 30
0.0
  9
$PLIMCHECK
 70
     0
  9
$PEXTMIN
 10
1.00000000000000E+20
 20
1.00000000000000E+20
 30
1.00000000000000E+20
  9
$PEXTMAX
 10
-1.00000000000000E+20
 20
-1.00000000000000E+20
 30
-1.00000000000000E+20
  9
$PLIMMIN
 10
0.0
 20
0.0
  9
$PLIMMAX
 10
12.0
 20
9.0
  9
$UNITMODE
 70
     0
  9
$VISRETAIN
 70
     1
  9
$PLINEGEN
 70
     0
  9
$PSLTSCALE
 70
     1
  9
$TREEDEPTH
 70
  3020
  9
$CMLSTYLE
  2
Standard
  9
$CMLJUST
 70
     0
  9
$CMLSCALE
 40
1.0
  9
$PROXYGRAPHICS
 70
     1
  9
$MEASUREMENT
 70
     1
  9
$CELWEIGHT
370
    -1
  9
$ENDCAPS
280
     0
  9
$JOINSTYLE
280
     0
  9
$LWDISPLAY
290
     0
  9
$INSUNITS
 70
     1
  9
$HYPERLINKBASE
  1

  9
$STYLESHEET
  1

  9
$XEDIT
290
     1
  9
$CEPSNTYPE
380
     0
  9
$PSTYLEMODE
290
     1
  9
$FINGERPRINTGUID
  2
{98754001-7E68-4FFD-A101-FCD8BD3A9A24}
  9
$VERSIONGUID
  2
{FAEB1C32-E019-11D5-929B-00C0DF256EC4}
  9
$EXTNAMES
290
     1
  9
$PSVPSCALE
 40
0.0
  9
$OLESTARTUP
290
     0
  0
ENDSEC
  0
SECTION
  2
CLASSES
  0
CLASS
  1
ACDBDICTIONARYWDFLT
  2
AcDbDictionaryWithDefault
  3
ObjectDBX Classes
 90
        0
280
     0
281
     0
  0
CLASS
  1
VISUALSTYLE
  2
AcDbVisualStyle
  3
ObjectDBX Classes
 90
     4095
280
     0
281
     0
  0
CLASS
  1
SCALE
  2
AcDbScale
  3
ObjectDBX Classes
 90
     1153
280
     0
281
     0
  0
CLASS
  1

  2
exOdDbPolyline
  3

 90
        0
280
     0
281
     1
  0
CLASS
  1

  2
exOdDbSpline
  3

 90
        0
280
     0
281
     1
  0
CLASS
  1
DICTIONARYVAR
  2
AcDbDictionaryVar
  3
ObjectDBX Classes
 90
        0
280
     0
281
     0
  0
CLASS
  1
ACDBPLACEHOLDER
  2
AcDbPlaceHolder
  3
ObjectDBX Classes
 90
        0
280
     0
281
     0
  0
CLASS
  1
LAYOUT
  2
AcDbLayout
  3
ObjectDBX Classes
 90
        0
280
     0
281
     0
  0
ENDSEC
  0
SECTION
  2
TABLES
  0
TABLE
  2
VPORT
  5
8
330
0
100
AcDbSymbolTable
 70
     1
  0
VPORT
  5
29
330
8
100
AcDbSymbolTableRecord
100
AcDbViewportTableRecord
  2
*Active
 70
     0
 10
0.0
 20
0.0
 11
1.0
 21
1.0
 12
205.9328646996568
 22
420.8598964355365
 13
0.0
 23
0.0
 14
0.5
 24
0.5
 15
0.5
 25
0.5
 16
0.0
 26
0.0
 36
1.0
 17
0.0
 27
0.0
 37
0.0
 40
242.37123729372
 41
1.60267857142857
 42
50.0
 43
0.0
 44
0.0
 50
0.0
 51
0.0
 71
     0
 72
   100
 73
     1
 74
     3
 75
     0
 76
     0
 77
     0
 78
     0
281
     0
 65
     1
110
0.0
120
0.0
130
0.0
111
1.0
121
0.0
131
0.0
112
0.0
122
1.0
132
0.0
 79
     0
146
0.0
  0
ENDTAB
  0
TABLE
  2
LTYPE
  5
5
330
0
100
AcDbSymbolTable
 70
     9
  0
LTYPE
  5
14
330
5
100
AcDbSymbolTableRecord
100
AcDbLinetypeTableRecord
  2
ByBlock
 70
     0
  3

 72
    65
 73
     0
 40
0.0
  0
LTYPE
  5
15
330
5
100
AcDbSymbolTableRecord
100
AcDbLinetypeTableRecord
  2
ByLayer
 70
     0
  3

 72
    65
 73
     0
 40
0.0
  0
LTYPE
  5
16
330
5
100
AcDbSymbolTableRecord
100
AcDbLinetypeTableRecord
  2
Continuous
 70
     0
  3
Solid line
 72
    65
 73
     0
 40
0.0
  0
LTYPE
  5
3B
330
5
100
AcDbSymbolTableRecord
100
AcDbLinetypeTableRecord
  2
DASHED
 70
     0
  3
Dashed
 72
    65
 73
     2
 40
15.0
 49
7.0
 74
     0
 49
-8.0
 74
     0
  0
LTYPE
  5
3C
330
5
100
AcDbSymbolTableRecord
100
AcDbLinetypeTableRecord
  2
DOTTED
 70
     0
  3
Dotted
 72
    65
 73
     2
 40
1.0
 49
0.0
 74
     0
 49
-1.0
 74
     0
  0
LTYPE
  5
3D
330
5
100
AcDbSymbolTableRecord
100
AcDbLinetypeTableRecord
  2
DOT_CENTER
 70
     0
  3
Dot_Center
 72
    65
 73
     4
 40
14.0
 49
12.0
 74
     0
 49
-1.0
 74
     0
 49
0.0
 74
     0
 49
-1.0
 74
     0
  0
LTYPE
  5
3E
330
5
100
AcDbSymbolTableRecord
100
AcDbLinetypeTableRecord
  2
LONG_DASHED
 70
     0
  3
Long_Dashed
 72
    65
 73
     2
 40
15.0
 49
10.0
 74
     0
 49
-5.0
 74
     0
  0
LTYPE
  5
3F
330
5
100
AcDbSymbolTableRecord
100
AcDbLinetypeTableRecord
  2
DASH_CENTER
 70
     0
  3
Dash_Center
 72
    65
 73
     4
 40
14.0
 49
11.0
 74
     0
 49
-1.0
 74
     0
 49
1.0
 74
     0
 49
-1.0
 74
     0
  0
LTYPE
  5
40
330
5
100
AcDbSymbolTableRecord
100
AcDbLinetypeTableRecord
  2
PHANTOM
 70
     0
  3
Phantom
 72
    65
 73
     6
 40
13.0
 49
10.0
 74
     0
 49
-1.0
 74
     0
 49
0.0
 74
     0
 49
-1.0
 74
     0
 49
0.0
 74
     0
 49
-1.0
 74
     0
  0
LTYPE
  5
41
330
5
100
AcDbSymbolTableRecord
100
AcDbLinetypeTableRecord
  2
CENTER_DASH_DASH
 70
     0
  3
Center_Dash_Dash
 72
    65
 73
     6
 40
14.0
 49
9.0
 74
     0
 49
-1.0
 74
     0
 49
1.0
 74
     0
 49
-1.0
 74
     0
 49
1.0
 74
     0
 49
-1.0
 74
     0
  0
LTYPE
  5
42
330
5
100
AcDbSymbolTableRecord
100
AcDbLinetypeTableRecord
  2
HIDDEN
 70
     0
  3
HIDDEN
 72
    65
 73
     2
 40
6.0
 49
3.0
 74
     0
 49
-3.0
 74
     0
  0
ENDTAB
  0
TABLE
  2
LAYER
  5
2
330
0
100
AcDbSymbolTable
 70
     6
  0
LAYER
  5
10
330
2
100
AcDbSymbolTableRecord
100
AcDbLayerTableRecord
  2
0
 70
     0
 62
     7
  6
Continuous
370
    -3
390
F
  0
LAYER
  5
43
330
2
100
AcDbSymbolTableRecord
100
AcDbLayerTableRecord
  2
1
 70
     0
 62
     7
  6
Continuous
370
    -3
390
F
  0
LAYER
  5
44
330
2
100
AcDbSymbolTableRecord
100
AcDbLayerTableRecord
  2
DEFAULT_2
 70
     0
 62
     7
  6
Continuous
370
    -3
390
F
  0
LAYER
  5
45
330
2
100
AcDbSymbolTableRecord
100
AcDbLayerTableRecord
  2
FASEN
 70
     0
 62
     7
  6
Continuous
370
    -3
390
F
  0
LAYER
  5
46
330
2
100
AcDbSymbolTableRecord
100
AcDbLayerTableRecord
  2
RUNDUNGEN
 70
     0
 62
     7
  6
Continuous
370
    -3
390
F
  0
LAYER
  5
47
330
2
100
AcDbSymbolTableRecord
100
AcDbLayerTableRecord
  2
TEIL_STARTBEZUEGE
 70
     0
 62
     7
  6
Continuous
370
    -3
390
F
  0
ENDTAB
  0
TABLE
  2
STYLE
  5
3
330
0
100
AcDbSymbolTable
 70
     2
  0
STYLE
  5
11
330
3
100
AcDbSymbolTableRecord
100
AcDbTextStyleTableRecord
  2
Standard
 70
     0
 40
0.0
 41
1.0
 50
0.0
 71
     0
 42
0.2
  3
txt
  4

  0
STYLE
  5
6E
330
3
100
AcDbSymbolTableRecord
100
AcDbTextStyleTableRecord
  2
CONVERTER_11
 70
     0
 40
0.0
 41
0.72
 50
0.0
 71
     0
 42
0.2
  3
txt.shx
  4

  0
ENDTAB
  0
TABLE
  2
VIEW
  5
6
330
0
100
AcDbSymbolTable
 70
     0
  0
ENDTAB
  0
TABLE
  2
UCS
  5
7
330
0
100
AcDbSymbolTable
 70
     0
  0
ENDTAB
  0
TABLE
  2
APPID
  5
9
330
0
100
AcDbSymbolTable
 70
     1
  0
APPID
  5
12
330
9
100
AcDbSymbolTableRecord
100
AcDbRegAppTableRecord
  2
ACAD
 70
     0
  0
ENDTAB
  0
TABLE
  2
DIMSTYLE
  5
A
330
0
100
AcDbSymbolTable
 70
     8
100
AcDbDimStyleTable
  0
DIMSTYLE
105
27
330
A
100
AcDbSymbolTableRecord
100
AcDbDimStyleTableRecord
  2
Standard
 70
     0
340
11
  0
DIMSTYLE
105
DC
102
{ACAD_REACTORS
330
DD
102
}
330
A
100
AcDbSymbolTableRecord
100
AcDbDimStyleTableRecord
  2
ME10_DIM_10
 70
     0
  3
\U+2300<>
 41
3.5
 42
2.0
 44
2.0
 71
     1
 73
     0
 74
     0
 77
     1
 78
     8
140
3.5
146
0.7
147
2.0
172
     1
173
     1
176
     2
177
     2
178
     3
271
     2
272
     0
340
6E
  0
DIMSTYLE
105
E7
102
{ACAD_REACTORS
330
E8
102
}
330
A
100
AcDbSymbolTableRecord
100
AcDbDimStyleTableRecord
  2
ME10_DIM_11
 70
     0
  3
\U+2300<>
 41
3.5
 42
2.0
 44
2.0
 71
     1
 73
     0
 74
     0
 77
     1
 78
     8
140
3.5
146
0.7
147
2.0
172
     1
173
     1
176
     2
177
     2
178
     3
271
     2
272
     0
340
6E
  0
DIMSTYLE
105
F2
102
{ACAD_REACTORS
330
F3
102
}
330
A
100
AcDbSymbolTableRecord
100
AcDbDimStyleTableRecord
  2
ME10_DIM_12
 70
     0
  3
\U+2300<>
 41
3.5
 42
2.0
 44
2.0
 71
     1
 73
     0
 74
     0
 77
     1
 78
     8
140
3.5
146
0.7
147
2.0
172
     1
173
     1
176
     2
177
     2
178
     3
271
     2
272
     0
340
6E
  0
DIMSTYLE
105
FD
102
{ACAD_REACTORS
330
FE
102
}
330
A
100
AcDbSymbolTableRecord
100
AcDbDimStyleTableRecord
  2
ME10_DIM_13
 70
     0
  3
<>
 41
3.5
 42
2.0
 44
2.0
 71
     1
 73
     0
 74
     0
 77
     1
 78
     8
140
3.5
146
0.7
147
2.0
172
     1
173
     1
176
     2
177
     2
178
     3
271
     2
272
     0
340
6E
  0
DIMSTYLE
105
108
102
{ACAD_REACTORS
330
109
102
}
330
A
100
AcDbSymbolTableRecord
100
AcDbDimStyleTableRecord
  2
ME10_DIM_14
 70
     0
  3
<>
 41
3.5
 42
2.0
 44
2.0
 71
     1
 73
     0
 74
     0
 77
     1
 78
     8
140
3.5
146
0.7
147
2.0
172
     1
173
     1
176
     2
177
     2
178
     3
271
     2
272
     0
340
6E
  0
DIMSTYLE
105
113
102
{ACAD_REACTORS
330
114
102
}
330
A
100
AcDbSymbolTableRecord
100
AcDbDimStyleTableRecord
  2
ME10_DIM_15
 70
     0
  3
<>
 41
3.5
 42
2.0
 44
2.0
 71
     1
 73
     0
 74
     0
 77
     1
 78
     8
140
3.5
146
0.7
147
2.0
172
     1
173
     1
176
     2
177
     2
178
     3
271
     2
272
     0
340
6E
  0
DIMSTYLE
105
125
102
{ACAD_REACTORS
330
126
102
}
330
A
100
AcDbSymbolTableRecord
100
AcDbDimStyleTableRecord
  2
ME10_DIM_16
 70
     0
  3
<>
 41
3.5
 42
2.0
 44
2.0
 71
     1
 73
     0
 74
     0
 77
     1
 78
     8
140
3.5
146
0.7
147
2.0
172
     1
173
     1
176
     2
177
     2
178
     3
271
     2
272
     0
340
6E
  0
ENDTAB
  0
TABLE
  2
BLOCK_RECORD
  5
1
330
0
100
AcDbSymbolTable
 70
    10
  0
BLOCK_RECORD
  5
1F
330
1
100
AcDbSymbolTableRecord
100
AcDbBlockTableRecord
  2
*Model_Space
340
22
  0
BLOCK_RECORD
  5
1B
330
1
100
AcDbSymbolTableRecord
100
AcDbBlockTableRecord
  2
*Paper_Space
340
1E
  0
BLOCK_RECORD
  5
23
330
1
100
AcDbSymbolTableRecord
100
AcDbBlockTableRecord
  2
*Paper_Space0
340
26
  0
BLOCK_RECORD
  5
48
330
1
100
AcDbSymbolTableRecord
100
AcDbBlockTableRecord
  2
Urheberrecht_DE-EN
340
0
102
{BLKREFS
331
6D
102
}
  0
BLOCK_RECORD
  5
D3
330
1
100
AcDbSymbolTableRecord
100
AcDbBlockTableRecord
  2
*D2
340
0
  0
BLOCK_RECORD
  5
DE
330
1
100
AcDbSymbolTableRecord
100
AcDbBlockTableRecord
  2
*D3
340
0
  0
BLOCK_RECORD
  5
E9
330
1
100
AcDbSymbolTableRecord
100
AcDbBlockTableRecord
  2
*D4
340
0
  0
BLOCK_RECORD
  5
F4
330
1
100
AcDbSymbolTableRecord
100
AcDbBlockTableRecord
  2
*D5
340
0
  0
BLOCK_RECORD
  5
FF
330
1
100
AcDbSymbolTableRecord
100
AcDbBlockTableRecord
  2
*D6
340
0
  0
BLOCK_RECORD
  5
10A
330
1
100
AcDbSymbolTableRecord
100
AcDbBlockTableRecord
  2
*D7
340
0
  0
BLOCK_RECORD
  5
115
330
1
100
AcDbSymbolTableRecord
100
AcDbBlockTableRecord
  2
*D8
340
0
102
{BLKREFS
331
11B
102
}
  0
BLOCK_RECORD
  5
11C
330
1
100
AcDbSymbolTableRecord
100
AcDbBlockTableRecord
  2
*D9
340
0
  0
ENDTAB
  0
ENDSEC
  0
SECTION
  2
BLOCKS
  0
BLOCK
  5
20
330
1F
100
AcDbEntity
  8
0
100
AcDbBlockBegin
  2
*Model_Space
 70
     0
 10
0.0
 20
0.0
 30
0.0
  3
*Model_Space
  1

  0
ENDBLK
  5
21
330
1F
100
AcDbEntity
  8
0
100
AcDbBlockEnd
  0
BLOCK
  5
1C
330
1B
100
AcDbEntity
 67
     1
  8
0
100
AcDbBlockBegin
  2
*Paper_Space
 70
     0
 10
0.0
 20
0.0
 30
0.0
  3
*Paper_Space
  1

  0
ENDBLK
  5
1D
330
1B
100
AcDbEntity
 67
     1
  8
0
100
AcDbBlockEnd
  0
BLOCK
  5
24
330
23
100
AcDbEntity
  8
0
100
AcDbBlockBegin
  2
*Paper_Space0
 70
     0
 10
0.0
 20
0.0
 30
0.0
  3
*Paper_Space0
  1

  0
ENDBLK
  5
25
330
23
100
AcDbEntity
  8
0
100
AcDbBlockEnd
  0
BLOCK
  5
49
330
48
100
AcDbEntity
  8
0
100
AcDbBlockBegin
  2
Urheberrecht_DE-EN
 70
     0
 10
43.3677790899867
 20
417.589623244374
 30
0.0
  3
Urheberrecht_DE-EN
  1

  0
MTEXT
  5
6F
330
48
100
AcDbEntity
  8
1
 62
     1
100
AcDbMText
 10
43.3677790899867
 20
417.589623244374
 30
0.0
 40
2.0
 41
0.0
 71
     7
 72
     1
  1
We own the copyright of this document. It \Pdetermined and may neither be copied or \Pmade accessible to outsiders without our\Ppermission.
  7
CONVERTER_11
 11
0.0
 21
1.0
 31
0.0
 73
     1
 44
0.90036014405762
  0
MTEXT
  5
70
330
48
100
AcDbEntity
  8
1
 62
     1
100
AcDbMText
 10
43.3677790899867
 20
361.3002363270678
 30
0.0
 40
2.0
 41
0.0
 71
     7
 72
     1
  1
F\U+00fcr diese Unterlage behalten wir das Ur-\Pheberrecht. Sie darf nur f\U+00fcr den von uns \Pbestimmten Zweck benutzt und ohne unsere \PZustimmung weder vervielf\U+00e4ltigt noch\PDritten zug\U+00e4nglich gemacht werden.
  7
CONVERTER_11
 11
0.0
 21
1.0
 31
0.0
 73
     1
 44
0.90036014405762
  0
ENDBLK
  5
4A
330
48
100
AcDbEntity
  8
0
100
AcDbBlockEnd
  0
BLOCK
  5
DA
330
D3
100
AcDbEntity
  8
0
100
AcDbBlockBegin
  2
*D2
 70
     1
 10
0.0
 20
0.0
 30
0.0
  3
*D2
  1

  0
LINE
  5
D4
330
D3
100
AcDbEntity
  8
1
  6
Continuous
 62
     2
100
AcDbLine
 10
361.976737501986
 20
414.0208779443
 30
0.0
 11
361.976737501986
 21
402.0208779443
 31
0.0
  0
LINE
  5
D5
330
D3
100
AcDbEntity
  8
1
  6
Continuous
 62
     2
100
AcDbLine
 10
352.655754818
 20
414.0208779443
 30
0.0
 11
363.976737501986
 21
414.0208779443
 31
0.0
  0
LINE
  5
D6
330
D3
100
AcDbEntity
  8
1
  6
Continuous
 62
     2
100
AcDbLine
 10
352.655754818
 20
402.0208779443
 30
0.0
 11
363.976737501986
 21
402.0208779443
 31
0.0
  0
SOLID
  5
D7
330
D3
100
AcDbEntity
  8
1
 62
     2
100
AcDbTrace
 10
362.4375212435419
 20
410.5208779443
 30
0.0
 11
361.5159537604301
 21
410.5208779443
 31
0.0
 12
361.976737501986
 22
414.0208779443
 32
0.0
 13
361.976737501986
 23
414.0208779443
 33
0.0
  0
SOLID
  5
D8
330
D3
100
AcDbEntity
  8
1
 62
     2
100
AcDbTrace
 10
361.5159537604301
 20
405.5208779443
 30
0.0
 11
362.4375212435419
 21
405.5208779443
 31
0.0
 12
361.976737501986
 22
402.0208779443
 32
0.0
 13
361.976737501986
 23
402.0208779443
 33
0.0
  0
MTEXT
  5
D9
330
D3
100
AcDbEntity
  8
1
 62
     3
100
AcDbMText
 10
359.976737501986
 20
399.894016840703
 30
0.0
 40
3.5
 41
0.0
 71
     7
 72
     1
  1
\C3;%%c\C3;\C3;12\C2;\H2.45;\S^ ;\C3;
  7
CONVERTER_11
 11
0.0
 21
1.0
 31
0.0
 73
     1
 44
0.60024009603842
  0
ENDBLK
  5
DB
330
D3
100
AcDbEntity
  8
0
100
AcDbBlockEnd
  0
BLOCK
  5
E5
330
DE
100
AcDbEntity
  8
0
100
AcDbBlockBegin
  2
*D3
 70
     1
 10
0.0
 20
0.0
 30
0.0
  3
*D3
  1

  0
LINE
  5
DF
330
DE
100
AcDbEntity
  8
1
  6
Continuous
 62
     2
100
AcDbLine
 10
371.016853276998
 20
420.0208779443466
 30
0.0
 11
371.016853276998
 21
396.0208779443487
 31
0.0
  0
LINE
  5
E0
330
DE
100
AcDbEntity
  8
1
  6
Continuous
 62
     2
100
AcDbLine
 10
352.655754818
 20
420.0208779443466
 30
0.0
 11
373.016853276998
 21
420.0208779443466
 31
0.0
  0
LINE
  5
E1
330
DE
100
AcDbEntity
  8
1
  6
Continuous
 62
     2
100
AcDbLine
 10
352.655754818
 20
396.0208779443487
 30
0.0
 11
373.016853276998
 21
396.0208779443487
 31
0.0
  0
SOLID
  5
E2
330
DE
100
AcDbEntity
  8
1
 62
     2
100
AcDbTrace
 10
371.4776370185539
 20
416.5208779443466
 30
0.0
 11
370.5560695354421
 21
416.5208779443466
 31
0.0
 12
371.016853276998
 22
420.0208779443466
 32
0.0
 13
371.016853276998
 23
420.0208779443466
 33
0.0
  0
SOLID
  5
E3
330
DE
100
AcDbEntity
  8
1
 62
     2
100
AcDbTrace
 10
370.5560695354421
 20
399.5208779443487
 30
0.0
 11
371.4776370185539
 21
399.5208779443487
 31
0.0
 12
371.016853276998
 22
396.0208779443487
 32
0.0
 13
371.016853276998
 23
396.0208779443487
 33
0.0
  0
MTEXT
  5
E4
330
DE
100
AcDbEntity
  8
1
 62
     3
100
AcDbMText
 10
369.016853276998
 20
399.253526212044
 30
0.0
 40
3.5
 41
0.0
 71
     7
 72
     1
  1
\C3;%%c\C3;\C3;24\C2;\H2.45;\S^ ;\C3;
  7
CONVERTER_11
 11
0.0
 21
1.0
 31
0.0
 73
     1
 44
0.60024009603842
  0
ENDBLK
  5
E6
330
DE
100
AcDbEntity
  8
0
100
AcDbBlockEnd
  0
BLOCK
  5
F0
330
E9
100
AcDbEntity
  8
0
100
AcDbBlockBegin
  2
*D4
 70
     1
 10
0.0
 20
0.0
 30
0.0
  3
*D4
  1

  0
LINE
  5
EA
330
E9
100
AcDbEntity
  8
1
  6
Continuous
 62
     2
100
AcDbLine
 10
380.497950309327
 20
424.0208779443
 30
0.0
 11
380.497950309327
 21
392.0208779443
 31
0.0
  0
LINE
  5
EB
330
E9
100
AcDbEntity
  8
1
  6
Continuous
 62
     2
100
AcDbLine
 10
301.8309358733
 20
424.0208779443
 30
0.0
 11
382.497950309327
 21
424.0208779443
 31
0.0
  0
LINE
  5
EC
330
E9
100
AcDbEntity
  8
1
  6
Continuous
 62
     2
100
AcDbLine
 10
301.8309358733
 20
392.0208779443
 30
0.0
 11
382.497950309327
 21
392.0208779443
 31
0.0
  0
SOLID
  5
ED
330
E9
100
AcDbEntity
  8
1
 62
     2
100
AcDbTrace
 10
380.9587340508829
 20
420.5208779443
 30
0.0
 11
380.0371665677711
 21
420.5208779443
 31
0.0
 12
380.497950309327
 22
424.0208779443
 32
0.0
 13
380.497950309327
 23
424.0208779443
 33
0.0
  0
SOLID
  5
EE
330
E9
100
AcDbEntity
  8
1
 62
     2
100
AcDbTrace
 10
380.0371665677711
 20
395.5208779443
 30
0.0
 11
380.9587340508829
 21
395.5208779443
 31
0.0
 12
380.497950309327
 22
392.0208779443
 32
0.0
 13
380.497950309327
 23
392.0208779443
 33
0.0
  0
MTEXT
  5
EF
330
E9
100
AcDbEntity
  8
1
 62
     3
100
AcDbMText
 10
378.497950309327
 20
399.694507469362
 30
0.0
 40
3.5
 41
0.0
 71
     7
 72
     1
  1
\C3;%%c\C3;\C3;32\C2;\H2.45;\S^ ;\C3;
  7
CONVERTER_11
 11
0.0
 21
1.0
 31
0.0
 73
     1
 44
0.60024009603842
  0
ENDBLK
  5
F1
330
E9
100
AcDbEntity
  8
0
100
AcDbBlockEnd
  0
BLOCK
  5
FB
330
F4
100
AcDbEntity
  8
0
100
AcDbBlockBegin
  2
*D5
 70
     1
 10
0.0
 20
0.0
 30
0.0
  3
*D5
  1

  0
LINE
  5
F5
330
F4
100
AcDbEntity
  8
1
  6
Continuous
 62
     2
100
AcDbLine
 10
350.655754818
 20
465.215599034679
 30
0.0
 11
188.655754818
 21
465.215599034679
 31
0.0
  0
LINE
  5
F6
330
F4
100
AcDbEntity
  8
1
  6
Continuous
 62
     2
100
AcDbLine
 10
350.655754818
 20
421.0964874527
 30
0.0
 11
350.655754818
 21
467.215599034679
 31
0.0
  0
LINE
  5
F7
330
F4
100
AcDbEntity
  8
1
  6
Continuous
 62
     2
100
AcDbLine
 10
188.655754818
 20
459.0083779443
 30
0.0
 11
188.655754818
 21
467.215599034679
 31
0.0
  0
SOLID
  5
F8
330
F4
100
AcDbEntity
  8
1
 62
     2
100
AcDbTrace
 10
347.155754818
 20
464.7548152931231
 30
0.0
 11
347.155754818
 21
465.6763827762348
 31
0.0
 12
350.655754818
 22
465.215599034679
 32
0.0
 13
350.655754818
 23
465.215599034679
 33
0.0
  0
SOLID
  5
F9
330
F4
100
AcDbEntity
  8
1
 62
     2
100
AcDbTrace
 10
192.155754818
 20
465.6763827762348
 30
0.0
 11
192.155754818
 21
464.7548152931231
 31
0.0
 12
188.655754818
 22
465.215599034679
 32
0.0
 13
188.655754818
 23
465.215599034679
 33
0.0
  0
MTEXT
  5
FA
330
F4
100
AcDbEntity
  8
1
 62
     3
100
AcDbMText
 10
268.41508912321
 20
467.215599034679
 30
0.0
 40
3.5
 41
0.0
 71
     7
 72
     1
  1
\C3;\C3;\C3;162\C2;\H2.45;\S^ ;\C3;
  7
CONVERTER_11
 11
0.9999999999970619
 21
2.424068405545306E-6
 31
0.0
 73
     1
 44
0.60024009603842
  0
ENDBLK
  5
FC
330
F4
100
AcDbEntity
  8
0
100
AcDbBlockEnd
  0
BLOCK
  5
106
330
FF
100
AcDbEntity
  8
0
100
AcDbBlockBegin
  2
*D6
 70
     1
 10
0.0
 20
0.0
 30
0.0
  3
*D6
  1

  0
LINE
  5
100
330
FF
100
AcDbEntity
  8
1
  6
Continuous
 62
     2
100
AcDbLine
 10
350.655754818
 20
472.932771037738
 30
0.0
 11
150.655754818
 21
472.932771037738
 31
0.0
  0
LINE
  5
101
330
FF
100
AcDbEntity
  8
1
  6
Continuous
 62
     2
100
AcDbLine
 10
350.655754818
 20
421.0964874527
 30
0.0
 11
350.655754818
 21
474.932771037738
 31
0.0
  0
LINE
  5
102
330
FF
100
AcDbEntity
  8
1
  6
Continuous
 62
     2
100
AcDbLine
 10
150.655754818
 20
463.0083779443
 30
0.0
 11
150.655754818
 21
474.932771037738
 31
0.0
  0
SOLID
  5
103
330
FF
100
AcDbEntity
  8
1
 62
     2
100
AcDbTrace
 10
347.155754818
 20
472.4719872961821
 30
0.0
 11
347.155754818
 21
473.3935547792939
 31
0.0
 12
350.655754818
 22
472.932771037738
 32
0.0
 13
350.655754818
 23
472.932771037738
 33
0.0
  0
SOLID
  5
104
330
FF
100
AcDbEntity
  8
1
 62
     2
100
AcDbTrace
 10
154.155754818
 20
473.3935547792939
 30
0.0
 11
154.155754818
 21
472.4719872961821
 31
0.0
 12
150.655754818
 22
472.932771037738
 32
0.0
 13
150.655754818
 23
472.932771037738
 33
0.0
  0
MTEXT
  5
105
330
FF
100
AcDbEntity
  8
1
 62
     3
100
AcDbMText
 10
247.048479400622
 20
474.932771037738
 30
0.0
 40
3.5
 41
0.0
 71
     7
 72
     1
  1
\C3;\C3;\C3;200\C2;\H2.45;\S^ ;\C3;
  7
CONVERTER_11
 11
0.9999999999970619
 21
2.424068405545306E-6
 31
0.0
 73
     1
 44
0.60024009603842
  0
ENDBLK
  5
107
330
FF
100
AcDbEntity
  8
0
100
AcDbBlockEnd
  0
BLOCK
  5
111
330
10A
100
AcDbEntity
  8
0
100
AcDbBlockBegin
  2
*D7
 70
     1
 10
0.0
 20
0.0
 30
0.0
  3
*D7
  1

  0
LINE
  5
10B
330
10A
100
AcDbEntity
  8
1
  6
Continuous
 62
     2
100
AcDbLine
 10
350.655754818
 20
481.311414926773
 30
0.0
 11
48.85575481800001
 21
481.311414926773
 31
0.0
  0
LINE
  5
10C
330
10A
100
AcDbEntity
  8
1
  6
Continuous
 62
     2
100
AcDbLine
 10
350.655754818
 20
421.0964874527
 30
0.0
 11
350.655754818
 21
483.311414926773
 31
0.0
  0
LINE
  5
10D
330
10A
100
AcDbEntity
  8
1
  6
Continuous
 62
     2
100
AcDbLine
 10
48.85575481800001
 20
429.234073352
 30
0.0
 11
48.85575481800001
 21
483.311414926773
 31
0.0
  0
SOLID
  5
10E
330
10A
100
AcDbEntity
  8
1
 62
     2
100
AcDbTrace
 10
347.155754818
 20
480.8506311852171
 30
0.0
 11
347.155754818
 21
481.7721986683289
 31
0.0
 12
350.655754818
 22
481.311414926773
 32
0.0
 13
350.655754818
 23
481.311414926773
 33
0.0
  0
SOLID
  5
10F
330
10A
100
AcDbEntity
  8
1
 62
     2
100
AcDbTrace
 10
52.35575481800001
 20
481.7721986683289
 30
0.0
 11
52.35575481800001
 21
480.8506311852171
 31
0.0
 12
48.85575481800001
 22
481.311414926773
 32
0.0
 13
48.85575481800001
 23
481.311414926773
 33
0.0
  0
MTEXT
  5
110
330
10A
100
AcDbEntity
  8
1
 62
     3
100
AcDbMText
 10
207.388110013986
 20
483.311414926773
 30
0.0
 40
3.5
 41
0.0
 71
     7
 72
     1
  1
\C3;\C3;\C3;301.8\C2;\H2.45;\S^ ;\C3;
  7
CONVERTER_11
 11
0.9999999999970619
 21
2.424068405545306E-6
 31
0.0
 73
     1
 44
0.60024009603842
  0
ENDBLK
  5
112
330
10A
100
AcDbEntity
  8
0
100
AcDbBlockEnd
  0
BLOCK
  5
119
330
115
100
AcDbEntity
  8
0
100
AcDbBlockBegin
  2
*D8
 70
     1
 10
0.0
 20
0.0
 30
0.0
  3
*D8
  1

  0
LINE
  5
116
330
115
100
AcDbEntity
  8
1
  6
Continuous
 62
     2
100
AcDbLine
 10
202.3537595279897
 20
441.5002758809609
 30
0.0
 11
191.5378884522387
 21
433.6094918325423
 31
0.0
  0
SOLID
  5
117
330
115
100
AcDbEntity
  8
1
 62
     2
100
AcDbTrace
 10
194.0938150323628
 20
436.0445608199628
 30
0.0
 11
194.6369661761622
 21
435.3000653794675
 31
0.0
 12
191.5378884522387
 22
433.6094918325423
 32
0.0
 13
191.5378884522387
 23
433.6094918325423
 33
0.0
  0
MTEXT
  5
118
330
115
100
AcDbEntity
  8
1
 62
     3
100
AcDbMText
 10
193.8234989229146
 20
437.7526561017536
 30
0.0
 40
3.5
 41
0.0
 71
     7
 72
     1
  1
\C3; R\C3;\C3;15\C2;\H2.45;\S^ ;\C3;
  7
CONVERTER_11
 11
0.807857757721094
 21
0.5893775049065291
 31
0.0
 73
     1
 44
0.60024009603842
  0
ENDBLK
  5
11A
330
115
100
AcDbEntity
  8
0
100
AcDbBlockEnd
  0
BLOCK
  5
123
330
11C
100
AcDbEntity
  8
0
100
AcDbBlockBegin
  2
*D9
 70
     1
 10
0.0
 20
0.0
 30
0.0
  3
*D9
  1

  0
LINE
  5
11D
330
11C
100
AcDbEntity
  8
1
  6
Continuous
 62
     2
100
AcDbLine
 10
330.2834844842177
 20
424.0208779443001
 30
0.0
 11
332.2834844842177
 21
424.0208779443001
 31
0.0
  0
LINE
  5
11E
330
11C
100
AcDbEntity
  8
1
  6
Continuous
 62
     2
100
AcDbLine
 10
301.8309358733001
 20
424.0208779443001
 30
0.0
 11
330.2834844842177
 21
424.0208779443001
 31
0.0
  0
ARC
  5
11F
330
11C
100
AcDbEntity
  8
1
  6
Continuous
 62
     2
100
AcDbCircle
 10
299.8309358733001
 20
424.0208779443001
 30
0.0
 40
30.45254861091763
100
AcDbArc
 50
345.6222440759838
 51
18.69070973957612
  0
SOLID
  5
120
330
11C
100
AcDbEntity
  8
1
 62
     2
100
AcDbTrace
 10
330.1715822732599
 20
418.1014431843195
 30
0.0
 11
329.2585251016193
 21
418.2263960844249
 31
0.0
 12
330.1896094398756
 22
421.6315985176931
 32
0.0
 13
330.1896094398756
 23
421.6315985176931
 33
0.0
  0
SOLID
  5
121
330
11C
100
AcDbEntity
  8
1
 62
     2
100
AcDbTrace
 10
329.6224394719254
 20
427.4886353101211
 30
0.0
 11
330.542485684574
 21
427.541565382102
 31
0.0
 12
330.2834844842177
 22
424.0208779443001
 32
0.0
 13
330.2834844842177
 23
424.0208779443001
 33
0.0
  0
MTEXT
  5
122
330
11C
100
AcDbEntity
  8
1
 62
     3
100
AcDbMText
 10
330.7538494055308
 20
434.4821185505642
 30
0.0
 40
3.5
 41
0.0
 71
     7
 72
     1
  1
\C3;\C3;\C3;4.5%%d\C2;\H2.45;\S^ ;\C3;
  7
CONVERTER_11
 11
0.2159980918177003
 21
-0.9763937854836605
 31
0.0
 73
     1
 44
0.60024009603842
  0
ENDBLK
  5
124
330
11C
100
AcDbEntity
  8
0
100
AcDbBlockEnd
  0
ENDSEC
  0
SECTION
  2
ENTITIES
  0
INSERT
  5
6D
330
1F
100
AcDbEntity
  8
0
100
AcDbBlockReference
  2
Urheberrecht_DE-EN
 10
43.3677790899867
 20
417.589623244374
 30
0.0
  0
LINE
  5
71
330
1F
100
AcDbEntity
  8
0
  6
Continuous
 62
     7
100
AcDbLine
 10
48.855754818
 20
427.234073352
 30
0.0
 11
48.855754818
 21
388.8076825367
 31
0.0
  0
LINE
  5
72
330
1F
100
AcDbEntity
  8
0
  6
Continuous
 62
     9
100
AcDbLine
 10
49.7114361488
 20
428.2236046156
 30
0.0
 11
49.7114361488
 21
387.818151273
 31
0.0
  0
LINE
  5
73
330
1F
100
AcDbEntity
  8
0
  6
Continuous
 62
     7
100
AcDbLine
 10
150.0365642017
 20
442.8555717873
 30
0.0
 11
150.0365642017
 21
373.1861841014
 31
0.0
  0
LWPOLYLINE
  5
74
330
1F
100
AcDbEntity
  8
TEIL_STARTBEZUEGE
  6
DOT_CENTER
 62
     7
100
AcDbPolyline
 90
        2
 70
     0
 43
0.25
 10
150.655754818
 20
355.0333779443
 10
150.655754818
 20
461.0083779443
  0
LINE
  5
75
330
1F
100
AcDbEntity
  8
0
  6
Continuous
 62
     7
100
AcDbLine
 10
151.005754818
 20
442.5958779443
 30
0.0
 11
151.005754818
 21
373.4458779443
 31
0.0
  0
LINE
  5
76
330
1F
100
AcDbEntity
  8
0
  6
Continuous
 62
     9
100
AcDbLine
 10
152.655754818
 20
442.5958779443
 30
0.0
 11
152.655754818
 21
373.4458779443
 31
0.0
  0
LINE
  5
77
330
1F
100
AcDbEntity
  8
0
  6
Continuous
 62
     7
100
AcDbLine
 10
153.655754818
 20
456.9987084403
 30
0.0
 11
153.655754818
 21
421.9233779443
 31
0.0
  0
LINE
  5
78
330
1F
100
AcDbEntity
  8
0
  6
Continuous
 62
     7
100
AcDbLine
 10
153.655754818
 20
394.1183779443
 30
0.0
 11
153.655754818
 21
359.0341981204
 31
0.0
  0
LINE
  5
79
330
1F
100
AcDbEntity
  8
FASEN
  6
Continuous
 62
     7
100
AcDbLine
 10
153.655754818
 20
359.0335053261
 30
0.0
 11
153.655754818
 21
402.8691185361
 31
0.0
  0
LINE
  5
7A
330
1F
100
AcDbEntity
  8
FASEN
  6
Continuous
 62
     7
100
AcDbLine
 10
153.655754818
 20
413.1726373525
 30
0.0
 11
153.655754818
 21
457.0082505038
 31
0.0
  0
LINE
  5
7B
330
1F
100
AcDbEntity
  8
FASEN
  6
Continuous
 62
     9
100
AcDbLine
 10
154.655754818
 20
422.2071748313
 30
0.0
 11
154.655754818
 21
420.9233779443
 31
0.0
  0
LINE
  5
7C
330
1F
100
AcDbEntity
  8
0
  6
Continuous
 62
     9
100
AcDbLine
 10
154.655754818
 20
358.0333779443
 30
0.0
 11
154.655754818
 21
393.8345810574
 31
0.0
  0
LINE
  5
7D
330
1F
100
AcDbEntity
  8
FASEN
  6
Continuous
 62
     9
100
AcDbLine
 10
154.655754818
 20
393.8345810574
 30
0.0
 11
154.655754818
 21
395.1183779443
 31
0.0
  0
LINE
  5
7E
330
1F
100
AcDbEntity
  8
0
  6
Continuous
 62
     9
100
AcDbLine
 10
154.655754818
 20
422.2071748313
 30
0.0
 11
154.655754818
 21
458.0083779443
 31
0.0
  0
LINE
  5
7F
330
1F
100
AcDbEntity
  8
0
  6
Continuous
 62
     7
100
AcDbLine
 10
187.655754818
 20
358.0333779443
 30
0.0
 11
181.3864230542
 21
358.0333779443
 31
0.0
  0
LINE
  5
80
330
1F
100
AcDbEntity
  8
0
  6
Continuous
 62
     7
100
AcDbLine
 10
154.655754818
 20
358.0333779443
 30
0.0
 11
166.3250865818
 21
358.0333779443
 31
0.0
  0
LINE
  5
81
330
1F
100
AcDbEntity
  8
0
  6
Continuous
 62
     7
100
AcDbLine
 10
170.568254818
 20
365.6458779443
 30
0.0
 11
177.143254818
 21
365.6458779443
 31
0.0
  0
LINE
  5
82
330
1F
100
AcDbEntity
  8
0
  6
Continuous
 62
     7
100
AcDbLine
 10
49.7114361488
 20
387.818151273
 30
0.0
 11
150.0365642017
 21
373.1861841014
 31
0.0
  0
LINE
  5
83
330
1F
100
AcDbEntity
  8
0
  6
Continuous
 62
     7
100
AcDbLine
 10
166.3250865818
 20
458.0083779443
 30
0.0
 11
166.3250865818
 21
422.2071748313
 31
0.0
  0
LINE
  5
84
330
1F
100
AcDbEntity
  8
0
  6
Continuous
 62
     7
100
AcDbLine
 10
166.3250865818
 20
393.8345810574
 30
0.0
 11
166.3250865818
 21
358.0333779443
 31
0.0
  0
LINE
  5
85
330
1F
100
AcDbEntity
  8
0
  6
Continuous
 62
     7
100
AcDbLine
 10
177.393254818
 20
451.0920076761
 30
0.0
 11
181.3864230542
 21
458.0083779443
 31
0.0
  0
LINE
  5
86
330
1F
100
AcDbEntity
  8
0
  6
Continuous
 62
     7
100
AcDbLine
 10
152.655754818
 20
373.4458779443
 30
0.0
 11
151.005754818
 21
373.4458779443
 31
0.0
  0
LINE
  5
87
330
1F
100
AcDbEntity
  8
0
  6
Continuous
 62
     7
100
AcDbLine
 10
177.393254818
 20
364.9497482126
 30
0.0
 11
181.3864230542
 21
358.0333779443
 31
0.0
  0
LINE
  5
88
330
1F
100
AcDbEntity
  8
0
  6
Continuous
 62
     7
100
AcDbLine
 10
170.318254818
 20
451.0918592663
 30
0.0
 11
170.318254818
 21
420.9233779443
 31
0.0
  0
LINE
  5
89
330
1F
100
AcDbEntity
  8
0
  6
Continuous
 62
     7
100
AcDbLine
 10
170.318254818
 20
395.1183779443
 30
0.0
 11
170.318254818
 21
364.9498966224
 31
0.0
  0
LINE
  5
8A
330
1F
100
AcDbEntity
  8
0
  6
Continuous
 62
     9
100
AcDbLine
 10
170.568254818
 20
365.6458779443
 30
0.0
 11
170.568254818
 21
395.1183779443
 31
0.0
  0
LINE
  5
8B
330
1F
100
AcDbEntity
  8
0
  6
Continuous
 62
     9
100
AcDbLine
 10
170.568254818
 20
420.9233779443
 30
0.0
 11
170.568254818
 21
450.3958779443
 31
0.0
  0
LINE
  5
8C
330
1F
100
AcDbEntity
  8
0
  6
Continuous
 62
     9
100
AcDbLine
 10
177.143254818
 20
365.6458779443
 30
0.0
 11
177.143254818
 21
396.186398393
 31
0.0
  0
LINE
  5
8D
330
1F
100
AcDbEntity
  8
0
  6
Continuous
 62
     9
100
AcDbLine
 10
177.143254818
 20
419.8553574956
 30
0.0
 11
177.143254818
 21
450.3958779443
 31
0.0
  0
LINE
  5
8E
330
1F
100
AcDbEntity
  8
0
  6
Continuous
 62
     7
100
AcDbLine
 10
177.393254818
 20
364.9497482126
 30
0.0
 11
177.393254818
 21
396.2981476203
 31
0.0
  0
LINE
  5
8F
330
1F
100
AcDbEntity
  8
0
  6
Continuous
 62
     7
100
AcDbLine
 10
177.393254818
 20
419.7436082684
 30
0.0
 11
177.393254818
 21
451.0920076761
 31
0.0
  0
LINE
  5
90
330
1F
100
AcDbEntity
  8
FASEN
  6
Continuous
 62
     7
100
AcDbLine
 10
153.655754818
 20
394.1183779443
 30
0.0
 11
154.655754818
 21
395.1183779443
 31
0.0
  0
LINE
  5
91
330
1F
100
AcDbEntity
  8
0
  6
Continuous
 62
     7
100
AcDbLine
 10
151.005754818
 20
373.4458779443
 30
0.0
 11
150.0365642017
 21
373.1861841014
 31
0.0
  0
LINE
  5
92
330
1F
100
AcDbEntity
  8
RUNDUNGEN
  6
Continuous
 62
     7
100
AcDbLine
 10
349.7342139137
 20
395.9483511023
 30
0.0
 11
299.8309358733
 21
392.0208779443
 31
0.0
  0
LINE
  5
93
330
1F
100
AcDbEntity
  8
0
  6
Continuous
 62
     7
100
AcDbLine
 10
299.8309358733
 20
392.0208779443
 30
0.0
 11
349.7342139137
 21
395.9483511023
 31
0.0
  0
LINE
  5
94
330
1F
100
AcDbEntity
  8
FASEN
  6
Continuous
 62
     7
100
AcDbLine
 10
153.655754818
 20
421.9233779443
 30
0.0
 11
154.655754818
 21
420.9233779443
 31
0.0
  0
LINE
  5
95
330
1F
100
AcDbEntity
  8
0
  6
Continuous
 62
     7
100
AcDbLine
 10
181.3864230542
 20
458.0083779443
 30
0.0
 11
181.3864230542
 21
418.4885281227
 31
0.0
  0
LINE
  5
96
330
1F
100
AcDbEntity
  8
0
  6
Continuous
 62
     7
100
AcDbLine
 10
181.3864230542
 20
397.5532376374
 30
0.0
 11
181.3864230542
 21
358.0333779443
 31
0.0
  0
LINE
  5
97
330
1F
100
AcDbEntity
  8
0
  6
Continuous
 62
     9
100
AcDbLine
 10
187.655754818
 20
458.0083779443
 30
0.0
 11
187.655754818
 21
358.0333779443
 31
0.0
  0
LINE
  5
98
330
1F
100
AcDbEntity
  8
0
  6
Continuous
 62
     7
100
AcDbLine
 10
188.655754818
 20
457.0083779443
 30
0.0
 11
188.655754818
 21
359.0333779443
 31
0.0
  0
LINE
  5
99
330
1F
100
AcDbEntity
  8
0
  6
Continuous
 62
     7
100
AcDbLine
 10
299.8309358733
 20
392.0208779443
 30
0.0
 11
243.655754818
 21
392.0208779443
 31
0.0
  0
LINE
  5
9A
330
1F
100
AcDbEntity
  8
0
  6
Continuous
 62
     7
100
AcDbLine
 10
166.3250865818
 20
393.8345810574
 30
0.0
 11
154.655754818
 21
393.8345810574
 31
0.0
  0
LINE
  5
9B
330
1F
100
AcDbEntity
  8
0
  6
Continuous
 62
     7
100
AcDbLine
 10
154.655754818
 20
395.1183779443
 30
0.0
 11
172.003254818
 21
395.1183779443
 31
0.0
  0
LINE
  5
9C
330
1F
100
AcDbEntity
  8
RUNDUNGEN
  6
Continuous
 62
     9
100
AcDbLine
 10
201.1025633286
 20
427.6690443931
 30
0.0
 11
201.1025633286
 21
388.3727114956
 31
0.0
  0
LINE
  5
9D
330
1F
100
AcDbEntity
  8
0
  6
Continuous
 62
     7
100
AcDbLine
 10
166.3250865818
 20
358.0333779443
 30
0.0
 11
170.318254818
 21
364.9497482126
 31
0.0
  0
LINE
  5
9E
330
1F
100
AcDbEntity
  8
DEFAULT_2
  6
HIDDEN
 62
     8
100
AcDbLine
 10
350.655754818
 20
402.0208779443
 30
0.0
 11
303.655754818
 21
402.0208779443
 31
0.0
  0
LWPOLYLINE
  5
9F
330
1F
100
AcDbEntity
  8
TEIL_STARTBEZUEGE
  6
DOT_CENTER
 62
     7
100
AcDbPolyline
 90
        2
 70
     0
 43
0.25
 10
353.655754818
 20
408.0208779443
 10
45.855754818
 20
408.0208779443
  0
LINE
  5
A0
330
1F
100
AcDbEntity
  8
0
  6
Continuous
 62
     7
100
AcDbLine
 10
166.3250865818
 20
458.0083779443
 30
0.0
 11
170.318254818
 21
451.0920076761
 31
0.0
  0
LINE
  5
A1
330
1F
100
AcDbEntity
  8
DEFAULT_2
  6
HIDDEN
 62
     8
100
AcDbLine
 10
350.655754818
 20
414.0208779443
 30
0.0
 11
303.655754818
 21
414.0208779443
 31
0.0
  0
LINE
  5
A2
330
1F
100
AcDbEntity
  8
0
  6
Continuous
 62
     7
100
AcDbLine
 10
154.655754818
 20
420.9233779443
 30
0.0
 11
172.003254818
 21
420.9233779443
 31
0.0
  0
LINE
  5
A3
330
1F
100
AcDbEntity
  8
0
  6
Continuous
 62
     7
100
AcDbLine
 10
154.655754818
 20
422.2071748313
 30
0.0
 11
166.3250865818
 21
422.2071748313
 31
0.0
  0
LINE
  5
A4
330
1F
100
AcDbEntity
  8
0
  6
Continuous
 62
     7
100
AcDbLine
 10
299.8309358733
 20
424.0208779443
 30
0.0
 11
243.655754818
 21
424.0208779443
 31
0.0
  0
LINE
  5
A5
330
1F
100
AcDbEntity
  8
0
  6
Continuous
 62
     7
100
AcDbLine
 10
151.005754818
 20
442.5958779443
 30
0.0
 11
150.0365642017
 21
442.8555717873
 31
0.0
  0
LINE
  5
A6
330
1F
100
AcDbEntity
  8
RUNDUNGEN
  6
Continuous
 62
     7
100
AcDbLine
 10
349.7342139137
 20
420.0934047864
 30
0.0
 11
299.8309358733
 21
424.0208779443
 31
0.0
  0
LINE
  5
A7
330
1F
100
AcDbEntity
  8
0
  6
Continuous
 62
     7
100
AcDbLine
 10
299.8309358733
 20
424.0208779443
 30
0.0
 11
349.7342139137
 21
420.0934047864
 31
0.0
  0
LINE
  5
A8
330
1F
100
AcDbEntity
  8
0
  6
Continuous
 62
     7
100
AcDbLine
 10
150.0365642017
 20
442.8555717873
 30
0.0
 11
49.7114361488
 21
428.2236046156
 31
0.0
  0
LINE
  5
A9
330
1F
100
AcDbEntity
  8
0
  6
Continuous
 62
     7
100
AcDbLine
 10
152.655754818
 20
442.5958779443
 30
0.0
 11
151.005754818
 21
442.5958779443
 31
0.0
  0
LINE
  5
AA
330
1F
100
AcDbEntity
  8
0
  6
Continuous
 62
     7
100
AcDbLine
 10
170.568254818
 20
450.3958779443
 30
0.0
 11
177.143254818
 21
450.3958779443
 31
0.0
  0
LINE
  5
AB
330
1F
100
AcDbEntity
  8
0
  6
Continuous
 62
     9
100
AcDbLine
 10
243.655754818
 20
424.0208779443
 30
0.0
 11
243.655754818
 21
392.0208779443
 31
0.0
  0
LINE
  5
AC
330
1F
100
AcDbEntity
  8
0
  6
Continuous
 62
     7
100
AcDbLine
 10
187.655754818
 20
458.0083779443
 30
0.0
 11
181.3864230542
 21
458.0083779443
 31
0.0
  0
LINE
  5
AD
330
1F
100
AcDbEntity
  8
0
  6
Continuous
 62
     7
100
AcDbLine
 10
154.655754818
 20
458.0083779443
 30
0.0
 11
166.3250865818
 21
458.0083779443
 31
0.0
  0
LINE
  5
AE
330
1F
100
AcDbEntity
  8
0
  6
Continuous
 62
     7
100
AcDbLine
 10
299.8309358733
 20
424.0208779443
 30
0.0
 11
299.8309358733
 21
392.0208779443
 31
0.0
  0
LINE
  5
AF
330
1F
100
AcDbEntity
  8
DEFAULT_2
  6
HIDDEN
 62
     8
100
AcDbLine
 10
303.655754818
 20
402.0208779443
 30
0.0
 11
303.655754818
 21
414.0208779443
 31
0.0
  0
LINE
  5
B0
330
1F
100
AcDbEntity
  8
RUNDUNGEN
  6
Continuous
 62
     9
100
AcDbLine
 10
349.7342139137
 20
395.9483511023
 30
0.0
 11
349.7342139137
 21
420.0934047864
 31
0.0
  0
LINE
  5
B1
330
1F
100
AcDbEntity
  8
RUNDUNGEN
  6
Continuous
 62
     7
100
AcDbLine
 10
350.655754818
 20
396.945268436
 30
0.0
 11
350.655754818
 21
419.0964874527
 31
0.0
  0
LWPOLYLINE
  5
B2
330
1F
100
AcDbEntity
  8
1
  6
Continuous
 62
     7
100
AcDbPolyline
 90
        2
 70
     0
 43
0.25
 10
350.655754818
 20
419.0964874527
 10
350.655754818
 20
420.0208779443466
  0
LWPOLYLINE
  5
B3
330
1F
100
AcDbEntity
  8
1
  6
Continuous
 62
     7
100
AcDbPolyline
 90
        2
 70
     0
 43
0.25
 10
349.7342139137
 20
420.0934047864
 10
350.6557548179949
 20
420.0208779443466
  0
LWPOLYLINE
  5
B4
330
1F
100
AcDbEntity
  8
1
  6
Continuous
 62
     7
100
AcDbPolyline
 90
        2
 70
     0
 43
0.25
 10
349.7342139137
 20
395.9483511023
 10
350.655754818
 20
396.0208779443487
  0
LWPOLYLINE
  5
B5
330
1F
100
AcDbEntity
  8
1
  6
Continuous
 62
     7
100
AcDbPolyline
 90
        2
 70
     0
 43
0.25
 10
350.655754818
 20
396.945268436
 10
350.655754818
 20
396.0208779443487
  0
ARC
  5
B6
330
1F
100
AcDbEntity
  8
0
  6
Continuous
 62
     7
100
AcDbCircle
 10
-31.5989647568
 20
307.9230581039
 30
0.0
 40
228.5493151039
100
AcDbArc
 50
29.63179078000001
 51
30.00273823898917
  0
ARC
  5
B7
330
1F
100
AcDbEntity
  8
0
  6
Continuous
 62
     7
100
AcDbCircle
 10
49.855754818
 20
388.8076825367
 30
0.0
 40
1.0
100
AcDbArc
 50
180.0
 51
261.7021731705846
  0
ARC
  5
B8
330
1F
100
AcDbEntity
  8
0
  6
Continuous
 62
     7
100
AcDbCircle
 10
152.655754818
 20
372.4458779443
 30
0.0
 40
1.0
100
AcDbArc
 50
0.0
 51
90.0
  0
ARC
  5
B9
330
1F
100
AcDbEntity
  8
0
  6
Continuous
 62
     7
100
AcDbCircle
 10
154.655754818
 20
359.0333779443
 30
0.0
 40
1.0
100
AcDbArc
 50
180.0
 51
270.0
  0
ARC
  5
BA
330
1F
100
AcDbEntity
  8
0
  6
Continuous
 62
     7
100
AcDbCircle
 10
-31.5989647666
 20
508.1186977904
 30
0.0
 40
228.5493151151542
100
AcDbArc
 50
329.9972617610235
 51
330.36820922
  0
ARC
  5
BB
330
1F
100
AcDbEntity
  8
0
  6
Continuous
 62
     7
100
AcDbCircle
 10
49.855754818
 20
427.234073352
 30
0.0
 40
0.9999999999607223
100
AcDbArc
 50
98.29782683024213
 51
180.0
  0
ARC
  5
BC
330
1F
100
AcDbEntity
  8
0
  6
Continuous
 62
     7
100
AcDbCircle
 10
152.655754818
 20
443.5958779443
 30
0.0
 40
1.0
100
AcDbArc
 50
270.0
 51
0.0
  0
ARC
  5
BD
330
1F
100
AcDbEntity
  8
0
  6
Continuous
 62
     7
100
AcDbCircle
 10
154.655754818
 20
457.0083779443
 30
0.0
 40
1.0
100
AcDbArc
 50
90.0
 51
180.0
  0
ARC
  5
BE
330
1F
100
AcDbEntity
  8
0
  6
Continuous
 62
     7
100
AcDbCircle
 10
243.655754818
 20
142.0208779443
 30
0.0
 40
250.0
100
AcDbArc
 50
90.0
 51
99.80018994511978
  0
ARC
  5
BF
330
1F
100
AcDbEntity
  8
RUNDUNGEN
  6
Continuous
 62
     7
100
AcDbCircle
 10
243.655754818
 20
142.0208779443
 30
0.0
 40
250.0
100
AcDbArc
 50
90.0
 51
99.80018994511978
  0
ARC
  5
C0
330
1F
100
AcDbEntity
  8
0
  6
Continuous
 62
     7
100
AcDbCircle
 10
308.4098303572
 20
329.8266327887
 30
0.0
 40
154.9060285691974
100
AcDbArc
 50
145.0850935211554
 51
145.5160052752
  0
ARC
  5
C1
330
1F
100
AcDbEntity
  8
RUNDUNGEN
  6
Continuous
 62
     7
100
AcDbCircle
 10
203.655754818
 20
373.5916014825
 30
0.0
 40
15.00000000003035
100
AcDbArc
 50
99.80018994524089
 51
180.0
  0
ARC
  5
C2
330
1F
100
AcDbEntity
  8
RUNDUNGEN
  6
Continuous
 62
     7
100
AcDbCircle
 10
349.655754818
 20
396.945268436
 30
0.0
 40
0.9999999999647582
100
AcDbArc
 50
274.4999999985585
 51
0.0
  0
ARC
  5
C3
330
1F
100
AcDbEntity
  8
0
  6
Continuous
 62
     7
100
AcDbCircle
 10
187.655754818
 20
359.0333779443
 30
0.0
 40
1.0
100
AcDbArc
 50
270.0
 51
0.0
  0
ARC
  5
C4
330
1F
100
AcDbEntity
  8
0
  6
Continuous
 62
     7
100
AcDbCircle
 10
177.143254818
 20
365.3958779443
 30
0.0
 40
0.25
100
AcDbArc
 50
0.0
 51
90.0
  0
ARC
  5
C5
330
1F
100
AcDbEntity
  8
0
  6
Continuous
 62
     7
100
AcDbCircle
 10
170.568254818
 20
365.3958779443
 30
0.0
 40
0.25
100
AcDbArc
 50
90.0
 51
180.0
  0
ARC
  5
C6
330
1F
100
AcDbEntity
  8
0
  6
Continuous
 62
     7
100
AcDbCircle
 10
243.655754818
 20
674.0208779443
 30
0.0
 40
249.9999999999433
100
AcDbArc
 50
260.1998100548763
 51
270.0
  0
ARC
  5
C7
330
1F
100
AcDbEntity
  8
RUNDUNGEN
  6
Continuous
 62
     7
100
AcDbCircle
 10
243.655754818
 20
674.0208779443
 30
0.0
 40
249.9999999999433
100
AcDbArc
 50
260.1998100548763
 51
270.0
  0
ARC
  5
C8
330
1F
100
AcDbEntity
  8
0
  6
Continuous
 62
     7
100
AcDbCircle
 10
308.4066500632
 20
486.2129251339
 30
0.0
 40
154.9021570424
100
AcDbArc
 50
214.4839903094998
 51
214.9149101174886
  0
ARC
  5
C9
330
1F
100
AcDbEntity
  8
RUNDUNGEN
  6
Continuous
 62
     7
100
AcDbCircle
 10
203.655754818
 20
442.4501544061
 30
0.0
 40
15.0
100
AcDbArc
 50
180.0
 51
260.1998100546941
  0
ARC
  5
CA
330
1F
100
AcDbEntity
  8
0
  6
Continuous
 62
     7
100
AcDbCircle
 10
172.003254818
 20
408.0208779443
 30
0.0
 40
12.90250000000003
100
AcDbArc
 50
270.0
 51
90.0
  0
ARC
  5
CB
330
1F
100
AcDbEntity
  8
0
  6
Continuous
 62
     7
100
AcDbCircle
 10
187.655754818
 20
457.0083779443
 30
0.0
 40
1.0
100
AcDbArc
 50
0.0
 51
90.0
  0
ARC
  5
CC
330
1F
100
AcDbEntity
  8
RUNDUNGEN
  6
Continuous
 62
     7
100
AcDbCircle
 10
349.655754818
 20
419.0964874527
 30
0.0
 40
1.0
100
AcDbArc
 50
0.0
 51
85.50000000144182
  0
ARC
  5
CD
330
1F
100
AcDbEntity
  8
0
  6
Continuous
 62
     7
100
AcDbCircle
 10
177.143254818
 20
450.6458779443
 30
0.0
 40
0.25
100
AcDbArc
 50
270.0
 51
0.0
  0
ARC
  5
CE
330
1F
100
AcDbEntity
  8
0
  6
Continuous
 62
     7
100
AcDbCircle
 10
170.568254818
 20
450.6458779443
 30
0.0
 40
0.25
100
AcDbArc
 50
180.0
 51
270.0
  0
SPLINE
  5
CF
330
1F
100
AcDbEntity
  8
0
  6
Continuous
 62
     7
100
AcDbSpline
210
0.0
220
0.0
230
1.0
 70
     8
 71
     3
 72
    23
 73
    19
 74
    17
 42
0.0000000001
 43
0.0000000001
 44
0.00000001
 40
0.0
 40
0.0
 40
0.0
 40
0.0
 40
1.473982899159875
 40
2.949670536043431
 40
4.41827280145609
 40
5.886431655690954
 40
7.347604073723176
 40
8.808870687749272
 40
10.26523873341906
 40
11.72157538044326
 40
13.17778047512802
 40
14.63401643394394
 40
16.09521396670917
 40
17.55631875837841
 40
19.02454860216555
 40
20.49321917762602
 40
21.96899906446689
 40
23.4430775568813
 40
23.4430775568813
 40
23.4430775568813
 40
23.4430775568813
 10
181.386414693
 20
418.4885165918
 30
0.0
 10
181.7355240181218
 20
418.1421573718826
 30
0.0
 10
182.4341464314191
 20
417.4490383496339
 30
0.0
 10
183.3360408378712
 20
416.2795811179916
 30
0.0
 10
184.1186841698558
 20
415.0318994166329
 30
0.0
 10
184.7647125581976
 20
413.7128190535865
 30
0.0
 10
185.2723198319144
 20
412.3375306263908
 30
0.0
 10
185.6371833321113
 20
410.9216566335315
 30
0.0
 10
185.8567473830811
 20
409.4778015716122
 30
0.0
 10
185.9302529324305
 20
408.0208896762764
 30
0.0
 10
185.8567501037046
 20
406.5640223167166
 30
0.0
 10
185.637215980419
 20
405.120275495853
 30
0.0
 10
185.2723968671499
 20
403.7044829750559
 30
0.0
 10
184.7648272187347
 20
402.3292045034506
 30
0.0
 10
184.1188220618672
 20
401.0100860248612
 30
0.0
 10
183.3361558543157
 20
399.762325636554
 30
0.0
 10
182.4341935859079
 20
398.5928132444878
 30
0.0
 10
181.7355392942601
 20
397.8996382355516
 30
0.0
 10
181.3864136304
 20
397.5532506329
 30
0.0
 11
181.386414693
 21
418.4885165918
 31
0.0
 11
182.4096427356774
 21
417.4275594957332
 31
0.0
 11
183.3176974453865
 21
416.2643352500153
 31
0.0
 11
184.0963793865623
 21
415.0191657641774
 31
0.0
 11
184.7427211051181
 21
413.7009348268517
 31
0.0
 11
185.2487209202925
 21
412.3301726219958
 31
0.0
 11
185.613347184649
 21
410.9151292288064
 31
0.0
 11
185.8324468788907
 21
409.475336463013
 31
0.0
 11
185.9057517106348
 21
408.020845888582
 31
0.0
 11
185.8324538999209
 21
406.566486679607
 31
0.0
 11
185.6133871409702
 21
405.1268225094369
 31
0.0
 11
185.2488005317346
 21
403.7118402360055
 31
0.0
 11
184.7428544891553
 21
402.3411302687852
 31
0.0
 11
184.0965131715398
 21
401.0228200718549
 31
0.0
 11
183.3178103216746
 21
399.7775830940731
 31
0.0
 11
182.409694843751
 21
398.6142892562318
 31
0.0
 11
181.3864136304
 21
397.5532506329
 31
0.0
  0
SPLINE
  5
D0
330
1F
100
AcDbEntity
  8
0
  6
Continuous
 62
     7
100
AcDbSpline
210
0.0
220
0.0
230
1.0
 70
     8
 71
     3
 72
    15
 73
    11
 74
     9
 42
0.0000000001
 43
0.0000000001
 44
0.00000001
 40
0.0
 40
0.0
 40
0.0
 40
0.0
 40
1.288029059772772
 40
2.576182185904931
 40
3.864326417583145
 40
5.152353778232658
 40
6.440381138378441
 40
7.728525369600908
 40
9.016678496343689
 40
10.30470755658127
 40
10.30470755658127
 40
10.30470755658127
 40
10.30470755658127
 10
153.655754818
 20
402.8691185361
 30
0.0
 10
153.6525770999239
 20
403.2984585055983
 30
0.0
 10
153.6462213576855
 20
404.1571797997539
 30
0.0
 10
153.6141638496537
 20
405.4449231331978
 30
0.0
 10
153.5901618651706
 20
406.7328093026388
 30
0.0
 10
153.5791516194386
 20
408.0208779440709
 30
0.0
 10
153.5901618667139
 20
409.3089465853361
 30
0.0
 10
153.6141638518067
 20
410.5968327546443
 30
0.0
 10
153.6462213583515
 20
411.8845760883298
 30
0.0
 10
153.652577100146
 20
412.7432973828459
 30
0.0
 10
153.655754818
 20
413.1726373525
 30
0.0
 11
153.655754818
 21
402.8691185361
 31
0.0
 11
153.6424681163572
 21
404.1570790643689
 31
0.0
 11
153.6155064121966
 21
405.4449499984585
 31
0.0
 11
153.5923265280639
 21
406.7328856546841
 31
0.0
 11
153.5828215906064
 21
408.0208779442362
 31
0.0
 11
153.5923265294507
 21
409.3088702332744
 31
0.0
 11
153.6155064139913
 21
410.5968058890369
 31
0.0
 11
153.6424681171595
 21
411.884676823758
 31
0.0
 11
153.655754818
 21
413.1726373525
 31
0.0
  0
SPLINE
  5
D1
330
1F
100
AcDbEntity
  8
FASEN
  6
Continuous
 62
     7
100
AcDbSpline
210
0.0
220
0.0
230
1.0
 70
     8
 71
     3
 72
    21
 73
    17
 74
    15
 42
0.0000000001
 43
0.0000000001
 44
0.00000001
 40
0.0
 40
0.0
 40
0.0
 40
0.0
 40
0.0293583110109469
 40
0.059279284963451
 40
0.0984289164883526
 40
0.1375607833211266
 40
0.189955790939542
 40
0.242288505686914
 40
0.3081018251317201
 40
0.3739438789319882
 40
0.4517708437095619
 40
0.5295844370173153
 40
0.6170026842772245
 40
0.7044380582730609
 40
0.896189705623371
 40
1.087923453261272
 40
1.087923453261272
 40
1.087923453261272
 40
1.087923453261272
 10
153.655754818
 20
421.9233779443
 30
0.0
 10
153.6569498086718
 20
421.9331785249992
 30
0.0
 10
153.6593626924559
 20
421.9529675181693
 30
0.0
 10
153.6757726328933
 20
421.9821189802299
 30
0.0
 10
153.7000096249852
 20
422.0090946459072
 30
0.0
 10
153.7351353864545
 20
422.0351623948607
 30
0.0
 10
153.7765314597401
 20
422.0594953474715
 30
0.0
 10
153.8281534079094
 20
422.0834628345016
 30
0.0
 10
153.88556298465
 20
422.1051779500643
 30
0.0
 10
153.9523358665102
 20
422.125715499868
 30
0.0
 10
154.0239055405364
 20
422.143950834823
 30
0.0
 10
154.1032472333845
 20
422.1604536452165
 30
0.0
 10
154.1863146579098
 20
422.1744882421341
 30
0.0
 10
154.3074655214452
 20
422.190550980489
 30
0.0
 10
154.4639878862461
 20
422.2043708771954
 30
0.0
 10
154.5918344965546
 20
422.2062402090164
 30
0.0
 10
154.655754818
 20
422.2071748313
 30
0.0
 11
153.655754818
 21
421.9233779443
 31
0.0
 11
153.6611720265715
 21
421.9522321342333
 31
0.0
 11
153.6749764564682
 21
421.978778365557
 31
0.0
 11
153.700890807937
 21
422.0081235531777
 31
0.0
 11
153.7318873743445
 21
422.032009027273
 31
0.0
 11
153.776941056701
 21
422.0587560370022
 31
0.0
 11
153.8242892540862
 21
422.0810464214136
 31
0.0
 11
153.8857752043884
 21
422.1045170611955
 31
0.0
 11
153.9486480358711
 21
422.1240665652812
 31
0.0
 11
154.0240379370205
 21
422.1433901066534
 31
0.0
 11
154.1001974481187
 21
422.1593489340773
 31
0.0
 11
154.1863835266235
 21
422.173974590506
 31
0.0
 11
154.2730447150429
 21
422.1855842006423
 31
0.0
 11
154.4640902425945
 21
422.2020250237389
 31
0.0
 11
154.655754818
 21
422.2071748313
 31
0.0
  0
SPLINE
  5
D2
330
1F
100
AcDbEntity
  8
FASEN
  6
Continuous
 62
     7
100
AcDbSpline
210
0.0
220
0.0
230
1.0
 70
     8
 71
     3
 72
    21
 73
    17
 74
    15
 42
0.0000000001
 43
0.0000000001
 44
0.00000001
 40
0.0
 40
0.0
 40
0.0
 40
0.0
 40
0.1917337476377745
 40
0.3834853949853211
 40
0.4709207689774195
 40
0.5583390162332208
 40
0.6361526095390928
 40
0.713979574316356
 40
0.7798216281166579
 40
0.8456349475614563
 40
0.8979676623088283
 40
0.9503626699272193
 40
0.9894945367624914
 40
1.028644168308763
 40
1.058565142288123
 40
1.087923453237332
 40
1.087923453237332
 40
1.087923453237332
 40
1.087923453237332
 10
154.655754818
 20
393.8345810574
 30
0.0
 10
154.5918344965547
 20
393.8355156796835
 30
0.0
 10
154.4639878862472
 20
393.8373850115042
 30
0.0
 10
154.3074655214474
 20
393.851204908188
 30
0.0
 10
154.1863146579099
 20
393.8672676464998
 30
0.0
 10
154.1032472333834
 20
393.8813022433918
 30
0.0
 10
154.0239055405357
 20
393.8978050537771
 30
0.0
 10
153.9523358665101
 20
393.9160403887319
 30
0.0
 10
153.8855629846501
 20
393.9365779385358
 30
0.0
 10
153.8281534079095
 20
393.9582930540984
 30
0.0
 10
153.77653145974
 20
393.9822605411285
 30
0.0
 10
153.7351353864539
 20
394.0065934937398
 30
0.0
 10
153.7000096249774
 20
394.0326612426978
 30
0.0
 10
153.6757726328894
 20
394.0596369084039
 30
0.0
 10
153.6593626924721
 20
394.0887883704679
 30
0.0
 10
153.656949808676
 20
394.108577363623
 30
0.0
 10
153.655754818
 20
394.1183779443
 30
0.0
 11
154.655754818
 21
393.8345810574
 31
0.0
 11
154.4640902425945
 21
393.8397308649563
 31
0.0
 11
154.2730447150429
 21
393.8561716880208
 31
0.0
 11
154.1863835266234
 21
393.8677812981287
 31
0.0
 11
154.1001974481187
 21
393.882406954533
 31
0.0
 11
154.0240379370206
 21
393.8983657819479
 31
0.0
 11
153.9486480358711
 21
393.9176893233188
 31
0.0
 11
153.8857752043885
 21
393.9372388274046
 31
0.0
 11
153.8242892540862
 21
393.9607094671863
 31
0.0
 11
153.776941056701
 21
393.9829998515978
 31
0.0
 11
153.7318873743445
 21
394.0097468613269
 31
0.0
 11
153.700890807937
 21
394.0336323354264
 31
0.0
 11
153.6749764564682
 21
394.0629775230755
 31
0.0
 11
153.6611720265714
 21
394.0895237544295
 31
0.0
 11
153.655754818
 21
394.1183779443
 31
0.0
  0
DIMENSION
  5
DD
330
1F
100
AcDbEntity
  8
1
100
AcDbDimension
  2
*D2
 10
361.976737501986
 20
414.0208779443
 30
0.0
 11
358.226737501986
 21
408.329016840703
 31
0.0
 70
    32
  1
<>
 71
     5
 42
-1.0
 53
90.0
  3
ME10_DIM_10
100
AcDbAlignedDimension
 13
350.655754818
 23
402.0208779443
 33
0.0
 14
350.655754818
 24
414.0208779443
 34
0.0
 50
90.0
100
AcDbRotatedDimension
  0
DIMENSION
  5
E8
330
1F
100
AcDbEntity
  8
1
100
AcDbDimension
  2
*D3
 10
371.016853276998
 20
420.0208779443466
 30
0.0
 11
367.266853276998
 21
408.108526212044
 31
0.0
 70
    32
  1
<>
 71
     5
 42
-1.0
 53
90.0
  3
ME10_DIM_11
100
AcDbAlignedDimension
 13
350.655754818
 23
396.0208779443487
 33
0.0
 14
350.655754818
 24
420.0208779443466
 34
0.0
 50
90.0
100
AcDbRotatedDimension
  0
DIMENSION
  5
F3
330
1F
100
AcDbEntity
  8
1
100
AcDbDimension
  2
*D4
 10
380.497950309327
 20
424.0208779443
 30
0.0
 11
376.747950309327
 21
408.549507469362
 31
0.0
 70
    32
  1
<>
 71
     5
 42
-1.0
 53
90.0
  3
ME10_DIM_12
100
AcDbAlignedDimension
 13
299.8309358733
 23
392.0208779443
 33
0.0
 14
299.8309358733
 24
424.0208779443
 34
0.0
 50
90.0
100
AcDbRotatedDimension
  0
DIMENSION
  5
FE
330
1F
100
AcDbEntity
  8
1
100
AcDbDimension
  2
*D5
 10
350.655754818
 20
465.215599034679
 30
0.0
 11
271.35508912321
 21
468.965599034679
 31
0.0
 70
    32
  1
<>
 71
     5
 42
-1.0
 53
0.00013888888889
  3
ME10_DIM_13
100
AcDbAlignedDimension
 13
188.655754818
 23
457.0083779443
 33
0.0
 14
350.655754818
 24
419.0964874527
 34
0.0
100
AcDbRotatedDimension
  0
DIMENSION
  5
109
330
1F
100
AcDbEntity
  8
1
100
AcDbDimension
  2
*D6
 10
350.655754818
 20
472.932771037738
 30
0.0
 11
250.408479400622
 21
476.682771037738
 31
0.0
 70
    32
  1
<>
 71
     5
 42
-1.0
 53
0.00013888888889
  3
ME10_DIM_14
100
AcDbAlignedDimension
 13
150.655754818
 23
461.0083779443
 33
0.0
 14
350.655754818
 24
419.0964874527
 34
0.0
100
AcDbRotatedDimension
  0
DIMENSION
  5
114
330
1F
100
AcDbEntity
  8
1
100
AcDbDimension
  2
*D7
 10
350.655754818
 20
481.311414926773
 30
0.0
 11
212.043110013986
 21
485.061414926773
 31
0.0
 70
    32
  1
<>
 71
     5
 42
-1.0
 53
0.00013888888889
  3
ME10_DIM_15
100
AcDbAlignedDimension
 13
48.855754818
 23
427.234073352
 33
0.0
 14
350.655754818
 24
419.0964874527
 34
0.0
100
AcDbRotatedDimension
  0
INSERT
  5
11B
330
1F
100
AcDbEntity
  8
1
100
AcDbBlockReference
  2
*D8
 10
0.0
 20
0.0
 30
0.0
  0
DIMENSION
  5
126
330
1F
100
AcDbEntity
  8
1
100
AcDbDimension
  2
*D9
 10
330.2600066728613
 20
422.8253164964484
 30
0.0
 11
333.2260917847028
 21
431.4085631795604
 31
0.0
 70
    37
  1
<>
 71
     5
 42
-1.0
  3
ME10_DIM_16
100
AcDb3PointAngularDimension
 13
330.1896094398757
 23
421.6315985176931
 33
0.0
 14
302.8761907343918
 24
424.0208779443001
 34
0.0
 15
299.8309358733001
 25
424.0208779443001
 35
0.0
  0
ENDSEC
  0
SECTION
  2
OBJECTS
  0
DICTIONARY
  5
C
330
0
100
AcDbDictionary
281
     1
  3
ACAD_GROUP
350
D
  3
ACAD_LAYOUT
350
1A
  3
ACAD_MLEADERSTYLE
350
129
  3
ACAD_MLINESTYLE
350
17
  3
ACAD_PLOTSETTINGS
350
19
  3
ACAD_PLOTSTYLENAME
350
E
  3
ACAD_SCALELIST
350
4B
  3
ACAD_VISUALSTYLE
350
2A
  3
AcDbVariableDictionary
350
127
  0
DICTIONARY
  5
D
102
{ACAD_REACTORS
330
C
102
}
330
C
100
AcDbDictionary
281
     1
  0
DICTIONARY
  5
1A
102
{ACAD_REACTORS
330
C
102
}
330
C
100
AcDbDictionary
281
     1
  3
Layout1
350
1E
  3
Layout2
350
26
  3
Model
350
22
  0
DICTIONARY
  5
129
102
{ACAD_REACTORS
330
C
102
}
330
C
100
AcDbDictionary
281
     1
  0
DICTIONARY
  5
17
102
{ACAD_REACTORS
330
C
102
}
330
C
100
AcDbDictionary
281
     1
  3
Standard
350
18
  0
DICTIONARY
  5
19
102
{ACAD_REACTORS
330
C
102
}
330
C
100
AcDbDictionary
281
     1
  0
ACDBDICTIONARYWDFLT
  5
E
102
{ACAD_REACTORS
330
C
102
}
330
C
100
AcDbDictionary
281
     1
  3
Normal
350
F
100
AcDbDictionaryWithDefault
340
F
  0
DICTIONARY
  5
4B
102
{ACAD_REACTORS
330
C
102
}
330
C
100
AcDbDictionary
281
     1
  3
A0
350
4C
  3
A1
350
4D
  3
A2
350
4E
  3
A3
350
4F
  3
A4
350
50
  3
A5
350
51
  3
A6
350
52
  3
A7
350
53
  3
A8
350
54
  3
A9
350
55
  3
B0
350
56
  3
B1
350
57
  3
B2
350
58
  3
B3
350
59
  3
B4
350
5A
  3
B5
350
5B
  3
B6
350
5C
  3
B7
350
5D
  3
B8
350
5E
  3
B9
350
5F
  3
C0
350
60
  3
C1
350
61
  3
C2
350
62
  3
C3
350
63
  3
C4
350
64
  3
C5
350
65
  3
C6
350
66
  3
C7
350
67
  3
C8
350
68
  3
C9
350
69
  3
D0
350
6A
  3
D1
350
6B
  3
D2
350
6C
  0
DICTIONARY
  5
2A
102
{ACAD_REACTORS
330
C
102
}
330
C
100
AcDbDictionary
281
     1
  3
2dWireframe
350
2F
  3
3D Hidden
350
31
  3
3dWireframe
350
30
  3
Basic
350
32
  3
Brighten
350
36
  3
ColorChange
350
3A
  3
Conceptual
350
34
  3
Dim
350
35
  3
Facepattern
350
39
  3
Flat
350
2B
  3
FlatWithEdges
350
2C
  3
Gouraud
350
2D
  3
GouraudWithEdges
350
2E
  3
Linepattern
350
38
  3
Realistic
350
33
  3
Thicken
350
37
  0
DICTIONARY
  5
127
102
{ACAD_REACTORS
330
C
102
}
330
C
100
AcDbDictionary
281
     1
  3
CANNOSCALE
350
12A
  0
LAYOUT
  5
1E
102
{ACAD_REACTORS
330
1A
102
}
330
1A
100
AcDbPlotSettings
  1

  2
none_device
  4

  6

 40
0.0
 41
0.0
 42
0.0
 43
0.0
 44
0.0
 45
0.0
 46
0.0
 47
0.0
 48
0.0
 49
0.0
140
0.0
141
0.0
142
1.0
143
1.0
 70
   688
 72
     0
 73
     0
 74
     5
  7

 75
    16
147
1.0
148
0.0
149
0.0
100
AcDbLayout
  1
Layout1
 70
     1
 71
     1
 10
0.0
 20
0.0
 11
12.0
 21
9.0
 12
0.0
 22
0.0
 32
0.0
 14
1.00000000000000E+20
 24
1.00000000000000E+20
 34
1.00000000000000E+20
 15
-1.00000000000000E+20
 25
-1.00000000000000E+20
 35
-1.00000000000000E+20
146
0.0
 13
0.0
 23
0.0
 33
0.0
 16
1.0
 26
0.0
 36
0.0
 17
0.0
 27
1.0
 37
0.0
 76
     0
330
1B
  0
LAYOUT
  5
26
102
{ACAD_REACTORS
330
1A
102
}
330
1A
100
AcDbPlotSettings
  1

  2
none_device
  4

  6

 40
0.0
 41
0.0
 42
0.0
 43
0.0
 44
0.0
 45
0.0
 46
0.0
 47
0.0
 48
0.0
 49
0.0
140
0.0
141
0.0
142
1.0
143
1.0
 70
   688
 72
     0
 73
     0
 74
     5
  7

 75
    16
147
1.0
148
0.0
149
0.0
100
AcDbLayout
  1
Layout2
 70
     1
 71
     2
 10
0.0
 20
0.0
 11
0.0
 21
0.0
 12
0.0
 22
0.0
 32
0.0
 14
0.0
 24
0.0
 34
0.0
 15
0.0
 25
0.0
 35
0.0
146
0.0
 13
0.0
 23
0.0
 33
0.0
 16
1.0
 26
0.0
 36
0.0
 17
0.0
 27
1.0
 37
0.0
 76
     0
330
23
  0
LAYOUT
  5
22
102
{ACAD_REACTORS
330
1A
102
}
330
1A
100
AcDbPlotSettings
  1

  2
none_device
  4

  6

 40
0.0
 41
0.0
 42
0.0
 43
0.0
 44
0.0
 45
0.0
 46
0.0
 47
0.0
 48
0.0
 49
0.0
140
0.0
141
0.0
142
1.0
143
1.0
 70
  1712
 72
     0
 73
     0
 74
     0
  7

 75
     0
147
1.0
148
0.0
149
0.0
100
AcDbLayout
  1
Model
 70
     1
 71
     0
 10
0.0
 20
0.0
 11
12.0
 21
9.0
 12
0.0
 22
0.0
 32
0.0
 14
29.3677790899867
 24
354.9083779443
 34
0.0
 15
382.497950309327
 25
486.811414926773
 35
0.0
146
0.0
 13
0.0
 23
0.0
 33
0.0
 16
1.0
 26
0.0
 36
0.0
 17
0.0
 27
1.0
 37
0.0
 76
     0
330
1F
331
29
  0
MLINESTYLE
  5
18
102
{ACAD_REACTORS
330
17
102
}
330
17
100
AcDbMlineStyle
  2
Standard
 70
     0
  3

 62
   256
 51
90.0
 52
90.0
 71
     2
 49
0.5
 62
   256
  6
BYLAYER
 49
-0.5
 62
   256
  6
BYLAYER
  0
ACDBPLACEHOLDER
  5
F
102
{ACAD_REACTORS
330
E
102
}
330
E
  0
SCALE
  5
4C
102
{ACAD_REACTORS
330
4B
102
}
330
4B
100
AcDbScale
 70
     0
300
1:1
140
1.0
141
1.0
290
     1
  0
SCALE
  5
4D
102
{ACAD_REACTORS
330
4B
102
}
330
4B
100
AcDbScale
 70
     0
300
1:2
140
1.0
141
2.0
290
     0
  0
SCALE
  5
4E
102
{ACAD_REACTORS
330
4B
102
}
330
4B
100
AcDbScale
 70
     0
300
1:4
140
1.0
141
4.0
290
     0
  0
SCALE
  5
4F
102
{ACAD_REACTORS
330
4B
102
}
330
4B
100
AcDbScale
 70
     0
300
1:5
140
1.0
141
5.0
290
     0
  0
SCALE
  5
50
102
{ACAD_REACTORS
330
4B
102
}
330
4B
100
AcDbScale
 70
     0
300
1:8
140
1.0
141
8.0
290
     0
  0
SCALE
  5
51
102
{ACAD_REACTORS
330
4B
102
}
330
4B
100
AcDbScale
 70
     0
300
1:10
140
1.0
141
10.0
290
     0
  0
SCALE
  5
52
102
{ACAD_REACTORS
330
4B
102
}
330
4B
100
AcDbScale
 70
     0
300
1:16
140
1.0
141
16.0
290
     0
  0
SCALE
  5
53
102
{ACAD_REACTORS
330
4B
102
}
330
4B
100
AcDbScale
 70
     0
300
1:20
140
1.0
141
20.0
290
     0
  0
SCALE
  5
54
102
{ACAD_REACTORS
330
4B
102
}
330
4B
100
AcDbScale
 70
     0
300
1:30
140
1.0
141
30.0
290
     0
  0
SCALE
  5
55
102
{ACAD_REACTORS
330
4B
102
}
330
4B
100
AcDbScale
 70
     0
300
1:40
140
1.0
141
40.0
290
     0
  0
SCALE
  5
56
102
{ACAD_REACTORS
330
4B
102
}
330
4B
100
AcDbScale
 70
     0
300
1:50
140
1.0
141
50.0
290
     0
  0
SCALE
  5
57
102
{ACAD_REACTORS
330
4B
102
}
330
4B
100
AcDbScale
 70
     0
300
1:100
140
1.0
141
100.0
290
     0
  0
SCALE
  5
58
102
{ACAD_REACTORS
330
4B
102
}
330
4B
100
AcDbScale
 70
     0
300
2:1
140
2.0
141
1.0
290
     0
  0
SCALE
  5
59
102
{ACAD_REACTORS
330
4B
102
}
330
4B
100
AcDbScale
 70
     0
300
4:1
140
4.0
141
1.0
290
     0
  0
SCALE
  5
5A
102
{ACAD_REACTORS
330
4B
102
}
330
4B
100
AcDbScale
 70
     0
300
8:1
140
8.0
141
1.0
290
     0
  0
SCALE
  5
5B
102
{ACAD_REACTORS
330
4B
102
}
330
4B
100
AcDbScale
 70
     0
300
10:1
140
10.0
141
1.0
290
     0
  0
SCALE
  5
5C
102
{ACAD_REACTORS
330
4B
102
}
330
4B
100
AcDbScale
 70
     0
300
100:1
140
100.0
141
1.0
290
     0
  0
SCALE
  5
5D
102
{ACAD_REACTORS
330
4B
102
}
330
4B
100
AcDbScale
 70
     0
300
1/128" = 1'-0"
140
0.0078125
141
12.0
290
     0
  0
SCALE
  5
5E
102
{ACAD_REACTORS
330
4B
102
}
330
4B
100
AcDbScale
 70
     0
300
1/64" = 1'-0"
140
0.015625
141
12.0
290
     0
  0
SCALE
  5
5F
102
{ACAD_REACTORS
330
4B
102
}
330
4B
100
AcDbScale
 70
     0
300
1/32" = 1'-0"
140
0.03125
141
12.0
290
     0
  0
SCALE
  5
60
102
{ACAD_REACTORS
330
4B
102
}
330
4B
100
AcDbScale
 70
     0
300
1/16" = 1'-0"
140
0.0625
141
12.0
290
     0
  0
SCALE
  5
61
102
{ACAD_REACTORS
330
4B
102
}
330
4B
100
AcDbScale
 70
     0
300
3/32" = 1'-0"
140
0.09375
141
12.0
290
     0
  0
SCALE
  5
62
102
{ACAD_REACTORS
330
4B
102
}
330
4B
100
AcDbScale
 70
     0
300
1/8" = 1'-0"
140
0.125
141
12.0
290
     0
  0
SCALE
  5
63
102
{ACAD_REACTORS
330
4B
102
}
330
4B
100
AcDbScale
 70
     0
300
3/16" = 1'-0"
140
0.1875
141
12.0
290
     0
  0
SCALE
  5
64
102
{ACAD_REACTORS
330
4B
102
}
330
4B
100
AcDbScale
 70
     0
300
1/4" = 1'-0"
140
0.25
141
12.0
290
     0
  0
SCALE
  5
65
102
{ACAD_REACTORS
330
4B
102
}
330
4B
100
AcDbScale
 70
     0
300
3/8" = 1'-0"
140
0.375
141
12.0
290
     0
  0
SCALE
  5
66
102
{ACAD_REACTORS
330
4B
102
}
330
4B
100
AcDbScale
 70
     0
300
1/2" = 1'-0"
140
0.5
141
12.0
290
     0
  0
SCALE
  5
67
102
{ACAD_REACTORS
330
4B
102
}
330
4B
100
AcDbScale
 70
     0
300
3/4" = 1'-0"
140
0.75
141
12.0
290
     0
  0
SCALE
  5
68
102
{ACAD_REACTORS
330
4B
102
}
330
4B
100
AcDbScale
 70
     0
300
1" = 1'-0"
140
1.0
141
12.0
290
     0
  0
SCALE
  5
69
102
{ACAD_REACTORS
330
4B
102
}
330
4B
100
AcDbScale
 70
     0
300
1-1/2" = 1'-0"
140
1.5
141
12.0
290
     0
  0
SCALE
  5
6A
102
{ACAD_REACTORS
330
4B
102
}
330
4B
100
AcDbScale
 70
     0
300
3" = 1'-0"
140
3.0
141
12.0
290
     0
  0
SCALE
  5
6B
102
{ACAD_REACTORS
330
4B
102
}
330
4B
100
AcDbScale
 70
     0
300
6" = 1'-0"
140
6.0
141
12.0
290
     0
  0
SCALE
  5
6C
102
{ACAD_REACTORS
330
4B
102
}
330
4B
100
AcDbScale
 70
     0
300
1'-0" = 1'-0"
140
12.0
141
12.0
290
     0
  0
VISUALSTYLE
  5
2F
102
{ACAD_REACTORS
330
2A
102
}
330
2A
100
AcDbVisualStyle
  2
2dWireframe
 70
     4
 71
     0
 72
     2
 73
     0
 90
        0
 40
-0.6
 41
-30.0
 62
     5
 63
     7
 74
     1
 91
        4
 64
     7
 65
   257
 75
     1
175
     1
 42
1.0
 92
        0
 66
   257
 43
1.0
 76
     1
 77
     6
 78
     2
 67
     7
 79
     5
170
     0
171
     0
290
     0
174
     0
 93
        1
 44
0.0
173
     0
291
     0
 45
0.0
1001
ACAD
1000
AcDbSavedByObjectVersion
1070
     0
  0
VISUALSTYLE
  5
31
102
{ACAD_REACTORS
330
2A
102
}
330
2A
100
AcDbVisualStyle
  2
3D Hidden
 70
     6
 71
     1
 72
     2
 73
     2
 90
        0
 40
-0.6
 41
-30.0
 62
     5
 63
     7
 74
     2
 91
        2
 64
     7
 65
   257
 75
     2
175
     1
 42
40.0
 92
        0
 66
   257
 43
1.0
 76
     1
 77
     6
 78
     2
 67
     7
 79
     3
170
     0
171
     0
290
     0
174
     0
 93
        1
 44
0.0
173
     0
291
     0
 45
0.0
1001
ACAD
1000
AcDbSavedByObjectVersion
1070
     0
  0
VISUALSTYLE
  5
30
102
{ACAD_REACTORS
330
2A
102
}
330
2A
100
AcDbVisualStyle
  2
3dWireframe
 70
     5
 71
     0
 72
     2
 73
     0
 90
        0
 40
-0.6
 41
-30.0
 62
     5
 63
     7
 74
     1
 91
        4
 64
     7
 65
   257
 75
     1
175
     1
 42
1.0
 92
        0
 66
   257
 43
1.0
 76
     1
 77
     6
 78
     2
 67
     7
 79
     5
170
     0
171
     0
290
     0
174
     0
 93
        1
 44
0.0
173
     0
291
     0
 45
0.0
1001
ACAD
1000
AcDbSavedByObjectVersion
1070
     0
  0
VISUALSTYLE
  5
32
102
{ACAD_REACTORS
330
2A
102
}
330
2A
100
AcDbVisualStyle
  2
Basic
 70
     7
 71
     1
 72
     0
 73
     1
 90
        0
 40
-0.6
 41
-30.0
 62
     5
 63
     7
 74
     0
 91
        4
 64
     7
 65
   257
 75
     1
175
     1
 42
1.0
 92
        8
 66
     7
 43
1.0
 76
     1
 77
     6
 78
     2
 67
     7
 79
     5
170
     0
171
     0
290
     0
174
     0
 93
        1
 44
0.0
173
     0
291
     1
 45
0.0
1001
ACAD
1000
AcDbSavedByObjectVersion
1070
     0
  0
VISUALSTYLE
  5
36
102
{ACAD_REACTORS
330
2A
102
}
330
2A
100
AcDbVisualStyle
  2
Brighten
 70
    12
 71
     2
 72
     2
 73
     0
 90
        0
 40
-0.6
 41
-30.0
 62
     5
 63
     7
 74
     1
 91
        4
 64
     7
 65
   257
 75
     1
175
     1
 42
1.0
 92
        8
 66
     7
 43
1.0
 76
     1
 77
     6
 78
     2
 67
     7
 79
     5
170
     0
171
     0
290
     0
174
     0
 93
        1
 44
50.0
173
     0
291
     1
 45
0.0
1001
ACAD
1000
AcDbSavedByObjectVersion
1070
     0
  0
VISUALSTYLE
  5
3A
102
{ACAD_REACTORS
330
2A
102
}
330
2A
100
AcDbVisualStyle
  2
ColorChange
 70
    16
 71
     2
 72
     2
 73
     3
 90
        0
 40
-0.6
 41
-30.0
 62
     5
 63
     8
 74
     1
 91
        4
 64
     7
 65
   257
 75
     1
175
     1
 42
1.0
 92
        8
 66
     8
 43
1.0
 76
     1
 77
     6
 78
     2
 67
     7
 79
     5
170
     0
171
     0
290
     0
174
     0
 93
        1
 44
0.0
173
     0
291
     1
 45
0.0
1001
ACAD
1000
AcDbSavedByObjectVersion
1070
     0
  0
VISUALSTYLE
  5
34
102
{ACAD_REACTORS
330
2A
102
}
330
2A
100
AcDbVisualStyle
  2
Conceptual
 70
     9
 71
     3
 72
     2
 73
     0
 90
        0
 40
-0.6
 41
-30.0
 62
     5
 63
     7
 74
     2
 91
        2
 64
     7
 65
   257
 75
     1
175
     1
 42
40.0
 92
        8
 66
     7
 43
1.0
 76
     1
 77
     6
 78
     2
 67
     7
 79
     3
170
     0
171
     0
290
     0
174
     0
 93
        1
 44
0.0
173
     0
291
     0
 45
0.0
1001
ACAD
1000
AcDbSavedByObjectVersion
1070
     0
  0
VISUALSTYLE
  5
35
102
{ACAD_REACTORS
330
2A
102
}
330
2A
100
AcDbVisualStyle
  2
Dim
 70
    11
 71
     2
 72
     2
 73
     0
 90
        0
 40
-0.6
 41
-30.0
 62
     5
 63
     7
 74
     1
 91
        4
 64
     7
 65
   257
 75
     1
175
     1
 42
1.0
 92
        8
 66
     7
 43
1.0
 76
     1
 77
     6
 78
     2
 67
     7
 79
     5
170
     0
171
     0
290
     0
174
     0
 93
        1
 44
-50.0
173
     0
291
     1
 45
0.0
1001
ACAD
1000
AcDbSavedByObjectVersion
1070
     0
  0
VISUALSTYLE
  5
39
102
{ACAD_REACTORS
330
2A
102
}
330
2A
100
AcDbVisualStyle
  2
Facepattern
 70
    15
 71
     2
 72
     2
 73
     0
 90
        0
 40
-0.6
 41
-30.0
 62
     5
 63
     7
 74
     1
 91
        4
 64
     7
 65
   257
 75
     1
175
     1
 42
1.0
 92
        8
 66
     7
 43
1.0
 76
     1
 77
     6
 78
     2
 67
     7
 79
     5
170
     0
171
     0
290
     0
174
     0
 93
        1
 44
0.0
173
     0
291
     1
 45
0.0
1001
ACAD
1000
AcDbSavedByObjectVersion
1070
     0
  0
VISUALSTYLE
  5
2B
102
{ACAD_REACTORS
330
2A
102
}
330
2A
100
AcDbVisualStyle
  2
Flat
 70
     0
 71
     2
 72
     1
 73
     1
 90
        2
 40
-0.6
 41
30.0
 62
     5
 63
     7
 74
     0
 91
        4
 64
     7
 65
   257
 75
     1
175
     1
 42
1.0
 92
        8
 66
     7
 43
1.0
 76
     1
 77
     6
 78
     2
 67
     7
 79
     5
170
     0
171
     0
290
     0
174
     0
 93
       13
 44
0.0
173
     0
291
     1
 45
0.0
1001
ACAD
1000
AcDbSavedByObjectVersion
1070
     0
  0
VISUALSTYLE
  5
2C
102
{ACAD_REACTORS
330
2A
102
}
330
2A
100
AcDbVisualStyle
  2
FlatWithEdges
 70
     1
 71
     2
 72
     1
 73
     1
 90
        2
 40
-0.6
 41
30.0
 62
     5
 63
     7
 74
     1
 91
        4
 64
     7
 65
   257
 75
     1
175
     1
 42
1.0
 92
        0
 66
   257
 43
1.0
 76
     1
 77
     6
 78
     2
 67
     7
 79
     5
170
     0
171
     0
290
     0
174
     0
 93
       13
 44
0.0
173
     0
291
     1
 45
0.0
1001
ACAD
1000
AcDbSavedByObjectVersion
1070
     0
  0
VISUALSTYLE
  5
2D
102
{ACAD_REACTORS
330
2A
102
}
330
2A
100
AcDbVisualStyle
  2
Gouraud
 70
     2
 71
     2
 72
     2
 73
     1
 90
        2
 40
-0.6
 41
30.0
 62
     5
 63
     7
 74
     0
 91
        4
 64
     7
 65
   257
 75
     1
175
     1
 42
1.0
 92
        0
 66
     7
 43
1.0
 76
     1
 77
     6
 78
     2
 67
     7
 79
     5
170
     0
171
     0
290
     0
174
     0
 93
       13
 44
0.0
173
     0
291
     1
 45
0.0
1001
ACAD
1000
AcDbSavedByObjectVersion
1070
     0
  0
VISUALSTYLE
  5
2E
102
{ACAD_REACTORS
330
2A
102
}
330
2A
100
AcDbVisualStyle
  2
GouraudWithEdges
 70
     3
 71
     2
 72
     2
 73
     1
 90
        2
 40
-0.6
 41
30.0
 62
     5
 63
     7
 74
     1
 91
        4
 64
     7
 65
   257
 75
     1
175
     1
 42
1.0
 92
        0
 66
   257
 43
1.0
 76
     1
 77
     6
 78
     2
 67
     7
 79
     5
170
     0
171
     0
290
     0
174
     0
 93
       13
 44
0.0
173
     0
291
     1
 45
0.0
1001
ACAD
1000
AcDbSavedByObjectVersion
1070
     0
  0
VISUALSTYLE
  5
38
102
{ACAD_REACTORS
330
2A
102
}
330
2A
100
AcDbVisualStyle
  2
Linepattern
 70
    14
 71
     2
 72
     2
 73
     0
 90
        0
 40
-0.6
 41
-30.0
 62
     5
 63
     7
 74
     1
 91
        4
 64
     7
 65
   257
 75
     7
175
     7
 42
1.0
 92
        8
 66
     7
 43
1.0
 76
     1
 77
     6
 78
     2
 67
     7
 79
     5
170
     0
171
     0
290
     0
174
     0
 93
        1
 44
0.0
173
     0
291
     1
 45
0.0
1001
ACAD
1000
AcDbSavedByObjectVersion
1070
     0
  0
VISUALSTYLE
  5
33
102
{ACAD_REACTORS
330
2A
102
}
330
2A
100
AcDbVisualStyle
  2
Realistic
 70
     8
 71
     2
 72
     2
 73
     0
 90
        0
 40
-0.6
 41
-30.0
 62
     5
 63
     7
 74
     1
 91
        0
 64
     7
 65
   257
 75
     1
175
     1
 42
1.0
 92
        8
 66
     8
 43
1.0
 76
     1
 77
     6
 78
     2
 67
     7
 79
     5
170
     0
171
     0
290
     0
174
     0
 93
       13
 44
0.0
173
     0
291
     0
 45
0.0
1001
ACAD
1000
AcDbSavedByObjectVersion
1070
     0
  0
VISUALSTYLE
  5
37
102
{ACAD_REACTORS
330
2A
102
}
330
2A
100
AcDbVisualStyle
  2
Thicken
 70
    13
 71
     2
 72
     2
 73
     0
 90
        0
 40
-0.6
 41
-30.0
 62
     5
 63
     7
 74
     1
 91
        4
 64
     7
 65
   257
 75
     1
175
     1
 42
1.0
 92
       12
 66
     7
 43
1.0
 76
     1
 77
     6
 78
     2
 67
     7
 79
     5
170
     0
171
     0
290
     0
174
     0
 93
        1
 44
0.0
173
     0
291
     1
 45
0.0
1001
ACAD
1000
AcDbSavedByObjectVersion
1070
     0
  0
DICTIONARYVAR
  5
12A
102
{ACAD_REACTORS
330
127
102
}
330
127
100
DictionaryVariables
280
     0
  1
1:1
  0
ENDSEC
  0
EOF
