  0
SECTION
  2
HEADER
  9
$ACADVER
  1
AC1015
  9
$ACADMAINTVER
 70
     6
  9
$DWGCODEPAGE
  3
ANSI_1252
  9
$INSBASE
 10
0.0
 20
0.0
 30
0.0
  9
$EXTMIN
 10
29.5531578584139
 20
271.5380401617528
 30
0.0
  9
$EXTMAX
 10
278.615605643789
 20
380.307427079059
 30
0.0
  9
$LIMMIN
 10
0.0
 20
0.0
  9
$LIMMAX
 10
12.0
 20
9.0
  9
$ORTHOMODE
 70
     0
  9
$REGENMODE
 70
     1
  9
$FILLMODE
 70
     1
  9
$QTEXTMODE
 70
     0
  9
$MIRRTEXT
 70
     1
  9
$LTSCALE
 40
1.0
  9
$ATTMODE
 70
     1
  9
$TEXTSIZE
 40
0.2
  9
$TRACEWID
 40
0.05
  9
$TEXTSTYLE
  7
Standard
  9
$CLAYER
  8
0
  9
$CELTYPE
  6
ByLayer
  9
$CECOLOR
 62
   256
  9
$CELTSCALE
 40
1.0
  9
$DISPSILH
 70
     0
  9
$DIMSCALE
 40
1.0
  9
$DIMASZ
 40
0.18
  9
$DIMEXO
 40
0.0625
  9
$DIMDLI
 40
0.38
  9
$DIMRND
 40
0.0
  9
$DIMDLE
 40
0.0
  9
$DIMEXE
 40
0.18
  9
$DIMTP
 40
0.0
  9
$DIMTM
 40
0.0
  9
$DIMTXT
 40
0.18
  9
$DIMCEN
 40
0.09
  9
$DIMTSZ
 40
0.0
  9
$DIMTOL
 70
     0
  9
$DIMLIM
 70
     0
  9
$DIMTIH
 70
     1
  9
$DIMTOH
 70
     1
  9
$DIMSE1
 70
     0
  9
$DIMSE2
 70
     0
  9
$DIMTAD
 70
     0
  9
$DIMZIN
 70
     0
  9
$DIMBLK
  1

  9
$DIMASO
 70
     1
  9
$DIMSHO
 70
     1
  9
$DIMPOST
  1

  9
$DIMAPOST
  1

  9
$DIMALT
 70
     0
  9
$DIMALTD
 70
     2
  9
$DIMALTF
 40
25.4
  9
$DIMLFAC
 40
1.0
  9
$DIMTOFL
 70
     0
  9
$DIMTVP
 40
0.0
  9
$DIMTIX
 70
     0
  9
$DIMSOXD
 70
     0
  9
$DIMSAH
 70
     0
  9
$DIMBLK1
  1

  9
$DIMBLK2
  1

  9
$DIMSTYLE
  2
Standard
  9
$DIMCLRD
 70
     0
  9
$DIMCLRE
 70
     0
  9
$DIMCLRT
 70
     0
  9
$DIMTFAC
 40
1.0
  9
$DIMGAP
 40
0.09
  9
$DIMJUST
 70
     0
  9
$DIMSD1
 70
     0
  9
$DIMSD2
 70
     0
  9
$DIMTOLJ
 70
     1
  9
$DIMTZIN
 70
     0
  9
$DIMALTZ
 70
     0
  9
$DIMALTTZ
 70
     0
  9
$DIMUPT
 70
     0
  9
$DIMDEC
 70
     4
  9
$DIMTDEC
 70
     4
  9
$DIMALTU
 70
     2
  9
$DIMALTTD
 70
     2
  9
$DIMTXSTY
  7
Standard
  9
$DIMAUNIT
 70
     0
  9
$DIMADEC
 70
     0
  9
$DIMALTRND
 40
0.0
  9
$DIMAZIN
 70
     0
  9
$DIMDSEP
 70
    46
  9
$DIMATFIT
 70
     3
  9
$DIMFRAC
 70
     0
  9
$DIMLDRBLK
  1

  9
$DIMLUNIT
 70
     2
  9
$DIMLWD
 70
    -2
  9
$DIMLWE
 70
    -2
  9
$DIMTMOVE
 70
     0
  9
$LUNITS
 70
     2
  9
$LUPREC
 70
     4
  9
$SKETCHINC
 40
0.1
  9
$FILLETRAD
 40
0.5
  9
$AUNITS
 70
     0
  9
$AUPREC
 70
     0
  9
$MENU
  1
.
  9
$ELEVATION
 40
0.0
  9
$PELEVATION
 40
0.0
  9
$THICKNESS
 40
0.0
  9
$LIMCHECK
 70
     0
  9
$CHAMFERA
 40
0.5
  9
$CHAMFERB
 40
0.5
  9
$CHAMFERC
 40
1.0
  9
$CHAMFERD
 40
0.0
  9
$SKPOLY
 70
     0
  9
$TDCREATE
 40
2456645.672338692
  9
$TDUCREATE
 40
2456645.630672025
  9
$TDUPDATE
 40
2456645.672338704
  9
$TDUUPDATE
 40
2456645.630672037
  9
$TDINDWG
 40
0.0000000116
  9
$TDUSRTIMER
 40
0.0000000116
  9
$USRTIMER
 70
     1
  9
$ANGBASE
 50
0.0
  9
$ANGDIR
 70
     0
  9
$PDMODE
 70
     0
  9
$PDSIZE
 40
0.0
  9
$PLINEWID
 40
0.0
  9
$SPLFRAME
 70
     0
  9
$SPLINETYPE
 70
     6
  9
$SPLINESEGS
 70
     8
  9
$HANDSEED
  5
128
  9
$SURFTAB1
 70
     6
  9
$SURFTAB2
 70
     6
  9
$SURFTYPE
 70
     6
  9
$SURFU
 70
     6
  9
$SURFV
 70
     6
  9
$UCSBASE
  2

  9
$UCSNAME
  2

  9
$UCSORG
 10
0.0
 20
0.0
 30
0.0
  9
$UCSXDIR
 10
1.0
 20
0.0
 30
0.0
  9
$UCSYDIR
 10
0.0
 20
1.0
 30
0.0
  9
$UCSORTHOREF
  2

  9
$UCSORTHOVIEW
 70
     0
  9
$UCSORGTOP
 10
0.0
 20
0.0
 30
0.0
  9
$UCSORGBOTTOM
 10
0.0
 20
0.0
 30
0.0
  9
$UCSORGLEFT
 10
0.0
 20
0.0
 30
0.0
  9
$UCSORGRIGHT
 10
0.0
 20
0.0
 30
0.0
  9
$UCSORGFRONT
 10
0.0
 20
0.0
 30
0.0
  9
$UCSORGBACK
 10
0.0
 20
0.0
 30
0.0
  9
$PUCSBASE
  2

  9
$PUCSNAME
  2

  9
$PUCSORG
 10
0.0
 20
0.0
 30
0.0
  9
$PUCSXDIR
 10
1.0
 20
0.0
 30
0.0
  9
$PUCSYDIR
 10
0.0
 20
1.0
 30
0.0
  9
$PUCSORTHOREF
  2

  9
$PUCSORTHOVIEW
 70
     0
  9
$PUCSORGTOP
 10
0.0
 20
0.0
 30
0.0
  9
$PUCSORGBOTTOM
 10
0.0
 20
0.0
 30
0.0
  9
$PUCSORGLEFT
 10
0.0
 20
0.0
 30
0.0
  9
$PUCSORGRIGHT
 10
0.0
 20
0.0
 30
0.0
  9
$PUCSORGFRONT
 10
0.0
 20
0.0
 30
0.0
  9
$PUCSORGBACK
 10
0.0
 20
0.0
 30
0.0
  9
$USERI1
 70
     0
  9
$USERI2
 70
     0
  9
$USERI3
 70
     0
  9
$USERI4
 70
     0
  9
$USERI5
 70
     0
  9
$USERR1
 40
16.5
  9
$USERR2
 40
0.0
  9
$USERR3
 40
0.0
  9
$USERR4
 40
0.0
  9
$USERR5
 40
0.0
  9
$WORLDVIEW
 70
     1
  9
$SHADEDGE
 70
     3
  9
$SHADEDIF
 70
    70
  9
$TILEMODE
 70
     1
  9
$MAXACTVP
 70
    64
  9
$PINSBASE
 10
0.0
 20
0.0
 30
0.0
  9
$PLIMCHECK
 70
     0
  9
$PEXTMIN
 10
1.00000000000000E+20
 20
1.00000000000000E+20
 30
1.00000000000000E+20
  9
$PEXTMAX
 10
-1.00000000000000E+20
 20
-1.00000000000000E+20
 30
-1.00000000000000E+20
  9
$PLIMMIN
 10
0.0
 20
0.0
  9
$PLIMMAX
 10
12.0
 20
9.0
  9
$UNITMODE
 70
     0
  9
$VISRETAIN
 70
     1
  9
$PLINEGEN
 70
     0
  9
$PSLTSCALE
 70
     1
  9
$TREEDEPTH
 70
  3020
  9
$CMLSTYLE
  2
Standard
  9
$CMLJUST
 70
     0
  9
$CMLSCALE
 40
1.0
  9
$PROXYGRAPHICS
 70
     1
  9
$MEASUREMENT
 70
     1
  9
$CELWEIGHT
370
    -1
  9
$ENDCAPS
280
     0
  9
$JOINSTYLE
280
     0
  9
$LWDISPLAY
290
     0
  9
$INSUNITS
 70
     1
  9
$HYPERLINKBASE
  1

  9
$STYLESHEET
  1

  9
$XEDIT
290
     1
  9
$CEPSNTYPE
380
     0
  9
$PSTYLEMODE
290
     1
  9
$FINGERPRINTGUID
  2
{778F8CF3-5DD9-4F4C-A8C8-9EC111D8CEE1}
  9
$VERSIONGUID
  2
{FAEB1C32-E019-11D5-929B-00C0DF256EC4}
  9
$EXTNAMES
290
     1
  9
$PSVPSCALE
 40
0.0
  9
$OLESTARTUP
290
     0
  0
ENDSEC
  0
SECTION
  2
CLASSES
  0
CLASS
  1
ACDBDICTIONARYWDFLT
  2
AcDbDictionaryWithDefault
  3
ObjectDBX Classes
 90
        0
280
     0
281
     0
  0
CLASS
  1
VISUALSTYLE
  2
AcDbVisualStyle
  3
ObjectDBX Classes
 90
     4095
280
     0
281
     0
  0
CLASS
  1
SCALE
  2
AcDbScale
  3
ObjectDBX Classes
 90
     1153
280
     0
281
     0
  0
CLASS
  1

  2
exOdDbPolyline
  3

 90
        0
280
     0
281
     1
  0
CLASS
  1

  2
exOdDbSpline
  3

 90
        0
280
     0
281
     1
  0
CLASS
  1
DICTIONARYVAR
  2
AcDbDictionaryVar
  3
ObjectDBX Classes
 90
        0
280
     0
281
     0
  0
CLASS
  1
ACDBPLACEHOLDER
  2
AcDbPlaceHolder
  3
ObjectDBX Classes
 90
        0
280
     0
281
     0
  0
CLASS
  1
LAYOUT
  2
AcDbLayout
  3
ObjectDBX Classes
 90
        0
280
     0
281
     0
  0
ENDSEC
  0
SECTION
  2
TABLES
  0
TABLE
  2
VPORT
  5
8
330
0
100
AcDbSymbolTable
 70
     1
  0
VPORT
  5
29
330
8
100
AcDbSymbolTableRecord
100
AcDbViewportTableRecord
  2
*Active
 70
     0
 10
0.0
 20
0.0
 11
1.0
 21
1.0
 12
154.0843817511015
 22
325.9227336204059
 13
0.0
 23
0.0
 14
0.5
 24
0.5
 15
0.5
 25
0.5
 16
0.0
 26
0.0
 36
1.0
 17
0.0
 27
0.0
 37
0.0
 40
170.9442538560347
 41
1.60267857142857
 42
50.0
 43
0.0
 44
0.0
 50
0.0
 51
0.0
 71
     0
 72
   100
 73
     1
 74
     3
 75
     0
 76
     0
 77
     0
 78
     0
281
     0
 65
     1
110
0.0
120
0.0
130
0.0
111
1.0
121
0.0
131
0.0
112
0.0
122
1.0
132
0.0
 79
     0
146
0.0
  0
ENDTAB
  0
TABLE
  2
LTYPE
  5
5
330
0
100
AcDbSymbolTable
 70
     9
  0
LTYPE
  5
14
330
5
100
AcDbSymbolTableRecord
100
AcDbLinetypeTableRecord
  2
ByBlock
 70
     0
  3

 72
    65
 73
     0
 40
0.0
  0
LTYPE
  5
15
330
5
100
AcDbSymbolTableRecord
100
AcDbLinetypeTableRecord
  2
ByLayer
 70
     0
  3

 72
    65
 73
     0
 40
0.0
  0
LTYPE
  5
16
330
5
100
AcDbSymbolTableRecord
100
AcDbLinetypeTableRecord
  2
Continuous
 70
     0
  3
Solid line
 72
    65
 73
     0
 40
0.0
  0
LTYPE
  5
3B
330
5
100
AcDbSymbolTableRecord
100
AcDbLinetypeTableRecord
  2
DASHED
 70
     0
  3
Dashed
 72
    65
 73
     2
 40
15.0
 49
7.0
 74
     0
 49
-8.0
 74
     0
  0
LTYPE
  5
3C
330
5
100
AcDbSymbolTableRecord
100
AcDbLinetypeTableRecord
  2
DOTTED
 70
     0
  3
Dotted
 72
    65
 73
     2
 40
1.0
 49
0.0
 74
     0
 49
-1.0
 74
     0
  0
LTYPE
  5
3D
330
5
100
AcDbSymbolTableRecord
100
AcDbLinetypeTableRecord
  2
DOT_CENTER
 70
     0
  3
Dot_Center
 72
    65
 73
     4
 40
14.0
 49
12.0
 74
     0
 49
-1.0
 74
     0
 49
0.0
 74
     0
 49
-1.0
 74
     0
  0
LTYPE
  5
3E
330
5
100
AcDbSymbolTableRecord
100
AcDbLinetypeTableRecord
  2
LONG_DASHED
 70
     0
  3
Long_Dashed
 72
    65
 73
     2
 40
15.0
 49
10.0
 74
     0
 49
-5.0
 74
     0
  0
LTYPE
  5
3F
330
5
100
AcDbSymbolTableRecord
100
AcDbLinetypeTableRecord
  2
DASH_CENTER
 70
     0
  3
Dash_Center
 72
    65
 73
     4
 40
14.0
 49
11.0
 74
     0
 49
-1.0
 74
     0
 49
1.0
 74
     0
 49
-1.0
 74
     0
  0
LTYPE
  5
40
330
5
100
AcDbSymbolTableRecord
100
AcDbLinetypeTableRecord
  2
PHANTOM
 70
     0
  3
Phantom
 72
    65
 73
     6
 40
13.0
 49
10.0
 74
     0
 49
-1.0
 74
     0
 49
0.0
 74
     0
 49
-1.0
 74
     0
 49
0.0
 74
     0
 49
-1.0
 74
     0
  0
LTYPE
  5
41
330
5
100
AcDbSymbolTableRecord
100
AcDbLinetypeTableRecord
  2
CENTER_DASH_DASH
 70
     0
  3
Center_Dash_Dash
 72
    65
 73
     6
 40
14.0
 49
9.0
 74
     0
 49
-1.0
 74
     0
 49
1.0
 74
     0
 49
-1.0
 74
     0
 49
1.0
 74
     0
 49
-1.0
 74
     0
  0
LTYPE
  5
42
330
5
100
AcDbSymbolTableRecord
100
AcDbLinetypeTableRecord
  2
HIDDEN
 70
     0
  3
HIDDEN
 72
    65
 73
     2
 40
4.0
 49
2.0
 74
     0
 49
-2.0
 74
     0
  0
ENDTAB
  0
TABLE
  2
LAYER
  5
2
330
0
100
AcDbSymbolTable
 70
     6
  0
LAYER
  5
10
330
2
100
AcDbSymbolTableRecord
100
AcDbLayerTableRecord
  2
0
 70
     0
 62
     7
  6
Continuous
370
    -3
390
F
  0
LAYER
  5
43
330
2
100
AcDbSymbolTableRecord
100
AcDbLayerTableRecord
  2
1
 70
     0
 62
     7
  6
Continuous
370
    -3
390
F
  0
LAYER
  5
44
330
2
100
AcDbSymbolTableRecord
100
AcDbLayerTableRecord
  2
BOHRUNGEN
 70
     0
 62
     7
  6
Continuous
370
    -3
390
F
  0
LAYER
  5
45
330
2
100
AcDbSymbolTableRecord
100
AcDbLayerTableRecord
  2
FASEN
 70
     0
 62
     7
  6
Continuous
370
    -3
390
F
  0
LAYER
  5
46
330
2
100
AcDbSymbolTableRecord
100
AcDbLayerTableRecord
  2
RUNDUNGEN
 70
     0
 62
     7
  6
Continuous
370
    -3
390
F
  0
LAYER
  5
47
330
2
100
AcDbSymbolTableRecord
100
AcDbLayerTableRecord
  2
TEIL_STARTBEZUEGE
 70
     0
 62
     7
  6
Continuous
370
    -3
390
F
  0
ENDTAB
  0
TABLE
  2
STYLE
  5
3
330
0
100
AcDbSymbolTable
 70
     2
  0
STYLE
  5
11
330
3
100
AcDbSymbolTableRecord
100
AcDbTextStyleTableRecord
  2
Standard
 70
     0
 40
0.0
 41
1.0
 50
0.0
 71
     0
 42
0.2
  3
txt
  4

  0
STYLE
  5
6E
330
3
100
AcDbSymbolTableRecord
100
AcDbTextStyleTableRecord
  2
CONVERTER_11
 70
     0
 40
0.0
 41
0.72
 50
0.0
 71
     0
 42
0.2
  3
txt.shx
  4

  0
ENDTAB
  0
TABLE
  2
VIEW
  5
6
330
0
100
AcDbSymbolTable
 70
     0
  0
ENDTAB
  0
TABLE
  2
UCS
  5
7
330
0
100
AcDbSymbolTable
 70
     0
  0
ENDTAB
  0
TABLE
  2
APPID
  5
9
330
0
100
AcDbSymbolTable
 70
     1
  0
APPID
  5
12
330
9
100
AcDbSymbolTableRecord
100
AcDbRegAppTableRecord
  2
ACAD
 70
     0
  0
ENDTAB
  0
TABLE
  2
DIMSTYLE
  5
A
330
0
100
AcDbSymbolTable
 70
     8
100
AcDbDimStyleTable
  0
DIMSTYLE
105
27
330
A
100
AcDbSymbolTableRecord
100
AcDbDimStyleTableRecord
  2
Standard
 70
     0
340
11
  0
DIMSTYLE
105
D9
102
{ACAD_REACTORS
330
DA
102
}
330
A
100
AcDbSymbolTableRecord
100
AcDbDimStyleTableRecord
  2
ME10_DIM_10
 70
     0
  3
\U+2300<>
 41
3.5
 42
2.0
 44
2.0
 71
     1
 73
     0
 74
     0
 77
     1
 78
     8
140
3.5
146
0.7
147
2.0
172
     1
173
     1
176
     2
177
     2
178
     3
271
     2
272
     0
340
6E
  0
DIMSTYLE
105
E4
102
{ACAD_REACTORS
330
E5
102
}
330
A
100
AcDbSymbolTableRecord
100
AcDbDimStyleTableRecord
  2
ME10_DIM_11
 70
     0
  3
\U+2300<>
 41
3.5
 42
2.0
 44
2.0
 71
     1
 73
     0
 74
     0
 77
     1
 78
     8
140
3.5
146
0.7
147
2.0
172
     1
173
     1
176
     2
177
     2
178
     3
271
     2
272
     0
340
6E
  0
DIMSTYLE
105
EF
102
{ACAD_REACTORS
330
F0
102
}
330
A
100
AcDbSymbolTableRecord
100
AcDbDimStyleTableRecord
  2
ME10_DIM_12
 70
     0
  3
\U+2300<>
 41
3.5
 42
2.0
 44
2.0
 71
     1
 73
     0
 74
     0
 77
     1
 78
     8
140
3.5
146
0.7
147
2.0
172
     1
173
     1
176
     2
177
     2
178
     3
271
     2
272
     0
340
6E
  0
DIMSTYLE
105
FA
102
{ACAD_REACTORS
330
FB
102
}
330
A
100
AcDbSymbolTableRecord
100
AcDbDimStyleTableRecord
  2
ME10_DIM_13
 70
     0
  3
<>
 41
3.5
 42
2.0
 44
2.0
 71
     1
 73
     0
 74
     0
 77
     1
 78
     8
140
3.5
146
0.7
147
2.0
172
     1
173
     1
176
     2
177
     2
178
     3
271
     2
272
     0
340
6E
  0
DIMSTYLE
105
105
102
{ACAD_REACTORS
330
106
102
}
330
A
100
AcDbSymbolTableRecord
100
AcDbDimStyleTableRecord
  2
ME10_DIM_14
 70
     0
  3
<>
 41
3.5
 42
2.0
 44
2.0
 71
     1
 73
     0
 74
     0
 77
     1
 78
     8
140
3.5
146
0.7
147
2.0
172
     1
173
     1
176
     2
177
     2
178
     3
271
     2
272
     0
340
6E
  0
DIMSTYLE
105
110
102
{ACAD_REACTORS
330
111
102
}
330
A
100
AcDbSymbolTableRecord
100
AcDbDimStyleTableRecord
  2
ME10_DIM_15
 70
     0
  3
<>
 41
3.5
 42
2.0
 44
2.0
 71
     1
 73
     0
 74
     0
 77
     1
 78
     8
140
3.5
146
0.7
147
2.0
172
     1
173
     1
176
     2
177
     2
178
     3
271
     2
272
     0
340
6E
  0
DIMSTYLE
105
122
102
{ACAD_REACTORS
330
123
102
}
330
A
100
AcDbSymbolTableRecord
100
AcDbDimStyleTableRecord
  2
ME10_DIM_16
 70
     0
  3
<>
 41
3.5
 42
2.0
 44
2.0
 71
     1
 73
     0
 74
     0
 77
     1
 78
     8
140
3.5
146
0.7
147
2.0
172
     1
173
     1
176
     2
177
     2
178
     3
271
     2
272
     0
340
6E
  0
ENDTAB
  0
TABLE
  2
BLOCK_RECORD
  5
1
330
0
100
AcDbSymbolTable
 70
    10
  0
BLOCK_RECORD
  5
1F
330
1
100
AcDbSymbolTableRecord
100
AcDbBlockTableRecord
  2
*Model_Space
340
22
  0
BLOCK_RECORD
  5
1B
330
1
100
AcDbSymbolTableRecord
100
AcDbBlockTableRecord
  2
*Paper_Space
340
1E
  0
BLOCK_RECORD
  5
23
330
1
100
AcDbSymbolTableRecord
100
AcDbBlockTableRecord
  2
*Paper_Space0
340
26
  0
BLOCK_RECORD
  5
48
330
1
100
AcDbSymbolTableRecord
100
AcDbBlockTableRecord
  2
Urheberrecht_DE-EN
340
0
102
{BLKREFS
331
6D
102
}
  0
BLOCK_RECORD
  5
D0
330
1
100
AcDbSymbolTableRecord
100
AcDbBlockTableRecord
  2
*D2
340
0
  0
BLOCK_RECORD
  5
DB
330
1
100
AcDbSymbolTableRecord
100
AcDbBlockTableRecord
  2
*D3
340
0
  0
BLOCK_RECORD
  5
E6
330
1
100
AcDbSymbolTableRecord
100
AcDbBlockTableRecord
  2
*D4
340
0
  0
BLOCK_RECORD
  5
F1
330
1
100
AcDbSymbolTableRecord
100
AcDbBlockTableRecord
  2
*D5
340
0
  0
BLOCK_RECORD
  5
FC
330
1
100
AcDbSymbolTableRecord
100
AcDbBlockTableRecord
  2
*D6
340
0
  0
BLOCK_RECORD
  5
107
330
1
100
AcDbSymbolTableRecord
100
AcDbBlockTableRecord
  2
*D7
340
0
  0
BLOCK_RECORD
  5
112
330
1
100
AcDbSymbolTableRecord
100
AcDbBlockTableRecord
  2
*D8
340
0
102
{BLKREFS
331
118
102
}
  0
BLOCK_RECORD
  5
119
330
1
100
AcDbSymbolTableRecord
100
AcDbBlockTableRecord
  2
*D9
340
0
  0
ENDTAB
  0
ENDSEC
  0
SECTION
  2
BLOCKS
  0
BLOCK
  5
20
330
1F
100
AcDbEntity
  8
0
100
AcDbBlockBegin
  2
*Model_Space
 70
     0
 10
0.0
 20
0.0
 30
0.0
  3
*Model_Space
  1

  0
ENDBLK
  5
21
330
1F
100
AcDbEntity
  8
0
100
AcDbBlockEnd
  0
BLOCK
  5
1C
330
1B
100
AcDbEntity
 67
     1
  8
0
100
AcDbBlockBegin
  2
*Paper_Space
 70
     0
 10
0.0
 20
0.0
 30
0.0
  3
*Paper_Space
  1

  0
ENDBLK
  5
1D
330
1B
100
AcDbEntity
 67
     1
  8
0
100
AcDbBlockEnd
  0
BLOCK
  5
24
330
23
100
AcDbEntity
  8
0
100
AcDbBlockBegin
  2
*Paper_Space0
 70
     0
 10
0.0
 20
0.0
 30
0.0
  3
*Paper_Space0
  1

  0
ENDBLK
  5
25
330
23
100
AcDbEntity
  8
0
100
AcDbBlockEnd
  0
BLOCK
  5
49
330
48
100
AcDbEntity
  8
0
100
AcDbBlockBegin
  2
Urheberrecht_DE-EN
 70
     0
 10
43.5531578584139
 20
327.827427079059
 30
0.0
  3
Urheberrecht_DE-EN
  1

  0
MTEXT
  5
6F
330
48
100
AcDbEntity
  8
1
 62
     1
100
AcDbMText
 10
43.5531578584139
 20
327.827427079059
 30
0.0
 40
2.0
 41
0.0
 71
     7
 72
     1
  1
We own the copyright of this document. It \Pdetermined and may neither be copied or \Pmade accessible to outsiders without our\Ppermission.
  7
CONVERTER_11
 11
0.0
 21
1.0
 31
0.0
 73
     1
 44
0.90036014405762
  0
MTEXT
  5
70
330
48
100
AcDbEntity
  8
1
 62
     1
100
AcDbMText
 10
43.5531578584139
 20
271.5380401617528
 30
0.0
 40
2.0
 41
0.0
 71
     7
 72
     1
  1
F\U+00fcr diese Unterlage behalten wir das Ur-\Pheberrecht. Sie darf nur f\U+00fcr den von uns \Pbestimmten Zweck benutzt und ohne unsere \PZustimmung weder vervielf\U+00e4ltigt noch\PDritten zug\U+00e4nglich gemacht werden.
  7
CONVERTER_11
 11
0.0
 21
1.0
 31
0.0
 73
     1
 44
0.90036014405762
  0
ENDBLK
  5
4A
330
48
100
AcDbEntity
  8
0
100
AcDbBlockEnd
  0
BLOCK
  5
D7
330
D0
100
AcDbEntity
  8
0
100
AcDbBlockBegin
  2
*D2
 70
     1
 10
0.0
 20
0.0
 30
0.0
  3
*D2
  1

  0
LINE
  5
D1
330
D0
100
AcDbEntity
  8
1
  6
Continuous
 62
     2
100
AcDbLine
 10
258.281953759088
 20
318.2020877944
 30
0.0
 11
258.281953759088
 21
308.2020877944
 31
0.0
  0
LINE
  5
D2
330
D0
100
AcDbEntity
  8
1
  6
Continuous
 62
     2
100
AcDbLine
 10
249.0049049786
 20
318.2020877944
 30
0.0
 11
260.281953759088
 21
318.2020877944
 31
0.0
  0
LINE
  5
D3
330
D0
100
AcDbEntity
  8
1
  6
Continuous
 62
     2
100
AcDbLine
 10
249.0049049786
 20
308.2020877944
 30
0.0
 11
260.281953759088
 21
308.2020877944
 31
0.0
  0
SOLID
  5
D4
330
D0
100
AcDbEntity
  8
1
 62
     2
100
AcDbTrace
 10
258.7427375006438
 20
314.7020877944
 30
0.0
 11
257.8211700175321
 21
314.7020877944
 31
0.0
 12
258.281953759088
 22
318.2020877944
 32
0.0
 13
258.281953759088
 23
318.2020877944
 33
0.0
  0
SOLID
  5
D5
330
D0
100
AcDbEntity
  8
1
 62
     2
100
AcDbTrace
 10
257.8211700175321
 20
311.7020877944
 30
0.0
 11
258.7427375006438
 21
311.7020877944
 31
0.0
 12
258.281953759088
 22
308.2020877944
 32
0.0
 13
258.281953759088
 23
308.2020877944
 33
0.0
  0
MTEXT
  5
D6
330
D0
100
AcDbEntity
  8
1
 62
     3
100
AcDbMText
 10
256.281953759088
 20
304.880961408591
 30
0.0
 40
3.5
 41
0.0
 71
     7
 72
     1
  1
\C3;%%c\C3;\C3;10\C2;\H2.45;\S^ ;\C3;
  7
CONVERTER_11
 11
0.0
 21
1.0
 31
0.0
 73
     1
 44
0.60024009603842
  0
ENDBLK
  5
D8
330
D0
100
AcDbEntity
  8
0
100
AcDbBlockEnd
  0
BLOCK
  5
E2
330
DB
100
AcDbEntity
  8
0
100
AcDbBlockBegin
  2
*D3
 70
     1
 10
0.0
 20
0.0
 30
0.0
  3
*D3
  1

  0
LINE
  5
DC
330
DB
100
AcDbEntity
  8
1
  6
Continuous
 62
     2
100
AcDbLine
 10
267.961210965296
 20
325.2020877944466
 30
0.0
 11
267.961210965296
 21
301.2020877944487
 31
0.0
  0
LINE
  5
DD
330
DB
100
AcDbEntity
  8
1
  6
Continuous
 62
     2
100
AcDbLine
 10
249.0049049786
 20
325.2020877944466
 30
0.0
 11
269.961210965296
 21
325.2020877944466
 31
0.0
  0
LINE
  5
DE
330
DB
100
AcDbEntity
  8
1
  6
Continuous
 62
     2
100
AcDbLine
 10
249.0049049786
 20
301.2020877944487
 30
0.0
 11
269.961210965296
 21
301.2020877944487
 31
0.0
  0
SOLID
  5
DF
330
DB
100
AcDbEntity
  8
1
 62
     2
100
AcDbTrace
 10
268.4219947068519
 20
321.7020877944466
 30
0.0
 11
267.5004272237401
 21
321.7020877944466
 31
0.0
 12
267.961210965296
 22
325.2020877944466
 32
0.0
 13
267.961210965296
 23
325.2020877944466
 33
0.0
  0
SOLID
  5
E0
330
DB
100
AcDbEntity
  8
1
 62
     2
100
AcDbTrace
 10
267.5004272237401
 20
304.7020877944487
 30
0.0
 11
268.4219947068519
 21
304.7020877944487
 31
0.0
 12
267.961210965296
 22
301.2020877944487
 32
0.0
 13
267.961210965296
 23
301.2020877944487
 33
0.0
  0
MTEXT
  5
E1
330
DB
100
AcDbEntity
  8
1
 62
     3
100
AcDbMText
 10
265.961210965296
 20
304.574835022782
 30
0.0
 40
3.5
 41
0.0
 71
     7
 72
     1
  1
\C3;%%c\C3;\C3;24\C2;\H2.45;\S^ ;\C3;
  7
CONVERTER_11
 11
0.0
 21
1.0
 31
0.0
 73
     1
 44
0.60024009603842
  0
ENDBLK
  5
E3
330
DB
100
AcDbEntity
  8
0
100
AcDbBlockEnd
  0
BLOCK
  5
ED
330
E6
100
AcDbEntity
  8
0
100
AcDbBlockBegin
  2
*D4
 70
     1
 10
0.0
 20
0.0
 30
0.0
  3
*D4
  1

  0
LINE
  5
E7
330
E6
100
AcDbEntity
  8
1
  6
Continuous
 62
     2
100
AcDbLine
 10
276.615605643789
 20
329.2020877944
 30
0.0
 11
276.615605643789
 21
297.2020877944
 31
0.0
  0
LINE
  5
E8
330
E6
100
AcDbEntity
  8
1
  6
Continuous
 62
     2
100
AcDbLine
 10
198.1800860339
 20
329.2020877944
 30
0.0
 11
278.615605643789
 21
329.2020877944
 31
0.0
  0
LINE
  5
E9
330
E6
100
AcDbEntity
  8
1
  6
Continuous
 62
     2
100
AcDbLine
 10
198.1800860339
 20
297.2020877944
 30
0.0
 11
278.615605643789
 21
297.2020877944
 31
0.0
  0
SOLID
  5
EA
330
E6
100
AcDbEntity
  8
1
 62
     2
100
AcDbTrace
 10
277.0763893853449
 20
325.7020877944
 30
0.0
 11
276.1548219022332
 21
325.7020877944
 31
0.0
 12
276.615605643789
 22
329.2020877944
 32
0.0
 13
276.615605643789
 23
329.2020877944
 33
0.0
  0
SOLID
  5
EB
330
E6
100
AcDbEntity
  8
1
 62
     2
100
AcDbTrace
 10
276.1548219022332
 20
300.7020877944
 30
0.0
 11
277.0763893853449
 21
300.7020877944
 31
0.0
 12
276.615605643789
 22
297.2020877944
 32
0.0
 13
276.615605643789
 23
297.2020877944
 33
0.0
  0
MTEXT
  5
EC
330
E6
100
AcDbEntity
  8
1
 62
     3
100
AcDbMText
 10
274.615605643789
 20
304.574835022782
 30
0.0
 40
3.5
 41
0.0
 71
     7
 72
     1
  1
\C3;%%c\C3;\C3;32\C2;\H2.45;\S^ ;\C3;
  7
CONVERTER_11
 11
0.0
 21
1.0
 31
0.0
 73
     1
 44
0.60024009603842
  0
ENDBLK
  5
EE
330
E6
100
AcDbEntity
  8
0
100
AcDbBlockEnd
  0
BLOCK
  5
F8
330
F1
100
AcDbEntity
  8
0
100
AcDbBlockBegin
  2
*D5
 70
     1
 10
0.0
 20
0.0
 30
0.0
  3
*D5
  1

  0
LINE
  5
F2
330
F1
100
AcDbEntity
  8
1
  6
Continuous
 62
     2
100
AcDbLine
 10
247.0049049786
 20
351.911845429921
 30
0.0
 11
144.0049049786
 21
351.911845429921
 31
0.0
  0
LINE
  5
F3
330
F1
100
AcDbEntity
  8
1
  6
Continuous
 62
     2
100
AcDbLine
 10
247.0049049786
 20
326.2776973028
 30
0.0
 11
247.0049049786
 21
353.911845429921
 31
0.0
  0
LINE
  5
F4
330
F1
100
AcDbEntity
  8
1
  6
Continuous
 62
     2
100
AcDbLine
 10
144.0049049786
 20
345.6895877944
 30
0.0
 11
144.0049049786
 21
353.911845429921
 31
0.0
  0
SOLID
  5
F5
330
F1
100
AcDbEntity
  8
1
 62
     2
100
AcDbTrace
 10
243.5049049786
 20
351.4510616883651
 30
0.0
 11
243.5049049786
 21
352.3726291714769
 31
0.0
 12
247.0049049786
 22
351.911845429921
 32
0.0
 13
247.0049049786
 23
351.911845429921
 33
0.0
  0
SOLID
  5
F6
330
F1
100
AcDbEntity
  8
1
 62
     2
100
AcDbTrace
 10
147.5049049786
 20
352.3726291714769
 30
0.0
 11
147.5049049786
 21
351.4510616883651
 31
0.0
 12
144.0049049786
 22
351.911845429921
 32
0.0
 13
144.0049049786
 23
351.911845429921
 33
0.0
  0
MTEXT
  5
F7
330
F1
100
AcDbEntity
  8
1
 62
     3
100
AcDbMText
 10
188.285048661129
 20
353.911845429921
 30
0.0
 40
3.5
 41
0.0
 71
     7
 72
     1
  1
\C3;\C3;\C3;103\C2;\H2.45;\S^ ;\C3;
  7
CONVERTER_11
 11
0.9999999999970619
 21
2.424068405545306E-6
 31
0.0
 73
     1
 44
0.60024009603842
  0
ENDBLK
  5
F9
330
F1
100
AcDbEntity
  8
0
100
AcDbBlockEnd
  0
BLOCK
  5
103
330
FC
100
AcDbEntity
  8
0
100
AcDbBlockBegin
  2
*D6
 70
     1
 10
0.0
 20
0.0
 30
0.0
  3
*D6
  1

  0
LINE
  5
FD
330
FC
100
AcDbEntity
  8
1
  6
Continuous
 62
     2
100
AcDbLine
 10
247.0049049786
 20
359.06835831132
 30
0.0
 11
117.0049049786
 21
359.06835831132
 31
0.0
  0
LINE
  5
FE
330
FC
100
AcDbEntity
  8
1
  6
Continuous
 62
     2
100
AcDbLine
 10
247.0049049786
 20
326.2776973028
 30
0.0
 11
247.0049049786
 21
361.06835831132
 31
0.0
  0
LINE
  5
FF
330
FC
100
AcDbEntity
  8
1
  6
Continuous
 62
     2
100
AcDbLine
 10
117.0049049786
 20
349.6895877944
 30
0.0
 11
117.0049049786
 21
361.06835831132
 31
0.0
  0
SOLID
  5
100
330
FC
100
AcDbEntity
  8
1
 62
     2
100
AcDbTrace
 10
243.5049049786
 20
358.6075745697642
 30
0.0
 11
243.5049049786
 21
359.5291420528759
 31
0.0
 12
247.0049049786
 22
359.06835831132
 32
0.0
 13
247.0049049786
 23
359.06835831132
 33
0.0
  0
SOLID
  5
101
330
FC
100
AcDbEntity
  8
1
 62
     2
100
AcDbTrace
 10
120.5049049786
 20
359.5291420528759
 30
0.0
 11
120.5049049786
 21
358.6075745697642
 31
0.0
 12
117.0049049786
 22
359.06835831132
 32
0.0
 13
117.0049049786
 23
359.06835831132
 33
0.0
  0
MTEXT
  5
102
330
FC
100
AcDbEntity
  8
1
 62
     3
100
AcDbMText
 10
178.788906568503
 20
361.06835831132
 30
0.0
 40
3.5
 41
0.0
 71
     7
 72
     1
  1
\C3;\C3;\C3;130\C2;\H2.45;\S^ ;\C3;
  7
CONVERTER_11
 11
0.9999999999970619
 21
2.424068405545306E-6
 31
0.0
 73
     1
 44
0.60024009603842
  0
ENDBLK
  5
104
330
FC
100
AcDbEntity
  8
0
100
AcDbBlockEnd
  0
BLOCK
  5
10E
330
107
100
AcDbEntity
  8
0
100
AcDbBlockBegin
  2
*D7
 70
     1
 10
0.0
 20
0.0
 30
0.0
  3
*D7
  1

  0
LINE
  5
108
330
107
100
AcDbEntity
  8
1
  6
Continuous
 62
     2
100
AcDbLine
 10
247.0049049786
 20
365.949620697281
 30
0.0
 11
51.60490497859999
 21
365.949620697281
 31
0.0
  0
LINE
  5
109
330
107
100
AcDbEntity
  8
1
  6
Continuous
 62
     2
100
AcDbLine
 10
247.0049049786
 20
326.2776973028
 30
0.0
 11
247.0049049786
 21
367.949620697281
 31
0.0
  0
LINE
  5
10A
330
107
100
AcDbEntity
  8
1
  6
Continuous
 62
     2
100
AcDbLine
 10
51.60490497859999
 20
327.0240589334
 30
0.0
 11
51.60490497859999
 21
367.949620697281
 31
0.0
  0
SOLID
  5
10B
330
107
100
AcDbEntity
  8
1
 62
     2
100
AcDbTrace
 10
243.5049049786
 20
365.4888369557251
 30
0.0
 11
243.5049049786
 21
366.4104044388368
 31
0.0
 12
247.0049049786
 22
365.949620697281
 32
0.0
 13
247.0049049786
 23
365.949620697281
 33
0.0
  0
SOLID
  5
10C
330
107
100
AcDbEntity
  8
1
 62
     2
100
AcDbTrace
 10
55.10490497859999
 20
366.4104044388368
 30
0.0
 11
55.10490497859999
 21
365.4888369557251
 31
0.0
 12
51.60490497859999
 22
365.949620697281
 32
0.0
 13
51.60490497859999
 23
365.949620697281
 33
0.0
  0
MTEXT
  5
10D
330
107
100
AcDbEntity
  8
1
 62
     3
100
AcDbMText
 10
156.154868915183
 20
367.949620697281
 30
0.0
 40
3.5
 41
0.0
 71
     7
 72
     1
  1
\C3;\C3;\C3;195.4\C2;\H2.45;\S^ ;\C3;
  7
CONVERTER_11
 11
0.9999999999970619
 21
2.424068405545306E-6
 31
0.0
 73
     1
 44
0.60024009603842
  0
ENDBLK
  5
10F
330
107
100
AcDbEntity
  8
0
100
AcDbBlockEnd
  0
BLOCK
  5
116
330
112
100
AcDbEntity
  8
0
100
AcDbBlockBegin
  2
*D8
 70
     1
 10
0.0
 20
0.0
 30
0.0
  3
*D8
  1

  0
LINE
  5
113
330
112
100
AcDbEntity
  8
1
  6
Continuous
 62
     2
100
AcDbLine
 10
156.3211342985811
 20
339.1205579757631
 30
0.0
 11
144.694504391297
 21
333.9527735201015
 31
0.0
  0
SOLID
  5
114
330
112
100
AcDbEntity
  8
1
 62
     2
100
AcDbTrace
 10
147.7056507496418
 20
335.7954127319682
 30
0.0
 11
148.0799585468424
 21
334.9532842982457
 31
0.0
 12
144.694504391297
 22
333.9527735201015
 32
0.0
 13
144.694504391297
 23
333.9527735201015
 33
0.0
  0
MTEXT
  5
115
330
112
100
AcDbEntity
  8
1
 62
     3
100
AcDbMText
 10
148.728409185283
 20
337.934419133177
 30
0.0
 40
3.5
 41
0.0
 71
     7
 72
     1
  1
\C3; R\C3;\C3;8\C2;\H2.45;\S^ ;\C3;
  7
CONVERTER_11
 11
0.9138000734128741
 21
0.4061642842873139
 31
0.0
 73
     1
 44
0.60024009603842
  0
ENDBLK
  5
117
330
112
100
AcDbEntity
  8
0
100
AcDbBlockEnd
  0
BLOCK
  5
120
330
119
100
AcDbEntity
  8
0
100
AcDbBlockBegin
  2
*D9
 70
     1
 10
0.0
 20
0.0
 30
0.0
  3
*D9
  1

  0
LINE
  5
11A
330
119
100
AcDbEntity
  8
1
  6
Continuous
 62
     2
100
AcDbLine
 10
228.4123273183223
 20
329.2020877944
 30
0.0
 11
230.4123273183223
 21
329.2020877944
 31
0.0
  0
LINE
  5
11B
330
119
100
AcDbEntity
  8
1
  6
Continuous
 62
     2
100
AcDbLine
 10
198.1800860339
 20
329.2020877944
 30
0.0
 11
228.4123273183223
 21
329.2020877944
 31
0.0
  0
ARC
  5
11C
330
119
100
AcDbEntity
  8
1
  6
Continuous
 62
     2
100
AcDbCircle
 10
196.1800860339
 20
329.2020877944
 30
0.0
 40
32.23224128442227
100
AcDbArc
 50
346.1676411426527
 51
17.40851042079044
  0
SOLID
  5
11D
330
119
100
AcDbEntity
  8
1
 62
     2
100
AcDbTrace
 10
228.3061401336651
 20
323.1429805271995
 30
0.0
 11
227.392691084467
 21
323.2650356805036
 31
0.0
 12
228.3129660754103
 22
326.6731752899572
 32
0.0
 13
228.3129660754103
 23
326.6731752899572
 33
0.0
  0
SOLID
  5
11E
330
119
100
AcDbEntity
  8
1
 62
     2
100
AcDbTrace
 10
227.7622887799203
 20
332.6719251904568
 30
0.0
 11
228.682498307505
 21
332.7219357020639
 31
0.0
 12
228.4123273183223
 22
329.2020877944
 32
0.0
 13
228.4123273183223
 23
329.2020877944
 33
0.0
  0
MTEXT
  5
11F
330
119
100
AcDbEntity
  8
1
 62
     3
100
AcDbMText
 10
229.0180495312954
 20
339.4982386139358
 30
0.0
 40
3.5
 41
0.0
 71
     7
 72
     1
  1
\C3;\C3;\C3;4.5%%d\C2;\H2.45;\S^ ;\C3;
  7
CONVERTER_11
 11
0.1995859344312832
 21
-0.9798803267630142
 31
0.0
 73
     1
 44
0.60024009603842
  0
ENDBLK
  5
121
330
119
100
AcDbEntity
  8
0
100
AcDbBlockEnd
  0
ENDSEC
  0
SECTION
  2
ENTITIES
  0
INSERT
  5
6D
330
1F
100
AcDbEntity
  8
0
100
AcDbBlockReference
  2
Urheberrecht_DE-EN
 10
43.5531578584139
 20
327.827427079059
 30
0.0
  0
LINE
  5
71
330
1F
100
AcDbEntity
  8
0
  6
Continuous
 62
     7
100
AcDbLine
 10
51.6049049786
 20
325.0240589334
 30
0.0
 11
51.6049049786
 21
301.3801166555
 31
0.0
  0
LINE
  5
72
330
1F
100
AcDbEntity
  8
0
  6
Continuous
 62
     9
100
AcDbLine
 10
52.4605863094
 20
326.013590197
 30
0.0
 11
52.4605863094
 21
300.3905853918
 31
0.0
  0
LINE
  5
73
330
1F
100
AcDbEntity
  8
0
  6
Continuous
 62
     7
100
AcDbLine
 10
115.738172947
 20
335.2423406442
 30
0.0
 11
115.738172947
 21
291.1618349446
 31
0.0
  0
LINE
  5
74
330
1F
100
AcDbEntity
  8
0
  6
Continuous
 62
     7
100
AcDbLine
 10
116.3549049786
 20
335.0770877944
 30
0.0
 11
116.3549049786
 21
291.3270877944
 31
0.0
  0
LWPOLYLINE
  5
75
330
1F
100
AcDbEntity
  8
TEIL_STARTBEZUEGE
  6
DOT_CENTER
 62
     7
100
AcDbPolyline
 90
        2
 70
     0
 43
0.25
 10
117.0049049786
 20
278.7145877944
 10
117.0049049786
 20
347.6895877944
  0
LINE
  5
76
330
1F
100
AcDbEntity
  8
0
  6
Continuous
 62
     9
100
AcDbLine
 10
118.0049049786
 20
335.0770877944
 30
0.0
 11
118.0049049786
 21
291.3270877944
 31
0.0
  0
LINE
  5
77
330
1F
100
AcDbEntity
  8
0
  6
Continuous
 62
     7
100
AcDbLine
 10
119.0049049786
 20
343.6494855414
 30
0.0
 11
119.0049049786
 21
322.2970877944
 31
0.0
  0
LINE
  5
78
330
1F
100
AcDbEntity
  8
0
  6
Continuous
 62
     7
100
AcDbLine
 10
119.0049049786
 20
304.1070877944
 30
0.0
 11
119.0049049786
 21
282.720006641
 31
0.0
  0
LINE
  5
79
330
1F
100
AcDbEntity
  8
FASEN
  6
Continuous
 62
     7
100
AcDbLine
 10
119.0049049786
 20
282.7145877952
 30
0.0
 11
119.0049049786
 21
308.813110123
 31
0.0
  0
LINE
  5
7A
330
1F
100
AcDbEntity
  8
FASEN
  6
Continuous
 62
     7
100
AcDbLine
 10
119.0049049786
 20
317.5910654658
 30
0.0
 11
119.0049049786
 21
343.6895877943
 31
0.0
  0
LINE
  5
7B
330
1F
100
AcDbEntity
  8
FASEN
  6
Continuous
 62
     9
100
AcDbLine
 10
120.0049049786
 20
322.5954067776
 30
0.0
 11
120.0049049786
 21
321.2970877944
 31
0.0
  0
LINE
  5
7C
330
1F
100
AcDbEntity
  8
0
  6
Continuous
 62
     9
100
AcDbLine
 10
120.0049049786
 20
281.7145877944
 30
0.0
 11
120.0049049786
 21
303.8087688112
 31
0.0
  0
LINE
  5
7D
330
1F
100
AcDbEntity
  8
FASEN
  6
Continuous
 62
     9
100
AcDbLine
 10
120.0049049786
 20
303.8087688112
 30
0.0
 11
120.0049049786
 21
305.1070877944
 31
0.0
  0
LINE
  5
7E
330
1F
100
AcDbEntity
  8
0
  6
Continuous
 62
     9
100
AcDbLine
 10
120.0049049786
 20
322.5954067776
 30
0.0
 11
120.0049049786
 21
344.6895877944
 31
0.0
  0
LINE
  5
7F
330
1F
100
AcDbEntity
  8
0
  6
Continuous
 62
     7
100
AcDbLine
 10
143.0049049786
 20
281.7145877944
 30
0.0
 11
138.6321824476
 21
281.7145877944
 31
0.0
  0
LINE
  5
80
330
1F
100
AcDbEntity
  8
0
  6
Continuous
 62
     7
100
AcDbLine
 10
120.0049049786
 20
281.7145877944
 30
0.0
 11
128.5776275096
 21
281.7145877944
 31
0.0
  0
LINE
  5
81
330
1F
100
AcDbEntity
  8
0
  6
Continuous
 62
     7
100
AcDbLine
 10
115.738172947
 20
291.1618349446
 30
0.0
 11
52.4605863094
 21
300.3905853918
 31
0.0
  0
LINE
  5
82
330
1F
100
AcDbEntity
  8
0
  6
Continuous
 62
     7
100
AcDbLine
 10
128.5776275096
 20
344.6895877944
 30
0.0
 11
128.5776275096
 21
322.5954067776
 31
0.0
  0
LINE
  5
83
330
1F
100
AcDbEntity
  8
0
  6
Continuous
 62
     7
100
AcDbLine
 10
128.5776275096
 20
303.8087688112
 30
0.0
 11
128.5776275096
 21
281.7145877944
 31
0.0
  0
LINE
  5
84
330
1F
100
AcDbEntity
  8
0
  6
Continuous
 62
     7
100
AcDbLine
 10
136.1424049786
 20
340.3771667186
 30
0.0
 11
138.6321824476
 21
344.6895877944
 31
0.0
  0
LINE
  5
85
330
1F
100
AcDbEntity
  8
RUNDUNGEN
  6
Continuous
 62
     7
100
AcDbLine
 10
246.0833640743
 20
301.1295609524
 30
0.0
 11
196.1800860339
 21
297.2020877944
 31
0.0
  0
LINE
  5
86
330
1F
100
AcDbEntity
  8
0
  6
Continuous
 62
     7
100
AcDbLine
 10
196.1800860339
 20
297.2020877944
 30
0.0
 11
246.0833640743
 21
301.1295609524
 31
0.0
  0
LINE
  5
87
330
1F
100
AcDbEntity
  8
0
  6
Continuous
 62
     7
100
AcDbLine
 10
131.8174049786
 20
286.8270877944
 30
0.0
 11
135.3924049786
 21
286.8270877944
 31
0.0
  0
LINE
  5
88
330
1F
100
AcDbEntity
  8
0
  6
Continuous
 62
     7
100
AcDbLine
 10
118.0049049786
 20
291.3270877944
 30
0.0
 11
116.3549049786
 21
291.3270877944
 31
0.0
  0
LINE
  5
89
330
1F
100
AcDbEntity
  8
0
  6
Continuous
 62
     7
100
AcDbLine
 10
136.1424049786
 20
286.0270088702
 30
0.0
 11
138.6321824476
 21
281.7145877944
 31
0.0
  0
LINE
  5
8A
330
1F
100
AcDbEntity
  8
0
  6
Continuous
 62
     7
100
AcDbLine
 10
131.0674049786
 20
340.3769647554
 30
0.0
 11
131.0674049786
 21
321.2970877944
 31
0.0
  0
LINE
  5
8B
330
1F
100
AcDbEntity
  8
0
  6
Continuous
 62
     7
100
AcDbLine
 10
131.0674049786
 20
305.1070877944
 30
0.0
 11
131.0674049786
 21
286.0272108335
 31
0.0
  0
LINE
  5
8C
330
1F
100
AcDbEntity
  8
0
  6
Continuous
 62
     9
100
AcDbLine
 10
131.8174049786
 20
286.8270877944
 30
0.0
 11
131.8174049786
 21
305.1070877944
 31
0.0
  0
LINE
  5
8D
330
1F
100
AcDbEntity
  8
0
  6
Continuous
 62
     9
100
AcDbLine
 10
131.8174049786
 20
321.2970877944
 30
0.0
 11
131.8174049786
 21
339.5770877944
 31
0.0
  0
LINE
  5
8E
330
1F
100
AcDbEntity
  8
0
  6
Continuous
 62
     9
100
AcDbLine
 10
135.3924049786
 20
286.8270877944
 30
0.0
 11
135.3924049786
 21
305.7804997737
 31
0.0
  0
LINE
  5
8F
330
1F
100
AcDbEntity
  8
0
  6
Continuous
 62
     9
100
AcDbLine
 10
135.3924049786
 20
320.6236758152
 30
0.0
 11
135.3924049786
 21
339.5770877944
 31
0.0
  0
LINE
  5
90
330
1F
100
AcDbEntity
  8
0
  6
Continuous
 62
     7
100
AcDbLine
 10
136.1424049786
 20
286.0272378042
 30
0.0
 11
136.1424049786
 21
306.154484035
 31
0.0
  0
LINE
  5
91
330
1F
100
AcDbEntity
  8
0
  6
Continuous
 62
     7
100
AcDbLine
 10
136.1424049786
 20
320.2496915539
 30
0.0
 11
136.1424049786
 21
340.3769377847
 31
0.0
  0
LINE
  5
92
330
1F
100
AcDbEntity
  8
FASEN
  6
Continuous
 62
     7
100
AcDbLine
 10
119.0049049786
 20
304.1070877944
 30
0.0
 11
120.0049049786
 21
305.1070877944
 31
0.0
  0
LINE
  5
93
330
1F
100
AcDbEntity
  8
RUNDUNGEN
  6
Continuous
 62
     7
100
AcDbLine
 10
196.1800860339
 20
297.2020877944
 30
0.0
 11
152.0049049786
 21
297.2020877944
 31
0.0
  0
LINE
  5
94
330
1F
100
AcDbEntity
  8
0
  6
Continuous
 62
     7
100
AcDbLine
 10
152.0049049786
 20
297.2020877944
 30
0.0
 11
196.1800860339
 21
297.2020877944
 31
0.0
  0
LINE
  5
95
330
1F
100
AcDbEntity
  8
FASEN
  6
Continuous
 62
     7
100
AcDbLine
 10
119.0049049786
 20
322.2970877944
 30
0.0
 11
120.0049049786
 21
321.2970877944
 31
0.0
  0
LINE
  5
96
330
1F
100
AcDbEntity
  8
0
  6
Continuous
 62
     7
100
AcDbLine
 10
138.6321824476
 20
344.6895877944
 30
0.0
 11
138.6321824476
 21
319.8013542525
 31
0.0
  0
LINE
  5
97
330
1F
100
AcDbEntity
  8
0
  6
Continuous
 62
     7
100
AcDbLine
 10
138.6321824476
 20
306.6028242847
 30
0.0
 11
138.6321824476
 21
281.7145877944
 31
0.0
  0
LINE
  5
98
330
1F
100
AcDbEntity
  8
0
  6
Continuous
 62
     9
100
AcDbLine
 10
143.0049049786
 20
344.6895877944
 30
0.0
 11
143.0049049786
 21
281.7145877944
 31
0.0
  0
LINE
  5
99
330
1F
100
AcDbEntity
  8
0
  6
Continuous
 62
     7
100
AcDbLine
 10
116.3549049786
 20
291.3270877944
 30
0.0
 11
115.738172947
 21
291.1618349446
 31
0.0
  0
LINE
  5
9A
330
1F
100
AcDbEntity
  8
0
  6
Continuous
 62
     7
100
AcDbLine
 10
128.5776275096
 20
303.8087688112
 30
0.0
 11
120.0049049786
 21
303.8087688112
 31
0.0
  0
LINE
  5
9B
330
1F
100
AcDbEntity
  8
0
  6
Continuous
 62
     7
100
AcDbLine
 10
120.0049049786
 20
305.1070877944
 30
0.0
 11
132.1599049786
 21
305.1070877944
 31
0.0
  0
LINE
  5
9C
330
1F
100
AcDbEntity
  8
0
  6
Continuous
 62
     7
100
AcDbLine
 10
144.0049049786
 20
343.6895877944
 30
0.0
 11
144.0049049786
 21
282.7145877944
 31
0.0
  0
LINE
  5
9D
330
1F
100
AcDbEntity
  8
0
  6
Continuous
 62
     7
100
AcDbLine
 10
128.5776275096
 20
281.7145877944
 30
0.0
 11
131.0674049786
 21
286.0270088702
 31
0.0
  0
LINE
  5
9E
330
1F
100
AcDbEntity
  8
BOHRUNGEN
  6
HIDDEN
 62
     8
100
AcDbLine
 10
247.0049049786
 20
308.2020877944
 30
0.0
 11
205.0049049786
 21
308.2020877944
 31
0.0
  0
LWPOLYLINE
  5
9F
330
1F
100
AcDbEntity
  8
TEIL_STARTBEZUEGE
  6
DOT_CENTER
 62
     7
100
AcDbPolyline
 90
        2
 70
     0
 43
0.25
 10
250.0049049786
 20
313.2020877944
 10
48.6049049786
 20
313.2020877944
  0
LINE
  5
A0
330
1F
100
AcDbEntity
  8
0
  6
Continuous
 62
     7
100
AcDbLine
 10
128.5776275096
 20
344.6895877944
 30
0.0
 11
131.0674049786
 21
340.3771667186
 31
0.0
  0
LINE
  5
A1
330
1F
100
AcDbEntity
  8
RUNDUNGEN
  6
Continuous
 62
     9
100
AcDbLine
 10
152.0049049786
 20
329.2020877944
 30
0.0
 11
152.0049049786
 21
297.2020877944
 31
0.0
  0
LINE
  5
A2
330
1F
100
AcDbEntity
  8
BOHRUNGEN
  6
HIDDEN
 62
     8
100
AcDbLine
 10
247.0049049786
 20
318.2020877944
 30
0.0
 11
205.0049049786
 21
318.2020877944
 31
0.0
  0
LINE
  5
A3
330
1F
100
AcDbEntity
  8
0
  6
Continuous
 62
     7
100
AcDbLine
 10
120.0049049786
 20
321.2970877944
 30
0.0
 11
132.1599049786
 21
321.2970877944
 31
0.0
  0
LINE
  5
A4
330
1F
100
AcDbEntity
  8
0
  6
Continuous
 62
     7
100
AcDbLine
 10
120.0049049786
 20
322.5954067776
 30
0.0
 11
128.5776275096
 21
322.5954067776
 31
0.0
  0
LINE
  5
A5
330
1F
100
AcDbEntity
  8
0
  6
Continuous
 62
     7
100
AcDbLine
 10
116.3549049786
 20
335.0770877944
 30
0.0
 11
115.738172947
 21
335.2423406442
 31
0.0
  0
LINE
  5
A6
330
1F
100
AcDbEntity
  8
RUNDUNGEN
  6
Continuous
 62
     7
100
AcDbLine
 10
196.1800860339
 20
329.2020877944
 30
0.0
 11
152.0049049786
 21
329.2020877944
 31
0.0
  0
LINE
  5
A7
330
1F
100
AcDbEntity
  8
0
  6
Continuous
 62
     7
100
AcDbLine
 10
152.0049049786
 20
329.2020877944
 30
0.0
 11
196.1800860339
 21
329.2020877944
 31
0.0
  0
LINE
  5
A8
330
1F
100
AcDbEntity
  8
RUNDUNGEN
  6
Continuous
 62
     7
100
AcDbLine
 10
246.0833640743
 20
325.2746146365
 30
0.0
 11
196.1800860339
 21
329.2020877944
 31
0.0
  0
LINE
  5
A9
330
1F
100
AcDbEntity
  8
0
  6
Continuous
 62
     7
100
AcDbLine
 10
196.1800860339
 20
329.2020877944
 30
0.0
 11
246.0833640743
 21
325.2746146365
 31
0.0
  0
LINE
  5
AA
330
1F
100
AcDbEntity
  8
0
  6
Continuous
 62
     7
100
AcDbLine
 10
115.738172947
 20
335.2423406442
 30
0.0
 11
52.4605863094
 21
326.013590197
 31
0.0
  0
LINE
  5
AB
330
1F
100
AcDbEntity
  8
0
  6
Continuous
 62
     7
100
AcDbLine
 10
118.0049049786
 20
335.0770877944
 30
0.0
 11
116.3549049786
 21
335.0770877944
 31
0.0
  0
LINE
  5
AC
330
1F
100
AcDbEntity
  8
0
  6
Continuous
 62
     7
100
AcDbLine
 10
131.8174049786
 20
339.5770877944
 30
0.0
 11
135.3924049786
 21
339.5770877944
 31
0.0
  0
LINE
  5
AD
330
1F
100
AcDbEntity
  8
0
  6
Continuous
 62
     7
100
AcDbLine
 10
143.0049049786
 20
344.6895877944
 30
0.0
 11
138.6321824476
 21
344.6895877944
 31
0.0
  0
LINE
  5
AE
330
1F
100
AcDbEntity
  8
0
  6
Continuous
 62
     7
100
AcDbLine
 10
120.0049049786
 20
344.6895877944
 30
0.0
 11
128.5776275096
 21
344.6895877944
 31
0.0
  0
LINE
  5
AF
330
1F
100
AcDbEntity
  8
0
  6
Continuous
 62
     7
100
AcDbLine
 10
196.1800860339
 20
329.2020877944
 30
0.0
 11
196.1800860339
 21
297.2020877944
 31
0.0
  0
LINE
  5
B0
330
1F
100
AcDbEntity
  8
BOHRUNGEN
  6
HIDDEN
 62
     8
100
AcDbLine
 10
205.0049049786
 20
308.2020877944
 30
0.0
 11
205.0049049786
 21
318.2020877944
 31
0.0
  0
LINE
  5
B1
330
1F
100
AcDbEntity
  8
RUNDUNGEN
  6
Continuous
 62
     9
100
AcDbLine
 10
246.0833640743
 20
301.1295609524
 30
0.0
 11
246.0833640743
 21
325.2746146365
 31
0.0
  0
LINE
  5
B2
330
1F
100
AcDbEntity
  8
RUNDUNGEN
  6
Continuous
 62
     7
100
AcDbLine
 10
247.0049049786
 20
302.1264782861
 30
0.0
 11
247.0049049786
 21
324.2776973028
 31
0.0
  0
LWPOLYLINE
  5
B3
330
1F
100
AcDbEntity
  8
1
  6
Continuous
 62
     7
100
AcDbPolyline
 90
        2
 70
     0
 43
0.25
 10
247.0049049786
 20
324.2776973028
 10
247.0049049786
 20
325.2020877944466
  0
LWPOLYLINE
  5
B4
330
1F
100
AcDbEntity
  8
1
  6
Continuous
 62
     7
100
AcDbPolyline
 90
        2
 70
     0
 43
0.25
 10
246.0833640743
 20
325.2746146365
 10
247.0049049785949
 20
325.2020877944466
  0
LWPOLYLINE
  5
B5
330
1F
100
AcDbEntity
  8
1
  6
Continuous
 62
     7
100
AcDbPolyline
 90
        2
 70
     0
 43
0.25
 10
246.0833640743
 20
301.1295609524
 10
247.0049049786
 20
301.2020877944487
  0
LWPOLYLINE
  5
B6
330
1F
100
AcDbEntity
  8
1
  6
Continuous
 62
     7
100
AcDbPolyline
 90
        2
 70
     0
 43
0.25
 10
247.0049049786
 20
302.1264782861
 10
247.0049049786
 20
301.2020877944487
  0
ARC
  5
B7
330
1F
100
AcDbEntity
  8
0
  6
Continuous
 62
     7
100
AcDbCircle
 10
3.3444176648
 20
250.2714894167
 30
0.0
 40
144.6171008922004
100
AcDbArc
 50
29.41479005800005
 51
30.00703030906607
  0
ARC
  5
B8
330
1F
100
AcDbEntity
  8
0
  6
Continuous
 62
     7
100
AcDbCircle
 10
52.6049049786
 20
301.3801166555
 30
0.0
 40
1.0
100
AcDbArc
 50
180.0
 51
261.702173170585
  0
ARC
  5
B9
330
1F
100
AcDbEntity
  8
0
  6
Continuous
 62
     7
100
AcDbCircle
 10
118.0049049786
 20
290.3270877944
 30
0.0
 40
1.0
100
AcDbArc
 50
0.0
 51
90.0
  0
ARC
  5
BA
330
1F
100
AcDbEntity
  8
0
  6
Continuous
 62
     7
100
AcDbCircle
 10
120.0049049786
 20
282.7145877944
 30
0.0
 40
1.0
100
AcDbArc
 50
179.9999999541658
 51
270.0
  0
ARC
  5
BB
330
1F
100
AcDbEntity
  8
0
  6
Continuous
 62
     7
100
AcDbCircle
 10
3.3444176648
 20
376.1326861722
 30
0.0
 40
144.6171008922267
100
AcDbArc
 50
329.9929696908997
 51
330.5852099419999
  0
ARC
  5
BC
330
1F
100
AcDbEntity
  8
0
  6
Continuous
 62
     7
100
AcDbCircle
 10
52.6049049786
 20
325.0240589334
 30
0.0
 40
0.9999999999607213
100
AcDbArc
 50
98.29782683024173
 51
180.0
  0
ARC
  5
BD
330
1F
100
AcDbEntity
  8
0
  6
Continuous
 62
     7
100
AcDbCircle
 10
118.0049049786
 20
336.0770877944
 30
0.0
 40
1.0
100
AcDbArc
 50
270.0
 51
0.0
  0
ARC
  5
BE
330
1F
100
AcDbEntity
  8
0
  6
Continuous
 62
     7
100
AcDbCircle
 10
120.0049049786
 20
343.6895877944
 30
0.0
 40
1.0
100
AcDbArc
 50
90.0
 51
180.0000000057289
  0
ARC
  5
BF
330
1F
100
AcDbEntity
  8
0
  6
Continuous
 62
     7
100
AcDbCircle
 10
209.0075549793
 20
271.4193135372
 30
0.0
 40
85.40207797678286
100
AcDbArc
 50
145.4920452819935
 51
146.2770584427998
  0
ARC
  5
C0
330
1F
100
AcDbEntity
  8
RUNDUNGEN
  6
Continuous
 62
     7
100
AcDbCircle
 10
152.0049049786
 20
289.2020877944
 30
0.0
 40
8.0
100
AcDbArc
 50
90.0
 51
180.0
  0
ARC
  5
C1
330
1F
100
AcDbEntity
  8
RUNDUNGEN
  6
Continuous
 62
     7
100
AcDbCircle
 10
246.0049049786
 20
302.1264782861
 30
0.0
 40
0.9999999999647582
100
AcDbArc
 50
274.4999999985585
 51
0.0
  0
ARC
  5
C2
330
1F
100
AcDbEntity
  8
0
  6
Continuous
 62
     7
100
AcDbCircle
 10
143.0049049786
 20
282.7145877944
 30
0.0
 40
1.0
100
AcDbArc
 50
270.0
 51
0.0
  0
ARC
  5
C3
330
1F
100
AcDbEntity
  8
0
  6
Continuous
 62
     7
100
AcDbCircle
 10
135.3924049786
 20
286.0770877944
 30
0.0
 40
0.7499999999996189
100
AcDbArc
 50
7.50000000000268
 51
90.0
  0
ARC
  5
C4
330
1F
100
AcDbEntity
  8
0
  6
Continuous
 62
     7
100
AcDbCircle
 10
131.8174049786
 20
286.0770877944
 30
0.0
 40
0.75
100
AcDbArc
 50
90.0
 51
172.4999999999976
  0
ARC
  5
C5
330
1F
100
AcDbEntity
  8
0
  6
Continuous
 62
     7
100
AcDbCircle
 10
206.8019362755
 20
353.4906038839
 30
0.0
 40
82.73801552319995
100
AcDbArc
 50
213.7102599798996
 51
214.5205486934247
  0
ARC
  5
C6
330
1F
100
AcDbEntity
  8
0
  6
Continuous
 62
     7
100
AcDbCircle
 10
132.1599049786
 20
313.2020877944
 30
0.0
 40
8.09499999999997
100
AcDbArc
 50
270.0
 51
90.0
  0
ARC
  5
C7
330
1F
100
AcDbEntity
  8
RUNDUNGEN
  6
Continuous
 62
     7
100
AcDbCircle
 10
152.0049049786
 20
337.2020877944
 30
0.0
 40
8.0
100
AcDbArc
 50
180.0
 51
270.0
  0
ARC
  5
C8
330
1F
100
AcDbEntity
  8
0
  6
Continuous
 62
     7
100
AcDbCircle
 10
143.0049049786
 20
343.6895877944
 30
0.0
 40
1.0
100
AcDbArc
 50
0.0
 51
90.0
  0
ARC
  5
C9
330
1F
100
AcDbEntity
  8
RUNDUNGEN
  6
Continuous
 62
     7
100
AcDbCircle
 10
246.0049049786
 20
324.2776973028
 30
0.0
 40
1.0
100
AcDbArc
 50
0.0
 51
85.50000000144182
  0
ARC
  5
CA
330
1F
100
AcDbEntity
  8
0
  6
Continuous
 62
     7
100
AcDbCircle
 10
135.3924049786
 20
340.3270877944
 30
0.0
 40
0.75
100
AcDbArc
 50
270.0
 51
352.5000000000016
  0
ARC
  5
CB
330
1F
100
AcDbEntity
  8
0
  6
Continuous
 62
     7
100
AcDbCircle
 10
131.8174049786
 20
340.3270877944
 30
0.0
 40
0.7499999999996396
100
AcDbArc
 50
187.4999999999981
 51
270.0
  0
SPLINE
  5
CC
330
1F
100
AcDbEntity
  8
FASEN
  6
Continuous
 62
     7
100
AcDbSpline
210
0.0
220
0.0
230
1.0
 70
     8
 71
     3
 72
    23
 73
    19
 74
    17
 42
0.0000000001
 43
0.0000000001
 44
0.00000001
 40
0.0
 40
0.0
 40
0.0
 40
0.0
 40
0.0975611499184221
 40
0.1951314163019092
 40
0.2893707641641704
 40
0.3836080273609919
 40
0.4711432754383078
 40
0.558675715254339
 40
0.63670371077961
 40
0.7147396983615506
 40
0.7809503321815813
 40
0.8471358976632141
 40
0.9000667898695847
 40
0.9530569033928783
 40
0.9931422460715706
 40
1.033219614047952
 40
1.064462266376493
 40
1.095194190064623
 40
1.095194190064623
 40
1.095194190064623
 40
1.095194190064623
 10
120.0049049786
 20
303.8087688112
 30
0.0
 10
119.9723831937104
 20
303.8090214589817
 30
0.0
 10
119.9073365849784
 20
303.8095267781534
 30
0.0
 10
119.8109576733032
 20
303.8139181831596
 30
0.0
 10
119.7158549882058
 20
303.8209281190454
 30
0.0
 10
119.6243507589193
 20
303.8306764983438
 30
0.0
 10
119.5354337759259
 20
303.8431318120086
 30
0.0
 10
119.4523500418303
 20
303.8579046587363
 30
0.0
 10
119.3730036067186
 20
303.8752556795532
 30
0.0
 10
119.3014034926853
 20
303.8944302689935
 30
0.0
 10
119.2346346640542
 20
303.9160426318899
 30
0.0
 10
119.1771804644083
 20
303.9388871600665
 30
0.0
 10
119.1255474968286
 20
303.964053113824
 30
0.0
 10
119.0840790188715
 20
303.9896755623997
 30
0.0
 10
119.0490139777212
 20
304.0171863144989
 30
0.0
 10
119.0247404077324
 20
304.0455625610496
 30
0.0
 10
119.0084462346578
 20
304.0761363404098
 30
0.0
 10
119.0060788942507
 20
304.0968274812063
 30
0.0
 10
119.0049049786
 20
304.1070877944
 30
0.0
 11
120.0049049786
 21
303.8087688112
 31
0.0
 11
119.9073534745357
 21
303.8101406815274
 31
0.0
 11
119.8098776163085
 21
303.8144318288124
 31
0.0
 11
119.7158990384975
 21
303.8214376548247
 31
0.0
 11
119.6221948782138
 21
303.8314472562331
 31
0.0
 11
119.5355160982958
 21
303.8436623603217
 31
0.0
 11
119.4493476112102
 21
303.8590545613832
 31
0.0
 11
119.3731468287677
 21
303.8758417243609
 31
0.0
 11
119.297798194555
 21
303.8961444010359
 31
0.0
 11
119.2348677188785
 21
303.9167260254125
 31
0.0
 11
119.1734394101367
 21
303.941365261668
 31
0.0
 11
119.1259881424502
 21
303.9648185459733
 31
0.0
 11
119.0810375320131
 21
303.9928791010738
 31
0.0
 11
119.0499230924165
 21
304.0181521370262
 31
0.0
 11
119.0241266167086
 21
304.048823577569
 31
0.0
 11
119.0102778001208
 21
304.076829177074
 31
0.0
 11
119.0049049786
 21
304.1070877944
 31
0.0
  0
SPLINE
  5
CD
330
1F
100
AcDbEntity
  8
0
  6
Continuous
 62
     7
100
AcDbSpline
210
0.0
220
0.0
230
1.0
 70
     8
 71
     3
 72
    23
 73
    19
 74
    17
 42
0.0000000001
 43
0.0000000001
 44
0.00000001
 40
0.0
 40
0.0
 40
0.0
 40
0.0
 40
0.5487680077981706
 40
1.097562346418921
 40
1.646340704505762
 40
2.195110086781951
 40
2.743880982368777
 40
3.292652086156044
 40
3.84142933381666
 40
4.390204467391074
 40
4.938979600480272
 40
5.487756847640281
 40
6.036527951366958
 40
6.585298846864379
 40
7.134068230390352
 40
7.68284658973589
 40
8.23164092828867
 40
8.780408935990051
 40
8.780408935990051
 40
8.780408935990051
 40
8.780408935990051
 10
119.0049049786
 20
308.813110123
 30
0.0
 10
119.0038580000622
 20
308.9960337411911
 30
0.0
 10
119.0017639927508
 20
309.3618897545599
 30
0.0
 10
118.988212587434
 20
309.9105257753619
 30
0.0
 10
118.9713290767493
 20
310.4590436528492
 30
0.0
 10
118.9527903151109
 20
311.0075045324545
 30
0.0
 10
118.9355288920654
 20
311.5560042478145
 30
0.0
 10
118.9213964717488
 20
312.104600800395
 30
0.0
 10
118.9123361077191
 20
312.6533096134186
 30
0.0
 10
118.9090720444549
 20
313.2020877935565
 30
0.0
 10
118.9123361155707
 20
313.7508659734739
 30
0.0
 10
118.9213964832804
 20
314.2995747860631
 30
0.0
 10
118.9355288989463
 20
314.848171338531
 30
0.0
 10
118.952790316174
 20
315.3966710544479
 30
0.0
 10
118.9713290779392
 20
315.9451319348545
 30
0.0
 10
118.988212590201
 20
316.4936498131101
 30
0.0
 10
119.0017639936853
 20
317.0422858343255
 30
0.0
 10
119.0038580003737
 20
317.4081418476405
 30
0.0
 10
119.0049049786
 20
317.5910654658
 30
0.0
 11
119.0049049786
 21
308.813110123
 31
0.0
 11
119.0000290566482
 21
309.3618564685622
 31
0.0
 11
118.9876570849905
 21
309.9105113331351
 31
0.0
 11
118.9710530644618
 21
310.4590384453244
 31
0.0
 11
118.9530032075908
 21
311.0075109036947
 31
0.0
 11
118.9360504062708
 21
311.5560198811696
 31
0.0
 11
118.9222418633112
 21
312.1046172275843
 31
0.0
 11
118.91330215425
 21
312.6533216554431
 31
0.0
 11
118.9101600654544
 21
313.2020877937093
 31
0.0
 11
118.9133021614063
 21
313.7508539314493
 31
0.0
 11
118.9222418734507
 21
314.2995583587589
 31
0.0
 11
118.9360504129545
 21
314.8481557051999
 31
0.0
 11
118.9530032096277
 21
315.396664682729
 31
0.0
 11
118.971053065893
 21
315.9451371423697
 31
0.0
 11
118.9876570872036
 21
316.4936642557946
 31
0.0
 11
119.0000290577344
 21
317.0423191203249
 31
0.0
 11
119.0049049786
 21
317.5910654658
 31
0.0
  0
SPLINE
  5
CE
330
1F
100
AcDbEntity
  8
FASEN
  6
Continuous
 62
     7
100
AcDbSpline
210
0.0
220
0.0
230
1.0
 70
     8
 71
     3
 72
    23
 73
    19
 74
    17
 42
0.0000000001
 43
0.0000000001
 44
0.00000001
 40
0.0
 40
0.0
 40
0.0
 40
0.0
 40
0.0307319237729805
 40
0.0619745761042664
 40
0.1020519440580699
 40
0.1421372867212689
 40
0.1951274002499627
 40
0.2480582924703248
 40
0.3142438579588693
 40
0.3804544917761736
 40
0.4584904793501292
 40
0.5365184748706828
 40
0.6240509146894468
 40
0.711586162771181
 40
0.8058234259697272
 40
0.90006277383217
 40
0.9976330402151072
 40
1.095194190132298
 40
1.095194190132298
 40
1.095194190132298
 40
1.095194190132298
 10
119.0049049786
 20
322.2970877944
 30
0.0
 10
119.0060788942473
 20
322.3073481076231
 30
0.0
 10
119.0084462346443
 20
322.328039248451
 30
0.0
 10
119.0247404077247
 20
322.358613027835
 30
0.0
 10
119.0490139777243
 20
322.3869892743629
 30
0.0
 10
119.0840790188817
 20
322.4145000264334
 30
0.0
 10
119.1255474968322
 20
322.4401224750193
 30
0.0
 10
119.1771804644031
 20
322.465288428815
 30
0.0
 10
119.2346346640498
 20
322.4881329570086
 30
0.0
 10
119.3014034926831
 20
322.5097453198953
 30
0.0
 10
119.3730036067203
 20
322.528919909302
 30
0.0
 10
119.4523500418344
 20
322.5462709300899
 30
0.0
 10
119.5354337759266
 20
322.5610437768383
 30
0.0
 10
119.6243507589176
 20
322.5734990905422
 30
0.0
 10
119.7158549882051
 20
322.5832474698549
 30
0.0
 10
119.8109576733029
 20
322.5902574057388
 30
0.0
 10
119.9073365849781
 20
322.5946488107533
 30
0.0
 10
119.9723831937103
 20
322.5951541298538
 30
0.0
 10
120.0049049786
 20
322.5954067776
 30
0.0
 11
119.0049049786
 21
322.2970877944
 31
0.0
 11
119.0102778001208
 21
322.3273464118121
 31
0.0
 11
119.0241266167086
 21
322.3553520113203
 31
0.0
 11
119.0499230924165
 21
322.3860234518335
 31
0.0
 11
119.0810375320131
 21
322.4112964877614
 31
0.0
 11
119.1259881424502
 21
322.4393570428721
 31
0.0
 11
119.1734394101367
 21
322.462810327209
 31
0.0
 11
119.2348677188785
 21
322.4874495634829
 31
0.0
 11
119.297798194555
 21
322.5080311878509
 31
0.0
 11
119.3731468287676
 21
322.5283338644953
 31
0.0
 11
119.4493476112102
 21
322.5451210274509
 31
0.0
 11
119.5355160982958
 21
322.5605132285278
 31
0.0
 11
119.6221948782138
 21
322.5727283326481
 31
0.0
 11
119.7158990384975
 21
322.5827379340729
 31
0.0
 11
119.8098776163085
 21
322.5897437600877
 31
0.0
 11
119.9073534745357
 21
322.5940349073601
 31
0.0
 11
120.0049049786
 21
322.5954067776
 31
0.0
  0
SPLINE
  5
CF
330
1F
100
AcDbEntity
  8
0
  6
Continuous
 62
     7
100
AcDbSpline
210
0.0
220
0.0
230
1.0
 70
     8
 71
     3
 72
    23
 73
    19
 74
    17
 42
0.0000000001
 43
0.0000000001
 44
0.00000001
 40
0.0
 40
0.0
 40
0.0
 40
0.0
 40
0.908661192326638
 40
1.818249788885556
 40
2.728780597891876
 40
3.639069191735943
 40
4.548282806351073
 40
5.457558733759364
 40
6.365546353709622
 40
7.27351274817662
 40
8.181296797173996
 40
9.089101944009759
 40
9.998249993664736
 40
10.90733564690701
 40
11.8176479360626
 40
12.72820255987411
 40
13.63779959083059
 40
14.54646967904869
 40
14.54646967904869
 40
14.54646967904869
 40
14.54646967904869
 10
138.6321814125
 20
319.8013529619
 30
0.0
 10
138.8353131774788
 20
319.5763567522913
 30
0.0
 10
139.2417840292195
 20
319.1261346958461
 30
0.0
 10
139.764868598593
 20
318.3793391344748
 30
0.0
 10
140.2186466053633
 20
317.5891486304051
 30
0.0
 10
140.5934153278173
 20
316.7582384812016
 30
0.0
 10
140.8876797673338
 20
315.8961664208995
 30
0.0
 10
141.0992119700845
 20
315.0109029844811
 30
0.0
 10
141.22652248177
 20
314.110116065915
 30
0.0
 10
141.2691077524328
 20
313.2018728014334
 30
0.0
 10
141.2264777291116
 20
312.2936932676653
 30
0.0
 10
141.0991626312027
 20
311.3930738058863
 30
0.0
 10
140.8876576027922
 20
310.5079548304088
 30
0.0
 10
140.5934224339885
 20
309.6459549181324
 30
0.0
 10
140.2186665703429
 20
308.8150681422321
 30
0.0
 10
139.7648768165831
 20
308.0248626085516
 30
0.0
 10
139.2417803789224
 20
307.2780590781263
 30
0.0
 10
138.8353110611545
 20
306.8278280667309
 30
0.0
 10
138.6321800102
 20
306.6028273237
 30
0.0
 11
138.6321814125
 21
319.8013529619
 31
0.0
 11
139.2271096083209
 21
319.1145301286615
 31
0.0
 11
139.7530978789057
 21
318.372446741031
 31
0.0
 11
140.2055197655604
 21
317.5822690454299
 31
0.0
 11
140.5801560681875
 21
316.7526468634479
 31
0.0
 11
140.8739203005357
 21
315.8921981591114
 31
0.0
 11
141.0852677870248
 21
315.0078255271745
 31
0.0
 11
141.2124128860723
 21
314.1087840143559
 31
0.0
 11
141.254905311781
 21
313.2018124782873
 31
0.0
 11
141.2123743000126
 21
312.2950252967215
 31
0.0
 11
141.0852277074115
 21
311.3961682843934
 31
0.0
 11
140.8739019082235
 21
310.5119219483597
 31
0.0
 11
140.5801821215887
 21
309.6515932833309
 31
0.0
 11
140.2055386942685
 21
308.8219483194135
 31
0.0
 11
139.7531028822078
 21
308.031751154834
 31
0.0
 11
139.2271079317312
 21
307.289662163676
 31
0.0
 11
138.6321800102
 21
306.6028273237
 31
0.0
  0
DIMENSION
  5
DA
330
1F
100
AcDbEntity
  8
1
100
AcDbDimension
  2
*D2
 10
258.281953759088
 20
318.2020877944
 30
0.0
 11
254.531953759088
 21
313.315961408591
 31
0.0
 70
    32
  1
<>
 71
     5
 42
-1.0
 53
90.0
  3
ME10_DIM_10
100
AcDbAlignedDimension
 13
247.0049049786
 23
308.2020877944
 33
0.0
 14
247.0049049786
 24
318.2020877944
 34
0.0
 50
90.0
100
AcDbRotatedDimension
  0
DIMENSION
  5
E5
330
1F
100
AcDbEntity
  8
1
100
AcDbDimension
  2
*D3
 10
267.961210965296
 20
325.2020877944466
 30
0.0
 11
264.211210965296
 21
313.429835022782
 31
0.0
 70
    32
  1
<>
 71
     5
 42
-1.0
 53
90.0
  3
ME10_DIM_11
100
AcDbAlignedDimension
 13
247.0049049786
 23
301.2020877944487
 33
0.0
 14
247.0049049786
 24
325.2020877944466
 34
0.0
 50
90.0
100
AcDbRotatedDimension
  0
DIMENSION
  5
F0
330
1F
100
AcDbEntity
  8
1
100
AcDbDimension
  2
*D4
 10
276.615605643789
 20
329.2020877944
 30
0.0
 11
272.865605643789
 21
313.429835022782
 31
0.0
 70
    32
  1
<>
 71
     5
 42
-1.0
 53
90.0
  3
ME10_DIM_12
100
AcDbAlignedDimension
 13
196.1800860339
 23
297.2020877944
 33
0.0
 14
196.1800860339
 24
329.2020877944
 34
0.0
 50
90.0
100
AcDbRotatedDimension
  0
DIMENSION
  5
FB
330
1F
100
AcDbEntity
  8
1
100
AcDbDimension
  2
*D5
 10
247.0049049786
 20
351.911845429921
 30
0.0
 11
191.225048661129
 21
355.661845429921
 31
0.0
 70
    32
  1
<>
 71
     5
 42
-1.0
 53
0.00013888888889
  3
ME10_DIM_13
100
AcDbAlignedDimension
 13
144.0049049786
 23
343.6895877944
 33
0.0
 14
247.0049049786
 24
324.2776973028
 34
0.0
100
AcDbRotatedDimension
  0
DIMENSION
  5
106
330
1F
100
AcDbEntity
  8
1
100
AcDbDimension
  2
*D6
 10
247.0049049786
 20
359.06835831132
 30
0.0
 11
181.728906568503
 21
362.81835831132
 31
0.0
 70
    32
  1
<>
 71
     5
 42
-1.0
 53
0.00013888888889
  3
ME10_DIM_14
100
AcDbAlignedDimension
 13
117.0049049786
 23
347.6895877944
 33
0.0
 14
247.0049049786
 24
324.2776973028
 34
0.0
100
AcDbRotatedDimension
  0
DIMENSION
  5
111
330
1F
100
AcDbEntity
  8
1
100
AcDbDimension
  2
*D7
 10
247.0049049786
 20
365.949620697281
 30
0.0
 11
160.809868915183
 21
369.699620697281
 31
0.0
 70
    32
  1
<>
 71
     5
 42
-1.0
 53
0.00013888888889
  3
ME10_DIM_15
100
AcDbAlignedDimension
 13
51.6049049786
 23
325.0240589334
 33
0.0
 14
247.0049049786
 24
324.2776973028
 34
0.0
100
AcDbRotatedDimension
  0
INSERT
  5
118
330
1F
100
AcDbEntity
  8
1
100
AcDbBlockReference
  2
*D8
 10
0.0
 20
0.0
 30
0.0
  0
DIMENSION
  5
123
330
1F
100
AcDbEntity
  8
1
100
AcDbDimension
  2
*D9
 10
228.387477428412
 20
327.9366559400791
 30
0.0
 11
231.4383763813453
 21
336.3836370440833
 31
0.0
 70
    37
  1
<>
 71
     5
 42
-1.0
  3
ME10_DIM_16
100
AcDb3PointAngularDimension
 13
228.3129660754103
 23
326.6731752899572
 33
0.0
 14
199.4033101623422
 24
329.2020877944
 34
0.0
 15
196.1800860339
 25
329.2020877944
 35
0.0
  0
ENDSEC
  0
SECTION
  2
OBJECTS
  0
DICTIONARY
  5
C
330
0
100
AcDbDictionary
281
     1
  3
ACAD_GROUP
350
D
  3
ACAD_LAYOUT
350
1A
  3
ACAD_MLEADERSTYLE
350
126
  3
ACAD_MLINESTYLE
350
17
  3
ACAD_PLOTSETTINGS
350
19
  3
ACAD_PLOTSTYLENAME
350
E
  3
ACAD_SCALELIST
350
4B
  3
ACAD_VISUALSTYLE
350
2A
  3
AcDbVariableDictionary
350
124
  0
DICTIONARY
  5
D
102
{ACAD_REACTORS
330
C
102
}
330
C
100
AcDbDictionary
281
     1
  0
DICTIONARY
  5
1A
102
{ACAD_REACTORS
330
C
102
}
330
C
100
AcDbDictionary
281
     1
  3
Layout1
350
1E
  3
Layout2
350
26
  3
Model
350
22
  0
DICTIONARY
  5
126
102
{ACAD_REACTORS
330
C
102
}
330
C
100
AcDbDictionary
281
     1
  0
DICTIONARY
  5
17
102
{ACAD_REACTORS
330
C
102
}
330
C
100
AcDbDictionary
281
     1
  3
Standard
350
18
  0
DICTIONARY
  5
19
102
{ACAD_REACTORS
330
C
102
}
330
C
100
AcDbDictionary
281
     1
  0
ACDBDICTIONARYWDFLT
  5
E
102
{ACAD_REACTORS
330
C
102
}
330
C
100
AcDbDictionary
281
     1
  3
Normal
350
F
100
AcDbDictionaryWithDefault
340
F
  0
DICTIONARY
  5
4B
102
{ACAD_REACTORS
330
C
102
}
330
C
100
AcDbDictionary
281
     1
  3
A0
350
4C
  3
A1
350
4D
  3
A2
350
4E
  3
A3
350
4F
  3
A4
350
50
  3
A5
350
51
  3
A6
350
52
  3
A7
350
53
  3
A8
350
54
  3
A9
350
55
  3
B0
350
56
  3
B1
350
57
  3
B2
350
58
  3
B3
350
59
  3
B4
350
5A
  3
B5
350
5B
  3
B6
350
5C
  3
B7
350
5D
  3
B8
350
5E
  3
B9
350
5F
  3
C0
350
60
  3
C1
350
61
  3
C2
350
62
  3
C3
350
63
  3
C4
350
64
  3
C5
350
65
  3
C6
350
66
  3
C7
350
67
  3
C8
350
68
  3
C9
350
69
  3
D0
350
6A
  3
D1
350
6B
  3
D2
350
6C
  0
DICTIONARY
  5
2A
102
{ACAD_REACTORS
330
C
102
}
330
C
100
AcDbDictionary
281
     1
  3
2dWireframe
350
2F
  3
3D Hidden
350
31
  3
3dWireframe
350
30
  3
Basic
350
32
  3
Brighten
350
36
  3
ColorChange
350
3A
  3
Conceptual
350
34
  3
Dim
350
35
  3
Facepattern
350
39
  3
Flat
350
2B
  3
FlatWithEdges
350
2C
  3
Gouraud
350
2D
  3
GouraudWithEdges
350
2E
  3
Linepattern
350
38
  3
Realistic
350
33
  3
Thicken
350
37
  0
DICTIONARY
  5
124
102
{ACAD_REACTORS
330
C
102
}
330
C
100
AcDbDictionary
281
     1
  3
CANNOSCALE
350
127
  0
LAYOUT
  5
1E
102
{ACAD_REACTORS
330
1A
102
}
330
1A
100
AcDbPlotSettings
  1

  2
none_device
  4

  6

 40
0.0
 41
0.0
 42
0.0
 43
0.0
 44
0.0
 45
0.0
 46
0.0
 47
0.0
 48
0.0
 49
0.0
140
0.0
141
0.0
142
1.0
143
1.0
 70
   688
 72
     0
 73
     0
 74
     5
  7

 75
    16
147
1.0
148
0.0
149
0.0
100
AcDbLayout
  1
Layout1
 70
     1
 71
     1
 10
0.0
 20
0.0
 11
12.0
 21
9.0
 12
0.0
 22
0.0
 32
0.0
 14
1.00000000000000E+20
 24
1.00000000000000E+20
 34
1.00000000000000E+20
 15
-1.00000000000000E+20
 25
-1.00000000000000E+20
 35
-1.00000000000000E+20
146
0.0
 13
0.0
 23
0.0
 33
0.0
 16
1.0
 26
0.0
 36
0.0
 17
0.0
 27
1.0
 37
0.0
 76
     0
330
1B
  0
LAYOUT
  5
26
102
{ACAD_REACTORS
330
1A
102
}
330
1A
100
AcDbPlotSettings
  1

  2
none_device
  4

  6

 40
0.0
 41
0.0
 42
0.0
 43
0.0
 44
0.0
 45
0.0
 46
0.0
 47
0.0
 48
0.0
 49
0.0
140
0.0
141
0.0
142
1.0
143
1.0
 70
   688
 72
     0
 73
     0
 74
     5
  7

 75
    16
147
1.0
148
0.0
149
0.0
100
AcDbLayout
  1
Layout2
 70
     1
 71
     2
 10
0.0
 20
0.0
 11
0.0
 21
0.0
 12
0.0
 22
0.0
 32
0.0
 14
0.0
 24
0.0
 34
0.0
 15
0.0
 25
0.0
 35
0.0
146
0.0
 13
0.0
 23
0.0
 33
0.0
 16
1.0
 26
0.0
 36
0.0
 17
0.0
 27
1.0
 37
0.0
 76
     0
330
23
  0
LAYOUT
  5
22
102
{ACAD_REACTORS
330
1A
102
}
330
1A
100
AcDbPlotSettings
  1

  2
none_device
  4

  6

 40
0.0
 41
0.0
 42
0.0
 43
0.0
 44
0.0
 45
0.0
 46
0.0
 47
0.0
 48
0.0
 49
0.0
140
0.0
141
0.0
142
1.0
143
1.0
 70
  1712
 72
     0
 73
     0
 74
     0
  7

 75
     0
147
1.0
148
0.0
149
0.0
100
AcDbLayout
  1
Model
 70
     1
 71
     0
 10
0.0
 20
0.0
 11
12.0
 21
9.0
 12
0.0
 22
0.0
 32
0.0
 14
29.5531578584139
 24
271.5380401617528
 34
0.0
 15
278.615605643789
 25
380.307427079059
 35
0.0
146
0.0
 13
0.0
 23
0.0
 33
0.0
 16
1.0
 26
0.0
 36
0.0
 17
0.0
 27
1.0
 37
0.0
 76
     0
330
1F
331
29
  0
MLINESTYLE
  5
18
102
{ACAD_REACTORS
330
17
102
}
330
17
100
AcDbMlineStyle
  2
Standard
 70
     0
  3

 62
   256
 51
90.0
 52
90.0
 71
     2
 49
0.5
 62
   256
  6
BYLAYER
 49
-0.5
 62
   256
  6
BYLAYER
  0
ACDBPLACEHOLDER
  5
F
102
{ACAD_REACTORS
330
E
102
}
330
E
  0
SCALE
  5
4C
102
{ACAD_REACTORS
330
4B
102
}
330
4B
100
AcDbScale
 70
     0
300
1:1
140
1.0
141
1.0
290
     1
  0
SCALE
  5
4D
102
{ACAD_REACTORS
330
4B
102
}
330
4B
100
AcDbScale
 70
     0
300
1:2
140
1.0
141
2.0
290
     0
  0
SCALE
  5
4E
102
{ACAD_REACTORS
330
4B
102
}
330
4B
100
AcDbScale
 70
     0
300
1:4
140
1.0
141
4.0
290
     0
  0
SCALE
  5
4F
102
{ACAD_REACTORS
330
4B
102
}
330
4B
100
AcDbScale
 70
     0
300
1:5
140
1.0
141
5.0
290
     0
  0
SCALE
  5
50
102
{ACAD_REACTORS
330
4B
102
}
330
4B
100
AcDbScale
 70
     0
300
1:8
140
1.0
141
8.0
290
     0
  0
SCALE
  5
51
102
{ACAD_REACTORS
330
4B
102
}
330
4B
100
AcDbScale
 70
     0
300
1:10
140
1.0
141
10.0
290
     0
  0
SCALE
  5
52
102
{ACAD_REACTORS
330
4B
102
}
330
4B
100
AcDbScale
 70
     0
300
1:16
140
1.0
141
16.0
290
     0
  0
SCALE
  5
53
102
{ACAD_REACTORS
330
4B
102
}
330
4B
100
AcDbScale
 70
     0
300
1:20
140
1.0
141
20.0
290
     0
  0
SCALE
  5
54
102
{ACAD_REACTORS
330
4B
102
}
330
4B
100
AcDbScale
 70
     0
300
1:30
140
1.0
141
30.0
290
     0
  0
SCALE
  5
55
102
{ACAD_REACTORS
330
4B
102
}
330
4B
100
AcDbScale
 70
     0
300
1:40
140
1.0
141
40.0
290
     0
  0
SCALE
  5
56
102
{ACAD_REACTORS
330
4B
102
}
330
4B
100
AcDbScale
 70
     0
300
1:50
140
1.0
141
50.0
290
     0
  0
SCALE
  5
57
102
{ACAD_REACTORS
330
4B
102
}
330
4B
100
AcDbScale
 70
     0
300
1:100
140
1.0
141
100.0
290
     0
  0
SCALE
  5
58
102
{ACAD_REACTORS
330
4B
102
}
330
4B
100
AcDbScale
 70
     0
300
2:1
140
2.0
141
1.0
290
     0
  0
SCALE
  5
59
102
{ACAD_REACTORS
330
4B
102
}
330
4B
100
AcDbScale
 70
     0
300
4:1
140
4.0
141
1.0
290
     0
  0
SCALE
  5
5A
102
{ACAD_REACTORS
330
4B
102
}
330
4B
100
AcDbScale
 70
     0
300
8:1
140
8.0
141
1.0
290
     0
  0
SCALE
  5
5B
102
{ACAD_REACTORS
330
4B
102
}
330
4B
100
AcDbScale
 70
     0
300
10:1
140
10.0
141
1.0
290
     0
  0
SCALE
  5
5C
102
{ACAD_REACTORS
330
4B
102
}
330
4B
100
AcDbScale
 70
     0
300
100:1
140
100.0
141
1.0
290
     0
  0
SCALE
  5
5D
102
{ACAD_REACTORS
330
4B
102
}
330
4B
100
AcDbScale
 70
     0
300
1/128" = 1'-0"
140
0.0078125
141
12.0
290
     0
  0
SCALE
  5
5E
102
{ACAD_REACTORS
330
4B
102
}
330
4B
100
AcDbScale
 70
     0
300
1/64" = 1'-0"
140
0.015625
141
12.0
290
     0
  0
SCALE
  5
5F
102
{ACAD_REACTORS
330
4B
102
}
330
4B
100
AcDbScale
 70
     0
300
1/32" = 1'-0"
140
0.03125
141
12.0
290
     0
  0
SCALE
  5
60
102
{ACAD_REACTORS
330
4B
102
}
330
4B
100
AcDbScale
 70
     0
300
1/16" = 1'-0"
140
0.0625
141
12.0
290
     0
  0
SCALE
  5
61
102
{ACAD_REACTORS
330
4B
102
}
330
4B
100
AcDbScale
 70
     0
300
3/32" = 1'-0"
140
0.09375
141
12.0
290
     0
  0
SCALE
  5
62
102
{ACAD_REACTORS
330
4B
102
}
330
4B
100
AcDbScale
 70
     0
300
1/8" = 1'-0"
140
0.125
141
12.0
290
     0
  0
SCALE
  5
63
102
{ACAD_REACTORS
330
4B
102
}
330
4B
100
AcDbScale
 70
     0
300
3/16" = 1'-0"
140
0.1875
141
12.0
290
     0
  0
SCALE
  5
64
102
{ACAD_REACTORS
330
4B
102
}
330
4B
100
AcDbScale
 70
     0
300
1/4" = 1'-0"
140
0.25
141
12.0
290
     0
  0
SCALE
  5
65
102
{ACAD_REACTORS
330
4B
102
}
330
4B
100
AcDbScale
 70
     0
300
3/8" = 1'-0"
140
0.375
141
12.0
290
     0
  0
SCALE
  5
66
102
{ACAD_REACTORS
330
4B
102
}
330
4B
100
AcDbScale
 70
     0
300
1/2" = 1'-0"
140
0.5
141
12.0
290
     0
  0
SCALE
  5
67
102
{ACAD_REACTORS
330
4B
102
}
330
4B
100
AcDbScale
 70
     0
300
3/4" = 1'-0"
140
0.75
141
12.0
290
     0
  0
SCALE
  5
68
102
{ACAD_REACTORS
330
4B
102
}
330
4B
100
AcDbScale
 70
     0
300
1" = 1'-0"
140
1.0
141
12.0
290
     0
  0
SCALE
  5
69
102
{ACAD_REACTORS
330
4B
102
}
330
4B
100
AcDbScale
 70
     0
300
1-1/2" = 1'-0"
140
1.5
141
12.0
290
     0
  0
SCALE
  5
6A
102
{ACAD_REACTORS
330
4B
102
}
330
4B
100
AcDbScale
 70
     0
300
3" = 1'-0"
140
3.0
141
12.0
290
     0
  0
SCALE
  5
6B
102
{ACAD_REACTORS
330
4B
102
}
330
4B
100
AcDbScale
 70
     0
300
6" = 1'-0"
140
6.0
141
12.0
290
     0
  0
SCALE
  5
6C
102
{ACAD_REACTORS
330
4B
102
}
330
4B
100
AcDbScale
 70
     0
300
1'-0" = 1'-0"
140
12.0
141
12.0
290
     0
  0
VISUALSTYLE
  5
2F
102
{ACAD_REACTORS
330
2A
102
}
330
2A
100
AcDbVisualStyle
  2
2dWireframe
 70
     4
 71
     0
 72
     2
 73
     0
 90
        0
 40
-0.6
 41
-30.0
 62
     5
 63
     7
 74
     1
 91
        4
 64
     7
 65
   257
 75
     1
175
     1
 42
1.0
 92
        0
 66
   257
 43
1.0
 76
     1
 77
     6
 78
     2
 67
     7
 79
     5
170
     0
171
     0
290
     0
174
     0
 93
        1
 44
0.0
173
     0
291
     0
 45
0.0
1001
ACAD
1000
AcDbSavedByObjectVersion
1070
     0
  0
VISUALSTYLE
  5
31
102
{ACAD_REACTORS
330
2A
102
}
330
2A
100
AcDbVisualStyle
  2
3D Hidden
 70
     6
 71
     1
 72
     2
 73
     2
 90
        0
 40
-0.6
 41
-30.0
 62
     5
 63
     7
 74
     2
 91
        2
 64
     7
 65
   257
 75
     2
175
     1
 42
40.0
 92
        0
 66
   257
 43
1.0
 76
     1
 77
     6
 78
     2
 67
     7
 79
     3
170
     0
171
     0
290
     0
174
     0
 93
        1
 44
0.0
173
     0
291
     0
 45
0.0
1001
ACAD
1000
AcDbSavedByObjectVersion
1070
     0
  0
VISUALSTYLE
  5
30
102
{ACAD_REACTORS
330
2A
102
}
330
2A
100
AcDbVisualStyle
  2
3dWireframe
 70
     5
 71
     0
 72
     2
 73
     0
 90
        0
 40
-0.6
 41
-30.0
 62
     5
 63
     7
 74
     1
 91
        4
 64
     7
 65
   257
 75
     1
175
     1
 42
1.0
 92
        0
 66
   257
 43
1.0
 76
     1
 77
     6
 78
     2
 67
     7
 79
     5
170
     0
171
     0
290
     0
174
     0
 93
        1
 44
0.0
173
     0
291
     0
 45
0.0
1001
ACAD
1000
AcDbSavedByObjectVersion
1070
     0
  0
VISUALSTYLE
  5
32
102
{ACAD_REACTORS
330
2A
102
}
330
2A
100
AcDbVisualStyle
  2
Basic
 70
     7
 71
     1
 72
     0
 73
     1
 90
        0
 40
-0.6
 41
-30.0
 62
     5
 63
     7
 74
     0
 91
        4
 64
     7
 65
   257
 75
     1
175
     1
 42
1.0
 92
        8
 66
     7
 43
1.0
 76
     1
 77
     6
 78
     2
 67
     7
 79
     5
170
     0
171
     0
290
     0
174
     0
 93
        1
 44
0.0
173
     0
291
     1
 45
0.0
1001
ACAD
1000
AcDbSavedByObjectVersion
1070
     0
  0
VISUALSTYLE
  5
36
102
{ACAD_REACTORS
330
2A
102
}
330
2A
100
AcDbVisualStyle
  2
Brighten
 70
    12
 71
     2
 72
     2
 73
     0
 90
        0
 40
-0.6
 41
-30.0
 62
     5
 63
     7
 74
     1
 91
        4
 64
     7
 65
   257
 75
     1
175
     1
 42
1.0
 92
        8
 66
     7
 43
1.0
 76
     1
 77
     6
 78
     2
 67
     7
 79
     5
170
     0
171
     0
290
     0
174
     0
 93
        1
 44
50.0
173
     0
291
     1
 45
0.0
1001
ACAD
1000
AcDbSavedByObjectVersion
1070
     0
  0
VISUALSTYLE
  5
3A
102
{ACAD_REACTORS
330
2A
102
}
330
2A
100
AcDbVisualStyle
  2
ColorChange
 70
    16
 71
     2
 72
     2
 73
     3
 90
        0
 40
-0.6
 41
-30.0
 62
     5
 63
     8
 74
     1
 91
        4
 64
     7
 65
   257
 75
     1
175
     1
 42
1.0
 92
        8
 66
     8
 43
1.0
 76
     1
 77
     6
 78
     2
 67
     7
 79
     5
170
     0
171
     0
290
     0
174
     0
 93
        1
 44
0.0
173
     0
291
     1
 45
0.0
1001
ACAD
1000
AcDbSavedByObjectVersion
1070
     0
  0
VISUALSTYLE
  5
34
102
{ACAD_REACTORS
330
2A
102
}
330
2A
100
AcDbVisualStyle
  2
Conceptual
 70
     9
 71
     3
 72
     2
 73
     0
 90
        0
 40
-0.6
 41
-30.0
 62
     5
 63
     7
 74
     2
 91
        2
 64
     7
 65
   257
 75
     1
175
     1
 42
40.0
 92
        8
 66
     7
 43
1.0
 76
     1
 77
     6
 78
     2
 67
     7
 79
     3
170
     0
171
     0
290
     0
174
     0
 93
        1
 44
0.0
173
     0
291
     0
 45
0.0
1001
ACAD
1000
AcDbSavedByObjectVersion
1070
     0
  0
VISUALSTYLE
  5
35
102
{ACAD_REACTORS
330
2A
102
}
330
2A
100
AcDbVisualStyle
  2
Dim
 70
    11
 71
     2
 72
     2
 73
     0
 90
        0
 40
-0.6
 41
-30.0
 62
     5
 63
     7
 74
     1
 91
        4
 64
     7
 65
   257
 75
     1
175
     1
 42
1.0
 92
        8
 66
     7
 43
1.0
 76
     1
 77
     6
 78
     2
 67
     7
 79
     5
170
     0
171
     0
290
     0
174
     0
 93
        1
 44
-50.0
173
     0
291
     1
 45
0.0
1001
ACAD
1000
AcDbSavedByObjectVersion
1070
     0
  0
VISUALSTYLE
  5
39
102
{ACAD_REACTORS
330
2A
102
}
330
2A
100
AcDbVisualStyle
  2
Facepattern
 70
    15
 71
     2
 72
     2
 73
     0
 90
        0
 40
-0.6
 41
-30.0
 62
     5
 63
     7
 74
     1
 91
        4
 64
     7
 65
   257
 75
     1
175
     1
 42
1.0
 92
        8
 66
     7
 43
1.0
 76
     1
 77
     6
 78
     2
 67
     7
 79
     5
170
     0
171
     0
290
     0
174
     0
 93
        1
 44
0.0
173
     0
291
     1
 45
0.0
1001
ACAD
1000
AcDbSavedByObjectVersion
1070
     0
  0
VISUALSTYLE
  5
2B
102
{ACAD_REACTORS
330
2A
102
}
330
2A
100
AcDbVisualStyle
  2
Flat
 70
     0
 71
     2
 72
     1
 73
     1
 90
        2
 40
-0.6
 41
30.0
 62
     5
 63
     7
 74
     0
 91
        4
 64
     7
 65
   257
 75
     1
175
     1
 42
1.0
 92
        8
 66
     7
 43
1.0
 76
     1
 77
     6
 78
     2
 67
     7
 79
     5
170
     0
171
     0
290
     0
174
     0
 93
       13
 44
0.0
173
     0
291
     1
 45
0.0
1001
ACAD
1000
AcDbSavedByObjectVersion
1070
     0
  0
VISUALSTYLE
  5
2C
102
{ACAD_REACTORS
330
2A
102
}
330
2A
100
AcDbVisualStyle
  2
FlatWithEdges
 70
     1
 71
     2
 72
     1
 73
     1
 90
        2
 40
-0.6
 41
30.0
 62
     5
 63
     7
 74
     1
 91
        4
 64
     7
 65
   257
 75
     1
175
     1
 42
1.0
 92
        0
 66
   257
 43
1.0
 76
     1
 77
     6
 78
     2
 67
     7
 79
     5
170
     0
171
     0
290
     0
174
     0
 93
       13
 44
0.0
173
     0
291
     1
 45
0.0
1001
ACAD
1000
AcDbSavedByObjectVersion
1070
     0
  0
VISUALSTYLE
  5
2D
102
{ACAD_REACTORS
330
2A
102
}
330
2A
100
AcDbVisualStyle
  2
Gouraud
 70
     2
 71
     2
 72
     2
 73
     1
 90
        2
 40
-0.6
 41
30.0
 62
     5
 63
     7
 74
     0
 91
        4
 64
     7
 65
   257
 75
     1
175
     1
 42
1.0
 92
        0
 66
     7
 43
1.0
 76
     1
 77
     6
 78
     2
 67
     7
 79
     5
170
     0
171
     0
290
     0
174
     0
 93
       13
 44
0.0
173
     0
291
     1
 45
0.0
1001
ACAD
1000
AcDbSavedByObjectVersion
1070
     0
  0
VISUALSTYLE
  5
2E
102
{ACAD_REACTORS
330
2A
102
}
330
2A
100
AcDbVisualStyle
  2
GouraudWithEdges
 70
     3
 71
     2
 72
     2
 73
     1
 90
        2
 40
-0.6
 41
30.0
 62
     5
 63
     7
 74
     1
 91
        4
 64
     7
 65
   257
 75
     1
175
     1
 42
1.0
 92
        0
 66
   257
 43
1.0
 76
     1
 77
     6
 78
     2
 67
     7
 79
     5
170
     0
171
     0
290
     0
174
     0
 93
       13
 44
0.0
173
     0
291
     1
 45
0.0
1001
ACAD
1000
AcDbSavedByObjectVersion
1070
     0
  0
VISUALSTYLE
  5
38
102
{ACAD_REACTORS
330
2A
102
}
330
2A
100
AcDbVisualStyle
  2
Linepattern
 70
    14
 71
     2
 72
     2
 73
     0
 90
        0
 40
-0.6
 41
-30.0
 62
     5
 63
     7
 74
     1
 91
        4
 64
     7
 65
   257
 75
     7
175
     7
 42
1.0
 92
        8
 66
     7
 43
1.0
 76
     1
 77
     6
 78
     2
 67
     7
 79
     5
170
     0
171
     0
290
     0
174
     0
 93
        1
 44
0.0
173
     0
291
     1
 45
0.0
1001
ACAD
1000
AcDbSavedByObjectVersion
1070
     0
  0
VISUALSTYLE
  5
33
102
{ACAD_REACTORS
330
2A
102
}
330
2A
100
AcDbVisualStyle
  2
Realistic
 70
     8
 71
     2
 72
     2
 73
     0
 90
        0
 40
-0.6
 41
-30.0
 62
     5
 63
     7
 74
     1
 91
        0
 64
     7
 65
   257
 75
     1
175
     1
 42
1.0
 92
        8
 66
     8
 43
1.0
 76
     1
 77
     6
 78
     2
 67
     7
 79
     5
170
     0
171
     0
290
     0
174
     0
 93
       13
 44
0.0
173
     0
291
     0
 45
0.0
1001
ACAD
1000
AcDbSavedByObjectVersion
1070
     0
  0
VISUALSTYLE
  5
37
102
{ACAD_REACTORS
330
2A
102
}
330
2A
100
AcDbVisualStyle
  2
Thicken
 70
    13
 71
     2
 72
     2
 73
     0
 90
        0
 40
-0.6
 41
-30.0
 62
     5
 63
     7
 74
     1
 91
        4
 64
     7
 65
   257
 75
     1
175
     1
 42
1.0
 92
       12
 66
     7
 43
1.0
 76
     1
 77
     6
 78
     2
 67
     7
 79
     5
170
     0
171
     0
290
     0
174
     0
 93
        1
 44
0.0
173
     0
291
     1
 45
0.0
1001
ACAD
1000
AcDbSavedByObjectVersion
1070
     0
  0
DICTIONARYVAR
  5
127
102
{ACAD_REACTORS
330
124
102
}
330
124
100
DictionaryVariables
280
     0
  1
1:1
  0
ENDSEC
  0
EOF
