  0
SECTION
  2
HEADER
  9
$ACADVER
  1
AC1015
  9
$ACADMAINTVER
 70
     6
  9
$DWGCODEPAGE
  3
ANSI_1252
  9
$INSBASE
 10
0.0
 20
0.0
 30
0.0
  9
$EXTMIN
 10
-9.01499969700335
 20
230.8447069058
 30
0.0
  9
$EXTMAX
 10
243.72473502257
 20
360.192858054163
 30
0.0
  9
$LIMMIN
 10
0.0
 20
0.0
  9
$LIMMAX
 10
12.0
 20
9.0
  9
$ORTHOMODE
 70
     0
  9
$REGENMODE
 70
     1
  9
$FILLMODE
 70
     1
  9
$QTEXTMODE
 70
     0
  9
$MIRRTEXT
 70
     1
  9
$LTSCALE
 40
1.0
  9
$ATTMODE
 70
     1
  9
$TEXTSIZE
 40
0.2
  9
$TRACEWID
 40
0.05
  9
$TEXTSTYLE
  7
Standard
  9
$CLAYER
  8
0
  9
$CELTYPE
  6
ByLayer
  9
$CECOLOR
 62
   256
  9
$CELTSCALE
 40
1.0
  9
$DISPSILH
 70
     0
  9
$DIMSCALE
 40
1.0
  9
$DIMASZ
 40
0.18
  9
$DIMEXO
 40
0.0625
  9
$DIMDLI
 40
0.38
  9
$DIMRND
 40
0.0
  9
$DIMDLE
 40
0.0
  9
$DIMEXE
 40
0.18
  9
$DIMTP
 40
0.0
  9
$DIMTM
 40
0.0
  9
$DIMTXT
 40
0.18
  9
$DIMCEN
 40
0.09
  9
$DIMTSZ
 40
0.0
  9
$DIMTOL
 70
     0
  9
$DIMLIM
 70
     0
  9
$DIMTIH
 70
     1
  9
$DIMTOH
 70
     1
  9
$DIMSE1
 70
     0
  9
$DIMSE2
 70
     0
  9
$DIMTAD
 70
     0
  9
$DIMZIN
 70
     0
  9
$DIMBLK
  1

  9
$DIMASO
 70
     1
  9
$DIMSHO
 70
     1
  9
$DIMPOST
  1

  9
$DIMAPOST
  1

  9
$DIMALT
 70
     0
  9
$DIMALTD
 70
     2
  9
$DIMALTF
 40
25.4
  9
$DIMLFAC
 40
1.0
  9
$DIMTOFL
 70
     0
  9
$DIMTVP
 40
0.0
  9
$DIMTIX
 70
     0
  9
$DIMSOXD
 70
     0
  9
$DIMSAH
 70
     0
  9
$DIMBLK1
  1

  9
$DIMBLK2
  1

  9
$DIMSTYLE
  2
Standard
  9
$DIMCLRD
 70
     0
  9
$DIMCLRE
 70
     0
  9
$DIMCLRT
 70
     0
  9
$DIMTFAC
 40
1.0
  9
$DIMGAP
 40
0.09
  9
$DIMJUST
 70
     0
  9
$DIMSD1
 70
     0
  9
$DIMSD2
 70
     0
  9
$DIMTOLJ
 70
     1
  9
$DIMTZIN
 70
     0
  9
$DIMALTZ
 70
     0
  9
$DIMALTTZ
 70
     0
  9
$DIMUPT
 70
     0
  9
$DIMDEC
 70
     4
  9
$DIMTDEC
 70
     4
  9
$DIMALTU
 70
     2
  9
$DIMALTTD
 70
     2
  9
$DIMTXSTY
  7
Standard
  9
$DIMAUNIT
 70
     0
  9
$DIMADEC
 70
     0
  9
$DIMALTRND
 40
0.0
  9
$DIMAZIN
 70
     0
  9
$DIMDSEP
 70
    46
  9
$DIMATFIT
 70
     3
  9
$DIMFRAC
 70
     0
  9
$DIMLDRBLK
  1

  9
$DIMLUNIT
 70
     2
  9
$DIMLWD
 70
    -2
  9
$DIMLWE
 70
    -2
  9
$DIMTMOVE
 70
     0
  9
$LUNITS
 70
     2
  9
$LUPREC
 70
     4
  9
$SKETCHINC
 40
0.1
  9
$FILLETRAD
 40
0.5
  9
$AUNITS
 70
     0
  9
$AUPREC
 70
     0
  9
$MENU
  1
.
  9
$ELEVATION
 40
0.0
  9
$PELEVATION
 40
0.0
  9
$THICKNESS
 40
0.0
  9
$LIMCHECK
 70
     0
  9
$CHAMFERA
 40
0.5
  9
$CHAMFERB
 40
0.5
  9
$CHAMFERC
 40
1.0
  9
$CHAMFERD
 40
0.0
  9
$SKPOLY
 70
     0
  9
$TDCREATE
 40
2456645.675334572
  9
$TDUCREATE
 40
2456645.633667905
  9
$TDUPDATE
 40
2456645.675334584
  9
$TDUUPDATE
 40
2456645.633667917
  9
$TDINDWG
 40
0.0000000116
  9
$TDUSRTIMER
 40
0.0000000116
  9
$USRTIMER
 70
     1
  9
$ANGBASE
 50
0.0
  9
$ANGDIR
 70
     0
  9
$PDMODE
 70
     0
  9
$PDSIZE
 40
0.0
  9
$PLINEWID
 40
0.0
  9
$SPLFRAME
 70
     0
  9
$SPLINETYPE
 70
     6
  9
$SPLINESEGS
 70
     8
  9
$HANDSEED
  5
128
  9
$SURFTAB1
 70
     6
  9
$SURFTAB2
 70
     6
  9
$SURFTYPE
 70
     6
  9
$SURFU
 70
     6
  9
$SURFV
 70
     6
  9
$UCSBASE
  2

  9
$UCSNAME
  2

  9
$UCSORG
 10
0.0
 20
0.0
 30
0.0
  9
$UCSXDIR
 10
1.0
 20
0.0
 30
0.0
  9
$UCSYDIR
 10
0.0
 20
1.0
 30
0.0
  9
$UCSORTHOREF
  2

  9
$UCSORTHOVIEW
 70
     0
  9
$UCSORGTOP
 10
0.0
 20
0.0
 30
0.0
  9
$UCSORGBOTTOM
 10
0.0
 20
0.0
 30
0.0
  9
$UCSORGLEFT
 10
0.0
 20
0.0
 30
0.0
  9
$UCSORGRIGHT
 10
0.0
 20
0.0
 30
0.0
  9
$UCSORGFRONT
 10
0.0
 20
0.0
 30
0.0
  9
$UCSORGBACK
 10
0.0
 20
0.0
 30
0.0
  9
$PUCSBASE
  2

  9
$PUCSNAME
  2

  9
$PUCSORG
 10
0.0
 20
0.0
 30
0.0
  9
$PUCSXDIR
 10
1.0
 20
0.0
 30
0.0
  9
$PUCSYDIR
 10
0.0
 20
1.0
 30
0.0
  9
$PUCSORTHOREF
  2

  9
$PUCSORTHOVIEW
 70
     0
  9
$PUCSORGTOP
 10
0.0
 20
0.0
 30
0.0
  9
$PUCSORGBOTTOM
 10
0.0
 20
0.0
 30
0.0
  9
$PUCSORGLEFT
 10
0.0
 20
0.0
 30
0.0
  9
$PUCSORGRIGHT
 10
0.0
 20
0.0
 30
0.0
  9
$PUCSORGFRONT
 10
0.0
 20
0.0
 30
0.0
  9
$PUCSORGBACK
 10
0.0
 20
0.0
 30
0.0
  9
$USERI1
 70
     0
  9
$USERI2
 70
     0
  9
$USERI3
 70
     0
  9
$USERI4
 70
     0
  9
$USERI5
 70
     0
  9
$USERR1
 40
16.5
  9
$USERR2
 40
0.0
  9
$USERR3
 40
0.0
  9
$USERR4
 40
0.0
  9
$USERR5
 40
0.0
  9
$WORLDVIEW
 70
     1
  9
$SHADEDGE
 70
     3
  9
$SHADEDIF
 70
    70
  9
$TILEMODE
 70
     1
  9
$MAXACTVP
 70
    64
  9
$PINSBASE
 10
0.0
 20
0.0
 30
0.0
  9
$PLIMCHECK
 70
     0
  9
$PEXTMIN
 10
1.00000000000000E+20
 20
1.00000000000000E+20
 30
1.00000000000000E+20
  9
$PEXTMAX
 10
-1.00000000000000E+20
 20
-1.00000000000000E+20
 30
-1.00000000000000E+20
  9
$PLIMMIN
 10
0.0
 20
0.0
  9
$PLIMMAX
 10
12.0
 20
9.0
  9
$UNITMODE
 70
     0
  9
$VISRETAIN
 70
     1
  9
$PLINEGEN
 70
     0
  9
$PSLTSCALE
 70
     1
  9
$TREEDEPTH
 70
  3020
  9
$CMLSTYLE
  2
Standard
  9
$CMLJUST
 70
     0
  9
$CMLSCALE
 40
1.0
  9
$PROXYGRAPHICS
 70
     1
  9
$MEASUREMENT
 70
     1
  9
$CELWEIGHT
370
    -1
  9
$ENDCAPS
280
     0
  9
$JOINSTYLE
280
     0
  9
$LWDISPLAY
290
     0
  9
$INSUNITS
 70
     1
  9
$HYPERLINKBASE
  1

  9
$STYLESHEET
  1

  9
$XEDIT
290
     1
  9
$CEPSNTYPE
380
     0
  9
$PSTYLEMODE
290
     1
  9
$FINGERPRINTGUID
  2
{175E5C7D-F7E2-4FC3-9942-8D282F0B72AC}
  9
$VERSIONGUID
  2
{FAEB1C32-E019-11D5-929B-00C0DF256EC4}
  9
$EXTNAMES
290
     1
  9
$PSVPSCALE
 40
0.0
  9
$OLESTARTUP
290
     0
  0
ENDSEC
  0
SECTION
  2
CLASSES
  0
CLASS
  1
ACDBDICTIONARYWDFLT
  2
AcDbDictionaryWithDefault
  3
ObjectDBX Classes
 90
        0
280
     0
281
     0
  0
CLASS
  1
VISUALSTYLE
  2
AcDbVisualStyle
  3
ObjectDBX Classes
 90
     4095
280
     0
281
     0
  0
CLASS
  1
SCALE
  2
AcDbScale
  3
ObjectDBX Classes
 90
     1153
280
     0
281
     0
  0
CLASS
  1

  2
exOdDbPolyline
  3

 90
        0
280
     0
281
     1
  0
CLASS
  1

  2
exOdDbSpline
  3

 90
        0
280
     0
281
     1
  0
CLASS
  1
DICTIONARYVAR
  2
AcDbDictionaryVar
  3
ObjectDBX Classes
 90
        0
280
     0
281
     0
  0
CLASS
  1
ACDBPLACEHOLDER
  2
AcDbPlaceHolder
  3
ObjectDBX Classes
 90
        0
280
     0
281
     0
  0
CLASS
  1
LAYOUT
  2
AcDbLayout
  3
ObjectDBX Classes
 90
        0
280
     0
281
     0
  0
ENDSEC
  0
SECTION
  2
TABLES
  0
TABLE
  2
VPORT
  5
8
330
0
100
AcDbSymbolTable
 70
     1
  0
VPORT
  5
29
330
8
100
AcDbSymbolTableRecord
100
AcDbViewportTableRecord
  2
*Active
 70
     0
 10
0.0
 20
0.0
 11
1.0
 21
1.0
 12
117.3548676627833
 22
295.5187824799815
 13
0.0
 23
0.0
 14
0.5
 24
0.5
 15
0.5
 25
0.5
 16
0.0
 26
0.0
 36
1.0
 17
0.0
 27
0.0
 37
0.0
 40
173.4681633284203
 41
1.60267857142857
 42
50.0
 43
0.0
 44
0.0
 50
0.0
 51
0.0
 71
     0
 72
   100
 73
     1
 74
     3
 75
     0
 76
     0
 77
     0
 78
     0
281
     0
 65
     1
110
0.0
120
0.0
130
0.0
111
1.0
121
0.0
131
0.0
112
0.0
122
1.0
132
0.0
 79
     0
146
0.0
  0
ENDTAB
  0
TABLE
  2
LTYPE
  5
5
330
0
100
AcDbSymbolTable
 70
     9
  0
LTYPE
  5
14
330
5
100
AcDbSymbolTableRecord
100
AcDbLinetypeTableRecord
  2
ByBlock
 70
     0
  3

 72
    65
 73
     0
 40
0.0
  0
LTYPE
  5
15
330
5
100
AcDbSymbolTableRecord
100
AcDbLinetypeTableRecord
  2
ByLayer
 70
     0
  3

 72
    65
 73
     0
 40
0.0
  0
LTYPE
  5
16
330
5
100
AcDbSymbolTableRecord
100
AcDbLinetypeTableRecord
  2
Continuous
 70
     0
  3
Solid line
 72
    65
 73
     0
 40
0.0
  0
LTYPE
  5
3B
330
5
100
AcDbSymbolTableRecord
100
AcDbLinetypeTableRecord
  2
DASHED
 70
     0
  3
Dashed
 72
    65
 73
     2
 40
15.0
 49
7.0
 74
     0
 49
-8.0
 74
     0
  0
LTYPE
  5
3C
330
5
100
AcDbSymbolTableRecord
100
AcDbLinetypeTableRecord
  2
DOTTED
 70
     0
  3
Dotted
 72
    65
 73
     2
 40
1.0
 49
0.0
 74
     0
 49
-1.0
 74
     0
  0
LTYPE
  5
3D
330
5
100
AcDbSymbolTableRecord
100
AcDbLinetypeTableRecord
  2
DOT_CENTER
 70
     0
  3
Dot_Center
 72
    65
 73
     4
 40
14.0
 49
12.0
 74
     0
 49
-1.0
 74
     0
 49
0.0
 74
     0
 49
-1.0
 74
     0
  0
LTYPE
  5
3E
330
5
100
AcDbSymbolTableRecord
100
AcDbLinetypeTableRecord
  2
LONG_DASHED
 70
     0
  3
Long_Dashed
 72
    65
 73
     2
 40
15.0
 49
10.0
 74
     0
 49
-5.0
 74
     0
  0
LTYPE
  5
3F
330
5
100
AcDbSymbolTableRecord
100
AcDbLinetypeTableRecord
  2
DASH_CENTER
 70
     0
  3
Dash_Center
 72
    65
 73
     4
 40
14.0
 49
11.0
 74
     0
 49
-1.0
 74
     0
 49
1.0
 74
     0
 49
-1.0
 74
     0
  0
LTYPE
  5
40
330
5
100
AcDbSymbolTableRecord
100
AcDbLinetypeTableRecord
  2
PHANTOM
 70
     0
  3
Phantom
 72
    65
 73
     6
 40
13.0
 49
10.0
 74
     0
 49
-1.0
 74
     0
 49
0.0
 74
     0
 49
-1.0
 74
     0
 49
0.0
 74
     0
 49
-1.0
 74
     0
  0
LTYPE
  5
41
330
5
100
AcDbSymbolTableRecord
100
AcDbLinetypeTableRecord
  2
CENTER_DASH_DASH
 70
     0
  3
Center_Dash_Dash
 72
    65
 73
     6
 40
14.0
 49
9.0
 74
     0
 49
-1.0
 74
     0
 49
1.0
 74
     0
 49
-1.0
 74
     0
 49
1.0
 74
     0
 49
-1.0
 74
     0
  0
LTYPE
  5
42
330
5
100
AcDbSymbolTableRecord
100
AcDbLinetypeTableRecord
  2
HIDDEN
 70
     0
  3
HIDDEN
 72
    65
 73
     2
 40
4.0
 49
2.0
 74
     0
 49
-2.0
 74
     0
  0
ENDTAB
  0
TABLE
  2
LAYER
  5
2
330
0
100
AcDbSymbolTable
 70
     6
  0
LAYER
  5
10
330
2
100
AcDbSymbolTableRecord
100
AcDbLayerTableRecord
  2
0
 70
     0
 62
     7
  6
Continuous
370
    -3
390
F
  0
LAYER
  5
43
330
2
100
AcDbSymbolTableRecord
100
AcDbLayerTableRecord
  2
1
 70
     0
 62
     7
  6
Continuous
370
    -3
390
F
  0
LAYER
  5
44
330
2
100
AcDbSymbolTableRecord
100
AcDbLayerTableRecord
  2
DEFAULT_2
 70
     0
 62
     7
  6
Continuous
370
    -3
390
F
  0
LAYER
  5
45
330
2
100
AcDbSymbolTableRecord
100
AcDbLayerTableRecord
  2
FASEN
 70
     0
 62
     7
  6
Continuous
370
    -3
390
F
  0
LAYER
  5
46
330
2
100
AcDbSymbolTableRecord
100
AcDbLayerTableRecord
  2
RUNDUNGEN
 70
     0
 62
     7
  6
Continuous
370
    -3
390
F
  0
LAYER
  5
47
330
2
100
AcDbSymbolTableRecord
100
AcDbLayerTableRecord
  2
TEIL_STARTBEZUEGE
 70
     0
 62
     7
  6
Continuous
370
    -3
390
F
  0
ENDTAB
  0
TABLE
  2
STYLE
  5
3
330
0
100
AcDbSymbolTable
 70
     2
  0
STYLE
  5
11
330
3
100
AcDbSymbolTableRecord
100
AcDbTextStyleTableRecord
  2
Standard
 70
     0
 40
0.0
 41
1.0
 50
0.0
 71
     0
 42
0.2
  3
txt
  4

  0
STYLE
  5
6E
330
3
100
AcDbSymbolTableRecord
100
AcDbTextStyleTableRecord
  2
CONVERTER_11
 70
     0
 40
0.0
 41
0.72
 50
0.0
 71
     0
 42
0.2
  3
txt.shx
  4

  0
ENDTAB
  0
TABLE
  2
VIEW
  5
6
330
0
100
AcDbSymbolTable
 70
     0
  0
ENDTAB
  0
TABLE
  2
UCS
  5
7
330
0
100
AcDbSymbolTable
 70
     0
  0
ENDTAB
  0
TABLE
  2
APPID
  5
9
330
0
100
AcDbSymbolTable
 70
     1
  0
APPID
  5
12
330
9
100
AcDbSymbolTableRecord
100
AcDbRegAppTableRecord
  2
ACAD
 70
     0
  0
ENDTAB
  0
TABLE
  2
DIMSTYLE
  5
A
330
0
100
AcDbSymbolTable
 70
     8
100
AcDbDimStyleTable
  0
DIMSTYLE
105
27
330
A
100
AcDbSymbolTableRecord
100
AcDbDimStyleTableRecord
  2
Standard
 70
     0
340
11
  0
DIMSTYLE
105
D9
102
{ACAD_REACTORS
330
DA
102
}
330
A
100
AcDbSymbolTableRecord
100
AcDbDimStyleTableRecord
  2
ME10_DIM_10
 70
     0
  3
\U+2300<>
 41
3.5
 42
2.0
 44
2.0
 71
     1
 73
     0
 74
     0
 77
     1
 78
     8
140
3.5
146
0.7
147
2.0
172
     1
173
     1
176
     2
177
     2
178
     3
271
     2
272
     0
340
6E
  0
DIMSTYLE
105
E4
102
{ACAD_REACTORS
330
E5
102
}
330
A
100
AcDbSymbolTableRecord
100
AcDbDimStyleTableRecord
  2
ME10_DIM_11
 70
     0
  3
\U+2300<>
 41
3.5
 42
2.0
 44
2.0
 71
     1
 73
     0
 74
     0
 77
     1
 78
     8
140
3.5
146
0.7
147
2.0
172
     1
173
     1
176
     2
177
     2
178
     3
271
     2
272
     0
340
6E
  0
DIMSTYLE
105
EF
102
{ACAD_REACTORS
330
F0
102
}
330
A
100
AcDbSymbolTableRecord
100
AcDbDimStyleTableRecord
  2
ME10_DIM_12
 70
     0
  3
\U+2300<>
 41
3.5
 42
2.0
 44
2.0
 71
     1
 73
     0
 74
     0
 77
     1
 78
     8
140
3.5
146
0.7
147
2.0
172
     1
173
     1
176
     2
177
     2
178
     3
271
     2
272
     0
340
6E
  0
DIMSTYLE
105
FA
102
{ACAD_REACTORS
330
FB
102
}
330
A
100
AcDbSymbolTableRecord
100
AcDbDimStyleTableRecord
  2
ME10_DIM_13
 70
     0
  3
<>
 41
3.5
 42
2.0
 44
2.0
 71
     1
 73
     0
 74
     0
 77
     1
 78
     8
140
3.5
146
0.7
147
2.0
172
     1
173
     1
176
     2
177
     2
178
     3
271
     2
272
     0
340
6E
  0
DIMSTYLE
105
105
102
{ACAD_REACTORS
330
106
102
}
330
A
100
AcDbSymbolTableRecord
100
AcDbDimStyleTableRecord
  2
ME10_DIM_14
 70
     0
  3
<>
 41
3.5
 42
2.0
 44
2.0
 71
     1
 73
     0
 74
     0
 77
     1
 78
     8
140
3.5
146
0.7
147
2.0
172
     1
173
     1
176
     2
177
     2
178
     3
271
     2
272
     0
340
6E
  0
DIMSTYLE
105
110
102
{ACAD_REACTORS
330
111
102
}
330
A
100
AcDbSymbolTableRecord
100
AcDbDimStyleTableRecord
  2
ME10_DIM_15
 70
     0
  3
<>
 41
3.5
 42
2.0
 44
2.0
 71
     1
 73
     0
 74
     0
 77
     1
 78
     8
140
3.5
146
0.7
147
2.0
172
     1
173
     1
176
     2
177
     2
178
     3
271
     2
272
     0
340
6E
  0
DIMSTYLE
105
122
102
{ACAD_REACTORS
330
123
102
}
330
A
100
AcDbSymbolTableRecord
100
AcDbDimStyleTableRecord
  2
ME10_DIM_16
 70
     0
  3
<>
 41
3.5
 42
2.0
 44
2.0
 71
     1
 73
     0
 74
     0
 77
     1
 78
     8
140
3.5
146
0.7
147
2.0
172
     1
173
     1
176
     2
177
     2
178
     3
271
     2
272
     0
340
6E
  0
ENDTAB
  0
TABLE
  2
BLOCK_RECORD
  5
1
330
0
100
AcDbSymbolTable
 70
    10
  0
BLOCK_RECORD
  5
1F
330
1
100
AcDbSymbolTableRecord
100
AcDbBlockTableRecord
  2
*Model_Space
340
22
  0
BLOCK_RECORD
  5
1B
330
1
100
AcDbSymbolTableRecord
100
AcDbBlockTableRecord
  2
*Paper_Space
340
1E
  0
BLOCK_RECORD
  5
23
330
1
100
AcDbSymbolTableRecord
100
AcDbBlockTableRecord
  2
*Paper_Space0
340
26
  0
BLOCK_RECORD
  5
48
330
1
100
AcDbSymbolTableRecord
100
AcDbBlockTableRecord
  2
Urheberrecht_DE-EN
340
0
102
{BLKREFS
331
6D
102
}
  0
BLOCK_RECORD
  5
D0
330
1
100
AcDbSymbolTableRecord
100
AcDbBlockTableRecord
  2
*D2
340
0
  0
BLOCK_RECORD
  5
DB
330
1
100
AcDbSymbolTableRecord
100
AcDbBlockTableRecord
  2
*D3
340
0
  0
BLOCK_RECORD
  5
E6
330
1
100
AcDbSymbolTableRecord
100
AcDbBlockTableRecord
  2
*D4
340
0
  0
BLOCK_RECORD
  5
F1
330
1
100
AcDbSymbolTableRecord
100
AcDbBlockTableRecord
  2
*D5
340
0
  0
BLOCK_RECORD
  5
FC
330
1
100
AcDbSymbolTableRecord
100
AcDbBlockTableRecord
  2
*D6
340
0
  0
BLOCK_RECORD
  5
107
330
1
100
AcDbSymbolTableRecord
100
AcDbBlockTableRecord
  2
*D7
340
0
  0
BLOCK_RECORD
  5
112
330
1
100
AcDbSymbolTableRecord
100
AcDbBlockTableRecord
  2
*D8
340
0
102
{BLKREFS
331
118
102
}
  0
BLOCK_RECORD
  5
119
330
1
100
AcDbSymbolTableRecord
100
AcDbBlockTableRecord
  2
*D9
340
0
  0
ENDTAB
  0
ENDSEC
  0
SECTION
  2
BLOCKS
  0
BLOCK
  5
20
330
1F
100
AcDbEntity
  8
0
100
AcDbBlockBegin
  2
*Model_Space
 70
     0
 10
0.0
 20
0.0
 30
0.0
  3
*Model_Space
  1

  0
ENDBLK
  5
21
330
1F
100
AcDbEntity
  8
0
100
AcDbBlockEnd
  0
BLOCK
  5
1C
330
1B
100
AcDbEntity
 67
     1
  8
0
100
AcDbBlockBegin
  2
*Paper_Space
 70
     0
 10
0.0
 20
0.0
 30
0.0
  3
*Paper_Space
  1

  0
ENDBLK
  5
1D
330
1B
100
AcDbEntity
 67
     1
  8
0
100
AcDbBlockEnd
  0
BLOCK
  5
24
330
23
100
AcDbEntity
  8
0
100
AcDbBlockBegin
  2
*Paper_Space0
 70
     0
 10
0.0
 20
0.0
 30
0.0
  3
*Paper_Space0
  1

  0
ENDBLK
  5
25
330
23
100
AcDbEntity
  8
0
100
AcDbBlockEnd
  0
BLOCK
  5
49
330
48
100
AcDbEntity
  8
0
100
AcDbBlockBegin
  2
Urheberrecht_DE-EN
 70
     0
 10
4.98500030299665
 20
297.613140370889
 30
0.0
  3
Urheberrecht_DE-EN
  1

  0
MTEXT
  5
6F
330
48
100
AcDbEntity
  8
1
 62
     1
100
AcDbMText
 10
4.98500030299665
 20
297.613140370889
 30
0.0
 40
2.0
 41
0.0
 71
     7
 72
     1
  1
We own the copyright of this document. It \Pdetermined and may neither be copied or \Pmade accessible to outsiders without our\Ppermission.
  7
CONVERTER_11
 11
0.0
 21
1.0
 31
0.0
 73
     1
 44
0.90036014405762
  0
MTEXT
  5
70
330
48
100
AcDbEntity
  8
1
 62
     1
100
AcDbMText
 10
4.98500030299665
 20
241.3237534535828
 30
0.0
 40
2.0
 41
0.0
 71
     7
 72
     1
  1
F\U+00fcr diese Unterlage behalten wir das Ur-\Pheberrecht. Sie darf nur f\U+00fcr den von uns \Pbestimmten Zweck benutzt und ohne unsere \PZustimmung weder vervielf\U+00e4ltigt noch\PDritten zug\U+00e4nglich gemacht werden.
  7
CONVERTER_11
 11
0.0
 21
1.0
 31
0.0
 73
     1
 44
0.90036014405762
  0
ENDBLK
  5
4A
330
48
100
AcDbEntity
  8
0
100
AcDbBlockEnd
  0
BLOCK
  5
D7
330
D0
100
AcDbEntity
  8
0
100
AcDbBlockBegin
  2
*D2
 70
     1
 10
0.0
 20
0.0
 30
0.0
  3
*D2
  1

  0
LINE
  5
D1
330
D0
100
AcDbEntity
  8
1
  6
Continuous
 62
     2
100
AcDbLine
 10
224.381390971076
 20
289.9572069058
 30
0.0
 11
224.381390971076
 21
277.9572069058
 31
0.0
  0
LINE
  5
D2
330
D0
100
AcDbEntity
  8
1
  6
Continuous
 62
     2
100
AcDbLine
 10
214.9109743041
 20
289.9572069058
 30
0.0
 11
226.381390971076
 21
289.9572069058
 31
0.0
  0
LINE
  5
D3
330
D0
100
AcDbEntity
  8
1
  6
Continuous
 62
     2
100
AcDbLine
 10
214.9109743041
 20
277.9572069058
 30
0.0
 11
226.381390971076
 21
277.9572069058
 31
0.0
  0
SOLID
  5
D4
330
D0
100
AcDbEntity
  8
1
 62
     2
100
AcDbTrace
 10
224.8421747126319
 20
286.4572069058
 30
0.0
 11
223.9206072295201
 21
286.4572069058
 31
0.0
 12
224.381390971076
 22
289.9572069058
 32
0.0
 13
224.381390971076
 23
289.9572069058
 33
0.0
  0
SOLID
  5
D5
330
D0
100
AcDbEntity
  8
1
 62
     2
100
AcDbTrace
 10
223.9206072295201
 20
281.4572069058
 30
0.0
 11
224.8421747126319
 21
281.4572069058
 31
0.0
 12
224.381390971076
 22
277.9572069058
 32
0.0
 13
224.381390971076
 23
277.9572069058
 33
0.0
  0
MTEXT
  5
D6
330
D0
100
AcDbEntity
  8
1
 62
     3
100
AcDbMText
 10
222.381390971076
 20
275.763086684293
 30
0.0
 40
3.5
 41
0.0
 71
     7
 72
     1
  1
\C3;%%c\C3;\C3;12\C2;\H2.45;\S^ ;\C3;
  7
CONVERTER_11
 11
0.0
 21
1.0
 31
0.0
 73
     1
 44
0.60024009603842
  0
ENDBLK
  5
D8
330
D0
100
AcDbEntity
  8
0
100
AcDbBlockEnd
  0
BLOCK
  5
E2
330
DB
100
AcDbEntity
  8
0
100
AcDbBlockBegin
  2
*D3
 70
     1
 10
0.0
 20
0.0
 30
0.0
  3
*D3
  1

  0
LINE
  5
DC
330
DB
100
AcDbEntity
  8
1
  6
Continuous
 62
     2
100
AcDbLine
 10
233.17350288607
 20
295.9572069058528
 30
0.0
 11
233.17350288607
 21
271.9572069057486
 31
0.0
  0
LINE
  5
DD
330
DB
100
AcDbEntity
  8
1
  6
Continuous
 62
     2
100
AcDbLine
 10
214.9109743041094
 20
295.9572069058528
 30
0.0
 11
235.17350288607
 21
295.9572069058528
 31
0.0
  0
LINE
  5
DE
330
DB
100
AcDbEntity
  8
1
  6
Continuous
 62
     2
100
AcDbLine
 10
214.9109743041
 20
271.9572069057486
 30
0.0
 11
235.17350288607
 21
271.9572069057486
 31
0.0
  0
SOLID
  5
DF
330
DB
100
AcDbEntity
  8
1
 62
     2
100
AcDbTrace
 10
233.6342866276259
 20
292.4572069058528
 30
0.0
 11
232.7127191445141
 21
292.4572069058528
 31
0.0
 12
233.17350288607
 22
295.9572069058528
 32
0.0
 13
233.17350288607
 23
295.9572069058528
 33
0.0
  0
SOLID
  5
E0
330
DB
100
AcDbEntity
  8
1
 62
     2
100
AcDbTrace
 10
232.7127191445141
 20
275.4572069057486
 30
0.0
 11
233.6342866276259
 21
275.4572069057486
 31
0.0
 12
233.17350288607
 22
271.9572069057486
 32
0.0
 13
233.17350288607
 23
271.9572069057486
 33
0.0
  0
MTEXT
  5
E1
330
DB
100
AcDbEntity
  8
1
 62
     3
100
AcDbMText
 10
231.17350288607
 20
275.343086684293
 30
0.0
 40
3.5
 41
0.0
 71
     7
 72
     1
  1
\C3;%%c\C3;\C3;24\C2;\H2.45;\S^ ;\C3;
  7
CONVERTER_11
 11
0.0
 21
1.0
 31
0.0
 73
     1
 44
0.60024009603842
  0
ENDBLK
  5
E3
330
DB
100
AcDbEntity
  8
0
100
AcDbBlockEnd
  0
BLOCK
  5
ED
330
E6
100
AcDbEntity
  8
0
100
AcDbBlockBegin
  2
*D4
 70
     1
 10
0.0
 20
0.0
 30
0.0
  3
*D4
  1

  0
LINE
  5
E7
330
E6
100
AcDbEntity
  8
1
  6
Continuous
 62
     2
100
AcDbLine
 10
241.72473502257
 20
299.9572069058
 30
0.0
 11
241.72473502257
 21
267.9572069058
 31
0.0
  0
LINE
  5
E8
330
E6
100
AcDbEntity
  8
1
  6
Continuous
 62
     2
100
AcDbLine
 10
164.0861553594
 20
299.9572069058
 30
0.0
 11
243.72473502257
 21
299.9572069058
 31
0.0
  0
LINE
  5
E9
330
E6
100
AcDbEntity
  8
1
  6
Continuous
 62
     2
100
AcDbLine
 10
164.0861553594
 20
267.9572069058
 30
0.0
 11
243.72473502257
 21
267.9572069058
 31
0.0
  0
SOLID
  5
EA
330
E6
100
AcDbEntity
  8
1
 62
     2
100
AcDbTrace
 10
242.1855187641259
 20
296.4572069058
 30
0.0
 11
241.2639512810141
 21
296.4572069058
 31
0.0
 12
241.72473502257
 22
299.9572069058
 32
0.0
 13
241.72473502257
 23
299.9572069058
 33
0.0
  0
SOLID
  5
EB
330
E6
100
AcDbEntity
  8
1
 62
     2
100
AcDbTrace
 10
241.2639512810141
 20
271.4572069058
 30
0.0
 11
242.1855187641259
 21
271.4572069058
 31
0.0
 12
241.72473502257
 22
267.9572069058
 32
0.0
 13
241.72473502257
 23
267.9572069058
 33
0.0
  0
MTEXT
  5
EC
330
E6
100
AcDbEntity
  8
1
 62
     3
100
AcDbMText
 10
239.72473502257
 20
275.343086684293
 30
0.0
 40
3.5
 41
0.0
 71
     7
 72
     1
  1
\C3;%%c\C3;\C3;32\C2;\H2.45;\S^ ;\C3;
  7
CONVERTER_11
 11
0.0
 21
1.0
 31
0.0
 73
     1
 44
0.60024009603842
  0
ENDBLK
  5
EE
330
E6
100
AcDbEntity
  8
0
100
AcDbBlockEnd
  0
BLOCK
  5
F8
330
F1
100
AcDbEntity
  8
0
100
AcDbBlockBegin
  2
*D5
 70
     1
 10
0.0
 20
0.0
 30
0.0
  3
*D5
  1

  0
LINE
  5
F2
330
F1
100
AcDbEntity
  8
1
  6
Continuous
 62
     2
100
AcDbLine
 10
212.9109743041
 20
339.359555959186
 30
0.0
 11
150.9109743041
 21
339.359555959186
 31
0.0
  0
LINE
  5
F3
330
F1
100
AcDbEntity
  8
1
  6
Continuous
 62
     2
100
AcDbLine
 10
212.9109743041
 20
297.0328164141
 30
0.0
 11
212.9109743041
 21
341.359555959186
 31
0.0
  0
LINE
  5
F4
330
F1
100
AcDbEntity
  8
1
  6
Continuous
 62
     2
100
AcDbLine
 10
150.9109743041
 20
334.9447069058
 30
0.0
 11
150.9109743041
 21
341.359555959186
 31
0.0
  0
SOLID
  5
F5
330
F1
100
AcDbEntity
  8
1
 62
     2
100
AcDbTrace
 10
209.4109743041
 20
338.8987722176302
 30
0.0
 11
209.4109743041
 21
339.8203397007419
 31
0.0
 12
212.9109743041
 22
339.359555959186
 32
0.0
 13
212.9109743041
 23
339.359555959186
 33
0.0
  0
SOLID
  5
F6
330
F1
100
AcDbEntity
  8
1
 62
     2
100
AcDbTrace
 10
154.4109743041
 20
339.8203397007419
 30
0.0
 11
154.4109743041
 21
338.8987722176302
 31
0.0
 12
150.9109743041
 22
339.359555959186
 32
0.0
 13
150.9109743041
 23
339.359555959186
 33
0.0
  0
MTEXT
  5
F7
330
F1
100
AcDbEntity
  8
1
 62
     3
100
AcDbMText
 10
177.598192060628
 20
341.359555959186
 30
0.0
 40
3.5
 41
0.0
 71
     7
 72
     1
  1
\C3;\C3;\C3;62\C2;\H2.45;\S^ ;\C3;
  7
CONVERTER_11
 11
0.9999999999970619
 21
2.424068405545306E-6
 31
0.0
 73
     1
 44
0.60024009603842
  0
ENDBLK
  5
F9
330
F1
100
AcDbEntity
  8
0
100
AcDbBlockEnd
  0
BLOCK
  5
103
330
FC
100
AcDbEntity
  8
0
100
AcDbBlockBegin
  2
*D6
 70
     1
 10
0.0
 20
0.0
 30
0.0
  3
*D6
  1

  0
LINE
  5
FD
330
FC
100
AcDbEntity
  8
1
  6
Continuous
 62
     2
100
AcDbLine
 10
212.9109743041
 20
346.826829092468
 30
0.0
 11
112.9109743041
 21
346.826829092468
 31
0.0
  0
LINE
  5
FE
330
FC
100
AcDbEntity
  8
1
  6
Continuous
 62
     2
100
AcDbLine
 10
212.9109743041
 20
297.0328164141
 30
0.0
 11
212.9109743041
 21
348.826829092468
 31
0.0
  0
LINE
  5
FF
330
FC
100
AcDbEntity
  8
1
  6
Continuous
 62
     2
100
AcDbLine
 10
112.9109743041
 20
338.9447069058
 30
0.0
 11
112.9109743041
 21
348.826829092468
 31
0.0
  0
SOLID
  5
100
330
FC
100
AcDbEntity
  8
1
 62
     2
100
AcDbTrace
 10
209.4109743041
 20
346.3660453509121
 30
0.0
 11
209.4109743041
 21
347.2876128340239
 31
0.0
 12
212.9109743041
 22
346.826829092468
 32
0.0
 13
212.9109743041
 23
346.826829092468
 33
0.0
  0
SOLID
  5
101
330
FC
100
AcDbEntity
  8
1
 62
     2
100
AcDbTrace
 10
116.4109743041
 20
347.2876128340239
 30
0.0
 11
116.4109743041
 21
346.3660453509121
 31
0.0
 12
112.9109743041
 22
346.826829092468
 32
0.0
 13
112.9109743041
 23
346.826829092468
 33
0.0
  0
MTEXT
  5
102
330
FC
100
AcDbEntity
  8
1
 62
     3
100
AcDbMText
 10
161.101006458584
 20
348.826829092468
 30
0.0
 40
3.5
 41
0.0
 71
     7
 72
     1
  1
\C3;\C3;\C3;100\C2;\H2.45;\S^ ;\C3;
  7
CONVERTER_11
 11
0.9999999999970619
 21
2.424068405545306E-6
 31
0.0
 73
     1
 44
0.60024009603842
  0
ENDBLK
  5
104
330
FC
100
AcDbEntity
  8
0
100
AcDbBlockEnd
  0
BLOCK
  5
10E
330
107
100
AcDbEntity
  8
0
100
AcDbBlockBegin
  2
*D7
 70
     1
 10
0.0
 20
0.0
 30
0.0
  3
*D7
  1

  0
LINE
  5
108
330
107
100
AcDbEntity
  8
1
  6
Continuous
 62
     2
100
AcDbLine
 10
212.9109743041
 20
354.692858054163
 30
0.0
 11
11.1109743041
 21
354.692858054163
 31
0.0
  0
LINE
  5
109
330
107
100
AcDbEntity
  8
1
  6
Continuous
 62
     2
100
AcDbLine
 10
212.9109743041
 20
297.0328164141
 30
0.0
 11
212.9109743041
 21
356.692858054163
 31
0.0
  0
LINE
  5
10A
330
107
100
AcDbEntity
  8
1
  6
Continuous
 62
     2
100
AcDbLine
 10
11.1109743041
 20
305.1704023134
 30
0.0
 11
11.1109743041
 21
356.692858054163
 31
0.0
  0
SOLID
  5
10B
330
107
100
AcDbEntity
  8
1
 62
     2
100
AcDbTrace
 10
209.4109743041
 20
354.2320743126072
 30
0.0
 11
209.4109743041
 21
355.1536417957189
 31
0.0
 12
212.9109743041
 22
354.692858054163
 32
0.0
 13
212.9109743041
 23
354.692858054163
 33
0.0
  0
SOLID
  5
10C
330
107
100
AcDbEntity
  8
1
 62
     2
100
AcDbTrace
 10
14.6109743041
 20
355.1536417957189
 30
0.0
 11
14.6109743041
 21
354.2320743126072
 31
0.0
 12
11.1109743041
 22
354.692858054163
 32
0.0
 13
11.1109743041
 23
354.692858054163
 33
0.0
  0
MTEXT
  5
10D
330
107
100
AcDbEntity
  8
1
 62
     3
100
AcDbMText
 10
121.381413965666
 20
356.692858054163
 30
0.0
 40
3.5
 41
0.0
 71
     7
 72
     1
  1
\C3;\C3;\C3;201.8\C2;\H2.45;\S^ ;\C3;
  7
CONVERTER_11
 11
0.9999999999970619
 21
2.424068405545306E-6
 31
0.0
 73
     1
 44
0.60024009603842
  0
ENDBLK
  5
10F
330
107
100
AcDbEntity
  8
0
100
AcDbBlockEnd
  0
BLOCK
  5
116
330
112
100
AcDbEntity
  8
0
100
AcDbBlockBegin
  2
*D8
 70
     1
 10
0.0
 20
0.0
 30
0.0
  3
*D8
  1

  0
LINE
  5
113
330
112
100
AcDbEntity
  8
1
  6
Continuous
 62
     2
100
AcDbLine
 10
162.4749938382051
 20
310.3849713145333
 30
0.0
 11
151.4104367665026
 21
300.6349410103534
 31
0.0
  0
SOLID
  5
114
330
112
100
AcDbEntity
  8
1
 62
     2
100
AcDbTrace
 10
153.7317381439803
 20
303.2946179778445
 30
0.0
 11
154.3410167706159
 21
302.6031946769253
 31
0.0
 12
151.4104367665026
 22
300.6349410103534
 32
0.0
 13
151.4104367665026
 23
300.6349410103534
 33
0.0
  0
MTEXT
  5
115
330
112
100
AcDbEntity
  8
1
 62
     3
100
AcDbMText
 10
155.5857336782721
 20
306.979902380024
 30
0.0
 40
3.5
 41
0.0
 71
     7
 72
     1
  1
\C3; R\C3;\C3;2\C2;\H2.45;\S^ ;\C3;
  7
CONVERTER_11
 11
0.750268768798706
 21
0.6611329477232805
 31
0.0
 73
     1
 44
0.60024009603842
  0
ENDBLK
  5
117
330
112
100
AcDbEntity
  8
0
100
AcDbBlockEnd
  0
BLOCK
  5
120
330
119
100
AcDbEntity
  8
0
100
AcDbBlockBegin
  2
*D9
 70
     1
 10
0.0
 20
0.0
 30
0.0
  3
*D9
  1

  0
LINE
  5
11A
330
119
100
AcDbEntity
  8
1
  6
Continuous
 62
     2
100
AcDbLine
 10
193.182597876322
 20
299.9572069058
 30
0.0
 11
195.182597876322
 21
299.9572069058
 31
0.0
  0
LINE
  5
11B
330
119
100
AcDbEntity
  8
1
  6
Continuous
 62
     2
100
AcDbLine
 10
164.0861553594
 20
299.9572069058
 30
0.0
 11
193.182597876322
 21
299.9572069058
 31
0.0
  0
ARC
  5
11C
330
119
100
AcDbEntity
  8
1
  6
Continuous
 62
     2
100
AcDbCircle
 10
162.0861553594
 20
299.9572069058
 30
0.0
 40
31.09644251692204
100
AcDbArc
 50
345.8267763738834
 51
18.43094151951149
  0
SOLID
  5
11D
330
119
100
AcDbEntity
  8
1
 62
     2
100
AcDbTrace
 10
193.072911371929
 20
293.9872338605098
 30
0.0
 11
192.1597061626882
 21
294.1111002068045
 31
0.0
 12
193.0867379219565
 22
297.5174081455837
 32
0.0
 13
193.0867379219565
 23
297.5174081455837
 33
0.0
  0
SOLID
  5
11E
330
119
100
AcDbEntity
  8
1
 62
     2
100
AcDbTrace
 10
192.525679687232
 20
303.4257484075447
 30
0.0
 11
193.445788231101
 21
303.4775836603014
 31
0.0
 12
193.182597876322
 22
299.9572069058
 32
0.0
 13
193.182597876322
 23
299.9572069058
 33
0.0
  0
MTEXT
  5
11F
330
119
100
AcDbEntity
  8
1
 62
     3
100
AcDbMText
 10
193.6635229796532
 20
310.4805422350246
 30
0.0
 40
3.5
 41
0.0
 71
     7
 72
     1
  1
\C3;\C3;\C3;4.5%%d\C2;\H2.45;\S^ ;\C3;
  7
CONVERTER_11
 11
0.2136160486758312
 21
-0.9769176954831583
 31
0.0
 73
     1
 44
0.60024009603842
  0
ENDBLK
  5
121
330
119
100
AcDbEntity
  8
0
100
AcDbBlockEnd
  0
ENDSEC
  0
SECTION
  2
ENTITIES
  0
INSERT
  5
6D
330
1F
100
AcDbEntity
  8
0
100
AcDbBlockReference
  2
Urheberrecht_DE-EN
 10
4.98500030299665
 20
297.613140370889
 30
0.0
  0
LINE
  5
71
330
1F
100
AcDbEntity
  8
0
  6
Continuous
 62
     7
100
AcDbLine
 10
11.1109743041
 20
303.1704023134
 30
0.0
 11
11.1109743041
 21
264.7440114981
 31
0.0
  0
LINE
  5
72
330
1F
100
AcDbEntity
  8
0
  6
Continuous
 62
     9
100
AcDbLine
 10
11.9666556349
 20
304.1599335771
 30
0.0
 11
11.9666556349
 21
263.7544802345
 31
0.0
  0
LINE
  5
73
330
1F
100
AcDbEntity
  8
0
  6
Continuous
 62
     7
100
AcDbLine
 10
149.9109743041
 20
233.9697069058
 30
0.0
 11
143.6416425402
 21
233.9697069058
 31
0.0
  0
LINE
  5
74
330
1F
100
AcDbEntity
  8
0
  6
Continuous
 62
     7
100
AcDbLine
 10
116.9109743041
 20
233.9697069058
 30
0.0
 11
128.5803060679
 21
233.9697069058
 31
0.0
  0
LINE
  5
75
330
1F
100
AcDbEntity
  8
0
  6
Continuous
 62
     7
100
AcDbLine
 10
132.8234743041
 20
241.5822069058
 30
0.0
 11
139.3984743041
 21
241.5822069058
 31
0.0
  0
LINE
  5
76
330
1F
100
AcDbEntity
  8
0
  6
Continuous
 62
     7
100
AcDbLine
 10
113.2609743041
 20
249.3822069058
 30
0.0
 11
112.2917836878
 21
249.1225130628
 31
0.0
  0
LINE
  5
77
330
1F
100
AcDbEntity
  8
0
  6
Continuous
 62
     7
100
AcDbLine
 10
114.9109743041
 20
249.3822069058
 30
0.0
 11
113.2609743041
 21
249.3822069058
 31
0.0
  0
LINE
  5
78
330
1F
100
AcDbEntity
  8
0
  6
Continuous
 62
     7
100
AcDbLine
 10
11.9666556349
 20
263.7544802345
 30
0.0
 11
112.2917836878
 21
249.1225130628
 31
0.0
  0
LINE
  5
79
330
1F
100
AcDbEntity
  8
RUNDUNGEN
  6
Continuous
 62
     7
100
AcDbLine
 10
211.9894333998
 20
271.8846800637
 30
0.0
 11
162.0861553594
 21
267.9572069058
 31
0.0
  0
LINE
  5
7A
330
1F
100
AcDbEntity
  8
0
  6
Continuous
 62
     7
100
AcDbLine
 10
162.0861553594
 20
267.9572069058
 30
0.0
 11
211.9894333998
 21
271.8846800637
 31
0.0
  0
LINE
  5
7B
330
1F
100
AcDbEntity
  8
RUNDUNGEN
  6
Continuous
 62
     7
100
AcDbLine
 10
162.0861553594
 20
267.9572069058
 30
0.0
 11
152.9109743041
 21
267.9572069058
 31
0.0
  0
LINE
  5
7C
330
1F
100
AcDbEntity
  8
0
  6
Continuous
 62
     7
100
AcDbLine
 10
152.9109743041
 20
267.9572069058
 30
0.0
 11
162.0861553594
 21
267.9572069058
 31
0.0
  0
LINE
  5
7D
330
1F
100
AcDbEntity
  8
0
  6
Continuous
 62
     7
100
AcDbLine
 10
128.5803060679
 20
269.7709100188
 30
0.0
 11
116.9109743041
 21
269.7709100188
 31
0.0
  0
LINE
  5
7E
330
1F
100
AcDbEntity
  8
0
  6
Continuous
 62
     7
100
AcDbLine
 10
116.9109743041
 20
271.0547069058
 30
0.0
 11
134.2584743041
 21
271.0547069058
 31
0.0
  0
LINE
  5
7F
330
1F
100
AcDbEntity
  8
0
  6
Continuous
 62
     7
100
AcDbLine
 10
112.2917836878
 20
318.7919007487
 30
0.0
 11
112.2917836878
 21
249.1225130628
 31
0.0
  0
LWPOLYLINE
  5
80
330
1F
100
AcDbEntity
  8
TEIL_STARTBEZUEGE
  6
DOT_CENTER
 62
     7
100
AcDbPolyline
 90
        2
 70
     0
 43
0.25
 10
112.9109743041
 20
230.9697069058
 10
112.9109743041
 20
336.9447069058
  0
LINE
  5
81
330
1F
100
AcDbEntity
  8
DEFAULT_2
  6
HIDDEN
 62
     8
100
AcDbLine
 10
212.9109743041
 20
277.9572069058
 30
0.0
 11
165.9109743041
 21
277.9572069058
 31
0.0
  0
LWPOLYLINE
  5
82
330
1F
100
AcDbEntity
  8
TEIL_STARTBEZUEGE
  6
DOT_CENTER
 62
     7
100
AcDbPolyline
 90
        2
 70
     0
 43
0.25
 10
215.9109743041
 20
283.9572069058
 10
8.1109743041
 20
283.9572069058
  0
LINE
  5
83
330
1F
100
AcDbEntity
  8
0
  6
Continuous
 62
     7
100
AcDbLine
 10
113.2609743041
 20
318.5322069058
 30
0.0
 11
113.2609743041
 21
249.3822069058
 31
0.0
  0
LINE
  5
84
330
1F
100
AcDbEntity
  8
0
  6
Continuous
 62
     9
100
AcDbLine
 10
114.9109743041
 20
318.5322069058
 30
0.0
 11
114.9109743041
 21
249.3822069058
 31
0.0
  0
LINE
  5
85
330
1F
100
AcDbEntity
  8
0
  6
Continuous
 62
     7
100
AcDbLine
 10
115.9109743041
 20
332.9206203083
 30
0.0
 11
115.9109743041
 21
297.8597069058
 31
0.0
  0
LINE
  5
86
330
1F
100
AcDbEntity
  8
0
  6
Continuous
 62
     7
100
AcDbLine
 10
115.9109743041
 20
270.0547069058
 30
0.0
 11
115.9109743041
 21
234.970048918
 31
0.0
  0
LINE
  5
87
330
1F
100
AcDbEntity
  8
FASEN
  6
Continuous
 62
     7
100
AcDbLine
 10
115.9109743041
 20
234.9698342876
 30
0.0
 11
115.9109743041
 21
278.8054474976
 31
0.0
  0
LINE
  5
88
330
1F
100
AcDbEntity
  8
FASEN
  6
Continuous
 62
     7
100
AcDbLine
 10
115.9109743041
 20
289.108966314
 30
0.0
 11
115.9109743041
 21
332.9445794652
 31
0.0
  0
LINE
  5
89
330
1F
100
AcDbEntity
  8
FASEN
  6
Continuous
 62
     9
100
AcDbLine
 10
116.9109743041
 20
298.1435037927
 30
0.0
 11
116.9109743041
 21
296.8597069058
 31
0.0
  0
LINE
  5
8A
330
1F
100
AcDbEntity
  8
0
  6
Continuous
 62
     9
100
AcDbLine
 10
116.9109743041
 20
233.9697069058
 30
0.0
 11
116.9109743041
 21
269.7709100188
 31
0.0
  0
LINE
  5
8B
330
1F
100
AcDbEntity
  8
FASEN
  6
Continuous
 62
     9
100
AcDbLine
 10
116.9109743041
 20
269.7709100188
 30
0.0
 11
116.9109743041
 21
271.0547069058
 31
0.0
  0
LINE
  5
8C
330
1F
100
AcDbEntity
  8
0
  6
Continuous
 62
     9
100
AcDbLine
 10
116.9109743041
 20
298.1435037927
 30
0.0
 11
116.9109743041
 21
333.9447069058
 31
0.0
  0
LINE
  5
8D
330
1F
100
AcDbEntity
  8
0
  6
Continuous
 62
     7
100
AcDbLine
 10
139.6484743041
 20
327.0283366376
 30
0.0
 11
143.6416425402
 21
333.9447069058
 31
0.0
  0
LINE
  5
8E
330
1F
100
AcDbEntity
  8
DEFAULT_2
  6
HIDDEN
 62
     8
100
AcDbLine
 10
212.9109743041
 20
289.9572069058
 30
0.0
 11
165.9109743041
 21
289.9572069058
 31
0.0
  0
LINE
  5
8F
330
1F
100
AcDbEntity
  8
0
  6
Continuous
 62
     7
100
AcDbLine
 10
139.6484743041
 20
240.886077174
 30
0.0
 11
143.6416425402
 21
233.9697069058
 31
0.0
  0
LINE
  5
90
330
1F
100
AcDbEntity
  8
FASEN
  6
Continuous
 62
     7
100
AcDbLine
 10
115.9109743041
 20
270.0547069058
 30
0.0
 11
116.9109743041
 21
271.0547069058
 31
0.0
  0
LINE
  5
91
330
1F
100
AcDbEntity
  8
0
  6
Continuous
 62
     7
100
AcDbLine
 10
116.9109743041
 20
296.8597069058
 30
0.0
 11
134.2584743041
 21
296.8597069058
 31
0.0
  0
LINE
  5
92
330
1F
100
AcDbEntity
  8
0
  6
Continuous
 62
     7
100
AcDbLine
 10
116.9109743041
 20
298.1435037927
 30
0.0
 11
128.5803060679
 21
298.1435037927
 31
0.0
  0
LINE
  5
93
330
1F
100
AcDbEntity
  8
RUNDUNGEN
  6
Continuous
 62
     7
100
AcDbLine
 10
162.0861553594
 20
299.9572069058
 30
0.0
 11
152.9109743041
 21
299.9572069058
 31
0.0
  0
LINE
  5
94
330
1F
100
AcDbEntity
  8
0
  6
Continuous
 62
     7
100
AcDbLine
 10
152.9109743041
 20
299.9572069058
 30
0.0
 11
162.0861553594
 21
299.9572069058
 31
0.0
  0
LINE
  5
95
330
1F
100
AcDbEntity
  8
FASEN
  6
Continuous
 62
     7
100
AcDbLine
 10
115.9109743041
 20
297.8597069058
 30
0.0
 11
116.9109743041
 21
296.8597069058
 31
0.0
  0
LINE
  5
96
330
1F
100
AcDbEntity
  8
0
  6
Continuous
 62
     7
100
AcDbLine
 10
128.5803060679
 20
333.9447069058
 30
0.0
 11
128.5803060679
 21
298.1435037927
 31
0.0
  0
LINE
  5
97
330
1F
100
AcDbEntity
  8
0
  6
Continuous
 62
     7
100
AcDbLine
 10
128.5803060679
 20
269.7709100188
 30
0.0
 11
128.5803060679
 21
233.9697069058
 31
0.0
  0
LINE
  5
98
330
1F
100
AcDbEntity
  8
0
  6
Continuous
 62
     7
100
AcDbLine
 10
132.5734743041
 20
327.0281882277
 30
0.0
 11
132.5734743041
 21
296.8597069058
 31
0.0
  0
LINE
  5
99
330
1F
100
AcDbEntity
  8
0
  6
Continuous
 62
     7
100
AcDbLine
 10
132.5734743041
 20
271.0547069058
 30
0.0
 11
132.5734743041
 21
240.8862255838
 31
0.0
  0
LINE
  5
9A
330
1F
100
AcDbEntity
  8
0
  6
Continuous
 62
     9
100
AcDbLine
 10
132.8234743041
 20
241.5822069058
 30
0.0
 11
132.8234743041
 21
271.0547069058
 31
0.0
  0
LINE
  5
9B
330
1F
100
AcDbEntity
  8
0
  6
Continuous
 62
     9
100
AcDbLine
 10
132.8234743041
 20
296.8597069058
 30
0.0
 11
132.8234743041
 21
326.3322069058
 31
0.0
  0
LINE
  5
9C
330
1F
100
AcDbEntity
  8
RUNDUNGEN
  6
Continuous
 62
     7
100
AcDbLine
 10
211.9894333998
 20
296.0297337479
 30
0.0
 11
162.0861553594
 21
299.9572069058
 31
0.0
  0
LINE
  5
9D
330
1F
100
AcDbEntity
  8
0
  6
Continuous
 62
     7
100
AcDbLine
 10
162.0861553594
 20
299.9572069058
 30
0.0
 11
211.9894333998
 21
296.0297337479
 31
0.0
  0
LINE
  5
9E
330
1F
100
AcDbEntity
  8
0
  6
Continuous
 62
     9
100
AcDbLine
 10
139.3984743041
 20
241.5822069058
 30
0.0
 11
139.3984743041
 21
272.1227273545
 31
0.0
  0
LINE
  5
9F
330
1F
100
AcDbEntity
  8
0
  6
Continuous
 62
     9
100
AcDbLine
 10
139.3984743041
 20
295.7916864571
 30
0.0
 11
139.3984743041
 21
326.3322069058
 31
0.0
  0
LINE
  5
A0
330
1F
100
AcDbEntity
  8
0
  6
Continuous
 62
     7
100
AcDbLine
 10
139.6484743041
 20
240.886077174
 30
0.0
 11
139.6484743041
 21
272.2344765817
 31
0.0
  0
LINE
  5
A1
330
1F
100
AcDbEntity
  8
0
  6
Continuous
 62
     7
100
AcDbLine
 10
139.6484743041
 20
295.6799372298
 30
0.0
 11
139.6484743041
 21
327.0283366376
 31
0.0
  0
LINE
  5
A2
330
1F
100
AcDbEntity
  8
0
  6
Continuous
 62
     7
100
AcDbLine
 10
143.6416425402
 20
333.9447069058
 30
0.0
 11
143.6416425402
 21
294.4248570842
 31
0.0
  0
LINE
  5
A3
330
1F
100
AcDbEntity
  8
0
  6
Continuous
 62
     7
100
AcDbLine
 10
143.6416425402
 20
273.4895665988
 30
0.0
 11
143.6416425402
 21
233.9697069058
 31
0.0
  0
LINE
  5
A4
330
1F
100
AcDbEntity
  8
0
  6
Continuous
 62
     9
100
AcDbLine
 10
149.9109743041
 20
333.9447069058
 30
0.0
 11
149.9109743041
 21
233.9697069058
 31
0.0
  0
LINE
  5
A5
330
1F
100
AcDbEntity
  8
0
  6
Continuous
 62
     7
100
AcDbLine
 10
112.2917836878
 20
318.7919007487
 30
0.0
 11
11.9666556349
 21
304.1599335771
 31
0.0
  0
LINE
  5
A6
330
1F
100
AcDbEntity
  8
0
  6
Continuous
 62
     7
100
AcDbLine
 10
114.9109743041
 20
318.5322069058
 30
0.0
 11
113.2609743041
 21
318.5322069058
 31
0.0
  0
LINE
  5
A7
330
1F
100
AcDbEntity
  8
0
  6
Continuous
 62
     7
100
AcDbLine
 10
113.2609743041
 20
318.5322069058
 30
0.0
 11
112.2917836878
 21
318.7919007487
 31
0.0
  0
LINE
  5
A8
330
1F
100
AcDbEntity
  8
0
  6
Continuous
 62
     7
100
AcDbLine
 10
150.9109743041
 20
332.9447069058
 30
0.0
 11
150.9109743041
 21
234.9697069058
 31
0.0
  0
LINE
  5
A9
330
1F
100
AcDbEntity
  8
RUNDUNGEN
  6
Continuous
 62
     9
100
AcDbLine
 10
152.9109743041
 20
299.9572069058
 30
0.0
 11
152.9109743041
 21
267.9572069058
 31
0.0
  0
LINE
  5
AA
330
1F
100
AcDbEntity
  8
0
  6
Continuous
 62
     7
100
AcDbLine
 10
128.5803060679
 20
233.9697069058
 30
0.0
 11
132.5734743041
 21
240.886077174
 31
0.0
  0
LINE
  5
AB
330
1F
100
AcDbEntity
  8
0
  6
Continuous
 62
     7
100
AcDbLine
 10
132.8234743041
 20
326.3322069058
 30
0.0
 11
139.3984743041
 21
326.3322069058
 31
0.0
  0
LINE
  5
AC
330
1F
100
AcDbEntity
  8
0
  6
Continuous
 62
     7
100
AcDbLine
 10
128.5803060679
 20
333.9447069058
 30
0.0
 11
132.5734743041
 21
327.0283366376
 31
0.0
  0
LINE
  5
AD
330
1F
100
AcDbEntity
  8
0
  6
Continuous
 62
     7
100
AcDbLine
 10
162.0861553594
 20
299.9572069058
 30
0.0
 11
162.0861553594
 21
267.9572069058
 31
0.0
  0
LINE
  5
AE
330
1F
100
AcDbEntity
  8
0
  6
Continuous
 62
     7
100
AcDbLine
 10
149.9109743041
 20
333.9447069058
 30
0.0
 11
143.6416425402
 21
333.9447069058
 31
0.0
  0
LINE
  5
AF
330
1F
100
AcDbEntity
  8
0
  6
Continuous
 62
     7
100
AcDbLine
 10
116.9109743041
 20
333.9447069058
 30
0.0
 11
128.5803060679
 21
333.9447069058
 31
0.0
  0
LINE
  5
B0
330
1F
100
AcDbEntity
  8
DEFAULT_2
  6
HIDDEN
 62
     8
100
AcDbLine
 10
165.9109743041
 20
277.9572069058
 30
0.0
 11
165.9109743041
 21
289.9572069058
 31
0.0
  0
LINE
  5
B1
330
1F
100
AcDbEntity
  8
RUNDUNGEN
  6
Continuous
 62
     9
100
AcDbLine
 10
211.9894333998
 20
271.8846800637
 30
0.0
 11
211.9894333998
 21
296.0297337479
 31
0.0
  0
LINE
  5
B2
330
1F
100
AcDbEntity
  8
RUNDUNGEN
  6
Continuous
 62
     7
100
AcDbLine
 10
212.9109743041
 20
272.8815973974
 30
0.0
 11
212.9109743041
 21
295.0328164141
 31
0.0
  0
LWPOLYLINE
  5
B3
330
1F
100
AcDbEntity
  8
1
  6
Continuous
 62
     7
100
AcDbPolyline
 90
        2
 70
     0
 43
0.25
 10
212.9109743041
 20
295.0328164141
 10
212.9109743041
 20
295.9572069058528
  0
LWPOLYLINE
  5
B4
330
1F
100
AcDbEntity
  8
1
  6
Continuous
 62
     7
100
AcDbPolyline
 90
        2
 70
     0
 43
0.25
 10
211.9894333998
 20
296.0297337479
 10
212.9109743041094
 20
295.9572069058528
  0
LWPOLYLINE
  5
B5
330
1F
100
AcDbEntity
  8
1
  6
Continuous
 62
     7
100
AcDbPolyline
 90
        2
 70
     0
 43
0.25
 10
211.9894333998
 20
271.8846800637
 10
212.9109743041
 20
271.9572069057487
  0
LWPOLYLINE
  5
B6
330
1F
100
AcDbEntity
  8
1
  6
Continuous
 62
     7
100
AcDbPolyline
 90
        2
 70
     0
 43
0.25
 10
212.9109743041
 20
272.8815973974
 10
212.9109743041
 20
271.9572069057487
  0
ARC
  5
B7
330
1F
100
AcDbEntity
  8
0
  6
Continuous
 62
     7
100
AcDbCircle
 10
-69.3437452717
 20
183.8593870648
 30
0.0
 40
228.5493151048996
100
AcDbArc
 50
29.63179077999996
 51
30.00273823897237
  0
ARC
  5
B8
330
1F
100
AcDbEntity
  8
0
  6
Continuous
 62
     7
100
AcDbCircle
 10
12.1109743041
 20
264.7440114981
 30
0.0
 40
1.0
100
AcDbArc
 50
180.0
 51
261.7021731697581
  0
ARC
  5
B9
330
1F
100
AcDbEntity
  8
0
  6
Continuous
 62
     7
100
AcDbCircle
 10
-69.3437452785
 20
384.0550267506
 30
0.0
 40
228.5493151128222
100
AcDbArc
 50
329.9972617610334
 51
330.3682092200001
  0
ARC
  5
BA
330
1F
100
AcDbEntity
  8
0
  6
Continuous
 62
     7
100
AcDbCircle
 10
12.1109743041
 20
303.1704023134
 30
0.0
 40
1.000000000059663
100
AcDbArc
 50
98.29782682941516
 51
180.0
  0
ARC
  5
BB
330
1F
100
AcDbEntity
  8
0
  6
Continuous
 62
     7
100
AcDbCircle
 10
270.6650498467
 20
205.7629617478
 30
0.0
 40
154.9060285734411
100
AcDbArc
 50
145.0850935211684
 51
145.5160052751999
  0
ARC
  5
BC
330
1F
100
AcDbEntity
  8
RUNDUNGEN
  6
Continuous
 62
     7
100
AcDbCircle
 10
152.9109743041
 20
265.9572069058
 30
0.0
 40
2.0
100
AcDbArc
 50
90.0
 51
180.0
  0
ARC
  5
BD
330
1F
100
AcDbEntity
  8
RUNDUNGEN
  6
Continuous
 62
     7
100
AcDbCircle
 10
211.9109743041
 20
272.8815973974
 30
0.0
 40
0.9999999999648148
100
AcDbArc
 50
274.4999999985582
 51
0.0
  0
ARC
  5
BE
330
1F
100
AcDbEntity
  8
0
  6
Continuous
 62
     7
100
AcDbCircle
 10
149.9109743041
 20
234.9697069058
 30
0.0
 40
1.0
100
AcDbArc
 50
270.0
 51
0.0
  0
ARC
  5
BF
330
1F
100
AcDbEntity
  8
0
  6
Continuous
 62
     7
100
AcDbCircle
 10
114.9109743041
 20
248.3822069058
 30
0.0
 40
1.0
100
AcDbArc
 50
0.0
 51
90.0
  0
ARC
  5
C0
330
1F
100
AcDbEntity
  8
0
  6
Continuous
 62
     7
100
AcDbCircle
 10
116.9109743041
 20
234.9697069058
 30
0.0
 40
1.0
100
AcDbArc
 50
180.0
 51
270.0
  0
ARC
  5
C1
330
1F
100
AcDbEntity
  8
0
  6
Continuous
 62
     7
100
AcDbCircle
 10
139.3984743041
 20
241.3322069058
 30
0.0
 40
0.25
100
AcDbArc
 50
0.0
 51
90.0
  0
ARC
  5
C2
330
1F
100
AcDbEntity
  8
0
  6
Continuous
 62
     7
100
AcDbCircle
 10
132.8234743041
 20
241.3322069058
 30
0.0
 40
0.25
100
AcDbArc
 50
90.0
 51
180.0
  0
ARC
  5
C3
330
1F
100
AcDbEntity
  8
0
  6
Continuous
 62
     7
100
AcDbCircle
 10
270.6618695498
 20
362.1492540957
 30
0.0
 40
154.9021570431004
100
AcDbArc
 50
214.4839903095
 51
214.9149101174829
  0
ARC
  5
C4
330
1F
100
AcDbEntity
  8
0
  6
Continuous
 62
     7
100
AcDbCircle
 10
134.2584743041
 20
283.9572069058
 30
0.0
 40
12.90249999999997
100
AcDbArc
 50
270.0
 51
90.0
  0
ARC
  5
C5
330
1F
100
AcDbEntity
  8
RUNDUNGEN
  6
Continuous
 62
     7
100
AcDbCircle
 10
152.9109743041
 20
301.9572069058
 30
0.0
 40
2.0
100
AcDbArc
 50
180.0000000000847
 51
270.0
  0
ARC
  5
C6
330
1F
100
AcDbEntity
  8
RUNDUNGEN
  6
Continuous
 62
     7
100
AcDbCircle
 10
211.9109743041
 20
295.0328164141
 30
0.0
 40
1.0
100
AcDbArc
 50
0.0
 51
85.50000000189128
  0
ARC
  5
C7
330
1F
100
AcDbEntity
  8
0
  6
Continuous
 62
     7
100
AcDbCircle
 10
114.9109743041
 20
319.5322069058
 30
0.0
 40
1.0
100
AcDbArc
 50
270.0
 51
0.0
  0
ARC
  5
C8
330
1F
100
AcDbEntity
  8
0
  6
Continuous
 62
     7
100
AcDbCircle
 10
116.9109743041
 20
332.9447069058
 30
0.0
 40
1.0
100
AcDbArc
 50
90.0
 51
180.0
  0
ARC
  5
C9
330
1F
100
AcDbEntity
  8
0
  6
Continuous
 62
     7
100
AcDbCircle
 10
149.9109743041
 20
332.9447069058
 30
0.0
 40
1.0
100
AcDbArc
 50
0.0
 51
90.0
  0
ARC
  5
CA
330
1F
100
AcDbEntity
  8
0
  6
Continuous
 62
     7
100
AcDbCircle
 10
139.3984743041
 20
326.5822069058
 30
0.0
 40
0.25
100
AcDbArc
 50
270.0
 51
0.0
  0
ARC
  5
CB
330
1F
100
AcDbEntity
  8
0
  6
Continuous
 62
     7
100
AcDbCircle
 10
132.8234743041
 20
326.5822069058
 30
0.0
 40
0.25
100
AcDbArc
 50
180.0
 51
270.0
  0
SPLINE
  5
CC
330
1F
100
AcDbEntity
  8
FASEN
  6
Continuous
 62
     7
100
AcDbSpline
210
0.0
220
0.0
230
1.0
 70
     8
 71
     3
 72
    25
 73
    21
 74
    19
 42
0.0000000001
 43
0.0000000001
 44
0.00000001
 40
0.0
 40
0.0
 40
0.0
 40
0.0
 40
0.0975566094277887
 40
0.1951222767046937
 40
0.2893247602615794
 40
0.3835227316120635
 40
0.4709468132169722
 40
0.5583764927264188
 40
0.636205617980852
 40
0.7140176369982634
 40
0.7798226969928599
 40
0.8456700524631805
 40
0.8980832926690128
 40
0.9504116609541152
 40
0.971543047131326
 40
0.9926350698598478
 40
1.010621976059014
 40
1.028726681051586
 40
1.05861054835198
 40
1.08801742652569
 40
1.08801742652569
 40
1.08801742652569
 40
1.08801742652569
 10
116.9109743041
 20
269.7709100188
 30
0.0
 10
116.8784541662952
 20
269.7711533662076
 30
0.0
 10
116.8134108712849
 20
269.7716400836169
 30
0.0
 10
116.7170407243112
 20
269.7758362533291
 30
0.0
 10
116.6219416570033
 20
269.7825030961762
 30
0.0
 10
116.5304513690898
 20
269.7917645879572
 30
0.0
 10
116.4415364513302
 20
269.8035996289532
 30
0.0
 10
116.3584665948136
 20
269.8176352013475
 30
0.0
 10
116.2791165687529
 20
269.8341188074677
 30
0.0
 10
116.2075576286171
 20
269.8523530979883
 30
0.0
 10
116.1408138671878
 20
269.8729620174594
 30
0.0
 10
116.0833742046319
 20
269.8946706418604
 30
0.0
 10
116.0316606012954
 20
269.9184347085126
 30
0.0
 10
115.9953955594595
 20
269.9397713832077
 30
0.0
 10
115.9699285041195
 20
269.9583765974863
 30
0.0
 10
115.9546188539021
 20
269.9713784048708
 30
0.0
 10
115.941117825903
 20
269.9848978824774
 30
0.0
 10
115.9274994205304
 20
270.0021464387069
 30
0.0
 10
115.914527752304
 20
270.025095280269
 30
0.0
 10
115.912152417043
 20
270.0448894447599
 30
0.0
 10
115.9109743041
 20
270.0547069058
 30
0.0
 11
116.9109743041
 21
269.7709100188
 31
0.0
 11
116.813426568385
 21
269.7722258075108
 31
0.0
 11
116.7159469408665
 21
269.7763223487391
 31
0.0
 11
116.6219804850686
 21
269.7829866636376
 31
0.0
 11
116.5282642011037
 21
269.7925006494663
 31
0.0
 11
116.4416136478414
 21
269.8041045998194
 31
0.0
 11
116.3554169341851
 21
269.8187359160275
 31
0.0
 11
116.2792395916594
 21
269.8346853744383
 31
0.0
 11
116.203867522026
 21
269.8540182847919
 31
0.0
 11
116.1410437515633
 21
269.8736009246994
 31
0.0
 11
116.0795087401499
 21
269.8970384286787
 31
0.0
 11
116.0320293189467
 21
269.9192387059538
 31
0.0
 11
115.9871068603427
 21
269.9460758227951
 31
0.0
 11
115.9700773335272
 21
269.9585870456853
 31
0.0
 11
115.9540361645988
 21
269.9722820930454
 31
0.0
 11
115.9414117225911
 21
269.9850942848411
 31
0.0
 11
115.9301959425272
 21
269.9993064845451
 31
0.0
 11
115.9163688326416
 21
270.0257990600529
 31
0.0
 11
115.9109743041
 21
270.0547069058
 31
0.0
  0
SPLINE
  5
CD
330
1F
100
AcDbEntity
  8
FASEN
  6
Continuous
 62
     7
100
AcDbSpline
210
0.0
220
0.0
230
1.0
 70
     8
 71
     3
 72
    25
 73
    21
 74
    19
 42
0.0000000001
 43
0.0000000001
 44
0.00000001
 40
0.0
 40
0.0
 40
0.0
 40
0.0
 40
0.0294068780876538
 40
0.0592907453769753
 40
0.0773954503695468
 40
0.0953823565687941
 40
0.1164743792976742
 40
0.1376057654771062
 40
0.1899341337780385
 40
0.2423473740001467
 40
0.3081947294786413
 40
0.3739997894742054
 40
0.4518118084912206
 40
0.5296409337430887
 40
0.6170706132473649
 40
0.704494694849482
 40
0.7986926662013528
 40
0.8928951497589783
 40
0.9904608170345491
 40
1.088017426461983
 40
1.088017426461983
 40
1.088017426461983
 40
1.088017426461983
 10
115.9109743041
 20
297.8597069058
 30
0.0
 10
115.9121524170463
 20
297.8695243668103
 30
0.0
 10
115.9145277523172
 20
297.8893185312663
 30
0.0
 10
115.9274994205335
 20
297.9122673727957
 30
0.0
 10
115.9411178259029
 20
297.9295159290227
 30
0.0
 10
115.9546188539022
 20
297.9430354066293
 30
0.0
 10
115.9699285041202
 20
297.9560372140144
 30
0.0
 10
115.9953955594629
 20
297.9746424282995
 30
0.0
 10
116.0316606012953
 20
297.9959791030212
 30
0.0
 10
116.0833742046262
 20
298.0197431697188
 30
0.0
 10
116.1408138671845
 20
298.0414517941396
 30
0.0
 10
116.2075576286166
 20
298.0620607136115
 30
0.0
 10
116.2791165687518
 20
298.0802950041322
 30
0.0
 10
116.3584665948124
 20
298.0967786102411
 30
0.0
 10
116.4415364513314
 20
298.1108141826003
 30
0.0
 10
116.5304513690923
 20
298.1226492235684
 30
0.0
 10
116.6219416570028
 20
298.1319107153718
 30
0.0
 10
116.71704072431
 20
298.1385775582403
 30
0.0
 10
116.8134108712856
 20
298.1427737279051
 30
0.0
 10
116.8784541662954
 20
298.1432604452998
 30
0.0
 10
116.9109743041
 20
298.1435037927
 30
0.0
 11
115.9109743041
 21
297.8597069058
 31
0.0
 11
115.9163688326416
 21
297.8886147514596
 31
0.0
 11
115.9301959425272
 21
297.9151073269549
 31
0.0
 11
115.9414117225911
 21
297.9293195266589
 31
0.0
 11
115.9540361645989
 21
297.9421317184547
 31
0.0
 11
115.9700773335272
 21
297.9558267658153
 31
0.0
 11
115.9871068603427
 21
297.9683379887093
 31
0.0
 11
116.0320293189467
 21
297.9951751055814
 31
0.0
 11
116.0795087401499
 21
298.017375382895
 31
0.0
 11
116.1410437515633
 21
298.0408128868972
 31
0.0
 11
116.203867522026
 21
298.0603955268081
 31
0.0
 11
116.2792395916594
 21
298.07972843716
 31
0.0
 11
116.3554169341851
 21
298.0956778955583
 31
0.0
 11
116.4416136478414
 21
298.1103092117354
 31
0.0
 11
116.5282642011037
 21
298.1219131620675
 31
0.0
 11
116.6219804850686
 21
298.13142714791
 31
0.0
 11
116.7159469408665
 21
298.138091462819
 31
0.0
 11
116.813426568385
 21
298.1421880040155
 31
0.0
 11
116.9109743041
 21
298.1435037927
 31
0.0
  0
SPLINE
  5
CE
330
1F
100
AcDbEntity
  8
0
  6
Continuous
 62
     7
100
AcDbSpline
210
0.0
220
0.0
230
1.0
 70
     8
 71
     3
 72
    19
 73
    15
 74
    13
 42
0.0000000001
 43
0.0000000001
 44
0.00000001
 40
0.0
 40
0.0
 40
0.0
 40
0.0
 40
1.28804612070137
 40
2.576183163063491
 40
3.220235598640818
 40
3.864273041930197
 40
4.508318825043315
 40
5.152368395200503
 40
5.796417964841304
 40
6.440463747458763
 40
7.084501190790458
 40
7.728553626393113
 40
9.016690669248854
 40
10.30473679047591
 40
10.30473679047591
 40
10.30473679047591
 40
10.30473679047591
 10
115.9109743041
 20
278.8054474976
 30
0.0
 10
115.9078423393476
 20
279.234793499906
 30
0.0
 10
115.9015781887609
 20
280.0935158115474
 30
0.0
 10
115.87474847118
 20
281.1666234972914
 30
0.0
 10
115.8573153182626
 20
282.0251867541614
 30
0.0
 10
115.8465637830426
 20
282.6691454260206
 30
0.0
 10
115.8396981385931
 20
283.3131574600113
 30
0.0
 10
115.8372125424469
 20
283.9572069055574
 30
0.0
 10
115.8396981423446
 20
284.6012563509221
 30
0.0
 10
115.8465637887956
 20
285.2452683845614
 30
0.0
 10
115.8573153225319
 20
285.8892270562978
 30
0.0
 10
115.8747484719826
 20
286.7477903134282
 30
0.0
 10
115.9015781884438
 20
287.8208979995438
 30
0.0
 10
115.9078423392418
 20
288.6796203115208
 30
0.0
 10
115.9109743041
 20
289.108966314
 30
0.0
 11
115.9109743041
 21
278.8054474976
 31
0.0
 11
115.8977787832614
 21
280.0934260250933
 31
0.0
 11
115.8707258982657
 21
281.3812789597558
 31
0.0
 11
115.8577024082903
 21
282.0251997068062
 31
0.0
 11
115.847211464201
 21
282.6691516991556
 31
0.0
 11
115.8404281622744
 21
283.313161759295
 31
0.0
 11
115.8380410767448
 21
283.9572069057268
 31
0.0
 11
115.8404281657341
 21
284.6012520516294
 31
0.0
 11
115.8472114693702
 21
285.2452621112551
 31
0.0
 11
115.8577024123727
 21
285.8892141036646
 31
0.0
 11
115.8707259001466
 21
286.5331348507848
 31
0.0
 11
115.8977787832204
 21
287.8209877859815
 31
0.0
 11
115.9109743041
 21
289.108966314
 31
0.0
  0
SPLINE
  5
CF
330
1F
100
AcDbEntity
  8
0
  6
Continuous
 62
     7
100
AcDbSpline
210
0.0
220
0.0
230
1.0
 70
     8
 71
     3
 72
    31
 73
    27
 74
    25
 42
0.0000000001
 43
0.0000000001
 44
0.00000001
 40
0.0
 40
0.0
 40
0.0
 40
0.0
 40
0.737643775958894
 40
1.475498326879647
 40
2.213122477517353
 40
2.950705019396502
 40
3.686177655946107
 40
4.421611652198949
 40
5.154930002587438
 40
5.888438802533212
 40
7.349257460242963
 40
8.810872241674394
 40
10.26734972641358
 40
11.72357900842561
 40
13.17967656773116
 40
14.63602209580632
 40
16.09756845530644
 40
17.55831898096161
 40
18.29183757332703
 40
19.02516554603502
 40
19.7606588827207
 40
20.49619142768348
 40
21.23383484429467
 40
21.9715187125708
 40
22.70940763856905
 40
23.44708703440842
 40
23.44708703440842
 40
23.44708703440842
 40
23.44708703440842
 10
143.6416341791
 20
294.4248455533
 30
0.0
 10
143.8188710118147
 20
294.254339133447
 30
0.0
 10
144.1733953210477
 20
293.9132775730913
 30
0.0
 10
144.6701960786177
 20
293.3672358897178
 30
0.0
 10
145.1396314246495
 20
292.7978528347286
 30
0.0
 10
145.577715409982
 20
292.2048710381007
 30
0.0
 10
145.9841707438562
 20
291.5907046848051
 30
0.0
 10
146.3576372362814
 20
290.9575807023152
 30
0.0
 10
146.6977401053302
 20
290.3066519564228
 30
0.0
 10
147.1048230947772
 20
289.4193401515503
 30
0.0
 10
147.5274153799492
 20
288.2738759074907
 30
0.0
 10
147.8924090309858
 20
286.8580888459448
 30
0.0
 10
148.1120015163056
 20
285.414091440727
 30
0.0
 10
148.1854534138759
 20
283.9572186905679
 30
0.0
 10
148.112003666597
 20
282.500390464967
 30
0.0
 10
147.8924413085951
 20
281.0565011337835
 30
0.0
 10
147.5274943087003
 20
279.6407948724864
 30
0.0
 10
147.1049411232005
 20
278.4953615006981
 30
0.0
 10
146.6978843756022
 20
277.6080554944734
 30
0.0
 10
146.3577826711324
 20
276.9570964853494
 30
0.0
 10
145.9843052320846
 20
276.3239290157944
 30
0.0
 10
145.5778279574815
 20
275.7097052343284
 30
0.0
 10
145.1397229217097
 20
275.1166642178235
 30
0.0
 10
144.6702606291175
 20
274.5472356544997
 30
0.0
 10
144.1734136068126
 20
274.0011777953225
 30
0.0
 10
143.8188764984912
 20
273.660096183553
 30
0.0
 10
143.6416331164
 20
273.4895795944
 30
0.0
 11
143.6416341791
 21
294.4248455533
 31
0.0
 11
144.1675200677815
 21
293.9075812376
 31
0.0
 11
144.6656874409169
 21
293.3632848048928
 31
0.0
 11
145.1344939873485
 21
292.7938027510694
 31
0.0
 11
145.5729169318415
 21
292.2006642109061
 31
0.0
 11
145.9788050326654
 21
291.587333265394
 31
0.0
 11
146.3524725013447
 21
290.9539015124046
 31
0.0
 11
146.6920701576859
 21
290.3039559494349
 31
0.0
 11
146.9979405911811
 21
289.6372637884555
 31
0.0
 11
147.5037828952772
 21
288.2668205338478
 31
0.0
 11
147.8685666709144
 21
286.8514581893117
 31
0.0
 11
148.0876978054566
 21
285.4115595090475
 31
0.0
 11
148.1609711966903
 21
283.957174851563
 31
0.0
 11
148.0877043996987
 21
282.5029217516268
 31
0.0
 11
147.868606626888
 21
281.0631514702645
 31
0.0
 11
147.5038637943439
 21
279.6478492314916
 31
0.0
 11
146.9980739750749
 21
278.2774592297309
 31
0.0
 11
146.692214110069
 21
277.6107514464222
 31
0.0
 11
146.352625307882
 21
276.9607904006778
 31
0.0
 11
145.978939235474
 21
276.3273007262574
 31
0.0
 11
145.5730298078415
 21
275.7139120556263
 31
0.0
 11
145.1345833581057
 21
275.1207151905099
 31
0.0
 11
144.6657423234002
 21
274.5511841784561
 31
0.0
 11
144.1675422285699
 21
274.0068710951833
 31
0.0
 11
143.6416331164
 21
273.4895795944
 31
0.0
  0
DIMENSION
  5
DA
330
1F
100
AcDbEntity
  8
1
100
AcDbDimension
  2
*D2
 10
224.381390971076
 20
289.9572069058
 30
0.0
 11
220.631390971076
 21
284.198086684293
 31
0.0
 70
    32
  1
<>
 71
     5
 42
-1.0
 53
90.0
  3
ME10_DIM_10
100
AcDbAlignedDimension
 13
212.9109743041
 23
277.9572069058
 33
0.0
 14
212.9109743041
 24
289.9572069058
 34
0.0
 50
90.0
100
AcDbRotatedDimension
  0
DIMENSION
  5
E5
330
1F
100
AcDbEntity
  8
1
100
AcDbDimension
  2
*D3
 10
233.17350288607
 20
295.9572069058528
 30
0.0
 11
229.42350288607
 21
284.198086684293
 31
0.0
 70
    32
  1
<>
 71
     5
 42
-1.0
 53
90.0
  3
ME10_DIM_11
100
AcDbAlignedDimension
 13
212.9109743041
 23
271.9572069057487
 33
0.0
 14
212.9109743041094
 24
295.9572069058528
 34
0.0
 50
90.0
100
AcDbRotatedDimension
  0
DIMENSION
  5
F0
330
1F
100
AcDbEntity
  8
1
100
AcDbDimension
  2
*D4
 10
241.72473502257
 20
299.9572069058
 30
0.0
 11
237.97473502257
 21
284.198086684293
 31
0.0
 70
    32
  1
<>
 71
     5
 42
-1.0
 53
90.0
  3
ME10_DIM_12
100
AcDbAlignedDimension
 13
162.0861553594
 23
267.9572069058
 33
0.0
 14
162.0861553594
 24
299.9572069058
 34
0.0
 50
90.0
100
AcDbRotatedDimension
  0
DIMENSION
  5
FB
330
1F
100
AcDbEntity
  8
1
100
AcDbDimension
  2
*D5
 10
212.9109743041
 20
339.359555959186
 30
0.0
 11
179.698192060628
 21
343.109555959186
 31
0.0
 70
    32
  1
<>
 71
     5
 42
-1.0
 53
0.00013888888889
  3
ME10_DIM_13
100
AcDbAlignedDimension
 13
150.9109743041
 23
332.9447069058
 33
0.0
 14
212.9109743041
 24
295.0328164141
 34
0.0
100
AcDbRotatedDimension
  0
DIMENSION
  5
106
330
1F
100
AcDbEntity
  8
1
100
AcDbDimension
  2
*D6
 10
212.9109743041
 20
346.826829092468
 30
0.0
 11
164.041006458584
 21
350.576829092468
 31
0.0
 70
    32
  1
<>
 71
     5
 42
-1.0
 53
0.00013888888889
  3
ME10_DIM_14
100
AcDbAlignedDimension
 13
112.9109743041
 23
336.9447069058
 33
0.0
 14
212.9109743041
 24
295.0328164141
 34
0.0
100
AcDbRotatedDimension
  0
DIMENSION
  5
111
330
1F
100
AcDbEntity
  8
1
100
AcDbDimension
  2
*D7
 10
212.9109743041
 20
354.692858054163
 30
0.0
 11
126.036413965666
 21
358.442858054163
 31
0.0
 70
    32
  1
<>
 71
     5
 42
-1.0
 53
0.00013888888889
  3
ME10_DIM_15
100
AcDbAlignedDimension
 13
11.1109743041
 23
303.1704023134
 33
0.0
 14
212.9109743041
 24
295.0328164141
 34
0.0
100
AcDbRotatedDimension
  0
INSERT
  5
118
330
1F
100
AcDbEntity
  8
1
100
AcDbBlockReference
  2
*D8
 10
0.0
 20
0.0
 30
0.0
  0
DIMENSION
  5
123
330
1F
100
AcDbEntity
  8
1
100
AcDbDimension
  2
*D9
 10
193.1586236460993
 20
298.7363663018304
 30
0.0
 11
196.1282616788178
 21
307.4009662666744
 31
0.0
 70
    37
  1
<>
 71
     5
 42
-1.0
  3
ME10_DIM_16
100
AcDb3PointAngularDimension
 13
193.0867379219565
 23
297.5174081455836
 33
0.0
 14
165.1957996110922
 24
299.9572069058
 34
0.0
 15
162.0861553594
 25
299.9572069058
 35
0.0
  0
ENDSEC
  0
SECTION
  2
OBJECTS
  0
DICTIONARY
  5
C
330
0
100
AcDbDictionary
281
     1
  3
ACAD_GROUP
350
D
  3
ACAD_LAYOUT
350
1A
  3
ACAD_MLEADERSTYLE
350
126
  3
ACAD_MLINESTYLE
350
17
  3
ACAD_PLOTSETTINGS
350
19
  3
ACAD_PLOTSTYLENAME
350
E
  3
ACAD_SCALELIST
350
4B
  3
ACAD_VISUALSTYLE
350
2A
  3
AcDbVariableDictionary
350
124
  0
DICTIONARY
  5
D
102
{ACAD_REACTORS
330
C
102
}
330
C
100
AcDbDictionary
281
     1
  0
DICTIONARY
  5
1A
102
{ACAD_REACTORS
330
C
102
}
330
C
100
AcDbDictionary
281
     1
  3
Layout1
350
1E
  3
Layout2
350
26
  3
Model
350
22
  0
DICTIONARY
  5
126
102
{ACAD_REACTORS
330
C
102
}
330
C
100
AcDbDictionary
281
     1
  0
DICTIONARY
  5
17
102
{ACAD_REACTORS
330
C
102
}
330
C
100
AcDbDictionary
281
     1
  3
Standard
350
18
  0
DICTIONARY
  5
19
102
{ACAD_REACTORS
330
C
102
}
330
C
100
AcDbDictionary
281
     1
  0
ACDBDICTIONARYWDFLT
  5
E
102
{ACAD_REACTORS
330
C
102
}
330
C
100
AcDbDictionary
281
     1
  3
Normal
350
F
100
AcDbDictionaryWithDefault
340
F
  0
DICTIONARY
  5
4B
102
{ACAD_REACTORS
330
C
102
}
330
C
100
AcDbDictionary
281
     1
  3
A0
350
4C
  3
A1
350
4D
  3
A2
350
4E
  3
A3
350
4F
  3
A4
350
50
  3
A5
350
51
  3
A6
350
52
  3
A7
350
53
  3
A8
350
54
  3
A9
350
55
  3
B0
350
56
  3
B1
350
57
  3
B2
350
58
  3
B3
350
59
  3
B4
350
5A
  3
B5
350
5B
  3
B6
350
5C
  3
B7
350
5D
  3
B8
350
5E
  3
B9
350
5F
  3
C0
350
60
  3
C1
350
61
  3
C2
350
62
  3
C3
350
63
  3
C4
350
64
  3
C5
350
65
  3
C6
350
66
  3
C7
350
67
  3
C8
350
68
  3
C9
350
69
  3
D0
350
6A
  3
D1
350
6B
  3
D2
350
6C
  0
DICTIONARY
  5
2A
102
{ACAD_REACTORS
330
C
102
}
330
C
100
AcDbDictionary
281
     1
  3
2dWireframe
350
2F
  3
3D Hidden
350
31
  3
3dWireframe
350
30
  3
Basic
350
32
  3
Brighten
350
36
  3
ColorChange
350
3A
  3
Conceptual
350
34
  3
Dim
350
35
  3
Facepattern
350
39
  3
Flat
350
2B
  3
FlatWithEdges
350
2C
  3
Gouraud
350
2D
  3
GouraudWithEdges
350
2E
  3
Linepattern
350
38
  3
Realistic
350
33
  3
Thicken
350
37
  0
DICTIONARY
  5
124
102
{ACAD_REACTORS
330
C
102
}
330
C
100
AcDbDictionary
281
     1
  3
CANNOSCALE
350
127
  0
LAYOUT
  5
1E
102
{ACAD_REACTORS
330
1A
102
}
330
1A
100
AcDbPlotSettings
  1

  2
none_device
  4

  6

 40
0.0
 41
0.0
 42
0.0
 43
0.0
 44
0.0
 45
0.0
 46
0.0
 47
0.0
 48
0.0
 49
0.0
140
0.0
141
0.0
142
1.0
143
1.0
 70
   688
 72
     0
 73
     0
 74
     5
  7

 75
    16
147
1.0
148
0.0
149
0.0
100
AcDbLayout
  1
Layout1
 70
     1
 71
     1
 10
0.0
 20
0.0
 11
12.0
 21
9.0
 12
0.0
 22
0.0
 32
0.0
 14
1.00000000000000E+20
 24
1.00000000000000E+20
 34
1.00000000000000E+20
 15
-1.00000000000000E+20
 25
-1.00000000000000E+20
 35
-1.00000000000000E+20
146
0.0
 13
0.0
 23
0.0
 33
0.0
 16
1.0
 26
0.0
 36
0.0
 17
0.0
 27
1.0
 37
0.0
 76
     0
330
1B
  0
LAYOUT
  5
26
102
{ACAD_REACTORS
330
1A
102
}
330
1A
100
AcDbPlotSettings
  1

  2
none_device
  4

  6

 40
0.0
 41
0.0
 42
0.0
 43
0.0
 44
0.0
 45
0.0
 46
0.0
 47
0.0
 48
0.0
 49
0.0
140
0.0
141
0.0
142
1.0
143
1.0
 70
   688
 72
     0
 73
     0
 74
     5
  7

 75
    16
147
1.0
148
0.0
149
0.0
100
AcDbLayout
  1
Layout2
 70
     1
 71
     2
 10
0.0
 20
0.0
 11
0.0
 21
0.0
 12
0.0
 22
0.0
 32
0.0
 14
0.0
 24
0.0
 34
0.0
 15
0.0
 25
0.0
 35
0.0
146
0.0
 13
0.0
 23
0.0
 33
0.0
 16
1.0
 26
0.0
 36
0.0
 17
0.0
 27
1.0
 37
0.0
 76
     0
330
23
  0
LAYOUT
  5
22
102
{ACAD_REACTORS
330
1A
102
}
330
1A
100
AcDbPlotSettings
  1

  2
none_device
  4

  6

 40
0.0
 41
0.0
 42
0.0
 43
0.0
 44
0.0
 45
0.0
 46
0.0
 47
0.0
 48
0.0
 49
0.0
140
0.0
141
0.0
142
1.0
143
1.0
 70
  1712
 72
     0
 73
     0
 74
     0
  7

 75
     0
147
1.0
148
0.0
149
0.0
100
AcDbLayout
  1
Model
 70
     1
 71
     0
 10
0.0
 20
0.0
 11
12.0
 21
9.0
 12
0.0
 22
0.0
 32
0.0
 14
-9.01499969700335
 24
230.8447069058
 34
0.0
 15
243.72473502257
 25
360.192858054163
 35
0.0
146
0.0
 13
0.0
 23
0.0
 33
0.0
 16
1.0
 26
0.0
 36
0.0
 17
0.0
 27
1.0
 37
0.0
 76
     0
330
1F
331
29
  0
MLINESTYLE
  5
18
102
{ACAD_REACTORS
330
17
102
}
330
17
100
AcDbMlineStyle
  2
Standard
 70
     0
  3

 62
   256
 51
90.0
 52
90.0
 71
     2
 49
0.5
 62
   256
  6
BYLAYER
 49
-0.5
 62
   256
  6
BYLAYER
  0
ACDBPLACEHOLDER
  5
F
102
{ACAD_REACTORS
330
E
102
}
330
E
  0
SCALE
  5
4C
102
{ACAD_REACTORS
330
4B
102
}
330
4B
100
AcDbScale
 70
     0
300
1:1
140
1.0
141
1.0
290
     1
  0
SCALE
  5
4D
102
{ACAD_REACTORS
330
4B
102
}
330
4B
100
AcDbScale
 70
     0
300
1:2
140
1.0
141
2.0
290
     0
  0
SCALE
  5
4E
102
{ACAD_REACTORS
330
4B
102
}
330
4B
100
AcDbScale
 70
     0
300
1:4
140
1.0
141
4.0
290
     0
  0
SCALE
  5
4F
102
{ACAD_REACTORS
330
4B
102
}
330
4B
100
AcDbScale
 70
     0
300
1:5
140
1.0
141
5.0
290
     0
  0
SCALE
  5
50
102
{ACAD_REACTORS
330
4B
102
}
330
4B
100
AcDbScale
 70
     0
300
1:8
140
1.0
141
8.0
290
     0
  0
SCALE
  5
51
102
{ACAD_REACTORS
330
4B
102
}
330
4B
100
AcDbScale
 70
     0
300
1:10
140
1.0
141
10.0
290
     0
  0
SCALE
  5
52
102
{ACAD_REACTORS
330
4B
102
}
330
4B
100
AcDbScale
 70
     0
300
1:16
140
1.0
141
16.0
290
     0
  0
SCALE
  5
53
102
{ACAD_REACTORS
330
4B
102
}
330
4B
100
AcDbScale
 70
     0
300
1:20
140
1.0
141
20.0
290
     0
  0
SCALE
  5
54
102
{ACAD_REACTORS
330
4B
102
}
330
4B
100
AcDbScale
 70
     0
300
1:30
140
1.0
141
30.0
290
     0
  0
SCALE
  5
55
102
{ACAD_REACTORS
330
4B
102
}
330
4B
100
AcDbScale
 70
     0
300
1:40
140
1.0
141
40.0
290
     0
  0
SCALE
  5
56
102
{ACAD_REACTORS
330
4B
102
}
330
4B
100
AcDbScale
 70
     0
300
1:50
140
1.0
141
50.0
290
     0
  0
SCALE
  5
57
102
{ACAD_REACTORS
330
4B
102
}
330
4B
100
AcDbScale
 70
     0
300
1:100
140
1.0
141
100.0
290
     0
  0
SCALE
  5
58
102
{ACAD_REACTORS
330
4B
102
}
330
4B
100
AcDbScale
 70
     0
300
2:1
140
2.0
141
1.0
290
     0
  0
SCALE
  5
59
102
{ACAD_REACTORS
330
4B
102
}
330
4B
100
AcDbScale
 70
     0
300
4:1
140
4.0
141
1.0
290
     0
  0
SCALE
  5
5A
102
{ACAD_REACTORS
330
4B
102
}
330
4B
100
AcDbScale
 70
     0
300
8:1
140
8.0
141
1.0
290
     0
  0
SCALE
  5
5B
102
{ACAD_REACTORS
330
4B
102
}
330
4B
100
AcDbScale
 70
     0
300
10:1
140
10.0
141
1.0
290
     0
  0
SCALE
  5
5C
102
{ACAD_REACTORS
330
4B
102
}
330
4B
100
AcDbScale
 70
     0
300
100:1
140
100.0
141
1.0
290
     0
  0
SCALE
  5
5D
102
{ACAD_REACTORS
330
4B
102
}
330
4B
100
AcDbScale
 70
     0
300
1/128" = 1'-0"
140
0.0078125
141
12.0
290
     0
  0
SCALE
  5
5E
102
{ACAD_REACTORS
330
4B
102
}
330
4B
100
AcDbScale
 70
     0
300
1/64" = 1'-0"
140
0.015625
141
12.0
290
     0
  0
SCALE
  5
5F
102
{ACAD_REACTORS
330
4B
102
}
330
4B
100
AcDbScale
 70
     0
300
1/32" = 1'-0"
140
0.03125
141
12.0
290
     0
  0
SCALE
  5
60
102
{ACAD_REACTORS
330
4B
102
}
330
4B
100
AcDbScale
 70
     0
300
1/16" = 1'-0"
140
0.0625
141
12.0
290
     0
  0
SCALE
  5
61
102
{ACAD_REACTORS
330
4B
102
}
330
4B
100
AcDbScale
 70
     0
300
3/32" = 1'-0"
140
0.09375
141
12.0
290
     0
  0
SCALE
  5
62
102
{ACAD_REACTORS
330
4B
102
}
330
4B
100
AcDbScale
 70
     0
300
1/8" = 1'-0"
140
0.125
141
12.0
290
     0
  0
SCALE
  5
63
102
{ACAD_REACTORS
330
4B
102
}
330
4B
100
AcDbScale
 70
     0
300
3/16" = 1'-0"
140
0.1875
141
12.0
290
     0
  0
SCALE
  5
64
102
{ACAD_REACTORS
330
4B
102
}
330
4B
100
AcDbScale
 70
     0
300
1/4" = 1'-0"
140
0.25
141
12.0
290
     0
  0
SCALE
  5
65
102
{ACAD_REACTORS
330
4B
102
}
330
4B
100
AcDbScale
 70
     0
300
3/8" = 1'-0"
140
0.375
141
12.0
290
     0
  0
SCALE
  5
66
102
{ACAD_REACTORS
330
4B
102
}
330
4B
100
AcDbScale
 70
     0
300
1/2" = 1'-0"
140
0.5
141
12.0
290
     0
  0
SCALE
  5
67
102
{ACAD_REACTORS
330
4B
102
}
330
4B
100
AcDbScale
 70
     0
300
3/4" = 1'-0"
140
0.75
141
12.0
290
     0
  0
SCALE
  5
68
102
{ACAD_REACTORS
330
4B
102
}
330
4B
100
AcDbScale
 70
     0
300
1" = 1'-0"
140
1.0
141
12.0
290
     0
  0
SCALE
  5
69
102
{ACAD_REACTORS
330
4B
102
}
330
4B
100
AcDbScale
 70
     0
300
1-1/2" = 1'-0"
140
1.5
141
12.0
290
     0
  0
SCALE
  5
6A
102
{ACAD_REACTORS
330
4B
102
}
330
4B
100
AcDbScale
 70
     0
300
3" = 1'-0"
140
3.0
141
12.0
290
     0
  0
SCALE
  5
6B
102
{ACAD_REACTORS
330
4B
102
}
330
4B
100
AcDbScale
 70
     0
300
6" = 1'-0"
140
6.0
141
12.0
290
     0
  0
SCALE
  5
6C
102
{ACAD_REACTORS
330
4B
102
}
330
4B
100
AcDbScale
 70
     0
300
1'-0" = 1'-0"
140
12.0
141
12.0
290
     0
  0
VISUALSTYLE
  5
2F
102
{ACAD_REACTORS
330
2A
102
}
330
2A
100
AcDbVisualStyle
  2
2dWireframe
 70
     4
 71
     0
 72
     2
 73
     0
 90
        0
 40
-0.6
 41
-30.0
 62
     5
 63
     7
 74
     1
 91
        4
 64
     7
 65
   257
 75
     1
175
     1
 42
1.0
 92
        0
 66
   257
 43
1.0
 76
     1
 77
     6
 78
     2
 67
     7
 79
     5
170
     0
171
     0
290
     0
174
     0
 93
        1
 44
0.0
173
     0
291
     0
 45
0.0
1001
ACAD
1000
AcDbSavedByObjectVersion
1070
     0
  0
VISUALSTYLE
  5
31
102
{ACAD_REACTORS
330
2A
102
}
330
2A
100
AcDbVisualStyle
  2
3D Hidden
 70
     6
 71
     1
 72
     2
 73
     2
 90
        0
 40
-0.6
 41
-30.0
 62
     5
 63
     7
 74
     2
 91
        2
 64
     7
 65
   257
 75
     2
175
     1
 42
40.0
 92
        0
 66
   257
 43
1.0
 76
     1
 77
     6
 78
     2
 67
     7
 79
     3
170
     0
171
     0
290
     0
174
     0
 93
        1
 44
0.0
173
     0
291
     0
 45
0.0
1001
ACAD
1000
AcDbSavedByObjectVersion
1070
     0
  0
VISUALSTYLE
  5
30
102
{ACAD_REACTORS
330
2A
102
}
330
2A
100
AcDbVisualStyle
  2
3dWireframe
 70
     5
 71
     0
 72
     2
 73
     0
 90
        0
 40
-0.6
 41
-30.0
 62
     5
 63
     7
 74
     1
 91
        4
 64
     7
 65
   257
 75
     1
175
     1
 42
1.0
 92
        0
 66
   257
 43
1.0
 76
     1
 77
     6
 78
     2
 67
     7
 79
     5
170
     0
171
     0
290
     0
174
     0
 93
        1
 44
0.0
173
     0
291
     0
 45
0.0
1001
ACAD
1000
AcDbSavedByObjectVersion
1070
     0
  0
VISUALSTYLE
  5
32
102
{ACAD_REACTORS
330
2A
102
}
330
2A
100
AcDbVisualStyle
  2
Basic
 70
     7
 71
     1
 72
     0
 73
     1
 90
        0
 40
-0.6
 41
-30.0
 62
     5
 63
     7
 74
     0
 91
        4
 64
     7
 65
   257
 75
     1
175
     1
 42
1.0
 92
        8
 66
     7
 43
1.0
 76
     1
 77
     6
 78
     2
 67
     7
 79
     5
170
     0
171
     0
290
     0
174
     0
 93
        1
 44
0.0
173
     0
291
     1
 45
0.0
1001
ACAD
1000
AcDbSavedByObjectVersion
1070
     0
  0
VISUALSTYLE
  5
36
102
{ACAD_REACTORS
330
2A
102
}
330
2A
100
AcDbVisualStyle
  2
Brighten
 70
    12
 71
     2
 72
     2
 73
     0
 90
        0
 40
-0.6
 41
-30.0
 62
     5
 63
     7
 74
     1
 91
        4
 64
     7
 65
   257
 75
     1
175
     1
 42
1.0
 92
        8
 66
     7
 43
1.0
 76
     1
 77
     6
 78
     2
 67
     7
 79
     5
170
     0
171
     0
290
     0
174
     0
 93
        1
 44
50.0
173
     0
291
     1
 45
0.0
1001
ACAD
1000
AcDbSavedByObjectVersion
1070
     0
  0
VISUALSTYLE
  5
3A
102
{ACAD_REACTORS
330
2A
102
}
330
2A
100
AcDbVisualStyle
  2
ColorChange
 70
    16
 71
     2
 72
     2
 73
     3
 90
        0
 40
-0.6
 41
-30.0
 62
     5
 63
     8
 74
     1
 91
        4
 64
     7
 65
   257
 75
     1
175
     1
 42
1.0
 92
        8
 66
     8
 43
1.0
 76
     1
 77
     6
 78
     2
 67
     7
 79
     5
170
     0
171
     0
290
     0
174
     0
 93
        1
 44
0.0
173
     0
291
     1
 45
0.0
1001
ACAD
1000
AcDbSavedByObjectVersion
1070
     0
  0
VISUALSTYLE
  5
34
102
{ACAD_REACTORS
330
2A
102
}
330
2A
100
AcDbVisualStyle
  2
Conceptual
 70
     9
 71
     3
 72
     2
 73
     0
 90
        0
 40
-0.6
 41
-30.0
 62
     5
 63
     7
 74
     2
 91
        2
 64
     7
 65
   257
 75
     1
175
     1
 42
40.0
 92
        8
 66
     7
 43
1.0
 76
     1
 77
     6
 78
     2
 67
     7
 79
     3
170
     0
171
     0
290
     0
174
     0
 93
        1
 44
0.0
173
     0
291
     0
 45
0.0
1001
ACAD
1000
AcDbSavedByObjectVersion
1070
     0
  0
VISUALSTYLE
  5
35
102
{ACAD_REACTORS
330
2A
102
}
330
2A
100
AcDbVisualStyle
  2
Dim
 70
    11
 71
     2
 72
     2
 73
     0
 90
        0
 40
-0.6
 41
-30.0
 62
     5
 63
     7
 74
     1
 91
        4
 64
     7
 65
   257
 75
     1
175
     1
 42
1.0
 92
        8
 66
     7
 43
1.0
 76
     1
 77
     6
 78
     2
 67
     7
 79
     5
170
     0
171
     0
290
     0
174
     0
 93
        1
 44
-50.0
173
     0
291
     1
 45
0.0
1001
ACAD
1000
AcDbSavedByObjectVersion
1070
     0
  0
VISUALSTYLE
  5
39
102
{ACAD_REACTORS
330
2A
102
}
330
2A
100
AcDbVisualStyle
  2
Facepattern
 70
    15
 71
     2
 72
     2
 73
     0
 90
        0
 40
-0.6
 41
-30.0
 62
     5
 63
     7
 74
     1
 91
        4
 64
     7
 65
   257
 75
     1
175
     1
 42
1.0
 92
        8
 66
     7
 43
1.0
 76
     1
 77
     6
 78
     2
 67
     7
 79
     5
170
     0
171
     0
290
     0
174
     0
 93
        1
 44
0.0
173
     0
291
     1
 45
0.0
1001
ACAD
1000
AcDbSavedByObjectVersion
1070
     0
  0
VISUALSTYLE
  5
2B
102
{ACAD_REACTORS
330
2A
102
}
330
2A
100
AcDbVisualStyle
  2
Flat
 70
     0
 71
     2
 72
     1
 73
     1
 90
        2
 40
-0.6
 41
30.0
 62
     5
 63
     7
 74
     0
 91
        4
 64
     7
 65
   257
 75
     1
175
     1
 42
1.0
 92
        8
 66
     7
 43
1.0
 76
     1
 77
     6
 78
     2
 67
     7
 79
     5
170
     0
171
     0
290
     0
174
     0
 93
       13
 44
0.0
173
     0
291
     1
 45
0.0
1001
ACAD
1000
AcDbSavedByObjectVersion
1070
     0
  0
VISUALSTYLE
  5
2C
102
{ACAD_REACTORS
330
2A
102
}
330
2A
100
AcDbVisualStyle
  2
FlatWithEdges
 70
     1
 71
     2
 72
     1
 73
     1
 90
        2
 40
-0.6
 41
30.0
 62
     5
 63
     7
 74
     1
 91
        4
 64
     7
 65
   257
 75
     1
175
     1
 42
1.0
 92
        0
 66
   257
 43
1.0
 76
     1
 77
     6
 78
     2
 67
     7
 79
     5
170
     0
171
     0
290
     0
174
     0
 93
       13
 44
0.0
173
     0
291
     1
 45
0.0
1001
ACAD
1000
AcDbSavedByObjectVersion
1070
     0
  0
VISUALSTYLE
  5
2D
102
{ACAD_REACTORS
330
2A
102
}
330
2A
100
AcDbVisualStyle
  2
Gouraud
 70
     2
 71
     2
 72
     2
 73
     1
 90
        2
 40
-0.6
 41
30.0
 62
     5
 63
     7
 74
     0
 91
        4
 64
     7
 65
   257
 75
     1
175
     1
 42
1.0
 92
        0
 66
     7
 43
1.0
 76
     1
 77
     6
 78
     2
 67
     7
 79
     5
170
     0
171
     0
290
     0
174
     0
 93
       13
 44
0.0
173
     0
291
     1
 45
0.0
1001
ACAD
1000
AcDbSavedByObjectVersion
1070
     0
  0
VISUALSTYLE
  5
2E
102
{ACAD_REACTORS
330
2A
102
}
330
2A
100
AcDbVisualStyle
  2
GouraudWithEdges
 70
     3
 71
     2
 72
     2
 73
     1
 90
        2
 40
-0.6
 41
30.0
 62
     5
 63
     7
 74
     1
 91
        4
 64
     7
 65
   257
 75
     1
175
     1
 42
1.0
 92
        0
 66
   257
 43
1.0
 76
     1
 77
     6
 78
     2
 67
     7
 79
     5
170
     0
171
     0
290
     0
174
     0
 93
       13
 44
0.0
173
     0
291
     1
 45
0.0
1001
ACAD
1000
AcDbSavedByObjectVersion
1070
     0
  0
VISUALSTYLE
  5
38
102
{ACAD_REACTORS
330
2A
102
}
330
2A
100
AcDbVisualStyle
  2
Linepattern
 70
    14
 71
     2
 72
     2
 73
     0
 90
        0
 40
-0.6
 41
-30.0
 62
     5
 63
     7
 74
     1
 91
        4
 64
     7
 65
   257
 75
     7
175
     7
 42
1.0
 92
        8
 66
     7
 43
1.0
 76
     1
 77
     6
 78
     2
 67
     7
 79
     5
170
     0
171
     0
290
     0
174
     0
 93
        1
 44
0.0
173
     0
291
     1
 45
0.0
1001
ACAD
1000
AcDbSavedByObjectVersion
1070
     0
  0
VISUALSTYLE
  5
33
102
{ACAD_REACTORS
330
2A
102
}
330
2A
100
AcDbVisualStyle
  2
Realistic
 70
     8
 71
     2
 72
     2
 73
     0
 90
        0
 40
-0.6
 41
-30.0
 62
     5
 63
     7
 74
     1
 91
        0
 64
     7
 65
   257
 75
     1
175
     1
 42
1.0
 92
        8
 66
     8
 43
1.0
 76
     1
 77
     6
 78
     2
 67
     7
 79
     5
170
     0
171
     0
290
     0
174
     0
 93
       13
 44
0.0
173
     0
291
     0
 45
0.0
1001
ACAD
1000
AcDbSavedByObjectVersion
1070
     0
  0
VISUALSTYLE
  5
37
102
{ACAD_REACTORS
330
2A
102
}
330
2A
100
AcDbVisualStyle
  2
Thicken
 70
    13
 71
     2
 72
     2
 73
     0
 90
        0
 40
-0.6
 41
-30.0
 62
     5
 63
     7
 74
     1
 91
        4
 64
     7
 65
   257
 75
     1
175
     1
 42
1.0
 92
       12
 66
     7
 43
1.0
 76
     1
 77
     6
 78
     2
 67
     7
 79
     5
170
     0
171
     0
290
     0
174
     0
 93
        1
 44
0.0
173
     0
291
     1
 45
0.0
1001
ACAD
1000
AcDbSavedByObjectVersion
1070
     0
  0
DICTIONARYVAR
  5
127
102
{ACAD_REACTORS
330
124
102
}
330
124
100
DictionaryVariables
280
     0
  1
1:1
  0
ENDSEC
  0
EOF
