  0
SECTION
  2
HEADER
  9
$ACADVER
  1
AC1015
  9
$ACADMAINTVER
 70
     6
  9
$DWGCODEPAGE
  3
ANSI_1252
  9
$INSBASE
 10
0.0
 20
0.0
 30
0.0
  9
$EXTMIN
 10
-92.5870184188625
 20
-293.637040220684
 30
0.0
  9
$EXTMAX
 10
98.4228077773212
 20
-194.097734561942
 30
0.0
  9
$LIMMIN
 10
0.0
 20
0.0
  9
$LIMMAX
 10
12.0
 20
9.0
  9
$ORTHOMODE
 70
     0
  9
$REGENMODE
 70
     1
  9
$FILLMODE
 70
     1
  9
$QTEXTMODE
 70
     0
  9
$MIRRTEXT
 70
     1
  9
$LTSCALE
 40
1.0
  9
$ATTMODE
 70
     1
  9
$TEXTSIZE
 40
0.2
  9
$TRACEWID
 40
0.05
  9
$TEXTSTYLE
  7
Standard
  9
$CLAYER
  8
0
  9
$CELTYPE
  6
ByLayer
  9
$CECOLOR
 62
   256
  9
$CELTSCALE
 40
1.0
  9
$DISPSILH
 70
     0
  9
$DIMSCALE
 40
1.0
  9
$DIMASZ
 40
0.18
  9
$DIMEXO
 40
0.0625
  9
$DIMDLI
 40
0.38
  9
$DIMRND
 40
0.0
  9
$DIMDLE
 40
0.0
  9
$DIMEXE
 40
0.18
  9
$DIMTP
 40
0.0
  9
$DIMTM
 40
0.0
  9
$DIMTXT
 40
0.18
  9
$DIMCEN
 40
0.09
  9
$DIMTSZ
 40
0.0
  9
$DIMTOL
 70
     0
  9
$DIMLIM
 70
     0
  9
$DIMTIH
 70
     1
  9
$DIMTOH
 70
     1
  9
$DIMSE1
 70
     0
  9
$DIMSE2
 70
     0
  9
$DIMTAD
 70
     0
  9
$DIMZIN
 70
     0
  9
$DIMBLK
  1

  9
$DIMASO
 70
     1
  9
$DIMSHO
 70
     1
  9
$DIMPOST
  1

  9
$DIMAPOST
  1

  9
$DIMALT
 70
     0
  9
$DIMALTD
 70
     2
  9
$DIMALTF
 40
25.4
  9
$DIMLFAC
 40
1.0
  9
$DIMTOFL
 70
     0
  9
$DIMTVP
 40
0.0
  9
$DIMTIX
 70
     0
  9
$DIMSOXD
 70
     0
  9
$DIMSAH
 70
     0
  9
$DIMBLK1
  1

  9
$DIMBLK2
  1

  9
$DIMSTYLE
  2
Standard
  9
$DIMCLRD
 70
     0
  9
$DIMCLRE
 70
     0
  9
$DIMCLRT
 70
     0
  9
$DIMTFAC
 40
1.0
  9
$DIMGAP
 40
0.09
  9
$DIMJUST
 70
     0
  9
$DIMSD1
 70
     0
  9
$DIMSD2
 70
     0
  9
$DIMTOLJ
 70
     1
  9
$DIMTZIN
 70
     0
  9
$DIMALTZ
 70
     0
  9
$DIMALTTZ
 70
     0
  9
$DIMUPT
 70
     0
  9
$DIMDEC
 70
     4
  9
$DIMTDEC
 70
     4
  9
$DIMALTU
 70
     2
  9
$DIMALTTD
 70
     2
  9
$DIMTXSTY
  7
Standard
  9
$DIMAUNIT
 70
     0
  9
$DIMADEC
 70
     0
  9
$DIMALTRND
 40
0.0
  9
$DIMAZIN
 70
     0
  9
$DIMDSEP
 70
    46
  9
$DIMATFIT
 70
     3
  9
$DIMFRAC
 70
     0
  9
$DIMLDRBLK
  1

  9
$DIMLUNIT
 70
     2
  9
$DIMLWD
 70
    -2
  9
$DIMLWE
 70
    -2
  9
$DIMTMOVE
 70
     0
  9
$LUNITS
 70
     2
  9
$LUPREC
 70
     4
  9
$SKETCHINC
 40
0.1
  9
$FILLETRAD
 40
0.5
  9
$AUNITS
 70
     0
  9
$AUPREC
 70
     0
  9
$MENU
  1
.
  9
$ELEVATION
 40
0.0
  9
$PELEVATION
 40
0.0
  9
$THICKNESS
 40
0.0
  9
$LIMCHECK
 70
     0
  9
$CHAMFERA
 40
0.5
  9
$CHAMFERB
 40
0.5
  9
$CHAMFERC
 40
1.0
  9
$CHAMFERD
 40
0.0
  9
$SKPOLY
 70
     0
  9
$TDCREATE
 40
2455440.459615937
  9
$TDUCREATE
 40
2455440.376282604
  9
$TDUPDATE
 40
2455440.459615949
  9
$TDUUPDATE
 40
2455440.376282616
  9
$TDINDWG
 40
0.0000000116
  9
$TDUSRTIMER
 40
0.0000000116
  9
$USRTIMER
 70
     1
  9
$ANGBASE
 50
0.0
  9
$ANGDIR
 70
     0
  9
$PDMODE
 70
     0
  9
$PDSIZE
 40
0.0
  9
$PLINEWID
 40
0.0
  9
$SPLFRAME
 70
     0
  9
$SPLINETYPE
 70
     6
  9
$SPLINESEGS
 70
     8
  9
$HANDSEED
  5
177
  9
$SURFTAB1
 70
     6
  9
$SURFTAB2
 70
     6
  9
$SURFTYPE
 70
     6
  9
$SURFU
 70
     6
  9
$SURFV
 70
     6
  9
$UCSBASE
  2

  9
$UCSNAME
  2

  9
$UCSORG
 10
0.0
 20
0.0
 30
0.0
  9
$UCSXDIR
 10
1.0
 20
0.0
 30
0.0
  9
$UCSYDIR
 10
0.0
 20
1.0
 30
0.0
  9
$UCSORTHOREF
  2

  9
$UCSORTHOVIEW
 70
     0
  9
$UCSORGTOP
 10
0.0
 20
0.0
 30
0.0
  9
$UCSORGBOTTOM
 10
0.0
 20
0.0
 30
0.0
  9
$UCSORGLEFT
 10
0.0
 20
0.0
 30
0.0
  9
$UCSORGRIGHT
 10
0.0
 20
0.0
 30
0.0
  9
$UCSORGFRONT
 10
0.0
 20
0.0
 30
0.0
  9
$UCSORGBACK
 10
0.0
 20
0.0
 30
0.0
  9
$PUCSBASE
  2

  9
$PUCSNAME
  2

  9
$PUCSORG
 10
0.0
 20
0.0
 30
0.0
  9
$PUCSXDIR
 10
1.0
 20
0.0
 30
0.0
  9
$PUCSYDIR
 10
0.0
 20
1.0
 30
0.0
  9
$PUCSORTHOREF
  2

  9
$PUCSORTHOVIEW
 70
     0
  9
$PUCSORGTOP
 10
0.0
 20
0.0
 30
0.0
  9
$PUCSORGBOTTOM
 10
0.0
 20
0.0
 30
0.0
  9
$PUCSORGLEFT
 10
0.0
 20
0.0
 30
0.0
  9
$PUCSORGRIGHT
 10
0.0
 20
0.0
 30
0.0
  9
$PUCSORGFRONT
 10
0.0
 20
0.0
 30
0.0
  9
$PUCSORGBACK
 10
0.0
 20
0.0
 30
0.0
  9
$USERI1
 70
     0
  9
$USERI2
 70
     0
  9
$USERI3
 70
     0
  9
$USERI4
 70
     0
  9
$USERI5
 70
     0
  9
$USERR1
 40
16.5
  9
$USERR2
 40
0.0
  9
$USERR3
 40
0.0
  9
$USERR4
 40
0.0
  9
$USERR5
 40
0.0
  9
$WORLDVIEW
 70
     1
  9
$SHADEDGE
 70
     3
  9
$SHADEDIF
 70
    70
  9
$TILEMODE
 70
     1
  9
$MAXACTVP
 70
    64
  9
$PINSBASE
 10
0.0
 20
0.0
 30
0.0
  9
$PLIMCHECK
 70
     0
  9
$PEXTMIN
 10
1.00000000000000E+20
 20
1.00000000000000E+20
 30
1.00000000000000E+20
  9
$PEXTMAX
 10
-1.00000000000000E+20
 20
-1.00000000000000E+20
 30
-1.00000000000000E+20
  9
$PLIMMIN
 10
0.0
 20
0.0
  9
$PLIMMAX
 10
12.0
 20
9.0
  9
$UNITMODE
 70
     0
  9
$VISRETAIN
 70
     1
  9
$PLINEGEN
 70
     0
  9
$PSLTSCALE
 70
     1
  9
$TREEDEPTH
 70
  3020
  9
$CMLSTYLE
  2
Standard
  9
$CMLJUST
 70
     0
  9
$CMLSCALE
 40
1.0
  9
$PROXYGRAPHICS
 70
     1
  9
$MEASUREMENT
 70
     1
  9
$CELWEIGHT
370
    -1
  9
$ENDCAPS
280
     0
  9
$JOINSTYLE
280
     0
  9
$LWDISPLAY
290
     0
  9
$INSUNITS
 70
     1
  9
$HYPERLINKBASE
  1

  9
$STYLESHEET
  1

  9
$XEDIT
290
     1
  9
$CEPSNTYPE
380
     0
  9
$PSTYLEMODE
290
     1
  9
$FINGERPRINTGUID
  2
{2EF756E5-08FF-4609-92E1-365320C719CD}
  9
$VERSIONGUID
  2
{FAEB1C32-E019-11D5-929B-00C0DF256EC4}
  9
$EXTNAMES
290
     1
  9
$PSVPSCALE
 40
0.0
  9
$OLESTARTUP
290
     0
  0
ENDSEC
  0
SECTION
  2
CLASSES
  0
CLASS
  1
ACDBDICTIONARYWDFLT
  2
AcDbDictionaryWithDefault
  3
ObjectDBX Classes
 90
        0
280
     0
281
     0
  0
CLASS
  1
VISUALSTYLE
  2
AcDbVisualStyle
  3
ObjectDBX Classes
 90
     4095
280
     0
281
     0
  0
CLASS
  1
SCALE
  2
AcDbScale
  3
ObjectDBX Classes
 90
     1153
280
     0
281
     0
  0
CLASS
  1

  2
exOdDbPolyline
  3

 90
        0
280
     0
281
     1
  0
CLASS
  1
DICTIONARYVAR
  2
AcDbDictionaryVar
  3
ObjectDBX Classes
 90
        0
280
     0
281
     0
  0
CLASS
  1
ACDBPLACEHOLDER
  2
AcDbPlaceHolder
  3
ObjectDBX Classes
 90
        0
280
     0
281
     0
  0
CLASS
  1
LAYOUT
  2
AcDbLayout
  3
ObjectDBX Classes
 90
        0
280
     0
281
     0
  0
ENDSEC
  0
SECTION
  2
TABLES
  0
TABLE
  2
VPORT
  5
8
330
0
100
AcDbSymbolTable
 70
     1
  0
VPORT
  5
29
330
8
100
AcDbSymbolTableRecord
100
AcDbViewportTableRecord
  2
*Active
 70
     0
 10
0.0
 20
0.0
 11
1.0
 21
1.0
 12
2.91789467922935
 22
-243.867387391313
 13
0.0
 23
0.0
 14
0.5
 24
0.5
 15
0.5
 25
0.5
 16
0.0
 26
0.0
 36
1.0
 17
0.0
 27
0.0
 37
0.0
 40
131.0997804310298
 41
1.60267857142857
 42
50.0
 43
0.0
 44
0.0
 50
0.0
 51
0.0
 71
     0
 72
   100
 73
     1
 74
     3
 75
     0
 76
     0
 77
     0
 78
     0
281
     0
 65
     1
110
0.0
120
0.0
130
0.0
111
1.0
121
0.0
131
0.0
112
0.0
122
1.0
132
0.0
 79
     0
146
0.0
  0
ENDTAB
  0
TABLE
  2
LTYPE
  5
5
330
0
100
AcDbSymbolTable
 70
     8
  0
LTYPE
  5
14
330
5
100
AcDbSymbolTableRecord
100
AcDbLinetypeTableRecord
  2
ByBlock
 70
     0
  3

 72
    65
 73
     0
 40
0.0
  0
LTYPE
  5
15
330
5
100
AcDbSymbolTableRecord
100
AcDbLinetypeTableRecord
  2
ByLayer
 70
     0
  3

 72
    65
 73
     0
 40
0.0
  0
LTYPE
  5
16
330
5
100
AcDbSymbolTableRecord
100
AcDbLinetypeTableRecord
  2
Continuous
 70
     0
  3
Solid line
 72
    65
 73
     0
 40
0.0
  0
LTYPE
  5
3B
330
5
100
AcDbSymbolTableRecord
100
AcDbLinetypeTableRecord
  2
DASHED
 70
     0
  3
Dashed
 72
    65
 73
     2
 40
15.0
 49
7.0
 74
     0
 49
-8.0
 74
     0
  0
LTYPE
  5
3C
330
5
100
AcDbSymbolTableRecord
100
AcDbLinetypeTableRecord
  2
DOTTED
 70
     0
  3
Dotted
 72
    65
 73
     2
 40
1.0
 49
0.0
 74
     0
 49
-1.0
 74
     0
  0
LTYPE
  5
3D
330
5
100
AcDbSymbolTableRecord
100
AcDbLinetypeTableRecord
  2
DOT_CENTER
 70
     0
  3
Dot_Center
 72
    65
 73
     4
 40
14.0
 49
12.0
 74
     0
 49
-1.0
 74
     0
 49
0.0
 74
     0
 49
-1.0
 74
     0
  0
LTYPE
  5
3E
330
5
100
AcDbSymbolTableRecord
100
AcDbLinetypeTableRecord
  2
LONG_DASHED
 70
     0
  3
Long_Dashed
 72
    65
 73
     2
 40
15.0
 49
10.0
 74
     0
 49
-5.0
 74
     0
  0
LTYPE
  5
3F
330
5
100
AcDbSymbolTableRecord
100
AcDbLinetypeTableRecord
  2
DASH_CENTER
 70
     0
  3
Dash_Center
 72
    65
 73
     4
 40
14.0
 49
11.0
 74
     0
 49
-1.0
 74
     0
 49
1.0
 74
     0
 49
-1.0
 74
     0
  0
LTYPE
  5
40
330
5
100
AcDbSymbolTableRecord
100
AcDbLinetypeTableRecord
  2
PHANTOM
 70
     0
  3
Phantom
 72
    65
 73
     6
 40
13.0
 49
10.0
 74
     0
 49
-1.0
 74
     0
 49
0.0
 74
     0
 49
-1.0
 74
     0
 49
0.0
 74
     0
 49
-1.0
 74
     0
  0
LTYPE
  5
41
330
5
100
AcDbSymbolTableRecord
100
AcDbLinetypeTableRecord
  2
CENTER_DASH_DASH
 70
     0
  3
Center_Dash_Dash
 72
    65
 73
     6
 40
14.0
 49
9.0
 74
     0
 49
-1.0
 74
     0
 49
1.0
 74
     0
 49
-1.0
 74
     0
 49
1.0
 74
     0
 49
-1.0
 74
     0
  0
ENDTAB
  0
TABLE
  2
LAYER
  5
2
330
0
100
AcDbSymbolTable
 70
     4
  0
LAYER
  5
10
330
2
100
AcDbSymbolTableRecord
100
AcDbLayerTableRecord
  2
0
 70
     0
 62
     7
  6
Continuous
370
    -3
390
F
  0
LAYER
  5
42
330
2
100
AcDbSymbolTableRecord
100
AcDbLayerTableRecord
  2
1
 70
     0
 62
     7
  6
Continuous
370
    -3
390
F
  0
LAYER
  5
43
330
2
100
AcDbSymbolTableRecord
100
AcDbLayerTableRecord
  2
10
 70
     0
 62
     7
  6
Continuous
370
    -3
390
F
  0
LAYER
  5
44
330
2
100
AcDbSymbolTableRecord
100
AcDbLayerTableRecord
  2
RAHMEN
 70
     0
 62
     7
  6
Continuous
370
    -3
390
F
  0
ENDTAB
  0
TABLE
  2
STYLE
  5
3
330
0
100
AcDbSymbolTable
 70
     7
  0
STYLE
  5
11
330
3
100
AcDbSymbolTableRecord
100
AcDbTextStyleTableRecord
  2
Standard
 70
     0
 40
0.0
 41
1.0
 50
0.0
 71
     0
 42
0.2
  3
txt
  4

  0
STYLE
  5
6F
330
3
100
AcDbSymbolTableRecord
100
AcDbTextStyleTableRecord
  2
CONVERTER_11
 70
     0
 40
0.0
 41
0.8313993
 50
0.0
 71
     0
 42
0.2
  3
txt.shx
  4

  0
STYLE
  5
73
330
3
100
AcDbSymbolTableRecord
100
AcDbTextStyleTableRecord
  2
CONVERTER_12
 70
     0
 40
0.0
 41
0.9171099
 50
0.0
 71
     0
 42
0.2
  3
txt.shx
  4

  0
STYLE
  5
75
330
3
100
AcDbSymbolTableRecord
100
AcDbTextStyleTableRecord
  2
CONVERTER_13
 70
     0
 40
0.0
 41
0.8571123
 50
0.0
 71
     0
 42
0.2
  3
txt.shx
  4

  0
STYLE
  5
118
330
3
100
AcDbSymbolTableRecord
100
AcDbTextStyleTableRecord
  2
CONVERTER_14
 70
     0
 40
0.0
 41
0.81378966159389
 50
0.0
 71
     0
 42
0.2
  3
txt.shx
  4

  0
STYLE
  5
12B
330
3
100
AcDbSymbolTableRecord
100
AcDbTextStyleTableRecord
  2
CONVERTER_15
 70
     0
 40
0.0
 41
0.72
 50
0.0
 71
     0
 42
0.2
  3
txt.shx
  4

  0
STYLE
  5
138
330
3
100
AcDbSymbolTableRecord
100
AcDbTextStyleTableRecord
  2
CONVERTER_16
 70
     0
 40
0.0
 41
0.76
 50
0.0
 71
     0
 42
0.2
  3
simplex.shx
  4

  0
ENDTAB
  0
TABLE
  2
VIEW
  5
6
330
0
100
AcDbSymbolTable
 70
     0
  0
ENDTAB
  0
TABLE
  2
UCS
  5
7
330
0
100
AcDbSymbolTable
 70
     0
  0
ENDTAB
  0
TABLE
  2
APPID
  5
9
330
0
100
AcDbSymbolTable
 70
     1
  0
APPID
  5
12
330
9
100
AcDbSymbolTableRecord
100
AcDbRegAppTableRecord
  2
ACAD
 70
     0
  0
ENDTAB
  0
TABLE
  2
DIMSTYLE
  5
A
330
0
100
AcDbSymbolTable
 70
     7
100
AcDbDimStyleTable
  0
DIMSTYLE
105
27
330
A
100
AcDbSymbolTableRecord
100
AcDbDimStyleTableRecord
  2
Standard
 70
     0
340
11
  0
DIMSTYLE
105
12F
102
{ACAD_REACTORS
330
130
102
}
330
A
100
AcDbSymbolTableRecord
100
AcDbDimStyleTableRecord
  2
ME10_DIM_10
 70
     0
  3
\U+2300<>
 41
3.5
 42
2.0
 44
2.0
 71
     1
 73
     0
 74
     0
 77
     1
 78
     8
140
3.5
146
0.7
147
2.0
172
     1
173
     1
176
     2
177
     2
178
     3
271
     2
272
     0
340
12B
  0
DIMSTYLE
105
13C
102
{ACAD_REACTORS
330
13D
102
}
330
A
100
AcDbSymbolTableRecord
100
AcDbDimStyleTableRecord
  2
ME10_DIM_11
 70
     0
  3
\U+2300<>
 41
3.5
 42
1.3
 44
1.0
 71
     1
 73
     0
 74
     0
 77
     1
 78
     8
140
3.5
146
0.7
147
1.2
172
     1
173
     1
176
     2
177
     2
178
     3
271
     2
272
     0
340
138
  0
DIMSTYLE
105
147
102
{ACAD_REACTORS
330
148
102
}
330
A
100
AcDbSymbolTableRecord
100
AcDbDimStyleTableRecord
  2
ME10_DIM_12
 70
     0
  3
<>
 41
3.5
 42
1.3
 44
1.0
 71
     1
 73
     0
 74
     0
 77
     1
 78
     8
140
3.5
146
0.7
147
1.2
172
     1
173
     1
176
     2
177
     2
178
     3
271
     2
272
     0
340
138
  0
DIMSTYLE
105
152
102
{ACAD_REACTORS
330
153
102
}
330
A
100
AcDbSymbolTableRecord
100
AcDbDimStyleTableRecord
  2
ME10_DIM_13
 70
     0
  3
<>
 41
3.5
 42
1.3
 44
1.0
 71
     1
 73
     0
 74
     0
 77
     1
 78
     8
140
3.5
146
0.7
147
1.2
172
     1
173
     1
176
     2
177
     2
178
     3
271
     2
272
     0
340
138
  0
DIMSTYLE
105
15D
102
{ACAD_REACTORS
330
15E
102
}
330
A
100
AcDbSymbolTableRecord
100
AcDbDimStyleTableRecord
  2
ME10_DIM_14
 70
     0
  3
<>
 41
3.5
 42
1.3
 44
1.0
 71
     1
 73
     0
 74
     0
 77
     1
 78
     8
140
3.5
146
0.7
147
1.2
172
     1
173
     1
176
     2
177
     2
178
     3
271
     2
272
     0
340
138
  0
DIMSTYLE
105
171
102
{ACAD_REACTORS
330
172
102
}
330
A
100
AcDbSymbolTableRecord
100
AcDbDimStyleTableRecord
  2
ME10_DIM_15
 70
     0
  3
<>
 41
3.5
 42
1.3
 44
1.0
 71
     1
 73
     0
 74
     0
 77
     1
 78
     8
140
3.5
146
0.7
147
1.2
172
     1
173
     1
176
     2
177
     2
178
     3
271
     2
272
     0
340
138
  0
ENDTAB
  0
TABLE
  2
BLOCK_RECORD
  5
1
330
0
100
AcDbSymbolTable
 70
    10
  0
BLOCK_RECORD
  5
1F
330
1
100
AcDbSymbolTableRecord
100
AcDbBlockTableRecord
  2
*Model_Space
340
22
  0
BLOCK_RECORD
  5
1B
330
1
100
AcDbSymbolTableRecord
100
AcDbBlockTableRecord
  2
*Paper_Space
340
1E
  0
BLOCK_RECORD
  5
23
330
1
100
AcDbSymbolTableRecord
100
AcDbBlockTableRecord
  2
*Paper_Space0
340
26
  0
BLOCK_RECORD
  5
45
330
1
100
AcDbSymbolTableRecord
100
AcDbBlockTableRecord
  2
Urheberrecht
340
0
102
{BLKREFS
331
6D
102
}
  0
BLOCK_RECORD
  5
48
330
1
100
AcDbSymbolTableRecord
100
AcDbBlockTableRecord
  2
IGS1
340
0
102
{BLKREFS
331
6E
102
}
  0
BLOCK_RECORD
  5
123
330
1
100
AcDbSymbolTableRecord
100
AcDbBlockTableRecord
  2
*D3
340
0
  0
BLOCK_RECORD
  5
131
330
1
100
AcDbSymbolTableRecord
100
AcDbBlockTableRecord
  2
*D4
340
0
  0
BLOCK_RECORD
  5
13E
330
1
100
AcDbSymbolTableRecord
100
AcDbBlockTableRecord
  2
*D5
340
0
  0
BLOCK_RECORD
  5
149
330
1
100
AcDbSymbolTableRecord
100
AcDbBlockTableRecord
  2
*D6
340
0
  0
BLOCK_RECORD
  5
154
330
1
100
AcDbSymbolTableRecord
100
AcDbBlockTableRecord
  2
*D7
340
0
  0
BLOCK_RECORD
  5
15F
330
1
100
AcDbSymbolTableRecord
100
AcDbBlockTableRecord
  2
*D8
340
0
102
{BLKREFS
331
165
102
}
  0
BLOCK_RECORD
  5
166
330
1
100
AcDbSymbolTableRecord
100
AcDbBlockTableRecord
  2
*D9
340
0
  0
ENDTAB
  0
ENDSEC
  0
SECTION
  2
BLOCKS
  0
BLOCK
  5
20
330
1F
100
AcDbEntity
  8
0
100
AcDbBlockBegin
  2
*Model_Space
 70
     0
 10
0.0
 20
0.0
 30
0.0
  3
*Model_Space
  1

  0
ENDBLK
  5
21
330
1F
100
AcDbEntity
  8
0
100
AcDbBlockEnd
  0
BLOCK
  5
1C
330
1B
100
AcDbEntity
 67
     1
  8
0
100
AcDbBlockBegin
  2
*Paper_Space
 70
     0
 10
0.0
 20
0.0
 30
0.0
  3
*Paper_Space
  1

  0
ENDBLK
  5
1D
330
1B
100
AcDbEntity
 67
     1
  8
0
100
AcDbBlockEnd
  0
BLOCK
  5
24
330
23
100
AcDbEntity
  8
0
100
AcDbBlockBegin
  2
*Paper_Space0
 70
     0
 10
0.0
 20
0.0
 30
0.0
  3
*Paper_Space0
  1

  0
ENDBLK
  5
25
330
23
100
AcDbEntity
  8
0
100
AcDbBlockEnd
  0
BLOCK
  5
46
330
45
100
AcDbEntity
  8
0
100
AcDbBlockBegin
  2
Urheberrecht
 70
     0
 10
-92.5870184188625
 20
-282.929698736965
 30
0.0
  3
Urheberrecht
  1

  0
MTEXT
  5
70
330
45
100
AcDbEntity
  8
RAHMEN
 62
     1
100
AcDbMText
 10
-90.5870184188625
 20
-282.929698736965
 30
0.0
 40
2.0
 41
0.0
 71
     7
 72
     1
  1
F\U+00fcr diese Unterlage behalten wir das Ur-
  7
CONVERTER_11
 11
6.123031769111886E-17
 21
1.0
 31
0.0
 73
     1
 44
1.32052821128451
  0
MTEXT
  5
71
330
45
100
AcDbEntity
  8
RAHMEN
 62
     1
100
AcDbMText
 10
-87.5870184188625
 20
-282.929698736965
 30
0.0
 40
2.0
 41
0.0
 71
     7
 72
     1
  1
heberrecht. Sie darf nur f\U+00fcr den von uns
  7
CONVERTER_11
 11
6.123031769111886E-17
 21
1.0
 31
0.0
 73
     1
 44
1.32052821128451
  0
MTEXT
  5
72
330
45
100
AcDbEntity
  8
RAHMEN
 62
     1
100
AcDbMText
 10
-84.5870184188625
 20
-282.929698736965
 30
0.0
 40
2.0
 41
0.0
 71
     7
 72
     1
  1
bestimmten Zweck benutzt und ohne unsere
  7
CONVERTER_11
 11
6.123031769111886E-17
 21
1.0
 31
0.0
 73
     1
 44
1.32052821128451
  0
MTEXT
  5
74
330
45
100
AcDbEntity
  8
RAHMEN
 62
     1
100
AcDbMText
 10
-81.5870184188625
 20
-282.929698736965
 30
0.0
 40
2.0
 41
0.0
 71
     7
 72
     1
  1
Zustimmung weder vervielf\U+00e4ltigt noch
  7
CONVERTER_12
 11
6.123031769111886E-17
 21
1.0
 31
0.0
 73
     1
 44
1.32052821128451
  0
MTEXT
  5
76
330
45
100
AcDbEntity
  8
RAHMEN
 62
     1
100
AcDbMText
 10
-78.5870184188625
 20
-282.929698736965
 30
0.0
 40
2.0
 41
0.0
 71
     7
 72
     1
  1
Dritten zug\U+00e4nglich gemacht werden.
  7
CONVERTER_13
 11
6.123031769111886E-17
 21
1.0
 31
0.0
 73
     1
 44
1.32052821128451
  0
ENDBLK
  5
47
330
45
100
AcDbEntity
  8
0
100
AcDbBlockEnd
  0
BLOCK
  5
49
330
48
100
AcDbEntity
  8
0
100
AcDbBlockBegin
  2
IGS1
 70
     0
 10
13.935
 20
-254.105
 30
0.0
  3
IGS1
  1

  0
POINT
  5
77
330
48
100
AcDbEntity
  8
10
 62
   250
100
AcDbPoint
 10
76.008
 20
-253.664
 30
0.0
  0
POINT
  5
78
330
48
100
AcDbEntity
  8
10
 62
   250
100
AcDbPoint
 10
76.00800000000001
 20
-253.164
 30
0.0
  0
POINT
  5
79
330
48
100
AcDbEntity
  8
10
 62
   250
100
AcDbPoint
 10
76.009
 20
-255.098
 30
0.0
  0
LWPOLYLINE
  5
7A
102
{ACAD_REACTORS
330
11A
330
11A
102
}
330
48
100
AcDbEntity
  8
1
  6
Continuous
 62
     7
100
AcDbPolyline
 90
        2
 70
     0
 43
0.5
 10
5.108
 20
-253.305
 10
-27.31120000000022
 20
-253.305
  0
LWPOLYLINE
  5
7B
102
{ACAD_REACTORS
330
11C
330
11C
102
}
330
48
100
AcDbEntity
  8
1
  6
Continuous
 62
     7
100
AcDbPolyline
 90
        2
 70
     0
 43
0.5
 10
9.10800000000001
 20
-246.505
 10
48.48086248691307
 20
-246.505
  0
LWPOLYLINE
  5
7C
330
48
100
AcDbEntity
  8
1
  6
Continuous
 62
     7
100
AcDbPolyline
 90
        2
 70
     0
 43
0.5
 10
-27.31120000000022
 20
-253.305
 10
-27.3112000000002
 20
-246.505
  0
LWPOLYLINE
  5
7D
102
{ACAD_REACTORS
330
11B
330
11B
102
}
330
48
100
AcDbEntity
  8
1
  6
Continuous
 62
     7
100
AcDbPolyline
 90
        2
 70
     0
 43
0.5
 10
63.33001972406811
 20
-253.0792962844435
 10
63.19970962313449
 20
-253.305
  0
LWPOLYLINE
  5
7E
330
48
100
AcDbEntity
  8
1
  6
Continuous
 62
     7
100
AcDbPolyline
 90
        2
 70
     0
 43
0.5
 10
63.33001972406807
 20
-246.7307037155563
 10
64.00799999999998
 20
-247.905
  0
LWPOLYLINE
  5
7F
330
48
100
AcDbEntity
  8
1
  6
Continuous
 62
     7
100
AcDbPolyline
 90
        2
 70
     0
 43
0.5
 10
63.19970962313449
 20
-246.505
 10
63.19970962313449
 20
-253.305
  0
LWPOLYLINE
  5
80
102
{ACAD_REACTORS
330
11B
330
11B
102
}
330
48
100
AcDbEntity
  8
1
  6
Continuous
 62
     7
100
AcDbPolyline
 90
        2
 70
     0
 43
0.5
 10
63.19970962313449
 20
-253.305
 10
53.98628998953217
 20
-253.305
  0
LWPOLYLINE
  5
81
330
48
100
AcDbEntity
  8
1
  6
PHANTOM
 62
     7
100
AcDbPolyline
 90
        2
 70
     0
 43
0.25
 10
15.108
 20
-240.1120660543807
 10
14.108
 20
-240.1120660543807
  0
LWPOLYLINE
  5
82
102
{ACAD_REACTORS
330
11B
330
11B
330
11F
330
11F
102
}
330
48
100
AcDbEntity
  8
1
  6
Continuous
 62
     7
100
AcDbPolyline
 90
        2
 70
     0
 43
0.25
 10
15.108
 20
-267.0930578788849
 10
15.108
 20
-259.6979339456192
  0
LWPOLYLINE
  5
83
102
{ACAD_REACTORS
330
11B
330
11B
330
11F
330
11F
102
}
330
48
100
AcDbEntity
  8
1
  6
Continuous
 62
     7
100
AcDbPolyline
 90
        2
 70
     0
 43
0.25
 10
22.48032723417724
 20
-259.1177192090199
 10
15.108
 20
-259.6979339456192
  0
LWPOLYLINE
  5
84
102
{ACAD_REACTORS
330
11C
330
11C
330
11E
330
11E
102
}
330
48
100
AcDbEntity
  8
1
  6
Continuous
 62
     7
100
AcDbPolyline
 90
        2
 70
     0
 43
0.25
 10
22.48032723417725
 20
-240.6922807909801
 10
15.108
 20
-240.1120660543807
  0
LWPOLYLINE
  5
85
102
{ACAD_REACTORS
330
11C
330
11C
330
11E
330
11E
102
}
330
48
100
AcDbEntity
  8
1
  6
Continuous
 62
     7
100
AcDbPolyline
 90
        2
 70
     0
 43
0.25
 10
15.108
 20
-232.716942121115
 10
15.108
 20
-240.1120660543807
  0
LWPOLYLINE
  5
86
330
48
100
AcDbEntity
  8
1
  6
Continuous
 62
     7
100
AcDbPolyline
 90
        2
 70
     0
 43
0.25
 10
75.27076727658226
 20
-244.84697852634
 10
76.00799999999998
 20
-244.905
  0
LWPOLYLINE
  5
87
330
48
100
AcDbEntity
  8
1
  6
Continuous
 62
     7
100
AcDbPolyline
 90
        2
 70
     0
 43
0.25
 10
76.00799999999998
 20
-245.6445123933265
 10
76.00799999999998
 20
-244.905
  0
LWPOLYLINE
  5
88
330
48
100
AcDbEntity
  8
1
  6
Continuous
 62
     7
100
AcDbPolyline
 90
        2
 70
     0
 43
0.25
 10
76.00799999999998
 20
-254.1654876066734
 10
76.00799999999998
 20
-254.905
  0
LWPOLYLINE
  5
89
330
48
100
AcDbEntity
  8
1
  6
Continuous
 62
     7
100
AcDbPolyline
 90
        2
 70
     0
 43
0.25
 10
75.27076727658226
 20
-254.9630214736599
 10
76.00799999999998
 20
-254.905
  0
LWPOLYLINE
  5
8A
330
48
100
AcDbEntity
  8
1
  6
Continuous
 62
     7
100
AcDbPolyline
 90
        2
 70
     0
 43
0.25
 10
76.00799999999998
 20
-247.190925996629
 10
76.00799999999998
 20
-247.5410297657338
  0
LWPOLYLINE
  5
8B
330
48
100
AcDbEntity
  8
1
  6
Continuous
 62
     7
100
AcDbPolyline
 90
        2
 70
     0
 43
0.5
 10
76.00799999999998
 20
-247.5410297657338
 10
76.00799999999998
 20
-252.2689702342662
  0
LWPOLYLINE
  5
8C
330
48
100
AcDbEntity
  8
1
  6
Continuous
 62
     7
100
AcDbPolyline
 90
        2
 70
     0
 43
0.25
 10
75.67901007166284
 20
-247.6607723070219
 10
76.00799999999998
 20
-247.5410297657338
  0
LWPOLYLINE
  5
8D
330
48
100
AcDbEntity
  8
1
  6
Continuous
 62
     7
100
AcDbPolyline
 90
        2
 70
     0
 43
0.25
 10
75.67901007166284
 20
-252.1492276929781
 10
76.00799999999998
 20
-252.2689702342662
  0
LWPOLYLINE
  5
8E
330
48
100
AcDbEntity
  8
1
  6
Continuous
 62
     7
100
AcDbPolyline
 90
        2
 70
     0
 43
0.5
 10
76.00799999999998
 20
-252.2689702342662
 10
76.00799999999998
 20
-252.6190740033711
  0
LWPOLYLINE
  5
8F
330
48
100
AcDbEntity
  8
1
  6
Continuous
 62
     7
100
AcDbPolyline
 90
        2
 70
     0
 43
0.25
 10
76.00799999999998
 20
-252.6190740033711
 10
76.00799999999998
 20
-252.2689702342662
  0
LWPOLYLINE
  5
90
330
48
100
AcDbEntity
  8
1
  6
Continuous
 62
     7
100
AcDbPolyline
 90
        2
 70
     0
 43
0.5
 10
76.00799999999998
 20
-253.655
 10
76.00799999999998
 20
-252.6190740033711
  0
LWPOLYLINE
  5
91
102
{ACAD_REACTORS
330
11B
330
11B
102
}
330
48
100
AcDbEntity
  8
1
  6
Continuous
 62
     7
100
AcDbPolyline
 90
        2
 70
     0
 43
0.5
 10
76.00799999999998
 20
-254.1654876066734
 10
76.00799999999998
 20
-253.655
  0
LWPOLYLINE
  5
92
102
{ACAD_REACTORS
330
11C
330
11C
102
}
330
48
100
AcDbEntity
  8
1
  6
Continuous
 62
     7
100
AcDbPolyline
 90
        2
 70
     0
 43
0.5
 10
53.98628998953217
 20
-246.505
 10
63.19970962313449
 20
-246.505
  0
LWPOLYLINE
  5
93
102
{ACAD_REACTORS
330
11B
330
11B
102
}
330
48
100
AcDbEntity
  8
1
  6
Continuous
 62
     7
100
AcDbPolyline
 90
        2
 70
     0
 43
0.5
 10
53.98628998953217
 20
-253.305
 10
48.48086248691752
 20
-253.305
  0
LWPOLYLINE
  5
94
102
{ACAD_REACTORS
330
11B
330
11B
102
}
330
48
100
AcDbEntity
  8
1
  6
Continuous
 62
     7
100
AcDbPolyline
 90
        2
 70
     0
 43
0.5
 10
63.33001972406811
 20
-253.0792962844435
 10
76.00799999999998
 20
-253.655
  0
LWPOLYLINE
  5
95
102
{ACAD_REACTORS
330
11C
330
11C
102
}
330
48
100
AcDbEntity
  8
1
  6
Continuous
 62
     7
100
AcDbPolyline
 90
        2
 70
     0
 43
0.5
 10
76.00799999999998
 20
-246.155
 10
76.00799999999998
 20
-245.6445123933265
  0
LWPOLYLINE
  5
96
102
{ACAD_REACTORS
330
11C
330
11C
102
}
330
48
100
AcDbEntity
  8
1
  6
Continuous
 62
     7
100
AcDbPolyline
 90
        2
 70
     0
 43
0.5
 10
76.00799999999998
 20
-246.155
 10
63.33001972406807
 20
-246.7307037155563
  0
LWPOLYLINE
  5
97
102
{ACAD_REACTORS
330
11D
330
11D
102
}
330
48
100
AcDbEntity
  8
1
  6
Continuous
 62
     7
100
AcDbPolyline
 90
        2
 70
     0
 43
0.5
 10
-27.3112000000002
 20
-246.505
 10
5.108
 20
-246.505
  0
LWPOLYLINE
  5
98
330
48
100
AcDbEntity
  8
1
  6
Continuous
 62
     7
100
AcDbPolyline
 90
        2
 70
     0
 43
0.5
 10
76.00799999999998
 20
-247.190925996629
 10
76.00799999999998
 20
-246.155
  0
LWPOLYLINE
  5
99
330
48
100
AcDbEntity
  8
1
  6
Continuous
 62
     7
100
AcDbPolyline
 90
        2
 70
     0
 43
0.5
 10
76.00799999999998
 20
-247.190925996629
 10
76.00799999999998
 20
-247.5410297657338
  0
LWPOLYLINE
  5
9A
330
48
100
AcDbEntity
  8
1
  6
Continuous
 62
     7
100
AcDbPolyline
 90
        2
 70
     0
 43
0.5
 10
75.00799999999998
 20
-247.905
 10
75.00799999999998
 20
-251.905
  0
LWPOLYLINE
  5
9B
330
48
100
AcDbEntity
  8
1
  6
Continuous
 62
     7
100
AcDbPolyline
 90
        2
 70
     0
 43
0.5
 10
64.00799999999998
 20
-251.905
 10
64.00799999999998
 20
-247.905
  0
LWPOLYLINE
  5
9C
102
{ACAD_REACTORS
330
11B
330
11B
102
}
330
48
100
AcDbEntity
  8
1
  6
Continuous
 62
     7
100
AcDbPolyline
 90
        2
 70
     0
 43
0.5
 10
22.48032723417724
 20
-259.1177192090199
 10
75.27076727658226
 20
-254.9630214736599
  0
LWPOLYLINE
  5
9D
330
48
100
AcDbEntity
  8
1
  6
Continuous
 62
     7
100
AcDbPolyline
 90
        2
 70
     0
 43
0.5
 10
75.67901007166284
 20
-252.1492276929781
 10
75.00799999999998
 20
-251.905
  0
LWPOLYLINE
  5
9E
330
48
100
AcDbEntity
  8
1
  6
Continuous
 62
     7
100
AcDbPolyline
 90
        2
 70
     0
 43
0.5
 10
75.00799999999998
 20
-251.905
 10
64.00799999999998
 20
-251.905
  0
LWPOLYLINE
  5
9F
330
48
100
AcDbEntity
  8
1
  6
Continuous
 62
     7
100
AcDbPolyline
 90
        2
 70
     0
 43
0.5
 10
75.00799999999998
 20
-251.905
 10
64.00799999999998
 20
-251.905
  0
LWPOLYLINE
  5
A0
330
48
100
AcDbEntity
  8
1
  6
Continuous
 62
     7
100
AcDbPolyline
 90
        2
 70
     0
 43
0.5
 10
64.00799999999998
 20
-251.905
 10
63.33001972406811
 20
-253.0792962844435
  0
LWPOLYLINE
  5
A1
102
{ACAD_REACTORS
330
11C
330
11C
102
}
330
48
100
AcDbEntity
  8
1
  6
Continuous
 62
     7
100
AcDbPolyline
 90
        2
 70
     0
 43
0.5
 10
75.27076727658226
 20
-244.84697852634
 10
22.48032723417725
 20
-240.6922807909801
  0
LWPOLYLINE
  5
A2
330
48
100
AcDbEntity
  8
1
  6
Continuous
 62
     7
100
AcDbPolyline
 90
        2
 70
     0
 43
0.5
 10
75.00799999999998
 20
-247.905
 10
75.67901007166284
 20
-247.6607723070219
  0
LWPOLYLINE
  5
A3
102
{ACAD_REACTORS
330
11C
330
11C
102
}
330
48
100
AcDbEntity
  8
1
  6
Continuous
 62
     7
100
AcDbPolyline
 90
        2
 70
     0
 43
0.5
 10
63.19970962313449
 20
-246.505
 10
63.33001972406807
 20
-246.7307037155563
  0
LWPOLYLINE
  5
A4
330
48
100
AcDbEntity
  8
1
  6
Continuous
 62
     7
100
AcDbPolyline
 90
        2
 70
     0
 43
0.5
 10
64.00799999999998
 20
-247.905
 10
75.00799999999998
 20
-247.905
  0
LWPOLYLINE
  5
A5
102
{ACAD_REACTORS
330
11B
330
11B
102
}
330
48
100
AcDbEntity
  8
10
  6
Continuous
 62
     7
100
AcDbPolyline
 90
        2
 70
     0
 43
0.5
 10
9.108
 20
-267.531
 10
9.108
 20
-253.305
  0
LWPOLYLINE
  5
A6
102
{ACAD_REACTORS
330
11B
330
11B
102
}
330
48
100
AcDbEntity
  8
10
  6
Continuous
 62
     7
100
AcDbPolyline
 90
        2
 70
     0
 43
0.5
 10
10.348
 20
-266.663
 10
12.441
 20
-267.639
  0
LWPOLYLINE
  5
A7
102
{ACAD_REACTORS
330
11B
330
11B
102
}
330
48
100
AcDbEntity
  8
10
  6
Continuous
 62
     7
100
AcDbPolyline
 90
        2
 70
     0
 43
0.5
 10
9.108
 20
-267.531
 10
10.348
 20
-266.663
  0
LWPOLYLINE
  5
A8
330
48
100
AcDbEntity
  8
10
  6
DOT_CENTER
 62
     7
100
AcDbPolyline
 90
        2
 70
     0
 43
0.25
 10
-75.613
 20
-249.905
 10
78.64699999999999
 20
-249.905
  0
LWPOLYLINE
  5
A9
330
48
100
AcDbEntity
  8
10
  6
Continuous
 62
     7
100
AcDbPolyline
 90
        2
 70
     0
 43
0.5
 10
-72.392
 20
-240.48
 10
-72.392
 20
-259.33
  0
LWPOLYLINE
  5
AA
330
48
100
AcDbEntity
  8
10
  6
Continuous
 62
     7
100
AcDbPolyline
 90
        2
 70
     0
 43
0.25
 10
-71.191
 20
-241.705
 10
-71.191
 20
-258.105
  0
LWPOLYLINE
  5
AB
330
48
100
AcDbEntity
  8
10
  6
Continuous
 62
     7
100
AcDbPolyline
 90
        2
 70
     0
 43
0.5
 10
-68.192
 20
-241.405
 10
-68.192
 20
-258.405
  0
LWPOLYLINE
  5
AC
330
48
100
AcDbEntity
  8
10
  6
Continuous
 62
     7
100
AcDbPolyline
 90
        2
 70
     0
 43
0.25
 10
-67.447
 20
-241.905
 10
-67.447
 20
-257.905
  0
LWPOLYLINE
  5
AD
330
48
100
AcDbEntity
  8
10
  6
Continuous
 62
     7
100
AcDbPolyline
 90
        2
 70
     0
 43
0.5
 10
-64.19200000000001
 20
-257.855
 10
-64.19200000000001
 20
-241.955
  0
LWPOLYLINE
  5
AE
330
48
100
AcDbEntity
  8
10
  6
Continuous
 62
     7
100
AcDbPolyline
 90
        2
 70
     0
 43
0.5
 10
-63.192
 20
-242.905
 10
-63.192
 20
-256.905
  0
LWPOLYLINE
  5
AF
330
48
100
AcDbEntity
  8
10
  6
Continuous
 62
     7
100
AcDbPolyline
 90
        2
 70
     0
 43
0.5
 10
-29.392
 20
-256.855
 10
-29.392
 20
-242.955
  0
LWPOLYLINE
  5
B0
330
48
100
AcDbEntity
  8
10
  6
DOT_CENTER
 62
     7
100
AcDbPolyline
 90
        2
 70
     0
 43
0.25
 10
-3.992
 20
-274.822
 10
-3.992
 20
-225.299
  0
LWPOLYLINE
  5
B1
330
48
100
AcDbEntity
  8
10
  6
DOT_CENTER
 62
     7
100
AcDbPolyline
 90
        2
 70
     0
 43
0.25
 10
7.108
 20
-217.401
 10
7.108
 20
-282.807
  0
LWPOLYLINE
  5
B2
330
48
100
AcDbEntity
  8
10
  6
DOT_CENTER
 62
     7
100
AcDbPolyline
 90
        2
 70
     0
 43
0.25
 10
-2.432
 20
-221.757
 10
14.31699999999999
 20
-233.485
  0
LWPOLYLINE
  5
B3
330
48
100
AcDbEntity
  8
10
  6
Continuous
 62
     7
100
AcDbPolyline
 90
        2
 70
     0
 43
0.5
 10
9.108
 20
-232.279
 10
5.108
 20
-224.594
  0
LWPOLYLINE
  5
B4
330
48
100
AcDbEntity
  8
10
  6
Continuous
 62
     7
100
AcDbPolyline
 90
        2
 70
     0
 43
0.5
 10
5.108
 20
-229.478
 10
9.108
 20
-227.395
  0
LWPOLYLINE
  5
B5
330
48
100
AcDbEntity
  8
10
  6
Continuous
 62
     7
100
AcDbPolyline
 90
        2
 70
     0
 43
0.5
 10
10.348
 20
-233.147
 10
12.642
 20
-229.87
  0
LWPOLYLINE
  5
B6
330
48
100
AcDbEntity
  8
10
  6
Continuous
 62
     7
100
AcDbPolyline
 90
        2
 70
     0
 43
0.5
 10
8.983
 20
-221.007
 10
8.983
 20
-221.78
  0
LWPOLYLINE
  5
B7
330
48
100
AcDbEntity
  8
10
  6
Continuous
 62
     7
100
AcDbPolyline
 90
        2
 70
     0
 43
0.5
 10
8.983
 20
-221.78
 10
5.233
 20
-221.78
  0
LWPOLYLINE
  5
B8
330
48
100
AcDbEntity
  8
10
  6
Continuous
 62
     7
100
AcDbPolyline
 90
        2
 70
     0
 43
0.5
 10
5.233
 20
-221.78
 10
5.233
 20
-221.007
  0
LWPOLYLINE
  5
B9
330
48
100
AcDbEntity
  8
10
  6
Continuous
 62
     7
100
AcDbPolyline
 90
        2
 70
     0
 43
0.5
 10
5.108
 20
-220.79
 10
5.233
 20
-221.007
  0
LWPOLYLINE
  5
BA
330
48
100
AcDbEntity
  8
10
  6
Continuous
 62
     7
100
AcDbPolyline
 90
        2
 70
     0
 43
0.5
 10
9.108
 20
-220.79
 10
8.983
 20
-221.007
  0
LWPOLYLINE
  5
BB
330
48
100
AcDbEntity
  8
10
  6
DOT_CENTER
 62
     7
100
AcDbPolyline
 90
        2
 70
     0
 43
0.25
 10
-3.42
 20
-278.745
 10
14.31699999999999
 20
-266.325
  0
LWPOLYLINE
  5
BC
330
48
100
AcDbEntity
  8
10
  6
Continuous
 62
     7
100
AcDbPolyline
 90
        2
 70
     0
 43
0.5
 10
5.108
 20
-270.332
 10
9.108
 20
-272.415
  0
LWPOLYLINE
  5
BD
330
48
100
AcDbEntity
  8
10
  6
Continuous
 62
     7
100
AcDbPolyline
 90
        2
 70
     0
 43
0.5
 10
9.108
 20
-267.531
 10
5.108
 20
-275.216
  0
LWPOLYLINE
  5
BE
330
48
100
AcDbEntity
  8
10
  6
Continuous
 62
     7
100
AcDbPolyline
 90
        2
 70
     0
 43
0.5
 10
10.348
 20
-266.663
 10
12.642
 20
-269.94
  0
LWPOLYLINE
  5
BF
330
48
100
AcDbEntity
  8
10
  6
Continuous
 62
     7
100
AcDbPolyline
 90
        2
 70
     0
 43
0.5
 10
8.983
 20
-278.803
 10
8.983
 20
-278.03
  0
LWPOLYLINE
  5
C0
330
48
100
AcDbEntity
  8
10
  6
Continuous
 62
     7
100
AcDbPolyline
 90
        2
 70
     0
 43
0.5
 10
8.983
 20
-278.03
 10
5.233
 20
-278.03
  0
LWPOLYLINE
  5
C1
330
48
100
AcDbEntity
  8
10
  6
Continuous
 62
     7
100
AcDbPolyline
 90
        2
 70
     0
 43
0.5
 10
5.233
 20
-278.03
 10
5.233
 20
-278.803
  0
LWPOLYLINE
  5
C2
330
48
100
AcDbEntity
  8
10
  6
Continuous
 62
     7
100
AcDbPolyline
 90
        2
 70
     0
 43
0.5
 10
5.108
 20
-279.02
 10
5.233
 20
-278.803
  0
LWPOLYLINE
  5
C3
330
48
100
AcDbEntity
  8
10
  6
Continuous
 62
     7
100
AcDbPolyline
 90
        2
 70
     0
 43
0.5
 10
9.108
 20
-279.02
 10
8.983
 20
-278.803
  0
LWPOLYLINE
  5
C4
330
48
100
AcDbEntity
  8
10
  6
Continuous
 62
     7
100
AcDbPolyline
 90
        2
 70
     0
 43
0.5
 10
-0.792
 20
-274.464
 10
-0.792
 20
-279.347
  0
LWPOLYLINE
  5
C5
330
48
100
AcDbEntity
  8
10
  6
Continuous
 62
     7
100
AcDbPolyline
 90
        2
 70
     0
 43
0.5
 10
-0.792
 20
-225.346
 10
-0.792
 20
-220.463
  0
LWPOLYLINE
  5
C6
330
48
100
AcDbEntity
  8
10
  6
Continuous
 62
     7
100
AcDbPolyline
 90
        2
 70
     0
 43
0.25
 10
-64.092
 20
-257.905
 10
-37.392
 20
-257.905
  0
LWPOLYLINE
  5
C7
330
48
100
AcDbEntity
  8
10
  6
Continuous
 62
     7
100
AcDbPolyline
 90
        2
 70
     0
 43
0.5
 10
-37.392
 20
-257.905
 10
-37.392
 20
-241.905
  0
LWPOLYLINE
  5
C8
330
48
100
AcDbEntity
  8
10
  6
Continuous
 62
     7
100
AcDbPolyline
 90
        2
 70
     0
 43
0.25
 10
-37.392
 20
-241.905
 10
-64.092
 20
-241.905
  0
LWPOLYLINE
  5
C9
102
{ACAD_REACTORS
330
11D
330
11D
102
}
330
48
100
AcDbEntity
  8
10
  6
Continuous
 62
     7
100
AcDbPolyline
 90
        2
 70
     0
 43
0.5
 10
-0.792
 20
-227.03
 10
-0.792
 20
-225.346
  0
LWPOLYLINE
  5
CA
102
{ACAD_REACTORS
330
11D
330
11D
102
}
330
48
100
AcDbEntity
  8
10
  6
Continuous
 62
     7
100
AcDbPolyline
 90
        2
 70
     0
 43
0.5
 10
-0.792
 20
-225.346
 10
5.108
 20
-229.478
  0
LWPOLYLINE
  5
CB
102
{ACAD_REACTORS
330
11D
330
11D
102
}
330
48
100
AcDbEntity
  8
10
  6
Continuous
 62
     7
100
AcDbPolyline
 90
        2
 70
     0
 43
0.5
 10
5.108
 20
-229.478
 10
5.108
 20
-246.505
  0
LWPOLYLINE
  5
CC
102
{ACAD_REACTORS
330
11D
330
11D
102
}
330
48
100
AcDbEntity
  8
10
  6
Continuous
 62
     7
100
AcDbPolyline
 90
        2
 70
     0
 43
0.5
 10
-72.192
 20
-240.826
 10
-71.37599999999999
 20
-241.298
  0
LWPOLYLINE
  5
CD
102
{ACAD_REACTORS
330
11D
330
11D
102
}
330
48
100
AcDbEntity
  8
10
  6
Continuous
 62
     7
100
AcDbPolyline
 90
        2
 70
     0
 43
0.5
 10
-70.97599999999998
 20
-241.405
 10
-68.192
 20
-241.405
  0
LWPOLYLINE
  5
CE
102
{ACAD_REACTORS
330
11D
330
11D
102
}
330
48
100
AcDbEntity
  8
10
  6
Continuous
 62
     7
100
AcDbPolyline
 90
        2
 70
     0
 43
0.5
 10
-68.192
 20
-241.405
 10
-67.44699999999997
 20
-241.205
  0
LWPOLYLINE
  5
CF
102
{ACAD_REACTORS
330
11D
330
11D
102
}
330
48
100
AcDbEntity
  8
10
  6
Continuous
 62
     7
100
AcDbPolyline
 90
        2
 70
     0
 43
0.5
 10
-67.44699999999997
 20
-241.205
 10
-64.79199999999997
 20
-241.205
  0
LWPOLYLINE
  5
D0
102
{ACAD_REACTORS
330
11D
330
11D
102
}
330
48
100
AcDbEntity
  8
10
  6
Continuous
 62
     7
100
AcDbPolyline
 90
        2
 70
     0
 43
0.5
 10
-64.19199999999998
 20
-241.805
 10
-64.19199999999998
 20
-241.905
  0
LWPOLYLINE
  5
D1
102
{ACAD_REACTORS
330
11D
330
11D
102
}
330
48
100
AcDbEntity
  8
10
  6
Continuous
 62
     7
100
AcDbPolyline
 90
        2
 70
     0
 43
0.5
 10
-63.192
 20
-242.905
 10
-64.19199999999998
 20
-241.905
  0
LWPOLYLINE
  5
D2
102
{ACAD_REACTORS
330
11D
330
11D
102
}
330
48
100
AcDbEntity
  8
10
  6
Continuous
 62
     7
100
AcDbPolyline
 90
        2
 70
     0
 43
0.5
 10
-63.192
 20
-242.905
 10
-29.39199999999997
 20
-242.905
  0
LWPOLYLINE
  5
D3
102
{ACAD_REACTORS
330
11D
330
11D
102
}
330
48
100
AcDbEntity
  8
10
  6
Continuous
 62
     7
100
AcDbPolyline
 90
        2
 70
     0
 43
0.5
 10
-29.39199999999997
 20
-242.905
 10
-27.3112000000002
 20
-246.505
  0
LWPOLYLINE
  5
D4
102
{ACAD_REACTORS
330
11D
330
11D
102
}
330
48
100
AcDbEntity
  8
10
  6
Continuous
 62
     7
100
AcDbPolyline
 90
        2
 70
     0
 43
0.5
 10
-4.498
 20
-227.754
 10
-70.68100000000001
 20
-237.406
  0
LWPOLYLINE
  5
D5
102
{ACAD_REACTORS
330
11D
330
11D
102
}
330
48
100
AcDbEntity
  8
10
  6
Continuous
 62
     7
100
AcDbPolyline
 90
        2
 70
     0
 43
0.5
 10
-72.392
 20
-239.385
 10
-72.392
 20
-240.48
  0
LWPOLYLINE
  5
D6
102
{ACAD_REACTORS
330
11D
330
11D
102
}
330
48
100
AcDbEntity
  8
10
  6
Continuous
 62
     7
100
AcDbPolyline
 90
        2
 70
     0
 43
0.5
 10
-1.792
 20
-228.03
 10
-3.467
 20
-228.03
  0
LWPOLYLINE
  5
D7
102
{ACAD_REACTORS
330
11D
330
11D
102
}
330
48
100
AcDbEntity
  8
10
  6
Continuous
 62
     7
100
AcDbPolyline
 90
        2
 70
     0
 43
0.5
 10
-3.467
 20
-228.03
 10
-4.498
 20
-227.754
  0
LWPOLYLINE
  5
D8
102
{ACAD_REACTORS
330
121
330
121
102
}
330
48
100
AcDbEntity
  8
10
  6
Continuous
 62
     7
100
AcDbPolyline
 90
        2
 70
     0
 43
0.5
 10
3.572
 20
-218.13
 10
0.208
 20
-218.13
  0
LWPOLYLINE
  5
D9
102
{ACAD_REACTORS
330
121
330
121
102
}
330
48
100
AcDbEntity
  8
10
  6
Continuous
 62
     7
100
AcDbPolyline
 90
        2
 70
     0
 43
0.5
 10
-0.792
 20
-220.463
 10
-0.792
 20
-219.13
  0
LWPOLYLINE
  5
DA
102
{ACAD_REACTORS
330
121
330
121
102
}
330
48
100
AcDbEntity
  8
10
  6
Continuous
 62
     7
100
AcDbPolyline
 90
        2
 70
     0
 43
0.5
 10
5.108
 20
-224.594
 10
-0.792
 20
-220.463
  0
LWPOLYLINE
  5
DB
102
{ACAD_REACTORS
330
121
330
121
102
}
330
48
100
AcDbEntity
  8
10
  6
Continuous
 62
     7
100
AcDbPolyline
 90
        2
 70
     0
 43
0.5
 10
3.572
 20
-218.13
 10
5.108
 20
-220.79
  0
LWPOLYLINE
  5
DC
102
{ACAD_REACTORS
330
121
330
121
102
}
330
48
100
AcDbEntity
  8
10
  6
Continuous
 62
     7
100
AcDbPolyline
 90
        2
 70
     0
 43
0.5
 10
5.108
 20
-220.79
 10
5.108
 20
-224.594
  0
LWPOLYLINE
  5
DD
102
{ACAD_REACTORS
330
11C
330
11C
102
}
330
48
100
AcDbEntity
  8
10
  6
Continuous
 62
     7
100
AcDbPolyline
 90
        2
 70
     0
 43
0.5
 10
9.108
 20
-232.279
 10
9.10800000000001
 20
-246.505
  0
LWPOLYLINE
  5
DE
102
{ACAD_REACTORS
330
11C
330
11C
102
}
330
48
100
AcDbEntity
  8
10
  6
Continuous
 62
     7
100
AcDbPolyline
 90
        2
 70
     0
 43
0.5
 10
9.108
 20
-232.279
 10
10.348
 20
-233.147
  0
LWPOLYLINE
  5
DF
102
{ACAD_REACTORS
330
11C
330
11C
102
}
330
48
100
AcDbEntity
  8
10
  6
Continuous
 62
     7
100
AcDbPolyline
 90
        2
 70
     0
 43
0.5
 10
10.348
 20
-233.147
 10
12.441
 20
-232.171
  0
LWPOLYLINE
  5
E0
102
{ACAD_REACTORS
330
11C
330
11C
102
}
330
48
100
AcDbEntity
  8
10
  6
Continuous
 62
     7
100
AcDbPolyline
 90
        2
 70
     0
 43
0.5
 10
12.441
 20
-232.171
 10
12.642
 20
-229.87
  0
LWPOLYLINE
  5
E1
102
{ACAD_REACTORS
330
11C
330
11C
102
}
330
48
100
AcDbEntity
  8
10
  6
Continuous
 62
     7
100
AcDbPolyline
 90
        2
 70
     0
 43
0.5
 10
12.642
 20
-229.87
 10
9.108
 20
-227.395
  0
LWPOLYLINE
  5
E2
102
{ACAD_REACTORS
330
11C
330
11C
102
}
330
48
100
AcDbEntity
  8
10
  6
Continuous
 62
     7
100
AcDbPolyline
 90
        2
 70
     0
 43
0.5
 10
9.108
 20
-220.79
 10
9.108
 20
-227.395
  0
LWPOLYLINE
  5
E3
102
{ACAD_REACTORS
330
11C
330
11C
102
}
330
48
100
AcDbEntity
  8
10
  6
Continuous
 62
     7
100
AcDbPolyline
 90
        2
 70
     0
 43
0.5
 10
10.644
 20
-218.13
 10
9.108
 20
-220.79
  0
LWPOLYLINE
  5
E4
102
{ACAD_REACTORS
330
11C
330
11C
102
}
330
48
100
AcDbEntity
  8
10
  6
Continuous
 62
     7
100
AcDbPolyline
 90
        2
 70
     0
 43
0.5
 10
14.108
 20
-218.13
 10
10.644
 20
-218.13
  0
LWPOLYLINE
  5
E5
102
{ACAD_REACTORS
330
11C
330
11C
102
}
330
48
100
AcDbEntity
  8
10
  6
Continuous
 62
     7
100
AcDbPolyline
 90
        2
 70
     0
 43
0.5
 10
15.108
 20
-232.716942121115
 10
15.108
 20
-219.13
  0
LWPOLYLINE
  5
E6
102
{ACAD_REACTORS
330
11A
330
11A
102
}
330
48
100
AcDbEntity
  8
10
  6
Continuous
 62
     7
100
AcDbPolyline
 90
        2
 70
     0
 43
0.5
 10
-0.792
 20
-274.464
 10
5.108
 20
-270.332
  0
LWPOLYLINE
  5
E7
102
{ACAD_REACTORS
330
11A
330
11A
102
}
330
48
100
AcDbEntity
  8
10
  6
Continuous
 62
     7
100
AcDbPolyline
 90
        2
 70
     0
 43
0.5
 10
5.108
 20
-270.332
 10
5.108
 20
-253.305
  0
LWPOLYLINE
  5
E8
102
{ACAD_REACTORS
330
11A
330
11A
102
}
330
48
100
AcDbEntity
  8
10
  6
Continuous
 62
     7
100
AcDbPolyline
 90
        2
 70
     0
 43
0.5
 10
-72.192
 20
-258.984
 10
-71.37599999999999
 20
-258.512
  0
LWPOLYLINE
  5
E9
102
{ACAD_REACTORS
330
11A
330
11A
102
}
330
48
100
AcDbEntity
  8
10
  6
Continuous
 62
     7
100
AcDbPolyline
 90
        2
 70
     0
 43
0.5
 10
-70.97599999999998
 20
-258.405
 10
-68.192
 20
-258.405
  0
LWPOLYLINE
  5
EA
102
{ACAD_REACTORS
330
11A
330
11A
102
}
330
48
100
AcDbEntity
  8
10
  6
Continuous
 62
     7
100
AcDbPolyline
 90
        2
 70
     0
 43
0.5
 10
-68.192
 20
-258.405
 10
-67.44699999999997
 20
-258.605
  0
LWPOLYLINE
  5
EB
102
{ACAD_REACTORS
330
11A
330
11A
102
}
330
48
100
AcDbEntity
  8
10
  6
Continuous
 62
     7
100
AcDbPolyline
 90
        2
 70
     0
 43
0.5
 10
-67.44699999999997
 20
-258.605
 10
-64.79199999999997
 20
-258.605
  0
LWPOLYLINE
  5
EC
102
{ACAD_REACTORS
330
11A
330
11A
102
}
330
48
100
AcDbEntity
  8
10
  6
Continuous
 62
     7
100
AcDbPolyline
 90
        2
 70
     0
 43
0.5
 10
-64.19199999999998
 20
-258.005
 10
-64.19199999999998
 20
-257.905
  0
LWPOLYLINE
  5
ED
102
{ACAD_REACTORS
330
11A
330
11A
102
}
330
48
100
AcDbEntity
  8
10
  6
Continuous
 62
     7
100
AcDbPolyline
 90
        2
 70
     0
 43
0.5
 10
-63.192
 20
-256.905
 10
-64.19199999999998
 20
-257.905
  0
LWPOLYLINE
  5
EE
102
{ACAD_REACTORS
330
11A
330
11A
102
}
330
48
100
AcDbEntity
  8
10
  6
Continuous
 62
     7
100
AcDbPolyline
 90
        2
 70
     0
 43
0.5
 10
-63.192
 20
-256.905
 10
-29.39199999999997
 20
-256.905
  0
LWPOLYLINE
  5
EF
102
{ACAD_REACTORS
330
11A
330
11A
102
}
330
48
100
AcDbEntity
  8
10
  6
Continuous
 62
     7
100
AcDbPolyline
 90
        2
 70
     0
 43
0.5
 10
-29.39199999999997
 20
-256.905
 10
-27.31120000000022
 20
-253.305
  0
LWPOLYLINE
  5
F0
102
{ACAD_REACTORS
330
11A
330
11A
102
}
330
48
100
AcDbEntity
  8
10
  6
Continuous
 62
     7
100
AcDbPolyline
 90
        2
 70
     0
 43
0.5
 10
-0.792
 20
-272.78
 10
-0.792
 20
-274.464
  0
LWPOLYLINE
  5
F1
102
{ACAD_REACTORS
330
11A
330
11A
102
}
330
48
100
AcDbEntity
  8
10
  6
Continuous
 62
     7
100
AcDbPolyline
 90
        2
 70
     0
 43
0.5
 10
-4.498
 20
-272.056
 10
-70.68100000000001
 20
-262.404
  0
LWPOLYLINE
  5
F2
102
{ACAD_REACTORS
330
11A
330
11A
102
}
330
48
100
AcDbEntity
  8
10
  6
Continuous
 62
     7
100
AcDbPolyline
 90
        2
 70
     0
 43
0.5
 10
-72.392
 20
-259.33
 10
-72.392
 20
-260.425
  0
LWPOLYLINE
  5
F3
102
{ACAD_REACTORS
330
11A
330
11A
102
}
330
48
100
AcDbEntity
  8
10
  6
Continuous
 62
     7
100
AcDbPolyline
 90
        2
 70
     0
 43
0.5
 10
-1.792
 20
-271.78
 10
-3.467
 20
-271.78
  0
LWPOLYLINE
  5
F4
102
{ACAD_REACTORS
330
11A
330
11A
102
}
330
48
100
AcDbEntity
  8
10
  6
Continuous
 62
     7
100
AcDbPolyline
 90
        2
 70
     0
 43
0.5
 10
-3.467
 20
-271.78
 10
-4.498
 20
-272.056
  0
LWPOLYLINE
  5
F5
102
{ACAD_REACTORS
330
11B
330
11B
102
}
330
48
100
AcDbEntity
  8
10
  6
Continuous
 62
     7
100
AcDbPolyline
 90
        2
 70
     0
 43
0.5
 10
9.108
 20
-279.02
 10
9.108
 20
-272.415
  0
LWPOLYLINE
  5
F6
102
{ACAD_REACTORS
330
11B
330
11B
102
}
330
48
100
AcDbEntity
  8
10
  6
Continuous
 62
     7
100
AcDbPolyline
 90
        2
 70
     0
 43
0.5
 10
10.644
 20
-281.68
 10
14.108
 20
-281.68
  0
LWPOLYLINE
  5
F7
102
{ACAD_REACTORS
330
11B
330
11B
102
}
330
48
100
AcDbEntity
  8
10
  6
Continuous
 62
     7
100
AcDbPolyline
 90
        2
 70
     0
 43
0.5
 10
10.644
 20
-281.68
 10
9.108
 20
-279.02
  0
LWPOLYLINE
  5
F8
102
{ACAD_REACTORS
330
11B
330
11B
102
}
330
48
100
AcDbEntity
  8
10
  6
Continuous
 62
     7
100
AcDbPolyline
 90
        2
 70
     0
 43
0.5
 10
12.441
 20
-267.639
 10
12.642
 20
-269.94
  0
LWPOLYLINE
  5
F9
102
{ACAD_REACTORS
330
11B
330
11B
102
}
330
48
100
AcDbEntity
  8
10
  6
Continuous
 62
     7
100
AcDbPolyline
 90
        2
 70
     0
 43
0.5
 10
12.642
 20
-269.94
 10
9.108
 20
-272.415
  0
LWPOLYLINE
  5
FA
102
{ACAD_REACTORS
330
11B
330
11B
102
}
330
48
100
AcDbEntity
  8
10
  6
Continuous
 62
     7
100
AcDbPolyline
 90
        2
 70
     0
 43
0.5
 10
15.108
 20
-280.68
 10
15.108
 20
-267.0930578788849
  0
LWPOLYLINE
  5
FB
102
{ACAD_REACTORS
330
120
330
120
102
}
330
48
100
AcDbEntity
  8
10
  6
Continuous
 62
     7
100
AcDbPolyline
 90
        2
 70
     0
 43
0.5
 10
0.208
 20
-281.68
 10
3.572
 20
-281.68
  0
LWPOLYLINE
  5
FC
102
{ACAD_REACTORS
330
120
330
120
102
}
330
48
100
AcDbEntity
  8
10
  6
Continuous
 62
     7
100
AcDbPolyline
 90
        2
 70
     0
 43
0.5
 10
3.572
 20
-281.68
 10
5.108
 20
-279.02
  0
LWPOLYLINE
  5
FD
102
{ACAD_REACTORS
330
120
330
120
102
}
330
48
100
AcDbEntity
  8
10
  6
Continuous
 62
     7
100
AcDbPolyline
 90
        2
 70
     0
 43
0.5
 10
5.108
 20
-279.02
 10
5.108
 20
-275.216
  0
LWPOLYLINE
  5
FE
102
{ACAD_REACTORS
330
120
330
120
102
}
330
48
100
AcDbEntity
  8
10
  6
Continuous
 62
     7
100
AcDbPolyline
 90
        2
 70
     0
 43
0.5
 10
5.108
 20
-275.216
 10
-0.792
 20
-279.347
  0
LWPOLYLINE
  5
FF
102
{ACAD_REACTORS
330
120
330
120
102
}
330
48
100
AcDbEntity
  8
10
  6
Continuous
 62
     7
100
AcDbPolyline
 90
        2
 70
     0
 43
0.5
 10
-0.792
 20
-279.347
 10
-0.792
 20
-280.68
  0
LWPOLYLINE
  5
100
102
{ACAD_REACTORS
330
11C
330
11C
102
}
330
48
100
AcDbEntity
  8
1
  6
Continuous
 62
     7
100
AcDbPolyline
 90
        2
 70
     0
 43
0.5
 10
48.48086248691307
 20
-246.505
 10
53.98628998953217
 20
-246.505
  0
LWPOLYLINE
  5
101
102
{ACAD_REACTORS
330
11B
330
11B
102
}
330
48
100
AcDbEntity
  8
1
  6
Continuous
 62
     7
100
AcDbPolyline
 90
        2
 70
     0
 43
0.5
 10
48.48086248691752
 20
-253.305
 10
9.108
 20
-253.305
  0
LWPOLYLINE
  5
102
330
48
100
AcDbEntity
  8
10
  6
Continuous
 62
     7
100
AcDbPolyline
 90
        2
 70
     0
 43
0.5
 10
9.108
 20
-253.305
 42
0.15749253069376
 10
5.108
 20
-253.305
 42
0.15749253069376
  0
LWPOLYLINE
  5
103
330
48
100
AcDbEntity
  8
10
  6
Continuous
 62
     7
100
AcDbPolyline
 90
        2
 70
     0
 43
0.5
 10
5.108
 20
-246.505
 42
0.15749253069376
 10
9.10800000000001
 20
-246.505
 42
0.15749253069376
  0
LWPOLYLINE
  5
104
102
{ACAD_REACTORS
330
11D
330
11D
102
}
330
48
100
AcDbEntity
  8
10
  6
Continuous
 62
     7
100
AcDbPolyline
 90
        2
 70
     0
 43
0.5
 10
-64.19199999999998
 20
-241.805
 42
0.4142135623731
 10
-64.79199999999997
 20
-241.205
 42
0.4142135623731
  0
LWPOLYLINE
  5
105
102
{ACAD_REACTORS
330
11D
330
11D
102
}
330
48
100
AcDbEntity
  8
10
  6
Continuous
 62
     7
100
AcDbPolyline
 90
        2
 70
     0
 43
0.5
 10
-71.37599999999999
 20
-241.298
 42
0.13163720378972
 10
-70.97599999999998
 20
-241.405
 42
0.13163720378972
  0
LWPOLYLINE
  5
106
102
{ACAD_REACTORS
330
11D
330
11D
102
}
330
48
100
AcDbEntity
  8
10
  6
Continuous
 62
     7
100
AcDbPolyline
 90
        2
 70
     0
 43
0.5
 10
-72.392
 20
-240.48
 42
0.26767453649963
 10
-72.192
 20
-240.826
 42
0.26767453649963
  0
LWPOLYLINE
  5
107
102
{ACAD_REACTORS
330
11D
330
11D
102
}
330
48
100
AcDbEntity
  8
10
  6
Continuous
 62
     7
100
AcDbPolyline
 90
        2
 70
     0
 43
0.5
 10
-70.68100000000001
 20
-237.406
 42
0.37235069236138
 10
-72.392
 20
-239.385
 42
0.37235069236138
  0
LWPOLYLINE
  5
108
102
{ACAD_REACTORS
330
11D
330
11D
102
}
330
48
100
AcDbEntity
  8
10
  6
Continuous
 62
     7
100
AcDbPolyline
 90
        2
 70
     0
 43
0.5
 10
-1.792
 20
-228.03
 42
0.4142135623731
 10
-0.792
 20
-227.03
 42
0.4142135623731
  0
LWPOLYLINE
  5
109
102
{ACAD_REACTORS
330
121
330
121
102
}
330
48
100
AcDbEntity
  8
10
  6
Continuous
 62
     7
100
AcDbPolyline
 90
        2
 70
     0
 43
0.5
 10
0.208
 20
-218.13
 42
0.41421356237309
 10
-0.792
 20
-219.13
 42
0.41421356237309
  0
LWPOLYLINE
  5
10A
102
{ACAD_REACTORS
330
11C
330
11C
102
}
330
48
100
AcDbEntity
  8
10
  6
Continuous
 62
     7
100
AcDbPolyline
 90
        2
 70
     0
 43
0.5
 10
15.108
 20
-219.13
 42
0.4142135623731
 10
14.108
 20
-218.13
 42
0.4142135623731
  0
LWPOLYLINE
  5
10B
102
{ACAD_REACTORS
330
11A
330
11A
102
}
330
48
100
AcDbEntity
  8
10
  6
Continuous
 62
     7
100
AcDbPolyline
 90
        2
 70
     0
 43
0.5
 10
-64.79199999999997
 20
-258.605
 42
0.4142135623731
 10
-64.19199999999998
 20
-258.005
 42
0.4142135623731
  0
LWPOLYLINE
  5
10C
102
{ACAD_REACTORS
330
11A
330
11A
102
}
330
48
100
AcDbEntity
  8
10
  6
Continuous
 62
     7
100
AcDbPolyline
 90
        2
 70
     0
 43
0.5
 10
-70.97599999999998
 20
-258.405
 42
0.13163720378972
 10
-71.37599999999999
 20
-258.512
 42
0.13163720378972
  0
LWPOLYLINE
  5
10D
102
{ACAD_REACTORS
330
11A
330
11A
102
}
330
48
100
AcDbEntity
  8
10
  6
Continuous
 62
     7
100
AcDbPolyline
 90
        2
 70
     0
 43
0.5
 10
-72.192
 20
-258.984
 42
0.26767453649963
 10
-72.392
 20
-259.33
 42
0.26767453649963
  0
LWPOLYLINE
  5
10E
102
{ACAD_REACTORS
330
11A
330
11A
102
}
330
48
100
AcDbEntity
  8
10
  6
Continuous
 62
     7
100
AcDbPolyline
 90
        2
 70
     0
 43
0.5
 10
-72.392
 20
-260.425
 42
0.37235069236139
 10
-70.68100000000001
 20
-262.404
 42
0.37235069236139
  0
LWPOLYLINE
  5
10F
102
{ACAD_REACTORS
330
11A
330
11A
102
}
330
48
100
AcDbEntity
  8
10
  6
Continuous
 62
     7
100
AcDbPolyline
 90
        2
 70
     0
 43
0.5
 10
-0.792
 20
-272.78
 42
0.4142135623731
 10
-1.792
 20
-271.78
 42
0.4142135623731
  0
LWPOLYLINE
  5
110
102
{ACAD_REACTORS
330
11B
330
11B
102
}
330
48
100
AcDbEntity
  8
10
  6
Continuous
 62
     7
100
AcDbPolyline
 90
        2
 70
     0
 43
0.5
 10
14.108
 20
-281.68
 42
0.4142135623731
 10
15.108
 20
-280.68
 42
0.4142135623731
  0
LWPOLYLINE
  5
111
102
{ACAD_REACTORS
330
120
330
120
102
}
330
48
100
AcDbEntity
  8
10
  6
Continuous
 62
     7
100
AcDbPolyline
 90
        2
 70
     0
 43
0.5
 10
-0.792
 20
-280.68
 42
0.4142135623731
 10
0.208
 20
-281.68
 42
0.4142135623731
  0
LWPOLYLINE
  5
112
102
{ACAD_REACTORS
330
11F
330
11F
102
}
330
48
100
AcDbEntity
  8
1
  6
Continuous
 62
     7
100
AcDbPolyline
 90
        2
 70
     0
 43
0.5
 10
22.48032723417724
 20
-259.1177192090199
 42
0.39139245546309
 10
15.108
 20
-267.0930578788849
 42
0.39139245546309
  0
LWPOLYLINE
  5
113
102
{ACAD_REACTORS
330
11E
330
11E
102
}
330
48
100
AcDbEntity
  8
1
  6
Continuous
 62
     7
100
AcDbPolyline
 90
        2
 70
     0
 43
0.5
 10
15.108
 20
-232.716942121115
 42
0.39139245546309
 10
22.48032723417725
 20
-240.6922807909801
 42
0.39139245546309
  0
LWPOLYLINE
  5
114
330
48
100
AcDbEntity
  8
1
  6
Continuous
 62
     7
100
AcDbPolyline
 90
        2
 70
     0
 43
0.5
 10
76.00799999999998
 20
-252.6190740033711
 42
0.31529878887898
 10
75.67901007166284
 20
-252.1492276929781
 42
0.31529878887898
  0
LWPOLYLINE
  5
115
330
48
100
AcDbEntity
  8
1
  6
Continuous
 62
     7
100
AcDbPolyline
 90
        2
 70
     0
 43
0.5
 10
75.67901007166284
 20
-247.6607723070219
 42
0.31529878887896
 10
76.00799999999998
 20
-247.190925996629
 42
0.31529878887896
  0
LWPOLYLINE
  5
116
102
{ACAD_REACTORS
330
11B
330
11B
102
}
330
48
100
AcDbEntity
  8
1
  6
Continuous
 62
     7
100
AcDbPolyline
 90
        2
 70
     0
 43
0.5
 10
75.27076727658226
 20
-254.9630214736599
 42
0.3913924554631
 10
76.00799999999998
 20
-254.1654876066734
 42
0.3913924554631
  0
LWPOLYLINE
  5
117
102
{ACAD_REACTORS
330
11C
330
11C
102
}
330
48
100
AcDbEntity
  8
1
  6
Continuous
 62
     7
100
AcDbPolyline
 90
        2
 70
     0
 43
0.5
 10
76.00799999999998
 20
-245.6445123933265
 42
0.3913924554631
 10
75.27076727658226
 20
-244.84697852634
 42
0.3913924554631
  0
MTEXT
  5
119
330
48
100
AcDbEntity
  8
10
 62
     3
100
AcDbMText
 10
69.9413540435311
 20
-241.5478616791224
 30
0.0
 40
3.506
 41
0.0
 71
     7
 72
     1
  1
 
  7
CONVERTER_14
 11
0.03924650946245607
 21
0.999229558957807
 31
0.0
 73
     1
 44
0.96038415366146
  0
HATCH
  5
11A
330
48
100
AcDbEntity
  8
1
  6
Continuous
 62
     7
100
AcDbHatch
 10
0.0
 20
0.0
 30
0.0
210
0.0
220
0.0
230
1.0
  2
CUSTOM0
 70
     0
 71
     1
 91
        1
 92
        1
 93
       21
 72
     1
 10
-27.31120000000022
 20
-253.305
 11
-29.39199999999997
 21
-256.905
 72
     1
 10
-29.39199999999997
 20
-256.905
 11
-63.192
 21
-256.905
 72
     1
 10
-63.192
 20
-256.905
 11
-64.19199999999998
 21
-257.905
 72
     1
 10
-64.19199999999998
 20
-257.905
 11
-64.19199999999998
 21
-258.005
 72
     2
 10
-64.79199999999999
 20
-258.005
 40
0.6000000000000085
 50
0.0
 51
89.99999999999865
 73
     0
 72
     1
 10
-64.79199999999997
 20
-258.605
 11
-67.44699999999997
 21
-258.605
 72
     1
 10
-67.44699999999997
 20
-258.605
 11
-68.192
 21
-258.405
 72
     1
 10
-68.192
 20
-258.405
 11
-70.97599999999998
 21
-258.405
 72
     2
 10
-70.97631126619818
 20
-259.2049999394458
 40
0.7999999999999987
 50
89.9777072001104
 51
119.9742618294094
 73
     1
 72
     1
 10
-71.37599999999999
 20
-258.512
 11
-72.192
 21
-258.984
 72
     2
 10
-71.99200021041521
 20
-259.330410282997
 40
0.400000000000005
 50
119.9999651976071
 51
179.9412312793607
 73
     1
 72
     1
 10
-72.392
 20
-259.33
 11
-72.392
 21
-260.425
 72
     2
 10
-70.39200000002305
 20
-260.4249903992114
 40
2.0
 50
180.000275042333
 51
261.6916736253478
 73
     1
 72
     1
 10
-70.68100000000001
 20
-262.404
 11
-4.498000000000001
 21
-272.056
 72
     1
 10
-4.498000000000001
 20
-272.056
 11
-3.467000000000001
 21
-271.78
 72
     1
 10
-3.467000000000001
 20
-271.78
 11
-1.792000000000002
 21
-271.78
 72
     2
 10
-1.792000000000002
 20
-272.78
 40
1.0
 50
270.0
 51
360.0
 73
     0
 72
     1
 10
-0.7920000000000016
 20
-272.78
 11
-0.7920000000000016
 21
-274.464
 72
     1
 10
-0.7920000000000016
 20
-274.464
 11
5.108000000000004
 21
-270.332
 72
     1
 10
5.108000000000004
 20
-270.332
 11
5.107999999999996
 21
-253.305
 72
     1
 10
5.107999999999996
 20
-253.305
 11
-27.31120000000022
 21
-253.305
 97
       21
330
E7
330
E6
330
F0
330
10F
330
F3
330
F4
330
F1
330
10E
330
F2
330
10D
330
E8
330
10C
330
E9
330
EA
330
EB
330
10B
330
EC
330
ED
330
EE
330
EF
330
7A
 75
     1
 76
     2
 52
45.0
 41
2.0
 77
     0
 78
     1
 53
45.0
 43
416.754780347258
 44
853.381843769567
 45
-2.82842712474619
 46
0.0000000000000002
 79
     0
 98
        1
 10
0.0
 20
0.0
  0
HATCH
  5
11B
330
48
100
AcDbEntity
  8
1
  6
Continuous
 62
     7
100
AcDbHatch
 10
0.0
 20
0.0
 30
0.0
210
0.0
220
0.0
230
1.0
  2
CUSTOM1
 70
     0
 71
     1
 91
        1
 92
        1
 93
       20
 72
     1
 10
9.108000000000002
 20
-253.305
 11
9.108000000000004
 21
-267.531
 72
     1
 10
9.108000000000004
 20
-267.531
 11
10.348
 21
-266.663
 72
     1
 10
10.348
 20
-266.663
 11
12.441
 21
-267.639
 72
     1
 10
12.441
 20
-267.639
 11
12.642
 21
-269.94
 72
     1
 10
12.642
 20
-269.94
 11
9.108000000000004
 21
-272.415
 72
     1
 10
9.108000000000004
 20
-272.415
 11
9.108000000000004
 21
-279.02
 72
     1
 10
9.108000000000004
 20
-279.02
 11
10.644
 21
-281.68
 72
     1
 10
10.644
 20
-281.68
 11
14.108
 21
-281.68
 72
     2
 10
14.108
 20
-280.68
 40
1.0
 50
270.0
 51
360.0
 73
     1
 72
     1
 10
15.108
 20
-280.68
 11
15.108
 21
-267.0930578788849
 72
     1
 10
15.108
 20
-267.0930578788849
 11
15.108
 21
-259.6979339456192
 72
     1
 10
15.108
 20
-259.6979339456192
 11
22.48032723417724
 21
-259.1177192090199
 72
     1
 10
22.48032723417724
 20
-259.1177192090199
 11
75.27076727658226
 21
-254.9630214736599
 72
     2
 10
75.20800000000001
 20
-254.1654876066734
 40
0.7999999999999736
 50
274.4999999999983
 51
360.000000000002
 73
     1
 72
     1
 10
76.00799999999998
 20
-254.1654876066734
 11
76.00799999999998
 21
-253.655
 72
     1
 10
76.00799999999998
 20
-253.655
 11
63.33001972406811
 21
-253.0792962844435
 72
     1
 10
63.33001972406811
 20
-253.0792962844435
 11
63.19970962313449
 21
-253.305
 72
     1
 10
63.19970962313449
 20
-253.305
 11
53.98628998953217
 21
-253.305
 72
     1
 10
53.98628998953217
 20
-253.305
 11
48.48086248691752
 21
-253.305
 72
     1
 10
48.48086248691752
 20
-253.305
 11
9.108000000000002
 21
-253.305
 97
       20
330
93
330
80
330
7D
330
94
330
91
330
116
330
9C
330
83
330
82
330
FA
330
110
330
F6
330
F7
330
F5
330
F9
330
F8
330
A6
330
A7
330
A5
330
101
 75
     1
 76
     2
 52
45.0
 41
2.0
 77
     0
 78
     1
 53
45.0
 43
416.754780347258
 44
853.381843769567
 45
-2.82842712474619
 46
0.0000000000000002
 79
     0
 98
        1
 10
0.0
 20
0.0
  0
HATCH
  5
11C
330
48
100
AcDbEntity
  8
1
  6
Continuous
 62
     7
100
AcDbHatch
 10
0.0
 20
0.0
 30
0.0
210
0.0
220
0.0
230
1.0
  2
CUSTOM2
 70
     0
 71
     1
 91
        1
 92
        1
 93
       20
 72
     1
 10
14.108
 20
-218.13
 11
10.644
 21
-218.13
 72
     1
 10
10.644
 20
-218.13
 11
9.108000000000004
 21
-220.79
 72
     1
 10
9.108000000000004
 20
-220.79
 11
9.108000000000004
 21
-227.395
 72
     1
 10
9.108000000000004
 20
-227.395
 11
12.642
 21
-229.87
 72
     1
 10
12.642
 20
-229.87
 11
12.441
 21
-232.171
 72
     1
 10
12.441
 20
-232.171
 11
10.348
 21
-233.147
 72
     1
 10
10.348
 20
-233.147
 11
9.108000000000004
 21
-232.279
 72
     1
 10
9.108000000000004
 20
-232.279
 11
9.108000000000006
 21
-246.505
 72
     1
 10
9.108000000000006
 20
-246.505
 11
48.48086248691307
 21
-246.505
 72
     1
 10
48.48086248691307
 20
-246.505
 11
53.98628998953217
 21
-246.505
 72
     1
 10
53.98628998953217
 20
-246.505
 11
63.19970962313449
 21
-246.505
 72
     1
 10
63.19970962313449
 20
-246.505
 11
63.33001972406807
 21
-246.7307037155563
 72
     1
 10
63.33001972406807
 20
-246.7307037155563
 11
76.00799999999998
 21
-246.155
 72
     1
 10
76.00799999999998
 20
-246.155
 11
76.00799999999998
 21
-245.6445123933265
 72
     2
 10
75.20800000000001
 20
-245.6445123933265
 40
0.7999999999999736
 50
359.999999999998
 51
445.5000000000017
 73
     1
 72
     1
 10
75.27076727658226
 20
-244.84697852634
 11
22.48032723417725
 21
-240.6922807909801
 72
     1
 10
22.48032723417725
 20
-240.6922807909801
 11
15.108
 21
-240.1120660543807
 72
     1
 10
15.108
 20
-240.1120660543807
 11
15.108
 21
-232.716942121115
 72
     1
 10
15.108
 20
-232.716942121115
 11
15.108
 21
-219.13
 72
     2
 10
14.108
 20
-219.13
 40
1.0
 50
0.0
 51
90.0
 73
     1
 97
       20
330
E5
330
85
330
84
330
A1
330
117
330
95
330
96
330
A3
330
92
330
100
330
7B
330
DD
330
DE
330
DF
330
E0
330
E1
330
E2
330
E3
330
E4
330
10A
 75
     1
 76
     2
 52
45.0
 41
2.0
 77
     0
 78
     1
 53
45.0
 43
416.754780347258
 44
853.381843769567
 45
-2.82842712474619
 46
0.0000000000000002
 79
     0
 98
        1
 10
0.0
 20
0.0
  0
HATCH
  5
11D
330
48
100
AcDbEntity
  8
1
  6
Continuous
 62
     7
100
AcDbHatch
 10
0.0
 20
0.0
 30
0.0
210
0.0
220
0.0
230
1.0
  2
CUSTOM3
 70
     0
 71
     1
 91
        1
 92
        1
 93
       21
 72
     2
 10
-70.39200000002303
 20
-239.3850096007886
 40
2.000000000000015
 50
98.30832637465261
 51
179.999724957667
 73
     1
 72
     1
 10
-72.392
 20
-239.385
 11
-72.392
 21
-240.48
 72
     2
 10
-71.99200021041521
 20
-240.479589717003
 40
0.400000000000005
 50
180.0587687206353
 51
240.0000348023909
 73
     1
 72
     1
 10
-72.192
 20
-240.826
 11
-71.37599999999999
 21
-241.298
 72
     2
 10
-70.97631126619824
 20
-240.6050000605542
 40
0.799999999999958
 50
240.0257381705931
 51
270.0222927998936
 73
     1
 72
     1
 10
-70.97599999999998
 20
-241.405
 11
-68.192
 21
-241.405
 72
     1
 10
-68.192
 20
-241.405
 11
-67.44699999999997
 21
-241.205
 72
     1
 10
-67.44699999999997
 20
-241.205
 11
-64.79199999999997
 21
-241.205
 72
     2
 10
-64.79199999999997
 20
-241.805
 40
0.5999999999999943
 50
270.0
 51
360.0
 73
     0
 72
     1
 10
-64.19199999999998
 20
-241.805
 11
-64.19199999999998
 21
-241.905
 72
     1
 10
-64.19199999999998
 20
-241.905
 11
-63.192
 21
-242.905
 72
     1
 10
-63.192
 20
-242.905
 11
-29.39199999999997
 21
-242.905
 72
     1
 10
-29.39199999999997
 20
-242.905
 11
-27.3112000000002
 21
-246.505
 72
     1
 10
-27.3112000000002
 20
-246.505
 11
5.108000000000001
 21
-246.505
 72
     1
 10
5.108000000000001
 20
-246.505
 11
5.108000000000004
 21
-229.478
 72
     1
 10
5.108000000000004
 20
-229.478
 11
-0.7920000000000016
 21
-225.346
 72
     1
 10
-0.7920000000000016
 20
-225.346
 11
-0.7920000000000016
 21
-227.03
 72
     2
 10
-1.792000000000002
 20
-227.03
 40
1.0
 50
0.0
 51
90.00000000000001
 73
     0
 72
     1
 10
-1.792000000000002
 20
-228.03
 11
-3.467000000000001
 21
-228.03
 72
     1
 10
-3.467000000000001
 20
-228.03
 11
-4.497999999999999
 21
-227.754
 72
     1
 10
-4.497999999999999
 20
-227.754
 11
-70.68100000000001
 21
-237.406
 97
       21
330
D7
330
D6
330
108
330
C9
330
CA
330
CB
330
97
330
D3
330
D2
330
D1
330
D0
330
104
330
CF
330
CE
330
CD
330
105
330
CC
330
106
330
D5
330
107
330
D4
 75
     1
 76
     2
 52
45.0
 41
2.0
 77
     0
 78
     1
 53
45.0
 43
416.754780347258
 44
853.381843769567
 45
-2.82842712474619
 46
0.0000000000000002
 79
     0
 98
        1
 10
0.0
 20
0.0
  0
HATCH
  5
11E
330
48
100
AcDbEntity
  8
1
  6
Continuous
 62
     7
100
AcDbHatch
 10
0.0
 20
0.0
 30
0.0
210
0.0
220
0.0
230
1.0
  2
_USER
 70
     0
 71
     1
 91
        1
 92
        1
 93
        3
 72
     1
 10
22.48032723417725
 20
-240.6922807909801
 11
15.108
 21
-240.1120660543807
 72
     1
 10
15.108
 20
-240.1120660543807
 11
15.108
 21
-232.716942121115
 72
     2
 10
23.10800000000004
 20
-232.716942121115
 40
8.000000000000037
 50
179.9999999999998
 51
265.4999999999998
 73
     1
 97
        3
330
84
330
85
330
113
 75
     1
 76
     0
 52
45.0
 41
2.0
 77
     0
 78
     1
 53
45.0
 43
0.0
 44
0.0
 45
-1.414213562373095
 46
1.414213562373095
 79
     0
 98
        1
 10
0.0
 20
0.0
  0
HATCH
  5
11F
330
48
100
AcDbEntity
  8
1
  6
Continuous
 62
     7
100
AcDbHatch
 10
0.0
 20
0.0
 30
0.0
210
0.0
220
0.0
230
1.0
  2
_USER
 70
     0
 71
     1
 91
        1
 92
        1
 93
        3
 72
     2
 10
23.10799999999998
 20
-267.0930578788849
 40
7.99999999999998
 50
94.4999999999999
 51
180.0
 73
     1
 72
     1
 10
15.108
 20
-267.0930578788849
 11
15.108
 21
-259.6979339456192
 72
     1
 10
15.108
 20
-259.6979339456192
 11
22.48032723417724
 21
-259.1177192090199
 97
        3
330
112
330
82
330
83
 75
     1
 76
     0
 52
45.0
 41
2.0
 77
     0
 78
     1
 53
45.0
 43
0.0
 44
0.0
 45
-1.414213562373095
 46
1.414213562373095
 79
     0
 98
        1
 10
0.0
 20
0.0
  0
HATCH
  5
120
330
48
100
AcDbEntity
  8
1
  6
Continuous
 62
     7
100
AcDbHatch
 10
0.0
 20
0.0
 30
0.0
210
0.0
220
0.0
230
1.0
  2
_USER
 70
     0
 71
     1
 91
        1
 92
        1
 93
        6
 72
     1
 10
-0.7919999999999994
 20
-279.347
 11
-0.7920000000000016
 21
-280.68
 72
     2
 10
0.2079999999999984
 20
-280.68
 40
1.0
 50
180.0
 51
270.0
 73
     1
 72
     1
 10
0.2079999999999984
 20
-281.68
 11
3.571999999999998
 21
-281.68
 72
     1
 10
3.571999999999998
 20
-281.68
 11
5.108000000000004
 21
-279.02
 72
     1
 10
5.108000000000004
 20
-279.02
 11
5.108000000000004
 21
-275.216
 72
     1
 10
5.108000000000004
 20
-275.216
 11
-0.7919999999999994
 21
-279.347
 97
        6
330
FD
330
FC
330
FB
330
111
330
FF
330
FE
 75
     1
 76
     0
 52
45.0
 41
2.0
 77
     0
 78
     1
 53
45.0
 43
0.0
 44
0.0
 45
-1.414213562373095
 46
1.414213562373095
 79
     0
 98
        1
 10
0.0
 20
0.0
  0
HATCH
  5
121
330
48
100
AcDbEntity
  8
1
  6
Continuous
 62
     7
100
AcDbHatch
 10
0.0
 20
0.0
 30
0.0
210
0.0
220
0.0
230
1.0
  2
_USER
 70
     0
 71
     1
 91
        1
 92
        1
 93
        6
 72
     1
 10
3.572000000000003
 20
-218.13
 11
5.108000000000004
 21
-220.79
 72
     1
 10
5.108000000000004
 20
-220.79
 11
5.108000000000004
 21
-224.594
 72
     1
 10
5.108000000000004
 20
-224.594
 11
-0.7920000000000016
 21
-220.463
 72
     1
 10
-0.7920000000000016
 20
-220.463
 11
-0.7919999999999972
 21
-219.13
 72
     2
 10
0.2080000000000028
 20
-219.13
 40
0.9999999999999999
 50
180.0
 51
269.9999999999999
 73
     0
 72
     1
 10
0.2080000000000011
 20
-218.13
 11
3.572000000000003
 21
-218.13
 97
        6
330
DB
330
DC
330
DA
330
D9
330
109
330
D8
 75
     1
 76
     0
 52
45.0
 41
2.0
 77
     0
 78
     1
 53
45.0
 43
0.0
 44
0.0
 45
-1.414213562373095
 46
1.414213562373095
 79
     0
 98
        1
 10
0.0
 20
0.0
  0
ENDBLK
  5
4A
330
48
100
AcDbEntity
  8
0
100
AcDbBlockEnd
  0
BLOCK
  5
12D
330
123
100
AcDbEntity
  8
0
100
AcDbBlockBegin
  2
*D3
 70
     1
 10
0.0
 20
0.0
 30
0.0
  3
*D3
  1

  0
LINE
  5
124
330
123
100
AcDbEntity
  8
1
  6
Continuous
 62
     2
100
AcDbLine
 10
88.1855443552045
 20
-247.905
 30
0.0
 11
88.1855443552045
 21
-238.221711697608
 31
0.0
  0
LINE
  5
125
330
123
100
AcDbEntity
  8
1
  6
Continuous
 62
     2
100
AcDbLine
 10
88.1855443552045
 20
-251.905
 30
0.0
 11
88.1855443552045
 21
-247.905
 31
0.0
  0
LINE
  5
126
330
123
100
AcDbEntity
  8
1
  6
Continuous
 62
     2
100
AcDbLine
 10
88.1855443552045
 20
-258.905
 30
0.0
 11
88.1855443552045
 21
-251.905
 31
0.0
  0
LINE
  5
127
330
123
100
AcDbEntity
  8
1
  6
Continuous
 62
     2
100
AcDbLine
 10
77.00799999999998
 20
-247.905
 30
0.0
 11
90.1855443552045
 21
-247.905
 31
0.0
  0
LINE
  5
128
330
123
100
AcDbEntity
  8
1
  6
Continuous
 62
     2
100
AcDbLine
 10
77.00799999999998
 20
-251.905
 30
0.0
 11
90.1855443552045
 21
-251.905
 31
0.0
  0
SOLID
  5
129
330
123
100
AcDbEntity
  8
1
 62
     2
100
AcDbTrace
 10
88.64632809676039
 20
-255.405
 30
0.0
 11
87.72476061364861
 21
-255.405
 31
0.0
 12
88.1855443552045
 22
-251.905
 32
0.0
 13
88.1855443552045
 23
-251.905
 33
0.0
  0
SOLID
  5
12A
330
123
100
AcDbEntity
  8
1
 62
     2
100
AcDbTrace
 10
87.72476061364861
 20
-244.405
 30
0.0
 11
88.64632809676039
 21
-244.405
 31
0.0
 12
88.1855443552045
 22
-247.905
 32
0.0
 13
88.1855443552045
 23
-247.905
 33
0.0
  0
MTEXT
  5
12C
330
123
100
AcDbEntity
  8
1
 62
     3
100
AcDbMText
 10
86.1855443552045
 20
-248.511711697608
 30
0.0
 40
3.5
 41
0.0
 71
     7
 72
     1
  1
\C3;%%c\C3;\C3;4\C2;\H2.45;\S^ ;\C3;
  7
CONVERTER_15
 11
0.0
 21
1.0
 31
0.0
 73
     1
 44
0.60024009603842
  0
ENDBLK
  5
12E
330
123
100
AcDbEntity
  8
0
100
AcDbBlockEnd
  0
BLOCK
  5
13A
330
131
100
AcDbEntity
  8
0
100
AcDbBlockBegin
  2
*D4
 70
     1
 10
0.0
 20
0.0
 30
0.0
  3
*D4
  1

  0
LINE
  5
132
330
131
100
AcDbEntity
  8
1
  6
Continuous
 62
     2
100
AcDbLine
 10
97.4228077773212
 20
-244.905
 30
0.0
 11
97.4228077773212
 21
-254.905
 31
0.0
  0
LINE
  5
133
330
131
100
AcDbEntity
  8
1
  6
Continuous
 62
     2
100
AcDbLine
 10
77.30799999999998
 20
-254.905
 30
0.0
 11
98.4228077773212
 21
-254.905
 31
0.0
  0
LINE
  5
134
330
131
100
AcDbEntity
  8
1
  6
Continuous
 62
     2
100
AcDbLine
 10
90.65411334356982
 20
-244.905
 30
0.0
 11
98.4228077773212
 21
-244.905
 31
0.0
  0
LINE
  5
135
330
131
100
AcDbEntity
  8
1
  6
Continuous
 62
     2
100
AcDbLine
 10
77.30799999999999
 20
-244.905
 30
0.0
 11
79.95683251134132
 21
-244.905
 31
0.0
  0
SOLID
  5
136
330
131
100
AcDbEntity
  8
1
 62
     2
100
AcDbTrace
 10
97.88359151887708
 20
-248.405
 30
0.0
 11
96.96202403576531
 21
-248.405
 31
0.0
 12
97.4228077773212
 22
-244.905
 32
0.0
 13
97.4228077773212
 23
-244.905
 33
0.0
  0
SOLID
  5
137
330
131
100
AcDbEntity
  8
1
 62
     2
100
AcDbTrace
 10
96.96202403576531
 20
-251.405
 30
0.0
 11
97.88359151887708
 21
-251.405
 31
0.0
 12
97.4228077773212
 22
-254.905
 32
0.0
 13
97.4228077773212
 23
-254.905
 33
0.0
  0
MTEXT
  5
139
330
131
100
AcDbEntity
  8
1
 62
     3
100
AcDbMText
 10
96.2228077773212
 20
-258.521283140353
 30
0.0
 40
3.5
 41
0.0
 71
     7
 72
     1
  1
\C3;%%c\C3;\C3;10\C2;\H2.45;\S^ ;\C3;
  7
CONVERTER_16
 11
0.0
 21
1.0
 31
0.0
 73
     1
 44
0.60024009603842
  0
ENDBLK
  5
13B
330
131
100
AcDbEntity
  8
0
100
AcDbBlockEnd
  0
BLOCK
  5
145
330
13E
100
AcDbEntity
  8
0
100
AcDbBlockBegin
  2
*D5
 70
     1
 10
0.0
 20
0.0
 30
0.0
  3
*D5
  1

  0
LINE
  5
13F
330
13E
100
AcDbEntity
  8
1
  6
Continuous
 62
     2
100
AcDbLine
 10
15.108
 20
-207.797734561942
 30
0.0
 11
76.00799999999998
 21
-207.797734561942
 31
0.0
  0
LINE
  5
140
330
13E
100
AcDbEntity
  8
1
  6
Continuous
 62
     2
100
AcDbLine
 10
76.00799999999998
 20
-244.3445123933265
 30
0.0
 11
76.00799999999998
 21
-206.797734561942
 31
0.0
  0
LINE
  5
141
330
13E
100
AcDbEntity
  8
1
  6
Continuous
 62
     2
100
AcDbLine
 10
15.108
 20
-217.83
 30
0.0
 11
15.108
 21
-206.797734561942
 31
0.0
  0
SOLID
  5
142
330
13E
100
AcDbEntity
  8
1
 62
     2
100
AcDbTrace
 10
72.50799999999998
 20
-208.2585183034979
 30
0.0
 11
72.50799999999998
 21
-207.3369508203861
 31
0.0
 12
76.00799999999998
 22
-207.797734561942
 32
0.0
 13
76.00799999999998
 23
-207.797734561942
 33
0.0
  0
SOLID
  5
143
330
13E
100
AcDbEntity
  8
1
 62
     2
100
AcDbTrace
 10
18.608
 20
-207.3369508203861
 30
0.0
 11
18.608
 21
-208.2585183034979
 31
0.0
 12
15.108
 22
-207.797734561942
 32
0.0
 13
15.108
 23
-207.797734561942
 33
0.0
  0
MTEXT
  5
144
330
13E
100
AcDbEntity
  8
1
 62
     3
100
AcDbMText
 10
37.3124291589105
 20
-206.247734561942
 30
0.0
 40
3.5
 41
0.0
 71
     7
 72
     1
  1
\C3;\C3;\C3;60,9\C2;\H2.45;\S^ ;\C3;
  7
CONVERTER_16
 11
0.9999999999970619
 21
2.424068405545306E-6
 31
0.0
 73
     1
 44
0.60024009603842
  0
ENDBLK
  5
146
330
13E
100
AcDbEntity
  8
0
100
AcDbBlockEnd
  0
BLOCK
  5
150
330
149
100
AcDbEntity
  8
0
100
AcDbBlockBegin
  2
*D6
 70
     1
 10
0.0
 20
0.0
 30
0.0
  3
*D6
  1

  0
LINE
  5
14A
330
149
100
AcDbEntity
  8
1
  6
Continuous
 62
     2
100
AcDbLine
 10
-3.992
 20
-198.797734561942
 30
0.0
 11
76.00799999999998
 21
-198.797734561942
 31
0.0
  0
LINE
  5
14B
330
149
100
AcDbEntity
  8
1
  6
Continuous
 62
     2
100
AcDbLine
 10
76.00799999999998
 20
-244.3445123933265
 30
0.0
 11
76.00799999999998
 21
-197.797734561942
 31
0.0
  0
LINE
  5
14C
330
149
100
AcDbEntity
  8
1
  6
Continuous
 62
     2
100
AcDbLine
 10
-3.992
 20
-223.999
 30
0.0
 11
-3.992
 21
-197.797734561942
 31
0.0
  0
SOLID
  5
14D
330
149
100
AcDbEntity
  8
1
 62
     2
100
AcDbTrace
 10
72.50799999999998
 20
-199.2585183034979
 30
0.0
 11
72.50799999999998
 21
-198.3369508203861
 31
0.0
 12
76.00799999999998
 22
-198.797734561942
 32
0.0
 13
76.00799999999998
 23
-198.797734561942
 33
0.0
  0
SOLID
  5
14E
330
149
100
AcDbEntity
  8
1
 62
     2
100
AcDbTrace
 10
-0.492
 20
-198.3369508203861
 30
0.0
 11
-0.492
 21
-199.2585183034979
 31
0.0
 12
-3.992
 22
-198.797734561942
 32
0.0
 13
-3.992
 23
-198.797734561942
 33
0.0
  0
MTEXT
  5
14F
330
149
100
AcDbEntity
  8
1
 62
     3
100
AcDbMText
 10
33.76799999999999
 20
-197.597734561942
 30
0.0
 40
3.5
 41
0.0
 71
     7
 72
     1
  1
\C3;\C3;\C3;80\C2;\H2.45;\S^ ;\C3;
  7
CONVERTER_16
 11
0.9999999999970619
 21
2.424068405545306E-6
 31
0.0
 73
     1
 44
0.60024009603842
  0
ENDBLK
  5
151
330
149
100
AcDbEntity
  8
0
100
AcDbBlockEnd
  0
BLOCK
  5
15B
330
154
100
AcDbEntity
  8
0
100
AcDbBlockBegin
  2
*D7
 70
     1
 10
0.0
 20
0.0
 30
0.0
  3
*D7
  1

  0
LINE
  5
155
330
154
100
AcDbEntity
  8
1
  6
Continuous
 62
     2
100
AcDbLine
 10
-72.392
 20
-292.637040220684
 30
0.0
 11
76.00799999999998
 21
-292.637040220684
 31
0.0
  0
LINE
  5
156
330
154
100
AcDbEntity
  8
1
  6
Continuous
 62
     2
100
AcDbLine
 10
76.00799999999998
 20
-256.205
 30
0.0
 11
76.00799999999998
 21
-293.637040220684
 31
0.0
  0
LINE
  5
157
330
154
100
AcDbEntity
  8
1
  6
Continuous
 62
     2
100
AcDbLine
 10
-72.392
 20
-261.725
 30
0.0
 11
-72.392
 21
-293.637040220684
 31
0.0
  0
SOLID
  5
158
330
154
100
AcDbEntity
  8
1
 62
     2
100
AcDbTrace
 10
-68.892
 20
-292.1762564791281
 30
0.0
 11
-68.892
 21
-293.0978239622399
 31
0.0
 12
-72.392
 22
-292.637040220684
 32
0.0
 13
-72.392
 23
-292.637040220684
 33
0.0
  0
SOLID
  5
159
330
154
100
AcDbEntity
  8
1
 62
     2
100
AcDbTrace
 10
72.50799999999998
 20
-293.0978239622399
 30
0.0
 11
72.50799999999998
 21
-292.1762564791281
 31
0.0
 12
76.00799999999998
 22
-292.637040220684
 32
0.0
 13
76.00799999999998
 23
-292.637040220684
 33
0.0
  0
MTEXT
  5
15A
330
154
100
AcDbEntity
  8
1
 62
     3
100
AcDbMText
 10
0.36556874674794
 20
-291.087040220684
 30
0.0
 40
3.5
 41
0.0
 71
     7
 72
     1
  1
\C3;\C3;\C3;148,4\C2;\H2.45;\S^ ;\C3;
  7
CONVERTER_16
 11
0.9999999999970619
 21
2.424068405545306E-6
 31
0.0
 73
     1
 44
0.60024009603842
  0
ENDBLK
  5
15C
330
154
100
AcDbEntity
  8
0
100
AcDbBlockEnd
  0
BLOCK
  5
163
330
15F
100
AcDbEntity
  8
0
100
AcDbBlockBegin
  2
*D8
 70
     1
 10
0.0
 20
0.0
 30
0.0
  3
*D8
  1

  0
LINE
  5
160
330
15F
100
AcDbEntity
  8
1
  6
Continuous
 62
     2
100
AcDbLine
 10
75.6755227957109
 20
-244.995341818292
 30
0.0
 11
88.04238323744174
 21
-227.823554735433
 31
0.0
  0
SOLID
  5
161
330
15F
100
AcDbEntity
  8
1
 62
     2
100
AcDbTrace
 10
77.34702596885555
 20
-241.885936923678
 30
0.0
 11
78.09484408503656
 21
-242.4245041813539
 31
0.0
 12
75.6755227957109
 22
-244.995341818292
 32
0.0
 13
75.6755227957109
 23
-244.995341818292
 33
0.0
  0
MTEXT
  5
162
330
15F
100
AcDbEntity
  8
1
 62
     3
100
AcDbMText
 10
80.40292908685873
 20
-235.7789076679647
 30
0.0
 40
3.5
 41
0.0
 71
     7
 72
     1
  1
\C3; R\C3;\C3;0,8\C2;\H2.45;\S^ ;\C3;
  7
CONVERTER_16
 11
0.5844034946386074
 21
0.8114632187931768
 31
0.0
 73
     1
 44
0.60024009603842
  0
ENDBLK
  5
164
330
15F
100
AcDbEntity
  8
0
100
AcDbBlockEnd
  0
BLOCK
  5
16F
330
166
100
AcDbEntity
  8
0
100
AcDbBlockBegin
  2
*D9
 70
     1
 10
0.0
 20
0.0
 30
0.0
  3
*D9
  1

  0
LINE
  5
167
330
166
100
AcDbEntity
  8
1
  6
Continuous
 62
     2
100
AcDbLine
 10
16.408
 20
-240.1120660543807
 30
0.0
 11
37.70357974892147
 21
-240.1120660543807
 31
0.0
  0
LINE
  5
168
330
166
100
AcDbEntity
  8
1
  6
Continuous
 62
     2
100
AcDbLine
 10
23.77631976803032
 20
-240.7942776154263
 30
0.0
 11
37.63392511744904
 21
-241.8848948089276
 31
0.0
  0
LINE
  5
169
330
166
100
AcDbEntity
  8
1
  6
Continuous
 62
     2
100
AcDbLine
 10
37.70357974892147
 20
-240.1120660543807
 30
0.0
 11
38.70357974892147
 21
-240.1120660543807
 31
0.0
  0
LINE
  5
16A
330
166
100
AcDbEntity
  8
1
  6
Continuous
 62
     2
100
AcDbLine
 10
37.63392511744904
 20
-241.8848948089276
 30
0.0
 11
38.63084245118217
 21
-241.9633539046554
 31
0.0
  0
ARC
  5
16B
330
166
100
AcDbEntity
  8
1
  6
Continuous
 62
     2
100
AcDbCircle
 10
15.108
 20
-240.1120660543807
 30
0.0
 40
22.59557974892147
100
AcDbArc
 50
342.1875359788878
 51
31.33265807123483
  0
SOLID
  5
16C
330
166
100
AcDbEntity
  8
1
 62
     2
100
AcDbTrace
 10
37.54536554451584
 20
-245.4139851816049
 30
0.0
 11
36.63498733845088
 21
-245.2708134391035
 31
0.0
 12
37.63392511744904
 22
-241.8848948089276
 32
0.0
 13
37.63392511744904
 23
-241.8848948089276
 33
0.0
  0
SOLID
  5
16D
330
166
100
AcDbEntity
  8
1
 62
     2
100
AcDbTrace
 10
36.97337747564902
 20
-236.6582093265198
 30
0.0
 11
37.89218241497849
 21
-236.5869063855375
 31
0.0
 12
37.70357974892147
 22
-240.1120660543807
 32
0.0
 13
37.70357974892147
 23
-240.1120660543807
 33
0.0
  0
MTEXT
  5
16E
330
166
100
AcDbEntity
  8
1
 62
     3
100
AcDbMText
 10
35.98341650799792
 20
-227.4641054666363
 30
0.0
 40
3.5
 41
0.0
 71
     7
 72
     1
  1
\C3;\C3;\C3;4,5%%d\C2;\H2.45;\S^ ;\C3;
  7
CONVERTER_16
 11
0.3875209139237353
 21
-0.9218609121075223
 31
0.0
 73
     1
 44
0.60024009603842
  0
ENDBLK
  5
170
330
166
100
AcDbEntity
  8
0
100
AcDbBlockEnd
  0
ENDSEC
  0
SECTION
  2
ENTITIES
  0
INSERT
  5
6D
330
1F
100
AcDbEntity
  8
1
100
AcDbBlockReference
  2
Urheberrecht
 10
-92.5870184188625
 20
-282.929698736965
 30
0.0
  0
INSERT
  5
6E
330
1F
100
AcDbEntity
  8
1
100
AcDbBlockReference
  2
IGS1
 10
13.935
 20
-254.105
 30
0.0
  0
POINT
  5
122
330
1F
100
AcDbEntity
  8
10
 62
   250
100
AcDbPoint
 10
-3.992
 20
-218.905
 30
0.0
  0
DIMENSION
  5
130
330
1F
100
AcDbEntity
  8
1
100
AcDbDimension
  2
*D3
 10
88.1855443552045
 20
-251.905
 30
0.0
 11
84.4355443552045
 21
-240.916711697608
 31
0.0
 70
    32
  1
<>
 71
     5
 42
-1.0
 53
90.0
  3
ME10_DIM_10
100
AcDbAlignedDimension
 13
75.00799999999998
 23
-247.905
 33
0.0
 14
75.00799999999998
 24
-251.905
 34
0.0
 50
90.0
100
AcDbRotatedDimension
  0
DIMENSION
  5
13D
330
1F
100
AcDbEntity
  8
1
100
AcDbDimension
  2
*D4
 10
97.4228077773212
 20
-244.905
 30
0.0
 11
94.4728077773212
 21
-250.086283140353
 31
0.0
 70
    32
  1
<>
 71
     5
 42
-1.0
 53
90.0
  3
ME10_DIM_11
100
AcDbAlignedDimension
 13
76.00799999999998
 23
-254.905
 33
0.0
 14
76.00799999999998
 24
-244.905
 34
0.0
 50
90.0
100
AcDbRotatedDimension
  0
DIMENSION
  5
148
330
1F
100
AcDbEntity
  8
1
100
AcDbDimension
  2
*D5
 10
76.00799999999998
 20
-207.797734561942
 30
0.0
 11
41.1624291589105
 21
-204.672734561942
 31
0.0
 70
    32
  1
<>
 71
     5
 42
-1.0
 53
0.00013888888889
  3
ME10_DIM_12
100
AcDbAlignedDimension
 13
15.108
 23
-219.13
 33
0.0
 14
76.00799999999998
 24
-245.6445123933265
 34
0.0
100
AcDbRotatedDimension
  0
DIMENSION
  5
153
330
1F
100
AcDbEntity
  8
1
100
AcDbDimension
  2
*D6
 10
76.00799999999998
 20
-198.797734561942
 30
0.0
 11
36.00799999999999
 21
-195.847734561942
 31
0.0
 70
    32
  1
<>
 71
     5
 42
-1.0
 53
0.00013888888889
  3
ME10_DIM_13
100
AcDbAlignedDimension
 13
-3.992
 23
-225.299
 33
0.0
 14
76.00799999999998
 24
-245.6445123933265
 34
0.0
100
AcDbRotatedDimension
  0
DIMENSION
  5
15E
330
1F
100
AcDbEntity
  8
1
100
AcDbDimension
  2
*D7
 10
-72.392
 20
-292.637040220684
 30
0.0
 11
5.19556874674794
 21
-289.512040220684
 31
0.0
 70
    32
  1
<>
 71
     5
 42
-1.0
 53
0.00013888888889
  3
ME10_DIM_14
100
AcDbAlignedDimension
 13
76.00799999999998
 23
-254.905
 33
0.0
 14
-72.392
 24
-260.425
 34
0.0
100
AcDbRotatedDimension
  0
INSERT
  5
165
330
1F
100
AcDbEntity
  8
1
100
AcDbBlockReference
  2
*D8
 10
0.0
 20
0.0
 30
0.0
  0
DIMENSION
  5
172
330
1F
100
AcDbEntity
  8
1
100
AcDbDimension
  2
*D9
 10
37.68615937581521
 20
-240.9991643522924
 30
0.0
 11
38.81879710727501
 21
-230.1448034834303
 31
0.0
 70
    37
  1
<>
 71
     5
 42
-1.0
  3
ME10_DIM_15
100
AcDb3PointAngularDimension
 13
22.48032723417725
 23
-240.6922807909801
 33
0.0
 14
17.36755797489215
 24
-240.1120660543806
 34
0.0
 15
15.108
 25
-240.1120660543807
 35
0.0
  0
ENDSEC
  0
SECTION
  2
OBJECTS
  0
DICTIONARY
  5
C
330
0
100
AcDbDictionary
281
     1
  3
ACAD_GROUP
350
D
  3
ACAD_LAYOUT
350
1A
  3
ACAD_MLEADERSTYLE
350
175
  3
ACAD_MLINESTYLE
350
17
  3
ACAD_PLOTSETTINGS
350
19
  3
ACAD_PLOTSTYLENAME
350
E
  3
ACAD_SCALELIST
350
4B
  3
ACAD_VISUALSTYLE
350
2A
  3
AcDbVariableDictionary
350
173
  0
DICTIONARY
  5
D
102
{ACAD_REACTORS
330
C
102
}
330
C
100
AcDbDictionary
281
     1
  0
DICTIONARY
  5
1A
102
{ACAD_REACTORS
330
C
102
}
330
C
100
AcDbDictionary
281
     1
  3
Layout1
350
1E
  3
Layout2
350
26
  3
Model
350
22
  0
DICTIONARY
  5
175
102
{ACAD_REACTORS
330
C
102
}
330
C
100
AcDbDictionary
281
     1
  0
DICTIONARY
  5
17
102
{ACAD_REACTORS
330
C
102
}
330
C
100
AcDbDictionary
281
     1
  3
Standard
350
18
  0
DICTIONARY
  5
19
102
{ACAD_REACTORS
330
C
102
}
330
C
100
AcDbDictionary
281
     1
  0
ACDBDICTIONARYWDFLT
  5
E
102
{ACAD_REACTORS
330
C
102
}
330
C
100
AcDbDictionary
281
     1
  3
Normal
350
F
100
AcDbDictionaryWithDefault
340
F
  0
DICTIONARY
  5
4B
102
{ACAD_REACTORS
330
C
102
}
330
C
100
AcDbDictionary
281
     1
  3
A0
350
4C
  3
A1
350
4D
  3
A2
350
4E
  3
A3
350
4F
  3
A4
350
50
  3
A5
350
51
  3
A6
350
52
  3
A7
350
53
  3
A8
350
54
  3
A9
350
55
  3
B0
350
56
  3
B1
350
57
  3
B2
350
58
  3
B3
350
59
  3
B4
350
5A
  3
B5
350
5B
  3
B6
350
5C
  3
B7
350
5D
  3
B8
350
5E
  3
B9
350
5F
  3
C0
350
60
  3
C1
350
61
  3
C2
350
62
  3
C3
350
63
  3
C4
350
64
  3
C5
350
65
  3
C6
350
66
  3
C7
350
67
  3
C8
350
68
  3
C9
350
69
  3
D0
350
6A
  3
D1
350
6B
  3
D2
350
6C
  0
DICTIONARY
  5
2A
102
{ACAD_REACTORS
330
C
102
}
330
C
100
AcDbDictionary
281
     1
  3
2dWireframe
350
2F
  3
3D Hidden
350
31
  3
3dWireframe
350
30
  3
Basic
350
32
  3
Brighten
350
36
  3
ColorChange
350
3A
  3
Conceptual
350
34
  3
Dim
350
35
  3
Facepattern
350
39
  3
Flat
350
2B
  3
FlatWithEdges
350
2C
  3
Gouraud
350
2D
  3
GouraudWithEdges
350
2E
  3
Linepattern
350
38
  3
Realistic
350
33
  3
Thicken
350
37
  0
DICTIONARY
  5
173
102
{ACAD_REACTORS
330
C
102
}
330
C
100
AcDbDictionary
281
     1
  3
CANNOSCALE
350
176
  0
LAYOUT
  5
1E
102
{ACAD_REACTORS
330
1A
102
}
330
1A
100
AcDbPlotSettings
  1

  2
none_device
  4

  6

 40
0.0
 41
0.0
 42
0.0
 43
0.0
 44
0.0
 45
0.0
 46
0.0
 47
0.0
 48
0.0
 49
0.0
140
0.0
141
0.0
142
1.0
143
1.0
 70
   688
 72
     0
 73
     0
 74
     5
  7

 75
    16
147
1.0
148
0.0
149
0.0
100
AcDbLayout
  1
Layout1
 70
     1
 71
     1
 10
0.0
 20
0.0
 11
12.0
 21
9.0
 12
0.0
 22
0.0
 32
0.0
 14
1.00000000000000E+20
 24
1.00000000000000E+20
 34
1.00000000000000E+20
 15
-1.00000000000000E+20
 25
-1.00000000000000E+20
 35
-1.00000000000000E+20
146
0.0
 13
0.0
 23
0.0
 33
0.0
 16
1.0
 26
0.0
 36
0.0
 17
0.0
 27
1.0
 37
0.0
 76
     0
330
1B
  0
LAYOUT
  5
26
102
{ACAD_REACTORS
330
1A
102
}
330
1A
100
AcDbPlotSettings
  1

  2
none_device
  4

  6

 40
0.0
 41
0.0
 42
0.0
 43
0.0
 44
0.0
 45
0.0
 46
0.0
 47
0.0
 48
0.0
 49
0.0
140
0.0
141
0.0
142
1.0
143
1.0
 70
   688
 72
     0
 73
     0
 74
     5
  7

 75
    16
147
1.0
148
0.0
149
0.0
100
AcDbLayout
  1
Layout2
 70
     1
 71
     2
 10
0.0
 20
0.0
 11
0.0
 21
0.0
 12
0.0
 22
0.0
 32
0.0
 14
0.0
 24
0.0
 34
0.0
 15
0.0
 25
0.0
 35
0.0
146
0.0
 13
0.0
 23
0.0
 33
0.0
 16
1.0
 26
0.0
 36
0.0
 17
0.0
 27
1.0
 37
0.0
 76
     0
330
23
  0
LAYOUT
  5
22
102
{ACAD_REACTORS
330
1A
102
}
330
1A
100
AcDbPlotSettings
  1

  2
none_device
  4

  6

 40
0.0
 41
0.0
 42
0.0
 43
0.0
 44
0.0
 45
0.0
 46
0.0
 47
0.0
 48
0.0
 49
0.0
140
0.0
141
0.0
142
1.0
143
1.0
 70
  1712
 72
     0
 73
     0
 74
     0
  7

 75
     0
147
1.0
148
0.0
149
0.0
100
AcDbLayout
  1
Model
 70
     1
 71
     0
 10
0.0
 20
0.0
 11
12.0
 21
9.0
 12
0.0
 22
0.0
 32
0.0
 14
-92.5870184188625
 24
-293.637040220684
 34
0.0
 15
98.4228077773212
 25
-194.097734561942
 35
0.0
146
0.0
 13
0.0
 23
0.0
 33
0.0
 16
1.0
 26
0.0
 36
0.0
 17
0.0
 27
1.0
 37
0.0
 76
     0
330
1F
331
29
  0
MLINESTYLE
  5
18
102
{ACAD_REACTORS
330
17
102
}
330
17
100
AcDbMlineStyle
  2
Standard
 70
     0
  3

 62
   256
 51
90.0
 52
90.0
 71
     2
 49
0.5
 62
   256
  6
BYLAYER
 49
-0.5
 62
   256
  6
BYLAYER
  0
ACDBPLACEHOLDER
  5
F
102
{ACAD_REACTORS
330
E
102
}
330
E
  0
SCALE
  5
4C
102
{ACAD_REACTORS
330
4B
102
}
330
4B
100
AcDbScale
 70
     0
300
1:1
140
1.0
141
1.0
290
     1
  0
SCALE
  5
4D
102
{ACAD_REACTORS
330
4B
102
}
330
4B
100
AcDbScale
 70
     0
300
1:2
140
1.0
141
2.0
290
     0
  0
SCALE
  5
4E
102
{ACAD_REACTORS
330
4B
102
}
330
4B
100
AcDbScale
 70
     0
300
1:4
140
1.0
141
4.0
290
     0
  0
SCALE
  5
4F
102
{ACAD_REACTORS
330
4B
102
}
330
4B
100
AcDbScale
 70
     0
300
1:5
140
1.0
141
5.0
290
     0
  0
SCALE
  5
50
102
{ACAD_REACTORS
330
4B
102
}
330
4B
100
AcDbScale
 70
     0
300
1:8
140
1.0
141
8.0
290
     0
  0
SCALE
  5
51
102
{ACAD_REACTORS
330
4B
102
}
330
4B
100
AcDbScale
 70
     0
300
1:10
140
1.0
141
10.0
290
     0
  0
SCALE
  5
52
102
{ACAD_REACTORS
330
4B
102
}
330
4B
100
AcDbScale
 70
     0
300
1:16
140
1.0
141
16.0
290
     0
  0
SCALE
  5
53
102
{ACAD_REACTORS
330
4B
102
}
330
4B
100
AcDbScale
 70
     0
300
1:20
140
1.0
141
20.0
290
     0
  0
SCALE
  5
54
102
{ACAD_REACTORS
330
4B
102
}
330
4B
100
AcDbScale
 70
     0
300
1:30
140
1.0
141
30.0
290
     0
  0
SCALE
  5
55
102
{ACAD_REACTORS
330
4B
102
}
330
4B
100
AcDbScale
 70
     0
300
1:40
140
1.0
141
40.0
290
     0
  0
SCALE
  5
56
102
{ACAD_REACTORS
330
4B
102
}
330
4B
100
AcDbScale
 70
     0
300
1:50
140
1.0
141
50.0
290
     0
  0
SCALE
  5
57
102
{ACAD_REACTORS
330
4B
102
}
330
4B
100
AcDbScale
 70
     0
300
1:100
140
1.0
141
100.0
290
     0
  0
SCALE
  5
58
102
{ACAD_REACTORS
330
4B
102
}
330
4B
100
AcDbScale
 70
     0
300
2:1
140
2.0
141
1.0
290
     0
  0
SCALE
  5
59
102
{ACAD_REACTORS
330
4B
102
}
330
4B
100
AcDbScale
 70
     0
300
4:1
140
4.0
141
1.0
290
     0
  0
SCALE
  5
5A
102
{ACAD_REACTORS
330
4B
102
}
330
4B
100
AcDbScale
 70
     0
300
8:1
140
8.0
141
1.0
290
     0
  0
SCALE
  5
5B
102
{ACAD_REACTORS
330
4B
102
}
330
4B
100
AcDbScale
 70
     0
300
10:1
140
10.0
141
1.0
290
     0
  0
SCALE
  5
5C
102
{ACAD_REACTORS
330
4B
102
}
330
4B
100
AcDbScale
 70
     0
300
100:1
140
100.0
141
1.0
290
     0
  0
SCALE
  5
5D
102
{ACAD_REACTORS
330
4B
102
}
330
4B
100
AcDbScale
 70
     0
300
1/128" = 1'-0"
140
0.0078125
141
12.0
290
     0
  0
SCALE
  5
5E
102
{ACAD_REACTORS
330
4B
102
}
330
4B
100
AcDbScale
 70
     0
300
1/64" = 1'-0"
140
0.015625
141
12.0
290
     0
  0
SCALE
  5
5F
102
{ACAD_REACTORS
330
4B
102
}
330
4B
100
AcDbScale
 70
     0
300
1/32" = 1'-0"
140
0.03125
141
12.0
290
     0
  0
SCALE
  5
60
102
{ACAD_REACTORS
330
4B
102
}
330
4B
100
AcDbScale
 70
     0
300
1/16" = 1'-0"
140
0.0625
141
12.0
290
     0
  0
SCALE
  5
61
102
{ACAD_REACTORS
330
4B
102
}
330
4B
100
AcDbScale
 70
     0
300
3/32" = 1'-0"
140
0.09375
141
12.0
290
     0
  0
SCALE
  5
62
102
{ACAD_REACTORS
330
4B
102
}
330
4B
100
AcDbScale
 70
     0
300
1/8" = 1'-0"
140
0.125
141
12.0
290
     0
  0
SCALE
  5
63
102
{ACAD_REACTORS
330
4B
102
}
330
4B
100
AcDbScale
 70
     0
300
3/16" = 1'-0"
140
0.1875
141
12.0
290
     0
  0
SCALE
  5
64
102
{ACAD_REACTORS
330
4B
102
}
330
4B
100
AcDbScale
 70
     0
300
1/4" = 1'-0"
140
0.25
141
12.0
290
     0
  0
SCALE
  5
65
102
{ACAD_REACTORS
330
4B
102
}
330
4B
100
AcDbScale
 70
     0
300
3/8" = 1'-0"
140
0.375
141
12.0
290
     0
  0
SCALE
  5
66
102
{ACAD_REACTORS
330
4B
102
}
330
4B
100
AcDbScale
 70
     0
300
1/2" = 1'-0"
140
0.5
141
12.0
290
     0
  0
SCALE
  5
67
102
{ACAD_REACTORS
330
4B
102
}
330
4B
100
AcDbScale
 70
     0
300
3/4" = 1'-0"
140
0.75
141
12.0
290
     0
  0
SCALE
  5
68
102
{ACAD_REACTORS
330
4B
102
}
330
4B
100
AcDbScale
 70
     0
300
1" = 1'-0"
140
1.0
141
12.0
290
     0
  0
SCALE
  5
69
102
{ACAD_REACTORS
330
4B
102
}
330
4B
100
AcDbScale
 70
     0
300
1-1/2" = 1'-0"
140
1.5
141
12.0
290
     0
  0
SCALE
  5
6A
102
{ACAD_REACTORS
330
4B
102
}
330
4B
100
AcDbScale
 70
     0
300
3" = 1'-0"
140
3.0
141
12.0
290
     0
  0
SCALE
  5
6B
102
{ACAD_REACTORS
330
4B
102
}
330
4B
100
AcDbScale
 70
     0
300
6" = 1'-0"
140
6.0
141
12.0
290
     0
  0
SCALE
  5
6C
102
{ACAD_REACTORS
330
4B
102
}
330
4B
100
AcDbScale
 70
     0
300
1'-0" = 1'-0"
140
12.0
141
12.0
290
     0
  0
VISUALSTYLE
  5
2F
102
{ACAD_REACTORS
330
2A
102
}
330
2A
100
AcDbVisualStyle
  2
2dWireframe
 70
     4
 71
     0
 72
     2
 73
     0
 90
        0
 40
-0.6
 41
-30.0
 62
     5
 63
     7
 74
     1
 91
        4
 64
     7
 65
   257
 75
     1
175
     1
 42
1.0
 92
        0
 66
   257
 43
1.0
 76
     1
 77
     6
 78
     2
 67
     7
 79
     5
170
     0
171
     0
290
     0
174
     0
 93
        1
 44
0.0
173
     0
291
     0
 45
0.0
1001
ACAD
1000
AcDbSavedByObjectVersion
1070
     0
  0
VISUALSTYLE
  5
31
102
{ACAD_REACTORS
330
2A
102
}
330
2A
100
AcDbVisualStyle
  2
3D Hidden
 70
     6
 71
     1
 72
     2
 73
     2
 90
        0
 40
-0.6
 41
-30.0
 62
     5
 63
     7
 74
     2
 91
        2
 64
     7
 65
   257
 75
     2
175
     1
 42
40.0
 92
        0
 66
   257
 43
1.0
 76
     1
 77
     6
 78
     2
 67
     7
 79
     3
170
     0
171
     0
290
     0
174
     0
 93
        1
 44
0.0
173
     0
291
     0
 45
0.0
1001
ACAD
1000
AcDbSavedByObjectVersion
1070
     0
  0
VISUALSTYLE
  5
30
102
{ACAD_REACTORS
330
2A
102
}
330
2A
100
AcDbVisualStyle
  2
3dWireframe
 70
     5
 71
     0
 72
     2
 73
     0
 90
        0
 40
-0.6
 41
-30.0
 62
     5
 63
     7
 74
     1
 91
        4
 64
     7
 65
   257
 75
     1
175
     1
 42
1.0
 92
        0
 66
   257
 43
1.0
 76
     1
 77
     6
 78
     2
 67
     7
 79
     5
170
     0
171
     0
290
     0
174
     0
 93
        1
 44
0.0
173
     0
291
     0
 45
0.0
1001
ACAD
1000
AcDbSavedByObjectVersion
1070
     0
  0
VISUALSTYLE
  5
32
102
{ACAD_REACTORS
330
2A
102
}
330
2A
100
AcDbVisualStyle
  2
Basic
 70
     7
 71
     1
 72
     0
 73
     1
 90
        0
 40
-0.6
 41
-30.0
 62
     5
 63
     7
 74
     0
 91
        4
 64
     7
 65
   257
 75
     1
175
     1
 42
1.0
 92
        8
 66
     7
 43
1.0
 76
     1
 77
     6
 78
     2
 67
     7
 79
     5
170
     0
171
     0
290
     0
174
     0
 93
        1
 44
0.0
173
     0
291
     1
 45
0.0
1001
ACAD
1000
AcDbSavedByObjectVersion
1070
     0
  0
VISUALSTYLE
  5
36
102
{ACAD_REACTORS
330
2A
102
}
330
2A
100
AcDbVisualStyle
  2
Brighten
 70
    12
 71
     2
 72
     2
 73
     0
 90
        0
 40
-0.6
 41
-30.0
 62
     5
 63
     7
 74
     1
 91
        4
 64
     7
 65
   257
 75
     1
175
     1
 42
1.0
 92
        8
 66
     7
 43
1.0
 76
     1
 77
     6
 78
     2
 67
     7
 79
     5
170
     0
171
     0
290
     0
174
     0
 93
        1
 44
50.0
173
     0
291
     1
 45
0.0
1001
ACAD
1000
AcDbSavedByObjectVersion
1070
     0
  0
VISUALSTYLE
  5
3A
102
{ACAD_REACTORS
330
2A
102
}
330
2A
100
AcDbVisualStyle
  2
ColorChange
 70
    16
 71
     2
 72
     2
 73
     3
 90
        0
 40
-0.6
 41
-30.0
 62
     5
 63
     8
 74
     1
 91
        4
 64
     7
 65
   257
 75
     1
175
     1
 42
1.0
 92
        8
 66
     8
 43
1.0
 76
     1
 77
     6
 78
     2
 67
     7
 79
     5
170
     0
171
     0
290
     0
174
     0
 93
        1
 44
0.0
173
     0
291
     1
 45
0.0
1001
ACAD
1000
AcDbSavedByObjectVersion
1070
     0
  0
VISUALSTYLE
  5
34
102
{ACAD_REACTORS
330
2A
102
}
330
2A
100
AcDbVisualStyle
  2
Conceptual
 70
     9
 71
     3
 72
     2
 73
     0
 90
        0
 40
-0.6
 41
-30.0
 62
     5
 63
     7
 74
     2
 91
        2
 64
     7
 65
   257
 75
     1
175
     1
 42
40.0
 92
        8
 66
     7
 43
1.0
 76
     1
 77
     6
 78
     2
 67
     7
 79
     3
170
     0
171
     0
290
     0
174
     0
 93
        1
 44
0.0
173
     0
291
     0
 45
0.0
1001
ACAD
1000
AcDbSavedByObjectVersion
1070
     0
  0
VISUALSTYLE
  5
35
102
{ACAD_REACTORS
330
2A
102
}
330
2A
100
AcDbVisualStyle
  2
Dim
 70
    11
 71
     2
 72
     2
 73
     0
 90
        0
 40
-0.6
 41
-30.0
 62
     5
 63
     7
 74
     1
 91
        4
 64
     7
 65
   257
 75
     1
175
     1
 42
1.0
 92
        8
 66
     7
 43
1.0
 76
     1
 77
     6
 78
     2
 67
     7
 79
     5
170
     0
171
     0
290
     0
174
     0
 93
        1
 44
-50.0
173
     0
291
     1
 45
0.0
1001
ACAD
1000
AcDbSavedByObjectVersion
1070
     0
  0
VISUALSTYLE
  5
39
102
{ACAD_REACTORS
330
2A
102
}
330
2A
100
AcDbVisualStyle
  2
Facepattern
 70
    15
 71
     2
 72
     2
 73
     0
 90
        0
 40
-0.6
 41
-30.0
 62
     5
 63
     7
 74
     1
 91
        4
 64
     7
 65
   257
 75
     1
175
     1
 42
1.0
 92
        8
 66
     7
 43
1.0
 76
     1
 77
     6
 78
     2
 67
     7
 79
     5
170
     0
171
     0
290
     0
174
     0
 93
        1
 44
0.0
173
     0
291
     1
 45
0.0
1001
ACAD
1000
AcDbSavedByObjectVersion
1070
     0
  0
VISUALSTYLE
  5
2B
102
{ACAD_REACTORS
330
2A
102
}
330
2A
100
AcDbVisualStyle
  2
Flat
 70
     0
 71
     2
 72
     1
 73
     1
 90
        2
 40
-0.6
 41
30.0
 62
     5
 63
     7
 74
     0
 91
        4
 64
     7
 65
   257
 75
     1
175
     1
 42
1.0
 92
        8
 66
     7
 43
1.0
 76
     1
 77
     6
 78
     2
 67
     7
 79
     5
170
     0
171
     0
290
     0
174
     0
 93
       13
 44
0.0
173
     0
291
     1
 45
0.0
1001
ACAD
1000
AcDbSavedByObjectVersion
1070
     0
  0
VISUALSTYLE
  5
2C
102
{ACAD_REACTORS
330
2A
102
}
330
2A
100
AcDbVisualStyle
  2
FlatWithEdges
 70
     1
 71
     2
 72
     1
 73
     1
 90
        2
 40
-0.6
 41
30.0
 62
     5
 63
     7
 74
     1
 91
        4
 64
     7
 65
   257
 75
     1
175
     1
 42
1.0
 92
        0
 66
   257
 43
1.0
 76
     1
 77
     6
 78
     2
 67
     7
 79
     5
170
     0
171
     0
290
     0
174
     0
 93
       13
 44
0.0
173
     0
291
     1
 45
0.0
1001
ACAD
1000
AcDbSavedByObjectVersion
1070
     0
  0
VISUALSTYLE
  5
2D
102
{ACAD_REACTORS
330
2A
102
}
330
2A
100
AcDbVisualStyle
  2
Gouraud
 70
     2
 71
     2
 72
     2
 73
     1
 90
        2
 40
-0.6
 41
30.0
 62
     5
 63
     7
 74
     0
 91
        4
 64
     7
 65
   257
 75
     1
175
     1
 42
1.0
 92
        0
 66
     7
 43
1.0
 76
     1
 77
     6
 78
     2
 67
     7
 79
     5
170
     0
171
     0
290
     0
174
     0
 93
       13
 44
0.0
173
     0
291
     1
 45
0.0
1001
ACAD
1000
AcDbSavedByObjectVersion
1070
     0
  0
VISUALSTYLE
  5
2E
102
{ACAD_REACTORS
330
2A
102
}
330
2A
100
AcDbVisualStyle
  2
GouraudWithEdges
 70
     3
 71
     2
 72
     2
 73
     1
 90
        2
 40
-0.6
 41
30.0
 62
     5
 63
     7
 74
     1
 91
        4
 64
     7
 65
   257
 75
     1
175
     1
 42
1.0
 92
        0
 66
   257
 43
1.0
 76
     1
 77
     6
 78
     2
 67
     7
 79
     5
170
     0
171
     0
290
     0
174
     0
 93
       13
 44
0.0
173
     0
291
     1
 45
0.0
1001
ACAD
1000
AcDbSavedByObjectVersion
1070
     0
  0
VISUALSTYLE
  5
38
102
{ACAD_REACTORS
330
2A
102
}
330
2A
100
AcDbVisualStyle
  2
Linepattern
 70
    14
 71
     2
 72
     2
 73
     0
 90
        0
 40
-0.6
 41
-30.0
 62
     5
 63
     7
 74
     1
 91
        4
 64
     7
 65
   257
 75
     7
175
     7
 42
1.0
 92
        8
 66
     7
 43
1.0
 76
     1
 77
     6
 78
     2
 67
     7
 79
     5
170
     0
171
     0
290
     0
174
     0
 93
        1
 44
0.0
173
     0
291
     1
 45
0.0
1001
ACAD
1000
AcDbSavedByObjectVersion
1070
     0
  0
VISUALSTYLE
  5
33
102
{ACAD_REACTORS
330
2A
102
}
330
2A
100
AcDbVisualStyle
  2
Realistic
 70
     8
 71
     2
 72
     2
 73
     0
 90
        0
 40
-0.6
 41
-30.0
 62
     5
 63
     7
 74
     1
 91
        0
 64
     7
 65
   257
 75
     1
175
     1
 42
1.0
 92
        8
 66
     8
 43
1.0
 76
     1
 77
     6
 78
     2
 67
     7
 79
     5
170
     0
171
     0
290
     0
174
     0
 93
       13
 44
0.0
173
     0
291
     0
 45
0.0
1001
ACAD
1000
AcDbSavedByObjectVersion
1070
     0
  0
VISUALSTYLE
  5
37
102
{ACAD_REACTORS
330
2A
102
}
330
2A
100
AcDbVisualStyle
  2
Thicken
 70
    13
 71
     2
 72
     2
 73
     0
 90
        0
 40
-0.6
 41
-30.0
 62
     5
 63
     7
 74
     1
 91
        4
 64
     7
 65
   257
 75
     1
175
     1
 42
1.0
 92
       12
 66
     7
 43
1.0
 76
     1
 77
     6
 78
     2
 67
     7
 79
     5
170
     0
171
     0
290
     0
174
     0
 93
        1
 44
0.0
173
     0
291
     1
 45
0.0
1001
ACAD
1000
AcDbSavedByObjectVersion
1070
     0
  0
DICTIONARYVAR
  5
176
102
{ACAD_REACTORS
330
173
102
}
330
173
100
DictionaryVariables
280
     0
  1
1:1
  0
ENDSEC
  0
EOF
